osu file format v14

[General]
AudioFilename: audio.mp3
AudioLeadIn: 0
PreviewTime: 57750
Countdown: 0
SampleSet: Soft
StackLeniency: 0.7
Mode: 3
LetterboxInBreaks: 0
SpecialStyle: 0
WidescreenStoryboard: 1

[Editor]
Bookmarks: 18044,34985,46279,60397,71691,82985,106279,116867,128161,150750,162044,173338,195451,218039
DistanceSpacing: 0.6
BeatDivisor: 16
GridSize: 32
TimelineZoom: 1.848

[Metadata]
Title:KillerToy
TitleUnicode:KillerToy
Artist:Camellia
ArtistUnicode:かめりあ
Creator:Wildcard_Chase
Version:Wind Up
Source:
Tags:U.U.F.O uufo Drumstep Electronic Instrumental SV featured artist fa cametek KamelCamellia かめるかめりあ bass hardstyle KillerBeast KillerToy かめりあ breakcore hardcore Jumpstream FAMoss
BeatmapID:3928900
BeatmapSetID:1719946

[Difficulty]
HPDrainRate:7.5
CircleSize:4
OverallDifficulty:7.5
ApproachRate:5
SliderMultiplier:1.4
SliderTickRate:1

[Events]
//Background and Video events
0,0,"skull-4221695_1920.jpg",0,0
//Break Periods
//Storyboard Layer 0 (Background)
//Storyboard Layer 1 (Fail)
//Storyboard Layer 2 (Pass)
//Storyboard Layer 3 (Foreground)
//Storyboard Layer 4 (Overlay)
//Storyboard Sound Samples

[TimingPoints]
1103,352.941176470588,4,2,1,37,1,0
1103,-111.111111111111,4,2,1,37,0,0
1455,-125,4,2,1,37,0,0
1808,-142.857142857143,4,2,1,37,0,0
6750,-100,4,2,1,37,0,0
6779,-250,4,2,1,37,0,0
6838,-100,4,2,1,37,0,0
6882,-250,4,2,1,37,0,0
6926,-100,4,2,1,37,0,0
6970,-250,4,2,1,37,0,0
7014,-100,4,2,1,37,0,0
7058,-250,4,2,1,37,0,0
7102,-125,4,2,1,37,0,0
8161,-100,4,2,1,37,0,0
8191,-250,4,2,1,37,0,0
8250,-100,4,2,1,37,0,0
8294,-250,4,2,1,37,0,0
8338,-100,4,2,1,37,0,0
8382,-250,4,2,1,37,0,0
8426,-100,4,2,1,37,0,0
8470,-250,4,2,1,37,0,0
8514,-125,4,2,1,37,0,0
9573,-100,4,2,1,37,0,0
9602,-250,4,2,1,37,0,0
9661,-100,4,2,1,37,0,0
9705,-250,4,2,1,37,0,0
9750,-100,4,2,1,37,0,0
9794,-250,4,2,1,37,0,0
9838,-100,4,2,1,37,0,0
9882,-250,4,2,1,37,0,0
9926,-125,4,2,1,37,0,0
10985,-100,4,2,1,37,0,0
11014,-250,4,2,1,37,0,0
11073,-100,4,2,1,37,0,0
11117,-250,4,2,1,37,0,0
11161,-100,4,2,1,37,0,0
11205,-250,4,2,1,37,0,0
11250,-100,4,2,1,37,0,0
11294,-250,4,2,1,37,0,0
11338,-125,4,2,1,37,0,0
12397,-100,4,2,1,37,0,0
12426,-250,4,2,1,37,0,0
12485,-100,4,2,1,37,0,0
12529,-250,4,2,1,37,0,0
12573,-100,4,2,1,37,0,0
12617,-250,4,2,1,37,0,0
12661,-100,4,2,1,37,0,0
12705,-250,4,2,1,37,0,0
12750,-125,4,2,1,37,0,0
13808,-100,4,2,1,37,0,0
13838,-250,4,2,1,37,0,0
13897,-100,4,2,1,37,0,0
13941,-250,4,2,1,37,0,0
13985,-100,4,2,1,37,0,0
14029,-250,4,2,1,37,0,0
14073,-100,4,2,1,37,0,0
14117,-250,4,2,1,37,0,0
14161,-125,4,2,1,37,0,0
15220,-100,4,2,1,37,0,0
15250,-250,4,2,1,37,0,0
15308,-100,4,2,1,37,0,0
15352,-250,4,2,1,37,0,0
15397,-100,4,2,1,37,0,0
15441,-250,4,2,1,37,0,0
15485,-100,4,2,1,37,0,0
15529,-250,4,2,1,37,0,0
15573,-125,4,2,1,37,0,0
16632,-100,4,2,1,37,0,0
16661,-250,4,2,1,37,0,0
16720,-100,4,2,1,37,0,0
16764,-250,4,2,1,37,0,0
16808,-100,4,2,1,37,0,0
16838,-250,4,2,1,37,0,0
16897,-100,4,2,1,37,0,0
16941,-250,4,2,1,37,0,0
16985,-125,4,2,1,37,0,0
18044,-66.6666666666667,4,2,1,37,0,0
18066,-200,4,2,1,37,0,0
18088,-117.647058823529,4,2,1,37,0,0
18750,-66.6666666666667,4,2,1,37,0,0
18772,-200,4,2,1,37,0,0
18794,-111.111111111111,4,2,1,37,0,0
19455,-100,4,2,1,37,0,0
19500,-250,4,2,1,37,0,0
19544,-100,4,2,1,37,0,0
19588,-250,4,2,1,37,0,0
19632,-100,4,2,1,37,0,0
19676,-250,4,2,1,37,0,0
19720,-100,4,2,1,37,0,0
19764,-250,4,2,1,37,0,0
19808,-66.6666666666667,4,2,1,37,0,0
19830,-200,4,2,1,37,0,0
19852,-111.111111111111,4,2,1,37,0,0
20161,-66.6666666666667,4,2,1,37,0,0
20183,-200,4,2,1,37,0,0
20205,-111.111111111111,4,2,1,37,0,0
20867,-66.6666666666667,4,2,1,37,0,0
20889,-200,4,2,1,37,0,0
20911,-111.111111111111,4,2,1,37,0,0
21573,-66.6666666666667,4,2,1,37,0,0
21596,-200,4,2,1,37,0,0
21617,-111.111111111111,4,2,1,37,0,0
21926,-66.6666666666667,4,2,1,37,0,0
21948,-200,4,2,1,37,0,0
21970,-111.111111111111,4,2,1,37,0,0
22279,-66.6666666666667,4,2,1,37,0,0
22301,-200,4,2,1,37,0,0
22323,-111.111111111111,4,2,1,37,0,0
22985,-66.6666666666667,4,2,1,37,0,0
23007,-200,4,2,1,37,0,0
23029,-111.111111111111,4,2,1,37,0,0
23338,-66.6666666666667,4,2,1,37,0,0
23382,-200,4,2,1,37,0,0
23426,-66.6666666666667,4,2,1,37,0,0
23470,-200,4,2,1,37,0,0
23514,-66.6666666666667,4,2,1,37,0,0
23536,-200,4,2,1,37,0,0
23558,-111.111111111111,4,2,1,37,0,0
23691,-100,4,2,1,37,0,0
23720,-250,4,2,1,37,0,0
23779,-100,4,2,1,37,0,0
23823,-250,4,2,1,37,0,0
23867,-100,4,2,1,37,0,0
23911,-250,4,2,1,37,0,0
23955,-100,4,2,1,37,0,0
24000,-250,4,2,1,37,0,0
24044,-111.111111111111,4,2,1,37,0,0
24397,-66.6666666666667,4,2,1,37,0,0
24419,-200,4,2,1,37,0,0
24441,-111.111111111111,4,2,1,37,0,0
25455,-66.6666666666667,4,2,1,37,0,0
25477,-200,4,2,1,37,0,0
25500,-111.111111111111,4,2,1,37,0,0
25808,-66.6666666666667,4,2,1,37,0,0
25830,-200,4,2,1,37,0,0
25852,-111.111111111111,4,2,1,37,0,0
26514,-66.6666666666667,4,2,1,37,0,0
26536,-200,4,2,1,37,0,0
26558,-111.111111111111,4,2,1,37,0,0
27220,-66.6666666666667,4,2,1,37,0,0
27242,-200,4,2,1,37,0,0
27264,-111.111111111111,4,2,1,37,0,0
27926,-100,4,2,1,37,0,0
27970,-250,4,2,1,37,0,0
28014,-100,4,2,1,37,0,0
28058,-250,4,2,1,37,0,0
28102,-100,4,2,1,37,0,0
28147,-250,4,2,1,37,0,0
28191,-100,4,2,1,37,0,0
28235,-250,4,2,1,37,0,0
28279,-66.6666666666667,4,2,1,37,0,0
28301,-200,4,2,1,37,0,0
28323,-111.111111111111,4,2,1,37,0,0
28632,-66.6666666666667,4,2,1,37,0,0
28654,-200,4,2,1,37,0,0
28676,-111.111111111111,4,2,1,37,0,0
28985,-66.6666666666667,4,2,1,37,0,0
29029,-200,4,2,1,37,0,0
29073,-66.6666666666667,4,2,1,37,0,0
29117,-200,4,2,1,37,0,0
29161,-66.6666666666667,4,2,1,37,0,0
29183,-200,4,2,1,37,0,0
29205,-111.111111111111,4,2,1,37,0,0
29338,-50,4,2,1,37,0,0
29360,-200,4,2,1,37,0,0
29382,-100,4,2,1,37,0,0
29691,-125,4,2,1,37,0,0
31102,-66.6666666666667,4,2,1,37,0,0
31125,-200,4,2,1,37,0,0
31147,-125,4,2,1,37,0,0
31985,-66.6666666666667,4,2,1,37,0,0
32007,-200,4,2,1,37,0,0
32029,-125,4,2,1,37,0,0
32161,-50,4,2,1,37,0,0
32183,-200,4,2,1,37,0,0
32205,-125,4,2,1,37,0,0
33926,-66.6666666666667,4,2,1,37,0,0
33948,-200,4,2,1,37,0,0
33970,-125,4,2,1,37,0,0
34455,-66.6666666666667,4,2,1,37,0,0
34477,-200,4,2,1,37,0,0
34500,-125,4,2,1,37,0,0
34632,-66.6666666666667,4,2,1,37,0,0
34654,-200,4,2,1,37,0,0
34676,-125,4,2,1,37,0,0
34720,-66.6666666666667,4,2,1,37,0,0
34742,-200,4,2,1,37,0,0
34764,-125,4,2,1,37,0,0
34808,-66.6666666666667,4,2,1,37,0,0
34830,-200,4,2,1,37,0,0
34852,-125,4,2,1,37,0,0
34985,-50,4,2,1,37,0,0
35007,-200,4,2,1,37,0,0
35029,-105.263157894737,4,2,1,37,0,0
37632,-66.6666666666667,4,2,1,37,0,0
37654,-200,4,2,1,37,0,0
37676,-66.6666666666667,4,2,1,37,0,0
37698,-200,4,2,1,37,0,0
37720,-66.6666666666667,4,2,1,37,0,0
37742,-200,4,2,1,37,0,0
37764,-66.6666666666667,4,2,1,37,0,0
37786,-200,4,2,1,37,0,0
37808,-50,4,2,1,37,0,0
37830,-10000,4,2,1,37,0,0
37852,-105.263157894737,4,2,1,37,0,0
40455,-66.6666666666667,4,2,1,37,0,0
40477,-200,4,2,1,37,0,0
40500,-66.6666666666667,4,2,1,37,0,0
40522,-200,4,2,1,37,0,0
40544,-66.6666666666667,4,2,1,37,0,0
40566,-200,4,2,1,37,0,0
40588,-66.6666666666667,4,2,1,37,0,0
40610,-200,4,2,1,37,0,0
40632,-50,4,2,1,37,0,0
40654,-10000,4,2,1,37,0,0
40676,-105.263157894737,4,2,1,37,0,0
43279,-66.6666666666667,4,2,1,37,0,0
43301,-200,4,2,1,37,0,0
43323,-66.6666666666667,4,2,1,37,0,0
43345,-200,4,2,1,37,0,0
43367,-66.6666666666667,4,2,1,37,0,0
43389,-200,4,2,1,37,0,0
43411,-66.6666666666667,4,2,1,37,0,0
43433,-200,4,2,1,37,0,0
43455,-50,4,2,1,37,0,0
43477,-10000,4,2,1,37,0,0
43500,-105.263157894737,4,2,1,37,0,0
43632,-83.3333333333333,4,2,1,37,0,0
43654,-125,4,2,1,37,0,0
43676,-100,4,2,1,37,0,0
43720,-80,4,2,1,37,0,0
43742,-133.333333333333,4,2,1,37,0,0
43764,-100,4,2,1,37,0,0
43808,-76.9230769230769,4,2,1,37,0,0
43830,-142.857142857143,4,2,1,37,0,0
43852,-100,4,2,1,37,0,0
43897,-74.0740740740741,4,2,1,37,0,0
43919,-153.846153846154,4,2,1,37,0,0
43941,-100,4,2,1,37,0,0
43985,-71.4285714285714,4,2,1,37,0,0
44007,-166.666666666667,4,2,1,37,0,0
44029,-100,4,2,1,37,0,0
44073,-68.9655172413793,4,2,1,37,0,0
44095,-181.818181818182,4,2,1,37,0,0
44117,-100,4,2,1,37,0,0
44161,-66.6666666666667,4,2,1,37,0,0
44183,-200,4,2,1,37,0,0
44205,-100,4,2,1,37,0,0
44250,-64.5161290322581,4,2,1,37,0,0
44272,-222.222222222222,4,2,1,37,0,0
44294,-100,4,2,1,37,0,0
44338,-62.5,4,2,1,37,0,0
44360,-250,4,2,1,37,0,0
44382,-100,4,2,1,37,0,0
44426,-60.6060606060606,4,2,1,37,0,0
44448,-285.714285714286,4,2,1,37,0,0
44470,-100,4,2,1,37,0,0
44514,-58.8235294117647,4,2,1,37,0,0
44536,-333.333333333333,4,2,1,37,0,0
44558,-100,4,2,1,37,0,0
44602,-57.1428571428571,4,2,1,37,0,0
44625,-400,4,2,1,37,0,0
44647,-100,4,2,1,37,0,0
44691,-55.5555555555556,4,2,1,37,0,0
44713,-500,4,2,1,37,0,0
44735,-100,4,2,1,37,0,0
44779,-54.054054054054,4,2,1,37,0,0
44801,-666.666666666667,4,2,1,37,0,0
44823,-100,4,2,1,37,0,0
44867,-50,4,2,1,37,0,0
44889,-10000,4,2,1,37,0,0
44911,-100,4,2,1,37,0,0
46279,-66.6666666666667,4,2,1,37,0,0
46323,-200,4,2,1,37,0,0
46367,-100,4,2,1,37,0,0
46455,-66.6666666666667,4,2,1,37,0,0
46477,-200,4,2,1,37,0,0
46500,-100,4,2,1,37,0,0
46632,-66.6666666666667,4,2,1,37,0,0
46676,-200,4,2,1,37,0,0
46720,-100,4,2,1,37,0,0
46808,-66.6666666666667,4,2,1,37,0,0
46830,-200,4,2,1,37,0,0
46852,-100,4,2,1,37,0,0
46985,-66.6666666666667,4,2,1,37,0,0
47029,-200,4,2,1,37,0,0
47073,-100,4,2,1,37,0,0
47161,-66.6666666666667,4,2,1,37,0,0
47183,-200,4,2,1,37,0,0
47205,-100,4,2,1,37,0,0
47338,-66.6666666666667,4,2,1,37,0,0
47382,-200,4,2,1,37,0,0
47426,-100,4,2,1,37,0,0
47514,-66.6666666666667,4,2,1,37,0,0
47536,-200,4,2,1,37,0,0
47558,-100,4,2,1,37,0,0
47691,-62.5,4,2,1,37,0,0
47735,-250,4,2,1,37,0,0
47779,-100,4,2,1,37,0,0
47867,-66.6666666666667,4,2,1,37,0,0
47889,-200,4,2,1,37,0,0
47911,-100,4,2,1,37,0,0
48044,-60.6060606060606,4,2,1,37,0,0
48088,-222.222222222222,4,2,1,37,0,0
48132,-100,4,2,1,37,0,0
48220,-66.6666666666667,4,2,1,37,0,0
48242,-200,4,2,1,37,0,0
48264,-100,4,2,1,37,0,0
48397,-58.8235294117647,4,2,1,37,0,0
48441,-333.333333333333,4,2,1,37,0,0
48485,-100,4,2,1,37,0,0
48573,-66.6666666666667,4,2,1,37,0,0
48595,-200,4,2,1,37,0,0
48617,-100,4,2,1,37,0,0
48750,-57.1428571428571,4,2,1,37,0,0
48794,-400,4,2,1,37,0,0
48838,-100,4,2,1,37,0,0
48926,-66.6666666666667,4,2,1,37,0,0
48948,-200,4,2,1,37,0,0
48970,-66.6666666666667,4,2,1,37,0,0
48992,-200,4,2,1,37,0,0
49014,-66.6666666666667,4,2,1,37,0,0
49036,-200,4,2,1,37,0,0
49058,-66.6666666666667,4,2,1,37,0,0
49080,-200,4,2,1,37,0,0
49102,-55.5555555555556,4,2,1,37,0,0
49147,-500,4,2,1,37,0,0
49191,-100,4,2,1,37,0,0
49279,-66.6666666666667,4,2,1,37,0,0
49301,-200,4,2,1,37,0,0
49323,-100,4,2,1,37,0,0
49455,-54.054054054054,4,2,1,37,0,0
49500,-666.666666666667,4,2,1,37,0,0
49544,-100,4,2,1,37,0,0
49632,-66.6666666666667,4,2,1,37,0,0
49654,-200,4,2,1,37,0,0
49676,-100,4,2,1,37,0,0
49808,-52.6315789473684,4,2,1,37,0,0
49852,-1000,4,2,1,37,0,0
49897,-100,4,2,1,37,0,0
49985,-66.6666666666667,4,2,1,37,0,0
50007,-200,4,2,1,37,0,0
50029,-100,4,2,1,37,0,0
50161,-51.2820512820513,4,2,1,37,0,0
50205,-2000,4,2,1,37,0,0
50250,-100,4,2,1,37,0,0
50338,-66.6666666666667,4,2,1,37,0,0
50360,-200,4,2,1,37,0,0
50382,-100,4,2,1,37,0,0
50514,-50,4,2,1,37,0,0
50558,-10000,4,2,1,37,0,0
50602,-100,4,2,1,37,0,0
50691,-66.6666666666667,4,2,1,37,0,0
50713,-200,4,2,1,37,0,0
50735,-100,4,2,1,37,0,0
50867,-50,4,2,1,37,0,0
50911,-10000,4,2,1,37,0,0
50955,-100,4,2,1,37,0,0
51044,-66.6666666666667,4,2,1,37,0,0
51066,-200,4,2,1,37,0,0
51088,-100,4,2,1,37,0,0
51220,-50,4,2,1,37,0,0
51264,-10000,4,2,1,37,0,0
51308,-100,4,2,1,37,0,0
51397,-66.6666666666667,4,2,1,37,0,0
51419,-200,4,2,1,37,0,0
51441,-100,4,2,1,37,0,0
51573,-50,4,2,1,37,0,0
51617,-10000,4,2,1,37,0,0
51661,-100,4,2,1,37,0,0
51750,-66.6666666666667,4,2,1,37,0,0
51772,-200,4,2,1,37,0,0
51794,-66.6666666666667,4,2,1,37,0,0
51816,-200,4,2,1,37,0,0
51838,-66.6666666666667,4,2,1,37,0,0
51860,-200,4,2,1,37,0,0
51882,-66.6666666666667,4,2,1,37,0,0
51904,-200,4,2,1,37,0,0
51926,-66.6666666666667,4,2,1,37,0,0
51970,-200,4,2,1,37,0,0
52014,-66.6666666666667,4,2,1,37,0,0
52058,-200,4,2,1,37,0,0
52102,-66.6666666666667,4,2,1,37,0,0
52147,-200,4,2,1,37,0,0
52191,-66.6666666666667,4,2,1,37,0,0
52235,-200,4,2,1,37,0,0
52279,-66.6666666666667,4,2,1,37,0,0
52323,-200,4,2,1,37,0,0
52367,-66.6666666666667,4,2,1,37,0,0
52411,-200,4,2,1,37,0,0
52455,-62.5,4,2,1,37,0,0
52500,-250,4,2,1,37,0,0
52544,-62.5,4,2,1,37,0,0
52588,-250,4,2,1,37,0,0
52632,-62.5,4,2,1,37,0,0
52676,-250,4,2,1,37,0,0
52720,-62.5,4,2,1,37,0,0
52764,-250,4,2,1,37,0,0
52808,-62.5,4,2,1,37,0,0
52852,-250,4,2,1,37,0,0
52897,-62.5,4,2,1,37,0,0
52941,-250,4,2,1,37,0,0
52985,-58.8235294117647,4,2,1,37,0,0
53029,-333.333333333333,4,2,1,37,0,0
53073,-58.8235294117647,4,2,1,37,0,0
53117,-333.333333333333,4,2,1,37,0,0
53161,-58.8235294117647,4,2,1,37,0,0
53205,-333.333333333333,4,2,1,37,0,0
53250,-58.8235294117647,4,2,1,37,0,0
53294,-333.333333333333,4,2,1,37,0,0
53338,-58.8235294117647,4,2,1,37,0,0
53382,-333.333333333333,4,2,1,37,0,0
53426,-58.8235294117647,4,2,1,37,0,0
53470,-333.333333333333,4,2,1,37,0,0
53514,-55.5555555555556,4,2,1,37,0,0
53558,-500,4,2,1,37,0,0
53602,-55.5555555555556,4,2,1,37,0,0
53647,-500,4,2,1,37,0,0
53691,-55.5555555555556,4,2,1,37,0,0
53735,-500,4,2,1,37,0,0
53779,-55.5555555555556,4,2,1,37,0,0
53823,-500,4,2,1,37,0,0
53867,-55.5555555555556,4,2,1,37,0,0
53911,-500,4,2,1,37,0,0
53955,-55.5555555555556,4,2,1,37,0,0
54000,-500,4,2,1,37,0,0
54044,-52.6315789473684,4,2,1,37,0,0
54088,-1000,4,2,1,37,0,0
54132,-52.6315789473684,4,2,1,37,0,0
54176,-1000,4,2,1,37,0,0
54220,-52.6315789473684,4,2,1,37,0,0
54264,-1000,4,2,1,37,0,0
54308,-52.6315789473684,4,2,1,37,0,0
54352,-1000,4,2,1,37,0,0
54397,-52.6315789473684,4,2,1,37,0,0
54441,-1000,4,2,1,37,0,0
54485,-52.6315789473684,4,2,1,37,0,0
54529,-1000,4,2,1,37,0,0
54573,-50,4,2,1,37,0,0
54617,-10000,4,2,1,37,0,0
54661,-50,4,2,1,37,0,0
54705,-10000,4,2,1,37,0,0
54750,-66.6666666666667,4,2,1,37,0,0
54772,-200,4,2,1,37,0,0
54794,-66.6666666666667,4,2,1,37,0,0
54816,-200,4,2,1,37,0,0
54838,-66.6666666666667,4,2,1,37,0,0
54860,-200,4,2,1,37,0,0
54882,-66.6666666666667,4,2,1,37,0,0
54904,-200,4,2,1,37,0,0
54926,-100,4,2,1,37,0,0
55102,-57.1428571428571,4,2,1,37,0,0
55125,-400,4,2,1,37,0,0
55147,-57.1428571428571,4,2,1,37,0,0
55169,-400,4,2,1,37,0,0
55191,-57.1428571428571,4,2,1,37,0,0
55213,-400,4,2,1,37,0,0
55235,-57.1428571428571,4,2,1,37,0,0
55257,-400,4,2,1,37,0,0
55279,-100,4,2,1,37,0,0
55455,-50,4,2,1,37,0,0
55477,-10000,4,2,1,37,0,0
55500,-50,4,2,1,37,0,0
55522,-10000,4,2,1,37,0,0
55544,-50,4,2,1,37,0,0
55566,-10000,4,2,1,37,0,0
55588,-50,4,2,1,37,0,0
55610,-10000,4,2,1,37,0,0
55632,-100,4,2,1,37,0,0
55808,-44.4444444444445,4,2,1,37,0,0
55830,-10000,4,2,1,37,0,0
55852,-44.4444444444445,4,2,1,37,0,0
55875,-10000,4,2,1,37,0,0
55897,-44.4444444444445,4,2,1,37,0,0
55919,-10000,4,2,1,37,0,0
55941,-44.4444444444445,4,2,1,37,0,0
55963,-10000,4,2,1,37,0,0
55985,-100,4,2,1,37,0,0
57573,-50,4,2,1,37,0,0
57617,-10000,4,2,1,37,0,0
57661,-100,4,2,1,37,0,0
57750,-50,4,2,1,37,0,0
57794,-10000,4,2,1,37,0,0
57838,-100,4,2,1,37,0,0
57926,-50,4,2,1,37,0,0
57970,-10000,4,2,1,37,0,0
58014,-100,4,2,1,37,0,0
58102,-50,4,2,1,37,0,0
58147,-10000,4,2,1,37,0,0
58191,-50,4,2,1,37,0,0
58235,-10000,4,2,1,37,0,0
58279,-50,4,2,1,37,0,0
58323,-10000,4,2,1,37,0,0
58367,-100,4,2,1,37,0,0
58455,-50,4,2,1,37,0,0
58500,-10000,4,2,1,37,0,0
58544,-50,4,2,1,37,0,0
58588,-10000,4,2,1,37,0,0
58632,-50,4,2,1,37,0,0
58676,-10000,4,2,1,37,0,0
58720,-100,4,2,1,37,0,0
58808,-50,4,2,1,37,0,0
58852,-10000,4,2,1,37,0,0
58897,-100,4,2,1,37,0,0
58985,-50,4,2,1,37,0,0
59029,-10000,4,2,1,37,0,0
59073,-100,4,2,1,37,0,0
59161,-50,4,2,1,37,0,0
59205,-10000,4,2,1,37,0,0
59250,-100,4,2,1,37,0,0
59338,-66.6666666666667,4,2,1,37,0,0
59360,-200,4,2,1,37,0,0
59382,-66.6666666666667,4,2,1,37,0,0
59404,-200,4,2,1,37,0,0
59426,-62.5,4,2,1,37,0,0
59448,-250,4,2,1,37,0,0
59470,-62.5,4,2,1,37,0,0
59492,-250,4,2,1,37,0,0
59514,-58.8235294117647,4,2,1,37,0,0
59536,-333.333333333333,4,2,1,37,0,0
59558,-58.8235294117647,4,2,1,37,0,0
59580,-333.333333333333,4,2,1,37,0,0
59602,-55.5555555555556,4,2,1,37,0,0
59625,-333.333333333333,4,2,1,37,0,0
59647,-55.5555555555556,4,2,1,37,0,0
59669,-333.333333333333,4,2,1,37,0,0
59691,-52.6315789473684,4,2,1,37,0,0
59713,-1000,4,2,1,37,0,0
59735,-52.6315789473684,4,2,1,37,0,0
59757,-1000,4,2,1,37,0,0
59779,-50,4,2,1,37,0,0
59801,-10000,4,2,1,37,0,0
59823,-50,4,2,1,37,0,0
59845,-10000,4,2,1,37,0,0
59867,-50,4,2,1,37,0,0
59889,-10000,4,2,1,37,0,0
59911,-50,4,2,1,37,0,0
59933,-10000,4,2,1,37,0,0
59955,-50,4,2,1,37,0,0
59977,-10000,4,2,1,37,0,0
60000,-50,4,2,1,37,0,0
60022,-10000,4,2,1,37,0,0
60044,-50,4,2,1,37,0,0
60132,-10000,4,2,1,37,0,0
60220,-100,4,2,1,37,0,0
60397,-50,4,2,1,37,0,0
60419,-769.230769230769,4,2,1,37,0,0
60485,-100,4,2,1,37,0,0
60573,-58.8235294117647,4,2,1,37,0,0
60661,-333.333333333333,4,2,1,37,0,0
60750,-58.8235294117647,4,2,1,37,0,0
60838,-333.333333333333,4,2,1,37,0,0
60926,-50,4,2,1,37,0,0
60948,-10000,4,2,1,37,0,0
60970,-100,4,2,1,37,0,0
61014,-50,4,2,1,37,0,0
61036,-10000,4,2,1,37,0,0
61058,-100,4,2,1,37,0,0
61102,-26.3157894736842,4,2,1,37,0,0
61125,-10000,4,2,1,37,0,0
61191,-100,4,2,1,37,0,0
61279,-50,4,2,1,37,0,0
61301,-10000,4,2,1,37,0,0
61323,-100,4,2,1,37,0,0
61367,-50,4,2,1,37,0,0
61389,-10000,4,2,1,37,0,0
61411,-100,4,2,1,37,0,0
61455,-26.3157894736842,4,2,1,37,0,0
61477,-10000,4,2,1,37,0,0
61544,-100,4,2,1,37,0,0
61632,-50,4,2,1,37,0,0
61654,-769.230769230769,4,2,1,37,0,0
61720,-100,4,2,1,37,0,0
61808,-33.3333333333333,4,2,1,37,0,0
61852,-714.285714285714,4,2,1,37,0,0
61985,-58.8235294117647,4,2,1,37,0,0
62073,-333.333333333333,4,2,1,37,0,0
62161,-58.8235294117647,4,2,1,37,0,0
62250,-333.333333333333,4,2,1,37,0,0
62338,-50,4,2,1,37,0,0
62360,-10000,4,2,1,37,0,0
62382,-100,4,2,1,37,0,0
62426,-50,4,2,1,37,0,0
62448,-10000,4,2,1,37,0,0
62470,-100,4,2,1,37,0,0
62514,-26.3157894736842,4,2,1,37,0,0
62536,-10000,4,2,1,37,0,0
62602,-100,4,2,1,37,0,0
62691,-50,4,2,1,37,0,0
62713,-10000,4,2,1,37,0,0
62735,-100,4,2,1,37,0,0
62779,-50,4,2,1,37,0,0
62801,-10000,4,2,1,37,0,0
62823,-100,4,2,1,37,0,0
62867,-52.6315789473684,4,2,1,37,0,0
62955,-1000,4,2,1,37,0,0
63044,-52.6315789473684,4,2,1,37,0,0
63066,-1000,4,2,1,37,0,0
63088,-55.5555555555556,4,2,1,37,0,0
63110,-500,4,2,1,37,0,0
63132,-58.8235294117647,4,2,1,37,0,0
63154,-333.333333333333,4,2,1,37,0,0
63176,-62.5,4,2,1,37,0,0
63198,-250,4,2,1,37,0,0
63220,-33.3333333333333,4,2,1,37,0,0
63264,-714.285714285714,4,2,1,37,0,0
63397,-58.8235294117647,4,2,1,37,0,0
63485,-333.333333333333,4,2,1,37,0,0
63573,-58.8235294117647,4,2,1,37,0,0
63661,-333.333333333333,4,2,1,37,0,0
63750,-50,4,2,1,37,0,0
63772,-10000,4,2,1,37,0,0
63794,-100,4,2,1,37,0,0
63838,-50,4,2,1,37,0,0
63860,-10000,4,2,1,37,0,0
63882,-100,4,2,1,37,0,0
63926,-26.3157894736842,4,2,1,37,0,0
63948,-10000,4,2,1,37,0,0
64014,-100,4,2,1,37,0,0
64102,-50,4,2,1,37,0,0
64125,-10000,4,2,1,37,0,0
64147,-100,4,2,1,37,0,0
64191,-50,4,2,1,37,0,0
64213,-10000,4,2,1,37,0,0
64235,-100,4,2,1,37,0,0
64279,-26.3157894736842,4,2,1,37,0,0
64301,-10000,4,2,1,37,0,0
64367,-100,4,2,1,37,0,0
64455,-50,4,2,1,37,0,0
64477,-769.230769230769,4,2,1,37,0,0
64544,-100,4,2,1,37,0,0
64632,-50,4,2,1,37,0,0
64654,-10000,4,2,1,37,0,0
64676,-52.6315789473684,4,2,1,37,0,0
64698,-1000,4,2,1,37,0,0
64720,-55.5555555555556,4,2,1,37,0,0
64742,-500,4,2,1,37,0,0
64764,-58.8235294117647,4,2,1,37,0,0
64786,-333.333333333333,4,2,1,37,0,0
64808,-58.8235294117647,4,2,1,37,0,0
64897,-333.333333333333,4,2,1,37,0,0
64985,-58.8235294117647,4,2,1,37,0,0
65073,-333.333333333333,4,2,1,37,0,0
65161,-50,4,2,1,37,0,0
65183,-10000,4,2,1,37,0,0
65205,-100,4,2,1,37,0,0
65250,-50,4,2,1,37,0,0
65272,-10000,4,2,1,37,0,0
65294,-100,4,2,1,37,0,0
65338,-50,4,2,1,37,0,0
65360,-10000,4,2,1,37,0,0
65382,-100,4,2,1,37,0,0
65426,-50,4,2,1,37,0,0
65448,-10000,4,2,1,37,0,0
65470,-100,4,2,1,37,0,0
65514,-50,4,2,1,37,0,0
65536,-10000,4,2,1,37,0,0
65558,-100,4,2,1,37,0,0
65602,-50,4,2,1,37,0,0
65625,-10000,4,2,1,37,0,0
65647,-100,4,2,1,37,0,0
65691,-33.3333333333333,4,2,1,37,0,0
65713,-1500.1500150015,4,2,1,37,0,0
65779,-100,4,2,1,37,0,0
65867,-33.3333333333333,4,2,1,37,0,0
65889,-1428.57142857143,4,2,1,37,0,0
65955,-100,4,2,1,37,0,0
66044,-33.3333333333333,4,2,1,37,0,0
66088,-714.285714285714,4,2,1,37,0,0
66220,-58.8235294117647,4,2,1,37,0,0
66308,-333.333333333333,4,2,1,37,0,0
66397,-58.8235294117647,4,2,1,37,0,0
66485,-333.333333333333,4,2,1,37,0,0
66573,-50,4,2,1,37,0,0
66595,-10000,4,2,1,37,0,0
66617,-100,4,2,1,37,0,0
66661,-50,4,2,1,37,0,0
66683,-10000,4,2,1,37,0,0
66705,-100,4,2,1,37,0,0
66750,-26.3157894736842,4,2,1,37,0,0
66772,-10000,4,2,1,37,0,0
66838,-100,4,2,1,37,0,0
66926,-50,4,2,1,37,0,0
66948,-10000,4,2,1,37,0,0
66970,-100,4,2,1,37,0,0
67014,-50,4,2,1,37,0,0
67036,-10000,4,2,1,37,0,0
67058,-100,4,2,1,37,0,0
67102,-26.3157894736842,4,2,1,37,0,0
67125,-10000,4,2,1,37,0,0
67191,-100,4,2,1,37,0,0
67279,-50,4,2,1,37,0,0
67301,-769.230769230769,4,2,1,37,0,0
67367,-100,4,2,1,37,0,0
67455,-33.3333333333333,4,2,1,37,0,0
67500,-714.285714285714,4,2,1,37,0,0
67632,-58.8235294117647,4,2,1,37,0,0
67720,-333.333333333333,4,2,1,37,0,0
67808,-58.8235294117647,4,2,1,37,0,0
67897,-333.333333333333,4,2,1,37,0,0
67985,-50,4,2,1,37,0,0
68007,-10000,4,2,1,37,0,0
68029,-100,4,2,1,37,0,0
68073,-50,4,2,1,37,0,0
68095,-10000,4,2,1,37,0,0
68117,-100,4,2,1,37,0,0
68161,-26.3157894736842,4,2,1,37,0,0
68183,-10000,4,2,1,37,0,0
68250,-100,4,2,1,37,0,0
68338,-50,4,2,1,37,0,0
68360,-10000,4,2,1,37,0,0
68382,-100,4,2,1,37,0,0
68426,-50,4,2,1,37,0,0
68448,-10000,4,2,1,37,0,0
68470,-100,4,2,1,37,0,0
68514,-52.6315789473684,4,2,1,37,0,0
68602,-1000,4,2,1,37,0,0
68691,-52.6315789473684,4,2,1,37,0,0
68713,-1000,4,2,1,37,0,0
68735,-55.5555555555556,4,2,1,37,0,0
68757,-500,4,2,1,37,0,0
68779,-58.8235294117647,4,2,1,37,0,0
68801,-333.333333333333,4,2,1,37,0,0
68823,-62.5,4,2,1,37,0,0
68845,-250,4,2,1,37,0,0
68867,-58.8235294117647,4,2,1,37,0,0
68911,-333.333333333333,4,2,1,37,0,0
68955,-58.8235294117647,4,2,1,37,0,0
69044,-333.333333333333,4,2,1,37,0,0
69132,-58.8235294117647,4,2,1,37,0,0
69176,-333.333333333333,4,2,1,37,0,0
69220,-58.8235294117647,4,2,1,37,0,0
69308,-333.333333333333,4,2,1,37,0,0
69397,-58.8235294117647,4,2,1,37,0,0
69441,-333.333333333333,4,2,1,37,0,0
69485,-58.8235294117647,4,2,1,37,0,0
69529,-333.333333333333,4,2,1,37,0,0
69573,-58.8235294117647,4,2,1,37,0,0
69661,-333.333333333333,4,2,1,37,0,0
69750,-58.8235294117647,4,2,1,37,0,0
69838,-333.333333333333,4,2,1,37,0,0
69926,-58.8235294117647,4,2,1,37,0,0
70014,-333.333333333333,4,2,1,37,0,0
70102,-50,4,2,1,37,0,0
70125,-769.230769230769,4,2,1,37,0,0
70191,-100,4,2,1,37,0,0
70279,-50,4,2,1,37,0,0
70323,-344.827586206897,4,2,1,37,0,0
70455,-50,4,2,1,37,0,0
70477,-200,4,2,1,37,0,0
70500,-100,4,2,1,37,0,0
70544,-50,4,2,1,37,0,0
70566,-200,4,2,1,37,0,0
70588,-100,4,2,1,37,0,0
70632,-50,4,2,1,37,0,0
70654,-769.230769230769,4,2,1,37,0,0
70720,-100,4,2,1,37,0,0
70808,-50,4,2,1,37,0,0
70830,-769.230769230769,4,2,1,37,0,0
70897,-100,4,2,1,37,0,0
70985,-52.6315789473684,4,2,1,37,0,0
71007,-1000,4,2,1,37,0,0
71029,-55.5555555555556,4,2,1,37,0,0
71051,-500,4,2,1,37,0,0
71073,-58.8235294117647,4,2,1,37,0,0
71095,-333.333333333333,4,2,1,37,0,0
71117,-62.5,4,2,1,37,0,0
71139,-250,4,2,1,37,0,0
71161,-66.6666666666667,4,2,1,37,0,0
71205,-200,4,2,1,37,0,0
71250,-66.6666666666667,4,2,1,37,0,0
71294,-200,4,2,1,37,0,0
71338,-66.6666666666667,4,2,1,37,0,0
71382,-200,4,2,1,37,0,0
71426,-66.6666666666667,4,2,1,37,0,0
71470,-200,4,2,1,37,0,0
71514,-66.6666666666667,4,2,1,37,0,0
71558,-200,4,2,1,37,0,0
71602,-66.6666666666667,4,2,1,37,0,0
71647,-200,4,2,1,37,0,0
71691,-33.3333333333333,4,2,1,37,0,0
71735,-714.285714285714,4,2,1,37,0,0
71867,-58.8235294117647,4,2,1,37,0,0
71955,-333.333333333333,4,2,1,37,0,0
72044,-58.8235294117647,4,2,1,37,0,0
72132,-333.333333333333,4,2,1,37,0,0
72220,-50,4,2,1,37,0,0
72242,-10000,4,2,1,37,0,0
72264,-100,4,2,1,37,0,0
72308,-50,4,2,1,37,0,0
72330,-10000,4,2,1,37,0,0
72352,-100,4,2,1,37,0,0
72397,-26.3157894736842,4,2,1,37,0,0
72419,-10000,4,2,1,37,0,0
72485,-100,4,2,1,37,0,0
72573,-50,4,2,1,37,0,0
72595,-10000,4,2,1,37,0,0
72617,-100,4,2,1,37,0,0
72661,-50,4,2,1,37,0,0
72683,-10000,4,2,1,37,0,0
72705,-100,4,2,1,37,0,0
72750,-26.3157894736842,4,2,1,37,0,0
72772,-10000,4,2,1,37,0,0
72838,-100,4,2,1,37,0,0
72926,-50,4,2,1,37,0,0
72948,-769.230769230769,4,2,1,37,0,0
73014,-100,4,2,1,37,0,0
73102,-33.3333333333333,4,2,1,37,0,0
73147,-714.285714285714,4,2,1,37,0,0
73279,-58.8235294117647,4,2,1,37,0,0
73367,-333.333333333333,4,2,1,37,0,0
73455,-58.8235294117647,4,2,1,37,0,0
73544,-333.333333333333,4,2,1,37,0,0
73632,-50,4,2,1,37,0,0
73654,-10000,4,2,1,37,0,0
73676,-100,4,2,1,37,0,0
73720,-50,4,2,1,37,0,0
73742,-10000,4,2,1,37,0,0
73764,-100,4,2,1,37,0,0
73808,-26.3157894736842,4,2,1,37,0,0
73830,-10000,4,2,1,37,0,0
73897,-100,4,2,1,37,0,0
73985,-50,4,2,1,37,0,0
74007,-10000,4,2,1,37,0,0
74029,-100,4,2,1,37,0,0
74073,-50,4,2,1,37,0,0
74095,-10000,4,2,1,37,0,0
74117,-100,4,2,1,37,0,0
74161,-52.6315789473684,4,2,1,37,0,0
74250,-1000,4,2,1,37,0,0
74338,-52.6315789473684,4,2,1,37,0,0
74360,-1000,4,2,1,37,0,0
74382,-55.5555555555556,4,2,1,37,0,0
74404,-500,4,2,1,37,0,0
74426,-58.8235294117647,4,2,1,37,0,0
74448,-333.333333333333,4,2,1,37,0,0
74470,-62.5,4,2,1,37,0,0
74492,-250,4,2,1,37,0,0
74514,-33.3333333333333,4,2,1,37,0,0
74558,-714.285714285714,4,2,1,37,0,0
74691,-58.8235294117647,4,2,1,37,0,0
74779,-333.333333333333,4,2,1,37,0,0
74867,-58.8235294117647,4,2,1,37,0,0
74955,-333.333333333333,4,2,1,37,0,0
75044,-50,4,2,1,37,0,0
75066,-10000,4,2,1,37,0,0
75088,-100,4,2,1,37,0,0
75132,-50,4,2,1,37,0,0
75154,-10000,4,2,1,37,0,0
75176,-100,4,2,1,37,0,0
75220,-26.3157894736842,4,2,1,37,0,0
75242,-10000,4,2,1,37,0,0
75308,-100,4,2,1,37,0,0
75397,-50,4,2,1,37,0,0
75419,-10000,4,2,1,37,0,0
75441,-100,4,2,1,37,0,0
75485,-50,4,2,1,37,0,0
75507,-10000,4,2,1,37,0,0
75529,-100,4,2,1,37,0,0
75573,-26.3157894736842,4,2,1,37,0,0
75595,-10000,4,2,1,37,0,0
75661,-100,4,2,1,37,0,0
75750,-50,4,2,1,37,0,0
75772,-769.230769230769,4,2,1,37,0,0
75838,-100,4,2,1,37,0,0
75926,-50,4,2,1,37,0,0
75948,-10000,4,2,1,37,0,0
75970,-52.6315789473684,4,2,1,37,0,0
75992,-1000,4,2,1,37,0,0
76014,-55.5555555555556,4,2,1,37,0,0
76036,-500,4,2,1,37,0,0
76058,-58.8235294117647,4,2,1,37,0,0
76080,-333.333333333333,4,2,1,37,0,0
76102,-58.8235294117647,4,2,1,37,0,0
76191,-333.333333333333,4,2,1,37,0,0
76279,-58.8235294117647,4,2,1,37,0,0
76367,-333.333333333333,4,2,1,37,0,0
76455,-50,4,2,1,37,0,0
76477,-10000,4,2,1,37,0,0
76500,-100,4,2,1,37,0,0
76544,-50,4,2,1,37,0,0
76566,-10000,4,2,1,37,0,0
76588,-100,4,2,1,37,0,0
76632,-50,4,2,1,37,0,0
76654,-10000,4,2,1,37,0,0
76676,-100,4,2,1,37,0,0
76720,-50,4,2,1,37,0,0
76742,-10000,4,2,1,37,0,0
76764,-100,4,2,1,37,0,0
76808,-50,4,2,1,37,0,0
76830,-10000,4,2,1,37,0,0
76852,-100,4,2,1,37,0,0
76897,-50,4,2,1,37,0,0
76919,-10000,4,2,1,37,0,0
76941,-100,4,2,1,37,0,0
76985,-100,4,2,1,37,0,0
77338,-50,4,2,1,37,0,0
77426,-100,4,2,1,37,0,0
77514,-133.333333333333,4,2,1,37,0,0
77602,-200,4,2,1,37,0,0
77779,-100,4,2,1,37,0,0
77867,-66.6666666666667,4,2,1,37,0,0
77911,-200,4,2,1,37,0,0
77955,-100,4,2,1,37,0,0
78044,-50,4,2,1,37,0,0
78066,-10000,4,2,1,37,0,0
78088,-100,4,2,1,37,0,0
78132,-50,4,2,1,37,0,0
78154,-10000,4,2,1,37,0,0
78176,-100,4,2,1,37,0,0
78220,-50,4,2,1,37,0,0
78242,-10000,4,2,1,37,0,0
78264,-100,4,2,1,37,0,0
78308,-50,4,2,1,37,0,0
78330,-10000,4,2,1,37,0,0
78352,-100,4,2,1,37,0,0
78397,-58.8235294117647,4,2,1,37,0,0
78485,-333.333333333333,4,2,1,37,0,0
78573,-50,4,2,1,37,0,0
78595,-769.230769230769,4,2,1,37,0,0
78661,-100,4,2,1,37,0,0
78750,-50,4,2,1,37,0,0
78794,-344.827586206897,4,2,1,37,0,0
78926,-58.8235294117647,4,2,1,37,0,0
79014,-333.333333333333,4,2,1,37,0,0
79102,-58.8235294117647,4,2,1,37,0,0
79191,-333.333333333333,4,2,1,37,0,0
79279,-50,4,2,1,37,0,0
79301,-10000,4,2,1,37,0,0
79323,-100,4,2,1,37,0,0
79367,-50,4,2,1,37,0,0
79389,-10000,4,2,1,37,0,0
79411,-100,4,2,1,37,0,0
79455,-50,4,2,1,37,0,0
79477,-10000,4,2,1,37,0,0
79500,-100,4,2,1,37,0,0
79544,-50,4,2,1,37,0,0
79566,-10000,4,2,1,37,0,0
79588,-100,4,2,1,37,0,0
79632,-50,4,2,1,37,0,0
79654,-10000,4,2,1,37,0,0
79676,-100,4,2,1,37,0,0
79720,-50,4,2,1,37,0,0
79742,-10000,4,2,1,37,0,0
79764,-100,4,2,1,37,0,0
79808,-68.9655172413793,4,2,1,37,0,0
79897,-181.818181818182,4,2,1,37,0,0
79985,-68.9655172413793,4,2,1,37,0,0
80007,-181.818181818182,4,2,1,37,0,0
80029,-68.9655172413793,4,2,1,37,0,0
80051,-181.818181818182,4,2,1,37,0,0
80073,-68.9655172413793,4,2,1,37,0,0
80095,-181.818181818182,4,2,1,37,0,0
80117,-68.9655172413793,4,2,1,37,0,0
80139,-181.818181818182,4,2,1,37,0,0
80161,-68.9655172413793,4,2,1,37,0,0
80250,-181.818181818182,4,2,1,37,0,0
80338,-100,4,2,1,37,0,0
80514,-50,4,2,1,37,0,0
80558,-350.877192982456,4,2,1,37,0,0
80691,-100,4,2,1,37,0,0
80867,-68.9655172413793,4,2,1,37,0,0
80955,-181.818181818182,4,2,1,37,0,0
81044,-100,4,2,1,37,0,0
81220,-50,4,2,1,37,0,0
81264,-350.877192982456,4,2,1,37,0,0
81397,-100,4,2,1,37,0,0
81573,-66.6666666666667,4,2,1,37,0,0
81595,-333.333333333333,4,2,1,37,0,0
81661,-100,4,2,1,37,0,0
81750,-50,4,2,1,37,0,0
81772,-370.37037037037,4,2,1,37,0,0
81838,-100,4,2,1,37,0,0
81926,-40,4,2,1,37,0,0
81948,-434.782608695652,4,2,1,37,0,0
82014,-100,4,2,1,37,0,0
82102,-33.3333333333333,4,2,1,37,0,0
82125,-500,4,2,1,37,0,0
82191,-100,4,2,1,37,0,0
82279,-28.5714285714286,4,2,1,37,0,0
82301,-588.235294117647,4,2,1,37,0,0
82367,-100,4,2,1,37,0,0
82455,-25,4,2,1,37,0,0
82477,-769.230769230769,4,2,1,37,0,0
82544,-100,4,2,1,37,0,0
82632,-22.2222222222222,4,2,1,37,0,0
82654,-1000,4,2,1,37,0,0
82720,-100,4,2,1,37,0,0
82808,-20,4,2,1,37,0,0
82830,-1428.57142857143,4,2,1,37,0,0
82897,-100,4,2,1,37,0,0
82985,-50,4,2,1,37,0,0
83073,-10000,4,2,1,37,0,0
83161,-100,4,2,1,37,0,0
83338,-50,4,2,1,37,0,0
83426,-303.030303030303,4,2,1,37,0,0
83602,-100,4,2,1,37,0,0
83691,-33.3333333333333,4,2,1,37,0,0
83713,-1428.57142857143,4,2,1,37,0,0
83779,-33.3333333333333,4,2,1,37,0,0
83801,-1515.15151515152,4,2,1,37,0,0
83867,-33.3333333333333,4,2,1,37,0,0
83889,-1515.15151515152,4,2,1,37,0,0
83955,-33.3333333333333,4,2,1,37,0,0
83977,-1515.15151515152,4,2,1,37,0,0
84044,-33.3333333333333,4,2,1,37,0,0
84066,-1515.15151515152,4,2,1,37,0,0
84132,-33.3333333333333,4,2,1,37,0,0
84154,-1515.15151515152,4,2,1,37,0,0
84220,-50,4,2,1,37,0,0
84308,-10000,4,2,1,37,0,0
84397,-100,4,2,1,37,0,0
84573,-33.3333333333333,4,2,1,37,0,0
84595,-1515.15151515152,4,2,1,37,0,0
84661,-33.3333333333333,4,2,1,37,0,0
84683,-1515.15151515152,4,2,1,37,0,0
84750,-33.3333333333333,4,2,1,37,0,0
84772,-1515.15151515152,4,2,1,37,0,0
84838,-33.3333333333333,4,2,1,37,0,0
84860,-1515.15151515152,4,2,1,37,0,0
84926,-50,4,2,1,37,0,0
85014,-10000,4,2,1,37,0,0
85102,-33.3333333333333,4,2,1,37,0,0
85125,-1515.15151515152,4,2,1,37,0,0
85191,-100,4,2,1,37,0,0
85279,-33.3333333333333,4,2,1,37,0,0
85301,-1515.15151515152,4,2,1,37,0,0
85367,-33.3333333333333,4,2,1,37,0,0
85389,-1515.15151515152,4,2,1,37,0,0
85455,-33.3333333333333,4,2,1,37,0,0
85477,-1515.15151515152,4,2,1,37,0,0
85544,-33.3333333333333,4,2,1,37,0,0
85566,-1515.15151515152,4,2,1,37,0,0
85632,-33.3333333333333,4,2,1,37,0,0
85654,-10000,4,2,1,37,0,0
85676,-100,4,2,1,37,0,0
85808,-58.8235294117647,4,2,1,37,0,0
85985,-333.333333333333,4,2,1,37,0,0
86161,-50,4,2,1,37,0,0
86294,-303.030303030303,4,2,1,37,0,0
86426,-100,4,2,1,37,0,0
86514,-33.3333333333333,4,2,1,37,0,0
86536,-1428.57142857143,4,2,1,37,0,0
86602,-33.3333333333333,4,2,1,37,0,0
86625,-1515.15151515152,4,2,1,37,0,0
86691,-33.3333333333333,4,2,1,37,0,0
86713,-1515.15151515152,4,2,1,37,0,0
86779,-33.3333333333333,4,2,1,37,0,0
86801,-1515.15151515152,4,2,1,37,0,0
86867,-33.3333333333333,4,2,1,37,0,0
86889,-1515.15151515152,4,2,1,37,0,0
86955,-33.3333333333333,4,2,1,37,0,0
86977,-1515.15151515152,4,2,1,37,0,0
87044,-50,4,2,1,37,0,0
87132,-10000,4,2,1,37,0,0
87220,-100,4,2,1,37,0,0
87397,-33.3333333333333,4,2,1,37,0,0
87419,-1515.15151515152,4,2,1,37,0,0
87485,-33.3333333333333,4,2,1,37,0,0
87507,-1515.15151515152,4,2,1,37,0,0
87573,-33.3333333333333,4,2,1,37,0,0
87595,-1515.15151515152,4,2,1,37,0,0
87661,-33.3333333333333,4,2,1,37,0,0
87683,-10000,4,2,1,37,0,0
87705,-33.3333333333333,4,2,1,37,0,0
87727,-10000,4,2,1,37,0,0
87750,-50,4,2,1,37,0,0
87838,-10000,4,2,1,37,0,0
87926,-50,4,2,1,37,0,0
87970,-10000,4,2,1,37,0,0
88014,-100,4,2,1,37,0,0
88102,-50,4,2,1,37,0,0
88147,-10000,4,2,1,37,0,0
88191,-100,4,2,1,37,0,0
88279,-50,4,2,1,37,0,0
88301,-10000,4,2,1,37,0,0
88323,-100,4,2,1,37,0,0
88367,-50,4,2,1,37,0,0
88389,-10000,4,2,1,37,0,0
88411,-100,4,2,1,37,0,0
88455,-50,4,2,1,37,0,0
88477,-10000,4,2,1,37,0,0
88500,-100,4,2,1,37,0,0
88632,-40,4,2,1,37,0,0
88808,-10000,4,2,1,37,0,0
88985,-100,4,2,1,37,0,0
89161,-26.3157894736842,4,2,1,37,0,0
89183,-357.142857142857,4,2,1,37,0,0
89338,-52.6315789473684,4,2,1,37,0,0
89360,-1000,4,2,1,37,0,0
89382,-52.6315789473684,4,2,1,37,0,0
89404,-1000,4,2,1,37,0,0
89426,-52.6315789473684,4,2,1,37,0,0
89448,-1000,4,2,1,37,0,0
89470,-52.6315789473684,4,2,1,37,0,0
89492,-1000,4,2,1,37,0,0
89514,-52.6315789473684,4,2,1,37,0,0
89536,-1000,4,2,1,37,0,0
89558,-52.6315789473684,4,2,1,37,0,0
89580,-1000,4,2,1,37,0,0
89602,-52.6315789473684,4,2,1,37,0,0
89625,-1000,4,2,1,37,0,0
89647,-52.6315789473684,4,2,1,37,0,0
89669,-1000,4,2,1,37,0,0
89691,-50,4,2,1,37,0,0
89713,-10000,4,2,1,37,0,0
89735,-100,4,2,1,37,0,0
89779,-26.3157894736842,4,2,1,37,0,0
89801,-357.142857142857,4,2,1,37,0,0
89955,-50,4,2,1,37,0,0
89977,-10000,4,2,1,37,0,0
90000,-100,4,2,1,37,0,0
90044,-52.6315789473684,4,2,1,37,0,0
90066,-1000,4,2,1,37,0,0
90088,-52.6315789473684,4,2,1,37,0,0
90110,-1000,4,2,1,37,0,0
90132,-52.6315789473684,4,2,1,37,0,0
90154,-1000,4,2,1,37,0,0
90176,-52.6315789473684,4,2,1,37,0,0
90198,-1000,4,2,1,37,0,0
90220,-52.6315789473684,4,2,1,37,0,0
90242,-1000,4,2,1,37,0,0
90264,-52.6315789473684,4,2,1,37,0,0
90286,-1000,4,2,1,37,0,0
90308,-52.6315789473684,4,2,1,37,0,0
90330,-1000,4,2,1,37,0,0
90352,-52.6315789473684,4,2,1,37,0,0
90375,-1000,4,2,1,37,0,0
90397,-50,4,2,1,37,0,0
90419,-10000,4,2,1,37,0,0
90441,-100,4,2,1,37,0,0
90485,-26.3157894736842,4,2,1,37,0,0
90507,-357.142857142857,4,2,1,37,0,0
90661,-50,4,2,1,37,0,0
90683,-10000,4,2,1,37,0,0
90705,-100,4,2,1,37,0,0
90750,-33.3333333333333,4,2,1,37,0,0
90772,-1515.15151515152,4,2,1,37,0,0
90838,-100,4,2,1,37,0,0
90926,-33.3333333333333,4,2,1,37,0,0
90948,-1428.57142857143,4,2,1,37,0,0
91014,-100,4,2,1,37,0,0
91102,-33.3333333333333,4,2,1,37,0,0
91125,-1428.57142857143,4,2,1,37,0,0
91191,-100,4,2,1,37,0,0
91279,-33.3333333333333,4,2,1,37,0,0
91301,-1428.57142857143,4,2,1,37,0,0
91367,-100,4,2,1,37,0,0
91455,-58.8235294117647,4,2,1,37,0,0
91632,-333.333333333333,4,2,1,37,0,0
91808,-100,4,2,1,37,0,0
91985,-26.3157894736842,4,2,1,37,0,0
92007,-357.142857142857,4,2,1,37,0,0
92161,-52.6315789473684,4,2,1,37,0,0
92183,-1000,4,2,1,37,0,0
92205,-52.6315789473684,4,2,1,37,0,0
92227,-1000,4,2,1,37,0,0
92250,-52.6315789473684,4,2,1,37,0,0
92272,-1000,4,2,1,37,0,0
92294,-52.6315789473684,4,2,1,37,0,0
92316,-1000,4,2,1,37,0,0
92338,-52.6315789473684,4,2,1,37,0,0
92360,-1000,4,2,1,37,0,0
92382,-52.6315789473684,4,2,1,37,0,0
92404,-1000,4,2,1,37,0,0
92426,-52.6315789473684,4,2,1,37,0,0
92448,-1000,4,2,1,37,0,0
92470,-52.6315789473684,4,2,1,37,0,0
92492,-1000,4,2,1,37,0,0
92514,-50,4,2,1,37,0,0
92536,-10000,4,2,1,37,0,0
92558,-100,4,2,1,37,0,0
92602,-26.3157894736842,4,2,1,37,0,0
92625,-357.142857142857,4,2,1,37,0,0
92779,-50,4,2,1,37,0,0
92801,-10000,4,2,1,37,0,0
92823,-100,4,2,1,37,0,0
92867,-52.6315789473684,4,2,1,37,0,0
92889,-1000,4,2,1,37,0,0
92911,-52.6315789473684,4,2,1,37,0,0
92933,-1000,4,2,1,37,0,0
92955,-52.6315789473684,4,2,1,37,0,0
92977,-1000,4,2,1,37,0,0
93000,-52.6315789473684,4,2,1,37,0,0
93022,-1000,4,2,1,37,0,0
93044,-52.6315789473684,4,2,1,37,0,0
93066,-1000,4,2,1,37,0,0
93088,-52.6315789473684,4,2,1,37,0,0
93110,-1000,4,2,1,37,0,0
93132,-52.6315789473684,4,2,1,37,0,0
93154,-1000,4,2,1,37,0,0
93176,-52.6315789473684,4,2,1,37,0,0
93198,-1000,4,2,1,37,0,0
93220,-50,4,2,1,37,0,0
93242,-10000,4,2,1,37,0,0
93264,-100,4,2,1,37,0,0
93308,-50,4,2,1,37,0,0
93330,-10000,4,2,1,37,0,0
93352,-100,4,2,1,37,0,0
93397,-50,4,2,1,37,0,0
93419,-10000,4,2,1,37,0,0
93441,-100,4,2,1,37,0,0
93485,-50,4,2,1,37,0,0
93507,-10000,4,2,1,37,0,0
93529,-100,4,2,1,37,0,0
93573,-33.3333333333333,4,2,1,37,0,0
93595,-1515.15151515152,4,2,1,37,0,0
93661,-100,4,2,1,37,0,0
94279,-50,4,2,1,37,0,0
94367,-10000,4,2,1,37,0,0
94455,-100,4,2,1,37,0,0
94632,-50,4,2,1,37,0,0
94764,-10000,4,2,1,37,0,0
94897,-100,4,2,1,37,0,0
94985,-33.3333333333333,4,2,1,37,0,0
95007,-1428.57142857143,4,2,1,37,0,0
95073,-33.3333333333333,4,2,1,37,0,0
95095,-1428.57142857143,4,2,1,37,0,0
95161,-33.3333333333333,4,2,1,37,0,0
95183,-1428.57142857143,4,2,1,37,0,0
95250,-33.3333333333333,4,2,1,37,0,0
95272,-1428.57142857143,4,2,1,37,0,0
95338,-33.3333333333333,4,2,1,37,0,0
95360,-1428.57142857143,4,2,1,37,0,0
95426,-33.3333333333333,4,2,1,37,0,0
95448,-1428.57142857143,4,2,1,37,0,0
95514,-50,4,2,1,37,0,0
95602,-10000,4,2,1,37,0,0
95691,-100,4,2,1,37,0,0
95867,-33.3333333333333,4,2,1,37,0,0
95889,-1428.57142857143,4,2,1,37,0,0
95955,-33.3333333333333,4,2,1,37,0,0
95977,-1428.57142857143,4,2,1,37,0,0
96044,-33.3333333333333,4,2,1,37,0,0
96066,-1428.57142857143,4,2,1,37,0,0
96132,-33.3333333333333,4,2,1,37,0,0
96154,-1428.57142857143,4,2,1,37,0,0
96220,-50,4,2,1,37,0,0
96308,-10000,4,2,1,37,0,0
96397,-33.3333333333333,4,2,1,37,0,0
96419,-1428.57142857143,4,2,1,37,0,0
96485,-100,4,2,1,37,0,0
96573,-33.3333333333333,4,2,1,37,0,0
96595,-1428.57142857143,4,2,1,37,0,0
96661,-33.3333333333333,4,2,1,37,0,0
96683,-1428.57142857143,4,2,1,37,0,0
96750,-33.3333333333333,4,2,1,37,0,0
96772,-1428.57142857143,4,2,1,37,0,0
96838,-33.3333333333333,4,2,1,37,0,0
96860,-200,4,2,1,37,0,0
96926,-33.3333333333333,4,2,1,37,0,0
96948,-1428.57142857143,4,2,1,37,0,0
97014,-100,4,2,1,37,0,0
97102,-50,4,2,1,37,0,0
97191,-200,4,2,1,37,0,0
97279,-100,4,2,1,37,0,0
97455,-50,4,2,1,37,0,0
97588,-400,4,2,1,37,0,0
97720,-100,4,2,1,37,0,0
97808,-33.3333333333333,4,2,1,37,0,0
97830,-1428.57142857143,4,2,1,37,0,0
97897,-33.3333333333333,4,2,1,37,0,0
97919,-1428.57142857143,4,2,1,37,0,0
97985,-33.3333333333333,4,2,1,37,0,0
98007,-1428.57142857143,4,2,1,37,0,0
98073,-33.3333333333333,4,2,1,37,0,0
98095,-1428.57142857143,4,2,1,37,0,0
98161,-33.3333333333333,4,2,1,37,0,0
98183,-1428.57142857143,4,2,1,37,0,0
98250,-33.3333333333333,4,2,1,37,0,0
98272,-1428.57142857143,4,2,1,37,0,0
98338,-50,4,2,1,37,0,0
98426,-1111.11111111111,4,2,1,37,0,0
98514,-100,4,2,1,37,0,0
98691,-33.3333333333333,4,2,1,37,0,0
98713,-1428.57142857143,4,2,1,37,0,0
98779,-33.3333333333333,4,2,1,37,0,0
98801,-1428.57142857143,4,2,1,37,0,0
98867,-50,4,2,1,37,0,0
98889,-10000,4,2,1,37,0,0
98911,-100,4,2,1,37,0,0
98955,-50,4,2,1,37,0,0
98977,-10000,4,2,1,37,0,0
99000,-50,4,2,1,37,0,0
99022,-10000,4,2,1,37,0,0
99044,-50,4,2,1,37,0,0
99132,-10000,4,2,1,37,0,0
99220,-50,4,2,1,37,0,0
99264,-10000,4,2,1,37,0,0
99308,-100,4,2,1,37,0,0
99397,-50,4,2,1,37,0,0
99441,-10000,4,2,1,37,0,0
99485,-100,4,2,1,37,0,0
99573,-50,4,2,1,37,0,0
99595,-10000,4,2,1,37,0,0
99617,-100,4,2,1,37,0,0
99661,-50,4,2,1,37,0,0
99683,-10000,4,2,1,37,0,0
99705,-100,4,2,1,37,0,0
99750,-50,4,2,1,37,0,0
99772,-10000,4,2,1,37,0,0
99794,-100,4,2,1,37,0,0
99926,-40,4,2,1,37,0,0
100102,-10000,4,2,1,37,0,0
100279,-100,4,2,1,37,0,0
100455,-26.3157894736842,4,2,1,37,0,0
100477,-357.142857142857,4,2,1,37,0,0
100632,-52.6315789473684,4,2,1,37,0,0
100654,-1000,4,2,1,37,0,0
100676,-52.6315789473684,4,2,1,37,0,0
100698,-1000,4,2,1,37,0,0
100720,-52.6315789473684,4,2,1,37,0,0
100742,-1000,4,2,1,37,0,0
100764,-52.6315789473684,4,2,1,37,0,0
100786,-1000,4,2,1,37,0,0
100808,-52.6315789473684,4,2,1,37,0,0
100830,-1000,4,2,1,37,0,0
100852,-52.6315789473684,4,2,1,37,0,0
100875,-1000,4,2,1,37,0,0
100897,-52.6315789473684,4,2,1,37,0,0
100919,-1000,4,2,1,37,0,0
100941,-52.6315789473684,4,2,1,37,0,0
100963,-1000,4,2,1,37,0,0
100985,-50,4,2,1,37,0,0
101007,-10000,4,2,1,37,0,0
101029,-100,4,2,1,37,0,0
101073,-26.3157894736842,4,2,1,37,0,0
101095,-357.142857142857,4,2,1,37,0,0
101250,-50,4,2,1,37,0,0
101272,-10000,4,2,1,37,0,0
101294,-100,4,2,1,37,0,0
101338,-52.6315789473684,4,2,1,37,0,0
101360,-1000,4,2,1,37,0,0
101382,-52.6315789473684,4,2,1,37,0,0
101404,-1000,4,2,1,37,0,0
101426,-52.6315789473684,4,2,1,37,0,0
101448,-1000,4,2,1,37,0,0
101470,-52.6315789473684,4,2,1,37,0,0
101492,-1000,4,2,1,37,0,0
101514,-52.6315789473684,4,2,1,37,0,0
101536,-1000,4,2,1,37,0,0
101558,-52.6315789473684,4,2,1,37,0,0
101580,-1000,4,2,1,37,0,0
101602,-52.6315789473684,4,2,1,37,0,0
101625,-1000,4,2,1,37,0,0
101647,-52.6315789473684,4,2,1,37,0,0
101669,-1000,4,2,1,37,0,0
101691,-50,4,2,1,37,0,0
101713,-10000,4,2,1,37,0,0
101735,-100,4,2,1,37,0,0
101779,-50,4,2,1,37,0,0
101801,-10000,4,2,1,37,0,0
101823,-100,4,2,1,37,0,0
101867,-50,4,2,1,37,0,0
101889,-10000,4,2,1,37,0,0
101911,-100,4,2,1,37,0,0
101955,-50,4,2,1,37,0,0
101977,-10000,4,2,1,37,0,0
102000,-100,4,2,1,37,0,0
102044,-50,4,2,1,37,0,0
102066,-10000,4,2,1,37,0,0
102088,-100,4,2,1,37,0,0
102220,-50,4,2,1,37,0,0
102242,-10000,4,2,1,37,0,0
102264,-100,4,2,1,37,0,0
102397,-50,4,2,1,37,0,0
102419,-10000,4,2,1,37,0,0
102441,-100,4,2,1,37,0,0
102573,-50,4,2,1,37,0,0
102595,-769.230769230769,4,2,1,37,0,0
102661,-100,4,2,1,37,0,0
102750,-50,4,2,1,37,0,0
102772,-769.230769230769,4,2,1,37,0,0
102838,-100,4,2,1,37,0,0
103014,-66.6666666666667,4,2,1,37,0,0
103036,-200,4,2,1,37,0,0
103058,-100,4,2,1,37,0,0
103102,-66.6666666666667,4,2,1,37,0,0
103125,-200,4,2,1,37,0,0
103147,-100,4,2,1,37,0,0
103191,-66.6666666666667,4,2,1,37,0,0
103213,-200,4,2,1,37,0,0
103235,-100,4,2,1,37,0,0
103279,-66.6666666666667,4,2,1,37,0,0
103301,-200,4,2,1,37,0,0
103323,-100,4,2,1,37,0,0
103367,-66.6666666666667,4,2,1,37,0,0
103389,-200,4,2,1,37,0,0
103411,-100,4,2,1,37,0,0
103455,-66.6666666666667,4,2,1,37,0,0
103477,-200,4,2,1,37,0,0
103500,-66.6666666666667,4,2,1,37,0,0
103522,-200,4,2,1,37,0,0
103544,-66.6666666666667,4,2,1,37,0,0
103566,-200,4,2,1,37,0,0
103588,-66.6666666666667,4,2,1,37,0,0
103610,-200,4,2,1,37,0,0
103632,-66.6666666666667,4,2,1,37,0,0
103654,-200,4,2,1,37,0,0
103676,-66.6666666666667,4,2,1,37,0,0
103698,-200,4,2,1,37,0,0
103720,-66.6666666666667,4,2,1,37,0,0
103742,-200,4,2,1,37,0,0
103764,-66.6666666666667,4,2,1,37,0,0
103786,-200,4,2,1,37,0,0
103808,-61.7283950617284,4,2,1,37,0,0
103830,-263.157894736842,4,2,1,37,0,0
103852,-61.7283950617284,4,2,1,37,0,0
103875,-263.157894736842,4,2,1,37,0,0
103897,-61.7283950617284,4,2,1,37,0,0
103919,-263.157894736842,4,2,1,37,0,0
103941,-61.7283950617284,4,2,1,37,0,0
103963,-263.157894736842,4,2,1,37,0,0
103985,-61.7283950617284,4,2,1,37,0,0
104007,-263.157894736842,4,2,1,37,0,0
104029,-61.7283950617284,4,2,1,37,0,0
104051,-263.157894736842,4,2,1,37,0,0
104073,-61.7283950617284,4,2,1,37,0,0
104095,-263.157894736842,4,2,1,37,0,0
104117,-61.7283950617284,4,2,1,37,0,0
104139,-263.157894736842,4,2,1,37,0,0
104161,-57.1428571428571,4,2,1,37,0,0
104183,-400,4,2,1,37,0,0
104205,-57.1428571428571,4,2,1,37,0,0
104227,-400,4,2,1,37,0,0
104250,-57.1428571428571,4,2,1,37,0,0
104272,-400,4,2,1,37,0,0
104294,-57.1428571428571,4,2,1,37,0,0
104316,-400,4,2,1,37,0,0
104338,-57.1428571428571,4,2,1,37,0,0
104360,-400,4,2,1,37,0,0
104382,-57.1428571428571,4,2,1,37,0,0
104404,-400,4,2,1,37,0,0
104426,-57.1428571428571,4,2,1,37,0,0
104448,-400,4,2,1,37,0,0
104470,-57.1428571428571,4,2,1,37,0,0
104492,-400,4,2,1,37,0,0
104514,-53.475935828877,4,2,1,37,0,0
104536,-769.230769230769,4,2,1,37,0,0
104558,-53.475935828877,4,2,1,37,0,0
104580,-769.230769230769,4,2,1,37,0,0
104602,-53.475935828877,4,2,1,37,0,0
104625,-769.230769230769,4,2,1,37,0,0
104647,-53.475935828877,4,2,1,37,0,0
104669,-769.230769230769,4,2,1,37,0,0
104691,-53.475935828877,4,2,1,37,0,0
104713,-769.230769230769,4,2,1,37,0,0
104735,-53.475935828877,4,2,1,37,0,0
104757,-769.230769230769,4,2,1,37,0,0
104779,-53.475935828877,4,2,1,37,0,0
104801,-769.230769230769,4,2,1,37,0,0
104823,-53.475935828877,4,2,1,37,0,0
104845,-769.230769230769,4,2,1,37,0,0
104867,-100,4,2,1,37,0,0
105132,-117.647058823529,4,2,1,37,0,0
105397,-142.857142857143,4,2,1,37,0,0
105926,-100,4,2,1,37,0,0
106279,-33.3333333333333,4,2,1,37,0,0
106301,-1428.57142857143,4,2,1,37,0,0
106367,-100,4,2,1,37,0,0
106455,-33.3333333333333,4,2,1,37,0,0
106477,-1428.57142857143,4,2,1,37,0,0
106544,-100,4,2,1,37,0,0
106632,-33.3333333333333,4,2,1,37,0,0
106654,-1428.57142857143,4,2,1,37,0,0
106720,-100,4,2,1,37,0,0
106808,-33.3333333333333,4,2,1,37,0,0
106830,-1428.57142857143,4,2,1,37,0,0
106897,-100,4,2,1,37,0,0
106985,-33.3333333333333,4,2,1,37,0,0
107007,-1428.57142857143,4,2,1,37,0,0
107073,-100,4,2,1,37,0,0
107161,-33.3333333333333,4,2,1,37,0,0
107183,-1428.57142857143,4,2,1,37,0,0
107250,-100,4,2,1,37,0,0
107338,-33.3333333333333,4,2,1,37,0,0
107360,-1428.57142857143,4,2,1,37,0,0
107426,-100,4,2,1,37,0,0
107514,-33.3333333333333,4,2,1,37,0,0
107536,-1428.57142857143,4,2,1,37,0,0
107602,-100,4,2,1,37,0,0
107691,-33.3333333333333,4,2,1,37,0,0
107713,-1428.57142857143,4,2,1,37,0,0
107779,-100,4,2,1,37,0,0
107867,-33.3333333333333,4,2,1,37,0,0
107889,-1428.57142857143,4,2,1,37,0,0
107955,-100,4,2,1,37,0,0
108044,-33.3333333333333,4,2,1,37,0,0
108066,-1428.57142857143,4,2,1,37,0,0
108132,-100,4,2,1,37,0,0
108220,-33.3333333333333,4,2,1,37,0,0
108242,-1428.57142857143,4,2,1,37,0,0
108308,-100,4,2,1,37,0,0
108397,-25,4,2,1,37,0,0
108419,-10000,4,2,1,37,0,0
108485,-100,4,2,1,37,0,0
108573,-25,4,2,1,37,0,0
108595,-10000,4,2,1,37,0,0
108661,-100,4,2,1,37,0,0
108838,-25,4,2,1,37,0,0
108860,-10000,4,2,1,37,0,0
108926,-100,4,2,1,37,0,0
109102,-33.3333333333333,4,2,1,37,0,0
109125,-1428.57142857143,4,2,1,37,0,0
109191,-100,4,2,1,37,0,0
109279,-33.3333333333333,4,2,1,37,0,0
109301,-1428.57142857143,4,2,1,37,0,0
109367,-100,4,2,1,37,0,0
109455,-33.3333333333333,4,2,1,37,0,0
109477,-1428.57142857143,4,2,1,37,0,0
109544,-100,4,2,1,37,0,0
109632,-33.3333333333333,4,2,1,37,0,0
109654,-1428.57142857143,4,2,1,37,0,0
109720,-100,4,2,1,37,0,0
109808,-33.3333333333333,4,2,1,37,0,0
109830,-1428.57142857143,4,2,1,37,0,0
109897,-100,4,2,1,37,0,0
109985,-33.3333333333333,4,2,1,37,0,0
110007,-1428.57142857143,4,2,1,37,0,0
110073,-100,4,2,1,37,0,0
110161,-33.3333333333333,4,2,1,37,0,0
110183,-1428.57142857143,4,2,1,37,0,0
110250,-100,4,2,1,37,0,0
110338,-33.3333333333333,4,2,1,37,0,0
110360,-1428.57142857143,4,2,1,37,0,0
110426,-100,4,2,1,37,0,0
110514,-33.3333333333333,4,2,1,37,0,0
110536,-1428.57142857143,4,2,1,37,0,0
110602,-100,4,2,1,37,0,0
110691,-33.3333333333333,4,2,1,37,0,0
110713,-1428.57142857143,4,2,1,37,0,0
110779,-100,4,2,1,37,0,0
110867,-33.3333333333333,4,2,1,37,0,0
110889,-1428.57142857143,4,2,1,37,0,0
110955,-100,4,2,1,37,0,0
111044,-33.3333333333333,4,2,1,37,0,0
111066,-1428.57142857143,4,2,1,37,0,0
111132,-100,4,2,1,37,0,0
111220,-50,4,2,1,37,0,0
111308,-10000,4,2,1,37,0,0
111397,-100,4,2,1,37,0,0
111573,-50,4,2,1,37,0,0
111661,-10000,4,2,1,37,0,0
111750,-100,4,2,1,37,0,0
111926,-33.3333333333333,4,2,1,37,0,0
111948,-1428.57142857143,4,2,1,37,0,0
112014,-100,4,2,1,37,0,0
112102,-33.3333333333333,4,2,1,37,0,0
112125,-1428.57142857143,4,2,1,37,0,0
112191,-100,4,2,1,37,0,0
112279,-33.3333333333333,4,2,1,37,0,0
112301,-1428.57142857143,4,2,1,37,0,0
112367,-100,4,2,1,37,0,0
112455,-33.3333333333333,4,2,1,37,0,0
112477,-1428.57142857143,4,2,1,37,0,0
112544,-100,4,2,1,37,0,0
112632,-33.3333333333333,4,2,1,37,0,0
112654,-1428.57142857143,4,2,1,37,0,0
112720,-100,4,2,1,37,0,0
112808,-33.3333333333333,4,2,1,37,0,0
112830,-1428.57142857143,4,2,1,37,0,0
112897,-100,4,2,1,37,0,0
112985,-33.3333333333333,4,2,1,37,0,0
113007,-1428.57142857143,4,2,1,37,0,0
113073,-100,4,2,1,37,0,0
113161,-33.3333333333333,4,2,1,37,0,0
113183,-1428.57142857143,4,2,1,37,0,0
113250,-100,4,2,1,37,0,0
113338,-33.3333333333333,4,2,1,37,0,0
113360,-1428.57142857143,4,2,1,37,0,0
113426,-100,4,2,1,37,0,0
113514,-33.3333333333333,4,2,1,37,0,0
113536,-1428.57142857143,4,2,1,37,0,0
113602,-100,4,2,1,37,0,0
113691,-33.3333333333333,4,2,1,37,0,0
113713,-1428.57142857143,4,2,1,37,0,0
113779,-100,4,2,1,37,0,0
113867,-33.3333333333333,4,2,1,37,0,0
113889,-1428.57142857143,4,2,1,37,0,0
113955,-100,4,2,1,37,0,0
114044,-25,4,2,1,37,0,0
114066,-10000,4,2,1,37,0,0
114132,-100,4,2,1,37,0,0
114220,-25,4,2,1,37,0,0
114242,-10000,4,2,1,37,0,0
114308,-100,4,2,1,37,0,0
114485,-25,4,2,1,37,0,0
114507,-10000,4,2,1,37,0,0
114573,-100,4,2,1,37,0,0
114750,-33.3333333333333,4,2,1,37,0,0
114772,-1428.57142857143,4,2,1,37,0,0
114838,-100,4,2,1,37,0,0
114926,-33.3333333333333,4,2,1,37,0,0
114948,-1428.57142857143,4,2,1,37,0,0
115014,-100,4,2,1,37,0,0
115102,-33.3333333333333,4,2,1,37,0,0
115125,-1428.57142857143,4,2,1,37,0,0
115191,-100,4,2,1,37,0,0
115279,-33.3333333333333,4,2,1,37,0,0
115301,-1428.57142857143,4,2,1,37,0,0
115367,-100,4,2,1,37,0,0
115455,-50,4,2,1,37,0,0
115477,-10000,4,2,1,37,0,0
115500,-100,4,2,1,37,0,0
115544,-50,4,2,1,37,0,0
115566,-10000,4,2,1,37,0,0
115588,-100,4,2,1,37,0,0
115632,-50,4,2,1,37,0,0
115654,-10000,4,2,1,37,0,0
115676,-100,4,2,1,37,0,0
115720,-50,4,2,1,37,0,0
115742,-10000,4,2,1,37,0,0
115764,-100,4,2,1,37,0,0
115808,-50,4,2,1,37,0,0
115830,-10000,4,2,1,37,0,0
115852,-100,4,2,1,37,0,0
115897,-50,4,2,1,37,0,0
115919,-10000,4,2,1,37,0,0
115941,-100,4,2,1,37,0,0
115985,-50,4,2,1,37,0,0
116007,-10000,4,2,1,37,0,0
116029,-100,4,2,1,37,0,0
116073,-50,4,2,1,37,0,0
116095,-10000,4,2,1,37,0,0
116117,-100,4,2,1,37,0,0
116161,-50,4,2,1,37,0,0
116183,-10000,4,2,1,37,0,0
116205,-100,4,2,1,37,0,0
116338,-111.111111111111,4,2,1,37,0,0
116514,-125,4,2,1,37,0,0
116691,-142.857142857143,4,2,1,37,0,0
116867,-166.666666666667,4,2,1,37,0,0
118279,-100,4,2,1,37,0,0
118308,-250,4,2,1,37,0,0
118367,-100,4,2,1,37,0,0
118411,-250,4,2,1,37,0,0
118455,-100,4,2,1,37,0,0
118500,-250,4,2,1,37,0,0
118544,-100,4,2,1,37,0,0
118588,-250,4,2,1,37,0,0
118632,-200,4,2,1,37,0,0
119691,-100,4,2,1,37,0,0
119735,-250,4,2,1,37,0,0
119779,-100,4,2,1,37,0,0
119823,-250,4,2,1,37,0,0
119867,-100,4,2,1,37,0,0
119911,-250,4,2,1,37,0,0
119955,-100,4,2,1,37,0,0
120000,-250,4,2,1,37,0,0
120044,-200,4,2,1,37,0,0
121102,-100,4,2,1,37,0,0
121147,-250,4,2,1,37,0,0
121191,-100,4,2,1,37,0,0
121235,-250,4,2,1,37,0,0
121279,-100,4,2,1,37,0,0
121323,-250,4,2,1,37,0,0
121367,-100,4,2,1,37,0,0
121411,-250,4,2,1,37,0,0
121455,-200,4,2,1,37,0,0
122514,-100,4,2,1,37,0,0
122544,-250,4,2,1,37,0,0
122602,-100,4,2,1,37,0,0
122647,-250,4,2,1,37,0,0
122691,-100,4,2,1,37,0,0
122735,-250,4,2,1,37,0,0
122779,-100,4,2,1,37,0,0
122823,-250,4,2,1,37,0,0
122867,-200,4,2,1,37,0,0
123926,-100,4,2,1,37,0,0
123955,-250,4,2,1,37,0,0
124014,-100,4,2,1,37,0,0
124058,-250,4,2,1,37,0,0
124102,-100,4,2,1,37,0,0
124147,-250,4,2,1,37,0,0
124191,-100,4,2,1,37,0,0
124235,-250,4,2,1,37,0,0
124279,-200,4,2,1,37,0,0
125338,-100,4,2,1,37,0,0
125382,-250,4,2,1,37,0,0
125426,-100,4,2,1,37,0,0
125470,-250,4,2,1,37,0,0
125514,-100,4,2,1,37,0,0
125558,-250,4,2,1,37,0,0
125602,-100,4,2,1,37,0,0
125647,-250,4,2,1,37,0,0
125691,-200,4,2,1,37,0,0
126750,-166.666666666667,4,2,1,37,0,0
127279,-142.857142857143,4,2,1,37,0,0
127455,-125,4,2,1,37,0,0
127808,-111.111111111111,4,2,1,37,0,0
128161,-66.6666666666667,4,2,1,37,0,0
128183,-200,4,2,1,37,0,0
128205,-100,4,2,1,37,0,0
128514,-66.6666666666667,4,2,1,37,0,0
128536,-200,4,2,1,37,0,0
128558,-100,4,2,1,37,0,0
128867,-66.6666666666667,4,2,1,37,0,0
128889,-200,4,2,1,37,0,0
128911,-100,4,2,1,37,0,0
129220,-66.6666666666667,4,2,1,37,0,0
129242,-200,4,2,1,37,0,0
129264,-100,4,2,1,37,0,0
129573,-66.6666666666667,4,2,1,37,0,0
129595,-200,4,2,1,37,0,0
129617,-100,4,2,1,37,0,0
129926,-66.6666666666667,4,2,1,37,0,0
129948,-200,4,2,1,37,0,0
129970,-100,4,2,1,37,0,0
130279,-66.6666666666667,4,2,1,37,0,0
130301,-200,4,2,1,37,0,0
130323,-100,4,2,1,37,0,0
130632,-66.6666666666667,4,2,1,37,0,0
130654,-200,4,2,1,37,0,0
130676,-100,4,2,1,37,0,0
130985,-66.6666666666667,4,2,1,37,0,0
131007,-200,4,2,1,37,0,0
131029,-100,4,2,1,37,0,0
131338,-66.6666666666667,4,2,1,37,0,0
131360,-200,4,2,1,37,0,0
131382,-100,4,2,1,37,0,0
131691,-66.6666666666667,4,2,1,37,0,0
131713,-200,4,2,1,37,0,0
131735,-100,4,2,1,37,0,0
132044,-66.6666666666667,4,2,1,37,0,0
132066,-200,4,2,1,37,0,0
132088,-100,4,2,1,37,0,0
132397,-66.6666666666667,4,2,1,37,0,0
132419,-200,4,2,1,37,0,0
132441,-100,4,2,1,37,0,0
132750,-66.6666666666667,4,2,1,37,0,0
132772,-200,4,2,1,37,0,0
132794,-100,4,2,1,37,0,0
133102,-66.6666666666667,4,2,1,37,0,0
133125,-200,4,2,1,37,0,0
133147,-100,4,2,1,37,0,0
133455,-66.6666666666667,4,2,1,37,0,0
133477,-200,4,2,1,37,0,0
133500,-100,4,2,1,37,0,0
133544,-66.6666666666667,4,2,1,37,0,0
133566,-200,4,2,1,37,0,0
133588,-100,4,2,1,37,0,0
133632,-66.6666666666667,4,2,1,37,0,0
133654,-200,4,2,1,37,0,0
133676,-100,4,2,1,37,0,0
133808,-66.6666666666667,4,2,1,37,0,0
133830,-200,4,2,1,37,0,0
133852,-100,4,2,1,37,0,0
134161,-66.6666666666667,4,2,1,37,0,0
134183,-200,4,2,1,37,0,0
134205,-100,4,2,1,37,0,0
134514,-66.6666666666667,4,2,1,37,0,0
134536,-200,4,2,1,37,0,0
134558,-100,4,2,1,37,0,0
134867,-66.6666666666667,4,2,1,37,0,0
134889,-200,4,2,1,37,0,0
134911,-100,4,2,1,37,0,0
135220,-66.6666666666667,4,2,1,37,0,0
135242,-200,4,2,1,37,0,0
135264,-100,4,2,1,37,0,0
135573,-66.6666666666667,4,2,1,37,0,0
135595,-200,4,2,1,37,0,0
135617,-100,4,2,1,37,0,0
135926,-66.6666666666667,4,2,1,37,0,0
135948,-200,4,2,1,37,0,0
135970,-100,4,2,1,37,0,0
136279,-66.6666666666667,4,2,1,37,0,0
136301,-200,4,2,1,37,0,0
136323,-100,4,2,1,37,0,0
136632,-66.6666666666667,4,2,1,37,0,0
136654,-200,4,2,1,37,0,0
136676,-100,4,2,1,37,0,0
137338,-66.6666666666667,4,2,1,37,0,0
137360,-200,4,2,1,37,0,0
137382,-100,4,2,1,37,0,0
137691,-66.6666666666667,4,2,1,37,0,0
137713,-200,4,2,1,37,0,0
137735,-100,4,2,1,37,0,0
138044,-66.6666666666667,4,2,1,37,0,0
138066,-200,4,2,1,37,0,0
138088,-100,4,2,1,37,0,0
138397,-66.6666666666667,4,2,1,37,0,0
138419,-200,4,2,1,37,0,0
138441,-100,4,2,1,37,0,0
138750,-66.6666666666667,4,2,1,37,0,0
138772,-200,4,2,1,37,0,0
138794,-100,4,2,1,37,0,0
139102,-66.6666666666667,4,2,1,37,0,0
139125,-200,4,2,1,37,0,0
139147,-100,4,2,1,37,0,0
139191,-66.6666666666667,4,2,1,37,0,0
139213,-200,4,2,1,37,0,0
139235,-100,4,2,1,37,0,0
139279,-66.6666666666667,4,2,1,37,0,0
139301,-200,4,2,1,37,0,0
139323,-100,4,2,1,37,0,0
139455,-66.6666666666667,4,2,1,37,0,0
139477,-200,4,2,1,37,0,0
139500,-100,4,2,1,37,0,0
139808,-66.6666666666667,4,2,1,37,0,0
139830,-200,4,2,1,37,0,0
139852,-100,4,2,1,37,0,0
140161,-66.6666666666667,4,2,1,37,0,0
140183,-200,4,2,1,37,0,0
140205,-100,4,2,1,37,0,0
140514,-66.6666666666667,4,2,1,37,0,0
140536,-200,4,2,1,37,0,0
140558,-100,4,2,1,37,0,0
140867,-66.6666666666667,4,2,1,37,0,0
140889,-200,4,2,1,37,0,0
140911,-100,4,2,1,37,0,0
141220,-66.6666666666667,4,2,1,37,0,0
141242,-200,4,2,1,37,0,0
141264,-100,4,2,1,37,0,0
141573,-66.6666666666667,4,2,1,37,0,0
141595,-200,4,2,1,37,0,0
141617,-100,4,2,1,37,0,0
141926,-66.6666666666667,4,2,1,37,0,0
141948,-200,4,2,1,37,0,0
141970,-100,4,2,1,37,0,0
142279,-66.6666666666667,4,2,1,37,0,0
142301,-200,4,2,1,37,0,0
142323,-100,4,2,1,37,0,0
142632,-66.6666666666667,4,2,1,37,0,0
142654,-200,4,2,1,37,0,0
142676,-100,4,2,1,37,0,0
142985,-66.6666666666667,4,2,1,37,0,0
143007,-200,4,2,1,37,0,0
143029,-100,4,2,1,37,0,0
143338,-66.6666666666667,4,2,1,37,0,0
143360,-200,4,2,1,37,0,0
143382,-100,4,2,1,37,0,0
143691,-66.6666666666667,4,2,1,37,0,0
143713,-200,4,2,1,37,0,0
143735,-100,4,2,1,37,0,0
144044,-66.6666666666667,4,2,1,37,0,0
144066,-200,4,2,1,37,0,0
144088,-100,4,2,1,37,0,0
144397,-66.6666666666667,4,2,1,37,0,0
144419,-200,4,2,1,37,0,0
144441,-100,4,2,1,37,0,0
144750,-66.6666666666667,4,2,1,37,0,0
144772,-200,4,2,1,37,0,0
144794,-100,4,2,1,37,0,0
144838,-66.6666666666667,4,2,1,37,0,0
144860,-200,4,2,1,37,0,0
144882,-100,4,2,1,37,0,0
144926,-66.6666666666667,4,2,1,37,0,0
144948,-200,4,2,1,37,0,0
144970,-100,4,2,1,37,0,0
145102,-66.6666666666667,4,2,1,37,0,0
145125,-200,4,2,1,37,0,0
145147,-100,4,2,1,37,0,0
145455,-66.6666666666667,4,2,1,37,0,0
145477,-200,4,2,1,37,0,0
145500,-100,4,2,1,37,0,0
145808,-66.6666666666667,4,2,1,37,0,0
145830,-200,4,2,1,37,0,0
145852,-100,4,2,1,37,0,0
146161,-66.6666666666667,4,2,1,37,0,0
146183,-200,4,2,1,37,0,0
146205,-100,4,2,1,37,0,0
146514,-66.6666666666667,4,2,1,37,0,0
146536,-200,4,2,1,37,0,0
146558,-100,4,2,1,37,0,0
146867,-66.6666666666667,4,2,1,37,0,0
146889,-200,4,2,1,37,0,0
146911,-100,4,2,1,37,0,0
147926,-200,4,2,1,37,0,0
149338,-166.666666666667,4,2,1,37,0,0
149426,-142.857142857143,4,2,1,37,0,0
149514,-125,4,2,1,37,0,0
149602,-111.111111111111,4,2,1,37,0,0
149691,-100,4,2,1,37,0,0
150044,-52.6315789473684,4,2,1,37,0,0
150066,-1000,4,2,1,37,0,0
150088,-55.5555555555556,4,2,1,37,0,0
150110,-500,4,2,1,37,0,0
150132,-58.8235294117647,4,2,1,37,0,0
150154,-333.333333333333,4,2,1,37,0,0
150176,-62.5,4,2,1,37,0,0
150198,-250,4,2,1,37,0,0
150220,-66.6666666666667,4,2,1,37,0,0
150264,-200,4,2,1,37,0,0
150308,-66.6666666666667,4,2,1,37,0,0
150352,-200,4,2,1,37,0,0
150397,-66.6666666666667,4,2,1,37,0,0
150441,-200,4,2,1,37,0,0
150485,-66.6666666666667,4,2,1,37,0,0
150529,-200,4,2,1,37,0,0
150573,-66.6666666666667,4,2,1,37,0,0
150617,-200,4,2,1,37,0,0
150661,-100,4,2,1,37,0,0
150750,-25,4,2,1,37,0,0
150794,-10000,4,2,1,37,0,0
150926,-100,4,2,1,37,0,0
151102,-25,4,2,1,37,0,0
151147,-10000,4,2,1,37,0,0
151279,-100,4,2,1,37,0,0
151455,-25,4,2,1,37,0,0
151500,-10000,4,2,1,37,0,0
151632,-100,4,2,1,37,0,0
151808,-25,4,2,1,37,0,0
151852,-10000,4,2,1,37,0,0
151985,-100,4,2,1,37,0,0
152161,-25,4,2,1,37,0,0
152205,-10000,4,2,1,37,0,0
152338,-100,4,2,1,37,0,0
152514,-25,4,2,1,37,0,0
152558,-10000,4,2,1,37,0,0
152691,-100,4,2,1,37,0,0
152867,-25,4,2,1,37,0,0
152911,-10000,4,2,1,37,0,0
153044,-100,4,2,1,37,0,0
153220,-25,4,2,1,37,0,0
153264,-10000,4,2,1,37,0,0
153397,-100,4,2,1,37,0,0
153573,-25,4,2,1,37,0,0
153617,-10000,4,2,1,37,0,0
153750,-100,4,2,1,37,0,0
153926,-25,4,2,1,37,0,0
153970,-10000,4,2,1,37,0,0
154102,-100,4,2,1,37,0,0
154279,-25,4,2,1,37,0,0
154323,-10000,4,2,1,37,0,0
154455,-100,4,2,1,37,0,0
154632,-25,4,2,1,37,0,0
154676,-10000,4,2,1,37,0,0
154808,-100,4,2,1,37,0,0
154985,-25,4,2,1,37,0,0
155029,-10000,4,2,1,37,0,0
155161,-100,4,2,1,37,0,0
155338,-25,4,2,1,37,0,0
155382,-10000,4,2,1,37,0,0
155514,-100,4,2,1,37,0,0
155691,-25,4,2,1,37,0,0
155735,-10000,4,2,1,37,0,0
155867,-100,4,2,1,37,0,0
156044,-25,4,2,1,37,0,0
156088,-10000,4,2,1,37,0,0
156220,-100,4,2,1,37,0,0
156397,-25,4,2,1,37,0,0
156441,-10000,4,2,1,37,0,0
156573,-100,4,2,1,37,0,0
156750,-25,4,2,1,37,0,0
156794,-10000,4,2,1,37,0,0
156926,-100,4,2,1,37,0,0
157102,-25,4,2,1,37,0,0
157147,-10000,4,2,1,37,0,0
157279,-100,4,2,1,37,0,0
157455,-25,4,2,1,37,0,0
157500,-10000,4,2,1,37,0,0
157632,-100,4,2,1,37,0,0
157808,-25,4,2,1,37,0,0
157852,-10000,4,2,1,37,0,0
157985,-100,4,2,1,37,0,0
158161,-25,4,2,1,37,0,0
158205,-10000,4,2,1,37,0,0
158338,-100,4,2,1,37,0,0
158514,-25,4,2,1,37,0,0
158558,-10000,4,2,1,37,0,0
158691,-100,4,2,1,37,0,0
158867,-25,4,2,1,37,0,0
158911,-10000,4,2,1,37,0,0
159044,-100,4,2,1,37,0,0
159220,-25,4,2,1,37,0,0
159264,-10000,4,2,1,37,0,0
159397,-100,4,2,1,37,0,0
159573,-66.6666666666667,4,2,1,37,0,0
159595,-200,4,2,1,37,0,0
159617,-100,4,2,1,37,0,0
159750,-66.6666666666667,4,2,1,37,0,0
159794,-200,4,2,1,37,0,0
159838,-66.6666666666667,4,2,1,37,0,0
159882,-200,4,2,1,37,0,0
159926,-66.6666666666667,4,2,1,37,0,0
159970,-200,4,2,1,37,0,0
160014,-66.6666666666667,4,2,1,37,0,0
160058,-200,4,2,1,37,0,0
160102,-66.6666666666667,4,2,1,37,0,0
160147,-200,4,2,1,37,0,0
160191,-66.6666666666667,4,2,1,37,0,0
160235,-200,4,2,1,37,0,0
160279,-25,4,2,1,37,0,0
160323,-10000,4,2,1,37,0,0
160455,-100,4,2,1,37,0,0
160808,-33.3333333333333,4,2,1,37,0,0
160830,-200,4,2,1,37,0,0
160985,-100,4,2,1,37,0,0
161338,-20,4,2,1,37,0,0
161360,-5000,4,2,1,37,0,0
161514,-100,4,2,1,37,0,0
161602,-20,4,2,1,37,0,0
161625,-5000,4,2,1,37,0,0
161779,-100,4,2,1,37,0,0
161867,-20,4,2,1,37,0,0
161889,-5000,4,2,1,37,0,0
162044,-66.6666666666667,4,2,1,37,0,0
162088,-200,4,2,1,37,0,0
162132,-100,4,2,1,37,0,0
162220,-66.6666666666667,4,2,1,37,0,0
162242,-200,4,2,1,37,0,0
162264,-100,4,2,1,37,0,0
162397,-66.6666666666667,4,2,1,37,0,0
162441,-200,4,2,1,37,0,0
162485,-100,4,2,1,37,0,0
162573,-66.6666666666667,4,2,1,37,0,0
162595,-200,4,2,1,37,0,0
162617,-100,4,2,1,37,0,0
162750,-66.6666666666667,4,2,1,37,0,0
162794,-200,4,2,1,37,0,0
162838,-100,4,2,1,37,0,0
162926,-66.6666666666667,4,2,1,37,0,0
162948,-200,4,2,1,37,0,0
162970,-100,4,2,1,37,0,0
163102,-66.6666666666667,4,2,1,37,0,0
163147,-200,4,2,1,37,0,0
163191,-100,4,2,1,37,0,0
163279,-66.6666666666667,4,2,1,37,0,0
163301,-200,4,2,1,37,0,0
163323,-100,4,2,1,37,0,0
163455,-66.6666666666667,4,2,1,37,0,0
163500,-200,4,2,1,37,0,0
163544,-100,4,2,1,37,0,0
163632,-66.6666666666667,4,2,1,37,0,0
163654,-200,4,2,1,37,0,0
163676,-100,4,2,1,37,0,0
163808,-66.6666666666667,4,2,1,37,0,0
163852,-200,4,2,1,37,0,0
163897,-100,4,2,1,37,0,0
163985,-66.6666666666667,4,2,1,37,0,0
164007,-200,4,2,1,37,0,0
164029,-100,4,2,1,37,0,0
164161,-66.6666666666667,4,2,1,37,0,0
164205,-200,4,2,1,37,0,0
164250,-100,4,2,1,37,0,0
164338,-66.6666666666667,4,2,1,37,0,0
164360,-200,4,2,1,37,0,0
164382,-100,4,2,1,37,0,0
164514,-66.6666666666667,4,2,1,37,0,0
164558,-200,4,2,1,37,0,0
164602,-66.6666666666667,4,2,1,37,0,0
164647,-200,4,2,1,37,0,0
164691,-66.6666666666667,4,2,1,37,0,0
164735,-200,4,2,1,37,0,0
164779,-66.6666666666667,4,2,1,37,0,0
164823,-200,4,2,1,37,0,0
164867,-66.6666666666667,4,2,1,37,0,0
164911,-200,4,2,1,37,0,0
164955,-100,4,2,1,37,0,0
165088,-66.6666666666667,4,2,1,37,0,0
165110,-200,4,2,1,37,0,0
165132,-100,4,2,1,37,0,0
165220,-64.5161290322581,4,2,1,37,0,0
165264,-222.222222222222,4,2,1,37,0,0
165308,-100,4,2,1,37,0,0
165397,-66.6666666666667,4,2,1,37,0,0
165419,-200,4,2,1,37,0,0
165441,-100,4,2,1,37,0,0
165573,-62.5,4,2,1,37,0,0
165617,-250,4,2,1,37,0,0
165661,-100,4,2,1,37,0,0
165750,-66.6666666666667,4,2,1,37,0,0
165772,-200,4,2,1,37,0,0
165794,-100,4,2,1,37,0,0
165926,-60.6060606060606,4,2,1,37,0,0
165970,-222.222222222222,4,2,1,37,0,0
166014,-100,4,2,1,37,0,0
166102,-66.6666666666667,4,2,1,37,0,0
166125,-200,4,2,1,37,0,0
166147,-100,4,2,1,37,0,0
166279,-58.8235294117647,4,2,1,37,0,0
166323,-333.333333333333,4,2,1,37,0,0
166367,-100,4,2,1,37,0,0
166455,-66.6666666666667,4,2,1,37,0,0
166477,-200,4,2,1,37,0,0
166500,-100,4,2,1,37,0,0
166632,-57.1428571428571,4,2,1,37,0,0
166676,-400,4,2,1,37,0,0
166720,-100,4,2,1,37,0,0
166808,-66.6666666666667,4,2,1,37,0,0
166830,-200,4,2,1,37,0,0
166852,-100,4,2,1,37,0,0
166985,-55.5555555555556,4,2,1,37,0,0
167029,-500,4,2,1,37,0,0
167073,-100,4,2,1,37,0,0
167161,-33.3333333333333,4,2,1,37,0,0
167205,-10000,4,2,1,37,0,0
167250,-100,4,2,1,37,0,0
167338,-33.3333333333333,4,2,1,37,0,0
167382,-10000,4,2,1,37,0,0
167426,-100,4,2,1,37,0,0
167514,-33.3333333333333,4,2,1,37,0,0
167558,-10000,4,2,1,37,0,0
167602,-100,4,2,1,37,0,0
167691,-66.6666666666667,4,2,1,37,0,0
167735,-200,4,2,1,37,0,0
167779,-66.6666666666667,4,2,1,37,0,0
167823,-200,4,2,1,37,0,0
167867,-66.6666666666667,4,2,1,37,0,0
167911,-200,4,2,1,37,0,0
167955,-66.6666666666667,4,2,1,37,0,0
168000,-200,4,2,1,37,0,0
168044,-66.6666666666667,4,2,1,37,0,0
168088,-200,4,2,1,37,0,0
168132,-66.6666666666667,4,2,1,37,0,0
168176,-200,4,2,1,37,0,0
168220,-62.5,4,2,1,37,0,0
168264,-250,4,2,1,37,0,0
168308,-62.5,4,2,1,37,0,0
168352,-250,4,2,1,37,0,0
168397,-62.5,4,2,1,37,0,0
168441,-250,4,2,1,37,0,0
168485,-62.5,4,2,1,37,0,0
168529,-250,4,2,1,37,0,0
168573,-62.5,4,2,1,37,0,0
168617,-250,4,2,1,37,0,0
168661,-62.5,4,2,1,37,0,0
168705,-250,4,2,1,37,0,0
168750,-58.8235294117647,4,2,1,37,0,0
168794,-333.333333333333,4,2,1,37,0,0
168838,-58.8235294117647,4,2,1,37,0,0
168882,-333.333333333333,4,2,1,37,0,0
168926,-58.8235294117647,4,2,1,37,0,0
168970,-333.333333333333,4,2,1,37,0,0
169014,-58.8235294117647,4,2,1,37,0,0
169058,-333.333333333333,4,2,1,37,0,0
169102,-58.8235294117647,4,2,1,37,0,0
169147,-333.333333333333,4,2,1,37,0,0
169191,-58.8235294117647,4,2,1,37,0,0
169235,-333.333333333333,4,2,1,37,0,0
169279,-55.5555555555556,4,2,1,37,0,0
169323,-500,4,2,1,37,0,0
169367,-55.5555555555556,4,2,1,37,0,0
169411,-500,4,2,1,37,0,0
169455,-55.5555555555556,4,2,1,37,0,0
169500,-500,4,2,1,37,0,0
169544,-55.5555555555556,4,2,1,37,0,0
169588,-500,4,2,1,37,0,0
169632,-55.5555555555556,4,2,1,37,0,0
169676,-500,4,2,1,37,0,0
169720,-55.5555555555556,4,2,1,37,0,0
169764,-500,4,2,1,37,0,0
169808,-52.6315789473684,4,2,1,37,0,0
169852,-1000,4,2,1,37,0,0
169897,-52.6315789473684,4,2,1,37,0,0
169941,-1000,4,2,1,37,0,0
169985,-52.6315789473684,4,2,1,37,0,0
170029,-1000,4,2,1,37,0,0
170073,-52.6315789473684,4,2,1,37,0,0
170117,-1000,4,2,1,37,0,0
170161,-52.6315789473684,4,2,1,37,0,0
170205,-1000,4,2,1,37,0,0
170250,-52.6315789473684,4,2,1,37,0,0
170294,-500,4,2,1,37,0,0
170338,-52.6315789473684,4,2,1,37,0,0
170382,-1000,4,2,1,37,0,0
170426,-52.6315789473684,4,2,1,37,0,0
170470,-1000,4,2,1,37,0,0
170514,-66.6666666666667,4,2,1,37,0,0
170536,-200,4,2,1,37,0,0
170558,-66.6666666666667,4,2,1,37,0,0
170580,-200,4,2,1,37,0,0
170602,-66.6666666666667,4,2,1,37,0,0
170625,-200,4,2,1,37,0,0
170647,-66.6666666666667,4,2,1,37,0,0
170669,-200,4,2,1,37,0,0
170691,-100,4,2,1,37,0,0
170867,-57.1428571428571,4,2,1,37,0,0
170889,-400,4,2,1,37,0,0
170911,-57.1428571428571,4,2,1,37,0,0
170933,-400,4,2,1,37,0,0
170955,-57.1428571428571,4,2,1,37,0,0
170977,-400,4,2,1,37,0,0
171000,-57.1428571428571,4,2,1,37,0,0
171022,-400,4,2,1,37,0,0
171044,-100,4,2,1,37,0,0
171220,-50,4,2,1,37,0,0
171242,-10000,4,2,1,37,0,0
171264,-50,4,2,1,37,0,0
171286,-10000,4,2,1,37,0,0
171308,-50,4,2,1,37,0,0
171330,-10000,4,2,1,37,0,0
171352,-50,4,2,1,37,0,0
171375,-10000,4,2,1,37,0,0
171397,-100,4,2,1,37,0,0
171573,-44.4444444444445,4,2,1,37,0,0
171595,-10000,4,2,1,37,0,0
171617,-44.4444444444445,4,2,1,37,0,0
171639,-10000,4,2,1,37,0,0
171661,-44.4444444444445,4,2,1,37,0,0
171683,-10000,4,2,1,37,0,0
171705,-44.4444444444445,4,2,1,37,0,0
171727,-10000,4,2,1,37,0,0
171750,-100,4,2,1,37,0,0
173338,-50,4,2,1,37,0,0
173360,-200,4,2,1,37,0,0
173382,-100,4,2,1,37,0,0
174199,333.333333333333,4,2,1,37,1,0
174199,-106.382978723404,4,2,1,37,0,0
174662,324.324324324324,4,2,1,37,1,0
174662,-72.992700729927,4,2,1,37,0,0
174702,-217.391304347826,4,2,1,37,0,0
174743,-108.695652173913,4,2,1,37,0,0
175797,-54.3478260869565,4,2,1,37,0,0
175817,-217.391304347826,4,2,1,37,0,0
175837,-54.3478260869565,4,2,1,37,0,0
175857,-217.391304347826,4,2,1,37,0,0
175878,-54.3478260869565,4,2,1,37,0,0
175898,-217.391304347826,4,2,1,37,0,0
175925,300,4,2,1,37,1,0
175925,-58.8235294117647,4,2,1,37,0,0
175943,-232.558139534884,4,2,1,37,0,0
175962,-117.647058823529,4,2,1,37,0,0
177106,266.666666666667,4,2,1,37,1,0
177106,-87.719298245614,4,2,1,37,0,0
177139,-263.157894736842,4,2,1,37,0,0
177172,-131.578947368421,4,2,1,37,0,0
178039,-65.7894736842105,4,2,1,37,0,0
178056,-263.157894736842,4,2,1,37,0,0
178072,-65.7894736842105,4,2,1,37,0,0
178089,-263.157894736842,4,2,1,37,0,0
178106,-65.7894736842105,4,2,1,37,0,0
178122,-263.157894736842,4,2,1,37,0,0
178139,-65.7894736842105,4,2,1,37,0,0
178156,-263.157894736842,4,2,1,37,0,0
178198,260.869565217391,4,2,1,37,1,0
178198,-67.5675675675676,4,2,1,37,0,0
178214,-270.27027027027,4,2,1,37,0,0
178230,-135.135135135135,4,2,1,37,0,0
179241,244.897959183673,4,2,1,37,1,0
179241,-97.0873786407767,4,2,1,37,0,0
179271,-289.855072463768,4,2,1,37,0,0
179302,-144.927536231884,4,2,1,37,0,0
180098,-72.463768115942,4,2,1,37,0,0
180113,-285.714285714286,4,2,1,37,0,0
180128,-72.463768115942,4,2,1,37,0,0
180144,-285.714285714286,4,2,1,37,0,0
180159,-72.463768115942,4,2,1,37,0,0
180174,-285.714285714286,4,2,1,37,0,0
180189,-72.463768115942,4,2,1,37,0,0
180205,-285.714285714286,4,2,1,37,0,0
180220,235.294117647059,4,2,1,37,1,0
180220,-149.253731343284,4,2,1,37,0,0
181161,230.769230769231,4,2,1,37,1,0
181161,-102.564102564103,4,2,1,37,0,0
181189,-307.692307692308,4,2,1,37,0,0
181218,-153.846153846154,4,2,1,37,0,0
181968,-76.9230769230769,4,2,1,37,0,0
181983,-303.030303030303,4,2,1,37,0,0
181997,-76.9230769230769,4,2,1,37,0,0
182011,-303.030303030303,4,2,1,37,0,0
182026,-76.9230769230769,4,2,1,37,0,0
182040,-303.030303030303,4,2,1,37,0,0
182055,-76.9230769230769,4,2,1,37,0,0
182069,-303.030303030303,4,2,1,37,0,0
182084,222.222222222222,4,2,1,37,1,0
182084,-79.3650793650794,4,2,1,37,0,0
182097,-312.5,4,2,1,37,0,0
182111,-158.730158730159,4,2,1,37,0,0
182972,210.526315789474,4,2,1,37,1,0
182972,-111.111111111111,4,2,1,37,0,0
182998,-333.333333333333,4,2,1,37,0,0
183024,-166.666666666667,4,2,1,37,0,0
183814,203.389830508475,4,2,1,37,1,0
183814,-114.942528735632,4,2,1,37,0,0
183839,-344.827586206897,4,2,1,37,0,0
183864,-172.413793103448,4,2,1,37,0,0
184627,196.72131147541,4,2,1,37,1,0
184627,-119.047619047619,4,2,1,37,0,0
184651,-357.142857142857,4,2,1,37,0,0
184676,-178.571428571429,4,2,1,37,0,0
185413,190.47619047619,4,2,1,37,1,0
185413,-92.5925925925926,4,2,1,37,0,0
185436,-370.37037037037,4,2,1,37,0,0
185460,-185.185185185185,4,2,1,37,0,0
186174,187.5,4,2,1,37,1,0
186174,-125.786163522013,4,2,1,37,0,0
186197,-377.358490566038,4,2,1,37,0,0
186220,-188.679245283019,4,2,1,37,0,0
186924,184.615384615385,4,2,1,37,1,0
186924,-128.205128205128,4,2,1,37,0,0
186947,-384.615384615385,4,2,1,37,0,0
186970,-192.307692307692,4,2,1,37,0,0
187662,181.818181818182,4,2,1,37,1,0
187662,-128.205128205128,4,2,1,37,0,0
187684,-384.615384615385,4,2,1,37,0,0
187707,-194.174757281553,4,2,1,37,0,0
188025,-96.1538461538461,4,2,1,37,0,0
188116,-384.615384615385,4,2,1,37,0,0
188207,-192.307692307692,4,2,1,37,0,0
188389,179.10447761194,4,2,1,37,1,0
188389,-98.0392156862745,4,2,1,37,0,0
188400,-384.615384615385,4,2,1,37,0,0
188411,-196.078431372549,4,2,1,37,0,0
188747,-192.307692307692,4,2,1,37,0,0
189105,176.470588235294,4,2,1,37,1,0
189105,-200,4,2,1,37,0,0
189457,-196.078431372549,4,2,1,37,0,0
189810,-192.307692307692,4,2,1,37,0,0
191222,-190.47619047619,4,2,1,37,0,0
191244,-212.765957446809,4,2,1,37,0,0
191266,-190.47619047619,4,2,1,37,0,0
191288,-212.765957446809,4,2,1,37,0,0
191310,-190.47619047619,4,2,1,37,0,0
191332,-212.765957446809,4,2,1,37,0,0
191355,-190.47619047619,4,2,1,37,0,0
191377,-212.765957446809,4,2,1,37,0,0
191399,-190.47619047619,4,2,1,37,0,0
191421,-212.765957446809,4,2,1,37,0,0
191443,-190.47619047619,4,2,1,37,0,0
191465,-212.765957446809,4,2,1,37,0,0
191487,-178.571428571429,4,2,1,37,0,0
191509,-227.272727272727,4,2,1,37,0,0
191531,-178.571428571429,4,2,1,37,0,0
191553,-227.272727272727,4,2,1,37,0,0
191575,-178.571428571429,4,2,1,37,0,0
191597,-227.272727272727,4,2,1,37,0,0
191619,-178.571428571429,4,2,1,37,0,0
191641,-227.272727272727,4,2,1,37,0,0
191663,-178.571428571429,4,2,1,37,0,0
191685,-227.272727272727,4,2,1,37,0,0
191707,-178.571428571429,4,2,1,37,0,0
191730,-227.272727272727,4,2,1,37,0,0
191752,-169.491525423729,4,2,1,37,0,0
191774,-243.90243902439,4,2,1,37,0,0
191796,-169.491525423729,4,2,1,37,0,0
191818,-243.90243902439,4,2,1,37,0,0
191840,-169.491525423729,4,2,1,37,0,0
191862,-243.90243902439,4,2,1,37,0,0
191884,-169.491525423729,4,2,1,37,0,0
191906,-243.90243902439,4,2,1,37,0,0
191928,-169.491525423729,4,2,1,37,0,0
191950,-243.90243902439,4,2,1,37,0,0
191972,-169.491525423729,4,2,1,37,0,0
191994,-243.90243902439,4,2,1,37,0,0
192016,-169.491525423729,4,2,1,37,0,0
192038,-243.90243902439,4,2,1,37,0,0
192060,-169.491525423729,4,2,1,37,0,0
192082,-243.90243902439,4,2,1,37,0,0
192105,-161.290322580645,4,2,1,37,0,0
192127,-263.157894736842,4,2,1,37,0,0
192149,-161.290322580645,4,2,1,37,0,0
192171,-263.157894736842,4,2,1,37,0,0
192193,-161.290322580645,4,2,1,37,0,0
192215,-263.157894736842,4,2,1,37,0,0
192237,-161.290322580645,4,2,1,37,0,0
192259,-263.157894736842,4,2,1,37,0,0
192281,-161.290322580645,4,2,1,37,0,0
192303,-263.157894736842,4,2,1,37,0,0
192325,-161.290322580645,4,2,1,37,0,0
192347,-263.157894736842,4,2,1,37,0,0
192369,-153.846153846154,4,2,1,37,0,0
192391,-285.714285714286,4,2,1,37,0,0
192413,-153.846153846154,4,2,1,37,0,0
192435,-285.714285714286,4,2,1,37,0,0
192457,-153.846153846154,4,2,1,37,0,0
192480,-285.714285714286,4,2,1,37,0,0
192502,-153.846153846154,4,2,1,37,0,0
192524,-285.714285714286,4,2,1,37,0,0
192546,-153.846153846154,4,2,1,37,0,0
192568,-285.714285714286,4,2,1,37,0,0
192590,-153.846153846154,4,2,1,37,0,0
192612,-285.714285714286,4,2,1,37,0,0
192634,-133.333333333333,4,2,1,37,0,0
192656,-400,4,2,1,37,0,0
192678,-133.333333333333,4,2,1,37,0,0
192700,-400,4,2,1,37,0,0
192722,-133.333333333333,4,2,1,37,0,0
192744,-400,4,2,1,37,0,0
192766,-133.333333333333,4,2,1,37,0,0
192788,-400,4,2,1,37,0,0
192810,-133.333333333333,4,2,1,37,0,0
192832,-400,4,2,1,37,0,0
192855,-133.333333333333,4,2,1,37,0,0
192877,-400,4,2,1,37,0,0
192899,-133.333333333333,4,2,1,37,0,0
192921,-400,4,2,1,37,0,0
192943,-133.333333333333,4,2,1,37,0,0
192965,-400,4,2,1,37,0,0
192987,-117.647058823529,4,2,1,37,0,0
193009,-666.666666666667,4,2,1,37,0,0
193031,-117.647058823529,4,2,1,37,0,0
193053,-666.666666666667,4,2,1,37,0,0
193075,-117.647058823529,4,2,1,37,0,0
193097,-666.666666666667,4,2,1,37,0,0
193119,-117.647058823529,4,2,1,37,0,0
193141,-666.666666666667,4,2,1,37,0,0
193163,-117.647058823529,4,2,1,37,0,0
193185,-666.666666666667,4,2,1,37,0,0
193207,-117.647058823529,4,2,1,37,0,0
193230,-666.666666666667,4,2,1,37,0,0
193252,-117.647058823529,4,2,1,37,0,0
193274,-666.666666666667,4,2,1,37,0,0
193296,-117.647058823529,4,2,1,37,0,0
193318,-666.666666666667,4,2,1,37,0,0
193340,-111.111111111111,4,2,1,37,0,0
193362,-1000,4,2,1,37,0,0
193384,-111.111111111111,4,2,1,37,0,0
193406,-1000,4,2,1,37,0,0
193428,-111.111111111111,4,2,1,37,0,0
193450,-1000,4,2,1,37,0,0
193472,-111.111111111111,4,2,1,37,0,0
193494,-1000,4,2,1,37,0,0
193516,-111.111111111111,4,2,1,37,0,0
193538,-1000,4,2,1,37,0,0
193560,-111.111111111111,4,2,1,37,0,0
193582,-1000,4,2,1,37,0,0
193605,-111.111111111111,4,2,1,37,0,0
193627,-1000,4,2,1,37,0,0
193649,-111.111111111111,4,2,1,37,0,0
193671,-1000,4,2,1,37,0,0
193693,-105.263157894737,4,2,1,37,0,0
193715,-2000,4,2,1,37,0,0
193737,-105.263157894737,4,2,1,37,0,0
193759,-2000,4,2,1,37,0,0
193781,-105.263157894737,4,2,1,37,0,0
193803,-2000,4,2,1,37,0,0
193825,-105.263157894737,4,2,1,37,0,0
193847,-2000,4,2,1,37,0,0
193869,-105.263157894737,4,2,1,37,0,0
193891,-2000,4,2,1,37,0,0
193913,-105.263157894737,4,2,1,37,0,0
193935,-2000,4,2,1,37,0,0
193957,-105.263157894737,4,2,1,37,0,0
193980,-2000,4,2,1,37,0,0
194002,-105.263157894737,4,2,1,37,0,0
194024,-2000,4,2,1,37,0,0
194046,-105.263157894737,4,2,1,37,0,0
194068,-2000,4,2,1,37,0,0
194090,-105.263157894737,4,2,1,37,0,0
194112,-2000,4,2,1,37,0,0
194134,-105.263157894737,4,2,1,37,0,0
194156,-2000,4,2,1,37,0,0
194178,-105.263157894737,4,2,1,37,0,0
194200,-2000,4,2,1,37,0,0
194222,-105.263157894737,4,2,1,37,0,0
194244,-2000,4,2,1,37,0,0
194266,-105.263157894737,4,2,1,37,0,0
194288,-2000,4,2,1,37,0,0
194310,-105.263157894737,4,2,1,37,0,0
194332,-2000,4,2,1,37,0,0
194355,-105.263157894737,4,2,1,37,0,0
194377,-2000,4,2,1,37,0,0
194399,-105.263157894737,4,2,1,37,0,0
194421,-2000,4,2,1,37,0,0
194443,-105.263157894737,4,2,1,37,0,0
194465,-2000,4,2,1,37,0,0
194487,-105.263157894737,4,2,1,37,0,0
194509,-2000,4,2,1,37,0,0
194531,-105.263157894737,4,2,1,37,0,0
194553,-2000,4,2,1,37,0,0
194575,-105.263157894737,4,2,1,37,0,0
194597,-2000,4,2,1,37,0,0
194619,-105.263157894737,4,2,1,37,0,0
194641,-2000,4,2,1,37,0,0
194663,-105.263157894737,4,2,1,37,0,0
194685,-2000,4,2,1,37,0,0
194707,-105.263157894737,4,2,1,37,0,0
194730,-2000,4,2,1,37,0,0
194752,-105.263157894737,4,2,1,37,0,0
194774,-2000,4,2,1,37,0,0
194796,-105.263157894737,4,2,1,37,0,0
194818,-2000,4,2,1,37,0,0
194840,-105.263157894737,4,2,1,37,0,0
194862,-2000,4,2,1,37,0,0
194884,-105.263157894737,4,2,1,37,0,0
194906,-2000,4,2,1,37,0,0
194928,-105.263157894737,4,2,1,37,0,0
194950,-2000,4,2,1,37,0,0
194972,-105.263157894737,4,2,1,37,0,0
194994,-2000,4,2,1,37,0,0
195016,-105.263157894737,4,2,1,37,0,0
195038,-2000,4,2,1,37,0,0
195060,-105.263157894737,4,2,1,37,0,0
195082,-2000,4,2,1,37,0,0
195105,-500,4,2,1,37,0,0
195193,-125,4,2,1,37,0,0
195281,-200,4,2,1,37,0,0
195451,176.470588235294,4,2,1,37,1,0
195451,-111.111111111111,4,2,1,37,0,1
195495,-1000,4,2,1,37,0,1
195539,-111.111111111111,4,2,1,37,0,1
195561,-1000,4,2,1,37,0,1
195583,-111.111111111111,4,2,1,37,0,1
195605,-1000,4,2,1,37,0,1
195627,-125,4,2,1,37,0,1
195671,-500,4,2,1,37,0,1
195715,-111.111111111111,4,2,1,37,0,1
195737,-1000,4,2,1,37,0,1
195759,-111.111111111111,4,2,1,37,0,1
195781,-1000,4,2,1,37,0,1
195803,-125,4,2,1,37,0,1
195848,-500,4,2,1,37,0,1
195892,-111.111111111111,4,2,1,37,0,1
195914,-1000,4,2,1,37,0,1
195936,-111.111111111111,4,2,1,37,0,1
195958,-1000,4,2,1,37,0,1
195980,-125,4,2,1,37,0,1
196024,-500,4,2,1,37,0,1
196068,-111.111111111111,4,2,1,37,0,1
196090,-1000,4,2,1,37,0,1
196112,-111.111111111111,4,2,1,37,0,1
196134,-1000,4,2,1,37,0,1
196156,-125,4,2,1,37,0,1
196201,-500,4,2,1,37,0,1
196245,-111.111111111111,4,2,1,37,0,1
196267,-1000,4,2,1,37,0,1
196289,-111.111111111111,4,2,1,37,0,1
196311,-1000,4,2,1,37,0,1
196333,-125,4,2,1,37,0,1
196377,-500,4,2,1,37,0,1
196421,-111.111111111111,4,2,1,37,0,1
196443,-1000,4,2,1,37,0,1
196465,-111.111111111111,4,2,1,37,0,1
196487,-1000,4,2,1,37,0,1
196509,-125,4,2,1,37,0,1
196553,-500,4,2,1,37,0,1
196598,-111.111111111111,4,2,1,37,0,1
196620,-1000,4,2,1,37,0,1
196642,-111.111111111111,4,2,1,37,0,1
196664,-1000,4,2,1,37,0,1
196686,-125,4,2,1,37,0,1
196730,-500,4,2,1,37,0,1
196774,-111.111111111111,4,2,1,37,0,1
196796,-1000,4,2,1,37,0,1
196818,-111.111111111111,4,2,1,37,0,1
196840,-1000,4,2,1,37,0,1
196862,-125,4,2,1,37,0,1
196906,-500,4,2,1,37,0,1
196951,-111.111111111111,4,2,1,37,0,1
196973,-1000,4,2,1,37,0,1
196995,-111.111111111111,4,2,1,37,0,1
197017,-1000,4,2,1,37,0,1
197039,-125,4,2,1,37,0,1
197083,-500,4,2,1,37,0,1
197127,-111.111111111111,4,2,1,37,0,1
197149,-1000,4,2,1,37,0,1
197171,-111.111111111111,4,2,1,37,0,1
197193,-1000,4,2,1,37,0,1
197215,-125,4,2,1,37,0,1
197259,-500,4,2,1,37,0,1
197303,-111.111111111111,4,2,1,37,0,1
197326,-1000,4,2,1,37,0,1
197348,-111.111111111111,4,2,1,37,0,1
197370,-1000,4,2,1,37,0,1
197392,-125,4,2,1,37,0,1
197436,-500,4,2,1,37,0,1
197480,-111.111111111111,4,2,1,37,0,1
197502,-1000,4,2,1,37,0,1
197524,-111.111111111111,4,2,1,37,0,1
197546,-1000,4,2,1,37,0,1
197568,-125,4,2,1,37,0,1
197612,-500,4,2,1,37,0,1
197656,-111.111111111111,4,2,1,37,0,1
197678,-1000,4,2,1,37,0,1
197701,-111.111111111111,4,2,1,37,0,1
197723,-1000,4,2,1,37,0,1
197745,-125,4,2,1,37,0,1
197789,-500,4,2,1,37,0,1
197833,-111.111111111111,4,2,1,37,0,1
197855,-1000,4,2,1,37,0,1
197877,-111.111111111111,4,2,1,37,0,1
197899,-1000,4,2,1,37,0,1
197921,-111.111111111111,4,2,1,37,0,1
197943,-1000,4,2,1,37,0,1
197965,-111.111111111111,4,2,1,37,0,1
197987,-1000,4,2,1,37,0,1
198009,-111.111111111111,4,2,1,37,0,1
198031,-1000,4,2,1,37,0,1
198053,-111.111111111111,4,2,1,37,0,1
198076,-1000,4,2,1,37,0,1
198098,-111.111111111111,4,2,1,37,0,1
198120,-1000,4,2,1,37,0,1
198142,-111.111111111111,4,2,1,37,0,1
198164,-1000,4,2,1,37,0,1
198186,-111.111111111111,4,2,1,37,0,1
198208,-1000,4,2,1,37,0,1
198230,-111.111111111111,4,2,1,37,0,1
198252,-1000,4,2,1,37,0,1
198274,-133.333333333333,4,2,1,37,0,1
198362,-400,4,2,1,37,0,1
198451,-200,4,2,1,37,0,1
198627,-111.111111111111,4,2,1,37,0,1
198715,-1000,4,2,1,37,0,1
198803,-133.333333333333,4,2,1,37,0,1
198848,-400,4,2,1,37,0,1
198892,-133.333333333333,4,2,1,37,0,1
198936,-400,4,2,1,37,0,1
198980,-111.111111111111,4,2,1,37,0,1
199068,-1000,4,2,1,37,0,1
199156,-133.333333333333,4,2,1,37,0,1
199201,-400,4,2,1,37,0,1
199245,-133.333333333333,4,2,1,37,0,1
199289,-400,4,2,1,37,0,1
199333,-111.111111111111,4,2,1,37,0,1
199421,-1000,4,2,1,37,0,1
199509,-200,4,2,1,37,0,1
199686,-133.333333333333,4,2,1,37,0,1
199774,-400,4,2,1,37,0,1
199862,-133.333333333333,4,2,1,37,0,1
199906,-400,4,2,1,37,0,1
199951,-200,4,2,1,37,0,1
200039,-111.111111111111,4,2,1,37,0,1
200127,-1000,4,2,1,37,0,1
200215,-133.333333333333,4,2,1,37,0,1
200259,-400,4,2,1,37,0,1
200303,-133.333333333333,4,2,1,37,0,1
200348,-400,4,2,1,37,0,1
200392,-111.111111111111,4,2,1,37,0,1
200436,-1000,4,2,1,37,0,1
200480,-133.333333333333,4,2,1,37,0,1
200524,-400,4,2,1,37,0,1
200568,-133.333333333333,4,2,1,37,0,1
200612,-400,4,2,1,37,0,1
200656,-133.333333333333,4,2,1,37,0,1
200701,-400,4,2,1,37,0,1
200745,-105.263157894737,4,2,1,37,0,1
200789,-2000,4,2,1,37,0,1
200833,-200,4,2,1,37,0,1
201098,-111.111111111111,4,2,1,37,0,1
201120,-999.99999999999,4,2,1,37,0,1
201142,-111.111111111111,4,2,1,37,0,1
201164,-999.99999999999,4,2,1,37,0,1
201186,-111.111111111111,4,2,1,37,0,1
201208,-999.99999999999,4,2,1,37,0,1
201230,-111.111111111111,4,2,1,37,0,1
201252,-999.99999999999,4,2,1,37,0,1
201274,-111.111111111111,4,2,1,37,0,1
201296,-999.99999999999,4,2,1,37,0,1
201318,-111.111111111111,4,2,1,37,0,1
201340,-999.99999999999,4,2,1,37,0,1
201362,-111.111111111111,4,2,1,37,0,1
201384,-999.99999999999,4,2,1,37,0,1
201406,-111.111111111111,4,2,1,37,0,1
201428,-999.99999999999,4,2,1,37,0,1
201451,-125,4,2,1,37,0,1
201495,-499.999999999997,4,2,1,37,0,1
201539,-111.111111111111,4,2,1,37,0,1
201561,-999.99999999999,4,2,1,37,0,1
201583,-111.111111111111,4,2,1,37,0,1
201605,-999.99999999999,4,2,1,37,0,1
201627,-125,4,2,1,37,0,1
201671,-499.999999999997,4,2,1,37,0,1
201715,-125,4,2,1,37,0,1
201759,-499.999999999997,4,2,1,37,0,1
201803,-125,4,2,1,37,0,1
201848,-499.999999999997,4,2,1,37,0,1
201892,-111.111111111111,4,2,1,37,0,1
201914,-999.99999999999,4,2,1,37,0,1
201936,-111.111111111111,4,2,1,37,0,1
201958,-999.99999999999,4,2,1,37,0,1
201980,-125,4,2,1,37,0,1
202024,-499.999999999997,4,2,1,37,0,1
202068,-125,4,2,1,37,0,1
202112,-499.999999999997,4,2,1,37,0,1
202156,-125,4,2,1,37,0,1
202201,-500,4,2,1,37,0,1
202245,-111.111111111111,4,2,1,37,0,1
202267,-999.99999999999,4,2,1,37,0,1
202289,-111.111111111111,4,2,1,37,0,1
202311,-999.99999999999,4,2,1,37,0,1
202333,-125,4,2,1,37,0,1
202377,-499.999999999997,4,2,1,37,0,1
202421,-125,4,2,1,37,0,1
202465,-499.999999999997,4,2,1,37,0,1
202509,-125,4,2,1,37,0,1
202553,-499.999999999997,4,2,1,37,0,1
202598,-111.111111111111,4,2,1,37,0,1
202620,-999.99999999999,4,2,1,37,0,1
202642,-111.111111111111,4,2,1,37,0,1
202664,-999.99999999999,4,2,1,37,0,1
202686,-125,4,2,1,37,0,1
202730,-499.999999999997,4,2,1,37,0,1
202774,-125,4,2,1,37,0,1
202818,-499.999999999997,4,2,1,37,0,1
202862,-125,4,2,1,37,0,1
202906,-499.999999999997,4,2,1,37,0,1
202951,-111.111111111111,4,2,1,37,0,1
202973,-999.99999999999,4,2,1,37,0,1
202995,-111.111111111111,4,2,1,37,0,1
203017,-999.99999999999,4,2,1,37,0,1
203039,-125,4,2,1,37,0,1
203083,-499.999999999997,4,2,1,37,0,1
203127,-125,4,2,1,37,0,1
203171,-499.999999999997,4,2,1,37,0,1
203215,-125,4,2,1,37,0,1
203259,-499.999999999997,4,2,1,37,0,1
203303,-111.111111111111,4,2,1,37,0,1
203326,-999.99999999999,4,2,1,37,0,1
203348,-111.111111111111,4,2,1,37,0,1
203370,-999.99999999999,4,2,1,37,0,1
203392,-125,4,2,1,37,0,1
203436,-499.999999999997,4,2,1,37,0,1
203480,-125,4,2,1,37,0,1
203524,-499.999999999997,4,2,1,37,0,1
203568,-111.111111111111,4,2,1,37,0,1
203590,-999.99999999999,4,2,1,37,0,1
203612,-111.111111111111,4,2,1,37,0,1
203634,-999.99999999999,4,2,1,37,0,1
203656,-111.111111111111,4,2,1,37,0,1
203678,-999.99999999999,4,2,1,37,0,1
203701,-111.111111111111,4,2,1,37,0,1
203723,-999.99999999999,4,2,1,37,0,1
203745,-111.111111111111,4,2,1,37,0,1
203767,-999.99999999999,4,2,1,37,0,1
203789,-111.111111111111,4,2,1,37,0,1
203811,-999.99999999999,4,2,1,37,0,1
203833,-111.111111111111,4,2,1,37,0,1
203855,-999.99999999999,4,2,1,37,0,1
203877,-111.111111111111,4,2,1,37,0,1
203899,-999.99999999999,4,2,1,37,0,1
203921,-133.333333333333,4,2,1,37,0,1
204009,-400,4,2,1,37,0,1
204098,-133.333333333333,4,2,1,37,0,1
204142,-400,4,2,1,37,0,1
204186,-200,4,2,1,37,0,1
204274,-111.111111111111,4,2,1,37,0,1
204362,-1000,4,2,1,37,0,1
204451,-133.333333333333,4,2,1,37,0,1
204495,-400,4,2,1,37,0,1
204539,-133.333333333333,4,2,1,37,0,1
204583,-400,4,2,1,37,0,1
204627,-111.111111111111,4,2,1,37,0,1
204671,-1000,4,2,1,37,0,1
204715,-200,4,2,1,37,0,1
204803,-133.333333333333,4,2,1,37,0,1
204848,-400,4,2,1,37,0,1
204892,-133.333333333333,4,2,1,37,0,1
204936,-400,4,2,1,37,0,1
204980,-133.333333333333,4,2,1,37,0,1
205024,-400,4,2,1,37,0,1
205068,-200,4,2,1,37,0,1
205333,-66.6666666666667,4,2,1,37,0,1
205355,-400,4,2,1,37,0,1
205421,-200,4,2,1,37,0,1
205509,-100,4,2,1,37,0,1
205531,-400,4,2,1,37,0,1
205553,-200,4,2,1,37,0,1
205598,-100,4,2,1,37,0,1
205620,-400,4,2,1,37,0,1
205642,-200,4,2,1,37,0,1
205686,-100,4,2,1,37,0,1
205708,-400,4,2,1,37,0,1
205774,-200,4,2,1,37,0,1
205862,-100,4,2,1,37,0,1
205884,-400,4,2,1,37,0,1
205951,-200,4,2,1,37,0,1
206039,-105.263157894737,4,2,1,37,0,1
206061,-2000,4,2,1,37,0,1
206083,-111.111111111111,4,2,1,37,0,1
206105,-1000,4,2,1,37,0,1
206127,-117.647058823529,4,2,1,37,0,1
206149,-666.666666666667,4,2,1,37,0,1
206171,-125,4,2,1,37,0,1
206193,-500,4,2,1,37,0,1
206215,-133.333333333333,4,2,1,37,0,1
206259,-400,4,2,1,37,0,1
206303,-133.333333333333,4,2,1,37,0,1
206348,-400,4,2,1,37,0,1
206392,-133.333333333333,4,2,1,37,0,1
206436,-400,4,2,1,37,0,1
206480,-133.333333333333,4,2,1,37,0,1
206524,-400,4,2,1,37,0,1
206568,-133.333333333333,4,2,1,37,0,1
206612,-400,4,2,1,37,0,1
206656,-133.333333333333,4,2,1,37,0,1
206701,-400,4,2,1,37,0,1
206745,-125,4,2,1,37,0,1
206789,-500,4,2,1,37,0,1
206833,-111.111111111111,4,2,1,37,0,1
206855,-1000,4,2,1,37,0,1
206877,-111.111111111111,4,2,1,37,0,1
206899,-1000,4,2,1,37,0,1
206921,-125,4,2,1,37,0,1
206965,-500,4,2,1,37,0,1
207009,-111.111111111111,4,2,1,37,0,1
207031,-1000,4,2,1,37,0,1
207053,-111.111111111111,4,2,1,37,0,1
207076,-1000,4,2,1,37,0,1
207098,-125,4,2,1,37,0,1
207142,-500,4,2,1,37,0,1
207186,-111.111111111111,4,2,1,37,0,1
207208,-1000,4,2,1,37,0,1
207230,-111.111111111111,4,2,1,37,0,1
207252,-1000,4,2,1,37,0,1
207274,-125,4,2,1,37,0,1
207318,-500,4,2,1,37,0,1
207362,-111.111111111111,4,2,1,37,0,1
207384,-1000,4,2,1,37,0,1
207406,-111.111111111111,4,2,1,37,0,1
207428,-1000,4,2,1,37,0,1
207451,-125,4,2,1,37,0,1
207495,-500,4,2,1,37,0,1
207539,-111.111111111111,4,2,1,37,0,1
207561,-1000,4,2,1,37,0,1
207583,-111.111111111111,4,2,1,37,0,1
207605,-1000,4,2,1,37,0,1
207627,-125,4,2,1,37,0,1
207671,-500,4,2,1,37,0,1
207715,-111.111111111111,4,2,1,37,0,1
207737,-1000,4,2,1,37,0,1
207759,-111.111111111111,4,2,1,37,0,1
207781,-1000,4,2,1,37,0,1
207803,-125,4,2,1,37,0,1
207848,-500,4,2,1,37,0,1
207892,-111.111111111111,4,2,1,37,0,1
207914,-1000,4,2,1,37,0,1
207936,-111.111111111111,4,2,1,37,0,1
207958,-1000,4,2,1,37,0,1
207980,-125,4,2,1,37,0,1
208024,-500,4,2,1,37,0,1
208068,-111.111111111111,4,2,1,37,0,1
208090,-1000,4,2,1,37,0,1
208112,-111.111111111111,4,2,1,37,0,1
208134,-1000,4,2,1,37,0,1
208156,-125,4,2,1,37,0,1
208201,-500,4,2,1,37,0,1
208245,-111.111111111111,4,2,1,37,0,1
208267,-1000,4,2,1,37,0,1
208289,-111.111111111111,4,2,1,37,0,1
208311,-1000,4,2,1,37,0,1
208333,-125,4,2,1,37,0,1
208377,-500,4,2,1,37,0,1
208421,-111.111111111111,4,2,1,37,0,1
208443,-1000,4,2,1,37,0,1
208465,-111.111111111111,4,2,1,37,0,1
208487,-1000,4,2,1,37,0,1
208509,-125,4,2,1,37,0,1
208553,-500,4,2,1,37,0,1
208598,-111.111111111111,4,2,1,37,0,1
208620,-1000,4,2,1,37,0,1
208642,-111.111111111111,4,2,1,37,0,1
208664,-1000,4,2,1,37,0,1
208686,-125,4,2,1,37,0,1
208730,-500,4,2,1,37,0,1
208774,-111.111111111111,4,2,1,37,0,1
208796,-1000,4,2,1,37,0,1
208818,-111.111111111111,4,2,1,37,0,1
208840,-1000,4,2,1,37,0,1
208862,-125,4,2,1,37,0,1
208906,-500,4,2,1,37,0,1
208951,-111.111111111111,4,2,1,37,0,1
208973,-1000,4,2,1,37,0,1
208995,-111.111111111111,4,2,1,37,0,1
209017,-1000,4,2,1,37,0,1
209039,-125,4,2,1,37,0,1
209083,-500,4,2,1,37,0,1
209127,-111.111111111111,4,2,1,37,0,1
209149,-1000,4,2,1,37,0,1
209171,-111.111111111111,4,2,1,37,0,1
209193,-1000,4,2,1,37,0,1
209215,-111.111111111111,4,2,1,37,0,1
209237,-1000,4,2,1,37,0,1
209259,-111.111111111111,4,2,1,37,0,1
209281,-1000,4,2,1,37,0,1
209303,-111.111111111111,4,2,1,37,0,1
209326,-1000,4,2,1,37,0,1
209348,-111.111111111111,4,2,1,37,0,1
209370,-1000,4,2,1,37,0,1
209392,-111.111111111111,4,2,1,37,0,1
209414,-1000,4,2,1,37,0,1
209436,-111.111111111111,4,2,1,37,0,1
209458,-1000,4,2,1,37,0,1
209480,-111.111111111111,4,2,1,37,0,1
209502,-1000,4,2,1,37,0,1
209524,-111.111111111111,4,2,1,37,0,1
209546,-1000,4,2,1,37,0,1
209568,-133.333333333333,4,2,1,37,0,1
209656,-400,4,2,1,37,0,1
209745,-133.333333333333,4,2,1,37,0,1
209789,-400,4,2,1,37,0,1
209833,-133.333333333333,4,2,1,37,0,1
209877,-400,4,2,1,37,0,1
209921,-111.111111111111,4,2,1,37,0,1
209965,-1000,4,2,1,37,0,1
210009,-133.333333333333,4,2,1,37,0,1
210053,-400,4,2,1,37,0,1
210098,-133.333333333333,4,2,1,37,0,1
210142,-400,4,2,1,37,0,1
210186,-133.333333333333,4,2,1,37,0,1
210230,-400,4,2,1,37,0,1
210274,-111.111111111111,4,2,1,37,0,1
210318,-1000,4,2,1,37,0,1
210362,-133.333333333333,4,2,1,37,0,1
210406,-400,4,2,1,37,0,1
210451,-133.333333333333,4,2,1,37,0,1
210495,-400,4,2,1,37,0,1
210539,-133.333333333333,4,2,1,37,0,1
210583,-400,4,2,1,37,0,1
210627,-111.111111111111,4,2,1,37,0,1
210671,-1000,4,2,1,37,0,1
210715,-133.333333333333,4,2,1,37,0,1
210759,-400,4,2,1,37,0,1
210803,-133.333333333333,4,2,1,37,0,1
210848,-400,4,2,1,37,0,1
210892,-200,4,2,1,37,0,1
210980,-133.333333333333,4,2,1,37,0,1
211024,-400,4,2,1,37,0,1
211068,-200,4,2,1,37,0,1
211156,-133.333333333333,4,2,1,37,0,1
211201,-400,4,2,1,37,0,1
211245,-200,4,2,1,37,0,1
211333,-111.111111111111,4,2,1,37,0,1
211377,-1000,4,2,1,37,0,1
211421,-133.333333333333,4,2,1,37,0,1
211465,-400,4,2,1,37,0,1
211509,-133.333333333333,4,2,1,37,0,1
211553,-400,4,2,1,37,0,1
211598,-133.333333333333,4,2,1,37,0,1
211642,-400,4,2,1,37,0,1
211686,-111.111111111111,4,2,1,37,0,1
211730,-1000,4,2,1,37,0,1
211774,-133.333333333333,4,2,1,37,0,1
211818,-400,4,2,1,37,0,1
211862,-133.333333333333,4,2,1,37,0,1
211906,-400,4,2,1,37,0,1
211951,-133.333333333333,4,2,1,37,0,1
211995,-400,4,2,1,37,0,1
212039,-111.111111111111,4,2,1,37,0,1
212127,-1000,4,2,1,37,0,1
212215,-111.111111111111,4,2,1,37,0,1
212237,-1000,4,2,1,37,0,1
212259,-111.111111111111,4,2,1,37,0,1
212281,-1000,4,2,1,37,0,1
212303,-111.111111111111,4,2,1,37,0,1
212326,-1000,4,2,1,37,0,1
212348,-111.111111111111,4,2,1,37,0,1
212370,-1000,4,2,1,37,0,1
212392,-125,4,2,1,37,0,1
212436,-500,4,2,1,37,0,1
212480,-111.111111111111,4,2,1,37,0,1
212502,-1000,4,2,1,37,0,1
212524,-111.111111111111,4,2,1,37,0,1
212546,-1000,4,2,1,37,0,1
212568,-125,4,2,1,37,0,1
212612,-500,4,2,1,37,0,1
212656,-111.111111111111,4,2,1,37,0,1
212678,-1000,4,2,1,37,0,1
212701,-111.111111111111,4,2,1,37,0,1
212723,-1000,4,2,1,37,0,1
212745,-125,4,2,1,37,0,1
212789,-500,4,2,1,37,0,1
212833,-111.111111111111,4,2,1,37,0,1
212855,-1000,4,2,1,37,0,1
212877,-111.111111111111,4,2,1,37,0,1
212899,-1000,4,2,1,37,0,1
212921,-125,4,2,1,37,0,1
212965,-500,4,2,1,37,0,1
213009,-111.111111111111,4,2,1,37,0,1
213031,-1000,4,2,1,37,0,1
213053,-111.111111111111,4,2,1,37,0,1
213076,-1000,4,2,1,37,0,1
213098,-125,4,2,1,37,0,1
213142,-500,4,2,1,37,0,1
213186,-111.111111111111,4,2,1,37,0,1
213208,-1000,4,2,1,37,0,1
213230,-111.111111111111,4,2,1,37,0,1
213252,-1000,4,2,1,37,0,1
213274,-125,4,2,1,37,0,1
213318,-500,4,2,1,37,0,1
213362,-111.111111111111,4,2,1,37,0,1
213384,-1000,4,2,1,37,0,1
213406,-111.111111111111,4,2,1,37,0,1
213428,-1000,4,2,1,37,0,1
213451,-125,4,2,1,37,0,1
213495,-500,4,2,1,37,0,1
213539,-111.111111111111,4,2,1,37,0,1
213561,-1000,4,2,1,37,0,1
213583,-111.111111111111,4,2,1,37,0,1
213605,-1000,4,2,1,37,0,1
213627,-125,4,2,1,37,0,1
213671,-500,4,2,1,37,0,1
213715,-111.111111111111,4,2,1,37,0,1
213737,-1000,4,2,1,37,0,1
213759,-111.111111111111,4,2,1,37,0,1
213781,-1000,4,2,1,37,0,1
213803,-125,4,2,1,37,0,1
213848,-500,4,2,1,37,0,1
213892,-111.111111111111,4,2,1,37,0,1
213914,-1000,4,2,1,37,0,1
213936,-111.111111111111,4,2,1,37,0,1
213958,-1000,4,2,1,37,0,1
213980,-125,4,2,1,37,0,1
214024,-500,4,2,1,37,0,1
214068,-111.111111111111,4,2,1,37,0,1
214090,-1000,4,2,1,37,0,1
214112,-111.111111111111,4,2,1,37,0,1
214134,-1000,4,2,1,37,0,1
214156,-125,4,2,1,37,0,1
214201,-500,4,2,1,37,0,1
214245,-111.111111111111,4,2,1,37,0,1
214267,-1000,4,2,1,37,0,1
214289,-111.111111111111,4,2,1,37,0,1
214311,-1000,4,2,1,37,0,1
214333,-125,4,2,1,37,0,1
214377,-500,4,2,1,37,0,1
214421,-111.111111111111,4,2,1,37,0,1
214443,-1000,4,2,1,37,0,1
214465,-111.111111111111,4,2,1,37,0,1
214487,-1000,4,2,1,37,0,1
214509,-125,4,2,1,37,0,1
214553,-500,4,2,1,37,0,1
214598,-111.111111111111,4,2,1,37,0,1
214620,-1000,4,2,1,37,0,1
214642,-111.111111111111,4,2,1,37,0,1
214664,-1000,4,2,1,37,0,1
214686,-125,4,2,1,37,0,1
214730,-500,4,2,1,37,0,1
214774,-111.111111111111,4,2,1,37,0,1
214796,-1000,4,2,1,37,0,1
214818,-111.111111111111,4,2,1,37,0,1
214840,-1000,4,2,1,37,0,1
214862,-111.111111111111,4,2,1,37,0,1
214884,-1000,4,2,1,37,0,1
214906,-111.111111111111,4,2,1,37,0,1
214928,-1000,4,2,1,37,0,1
214951,-111.111111111111,4,2,1,37,0,1
214973,-1000,4,2,1,37,0,1
214995,-111.111111111111,4,2,1,37,0,1
215017,-1000,4,2,1,37,0,1
215039,-111.111111111111,4,2,1,37,0,1
215061,-1000,4,2,1,37,0,1
215083,-111.111111111111,4,2,1,37,0,1
215105,-1000,4,2,1,37,0,1
215127,-111.111111111111,4,2,1,37,0,1
215149,-1000,4,2,1,37,0,1
215171,-111.111111111111,4,2,1,37,0,1
215193,-1000,4,2,1,37,0,1
215215,-133.333333333333,4,2,1,37,0,1
215259,-400,4,2,1,37,0,1
215303,-200,4,2,1,37,0,1
215480,-133.333333333333,4,2,1,37,0,1
215524,-400,4,2,1,37,0,1
215568,-200,4,2,1,37,0,1
215745,-133.333333333333,4,2,1,37,0,1
215789,-400,4,2,1,37,0,1
215833,-133.333333333333,4,2,1,37,0,1
215877,-400,4,2,1,37,0,1
215921,-133.333333333333,4,2,1,37,0,1
215965,-400,4,2,1,37,0,1
216009,-200,4,2,1,37,0,1
216186,-133.333333333333,4,2,1,37,0,1
216252,-400,4,2,1,37,0,1
216318,-200,4,2,1,37,0,1
216451,-133.333333333333,4,2,1,37,0,1
216495,-400,4,2,1,37,0,1
216539,-133.333333333333,4,2,1,37,0,1
216583,-400,4,2,1,37,0,1
216627,-133.333333333333,4,2,1,37,0,0
216649,-666.666666666667,4,2,1,37,0,0
216715,-200,4,2,1,37,0,0
216803,-100,4,2,1,37,0,0
216826,-769.230769230769,4,2,1,37,0,0
216892,-200,4,2,1,37,0,0
216980,-79.9999999999999,4,2,1,37,0,0
217002,-909.090909090909,4,2,1,37,0,0
217068,-200,4,2,1,37,0,0
217156,-66.6666666666667,4,2,1,37,0,0
217178,-1000,4,2,1,37,0,0
217245,-200,4,2,1,37,0,0
217333,-57.1428571428571,4,2,1,37,0,0
217355,-1250,4,2,1,37,0,0
217421,-200,4,2,1,37,0,0
217509,-50,4,2,1,37,0,0
217531,-1428.57142857143,4,2,1,37,0,0
217598,-200,4,2,1,37,0,0
217686,-44.4444444444445,4,2,1,37,0,0
217708,-2000,4,2,1,37,0,0
217774,-200,4,2,1,37,0,0
217862,-40,4,2,1,37,0,0
217884,-3333.33333333333,4,2,1,37,0,0
217951,-200,4,2,1,37,0,0
218039,352.941176470588,4,2,1,37,1,1
218039,-52.6315789473684,4,2,1,37,0,1
218083,-1000,4,2,1,37,0,1
218127,-100,4,2,1,37,0,1
218391,-52.6315789473684,4,2,1,37,0,1
218436,-1000,4,2,1,37,0,1
218480,-100,4,2,1,37,0,1
218744,-52.6315789473684,4,2,1,37,0,1
218789,-1000,4,2,1,37,0,1
218833,-100,4,2,1,37,0,1
219097,-52.6315789473684,4,2,1,37,0,1
219141,-1000,4,2,1,37,0,1
219186,-100,4,2,1,37,0,1
219450,-52.6315789473684,4,2,1,37,0,1
219494,-1000,4,2,1,37,0,1
219539,-100,4,2,1,37,0,1
219803,-52.6315789473684,4,2,1,37,0,1
219847,-1000,4,2,1,37,0,1
219891,-100,4,2,1,37,0,1
220156,-52.6315789473684,4,2,1,37,0,1
220200,-1000,4,2,1,37,0,1
220244,-100,4,2,1,37,0,1
220509,-52.6315789473684,4,2,1,37,0,1
220553,-1000,4,2,1,37,0,1
220597,-100,4,2,1,37,0,1
220862,-52.6315789473684,4,2,1,37,0,1
220906,-1000,4,2,1,37,0,1
220950,-100,4,2,1,37,0,1
221215,-52.6315789473684,4,2,1,37,0,1
221259,-1000,4,2,1,37,0,1
221303,-100,4,2,1,37,0,1
221568,-52.6315789473684,4,2,1,37,0,1
221612,-1000,4,2,1,37,0,1
221656,-100,4,2,1,37,0,1
221921,-52.6315789473684,4,2,1,37,0,1
221965,-1000,4,2,1,37,0,1
222009,-100,4,2,1,37,0,1
222274,-52.6315789473684,4,2,1,37,0,1
222318,-1000,4,2,1,37,0,1
222362,-100,4,2,1,37,0,1
222627,-52.6315789473684,4,2,1,37,0,1
222671,-1000,4,2,1,37,0,1
222715,-100,4,2,1,37,0,1
222980,-52.6315789473684,4,2,1,37,0,1
223024,-1000,4,2,1,37,0,1
223068,-100,4,2,1,37,0,1
223333,-52.6315789473684,4,2,1,37,0,1
223377,-1000,4,2,1,37,0,1
223421,-100,4,2,1,37,0,1
223686,-52.6315789473684,4,2,1,37,0,1
223730,-1000,4,2,1,37,0,1
223774,-100,4,2,1,37,0,1
223862,-52.6315789473684,4,2,1,37,0,1
223906,-1000,4,2,1,37,0,1
223950,-100,4,2,1,37,0,1
224039,-52.6315789473684,4,2,1,37,0,1
224083,-1000,4,2,1,37,0,1
224127,-100,4,2,1,37,0,1
224391,-52.6315789473684,4,2,1,37,0,1
224436,-1000,4,2,1,37,0,1
224480,-100,4,2,1,37,0,1
224744,-52.6315789473684,4,2,1,37,0,1
224789,-1000,4,2,1,37,0,1
224833,-100,4,2,1,37,0,1
225097,-52.6315789473684,4,2,1,37,0,1
225141,-1000,4,2,1,37,0,1
225186,-100,4,2,1,37,0,1
225450,-52.6315789473684,4,2,1,37,0,1
225494,-1000,4,2,1,37,0,1
225539,-100,4,2,1,37,0,1
225803,-52.6315789473684,4,2,1,37,0,1
225847,-1000,4,2,1,37,0,1
225891,-100,4,2,1,37,0,1
226156,-52.6315789473684,4,2,1,37,0,1
226200,-1000,4,2,1,37,0,1
226244,-100,4,2,1,37,0,1
226509,-52.6315789473684,4,2,1,37,0,1
226553,-1000,4,2,1,37,0,1
226597,-100,4,2,1,37,0,1
226862,-52.6315789473684,4,2,1,37,0,1
226906,-1000,4,2,1,37,0,1
226950,-100,4,2,1,37,0,1
227215,-52.6315789473684,4,2,1,37,0,1
227259,-1000,4,2,1,37,0,1
227303,-100,4,2,1,37,0,1
227568,-66.6666666666667,4,2,1,37,0,1
227612,-200,4,2,1,37,0,1
227656,-66.6666666666667,4,2,1,37,0,1
227700,-200,4,2,1,37,0,1
227744,-66.6666666666667,4,2,1,37,0,1
227789,-200,4,2,1,37,0,1
227833,-66.6666666666667,4,2,1,37,0,1
227877,-200,4,2,1,37,0,1
227921,-26.3157894736842,4,2,1,37,0,1
227943,-10000,4,2,1,37,0,1
228009,-100,4,2,1,37,0,1
228186,-26.3157894736842,4,2,1,37,0,1
228208,-10000,4,2,1,37,0,1
228274,-100,4,2,1,37,0,1
228450,-26.3157894736842,4,2,1,37,0,1
228472,-10000,4,2,1,37,0,1
228539,-100,4,2,1,37,0,1
228715,-26.3157894736842,4,2,1,37,0,1
228737,-10000,4,2,1,37,0,1
228803,-100,4,2,1,37,0,1
229333,-66.6666666666667,4,2,1,37,0,1
229377,-200,4,2,1,37,0,1
229421,-100,4,2,1,37,0,1
229686,-66.6666666666667,4,2,1,37,0,1
229730,-200,4,2,1,37,0,1
229774,-100,4,2,1,37,0,1
230039,-66.6666666666667,4,2,1,37,0,1
230083,-200,4,2,1,37,0,1
230127,-100,4,2,1,37,0,1
230391,-66.6666666666667,4,2,1,37,0,1
230436,-200,4,2,1,37,0,1
230480,-100,4,2,1,37,0,1
230744,-66.6666666666667,4,2,1,37,0,1
230789,-200,4,2,1,37,0,1
230833,-100,4,2,1,37,0,1
231097,-66.6666666666667,4,2,1,37,0,1
231141,-200,4,2,1,37,0,1
231186,-100,4,2,1,37,0,1
231450,-66.6666666666667,4,2,1,37,0,1
231494,-200,4,2,1,37,0,1
231539,-100,4,2,1,37,0,1
231803,-33.3333333333333,4,2,1,37,0,1
231847,-704.225352112676,4,2,1,37,0,1
231980,-100,4,2,1,37,0,1
232156,-66.6666666666667,4,2,1,37,0,1
232200,-200,4,2,1,37,0,1
232244,-100,4,2,1,37,0,1
232509,-66.6666666666667,4,2,1,37,0,1
232553,-200,4,2,1,37,0,1
232597,-100,4,2,1,37,0,1
232862,-66.6666666666667,4,2,1,37,0,1
232906,-200,4,2,1,37,0,1
232950,-100,4,2,1,37,0,1
233215,-66.6666666666667,4,2,1,37,0,1
233259,-200,4,2,1,37,0,1
233303,-100,4,2,1,37,0,1
233568,-66.6666666666667,4,2,1,37,0,1
233612,-200,4,2,1,37,0,1
233656,-100,4,2,1,37,0,1
233921,-66.6666666666667,4,2,1,37,0,1
233965,-200,4,2,1,37,0,1
234009,-100,4,2,1,37,0,1
234274,-66.6666666666667,4,2,1,37,0,1
234318,-200,4,2,1,37,0,1
234362,-100,4,2,1,37,0,1
234450,-66.6666666666667,4,2,1,37,0,1
234494,-200,4,2,1,37,0,1
234539,-100,4,2,1,37,0,1
234627,-33.3333333333333,4,2,1,37,0,1
234671,-704.225352112676,4,2,1,37,0,1
234803,-100,4,2,1,37,0,1
234980,-66.6666666666667,4,2,1,37,0,1
235024,-200,4,2,1,37,0,1
235068,-100,4,2,1,37,0,1
235156,-66.6666666666667,4,2,1,37,0,1
235200,-200,4,2,1,37,0,1
235244,-100,4,2,1,37,0,1
235333,-66.6666666666667,4,2,1,37,0,1
235377,-200,4,2,1,37,0,1
235421,-100,4,2,1,37,0,1
235509,-66.6666666666667,4,2,1,37,0,1
235553,-200,4,2,1,37,0,1
235597,-100,4,2,1,37,0,1
235686,-66.6666666666667,4,2,1,37,0,1
235730,-200,4,2,1,37,0,1
235774,-100,4,2,1,37,0,1
235862,-66.6666666666667,4,2,1,37,0,1
235906,-200,4,2,1,37,0,1
235950,-100,4,2,1,37,0,1
236039,-66.6666666666667,4,2,1,37,0,1
236083,-200,4,2,1,37,0,1
236127,-100,4,2,1,37,0,1
236215,-66.6666666666667,4,2,1,37,0,1
236259,-200,4,2,1,37,0,1
236303,-100,4,2,1,37,0,1
236391,-66.6666666666667,4,2,1,37,0,1
236436,-200,4,2,1,37,0,1
236480,-100,4,2,1,37,0,1
236568,-66.6666666666667,4,2,1,37,0,1
236612,-200,4,2,1,37,0,1
236656,-100,4,2,1,37,0,1
236744,-66.6666666666667,4,2,1,37,0,1
236789,-200,4,2,1,37,0,1
236833,-100,4,2,1,37,0,1
236921,-66.6666666666667,4,2,1,37,0,1
236965,-200,4,2,1,37,0,1
237009,-100,4,2,1,37,0,1
237097,-66.6666666666667,4,2,1,37,0,1
237141,-200,4,2,1,37,0,1
237186,-100,4,2,1,37,0,1
237274,-66.6666666666667,4,2,1,37,0,1
237318,-200,4,2,1,37,0,1
237362,-100,4,2,1,37,0,1
237450,-50,4,2,1,37,0,1
237472,-10000,4,2,1,37,0,1
237494,-50,4,2,1,37,0,1
237516,-10000,4,2,1,37,0,1
237539,-50,4,2,1,37,0,1
237561,-10000,4,2,1,37,0,1
237583,-50,4,2,1,37,0,1
237605,-10000,4,2,1,37,0,1
237627,-50,4,2,1,37,0,1
237649,-10000,4,2,1,37,0,1
237671,-100,4,2,1,37,0,1
237715,-50,4,2,1,37,0,1
237737,-10000,4,2,1,37,0,1
237759,-100,4,2,1,37,0,1
237803,-66.6666666666667,4,2,1,37,0,1
237847,-200,4,2,1,37,0,1
237891,-66.6666666666667,4,2,1,37,0,1
237914,-200,4,2,1,37,0,1
237936,-100,4,2,1,37,0,1
237980,-66.6666666666667,4,2,1,37,0,1
238002,-200,4,2,1,37,0,1
238024,-100,4,2,1,37,0,1
238068,-66.6666666666667,4,2,1,37,0,1
238090,-200,4,2,1,37,0,1
238112,-100,4,2,1,37,0,1
238156,-66.6666666666667,4,2,1,37,0,1
238200,-200,4,2,1,37,0,1
238244,-66.6666666666667,4,2,1,37,0,1
238266,-200,4,2,1,37,0,1
238289,-100,4,2,1,37,0,1
238333,-66.6666666666667,4,2,1,37,0,1
238355,-200,4,2,1,37,0,1
238377,-100,4,2,1,37,0,1
238421,-66.6666666666667,4,2,1,37,0,1
238443,-200,4,2,1,37,0,1
238465,-100,4,2,1,37,0,1
238509,-66.6666666666667,4,2,1,37,0,1
238553,-200,4,2,1,37,0,1
238597,-66.6666666666667,4,2,1,37,0,1
238619,-200,4,2,1,37,0,1
238641,-100,4,2,1,37,0,1
238686,-66.6666666666667,4,2,1,37,0,1
238708,-200,4,2,1,37,0,1
238730,-100,4,2,1,37,0,1
238774,-66.6666666666667,4,2,1,37,0,1
238796,-200,4,2,1,37,0,1
238818,-100,4,2,1,37,0,1
238862,-66.6666666666667,4,2,1,37,0,1
238906,-200,4,2,1,37,0,1
238950,-66.6666666666667,4,2,1,37,0,1
238972,-200,4,2,1,37,0,1
238994,-100,4,2,1,37,0,1
239039,-66.6666666666667,4,2,1,37,0,1
239061,-200,4,2,1,37,0,1
239083,-100,4,2,1,37,0,1
239127,-66.6666666666667,4,2,1,37,0,1
239149,-200,4,2,1,37,0,1
239171,-100,4,2,1,37,0,1
239215,-66.6666666666667,4,2,1,37,0,1
239259,-200,4,2,1,37,0,1
239303,-66.6666666666667,4,2,1,37,0,1
239347,-200,4,2,1,37,0,1
239391,-66.6666666666667,4,2,1,37,0,1
239436,-200,4,2,1,37,0,1
239480,-66.6666666666667,4,2,1,37,0,1
239524,-200,4,2,1,37,0,1
239568,-66.6666666666667,4,2,1,37,0,1
239612,-200,4,2,1,37,0,1
239656,-66.6666666666667,4,2,1,37,0,1
239700,-200,4,2,1,37,0,1
239744,-66.6666666666667,4,2,1,37,0,1
239789,-200,4,2,1,37,0,1
239833,-66.6666666666667,4,2,1,37,0,1
239877,-200,4,2,1,37,0,1
239921,-50,4,2,1,37,0,1
239943,-200,4,2,1,37,0,1
239965,-100,4,2,1,37,0,1
240009,-50,4,2,1,37,0,1
240031,-200,4,2,1,37,0,1
240053,-100,4,2,1,37,0,1
240097,-50,4,2,1,37,0,1
240119,-200,4,2,1,37,0,1
240141,-100,4,2,1,37,0,1
240186,-50,4,2,1,37,0,1
240208,-200,4,2,1,37,0,1
240230,-100,4,2,1,37,0,1
240274,-50,4,2,1,37,0,1
240296,-200,4,2,1,37,0,1
240318,-100,4,2,1,37,0,1
240362,-50,4,2,1,37,0,1
240384,-200,4,2,1,37,0,1
240406,-100,4,2,1,37,0,1
240450,-50,4,2,1,37,0,1
240472,-200,4,2,1,37,0,1
240494,-100,4,2,1,37,0,1
240539,-50,4,2,1,37,0,1
240561,-200,4,2,1,37,0,1
240583,-100,4,2,1,37,0,1
240627,-33.3333333333333,4,2,1,37,0,0
240649,-10000,4,2,1,37,0,0
240671,-100,4,2,1,37,0,0
242085,375,4,2,1,37,1,0
242085,-31.4465408805031,4,2,1,37,0,0
242108,-10000,4,2,1,37,0,0
242131,-94.3396226415094,4,2,1,37,0,0
243585,206.896551724138,4,2,1,37,1,0
243585,-94.3396226415094,4,2,1,37,0,0
243610,-847.457627118644,4,2,1,37,0,0
243636,-94.3396226415094,4,2,1,37,0,0
243662,-847.457627118644,4,2,1,37,0,0
243688,-94.3396226415094,4,2,1,37,0,0
243714,-847.457627118644,4,2,1,37,0,0
243740,-94.3396226415094,4,2,1,37,0,0
243766,-847.457627118644,4,2,1,37,0,0
243791,-94.3396226415094,4,2,1,37,0,0
243817,-847.457627118644,4,2,1,37,0,0
243843,-94.3396226415094,4,2,1,37,0,0
243869,-847.457627118644,4,2,1,37,0,0
243895,-94.3396226415094,4,2,1,37,0,0
243921,-847.457627118644,4,2,1,37,0,0
243947,-94.3396226415094,4,2,1,37,0,0
243972,-847.457627118644,4,2,1,37,0,0
243998,-94.3396226415094,4,2,1,37,0,0
244024,-847.457627118644,4,2,1,37,0,0
244050,-94.3396226415094,4,2,1,37,0,0
244076,-847.457627118644,4,2,1,37,0,0
244102,-94.3396226415094,4,2,1,37,0,0
244128,-847.457627118644,4,2,1,37,0,0
244153,-94.3396226415094,4,2,1,37,0,0
244179,-847.457627118644,4,2,1,37,0,0
244205,-94.3396226415094,4,2,1,37,0,0
244231,-847.457627118644,4,2,1,37,0,0
244257,-94.3396226415094,4,2,1,37,0,0
244283,-847.457627118644,4,2,1,37,0,0
244309,-94.3396226415094,4,2,1,37,0,0
244335,-847.457627118644,4,2,1,37,0,0
244360,-94.3396226415094,4,2,1,37,0,0
244386,-847.457627118644,4,2,1,37,0,0
244412,-106.382978723404,4,2,1,37,0,0
244464,-423.728813559322,4,2,1,37,0,0
244516,-94.3396226415094,4,2,1,37,0,0
244541,-847.457627118644,4,2,1,37,0,0
244567,-94.3396226415094,4,2,1,37,0,0
244593,-847.457627118644,4,2,1,37,0,0
244619,-106.382978723404,4,2,1,37,0,0
244671,-423.728813559322,4,2,1,37,0,0
244722,-94.3396226415094,4,2,1,37,0,0
244748,-847.457627118644,4,2,1,37,0,0
244774,-94.3396226415094,4,2,1,37,0,0
244800,-847.457627118644,4,2,1,37,0,0
244826,-106.382978723404,4,2,1,37,0,0
244878,-423.728813559322,4,2,1,37,0,0
244929,-94.3396226415094,4,2,1,37,0,0
244955,-847.457627118644,4,2,1,37,0,0
244981,-94.3396226415094,4,2,1,37,0,0
245007,-847.457627118644,4,2,1,37,0,0
245033,-94.3396226415094,4,2,1,37,0,0
245059,-847.457627118644,4,2,1,37,0,0
245085,-94.3396226415094,4,2,1,37,0,0
245110,-847.457627118644,4,2,1,37,0,0
245136,-94.3396226415094,4,2,1,37,0,0
245162,-847.457627118644,4,2,1,37,0,0
245188,-94.3396226415094,4,2,1,37,0,0
245214,-847.457627118644,4,2,1,37,0,0
245240,214.285714285714,4,2,1,37,1,0
245240,-89.6057347670251,4,2,1,37,0,0
245266,-806.451612903226,4,2,1,37,0,0
245293,-89.6057347670251,4,2,1,37,0,0
245320,-806.451612903226,4,2,1,37,0,0
245347,-89.6057347670251,4,2,1,37,0,0
245373,-806.451612903226,4,2,1,37,0,0
245400,-89.6057347670251,4,2,1,37,0,0
245427,-806.451612903226,4,2,1,37,0,0
245454,-89.6057347670251,4,2,1,37,0,0
245481,-806.451612903226,4,2,1,37,0,0
245507,-89.6057347670251,4,2,1,37,0,0
245534,-806.451612903226,4,2,1,37,0,0
245561,-89.6057347670251,4,2,1,37,0,0
245588,-806.451612903226,4,2,1,37,0,0
245615,-89.6057347670251,4,2,1,37,0,0
245641,-806.451612903226,4,2,1,37,0,0
245668,-89.6057347670251,4,2,1,37,0,0
245695,-806.451612903226,4,2,1,37,0,0
245722,-89.6057347670251,4,2,1,37,0,0
245748,-806.451612903226,4,2,1,37,0,0
245775,-89.6057347670251,4,2,1,37,0,0
245802,-806.451612903226,4,2,1,37,0,0
245829,-161.290322580645,4,2,1,37,0,0
245882,-100.806451612903,4,2,1,37,0,0
245936,-403.225806451613,4,2,1,37,0,0
245990,-100.806451612903,4,2,1,37,0,0
246043,-403.225806451613,4,2,1,37,0,0
246097,222.222222222222,4,2,1,37,1,0
246097,-99.2063492063492,4,2,1,37,0,0
246152,-396.825396825397,4,2,1,37,0,0
246208,-99.2063492063492,4,2,1,37,0,0
246263,-396.825396825397,4,2,1,37,0,0
246319,-99.2063492063492,4,2,1,37,0,0
246374,-396.825396825397,4,2,1,37,0,0
246430,-99.2063492063492,4,2,1,37,0,0
246485,-396.825396825397,4,2,1,37,0,0
246541,-106.382978723404,4,2,1,37,0,0
246763,-322.58064516129,4,2,1,37,0,0
246985,480,4,2,1,37,1,0
246985,-70.4225352112676,4,2,1,37,0,0
248425,600,4,2,1,37,1,0
248425,-58.8235294117647,4,2,1,37,0,0
248908,187.5,4,2,1,37,1,0
248908,-188.679245283019,4,2,1,37,0,0
249928,352.941176470588,4,2,1,37,1,0
249928,-100,4,2,1,37,0,0
250192,240,4,2,1,37,1,0
250192,-147.058823529412,4,2,1,37,0,0
250447,272.727272727273,4,2,1,37,1,0
250447,-86.2068965517241,4,2,1,37,0,0
250481,-259.74025974026,4,2,1,37,0,0
250515,-86.5800865800866,4,2,1,37,0,0
250549,-259.74025974026,4,2,1,37,0,0
250583,-86.5800865800866,4,2,1,37,0,0
250617,-259.74025974026,4,2,1,37,0,0
250651,-86.5800865800866,4,2,1,37,0,0
250685,-259.74025974026,4,2,1,37,0,0
250719,-86.5800865800866,4,2,1,37,0,0
250856,-259.74025974026,4,2,1,37,0,0
250994,222.222222222222,4,2,1,37,1,0
250994,-147.058823529412,4,2,1,37,0,0
251565,222.222222222222,4,2,1,37,1,0
251565,-136.986301369863,4,2,1,37,0,0
251719,272.727272727273,4,2,1,37,1,0
251719,-86.2068965517241,4,2,1,37,0,0
251753,-259.74025974026,4,2,1,37,0,0
251787,-86.2068965517241,4,2,1,37,0,0
251821,-259.74025974026,4,2,1,37,0,0
251855,-86.2068965517241,4,2,1,37,0,0
251889,-259.74025974026,4,2,1,37,0,0
251923,-129.87012987013,4,2,1,37,0,0
251991,315.789473684211,4,2,1,37,1,0
251991,-101.010101010101,4,2,1,37,0,0
252785,222.222222222222,4,2,1,37,1,0
252785,-158.982511923688,4,2,1,37,0,0
252923,300,4,2,1,37,1,0
252923,-58.8235294117647,4,2,1,37,0,0
252960,-235.294117647059,4,2,1,37,0,0
252998,-58.8235294117647,4,2,1,37,0,0
253035,-235.294117647059,4,2,1,37,0,0
253073,-58.8235294117647,4,2,1,37,0,0
253110,-235.294117647059,4,2,1,37,0,0
253148,-117.647058823529,4,2,1,37,0,0
253223,352.941176470588,4,2,1,37,1,0
253223,-90.9090909090909,4,2,1,37,0,0
253395,250,4,2,1,37,1,0
253395,-285.714285714286,4,2,1,37,0,0
253488,-94.3396226415094,4,2,1,37,0,0
253582,-141.242937853107,4,2,1,37,0,0
253645,-285.714285714286,4,2,1,37,0,0
253707,-94.3396226415094,4,2,1,37,0,0
253770,-141.242937853107,4,2,1,37,0,0
253883,222.222222222222,4,2,1,37,1,0
253883,-136.986301369863,4,2,1,37,0,0
254060,240,4,2,1,37,1,0
254060,-294.117647058824,4,2,1,37,0,0
254150,-98.0392156862745,4,2,1,37,0,0
254240,-147.058823529412,4,2,1,37,0,0
254300,-294.117647058824,4,2,1,37,0,0
254360,-98.0392156862745,4,2,1,37,0,0
254420,-147.058823529412,4,2,1,37,0,0
254588,222.222222222222,4,2,1,37,1,0
254588,-158.730158730159,4,2,1,37,0,0
254765,696.055684454756,4,2,1,37,1,0
254765,-72.463768115942,4,2,1,37,0,0
256157,352.941176470588,4,2,1,37,1,0
256157,-142.857142857143,4,2,1,37,0,0

[HitObjects]
192,192,6779,5,0,0:0:0:0:
320,192,7132,1,0,0:0:0:0:
192,192,7485,1,0,0:0:0:0:
448,192,7838,1,0,0:0:0:0:
64,192,8191,1,0,0:0:0:0:
448,192,8544,1,0,0:0:0:0:
192,192,8897,1,0,0:0:0:0:
448,192,9250,1,0,0:0:0:0:
192,192,9602,1,0,0:0:0:0:
320,192,9955,1,0,0:0:0:0:
64,192,10308,1,0,0:0:0:0:
320,192,10661,1,0,0:0:0:0:
64,192,11014,1,0,0:0:0:0:
448,192,11367,1,0,0:0:0:0:
64,192,11720,1,0,0:0:0:0:
320,192,12073,1,0,0:0:0:0:
192,192,12426,1,0,0:0:0:0:
448,192,12779,1,0,0:0:0:0:
192,192,13132,1,0,0:0:0:0:
64,192,13485,1,0,0:0:0:0:
448,192,13838,1,0,0:0:0:0:
192,192,14191,1,0,0:0:0:0:
448,192,14544,1,0,0:0:0:0:
64,192,14897,1,0,0:0:0:0:
320,192,15250,1,0,0:0:0:0:
192,192,15779,1,0,0:0:0:0:
448,192,15955,1,0,0:0:0:0:
192,192,16132,1,0,0:0:0:0:
448,192,16308,1,0,0:0:0:0:
192,192,16485,1,0,0:0:0:0:
64,192,16661,1,0,0:0:0:0:
320,192,16838,1,0,0:0:0:0:
192,192,17014,1,0,0:0:0:0:
320,192,17191,1,0,0:0:0:0:
64,192,17367,1,0,0:0:0:0:
448,192,17544,1,0,0:0:0:0:
192,192,17720,1,0,0:0:0:0:
448,192,18044,1,0,0:0:0:70:Kick 11.wav
320,192,18073,1,0,0:0:0:0:
64,192,18397,1,0,0:0:0:0:
192,192,18426,1,0,0:0:0:0:
448,192,18573,1,0,0:0:0:0:
320,192,18750,1,0,0:0:0:70:LR_Tom Normal.wav
64,192,18750,1,0,0:0:0:0:
192,192,18926,128,0,19102:0:0:0:0:
320,192,19102,128,0,19279:0:0:0:0:
448,192,19132,1,0,0:0:0:0:
64,192,19279,128,0,19455:0:0:0:0:
320,192,19455,128,0,20514:0:0:0:0:
448,192,19632,1,0,0:0:0:0:
192,192,19808,1,0,0:0:0:70:Kick 11.wav
64,192,19808,1,0,0:0:0:0:
448,192,19985,1,0,0:0:0:0:
192,192,20161,1,0,0:0:0:0:
64,192,20161,1,0,0:0:0:70:LR_Tom Normal.wav
448,192,20338,1,0,0:0:0:0:
64,192,20514,1,0,0:0:0:0:
192,192,20514,1,0,0:0:0:0:
64,192,20691,1,0,0:0:0:70:Kick 11.wav
320,192,20691,1,0,0:0:0:0:
192,192,20867,1,0,0:0:0:70:Kick 11.wav
448,192,20867,1,0,0:0:0:0:
320,192,21044,1,0,0:0:0:0:
64,192,21220,1,0,0:0:0:0:
320,192,21397,1,0,0:0:0:0:
448,192,21573,128,0,21926:0:0:0:0:
64,192,21573,1,0,0:0:0:70:LR_Tom Normal.wav
192,192,21750,1,0,0:0:0:0:
64,192,21926,128,0,22455:0:0:0:0:
320,192,21926,1,0,0:0:0:0:
320,192,22279,1,0,0:0:0:0:
448,192,22455,128,0,22985:0:0:0:0:
320,192,22632,1,0,0:0:0:70:Kick 11.wav
64,192,22632,1,0,0:0:0:0:
192,192,22808,1,0,0:0:0:0:
64,192,22985,128,0,23338:0:0:0:0:
320,192,22985,1,0,0:0:0:70:LR_Tom Normal.wav
192,192,23161,1,0,0:0:0:70:Kick 11.wav
320,192,23161,1,0,0:0:0:0:
448,192,23338,1,0,0:0:0:70:Kick 11.wav
192,192,23426,1,0,0:0:0:70:Kick 11.wav
320,192,23514,1,0,0:0:0:70:Kick 11.wav
448,192,23514,1,0,0:0:0:0:
192,192,23691,1,0,0:0:0:70:Kick 11.wav
64,192,23720,1,0,0:0:0:0:
448,192,23867,1,0,0:0:0:0:
320,192,24044,1,0,0:0:0:0:
192,192,24073,1,0,0:0:0:0:
64,192,24220,1,0,0:0:0:0:
448,192,24397,1,0,0:0:0:70:LR_Tom Normal.wav
320,192,24426,1,0,0:0:0:0:
64,192,24573,128,0,24750:0:0:0:0:
448,192,24750,128,0,24926:0:0:0:0:
192,192,24750,1,0,0:0:0:0:
64,192,24926,128,0,25102:0:0:0:0:
320,192,25102,128,0,25632:0:0:0:0:
448,192,25455,1,0,0:0:0:0:
64,192,25455,1,0,0:0:0:70:Kick 11.wav
192,192,25632,1,0,0:0:0:0:
192,192,25808,128,0,25985:0:0:0:0:
64,192,25808,1,0,0:0:0:70:LR_Tom Normal.wav
320,192,25985,128,0,26161:0:0:0:0:
192,192,26161,128,0,26514:0:0:0:0:
448,192,26161,1,0,0:0:0:0:
320,192,26338,1,0,0:0:0:70:Kick 11.wav
64,192,26338,1,0,0:0:0:0:
64,192,26514,1,0,0:0:0:0:
448,192,26514,1,0,0:0:0:70:Kick 11.wav
192,192,26691,1,0,0:0:0:0:
320,192,26867,1,0,0:0:0:0:
192,192,27220,1,0,0:0:0:70:LR_Tom Normal.wav
320,192,27220,1,0,0:0:0:0:
448,192,27397,1,0,0:0:0:0:
64,192,27573,1,0,0:0:0:0:
320,192,27573,128,0,27926:0:0:0:0:
192,192,27750,1,0,0:0:0:0:
192,192,27926,128,0,28279:0:0:0:0:
320,192,28102,1,0,0:0:0:0:
64,192,28279,1,0,0:0:0:70:Kick 11.wav
448,192,28279,1,0,0:0:0:0:
192,192,28455,1,0,0:0:0:0:
320,192,28632,1,0,0:0:0:70:LR_Tom Normal.wav
64,192,28632,1,0,0:0:0:0:
448,192,28808,128,0,28985:0:0:0:0:
192,192,28808,1,0,0:0:0:70:Kick 11.wav
64,192,28985,1,0,0:0:0:70:Kick 11.wav
320,192,29073,1,0,0:0:0:70:Kick 11.wav
192,192,29161,1,0,0:0:0:70:Kick 11.wav
64,192,29161,1,0,0:0:0:0:
448,192,29338,128,0,29779:0:0:0:0:
192,192,29338,1,0,0:0:0:70:Kick 11.wav
320,192,29514,128,0,30044:0:0:0:0:
64,192,30397,128,0,30838:0:0:0:0:
192,192,30573,128,0,31102:0:0:0:0:
64,192,31102,1,0,0:0:0:70:Kick 11.wav
320,192,31102,1,0,0:0:0:0:
448,192,31279,128,0,31455:0:0:0:0:
192,192,31632,128,0,31808:0:0:0:0:
320,192,31808,128,0,31985:0:0:0:0:
192,192,31985,128,0,32073:0:0:0:0:
64,192,31985,1,0,0:0:0:70:Kick 11.wav
320,192,32161,128,0,32602:0:0:0:0:
448,192,32161,1,0,0:0:0:70:Kick 11.wav
192,192,32338,128,0,32867:0:0:0:0:
192,192,33220,128,0,33661:0:0:0:0:
320,192,33397,128,0,33926:0:0:0:0:
64,192,33926,5,0,0:0:0:0:
192,192,33926,1,0,0:0:0:70:Kick 11.wav
448,192,34102,128,0,34279:0:0:0:0:
64,192,34455,128,0,34632:0:0:0:0:
192,192,34455,1,0,0:0:0:70:Kick 11.wav
320,192,34632,1,0,0:0:0:70:Kick 11.wav
448,192,34632,1,0,0:0:0:0:
64,192,34720,1,0,0:0:0:0:
192,192,34720,1,0,0:0:0:70:Kick 11.wav
320,192,34808,1,0,0:0:0:70:Kick 11.wav
448,192,34808,1,0,0:0:0:0:
192,192,34985,5,0,0:0:0:0:
64,192,34985,1,0,0:0:0:70:electronic00.wav
448,192,34985,1,0,0:0:0:0:
320,192,35161,1,0,0:0:0:0:
64,192,35250,1,0,0:0:0:0:
448,192,35250,1,0,0:0:0:0:
192,192,35338,1,0,0:0:0:0:
320,192,35514,1,0,0:0:0:0:
64,192,35514,1,0,0:0:0:0:
448,192,35691,1,0,0:0:0:0:
192,192,35691,1,0,0:0:0:0:
320,192,35867,1,0,0:0:0:0:
192,192,35955,1,0,0:0:0:0:
448,192,36044,128,0,36220:0:0:0:0:
64,192,36044,1,0,0:0:0:0:
320,192,36220,1,0,0:0:0:0:
192,192,36220,1,0,0:0:0:0:
192,192,36397,1,0,0:0:0:0:
320,192,36397,1,0,0:0:0:0:
64,192,36573,1,0,0:0:0:0:
192,192,36661,1,0,0:0:0:0:
320,192,36750,1,0,0:0:0:0:
448,192,36750,1,0,0:0:0:0:
64,192,36926,128,0,37102:0:0:0:0:
320,192,36926,1,0,0:0:0:0:
192,192,37102,1,0,0:0:0:0:
448,192,37102,1,0,0:0:0:0:
320,192,37279,1,0,0:0:0:0:
192,192,37367,1,0,0:0:0:0:
64,192,37455,1,0,0:0:0:0:
320,192,37455,1,0,0:0:0:0:
320,192,37632,1,0,0:0:0:0:
448,192,37676,1,0,0:0:0:0:
192,192,37720,1,0,0:0:0:0:
320,192,37764,1,0,0:0:0:0:
448,192,37808,128,0,37985:0:0:0:0:
64,192,37808,1,0,0:0:0:0:
192,192,37985,1,0,0:0:0:0:
320,192,38073,1,0,0:0:0:0:
192,192,38161,1,0,0:0:0:0:
64,192,38161,1,0,0:0:0:0:
448,192,38338,1,0,0:0:0:0:
64,192,38338,1,0,0:0:0:0:
320,192,38514,1,0,0:0:0:0:
192,192,38514,1,0,0:0:0:0:
64,192,38691,1,0,0:0:0:0:
448,192,38779,1,0,0:0:0:0:
320,192,38867,128,0,39044:0:0:0:0:
192,192,38867,1,0,0:0:0:0:
64,192,39044,1,0,0:0:0:0:
448,192,39044,1,0,0:0:0:0:
192,192,39220,1,0,0:0:0:0:
448,192,39220,1,0,0:0:0:0:
320,192,39397,1,0,0:0:0:0:
192,192,39485,1,0,0:0:0:0:
64,192,39573,1,0,0:0:0:0:
448,192,39573,1,0,0:0:0:0:
192,192,39750,128,0,39926:0:0:0:0:
320,192,39750,1,0,0:0:0:0:
64,192,39926,1,0,0:0:0:0:
448,192,39926,1,0,0:0:0:0:
320,192,40102,1,0,0:0:0:0:
448,192,40102,1,0,0:0:0:0:
192,192,40191,1,0,0:0:0:0:
64,192,40279,1,0,0:0:0:0:
320,192,40279,1,0,0:0:0:0:
320,192,40455,1,0,0:0:0:0:
448,192,40500,1,0,0:0:0:0:
192,192,40544,1,0,0:0:0:0:
320,192,40588,1,0,0:0:0:0:
64,192,40632,1,0,0:0:0:0:
448,192,40632,128,0,40808:0:0:0:0:
192,192,40808,1,0,0:0:0:0:
320,192,40897,1,0,0:0:0:0:
192,192,40985,1,0,0:0:0:0:
448,192,40985,1,0,0:0:0:0:
320,192,41161,1,0,0:0:0:0:
64,192,41161,1,0,0:0:0:0:
192,192,41338,1,0,0:0:0:0:
320,192,41338,1,0,0:0:0:0:
448,192,41514,1,0,0:0:0:0:
192,192,41602,1,0,0:0:0:0:
64,192,41691,1,0,0:0:0:0:
320,192,41691,128,0,41867:0:0:0:0:
192,192,41867,1,0,0:0:0:0:
448,192,41867,1,0,0:0:0:0:
64,192,42044,1,0,0:0:0:0:
448,192,42044,1,0,0:0:0:0:
192,192,42220,1,0,0:0:0:0:
320,192,42308,1,0,0:0:0:0:
64,192,42397,1,0,0:0:0:0:
448,192,42397,1,0,0:0:0:0:
320,192,42573,1,0,0:0:0:0:
192,192,42573,128,0,42750:0:0:0:0:
64,192,42750,1,0,0:0:0:0:
448,192,42750,1,0,0:0:0:0:
320,192,42926,1,0,0:0:0:0:
192,192,43014,1,0,0:0:0:0:
64,192,43102,1,0,0:0:0:0:
320,192,43102,1,0,0:0:0:0:
192,192,43279,1,0,0:0:0:0:
64,192,43323,1,0,0:0:0:0:
320,192,43367,1,0,0:0:0:0:
192,192,43411,1,0,0:0:0:0:
64,192,43455,1,0,0:0:0:0:
448,192,43455,1,0,0:0:0:0:
320,192,43544,1,0,0:0:0:0:
192,192,43632,1,0,0:0:0:0:
64,192,43632,1,0,0:0:0:0:
448,192,43720,1,0,0:0:0:0:
320,192,43808,1,0,0:0:0:0:
64,192,43808,1,0,0:0:0:0:
192,192,43897,1,0,0:0:0:0:
320,192,43985,1,0,0:0:0:0:
448,192,43985,1,0,0:0:0:0:
192,192,44073,1,0,0:0:0:0:
64,192,44161,1,0,0:0:0:0:
448,192,44161,1,0,0:0:0:0:
64,192,44250,1,0,0:0:0:0:
320,192,44338,1,0,0:0:0:0:
448,192,44338,1,0,0:0:0:0:
320,192,44426,1,0,0:0:0:0:
192,192,44514,1,0,0:0:0:0:
64,192,44514,1,0,0:0:0:0:
64,192,44602,1,0,0:0:0:0:
192,192,44691,1,0,0:0:0:0:
448,192,44691,1,0,0:0:0:0:
448,192,44779,1,0,0:0:0:0:
64,192,44867,1,0,0:0:0:0:
320,192,44867,128,0,45044:0:0:0:0:
192,192,44955,128,0,45132:0:0:0:0:
448,192,45044,1,0,0:0:0:0:
64,192,45132,1,0,0:0:0:0:
320,192,45220,1,0,0:0:0:0:
64,192,45397,128,0,45750:0:0:0:0:
448,192,45397,1,0,0:0:0:0:
192,192,45485,128,0,45838:0:0:0:0:
320,192,45573,1,0,0:0:0:0:
448,192,45750,1,0,0:0:0:0:
64,192,45838,1,0,0:0:0:0:
320,192,45926,128,0,46191:0:0:0:0:
448,192,45926,128,0,46191:0:0:0:0:
192,192,46014,128,0,46279:0:0:0:0:
64,192,46102,1,0,0:0:0:0:
64,192,46279,5,0,0:0:0:0:
320,192,46279,1,0,0:0:0:50:electronic00.wav
448,192,46279,1,0,0:0:0:0:
320,192,46455,1,0,0:0:0:50:electronic00.wav
448,192,46544,1,0,0:0:0:0:
320,192,46632,1,0,0:0:0:50:electronic00.wav
192,192,46632,1,0,0:0:0:0:
64,192,46632,1,0,0:0:0:0:
320,192,46808,1,0,0:0:0:50:electronic00.wav
64,192,46808,1,0,0:0:0:0:
192,192,46985,1,0,0:0:0:0:
64,192,46985,1,0,0:0:0:50:electronic00.wav
448,192,46985,1,0,0:0:0:0:
192,192,47161,1,0,0:0:0:50:electronic00.wav
64,192,47250,1,0,0:0:0:0:
192,192,47338,1,0,0:0:0:50:electronic00.wav
320,192,47338,1,0,0:0:0:0:
448,192,47338,1,0,0:0:0:0:
192,192,47514,1,0,0:0:0:50:electronic00.wav
448,192,47514,1,0,0:0:0:0:
64,192,47691,1,0,0:0:0:0:
320,192,47691,1,0,0:0:0:0:
448,192,47691,1,0,0:0:0:50:electronic00.wav
320,192,47867,1,0,0:0:0:50:electronic00.wav
192,192,47955,1,0,0:0:0:0:
64,192,48044,1,0,0:0:0:0:
448,192,48044,1,0,0:0:0:0:
320,192,48044,1,0,0:0:0:50:electronic00.wav
448,192,48220,1,0,0:0:0:0:
192,192,48220,1,0,0:0:0:50:electronic00.wav
64,192,48397,1,0,0:0:0:50:electronic00.wav
192,192,48397,1,0,0:0:0:0:
320,192,48397,1,0,0:0:0:0:
192,192,48573,1,0,0:0:0:50:electronic00.wav
320,192,48661,1,0,0:0:0:0:
64,192,48750,1,0,0:0:0:0:
192,192,48750,1,0,0:0:0:50:electronic00.wav
448,192,48750,1,0,0:0:0:0:
320,192,48926,1,0,0:0:0:50:electronic00.wav
448,192,48970,1,0,0:0:0:0:
64,192,49014,1,0,0:0:0:0:
192,192,49058,1,0,0:0:0:0:
320,192,49102,1,0,0:0:0:0:
448,192,49102,1,0,0:0:0:50:electronic00.wav
64,192,49279,1,0,0:0:0:50:electronic00.wav
320,192,49279,1,0,0:0:0:0:
192,192,49367,1,0,0:0:0:0:
64,192,49455,1,0,0:0:0:0:
320,192,49455,1,0,0:0:0:0:
448,192,49455,1,0,0:0:0:50:electronic00.wav
192,192,49632,1,0,0:0:0:50:electronic00.wav
448,192,49632,1,0,0:0:0:0:
320,192,49808,1,0,0:0:0:50:electronic00.wav
192,192,49808,1,0,0:0:0:0:
64,192,49808,1,0,0:0:0:0:
448,192,49985,1,0,0:0:0:0:
192,192,49985,1,0,0:0:0:50:electronic00.wav
320,192,50073,1,0,0:0:0:0:
192,192,50161,1,0,0:0:0:0:
64,192,50161,1,0,0:0:0:0:
448,192,50161,1,0,0:0:0:50:electronic00.wav
64,192,50338,1,0,0:0:0:50:electronic00.wav
320,192,50338,1,0,0:0:0:0:
192,192,50514,1,0,0:0:0:50:electronic00.wav
320,192,50514,1,0,0:0:0:0:
448,192,50514,1,0,0:0:0:0:
64,192,50691,1,0,0:0:0:50:electronic00.wav
320,192,50691,1,0,0:0:0:0:
192,192,50779,1,0,0:0:0:0:
448,192,50867,1,0,0:0:0:50:electronic00.wav
320,192,50867,1,0,0:0:0:0:
64,192,50867,1,0,0:0:0:0:
192,192,51044,1,0,0:0:0:50:electronic00.wav
448,192,51044,1,0,0:0:0:0:
320,192,51220,1,0,0:0:0:50:electronic00.wav
192,192,51220,1,0,0:0:0:0:
64,192,51220,1,0,0:0:0:0:
448,192,51397,1,0,0:0:0:0:
192,192,51397,1,0,0:0:0:50:electronic00.wav
320,192,51485,1,0,0:0:0:0:
64,192,51573,1,0,0:0:0:50:electronic00.wav
192,192,51573,1,0,0:0:0:0:
448,192,51573,1,0,0:0:0:0:
320,192,51750,1,0,0:0:0:50:electronic00.wav
192,192,51794,1,0,0:0:0:0:
448,192,51838,1,0,0:0:0:0:
320,192,51882,1,0,0:0:0:0:
192,192,51926,1,0,0:0:0:40:electronic00.wav
64,192,51926,1,0,0:0:0:0:
320,192,52014,1,0,0:0:0:40:electronic00.wav
448,192,52102,1,0,0:0:0:0:
192,192,52102,1,0,0:0:0:40:electronic00.wav
64,192,52191,1,0,0:0:0:40:electronic00.wav
320,192,52279,1,0,0:0:0:40:electronic00.wav
448,192,52279,1,0,0:0:0:0:
192,192,52367,1,0,0:0:0:40:electronic00.wav
448,192,52455,1,0,0:0:0:0:
64,192,52455,1,0,0:0:0:40:electronic00.wav
320,192,52544,1,0,0:0:0:40:electronic00.wav
192,192,52632,1,0,0:0:0:0:
64,192,52632,1,0,0:0:0:40:electronic00.wav
448,192,52720,1,0,0:0:0:40:electronic00.wav
192,192,52808,1,0,0:0:0:40:electronic00.wav
320,192,52808,1,0,0:0:0:0:
64,192,52897,1,0,0:0:0:40:electronic00.wav
448,192,52985,1,0,0:0:0:40:electronic00.wav
320,192,52985,1,0,0:0:0:0:
192,192,53073,1,0,0:0:0:40:electronic00.wav
64,192,53161,1,0,0:0:0:40:electronic00.wav
320,192,53161,1,0,0:0:0:0:
448,192,53250,1,0,0:0:0:40:electronic00.wav
192,192,53338,1,0,0:0:0:40:electronic00.wav
64,192,53338,1,0,0:0:0:0:
320,192,53426,1,0,0:0:0:40:electronic00.wav
448,192,53514,1,0,0:0:0:0:
64,192,53514,1,0,0:0:0:40:electronic00.wav
192,192,53602,1,0,0:0:0:40:electronic00.wav
448,192,53691,5,0,0:0:0:0:
320,192,53691,1,0,0:0:0:40:electronic00.wav
64,192,53779,1,0,0:0:0:40:electronic00.wav
320,192,53867,1,0,0:0:0:40:electronic00.wav
192,192,53867,1,0,0:0:0:0:
448,192,53955,1,0,0:0:0:40:electronic00.wav
192,192,54044,1,0,0:0:0:40:electronic00.wav
64,192,54044,1,0,0:0:0:0:
320,192,54132,1,0,0:0:0:40:electronic00.wav
192,192,54220,1,0,0:0:0:0:
448,192,54220,1,0,0:0:0:40:electronic00.wav
64,192,54308,1,0,0:0:0:40:electronic00.wav
320,192,54397,1,0,0:0:0:0:
448,192,54397,1,0,0:0:0:40:electronic00.wav
192,192,54485,1,0,0:0:0:40:electronic00.wav
448,192,54573,1,0,0:0:0:40:electronic00.wav
64,192,54573,1,0,0:0:0:0:
320,192,54661,1,0,0:0:0:40:electronic00.wav
64,192,54750,1,0,0:0:0:40:electronic00.wav
192,192,54794,1,0,0:0:0:40:electronic00.wav
448,192,54838,1,0,0:0:0:40:electronic00.wav
320,192,54882,1,0,0:0:0:40:electronic00.wav
192,192,54926,1,0,0:0:0:40:electronic00.wav
448,192,55102,1,0,0:0:0:40:electronic00.wav
320,192,55147,1,0,0:0:0:40:electronic00.wav
64,192,55191,1,0,0:0:0:40:electronic00.wav
192,192,55235,1,0,0:0:0:40:electronic00.wav
320,192,55279,1,0,0:0:0:40:electronic00.wav
64,192,55455,1,0,0:0:0:40:electronic00.wav
192,192,55500,1,0,0:0:0:40:electronic00.wav
448,192,55544,1,0,0:0:0:40:electronic00.wav
320,192,55588,1,0,0:0:0:40:electronic00.wav
64,192,55632,1,0,0:0:0:40:electronic00.wav
448,192,55808,1,0,0:0:0:40:electronic00.wav
320,192,55852,1,0,0:0:0:40:electronic00.wav
64,192,55897,1,0,0:0:0:40:electronic00.wav
192,192,55941,1,0,0:0:0:40:electronic00.wav
448,192,55985,1,0,0:0:0:40:electronic00.wav
320,192,56161,128,0,56205:0:0:0:0:
320,192,56338,128,0,56397:0:0:0:0:
320,192,56514,128,0,56585:0:0:0:0:
320,192,56691,128,0,56779:0:0:0:0:
64,192,56867,1,0,0:0:0:0:
192,192,56911,1,0,0:0:0:0:
320,192,56955,1,0,0:0:0:0:
64,192,57000,1,0,0:0:0:0:
448,192,57044,1,0,0:0:0:0:
320,192,57088,1,0,0:0:0:0:
64,192,57132,1,0,0:0:0:0:
192,192,57176,1,0,0:0:0:0:
448,192,57220,1,0,0:0:0:0:
320,192,57264,1,0,0:0:0:0:
192,192,57308,1,0,0:0:0:0:
448,192,57352,1,0,0:0:0:0:
64,192,57397,1,0,0:0:0:0:
192,192,57441,1,0,0:0:0:0:
448,192,57485,1,0,0:0:0:0:
320,192,57529,1,0,0:0:0:0:
192,192,57573,1,0,0:0:0:60:electronic00.wav
64,192,57573,1,0,0:0:0:0:
64,192,57750,1,0,0:0:0:0:
320,192,57750,1,0,0:0:0:0:
192,192,57926,1,0,0:0:0:0:
448,192,57926,1,0,0:0:0:0:
320,192,58102,1,0,0:0:0:0:
448,192,58102,1,0,0:0:0:0:
192,192,58191,1,0,0:0:0:0:
64,192,58191,1,0,0:0:0:0:
320,192,58279,1,0,0:0:0:0:
448,192,58279,1,0,0:0:0:0:
192,192,58455,1,0,0:0:0:0:
64,192,58455,1,0,0:0:0:0:
320,192,58544,1,0,0:0:0:0:
448,192,58544,1,0,0:0:0:0:
192,192,58632,1,0,0:0:0:0:
64,192,58632,1,0,0:0:0:0:
192,192,58808,1,0,0:0:0:0:
64,192,58808,1,0,0:0:0:0:
320,192,58985,128,0,59338:0:0:0:0:
448,192,58985,128,0,59338:0:0:0:0:
192,192,59161,1,0,0:0:0:0:
64,192,59161,1,0,0:0:0:0:
64,192,59338,1,0,0:0:0:0:
192,192,59382,1,0,0:0:0:0:
448,192,59426,1,0,0:0:0:0:
320,192,59470,1,0,0:0:0:0:
64,192,59514,1,0,0:0:0:0:
192,192,59558,1,0,0:0:0:0:
448,192,59602,1,0,0:0:0:0:
64,192,59647,1,0,0:0:0:0:
320,192,59691,1,0,0:0:0:0:
448,192,59735,1,0,0:0:0:0:
64,192,59779,1,0,0:0:0:0:
192,192,59823,1,0,0:0:0:0:
448,192,59867,1,0,0:0:0:0:
320,192,59911,1,0,0:0:0:0:
192,192,59955,1,0,0:0:0:0:
64,192,60000,1,0,0:0:0:0:
448,192,60044,128,0,60397:0:0:0:0:
320,192,60220,128,0,60397:0:0:0:0:
192,192,60397,1,0,0:0:0:70:cymbal10.wav
64,192,60397,1,0,0:0:0:70:electronic00.wav
320,192,60573,128,0,60750:0:0:0:0:
448,192,60573,128,0,60750:0:0:0:0:
192,192,60750,128,0,60926:0:0:0:0:
64,192,60750,128,0,60926:0:0:0:0:
320,192,60926,1,0,0:0:0:0:
448,192,60926,1,0,0:0:0:0:
192,192,61014,1,0,0:0:0:0:
320,192,61102,1,0,0:0:0:50:electronic28.wav
64,192,61102,1,0,0:0:0:0:
448,192,61102,1,0,0:0:0:0:
192,192,61279,1,0,0:0:0:0:
64,192,61279,1,0,0:0:0:0:
320,192,61367,1,0,0:0:0:0:
192,192,61455,1,0,0:0:0:0:
448,192,61455,1,0,0:0:0:0:
64,192,61455,1,0,0:0:0:0:
192,192,61632,1,0,0:0:0:0:
320,192,61632,1,0,0:0:0:0:
64,192,61808,1,0,0:0:0:0:
320,192,61808,1,0,0:0:0:0:
448,192,61808,1,0,0:0:0:70:electronic00.wav
192,192,61985,128,0,62161:0:0:0:0:
64,192,61985,128,0,62161:0:0:0:0:
320,192,62161,128,0,62338:0:0:0:0:
448,192,62161,128,0,62338:0:0:0:0:
192,192,62338,1,0,0:0:0:0:
64,192,62338,1,0,0:0:0:0:
448,192,62426,1,0,0:0:0:0:
192,192,62514,1,0,0:0:0:50:electronic28.wav
320,192,62514,1,0,0:0:0:0:
64,192,62514,1,0,0:0:0:0:
320,192,62691,1,0,0:0:0:0:
448,192,62691,1,0,0:0:0:0:
64,192,62779,1,0,0:0:0:0:
320,192,62867,1,0,0:0:0:0:
192,192,62867,1,0,0:0:0:0:
448,192,62867,1,0,0:0:0:0:
192,192,63044,1,0,0:0:0:0:
320,192,63088,1,0,0:0:0:0:
64,192,63132,1,0,0:0:0:0:
192,192,63176,1,0,0:0:0:0:
320,192,63220,1,0,0:0:0:70:electronic00.wav
448,192,63220,1,0,0:0:0:0:
64,192,63397,128,0,63573:0:0:0:0:
192,192,63397,128,0,63573:0:0:0:0:
320,192,63573,128,0,63750:0:0:0:0:
448,192,63573,128,0,63750:0:0:0:0:
192,192,63750,1,0,0:0:0:0:
64,192,63750,1,0,0:0:0:0:
320,192,63838,1,0,0:0:0:0:
64,192,63926,1,0,0:0:0:50:electronic28.wav
448,192,63926,1,0,0:0:0:0:
192,192,63926,1,0,0:0:0:0:
448,192,64102,1,0,0:0:0:0:
320,192,64102,1,0,0:0:0:0:
64,192,64191,1,0,0:0:0:0:
448,192,64279,1,0,0:0:0:0:
192,192,64279,1,0,0:0:0:0:
320,192,64279,1,0,0:0:0:0:
192,192,64455,1,0,0:0:0:0:
320,192,64455,1,0,0:0:0:0:
320,192,64632,1,0,0:0:0:0:
448,192,64632,1,0,0:0:0:70:electronic00.wav
192,192,64676,1,0,0:0:0:0:
64,192,64720,1,0,0:0:0:0:
320,192,64764,1,0,0:0:0:0:
192,192,64808,128,0,64985:0:0:0:0:
448,192,64808,128,0,64985:0:0:0:0:
320,192,64985,128,0,65161:0:0:0:0:
64,192,64985,128,0,65161:0:0:0:0:
192,192,65161,1,0,0:0:0:0:
448,192,65161,1,0,0:0:0:0:
64,192,65250,1,0,0:0:0:0:
448,192,65338,1,0,0:0:0:50:electronic28.wav
320,192,65338,1,0,0:0:0:0:
64,192,65426,1,0,0:0:0:0:
320,192,65514,1,0,0:0:0:0:
192,192,65514,1,0,0:0:0:0:
448,192,65602,1,0,0:0:0:0:
192,192,65691,1,0,0:0:0:0:
320,192,65691,1,0,0:0:0:0:
320,192,65867,1,0,0:0:0:0:
192,192,65867,1,0,0:0:0:0:
64,192,66044,1,0,0:0:0:0:
448,192,66044,1,0,0:0:0:70:electronic00.wav
192,192,66044,1,0,0:0:0:0:
192,192,66220,128,0,66397:0:0:0:0:
64,192,66220,128,0,66397:0:0:0:0:
320,192,66397,128,0,66573:0:0:0:0:
448,192,66397,128,0,66573:0:0:0:0:
192,192,66573,1,0,0:0:0:0:
64,192,66573,1,0,0:0:0:0:
448,192,66661,1,0,0:0:0:0:
192,192,66750,1,0,0:0:0:50:electronic28.wav
64,192,66750,1,0,0:0:0:0:
320,192,66750,1,0,0:0:0:0:
320,192,66926,1,0,0:0:0:0:
448,192,66926,1,0,0:0:0:0:
64,192,67014,1,0,0:0:0:0:
320,192,67102,1,0,0:0:0:0:
448,192,67102,1,0,0:0:0:0:
192,192,67102,1,0,0:0:0:0:
192,192,67279,1,0,0:0:0:0:
320,192,67279,1,0,0:0:0:0:
64,192,67455,1,0,0:0:0:0:
448,192,67455,1,0,0:0:0:0:
320,192,67455,1,0,0:0:0:70:electronic00.wav
320,192,67632,128,0,67808:0:0:0:0:
448,192,67632,128,0,67808:0:0:0:0:
192,192,67808,128,0,67985:0:0:0:0:
64,192,67808,128,0,67985:0:0:0:0:
320,192,67985,1,0,0:0:0:0:
448,192,67985,1,0,0:0:0:0:
192,192,68073,1,0,0:0:0:0:
64,192,68161,1,0,0:0:0:50:electronic28.wav
448,192,68161,1,0,0:0:0:0:
320,192,68161,1,0,0:0:0:0:
64,192,68338,1,0,0:0:0:0:
192,192,68338,1,0,0:0:0:0:
448,192,68426,1,0,0:0:0:0:
64,192,68514,1,0,0:0:0:0:
320,192,68514,1,0,0:0:0:0:
192,192,68514,1,0,0:0:0:0:
192,192,68691,1,0,0:0:0:0:
320,192,68735,1,0,0:0:0:0:
64,192,68779,1,0,0:0:0:0:
192,192,68823,1,0,0:0:0:0:
320,192,68867,1,0,0:0:0:70:electronic00.wav
448,192,68867,1,0,0:0:0:0:
64,192,68955,128,0,69132:0:0:0:0:
192,192,68955,128,0,69132:0:0:0:0:
448,192,69132,1,0,0:0:0:0:
320,192,69132,1,0,0:0:0:0:
192,192,69220,128,0,69397:0:0:0:0:
64,192,69220,128,0,69397:0:0:0:0:
320,192,69397,1,0,0:0:0:0:
448,192,69397,1,0,0:0:0:0:
192,192,69485,1,0,0:0:0:0:
64,192,69485,1,0,0:0:0:0:
320,192,69573,128,0,69750:0:0:0:50:electronic28.wav
448,192,69573,128,0,69750:0:0:0:0:
192,192,69750,128,0,69926:0:0:0:0:
64,192,69750,128,0,69926:0:0:0:0:
320,192,69926,128,0,70102:0:0:0:0:
448,192,69926,128,0,70102:0:0:0:0:
192,192,70102,1,0,0:0:0:0:
64,192,70102,1,0,0:0:0:0:
192,192,70279,1,0,0:0:0:70:electronic00.wav
64,192,70279,1,0,0:0:0:0:
448,192,70279,1,0,0:0:0:0:
320,192,70455,1,0,0:0:0:0:
320,192,70544,1,0,0:0:0:0:
320,192,70632,1,0,0:0:0:0:
192,192,70808,1,0,0:0:0:0:
448,192,70985,1,0,0:0:0:70:Kick 11.wav
64,192,71029,1,0,0:0:0:70:Kick 11.wav
192,192,71073,1,0,0:0:0:70:Kick 11.wav
320,192,71117,1,0,0:0:0:30:electronic28.wav
64,192,71161,1,0,0:0:0:30:electronic28G.wav
448,192,71250,1,0,0:0:0:30:electronic28G.wav
192,192,71338,1,0,0:0:0:30:electronic28.wav
320,192,71426,1,0,0:0:0:30:electronic28.wav
64,192,71514,1,0,0:0:0:70:Kick 11.wav
192,192,71602,1,0,0:0:0:0:
64,192,71691,1,0,0:0:0:70:electronic00.wav
320,192,71691,1,0,0:0:0:0:
448,192,71691,1,0,0:0:0:70:cymbal10.wav
192,192,71867,128,0,72044:0:0:0:0:
448,192,71867,128,0,72044:0:0:0:0:
320,192,72044,128,0,72220:0:0:0:0:
64,192,72044,128,0,72220:0:0:0:0:
192,192,72220,1,0,0:0:0:0:
448,192,72220,1,0,0:0:0:0:
320,192,72308,1,0,0:0:0:0:
192,192,72397,1,0,0:0:0:50:electronic28.wav
64,192,72397,1,0,0:0:0:0:
448,192,72397,1,0,0:0:0:0:
320,192,72573,1,0,0:0:0:0:
64,192,72573,1,0,0:0:0:0:
192,192,72661,1,0,0:0:0:0:
320,192,72750,1,0,0:0:0:0:
448,192,72750,1,0,0:0:0:0:
64,192,72750,1,0,0:0:0:0:
192,192,72926,1,0,0:0:0:0:
320,192,72926,1,0,0:0:0:0:
192,192,73102,1,0,0:0:0:0:
448,192,73102,1,0,0:0:0:70:electronic00.wav
64,192,73102,1,0,0:0:0:0:
64,192,73279,128,0,73455:0:0:0:0:
320,192,73279,128,0,73455:0:0:0:0:
192,192,73455,128,0,73632:0:0:0:0:
448,192,73455,128,0,73632:0:0:0:0:
64,192,73632,1,0,0:0:0:0:
320,192,73632,1,0,0:0:0:0:
448,192,73720,1,0,0:0:0:0:
192,192,73808,1,0,0:0:0:0:
320,192,73808,1,0,0:0:0:0:
64,192,73808,1,0,0:0:0:50:electronic28.wav
192,192,73985,1,0,0:0:0:0:
448,192,73985,1,0,0:0:0:0:
64,192,74073,1,0,0:0:0:0:
320,192,74161,1,0,0:0:0:0:
192,192,74161,1,0,0:0:0:0:
448,192,74161,1,0,0:0:0:0:
192,192,74338,1,0,0:0:0:0:
320,192,74382,1,0,0:0:0:0:
64,192,74426,1,0,0:0:0:0:
192,192,74470,1,0,0:0:0:0:
448,192,74514,1,0,0:0:0:0:
320,192,74514,1,0,0:0:0:70:electronic00.wav
192,192,74691,128,0,74867:0:0:0:0:
448,192,74691,128,0,74867:0:0:0:0:
320,192,74867,128,0,75044:0:0:0:0:
64,192,74867,128,0,75044:0:0:0:0:
192,192,75044,1,0,0:0:0:0:
448,192,75044,1,0,0:0:0:0:
320,192,75132,1,0,0:0:0:0:
192,192,75220,1,0,0:0:0:50:electronic28.wav
64,192,75220,1,0,0:0:0:0:
448,192,75220,1,0,0:0:0:0:
64,192,75397,1,0,0:0:0:0:
320,192,75397,1,0,0:0:0:0:
448,192,75485,1,0,0:0:0:0:
192,192,75573,1,0,0:0:0:0:
320,192,75573,1,0,0:0:0:0:
64,192,75573,1,0,0:0:0:0:
320,192,75750,1,0,0:0:0:0:
192,192,75750,1,0,0:0:0:0:
320,192,75926,1,0,0:0:0:70:electronic00.wav
448,192,75926,1,0,0:0:0:0:
192,192,75970,1,0,0:0:0:0:
64,192,76014,1,0,0:0:0:0:
320,192,76058,1,0,0:0:0:0:
192,192,76102,128,0,76279:0:0:0:0:
448,192,76102,128,0,76279:0:0:0:0:
64,192,76279,128,0,76455:0:0:0:0:
320,192,76279,128,0,76455:0:0:0:0:
192,192,76455,1,0,0:0:0:0:
448,192,76455,1,0,0:0:0:0:
64,192,76544,1,0,0:0:0:0:
320,192,76632,1,0,0:0:0:0:
448,192,76632,1,0,0:0:0:50:electronic28.wav
64,192,76720,1,0,0:0:0:0:
192,192,76808,1,0,0:0:0:0:
320,192,76808,1,0,0:0:0:0:
448,192,76897,1,0,0:0:0:0:
192,192,76985,1,0,0:0:0:0:
320,192,76985,1,0,0:0:0:0:
320,192,77161,1,0,0:0:0:0:
192,192,77161,1,0,0:0:0:0:
192,192,77338,128,0,77867:0:0:0:70:electronic00.wav
320,192,77338,128,0,77867:0:0:0:0:
64,192,77867,1,0,0:0:0:0:
448,192,77867,1,0,0:0:0:0:
64,192,78044,1,0,0:0:0:70:electronic00.wav
448,192,78044,1,0,0:0:0:70:cymbal10.wav
192,192,78044,1,0,0:0:0:0:
320,192,78132,1,0,0:0:0:0:
448,192,78220,1,0,0:0:0:0:
192,192,78220,1,0,0:0:0:0:
64,192,78308,1,0,0:0:0:0:
192,192,78397,128,0,78573:0:0:0:0:
320,192,78397,128,0,78573:0:0:0:50:electronic28.wav
448,192,78573,1,0,0:0:0:0:
64,192,78573,1,0,0:0:0:0:
192,192,78750,1,0,0:0:0:70:electronic00.wav
448,192,78750,1,0,0:0:0:0:
64,192,78926,128,0,79102:0:0:0:0:
320,192,78926,128,0,79102:0:0:0:0:
192,192,79102,128,0,79279:0:0:0:0:
448,192,79102,128,0,79279:0:0:0:0:
320,192,79279,1,0,0:0:0:50:electronic28.wav
64,192,79279,1,0,0:0:0:0:
448,192,79367,1,0,0:0:0:0:
64,192,79455,1,0,0:0:0:70:electronic00.wav
320,192,79455,1,0,0:0:0:0:
192,192,79544,1,0,0:0:0:0:
448,192,79632,1,0,0:0:0:40:electronic28.wav
64,192,79632,1,0,0:0:0:0:
192,192,79720,1,0,0:0:0:0:
448,192,79808,128,0,80161:0:0:0:0:
320,192,79808,1,0,0:0:0:40:electronic28.wav
192,192,79985,1,0,0:0:0:0:
320,192,80029,1,0,0:0:0:0:
64,192,80073,1,0,0:0:0:0:
192,192,80117,1,0,0:0:0:0:
64,192,80161,128,0,80514:0:0:0:0:
320,192,80161,1,0,0:0:0:70:electronic00.wav
320,192,80338,1,0,0:0:0:0:
192,192,80426,1,0,0:0:0:30:electronic28.wav
320,192,80514,128,0,80867:0:0:0:0:
448,192,80514,1,0,0:0:0:70:electronic00.wav
448,192,80691,1,0,0:0:0:30:electronic28.wav
192,192,80867,128,0,81220:0:0:0:0:
64,192,80867,1,0,0:0:0:70:electronic00.wav
320,192,81044,1,0,0:0:0:0:
64,192,81132,1,0,0:0:0:30:electronic28.wav
320,192,81220,128,0,81573:0:0:0:0:
448,192,81220,1,0,0:0:0:70:electronic00.wav
448,192,81397,1,0,0:0:0:30:electronic28.wav
64,192,81573,1,0,0:0:0:0:
192,192,81573,1,0,0:0:0:70:electronic00.wav
64,192,81750,1,0,0:0:0:0:
320,192,81750,1,0,0:0:0:0:
192,192,81926,1,0,0:0:0:0:
320,192,81926,1,0,0:0:0:0:
192,192,82102,1,0,0:0:0:0:
448,192,82102,1,0,0:0:0:0:
448,192,82279,1,0,0:0:0:0:
320,192,82279,1,0,0:0:0:0:
64,192,82455,1,0,0:0:0:0:
192,192,82455,1,0,0:0:0:0:
192,192,82632,1,0,0:0:0:0:
320,192,82632,1,0,0:0:0:70:electronic36.wav
320,192,82808,1,0,0:0:0:0:
448,192,82808,1,0,0:0:0:70:LR_Tom Normal.wav
192,192,82985,128,0,83338:0:0:0:70:cymbal10.wav
64,192,82985,128,0,83338:0:0:0:70:electronic00.wav
320,192,82985,1,0,0:0:0:0:
448,192,83338,128,0,83602:0:0:0:0:
320,192,83338,128,0,83602:0:0:0:0:
320,192,83691,1,0,0:0:0:70:electronic36.wav
448,192,83691,1,0,0:0:0:0:
192,192,83779,1,0,0:0:0:0:
64,192,83867,1,0,0:0:0:0:
320,192,83955,1,0,0:0:0:0:
64,192,84044,1,0,0:0:0:0:
448,192,84044,1,0,0:0:0:0:
192,192,84132,1,0,0:0:0:0:
320,192,84220,128,0,84397:0:0:0:0:
448,192,84220,128,0,84397:0:0:0:0:
192,192,84573,1,0,0:0:0:0:
320,192,84661,1,0,0:0:0:0:
448,192,84750,1,0,0:0:0:0:
64,192,84750,1,0,0:0:0:70:electronic00.wav
320,192,84838,1,0,0:0:0:0:
192,192,84926,128,0,85102:0:0:0:0:
64,192,84926,128,0,85102:0:0:0:0:
320,192,85102,1,0,0:0:0:70:electronic36.wav
448,192,85102,1,0,0:0:0:0:
320,192,85279,1,0,0:0:0:0:
64,192,85367,1,0,0:0:0:0:
192,192,85455,1,0,0:0:0:0:
448,192,85455,1,0,0:0:0:0:
64,192,85544,1,0,0:0:0:0:
448,192,85632,1,0,0:0:0:0:
320,192,85632,1,0,0:0:0:70:electronic00.wav
64,192,85808,128,0,86161:0:0:0:0:
192,192,85808,128,0,86161:0:0:0:70:electronic00.wav
320,192,86161,128,0,86426:0:0:0:0:
448,192,86161,128,0,86426:0:0:0:0:
192,192,86514,1,0,0:0:0:70:electronic36.wav
64,192,86514,1,0,0:0:0:0:
320,192,86602,1,0,0:0:0:0:
448,192,86691,1,0,0:0:0:0:
192,192,86779,1,0,0:0:0:0:
448,192,86867,1,0,0:0:0:0:
64,192,86867,1,0,0:0:0:0:
320,192,86955,1,0,0:0:0:0:
64,192,87044,128,0,87220:0:0:0:0:
192,192,87044,128,0,87220:0:0:0:0:
192,192,87397,1,0,0:0:0:0:
64,192,87485,1,0,0:0:0:0:
320,192,87573,1,0,0:0:0:70:electronic00.wav
448,192,87573,1,0,0:0:0:0:
64,192,87661,1,0,0:0:0:0:
192,192,87705,1,0,0:0:0:0:
320,192,87750,128,0,87926:0:0:0:0:
448,192,87750,128,0,87926:0:0:0:0:
192,192,87926,1,0,0:0:0:0:
64,192,87926,1,0,0:0:0:70:electronic36.wav
320,192,88014,1,0,0:0:0:0:
192,192,88102,1,0,0:0:0:70:electronic00.wav
64,192,88102,1,0,0:0:0:0:
320,192,88191,1,0,0:0:0:0:
448,192,88279,1,0,0:0:0:70:electronic00.wav
64,192,88279,1,0,0:0:0:0:
320,192,88367,1,0,0:0:0:70:electronic00.wav
192,192,88367,1,0,0:0:0:0:
64,192,88455,1,0,0:0:0:70:electronic00.wav
448,192,88455,1,0,0:0:0:0:
320,192,88632,128,0,89161:0:0:0:0:
448,192,88632,128,0,89161:0:0:0:70:cymbal10.wav
64,192,88632,128,0,88985:0:0:0:70:electronic00.wav
64,192,89161,1,0,0:0:0:0:
192,192,89161,1,0,0:0:0:0:
448,192,89338,1,0,0:0:0:70:electronic36.wav
320,192,89382,1,0,0:0:0:0:
192,192,89426,1,0,0:0:0:0:
64,192,89470,1,0,0:0:0:0:
448,192,89514,1,0,0:0:0:0:
320,192,89558,1,0,0:0:0:0:
192,192,89602,1,0,0:0:0:0:
64,192,89647,1,0,0:0:0:0:
320,192,89691,1,0,0:0:0:0:
448,192,89691,1,0,0:0:0:0:
192,192,89779,1,0,0:0:0:0:
64,192,89779,1,0,0:0:0:0:
320,192,89955,1,0,0:0:0:0:
448,192,89955,1,0,0:0:0:0:
64,192,90044,1,0,0:0:0:0:
192,192,90088,1,0,0:0:0:0:
320,192,90132,1,0,0:0:0:0:
448,192,90176,1,0,0:0:0:0:
64,192,90220,1,0,0:0:0:0:
192,192,90264,1,0,0:0:0:0:
320,192,90308,1,0,0:0:0:0:
448,192,90352,1,0,0:0:0:0:
192,192,90397,1,0,0:0:0:70:electronic00.wav
64,192,90397,1,0,0:0:0:0:
320,192,90485,1,0,0:0:0:0:
448,192,90485,1,0,0:0:0:0:
64,192,90661,1,0,0:0:0:0:
320,192,90661,1,0,0:0:0:0:
192,192,90750,1,0,0:0:0:70:electronic36.wav
448,192,90750,1,0,0:0:0:0:
320,192,90926,1,0,0:0:0:0:
64,192,90926,1,0,0:0:0:0:
448,192,91102,1,0,0:0:0:0:
192,192,91102,1,0,0:0:0:0:
320,192,91279,1,0,0:0:0:70:electronic00.wav
64,192,91279,1,0,0:0:0:0:
192,192,91455,128,0,91808:0:0:0:70:electronic00.wav
64,192,91455,128,0,91808:0:0:0:0:
448,192,91455,128,0,91808:0:0:0:0:
320,192,91985,1,0,0:0:0:0:
448,192,91985,1,0,0:0:0:0:
64,192,92161,1,0,0:0:0:70:electronic36.wav
192,192,92205,1,0,0:0:0:0:
320,192,92250,1,0,0:0:0:0:
448,192,92294,1,0,0:0:0:0:
64,192,92338,1,0,0:0:0:0:
192,192,92382,1,0,0:0:0:0:
320,192,92426,1,0,0:0:0:0:
448,192,92470,1,0,0:0:0:0:
192,192,92514,1,0,0:0:0:0:
64,192,92514,1,0,0:0:0:0:
320,192,92602,1,0,0:0:0:0:
448,192,92602,1,0,0:0:0:0:
192,192,92779,1,0,0:0:0:0:
64,192,92779,1,0,0:0:0:0:
448,192,92867,1,0,0:0:0:0:
320,192,92911,1,0,0:0:0:0:
192,192,92955,1,0,0:0:0:0:
64,192,93000,1,0,0:0:0:0:
448,192,93044,1,0,0:0:0:0:
320,192,93088,1,0,0:0:0:0:
192,192,93132,1,0,0:0:0:0:
64,192,93176,1,0,0:0:0:0:
320,192,93220,1,0,0:0:0:70:electronic00.wav
448,192,93220,1,0,0:0:0:0:
64,192,93308,1,0,0:0:0:0:
192,192,93397,1,0,0:0:0:0:
320,192,93397,1,0,0:0:0:0:
448,192,93485,1,0,0:0:0:0:
192,192,93573,1,0,0:0:0:70:electronic28G.wav
64,192,93573,1,0,0:0:0:0:
64,192,93926,1,0,0:0:0:0:
320,192,93926,1,0,0:0:0:0:
192,192,94102,1,0,0:0:0:0:
448,192,94102,1,0,0:0:0:0:
320,192,94279,128,0,94632:0:0:0:70:electronic00.wav
448,192,94279,128,0,94632:0:0:0:70:cymbal10.wav
192,192,94279,1,0,0:0:0:0:
192,192,94632,128,0,94897:0:0:0:0:
64,192,94632,128,0,94897:0:0:0:0:
192,192,94985,1,0,0:0:0:70:electronic36.wav
64,192,94985,1,0,0:0:0:0:
320,192,95073,1,0,0:0:0:0:
448,192,95161,1,0,0:0:0:0:
192,192,95250,1,0,0:0:0:0:
64,192,95338,1,0,0:0:0:0:
448,192,95338,1,0,0:0:0:0:
320,192,95426,1,0,0:0:0:0:
192,192,95514,128,0,95691:0:0:0:0:
64,192,95514,128,0,95691:0:0:0:0:
320,192,95867,1,0,0:0:0:0:
192,192,95955,1,0,0:0:0:0:
448,192,96044,1,0,0:0:0:0:
64,192,96044,1,0,0:0:0:70:electronic00.wav
192,192,96132,1,0,0:0:0:0:
320,192,96220,128,0,96397:0:0:0:0:
448,192,96220,128,0,96397:0:0:0:0:
192,192,96397,1,0,0:0:0:70:electronic36.wav
64,192,96397,1,0,0:0:0:0:
320,192,96573,1,0,0:0:0:0:
192,192,96661,1,0,0:0:0:0:
64,192,96750,1,0,0:0:0:0:
320,192,96750,1,0,0:0:0:0:
448,192,96838,1,0,0:0:0:0:
64,192,96926,1,0,0:0:0:70:electronic00.wav
192,192,96926,1,0,0:0:0:0:
320,192,97102,128,0,97455:0:0:0:0:
448,192,97102,128,0,97455:0:0:0:70:electronic00.wav
192,192,97455,128,0,97720:0:0:0:0:
64,192,97455,128,0,97720:0:0:0:0:
320,192,97808,1,0,0:0:0:70:electronic36.wav
448,192,97808,1,0,0:0:0:0:
192,192,97897,1,0,0:0:0:0:
320,192,97985,1,0,0:0:0:0:
64,192,98073,1,0,0:0:0:0:
448,192,98161,1,0,0:0:0:0:
192,192,98161,1,0,0:0:0:0:
320,192,98250,1,0,0:0:0:0:
192,192,98338,128,0,98514:0:0:0:0:
64,192,98338,128,0,98514:0:0:0:0:
192,192,98691,1,0,0:0:0:0:
64,192,98779,1,0,0:0:0:0:
320,192,98867,1,0,0:0:0:70:electronic00.wav
448,192,98867,1,0,0:0:0:0:
64,192,98955,1,0,0:0:0:0:
192,192,99000,1,0,0:0:0:0:
320,192,99044,128,0,99220:0:0:0:0:
448,192,99044,128,0,99220:0:0:0:0:
192,192,99220,1,0,0:0:0:70:electronic36.wav
64,192,99220,1,0,0:0:0:0:
320,192,99308,1,0,0:0:0:0:
192,192,99397,1,0,0:0:0:0:
64,192,99397,1,0,0:0:0:70:electronic00.wav
320,192,99485,1,0,0:0:0:0:
448,192,99573,1,0,0:0:0:0:
64,192,99573,1,0,0:0:0:70:electronic00.wav
320,192,99661,1,0,0:0:0:0:
192,192,99750,1,0,0:0:0:0:
320,192,99838,1,0,0:0:0:0:
192,192,99926,128,0,100279:0:0:0:70:electronic00.wav
64,192,99926,128,0,100279:0:0:0:0:
448,192,99926,128,0,100279:0:0:0:70:cymbal10.wav
192,192,100455,1,0,0:0:0:0:
320,192,100455,1,0,0:0:0:0:
448,192,100632,1,0,0:0:0:70:electronic36.wav
320,192,100676,1,0,0:0:0:0:
192,192,100720,1,0,0:0:0:0:
64,192,100764,1,0,0:0:0:0:
448,192,100808,1,0,0:0:0:0:
320,192,100852,1,0,0:0:0:0:
192,192,100897,1,0,0:0:0:0:
64,192,100941,1,0,0:0:0:0:
448,192,100985,1,0,0:0:0:0:
320,192,100985,1,0,0:0:0:0:
192,192,101073,1,0,0:0:0:0:
64,192,101073,1,0,0:0:0:0:
320,192,101250,1,0,0:0:0:0:
448,192,101250,1,0,0:0:0:0:
64,192,101338,1,0,0:0:0:0:
192,192,101382,1,0,0:0:0:0:
320,192,101426,1,0,0:0:0:0:
448,192,101470,1,0,0:0:0:0:
64,192,101514,1,0,0:0:0:0:
192,192,101558,1,0,0:0:0:0:
320,192,101602,1,0,0:0:0:0:
448,192,101647,1,0,0:0:0:0:
64,192,101691,1,0,0:0:0:0:
192,192,101691,1,0,0:0:0:70:electronic00.wav
320,192,101779,1,0,0:0:0:0:
448,192,101779,1,0,0:0:0:0:
192,192,101867,1,0,0:0:0:0:
64,192,101955,1,0,0:0:0:0:
448,192,102044,1,0,0:0:0:70:electronic36.wav
320,192,102220,1,0,0:0:0:0:
192,192,102397,1,0,0:0:0:0:
64,192,102573,1,0,0:0:0:70:electronic00.wav
320,192,102573,1,0,0:0:0:0:
64,192,102750,1,0,0:0:0:0:
192,192,102750,1,0,0:0:0:70:electronic00.wav
448,192,102750,1,0,0:0:0:0:
320,192,103014,1,0,0:0:0:70:electronic00.wav
448,192,103014,1,0,0:0:0:0:
64,192,103014,1,0,0:0:0:0:
192,192,103102,1,0,0:0:0:0:
448,192,103191,1,0,0:0:0:0:
64,192,103279,1,0,0:0:0:0:
192,192,103279,1,0,0:0:0:70:electronic00.wav
320,192,103279,1,0,0:0:0:0:
448,192,103367,1,0,0:0:0:0:
64,192,103455,1,0,0:0:0:70:electronic36.wav
192,192,103500,1,0,0:0:0:0:
320,192,103544,1,0,0:0:0:0:
448,192,103588,1,0,0:0:0:0:
192,192,103632,1,0,0:0:0:0:
320,192,103676,1,0,0:0:0:0:
64,192,103720,1,0,0:0:0:70:electronic00.wav
192,192,103764,1,0,0:0:0:0:
448,192,103808,1,0,0:0:0:0:
320,192,103852,1,0,0:0:0:0:
64,192,103897,1,0,0:0:0:0:
192,192,103941,1,0,0:0:0:0:
320,192,103985,1,0,0:0:0:70:electronic00.wav
448,192,104029,1,0,0:0:0:0:
192,192,104073,1,0,0:0:0:0:
320,192,104117,1,0,0:0:0:0:
64,192,104161,1,0,0:0:0:70:electronic00.wav
192,192,104205,1,0,0:0:0:0:
320,192,104250,1,0,0:0:0:0:
448,192,104294,1,0,0:0:0:0:
192,192,104338,1,0,0:0:0:0:
64,192,104382,1,0,0:0:0:0:
320,192,104426,1,0,0:0:0:70:electronic00.wav
448,192,104470,1,0,0:0:0:0:
64,192,104514,1,0,0:0:0:0:
192,192,104558,1,0,0:0:0:0:
448,192,104602,1,0,0:0:0:0:
320,192,104647,1,0,0:0:0:0:
192,192,104691,1,0,0:0:0:70:electronic00.wav
64,192,104735,1,0,0:0:0:0:
448,192,104779,1,0,0:0:0:0:
320,192,104823,1,0,0:0:0:0:
64,192,104867,1,0,0:0:0:70:electronic36.wav
192,192,104867,1,0,0:0:0:0:
192,192,105132,1,0,0:0:0:0:
320,192,105132,1,0,0:0:0:0:
320,192,105397,1,0,0:0:0:0:
192,192,105397,1,0,0:0:0:0:
64,192,105573,128,0,105926:0:0:0:0:
448,192,105573,128,0,105926:0:0:0:70:electronic00.wav
448,192,106279,128,0,106808:0:0:0:0:
64,192,106279,1,0,0:0:0:70:electronic00.wav
320,192,106279,1,0,0:0:0:70:cymbal10.wav
64,192,106455,1,0,0:0:0:0:
320,192,106455,1,0,0:0:0:0:
64,192,106632,1,0,0:0:0:0:
320,192,106632,1,0,0:0:0:0:
64,192,106808,1,0,0:0:0:0:
320,192,106808,1,0,0:0:0:0:
64,192,106985,128,0,107514:0:0:0:0:
192,192,106985,1,0,0:0:0:70:electronic00.wav
448,192,106985,1,0,0:0:0:70:cymbal10.wav
192,192,107161,1,0,0:0:0:0:
448,192,107161,1,0,0:0:0:0:
192,192,107338,1,0,0:0:0:0:
448,192,107338,1,0,0:0:0:0:
192,192,107514,1,0,0:0:0:0:
448,192,107514,1,0,0:0:0:0:
64,192,107691,1,0,0:0:0:70:electronic00.wav
320,192,107691,1,0,0:0:0:70:cymbal10.wav
448,192,107691,128,0,108220:0:0:0:0:
320,192,107867,1,0,0:0:0:0:
64,192,107867,1,0,0:0:0:0:
320,192,108044,1,0,0:0:0:0:
64,192,108044,1,0,0:0:0:0:
320,192,108220,1,0,0:0:0:0:
64,192,108220,1,0,0:0:0:0:
448,192,108397,1,0,0:0:0:0:
192,192,108397,1,0,0:0:0:70:electronic00.wav
320,192,108573,1,0,0:0:0:0:
64,192,108573,1,0,0:0:0:0:
192,192,108838,1,0,0:0:0:0:
448,192,108838,1,0,0:0:0:0:
64,192,109102,128,0,109632:0:0:0:0:
320,192,109102,1,0,0:0:0:70:electronic00.wav
448,192,109102,1,0,0:0:0:70:cymbal10.wav
320,192,109279,1,0,0:0:0:0:
448,192,109279,1,0,0:0:0:0:
320,192,109455,1,0,0:0:0:0:
448,192,109455,1,0,0:0:0:0:
320,192,109632,1,0,0:0:0:0:
448,192,109632,1,0,0:0:0:0:
448,192,109808,128,0,110338:0:0:0:0:
64,192,109808,1,0,0:0:0:70:electronic00.wav
192,192,109808,1,0,0:0:0:70:cymbal10.wav
192,192,109985,1,0,0:0:0:0:
64,192,109985,1,0,0:0:0:0:
192,192,110161,1,0,0:0:0:0:
64,192,110161,1,0,0:0:0:0:
192,192,110338,1,0,0:0:0:0:
64,192,110338,1,0,0:0:0:0:
64,192,110514,128,0,111044:0:0:0:0:
320,192,110514,1,0,0:0:0:70:electronic00.wav
448,192,110514,1,0,0:0:0:70:cymbal10.wav
320,192,110691,1,0,0:0:0:0:
448,192,110691,1,0,0:0:0:0:
320,192,110867,1,0,0:0:0:0:
448,192,110867,1,0,0:0:0:0:
320,192,111044,1,0,0:0:0:0:
448,192,111044,1,0,0:0:0:0:
320,192,111220,128,0,111573:0:0:0:70:electronic00.wav
448,192,111220,128,0,111573:0:0:0:0:
192,192,111573,128,0,111750:0:0:0:0:
64,192,111573,128,0,111750:0:0:0:0:
320,192,111926,128,0,112455:0:0:0:0:
64,192,111926,1,0,0:0:0:70:electronic00.wav
448,192,111926,1,0,0:0:0:70:cymbal10.wav
448,192,112102,1,0,0:0:0:0:
64,192,112102,1,0,0:0:0:0:
448,192,112279,1,0,0:0:0:0:
64,192,112279,1,0,0:0:0:0:
448,192,112455,1,0,0:0:0:0:
64,192,112455,1,0,0:0:0:0:
64,192,112632,128,0,113161:0:0:0:0:
320,192,112632,1,0,0:0:0:70:cymbal10.wav
192,192,112632,1,0,0:0:0:70:electronic00.wav
192,192,112808,1,0,0:0:0:0:
320,192,112808,1,0,0:0:0:0:
192,192,112985,1,0,0:0:0:0:
320,192,112985,1,0,0:0:0:0:
192,192,113161,1,0,0:0:0:0:
320,192,113161,1,0,0:0:0:0:
320,192,113338,128,0,113867:0:0:0:0:
64,192,113338,1,0,0:0:0:70:electronic00.wav
448,192,113338,1,0,0:0:0:70:cymbal10.wav
64,192,113514,1,0,0:0:0:0:
448,192,113514,1,0,0:0:0:0:
64,192,113691,1,0,0:0:0:0:
448,192,113691,1,0,0:0:0:0:
64,192,113867,1,0,0:0:0:0:
448,192,113867,1,0,0:0:0:0:
192,192,114044,1,0,0:0:0:70:electronic00.wav
320,192,114044,1,0,0:0:0:0:
64,192,114220,1,0,0:0:0:0:
448,192,114220,1,0,0:0:0:0:
192,192,114485,1,0,0:0:0:0:
320,192,114485,1,0,0:0:0:0:
448,192,114750,128,0,115279:0:0:0:0:
64,192,114750,1,0,0:0:0:70:electronic00.wav
320,192,114750,1,0,0:0:0:70:cymbal10.wav
64,192,114926,1,0,0:0:0:0:
320,192,114926,1,0,0:0:0:0:
64,192,115102,1,0,0:0:0:0:
320,192,115102,1,0,0:0:0:0:
64,192,115279,1,0,0:0:0:0:
320,192,115279,1,0,0:0:0:0:
64,192,115455,128,0,115985:0:0:0:0:
320,192,115455,1,0,0:0:0:70:electronic00.wav
448,192,115455,1,0,0:0:0:70:cymbal10.wav
192,192,115544,1,0,0:0:0:0:
448,192,115632,1,0,0:0:0:0:
192,192,115720,5,0,0:0:0:0:
448,192,115808,1,0,0:0:0:0:
192,192,115897,1,0,0:0:0:0:
448,192,115985,1,0,0:0:0:0:
192,192,116073,1,0,0:0:0:0:
448,192,116161,1,0,0:0:0:0:
320,192,116161,1,0,0:0:0:70:electronic00.wav
192,192,116338,1,0,0:0:0:0:
320,192,116514,1,0,0:0:0:0:
192,192,116911,1,0,0:0:0:0:
448,192,117250,1,0,0:0:0:0:
64,192,117602,1,0,0:0:0:0:
320,192,117955,1,0,0:0:0:0:
192,192,118308,128,0,119661:0:0:0:0:
320,192,122544,1,0,0:0:0:0:
64,192,122897,1,0,0:0:0:0:
448,192,123250,1,0,0:0:0:0:
192,192,123602,1,0,0:0:0:0:
320,192,123955,128,0,125308:0:0:0:0:
64,192,126750,1,0,0:0:0:0:
192,192,127279,1,0,0:0:0:0:
448,192,127455,128,0,127720:0:0:0:0:
448,192,127808,128,0,128161:0:0:0:0:
64,192,128161,1,0,0:0:0:70:cymbal10.wav
320,192,128161,1,0,0:0:0:70:Kick 11.wav
192,192,128205,1,0,0:0:0:0:
448,192,128338,1,0,0:0:0:0:
320,192,128514,1,0,0:0:0:0:
192,192,128514,1,0,0:0:0:0:
64,192,128558,1,0,0:0:0:0:
320,192,128691,1,0,0:0:0:0:
192,192,128867,1,0,0:0:0:0:
448,192,128867,1,0,0:0:0:70:LR_Tom Normal.wav
320,192,128911,1,0,0:0:0:0:
64,192,129044,128,0,129220:0:0:0:0:
448,192,129220,128,0,129397:0:0:0:0:
320,192,129220,1,0,0:0:0:0:
192,192,129264,1,0,0:0:0:0:
192,192,129397,128,0,129573:0:0:0:0:
320,192,129573,128,0,130632:0:0:0:0:
448,192,129573,1,0,0:0:0:0:
64,192,129617,1,0,0:0:0:0:
448,192,129926,1,0,0:0:0:0:
64,192,129926,1,0,0:0:0:70:Kick 11.wav
192,192,129970,1,0,0:0:0:0:
448,192,130102,1,0,0:0:0:0:
64,192,130279,1,0,0:0:0:0:
192,192,130279,1,0,0:0:0:70:LR_Tom Normal.wav
448,192,130323,1,0,0:0:0:0:
64,192,130455,1,0,0:0:0:0:
192,192,130632,1,0,0:0:0:0:
448,192,130632,1,0,0:0:0:0:
64,192,130676,1,0,0:0:0:0:
320,192,130808,1,0,0:0:0:70:Kick 11.wav
64,192,130985,1,0,0:0:0:0:
192,192,130985,1,0,0:0:0:70:Kick 11.wav
320,192,131029,1,0,0:0:0:0:
448,192,131161,1,0,0:0:0:0:
192,192,131338,1,0,0:0:0:0:
320,192,131338,1,0,0:0:0:0:
64,192,131382,1,0,0:0:0:0:
448,192,131691,128,0,132044:0:0:0:0:
320,192,131691,1,0,0:0:0:70:LR_Tom Normal.wav
192,192,131735,1,0,0:0:0:0:
64,192,131867,1,0,0:0:0:0:
64,192,132044,128,0,132573:0:0:0:0:
192,192,132044,1,0,0:0:0:0:
320,192,132088,1,0,0:0:0:0:
448,192,132397,1,0,0:0:0:0:
320,192,132397,1,0,0:0:0:0:
192,192,132441,1,0,0:0:0:0:
448,192,132573,128,0,133102:0:0:0:0:
320,192,132750,1,0,0:0:0:70:Kick 11.wav
64,192,132750,1,0,0:0:0:0:
192,192,132794,1,0,0:0:0:0:
320,192,132926,1,0,0:0:0:0:
64,192,133102,128,0,133455:0:0:0:0:
192,192,133102,1,0,0:0:0:70:LR_Tom Normal.wav
320,192,133147,1,0,0:0:0:0:
448,192,133279,1,0,0:0:0:70:Kick 11.wav
192,192,133455,1,0,0:0:0:70:Kick 11.wav
320,192,133455,1,0,0:0:0:0:
64,192,133544,1,0,0:0:0:0:
448,192,133544,1,0,0:0:0:70:Kick 11.wav
192,192,133632,1,0,0:0:0:70:Kick 11.wav
320,192,133632,1,0,0:0:0:0:
192,192,133808,1,0,0:0:0:0:
320,192,133808,1,0,0:0:0:70:Kick 11.wav
64,192,133852,1,0,0:0:0:0:
448,192,133985,1,0,0:0:0:0:
64,192,134161,1,0,0:0:0:0:
192,192,134161,1,0,0:0:0:0:
320,192,134205,1,0,0:0:0:0:
448,192,134338,1,0,0:0:0:0:
320,192,134514,1,0,0:0:0:0:
192,192,134514,1,0,0:0:0:70:LR_Tom Normal.wav
64,192,134558,1,0,0:0:0:0:
448,192,134691,128,0,134867:0:0:0:0:
64,192,134867,128,0,135044:0:0:0:0:
192,192,134867,1,0,0:0:0:0:
320,192,134911,1,0,0:0:0:0:
320,192,135044,128,0,135220:0:0:0:0:
192,192,135220,128,0,135926:0:0:0:0:
64,192,135220,1,0,0:0:0:0:
448,192,135264,1,0,0:0:0:0:
64,192,135573,1,0,0:0:0:0:
448,192,135573,1,0,0:0:0:70:Kick 11.wav
320,192,135617,1,0,0:0:0:0:
64,192,135750,1,0,0:0:0:0:
448,192,135926,128,0,136102:0:0:0:0:
320,192,135926,1,0,0:0:0:70:LR_Tom Normal.wav
64,192,135970,1,0,0:0:0:0:
64,192,136102,128,0,136279:0:0:0:0:
448,192,136279,128,0,136455:0:0:0:0:
320,192,136279,1,0,0:0:0:0:
192,192,136323,1,0,0:0:0:0:
320,192,136455,1,0,0:0:0:70:Kick 11.wav
192,192,136632,1,0,0:0:0:70:Kick 11.wav
64,192,136632,1,0,0:0:0:0:
320,192,136676,1,0,0:0:0:0:
448,192,136985,1,0,0:0:0:0:
320,192,137161,1,0,0:0:0:0:
192,192,137205,1,0,0:0:0:0:
64,192,137338,1,0,0:0:0:70:LR_Tom Normal.wav
320,192,137338,1,0,0:0:0:0:
192,192,137382,1,0,0:0:0:0:
448,192,137514,1,0,0:0:0:0:
320,192,137558,1,0,0:0:0:0:
192,192,137691,128,0,138044:0:0:0:0:
64,192,137691,1,0,0:0:0:0:
320,192,137735,1,0,0:0:0:0:
448,192,137867,1,0,0:0:0:0:
320,192,137911,1,0,0:0:0:0:
320,192,138044,128,0,138397:0:0:0:0:
448,192,138044,1,0,0:0:0:0:
64,192,138088,1,0,0:0:0:0:
192,192,138220,1,0,0:0:0:0:
64,192,138264,1,0,0:0:0:0:
448,192,138397,1,0,0:0:0:0:
192,192,138397,1,0,0:0:0:70:Kick 11.wav
64,192,138441,1,0,0:0:0:0:
320,192,138573,1,0,0:0:0:0:
192,192,138617,1,0,0:0:0:0:
448,192,138750,1,0,0:0:0:70:LR_Tom Normal.wav
64,192,138750,1,0,0:0:0:0:
320,192,138794,1,0,0:0:0:0:
64,192,138926,1,0,0:0:0:70:Kick 11.wav
448,192,138926,1,0,0:0:0:0:
192,192,138970,1,0,0:0:0:0:
448,192,139102,1,0,0:0:0:0:
320,192,139102,1,0,0:0:0:70:Kick 11.wav
192,192,139191,1,0,0:0:0:70:Kick 11.wav
64,192,139191,1,0,0:0:0:0:
320,192,139279,1,0,0:0:0:70:Kick 11.wav
448,192,139279,1,0,0:0:0:0:
320,192,139455,1,0,0:0:0:70:cymbal10.wav
448,192,139455,1,0,0:0:0:70:Kick 11.wav
192,192,139500,1,0,0:0:0:0:
64,192,139632,1,0,0:0:0:0:
448,192,139808,1,0,0:0:0:0:
320,192,139852,1,0,0:0:0:0:
192,192,139941,1,0,0:0:0:0:
64,192,140161,1,0,0:0:0:0:
448,192,140161,1,0,0:0:0:0:
192,192,140205,1,0,0:0:0:0:
320,192,140338,1,0,0:0:0:0:
64,192,140514,128,0,140691:0:0:0:0:
192,192,140558,1,0,0:0:0:0:
320,192,140691,1,0,0:0:0:0:
320,192,140867,1,0,0:0:0:0:
448,192,140867,1,0,0:0:0:0:
192,192,140911,1,0,0:0:0:0:
448,192,141044,1,0,0:0:0:0:
64,192,141220,1,0,0:0:0:0:
192,192,141220,1,0,0:0:0:70:Kick 11.wav
320,192,141264,1,0,0:0:0:0:
448,192,141397,128,0,141573:0:0:0:0:
64,192,141573,1,0,0:0:0:0:
320,192,141573,1,0,0:0:0:0:
192,192,141617,1,0,0:0:0:0:
320,192,141750,128,0,141926:0:0:0:0:
192,192,141926,128,0,142102:0:0:0:0:
64,192,141926,1,0,0:0:0:0:
448,192,141970,1,0,0:0:0:0:
320,192,142102,128,0,142279:0:0:0:70:Kick 11.wav
192,192,142279,128,0,142455:0:0:0:0:
64,192,142279,1,0,0:0:0:70:Kick 11.wav
448,192,142323,1,0,0:0:0:0:
320,192,142455,1,0,0:0:0:0:
448,192,142632,1,0,0:0:0:0:
64,192,142632,1,0,0:0:0:0:
192,192,142676,1,0,0:0:0:0:
320,192,142808,1,0,0:0:0:0:
192,192,142985,1,0,0:0:0:0:
448,192,142985,1,0,0:0:0:0:
320,192,143029,1,0,0:0:0:0:
64,192,143161,1,0,0:0:0:0:
320,192,143338,128,0,143514:0:0:0:0:
448,192,143338,1,0,0:0:0:0:
192,192,143382,1,0,0:0:0:0:
64,192,143514,1,0,0:0:0:0:
192,192,143691,1,0,0:0:0:0:
320,192,143691,1,0,0:0:0:0:
448,192,143735,1,0,0:0:0:0:
192,192,143867,1,0,0:0:0:0:
448,192,144044,1,0,0:0:0:70:Kick 11.wav
64,192,144044,1,0,0:0:0:0:
320,192,144088,1,0,0:0:0:0:
64,192,144220,128,0,144397:0:0:0:0:
192,192,144397,1,0,0:0:0:0:
448,192,144397,1,0,0:0:0:0:
320,192,144441,1,0,0:0:0:0:
448,192,144573,128,0,144750:0:0:0:70:Kick 11.wav
64,192,144750,1,0,0:0:0:70:Kick 11.wav
320,192,144750,1,0,0:0:0:0:
192,192,144838,1,0,0:0:0:70:Kick 11.wav
448,192,144838,1,0,0:0:0:0:
64,192,144926,1,0,0:0:0:70:Kick 11.wav
320,192,144926,1,0,0:0:0:0:
320,192,145102,1,0,0:0:0:70:Kick 11.wav
64,192,145102,1,0,0:0:0:0:
192,192,145147,1,0,0:0:0:0:
320,192,145279,1,0,0:0:0:0:
448,192,145455,1,0,0:0:0:0:
320,192,145455,1,0,0:0:0:0:
192,192,145500,1,0,0:0:0:0:
64,192,145632,1,0,0:0:0:0:
192,192,145808,1,0,0:0:0:70:LR_Tom Normal.wav
448,192,145808,1,0,0:0:0:0:
320,192,145852,1,0,0:0:0:0:
448,192,145985,1,0,0:0:0:0:
192,192,146161,128,0,146338:0:0:0:0:
64,192,146161,1,0,0:0:0:0:
320,192,146205,1,0,0:0:0:0:
448,192,146338,1,0,0:0:0:0:
320,192,146514,1,0,0:0:0:0:
192,192,146514,1,0,0:0:0:0:
64,192,146558,1,0,0:0:0:0:
192,192,146867,1,0,0:0:0:70:Kick 11.wav
64,192,146867,1,0,0:0:0:0:
448,192,147044,1,0,0:0:0:0:
320,192,147220,1,0,0:0:0:70:LR_Tom Normal.wav
192,192,147220,1,0,0:0:0:0:
64,192,147397,1,0,0:0:0:0:
320,192,147573,1,0,0:0:0:0:
192,192,147750,1,0,0:0:0:70:Kick 11.wav
320,192,147926,1,0,0:0:0:70:Kick 11.wav
192,192,148985,1,0,0:0:0:0:
320,192,150044,1,0,0:0:0:70:Kick 11.wav
192,192,150088,1,0,0:0:0:70:Kick 11.wav
64,192,150132,1,0,0:0:0:70:Kick 11.wav
448,192,150176,1,0,0:0:0:40:electronic28.wav
320,192,150220,1,0,0:0:0:40:electronic28G.wav
64,192,150308,1,0,0:0:0:40:electronic28G.wav
448,192,150397,1,0,0:0:0:40:electronic28.wav
192,192,150485,1,0,0:0:0:40:electronic28.wav
320,192,150573,1,0,0:0:0:70:Kick 11.wav
192,192,150750,128,0,151102:0:0:0:0:
64,192,150750,128,0,150926:0:0:0:70:electronic00.wav
448,192,150750,128,0,150926:0:0:0:70:cymbal10.wav
320,192,151102,128,0,151455:0:0:0:0:
64,192,151102,1,0,0:0:0:0:
448,192,151102,1,0,0:0:0:0:
64,192,151455,128,0,151808:0:0:0:0:
448,192,151455,1,0,0:0:0:0:
192,192,151455,1,0,0:0:0:0:
192,192,151808,128,0,152161:0:0:0:0:
320,192,151808,1,0,0:0:0:0:
448,192,151808,1,0,0:0:0:0:
320,192,152161,128,0,152514:0:0:0:0:
448,192,152161,1,0,0:0:0:0:
64,192,152161,1,0,0:0:0:0:
448,192,152514,128,0,152867:0:0:0:0:
192,192,152514,1,0,0:0:0:0:
64,192,152514,1,0,0:0:0:0:
192,192,152867,128,0,153220:0:0:0:0:
320,192,152867,1,0,0:0:0:0:
64,192,152867,1,0,0:0:0:0:
448,192,153220,128,0,153573:0:0:0:0:
64,192,153220,1,0,0:0:0:0:
320,192,153220,1,0,0:0:0:0:
192,192,153573,128,0,153926:0:0:0:0:
320,192,153573,128,0,153750:0:0:0:70:cymbal10.wav
64,192,153573,128,0,153750:0:0:0:70:electronic00.wav
64,192,153926,128,0,154279:0:0:0:0:
320,192,153926,1,0,0:0:0:0:
448,192,153926,1,0,0:0:0:0:
320,192,154279,128,0,154632:0:0:0:0:
448,192,154279,1,0,0:0:0:0:
192,192,154279,1,0,0:0:0:0:
448,192,154632,128,0,154985:0:0:0:0:
192,192,154632,1,0,0:0:0:0:
64,192,154632,1,0,0:0:0:0:
64,192,154985,128,0,155338:0:0:0:0:
192,192,154985,1,0,0:0:0:0:
320,192,154985,1,0,0:0:0:0:
192,192,155338,128,0,155691:0:0:0:0:
320,192,155338,1,0,0:0:0:0:
448,192,155338,1,0,0:0:0:0:
320,192,155691,128,0,156044:0:0:0:0:
64,192,155691,128,0,155867:0:0:0:70:electronic00.wav
448,192,155691,128,0,155867:0:0:0:70:cymbal10.wav
192,192,156044,128,0,156397:0:0:0:0:
448,192,156044,128,0,156220:0:0:0:70:cymbal10.wav
64,192,156044,128,0,156220:0:0:0:70:electronic00.wav
320,192,156397,128,0,156750:0:0:0:0:
64,192,156397,128,0,156573:0:0:0:70:electronic00.wav
448,192,156397,128,0,156573:0:0:0:70:cymbal10.wav
192,192,156750,128,0,157102:0:0:0:0:
64,192,156750,1,0,0:0:0:0:
448,192,156750,1,0,0:0:0:0:
448,192,157102,128,0,157455:0:0:0:0:
320,192,157102,1,0,0:0:0:0:
64,192,157102,1,0,0:0:0:0:
192,192,157455,128,0,157808:0:0:0:0:
320,192,157455,1,0,0:0:0:0:
64,192,157455,1,0,0:0:0:0:
320,192,157808,128,0,158161:0:0:0:0:
448,192,157808,1,0,0:0:0:0:
64,192,157808,1,0,0:0:0:0:
64,192,158161,128,0,158514:0:0:0:0:
192,192,158161,1,0,0:0:0:0:
448,192,158161,1,0,0:0:0:0:
192,192,158514,128,0,158867:0:0:0:0:
320,192,158514,1,0,0:0:0:0:
448,192,158514,1,0,0:0:0:0:
448,192,158867,128,0,159220:0:0:0:0:
320,192,158867,1,0,0:0:0:0:
64,192,158867,1,0,0:0:0:0:
192,192,159220,128,0,159573:0:0:0:0:
320,192,159220,128,0,159397:0:0:0:70:cymbal10.wav
64,192,159220,128,0,159397:0:0:0:70:electronic00.wav
448,192,159573,128,0,159926:0:0:0:0:
320,192,159573,1,0,0:0:0:0:
64,192,159573,1,0,0:0:0:0:
192,192,159750,128,0,159926:0:0:0:0:
64,192,159926,128,0,160191:0:0:0:0:
320,192,159926,1,0,0:0:0:0:
320,192,160014,1,0,0:0:0:0:
192,192,160102,1,0,0:0:0:0:
192,192,160191,1,0,0:0:0:0:
320,192,160279,128,0,160632:0:0:0:0:
64,192,160279,128,0,160455:0:0:0:70:electronic00.wav
448,192,160279,128,0,160455:0:0:0:70:cymbal10.wav
64,192,160632,128,0,160808:0:0:0:0:
448,192,160808,1,0,0:0:0:70:cymbal10.wav
320,192,160808,1,0,0:0:0:0:
192,192,160808,1,0,0:0:0:70:electronic00.wav
320,192,160985,1,0,0:0:0:0:
64,192,161073,1,0,0:0:0:0:
192,192,161161,1,0,0:0:0:0:
448,192,161161,1,0,0:0:0:0:
320,192,161250,1,0,0:0:0:0:
448,192,161338,1,0,0:0:0:70:cymbal10_s.wav
192,192,161338,1,0,0:0:0:0:
64,192,161338,1,0,0:0:0:70:electronic00.wav
320,192,161602,1,0,0:0:0:70:cymbal10_s.wav
448,192,161602,1,0,0:0:0:0:
64,192,161602,1,0,0:0:0:70:electronic00.wav
64,192,161867,1,0,0:0:0:0:
448,192,161867,1,0,0:0:0:70:cymbal10_s.wav
192,192,161867,1,0,0:0:0:70:electronic00.wav
64,192,162044,1,0,0:0:0:0:
192,192,162044,1,0,0:0:0:50:electronic00.wav
448,192,162044,1,0,0:0:0:70:cymbal10.wav
320,192,162220,1,0,0:0:0:0:
64,192,162220,1,0,0:0:0:50:electronic00.wav
192,192,162397,1,0,0:0:0:50:electronic00.wav
320,192,162397,1,0,0:0:0:0:
448,192,162397,1,0,0:0:0:0:
192,192,162573,1,0,0:0:0:0:
448,192,162573,1,0,0:0:0:50:electronic00.wav
320,192,162750,1,0,0:0:0:50:electronic00.wav
192,192,162750,1,0,0:0:0:0:
64,192,162750,1,0,0:0:0:0:
64,192,162926,1,0,0:0:0:50:electronic00.wav
448,192,162926,1,0,0:0:0:0:
192,192,163102,1,0,0:0:0:50:electronic00.wav
64,192,163102,1,0,0:0:0:0:
448,192,163102,1,0,0:0:0:0:
192,192,163279,1,0,0:0:0:0:
320,192,163279,1,0,0:0:0:50:electronic00.wav
320,192,163455,1,0,0:0:0:0:
448,192,163455,1,0,0:0:0:0:
64,192,163455,1,0,0:0:0:50:electronic00.wav
64,192,163632,1,0,0:0:0:0:
192,192,163632,1,0,0:0:0:50:electronic00.wav
64,192,163808,1,0,0:0:0:0:
448,192,163808,1,0,0:0:0:50:electronic00.wav
320,192,163808,1,0,0:0:0:0:
320,192,163985,1,0,0:0:0:50:electronic00.wav
448,192,163985,1,0,0:0:0:0:
64,192,164161,1,0,0:0:0:0:
192,192,164161,1,0,0:0:0:50:electronic00.wav
448,192,164161,1,0,0:0:0:0:
192,192,164338,1,0,0:0:0:0:
64,192,164338,1,0,0:0:0:50:electronic00.wav
320,192,164514,1,0,0:0:0:40:electronic00.wav
448,192,164514,1,0,0:0:0:0:
192,192,164602,1,0,0:0:0:40:electronic28.wav
64,192,164602,1,0,0:0:0:0:
320,192,164691,1,0,0:0:0:40:electronic00.wav
448,192,164691,1,0,0:0:0:0:
192,192,164779,1,0,0:0:0:40:LR_Tom Normal.wav
448,192,164867,1,0,0:0:0:0:
320,192,164867,1,0,0:0:0:70:cymbal10.wav
64,192,164867,1,0,0:0:0:50:electronic00.wav
448,192,165044,1,0,0:0:0:50:electronic00.wav
64,192,165044,1,0,0:0:0:0:
192,192,165132,1,0,0:0:0:0:
320,192,165220,1,0,0:0:0:50:electronic00.wav
448,192,165220,1,0,0:0:0:0:
64,192,165220,1,0,0:0:0:0:
192,192,165397,1,0,0:0:0:50:electronic00.wav
320,192,165397,1,0,0:0:0:0:
64,192,165573,1,0,0:0:0:50:electronic00.wav
192,192,165573,1,0,0:0:0:0:
448,192,165573,1,0,0:0:0:0:
192,192,165750,1,0,0:0:0:50:electronic00.wav
64,192,165750,1,0,0:0:0:0:
448,192,165838,1,0,0:0:0:0:
320,192,165926,1,0,0:0:0:50:electronic00.wav
192,192,165926,1,0,0:0:0:0:
64,192,165926,1,0,0:0:0:0:
64,192,166102,1,0,0:0:0:0:
448,192,166102,1,0,0:0:0:50:electronic00.wav
192,192,166279,1,0,0:0:0:50:electronic00.wav
64,192,166279,1,0,0:0:0:0:
448,192,166279,1,0,0:0:0:0:
192,192,166455,1,0,0:0:0:0:
448,192,166455,1,0,0:0:0:50:electronic00.wav
320,192,166544,1,0,0:0:0:0:
64,192,166632,1,0,0:0:0:50:electronic00.wav
448,192,166632,1,0,0:0:0:0:
192,192,166632,1,0,0:0:0:0:
64,192,166808,1,0,0:0:0:0:
320,192,166808,1,0,0:0:0:50:electronic00.wav
320,192,166985,1,0,0:0:0:50:electronic00.wav
448,192,166985,1,0,0:0:0:0:
64,192,166985,1,0,0:0:0:0:
192,192,167161,1,0,0:0:0:50:electronic00.wav
320,192,167161,1,0,0:0:0:0:
64,192,167338,1,0,0:0:0:0:
448,192,167338,1,0,0:0:0:70:electronic36.wav
192,192,167514,1,0,0:0:0:70:LR_Tom Normal.wav
320,192,167514,1,0,0:0:0:0:
64,192,167691,1,0,0:0:0:40:electronic00.wav
448,192,167691,1,0,0:0:0:0:
192,192,167779,1,0,0:0:0:40:electronic00.wav
320,192,167867,1,0,0:0:0:40:electronic00.wav
64,192,167867,1,0,0:0:0:0:
448,192,167955,1,0,0:0:0:40:electronic00.wav
192,192,168044,1,0,0:0:0:40:electronic00.wav
64,192,168044,1,0,0:0:0:0:
320,192,168132,1,0,0:0:0:40:electronic00.wav
64,192,168220,1,0,0:0:0:0:
448,192,168220,1,0,0:0:0:40:electronic00.wav
192,192,168308,1,0,0:0:0:40:electronic00.wav
448,192,168397,1,0,0:0:0:0:
320,192,168397,1,0,0:0:0:40:electronic00.wav
64,192,168485,1,0,0:0:0:40:electronic00.wav
448,192,168573,1,0,0:0:0:40:electronic00.wav
192,192,168573,1,0,0:0:0:0:
320,192,168661,1,0,0:0:0:40:electronic00.wav
192,192,168750,1,0,0:0:0:40:electronic00.wav
64,192,168750,1,0,0:0:0:0:
448,192,168838,1,0,0:0:0:40:electronic00.wav
192,192,168926,1,0,0:0:0:70:electronic00.wav
320,192,168926,1,0,0:0:0:0:
64,192,169014,1,0,0:0:0:70:electronic00.wav
320,192,169102,1,0,0:0:0:70:electronic00.wav
448,192,169102,1,0,0:0:0:0:
192,192,169191,1,0,0:0:0:40:electronic00.wav
448,192,169279,1,0,0:0:0:40:electronic00.wav
64,192,169279,1,0,0:0:0:0:
320,192,169367,1,0,0:0:0:40:electronic00.wav
64,192,169455,5,0,0:0:0:40:electronic00.wav
192,192,169455,1,0,0:0:0:0:
320,192,169544,1,0,0:0:0:40:electronic00.wav
448,192,169632,1,0,0:0:0:0:
64,192,169632,1,0,0:0:0:40:electronic00.wav
192,192,169720,1,0,0:0:0:40:electronic00.wav
448,192,169808,1,0,0:0:0:40:electronic00.wav
320,192,169808,1,0,0:0:0:0:
64,192,169897,1,0,0:0:0:40:electronic00.wav
320,192,169985,1,0,0:0:0:40:electronic00.wav
192,192,169985,1,0,0:0:0:0:
448,192,170073,1,0,0:0:0:40:electronic00.wav
320,192,170161,1,0,0:0:0:0:
64,192,170161,1,0,0:0:0:40:electronic00.wav
192,192,170250,1,0,0:0:0:40:electronic00.wav
64,192,170338,1,0,0:0:0:40:electronic00.wav
448,192,170338,1,0,0:0:0:0:
320,192,170426,1,0,0:0:0:40:electronic00.wav
64,192,170514,1,0,0:0:0:40:electronic00.wav
192,192,170558,1,0,0:0:0:40:electronic00.wav
448,192,170602,1,0,0:0:0:40:electronic00.wav
320,192,170647,1,0,0:0:0:40:electronic00.wav
192,192,170691,1,0,0:0:0:40:electronic00.wav
448,192,170867,1,0,0:0:0:40:electronic00.wav
320,192,170911,1,0,0:0:0:40:electronic00.wav
64,192,170955,1,0,0:0:0:40:electronic00.wav
192,192,171000,1,0,0:0:0:40:electronic00.wav
320,192,171044,1,0,0:0:0:40:electronic00.wav
64,192,171220,1,0,0:0:0:40:electronic00.wav
192,192,171264,1,0,0:0:0:40:electronic00.wav
448,192,171308,1,0,0:0:0:40:electronic00.wav
320,192,171352,1,0,0:0:0:40:electronic00.wav
64,192,171397,1,0,0:0:0:40:electronic00.wav
448,192,171573,1,0,0:0:0:40:electronic00.wav
320,192,171617,1,0,0:0:0:40:electronic00.wav
64,192,171661,1,0,0:0:0:40:electronic00.wav
192,192,171705,1,0,0:0:0:40:electronic00.wav
448,192,171750,1,0,0:0:0:40:electronic00.wav
320,192,171926,128,0,171970:0:0:0:0:
320,192,172102,128,0,172161:0:0:0:0:
320,192,172279,128,0,172350:0:0:0:0:
320,192,172455,128,0,172544:0:0:0:0:
64,192,172632,5,0,0:0:0:0:
192,192,172676,1,0,0:0:0:0:
320,192,172720,1,0,0:0:0:0:
64,192,172764,1,0,0:0:0:0:
448,192,172808,1,0,0:0:0:0:
320,192,172852,1,0,0:0:0:0:
64,192,172897,1,0,0:0:0:0:
192,192,172941,1,0,0:0:0:0:
448,192,172985,1,0,0:0:0:0:
320,192,173029,1,0,0:0:0:0:
192,192,173073,1,0,0:0:0:0:
448,192,173117,1,0,0:0:0:0:
320,192,173161,1,0,0:0:0:0:
64,192,173205,1,0,0:0:0:0:
192,192,173250,1,0,0:0:0:0:
448,192,173294,1,0,0:0:0:0:
320,192,173338,5,0,0:0:0:70:cymbal10.wav
64,192,173338,1,0,0:0:0:70:electronic00.wav
192,192,173514,1,0,0:0:0:0:
64,192,173691,1,0,0:0:0:0:
64,192,173867,1,0,0:0:0:0:
192,192,173955,1,0,0:0:0:0:
320,192,174044,1,0,0:0:0:70:electronic28.wav
448,192,174044,1,0,0:0:0:0:
192,192,174199,1,0,0:0:0:0:
320,192,174282,1,0,0:0:0:0:
448,192,174365,1,0,0:0:0:0:
448,192,174532,1,0,0:0:0:0:
320,192,174824,1,0,0:0:0:0:
448,192,174986,1,0,0:0:0:0:
448,192,175148,1,0,0:0:0:0:
320,192,175229,1,0,0:0:0:0:
192,192,175310,1,0,0:0:0:70:electronic28.wav
64,192,175310,1,0,0:0:0:0:
320,192,175472,1,0,0:0:0:0:
192,192,175553,1,0,0:0:0:0:
64,192,175634,1,0,0:0:0:0:
64,192,175797,1,0,0:0:0:0:
320,192,175837,1,0,0:0:0:0:
192,192,175878,1,0,0:0:0:0:
448,192,175925,1,0,0:0:0:0:
192,192,176075,1,0,0:0:0:0:
64,192,176225,1,0,0:0:0:0:
64,192,176375,1,0,0:0:0:0:
192,192,176450,1,0,0:0:0:0:
320,192,176525,1,0,0:0:0:70:electronic28.wav
448,192,176525,1,0,0:0:0:0:
192,192,176675,1,0,0:0:0:0:
320,192,176750,1,0,0:0:0:0:
448,192,176825,1,0,0:0:0:0:
448,192,176975,1,0,0:0:0:0:
320,192,177239,1,0,0:0:0:0:
448,192,177372,1,0,0:0:0:0:
448,192,177506,1,0,0:0:0:0:
320,192,177572,1,0,0:0:0:0:
192,192,177639,1,0,0:0:0:70:electronic28.wav
64,192,177639,1,0,0:0:0:0:
320,192,177772,1,0,0:0:0:0:
192,192,177839,1,0,0:0:0:0:
64,192,177906,1,0,0:0:0:0:
448,192,178039,1,0,0:0:0:0:
320,192,178072,1,0,0:0:0:0:
192,192,178106,1,0,0:0:0:0:
64,192,178139,1,0,0:0:0:0:
448,192,178198,1,0,0:0:0:55:electronic00.wav
320,192,178198,1,0,0:0:0:55:cymbal10.wav
192,192,178328,1,0,0:0:0:0:
64,192,178458,1,0,0:0:0:0:
64,192,178589,1,0,0:0:0:0:
192,192,178654,1,0,0:0:0:0:
320,192,178719,1,0,0:0:0:70:electronic28.wav
448,192,178719,1,0,0:0:0:0:
192,192,178850,1,0,0:0:0:0:
320,192,178915,1,0,0:0:0:0:
448,192,178980,1,0,0:0:0:0:
448,192,179111,1,0,0:0:0:0:
320,192,179363,1,0,0:0:0:0:
448,192,179485,1,0,0:0:0:0:
448,192,179608,1,0,0:0:0:0:
320,192,179669,1,0,0:0:0:0:
192,192,179730,1,0,0:0:0:70:electronic28.wav
64,192,179730,1,0,0:0:0:0:
320,192,179853,1,0,0:0:0:0:
192,192,179914,1,0,0:0:0:0:
64,192,179975,1,0,0:0:0:0:
64,192,180098,1,0,0:0:0:0:
320,192,180128,1,0,0:0:0:0:
192,192,180159,1,0,0:0:0:0:
448,192,180189,1,0,0:0:0:0:
192,192,180337,1,0,0:0:0:0:
64,192,180455,1,0,0:0:0:0:
64,192,180572,1,0,0:0:0:0:
192,192,180631,1,0,0:0:0:0:
320,192,180690,1,0,0:0:0:70:electronic28.wav
448,192,180690,1,0,0:0:0:0:
192,192,180808,1,0,0:0:0:0:
320,192,180867,1,0,0:0:0:0:
448,192,180925,1,0,0:0:0:0:
448,192,181043,1,0,0:0:0:0:
320,192,181276,1,0,0:0:0:0:
448,192,181391,1,0,0:0:0:0:
448,192,181507,1,0,0:0:0:0:
320,192,181564,1,0,0:0:0:0:
192,192,181622,1,0,0:0:0:70:electronic28.wav
64,192,181622,1,0,0:0:0:0:
320,192,181737,1,0,0:0:0:0:
192,192,181795,1,0,0:0:0:0:
64,192,181853,1,0,0:0:0:0:
448,192,181968,1,0,0:0:0:0:
320,192,181997,1,0,0:0:0:0:
192,192,182026,1,0,0:0:0:0:
64,192,182055,1,0,0:0:0:0:
320,192,182084,1,0,0:0:0:50:electronic00.wav
448,192,182084,1,0,0:0:0:40:electronic28G.wav
192,192,182195,1,0,0:0:0:0:
64,192,182306,1,0,0:0:0:0:
64,192,182417,1,0,0:0:0:0:
192,192,182472,1,0,0:0:0:0:
320,192,182528,1,0,0:0:0:40:electronic28G.wav
192,192,182639,1,0,0:0:0:0:
320,192,182695,1,0,0:0:0:0:
448,192,182750,1,0,0:0:0:0:
448,192,182861,1,0,0:0:0:0:
64,192,182972,1,0,0:0:0:40:electronic28G.wav
192,192,182972,1,0,0:0:0:0:
320,192,183077,1,0,0:0:0:0:
64,192,183182,1,0,0:0:0:0:
64,192,183287,1,0,0:0:0:0:
192,192,183340,1,0,0:0:0:0:
320,192,183393,1,0,0:0:0:40:electronic28G.wav
192,192,183498,1,0,0:0:0:0:
320,192,183550,1,0,0:0:0:0:
448,192,183603,1,0,0:0:0:0:
448,192,183708,1,0,0:0:0:0:
192,192,183814,1,0,0:0:0:40:electronic28G.wav
64,192,183814,1,0,0:0:0:0:
320,192,183915,1,0,0:0:0:0:
64,192,184017,1,0,0:0:0:0:
64,192,184119,1,0,0:0:0:0:
192,192,184169,1,0,0:0:0:0:
320,192,184220,1,0,0:0:0:40:electronic28G.wav
192,192,184322,1,0,0:0:0:0:
320,192,184373,1,0,0:0:0:0:
448,192,184424,1,0,0:0:0:0:
448,192,184525,1,0,0:0:0:0:
192,192,184627,1,0,0:0:0:40:electronic28G.wav
64,192,184627,1,0,0:0:0:0:
320,192,184725,1,0,0:0:0:0:
64,192,184823,1,0,0:0:0:0:
64,192,184922,1,0,0:0:0:0:
192,192,184971,1,0,0:0:0:0:
320,192,185020,1,0,0:0:0:40:electronic28G.wav
192,192,185118,1,0,0:0:0:0:
320,192,185167,1,0,0:0:0:0:
448,192,185217,1,0,0:0:0:0:
448,192,185315,1,0,0:0:0:0:
64,192,185413,1,0,0:0:0:40:electronic28G.wav
192,192,185413,1,0,0:0:0:70:cymbal10.wav
320,192,185508,1,0,0:0:0:0:
64,192,185603,1,0,0:0:0:0:
64,192,185698,1,0,0:0:0:0:
192,192,185746,1,0,0:0:0:0:
320,192,185793,1,0,0:0:0:40:electronic28G.wav
192,192,185889,1,0,0:0:0:0:
320,192,185936,1,0,0:0:0:0:
448,192,185984,1,0,0:0:0:0:
448,192,186079,1,0,0:0:0:0:
192,192,186174,1,0,0:0:0:40:electronic28G.wav
64,192,186174,1,0,0:0:0:0:
320,192,186267,1,0,0:0:0:0:
64,192,186361,1,0,0:0:0:0:
64,192,186455,1,0,0:0:0:0:
192,192,186502,1,0,0:0:0:0:
320,192,186549,1,0,0:0:0:40:electronic28G.wav
192,192,186642,1,0,0:0:0:0:
320,192,186689,1,0,0:0:0:0:
448,192,186736,1,0,0:0:0:0:
448,192,186830,1,0,0:0:0:0:
192,192,186924,1,0,0:0:0:40:electronic28G.wav
64,192,186924,1,0,0:0:0:0:
320,192,187016,1,0,0:0:0:0:
64,192,187108,1,0,0:0:0:0:
64,192,187200,1,0,0:0:0:0:
192,192,187247,1,0,0:0:0:0:
320,192,187293,1,0,0:0:0:40:electronic28G.wav
192,192,187385,1,0,0:0:0:0:
320,192,187431,1,0,0:0:0:0:
448,192,187477,1,0,0:0:0:70:Kick 11.wav
192,192,187570,1,0,0:0:0:70:Kick 11.wav
64,192,187570,1,0,0:0:0:0:
320,192,187662,1,0,0:0:0:70:Kick 11.wav
448,192,187662,1,0,0:0:0:40:electronic28G.wav
192,192,187752,1,0,0:0:0:70:Kick 11.wav
64,192,187752,1,0,0:0:0:0:
320,192,187843,1,0,0:0:0:70:Kick 11.wav
448,192,187843,1,0,0:0:0:0:
64,192,187934,1,0,0:0:0:70:Kick 11.wav
192,192,187980,1,0,0:0:0:0:
320,192,188025,1,0,0:0:0:70:electronic00.wav
448,192,188025,1,0,0:0:0:40:electronic28G.wav
192,192,188389,1,0,0:0:0:70:electronic00.wav
64,192,188389,1,0,0:0:0:0:
320,192,188478,1,0,0:0:0:70:electronic00.wav
64,192,188568,1,0,0:0:0:0:
448,192,188568,1,0,0:0:0:70:electronic00.wav
192,192,188657,1,0,0:0:0:70:electronic00.wav
448,192,188747,1,0,0:0:0:0:
320,192,188747,1,0,0:0:0:70:electronic00.wav
64,192,188836,1,0,0:0:0:70:electronic00.wav
192,192,188926,1,0,0:0:0:70:electronic00.wav
320,192,188926,1,0,0:0:0:0:
448,192,189015,1,0,0:0:0:70:electronic00.wav
320,192,189105,1,0,0:0:0:70:electronic00.wav
64,192,189105,1,0,0:0:0:0:
192,192,189193,1,0,0:0:0:70:electronic00.wav
64,192,189281,1,0,0:0:0:0:
448,192,189281,1,0,0:0:0:70:electronic00.wav
320,192,189369,1,0,0:0:0:70:electronic00.wav
64,192,189457,1,0,0:0:0:70:electronic00.wav
192,192,189457,1,0,0:0:0:0:
448,192,189546,1,0,0:0:0:70:electronic00.wav
320,192,189634,1,0,0:0:0:70:electronic00.wav
192,192,189634,1,0,0:0:0:0:
64,192,189722,1,0,0:0:0:70:electronic00.wav
320,192,189810,1,0,0:0:0:70:electronic00.wav
448,192,189810,1,0,0:0:0:0:
192,192,189899,1,0,0:0:0:70:electronic00.wav
64,192,189987,1,0,0:0:0:0:
448,192,189987,1,0,0:0:0:70:electronic00.wav
320,192,190075,1,0,0:0:0:70:electronic00.wav
192,192,190163,1,0,0:0:0:0:
64,192,190163,1,0,0:0:0:70:electronic00.wav
448,192,190252,1,0,0:0:0:70:electronic00.wav
192,192,190340,1,0,0:0:0:70:electronic00.wav
320,192,190340,1,0,0:0:0:0:
64,192,190428,1,0,0:0:0:70:electronic00.wav
192,192,190516,1,0,0:0:0:0:
448,192,190516,1,0,0:0:0:70:electronic00.wav
320,192,190605,1,0,0:0:0:70:electronic00.wav
448,192,190693,1,0,0:0:0:70:electronic00.wav
64,192,190693,1,0,0:0:0:0:
192,192,190781,1,0,0:0:0:70:electronic00.wav
320,192,190869,1,0,0:0:0:0:
448,192,190869,1,0,0:0:0:70:electronic00.wav
64,192,190957,1,0,0:0:0:70:electronic00.wav
320,192,191046,1,0,0:0:0:70:electronic00.wav
192,192,191046,1,0,0:0:0:0:
448,192,191134,1,0,0:0:0:70:electronic00.wav
64,192,191222,1,0,0:0:0:70:LR_Tom Normal.wav
192,192,191266,1,0,0:0:0:0:
320,192,191310,1,0,0:0:0:0:
64,192,191355,1,0,0:0:0:0:
192,192,191399,1,0,0:0:0:70:LR_Tom Normal.wav
448,192,191443,1,0,0:0:0:0:
320,192,191487,1,0,0:0:0:0:
192,192,191531,1,0,0:0:0:0:
448,192,191575,1,0,0:0:0:70:LR_Tom Normal.wav
320,192,191619,1,0,0:0:0:0:
64,192,191663,1,0,0:0:0:0:
192,192,191707,1,0,0:0:0:0:
320,192,191752,1,0,0:0:0:70:LR_Tom Normal.wav
64,192,191796,1,0,0:0:0:0:
192,192,191840,1,0,0:0:0:0:
448,192,191884,1,0,0:0:0:0:
320,192,191928,1,0,0:0:0:70:LR_Tom Normal.wav
192,192,191972,1,0,0:0:0:0:
448,192,192016,1,0,0:0:0:0:
320,192,192060,1,0,0:0:0:0:
64,192,192105,1,0,0:0:0:70:LR_Tom Normal.wav
192,192,192149,1,0,0:0:0:0:
320,192,192193,1,0,0:0:0:0:
64,192,192237,1,0,0:0:0:0:
192,192,192281,1,0,0:0:0:70:LR_Tom Normal.wav
448,192,192325,1,0,0:0:0:0:
320,192,192369,1,0,0:0:0:0:
192,192,192413,1,0,0:0:0:0:
448,192,192457,1,0,0:0:0:70:LR_Tom Normal.wav
320,192,192502,1,0,0:0:0:0:
64,192,192546,1,0,0:0:0:0:
192,192,192590,1,0,0:0:0:0:
448,192,192634,1,0,0:0:0:0:
320,192,192678,1,0,0:0:0:0:
192,192,192722,1,0,0:0:0:0:
64,192,192766,1,0,0:0:0:0:
448,192,192810,1,0,0:0:0:0:
320,192,192855,1,0,0:0:0:0:
64,192,192899,1,0,0:0:0:0:
192,192,192943,1,0,0:0:0:0:
448,192,192987,1,0,0:0:0:0:
320,192,193031,1,0,0:0:0:0:
192,192,193075,1,0,0:0:0:0:
64,192,193119,1,0,0:0:0:0:
448,192,193163,1,0,0:0:0:0:
320,192,193207,1,0,0:0:0:0:
64,192,193252,1,0,0:0:0:0:
192,192,193296,1,0,0:0:0:0:
448,192,193340,1,0,0:0:0:0:
320,192,193384,1,0,0:0:0:0:
192,192,193428,1,0,0:0:0:0:
64,192,193472,1,0,0:0:0:0:
448,192,193516,1,0,0:0:0:0:
320,192,193560,1,0,0:0:0:0:
64,192,193605,1,0,0:0:0:0:
192,192,193649,1,0,0:0:0:0:
448,192,193693,1,0,0:0:0:0:
320,192,193737,1,0,0:0:0:0:
192,192,193781,1,0,0:0:0:0:
64,192,193825,1,0,0:0:0:0:
448,192,193869,1,0,0:0:0:0:
320,192,193913,1,0,0:0:0:0:
64,192,193957,1,0,0:0:0:0:
192,192,194002,1,0,0:0:0:0:
448,192,194046,5,0,0:0:0:0:
320,192,194046,1,0,0:0:0:70:LR_Tom Normal.wav
192,192,194222,1,0,0:0:0:70:Kick 11.wav
448,192,194399,1,0,0:0:0:70:LR_Tom Normal.wav
320,192,194399,1,0,0:0:0:0:
64,192,194575,1,0,0:0:0:70:Kick 11.wav
192,192,194752,1,0,0:0:0:70:LR_Tom Normal.wav
448,192,194752,1,0,0:0:0:0:
320,192,194928,1,0,0:0:0:70:Kick 11.wav
64,192,195105,128,0,195451:0:0:0:70:electronic28G.wav
192,192,195281,128,0,195451:0:0:0:0:
320,192,195451,1,0,0:0:0:70:electronic00.wav
448,192,195451,1,0,0:0:0:70:cymbal10.wav
64,192,195539,1,0,0:0:0:0:
192,192,195583,1,0,0:0:0:0:
320,192,195627,1,0,0:0:0:0:
64,192,195715,1,0,0:0:0:0:
192,192,195759,1,0,0:0:0:0:
320,192,195803,1,0,0:0:0:70:electronic00.wav
448,192,195803,1,0,0:0:0:0:
192,192,195892,1,0,0:0:0:0:
64,192,195936,1,0,0:0:0:0:
320,192,195980,1,0,0:0:0:0:
448,192,196068,1,0,0:0:0:0:
320,192,196112,1,0,0:0:0:0:
192,192,196156,1,0,0:0:0:70:electronic00.wav
64,192,196156,1,0,0:0:0:0:
448,192,196245,1,0,0:0:0:0:
320,192,196289,1,0,0:0:0:0:
192,192,196333,1,0,0:0:0:0:
448,192,196421,1,0,0:0:0:0:
320,192,196465,1,0,0:0:0:0:
192,192,196509,1,0,0:0:0:70:electronic00.wav
64,192,196509,1,0,0:0:0:0:
320,192,196598,1,0,0:0:0:0:
448,192,196642,1,0,0:0:0:0:
192,192,196686,1,0,0:0:0:0:
64,192,196774,1,0,0:0:0:0:
192,192,196818,1,0,0:0:0:0:
320,192,196862,1,0,0:0:0:70:electronic00.wav
448,192,196862,1,0,0:0:0:0:
64,192,196951,1,0,0:0:0:0:
192,192,196995,1,0,0:0:0:0:
320,192,197039,1,0,0:0:0:0:
64,192,197127,1,0,0:0:0:0:
192,192,197171,1,0,0:0:0:0:
320,192,197215,1,0,0:0:0:70:electronic00.wav
448,192,197215,1,0,0:0:0:0:
192,192,197303,1,0,0:0:0:0:
64,192,197348,1,0,0:0:0:0:
320,192,197392,1,0,0:0:0:0:
448,192,197480,1,0,0:0:0:0:
320,192,197524,1,0,0:0:0:0:
192,192,197568,1,0,0:0:0:0:
64,192,197568,1,0,0:0:0:70:electronic00.wav
448,192,197656,1,0,0:0:0:0:
320,192,197701,1,0,0:0:0:0:
192,192,197745,1,0,0:0:0:0:
320,192,197833,1,0,0:0:0:0:
192,192,197877,1,0,0:0:0:0:
64,192,197921,1,0,0:0:0:70:electronic00.wav
448,192,197921,1,0,0:0:0:0:
320,192,197965,1,0,0:0:0:0:
192,192,198009,1,0,0:0:0:0:
64,192,198053,1,0,0:0:0:0:
448,192,198098,1,0,0:0:0:0:
320,192,198142,1,0,0:0:0:0:
64,192,198186,1,0,0:0:0:0:
192,192,198230,1,0,0:0:0:0:
448,192,198274,1,0,0:0:0:0:
320,192,198274,1,0,0:0:0:70:electronic00.wav
64,192,198451,1,0,0:0:0:0:
192,192,198451,1,0,0:0:0:0:
320,192,198539,1,0,0:0:0:0:
64,192,198627,1,0,0:0:0:0:
192,192,198627,1,0,0:0:0:70:electronic00.wav
448,192,198627,1,0,0:0:0:0:
192,192,198803,1,0,0:0:0:0:
448,192,198803,1,0,0:0:0:0:
320,192,198892,1,0,0:0:0:0:
192,192,198980,1,0,0:0:0:70:electronic00.wav
64,192,198980,1,0,0:0:0:0:
448,192,198980,1,0,0:0:0:0:
320,192,199156,1,0,0:0:0:0:
64,192,199156,1,0,0:0:0:0:
192,192,199245,1,0,0:0:0:0:
320,192,199333,1,0,0:0:0:70:electronic00.wav
448,192,199333,1,0,0:0:0:0:
64,192,199333,1,0,0:0:0:0:
192,192,199509,1,0,0:0:0:0:
64,192,199509,1,0,0:0:0:0:
448,192,199598,1,0,0:0:0:0:
192,192,199686,1,0,0:0:0:70:electronic00.wav
320,192,199686,1,0,0:0:0:0:
64,192,199774,1,0,0:0:0:0:
320,192,199862,1,0,0:0:0:0:
448,192,199862,1,0,0:0:0:0:
192,192,199951,1,0,0:0:0:0:
320,192,200039,1,0,0:0:0:0:
448,192,200039,1,0,0:0:0:70:electronic00.wav
64,192,200039,1,0,0:0:0:0:
320,192,200215,1,0,0:0:0:0:
64,192,200215,1,0,0:0:0:0:
192,192,200303,1,0,0:0:0:0:
320,192,200392,1,0,0:0:0:70:electronic00.wav
448,192,200392,1,0,0:0:0:0:
64,192,200392,1,0,0:0:0:0:
192,192,200480,1,0,0:0:0:0:
448,192,200568,1,0,0:0:0:0:
64,192,200568,1,0,0:0:0:0:
320,192,200656,1,0,0:0:0:0:
64,192,200745,1,0,0:0:0:0:
192,192,200745,1,0,0:0:0:70:electronic00.wav
448,192,200833,1,0,0:0:0:0:
320,192,200877,1,0,0:0:0:0:
192,192,200921,1,0,0:0:0:0:
320,192,201098,1,0,0:0:0:70:electronic00.wav
448,192,201098,1,0,0:0:0:70:cymbal10.wav
64,192,201142,1,0,0:0:0:0:
192,192,201186,1,0,0:0:0:0:
320,192,201230,1,0,0:0:0:0:
64,192,201274,1,0,0:0:0:0:
192,192,201318,1,0,0:0:0:0:
448,192,201362,1,0,0:0:0:0:
320,192,201406,1,0,0:0:0:0:
192,192,201451,1,0,0:0:0:70:electronic00.wav
64,192,201451,1,0,0:0:0:0:
448,192,201539,1,0,0:0:0:0:
320,192,201583,1,0,0:0:0:0:
192,192,201627,1,0,0:0:0:0:
448,192,201715,1,0,0:0:0:0:
192,192,201803,1,0,0:0:0:70:electronic00.wav
64,192,201803,1,0,0:0:0:0:
320,192,201892,1,0,0:0:0:0:
448,192,201936,1,0,0:0:0:0:
192,192,201980,1,0,0:0:0:0:
64,192,202068,1,0,0:0:0:0:
320,192,202156,1,0,0:0:0:70:electronic00.wav
448,192,202156,1,0,0:0:0:0:
64,192,202245,1,0,0:0:0:0:
192,192,202289,1,0,0:0:0:0:
320,192,202333,1,0,0:0:0:0:
64,192,202421,1,0,0:0:0:0:
320,192,202509,1,0,0:0:0:70:electronic00.wav
448,192,202509,1,0,0:0:0:0:
192,192,202598,1,0,0:0:0:0:
64,192,202642,1,0,0:0:0:0:
320,192,202686,1,0,0:0:0:0:
448,192,202774,1,0,0:0:0:0:
192,192,202862,1,0,0:0:0:0:
64,192,202862,1,0,0:0:0:70:electronic00.wav
448,192,202951,1,0,0:0:0:0:
320,192,202995,1,0,0:0:0:0:
192,192,203039,1,0,0:0:0:0:
448,192,203127,1,0,0:0:0:0:
192,192,203215,1,0,0:0:0:70:electronic00.wav
64,192,203215,1,0,0:0:0:0:
320,192,203303,1,0,0:0:0:0:
448,192,203348,1,0,0:0:0:0:
192,192,203392,1,0,0:0:0:0:
64,192,203480,1,0,0:0:0:0:
320,192,203568,1,0,0:0:0:70:electronic00.wav
448,192,203568,1,0,0:0:0:0:
192,192,203612,1,0,0:0:0:0:
64,192,203656,1,0,0:0:0:0:
320,192,203701,1,0,0:0:0:0:
192,192,203745,1,0,0:0:0:0:
64,192,203789,1,0,0:0:0:0:
448,192,203833,1,0,0:0:0:0:
320,192,203877,1,0,0:0:0:0:
192,192,203921,1,0,0:0:0:70:electronic00.wav
64,192,203921,1,0,0:0:0:0:
320,192,204098,1,0,0:0:0:0:
448,192,204098,1,0,0:0:0:0:
192,192,204186,1,0,0:0:0:0:
320,192,204274,1,0,0:0:0:70:electronic00.wav
448,192,204274,1,0,0:0:0:0:
64,192,204274,1,0,0:0:0:0:
320,192,204451,1,0,0:0:0:0:
448,192,204451,1,0,0:0:0:0:
192,192,204539,1,0,0:0:0:0:
320,192,204627,1,0,0:0:0:0:
448,192,204627,1,0,0:0:0:0:
64,192,204627,1,0,0:0:0:70:electronic00.wav
192,192,204715,1,0,0:0:0:0:
448,192,204803,1,0,0:0:0:0:
64,192,204803,1,0,0:0:0:0:
320,192,204892,1,0,0:0:0:0:
192,192,204980,1,0,0:0:0:70:electronic00.wav
64,192,204980,1,0,0:0:0:0:
448,192,204980,1,0,0:0:0:0:
320,192,205068,1,0,0:0:0:0:
448,192,205156,1,0,0:0:0:0:
64,192,205156,1,0,0:0:0:0:
192,192,205245,1,0,0:0:0:0:
320,192,205333,1,0,0:0:0:70:electronic00.wav
448,192,205333,1,0,0:0:0:0:
64,192,205333,1,0,0:0:0:0:
192,192,205509,1,0,0:0:0:0:
192,192,205598,1,0,0:0:0:0:
192,192,205686,1,0,0:0:0:0:
320,192,205862,1,0,0:0:0:0:
448,192,206039,1,0,0:0:0:70:Kick 11.wav
64,192,206083,1,0,0:0:0:70:Kick 11.wav
192,192,206127,1,0,0:0:0:30:electronic28.wav
320,192,206171,1,0,0:0:0:30:electronic28.wav
64,192,206215,1,0,0:0:0:30:electronic28G.wav
448,192,206303,1,0,0:0:0:30:electronic28G.wav
192,192,206392,1,0,0:0:0:30:electronic28G.wav
320,192,206480,1,0,0:0:0:30:electronic28G.wav
64,192,206568,1,0,0:0:0:70:LR_Tom Normal.wav
192,192,206656,1,0,0:0:0:0:
320,192,206745,1,0,0:0:0:70:electronic00.wav
448,192,206745,1,0,0:0:0:70:cymbal10.wav
64,192,206833,1,0,0:0:0:0:
192,192,206877,1,0,0:0:0:0:
320,192,206921,1,0,0:0:0:0:
64,192,207009,1,0,0:0:0:30:electronic28G.wav
192,192,207053,1,0,0:0:0:0:
320,192,207098,1,0,0:0:0:70:electronic00.wav
448,192,207098,1,0,0:0:0:0:
64,192,207186,1,0,0:0:0:0:
192,192,207186,1,0,0:0:0:0:
320,192,207274,1,0,0:0:0:30:electronic28G.wav
448,192,207274,1,0,0:0:0:0:
64,192,207362,1,0,0:0:0:0:
192,192,207406,1,0,0:0:0:0:
320,192,207451,1,0,0:0:0:70:electronic00.wav
448,192,207451,1,0,0:0:0:0:
192,192,207539,1,0,0:0:0:0:
64,192,207583,1,0,0:0:0:0:
320,192,207627,1,0,0:0:0:0:
448,192,207715,1,0,0:0:0:30:electronic28G.wav
320,192,207759,1,0,0:0:0:0:
192,192,207803,1,0,0:0:0:0:
64,192,207803,1,0,0:0:0:70:electronic00.wav
448,192,207892,1,0,0:0:0:0:
320,192,207892,1,0,0:0:0:0:
192,192,207980,1,0,0:0:0:30:electronic28G.wav
64,192,207980,1,0,0:0:0:0:
448,192,208068,1,0,0:0:0:0:
320,192,208112,1,0,0:0:0:0:
192,192,208156,1,0,0:0:0:0:
64,192,208156,1,0,0:0:0:70:electronic00.wav
320,192,208245,1,0,0:0:0:0:
448,192,208289,1,0,0:0:0:0:
192,192,208333,1,0,0:0:0:0:
64,192,208421,1,0,0:0:0:30:electronic28G.wav
192,192,208465,1,0,0:0:0:0:
320,192,208509,1,0,0:0:0:70:electronic00.wav
448,192,208509,1,0,0:0:0:0:
64,192,208598,1,0,0:0:0:0:
192,192,208598,1,0,0:0:0:0:
320,192,208686,1,0,0:0:0:30:electronic28G.wav
448,192,208686,1,0,0:0:0:0:
64,192,208774,1,0,0:0:0:0:
192,192,208818,1,0,0:0:0:0:
320,192,208862,1,0,0:0:0:70:electronic00.wav
448,192,208862,1,0,0:0:0:0:
64,192,208951,1,0,0:0:0:0:
192,192,208995,1,0,0:0:0:0:
320,192,209039,1,0,0:0:0:0:
64,192,209127,1,0,0:0:0:30:electronic28G.wav
192,192,209171,1,0,0:0:0:0:
448,192,209215,1,0,0:0:0:0:
320,192,209215,1,0,0:0:0:70:electronic00.wav
64,192,209259,1,0,0:0:0:0:
192,192,209303,1,0,0:0:0:0:
448,192,209348,1,0,0:0:0:0:
320,192,209392,1,0,0:0:0:30:electronic28G.wav
192,192,209436,1,0,0:0:0:0:
448,192,209480,1,0,0:0:0:0:
320,192,209524,1,0,0:0:0:0:
64,192,209568,1,0,0:0:0:70:electronic00.wav
192,192,209568,1,0,0:0:0:0:
320,192,209745,1,0,0:0:0:0:
448,192,209745,1,0,0:0:0:0:
192,192,209833,1,0,0:0:0:30:electronic28G.wav
320,192,209921,1,0,0:0:0:70:electronic00.wav
448,192,209921,1,0,0:0:0:0:
64,192,209921,1,0,0:0:0:0:
192,192,210009,1,0,0:0:0:0:
448,192,210098,1,0,0:0:0:0:
320,192,210098,1,0,0:0:0:30:electronic28G.wav
64,192,210186,1,0,0:0:0:0:
192,192,210186,1,0,0:0:0:0:
320,192,210274,1,0,0:0:0:70:electronic00.wav
448,192,210274,1,0,0:0:0:0:
192,192,210362,1,0,0:0:0:0:
64,192,210451,1,0,0:0:0:0:
448,192,210451,1,0,0:0:0:0:
192,192,210539,1,0,0:0:0:30:electronic28G.wav
320,192,210539,1,0,0:0:0:0:
448,192,210627,1,0,0:0:0:70:electronic00.wav
64,192,210627,1,0,0:0:0:0:
320,192,210715,1,0,0:0:0:0:
192,192,210803,1,0,0:0:0:30:electronic28G.wav
448,192,210803,1,0,0:0:0:0:
64,192,210892,1,0,0:0:0:0:
320,192,210980,1,0,0:0:0:70:electronic00.wav
192,192,210980,1,0,0:0:0:0:
448,192,211068,1,0,0:0:0:0:
192,192,211156,1,0,0:0:0:0:
64,192,211156,1,0,0:0:0:0:
320,192,211245,1,0,0:0:0:30:electronic28G.wav
192,192,211333,1,0,0:0:0:70:electronic00.wav
64,192,211333,1,0,0:0:0:0:
448,192,211333,1,0,0:0:0:0:
320,192,211421,1,0,0:0:0:0:
192,192,211509,1,0,0:0:0:0:
64,192,211509,1,0,0:0:0:30:electronic28G.wav
320,192,211598,1,0,0:0:0:0:
448,192,211598,1,0,0:0:0:0:
64,192,211686,1,0,0:0:0:0:
192,192,211686,1,0,0:0:0:70:electronic00.wav
320,192,211774,1,0,0:0:0:0:
448,192,211862,1,0,0:0:0:0:
64,192,211862,1,0,0:0:0:0:
192,192,211951,1,0,0:0:0:0:
320,192,211951,1,0,0:0:0:0:
64,192,212039,1,0,0:0:0:0:
448,192,212039,1,0,0:0:0:70:electronic00.wav
64,192,212215,1,0,0:0:0:0:
192,192,212259,1,0,0:0:0:0:
320,192,212303,1,0,0:0:0:0:
448,192,212348,1,0,0:0:0:0:
192,192,212392,1,0,0:0:0:70:cymbal10.wav
64,192,212392,1,0,0:0:0:70:electronic00.wav
448,192,212480,1,0,0:0:0:0:
320,192,212524,1,0,0:0:0:0:
192,192,212568,1,0,0:0:0:0:
448,192,212656,1,0,0:0:0:30:electronic28G.wav
320,192,212701,1,0,0:0:0:0:
192,192,212745,1,0,0:0:0:0:
64,192,212745,1,0,0:0:0:70:electronic00.wav
320,192,212833,1,0,0:0:0:0:
448,192,212833,1,0,0:0:0:0:
192,192,212921,1,0,0:0:0:30:electronic28G.wav
64,192,212921,1,0,0:0:0:0:
320,192,213009,1,0,0:0:0:0:
448,192,213053,1,0,0:0:0:0:
192,192,213098,1,0,0:0:0:0:
64,192,213098,1,0,0:0:0:70:electronic00.wav
320,192,213186,1,0,0:0:0:0:
448,192,213230,1,0,0:0:0:0:
192,192,213274,1,0,0:0:0:0:
64,192,213362,1,0,0:0:0:30:electronic28G.wav
192,192,213406,1,0,0:0:0:0:
448,192,213451,1,0,0:0:0:0:
320,192,213451,1,0,0:0:0:70:electronic00.wav
192,192,213539,1,0,0:0:0:0:
64,192,213539,1,0,0:0:0:0:
320,192,213627,1,0,0:0:0:30:electronic28G.wav
448,192,213627,1,0,0:0:0:0:
192,192,213715,1,0,0:0:0:0:
64,192,213759,1,0,0:0:0:0:
320,192,213803,1,0,0:0:0:70:electronic00.wav
448,192,213803,1,0,0:0:0:0:
192,192,213892,1,0,0:0:0:0:
64,192,213936,1,0,0:0:0:0:
320,192,213980,1,0,0:0:0:0:
448,192,214068,1,0,0:0:0:30:electronic28G.wav
320,192,214112,1,0,0:0:0:0:
192,192,214156,1,0,0:0:0:70:electronic00.wav
64,192,214156,1,0,0:0:0:0:
320,192,214245,1,0,0:0:0:0:
448,192,214245,1,0,0:0:0:0:
192,192,214333,1,0,0:0:0:0:
64,192,214333,1,0,0:0:0:30:electronic28G.wav
320,192,214421,1,0,0:0:0:0:
448,192,214465,1,0,0:0:0:0:
192,192,214509,1,0,0:0:0:70:electronic00.wav
64,192,214509,1,0,0:0:0:0:
320,192,214598,1,0,0:0:0:0:
448,192,214642,1,0,0:0:0:0:
192,192,214686,1,0,0:0:0:0:
64,192,214774,1,0,0:0:0:30:electronic28G.wav
192,192,214818,1,0,0:0:0:0:
320,192,214862,1,0,0:0:0:70:electronic00.wav
448,192,214862,1,0,0:0:0:0:
64,192,214906,1,0,0:0:0:0:
192,192,214951,1,0,0:0:0:0:
320,192,214995,1,0,0:0:0:0:
448,192,215039,1,0,0:0:0:30:electronic28G.wav
64,192,215083,1,0,0:0:0:0:
192,192,215127,1,0,0:0:0:0:
320,192,215171,1,0,0:0:0:0:
64,192,215215,1,0,0:0:0:70:cymbal10_s.wav
448,192,215215,1,0,0:0:0:30:electronic28G.wav
320,192,215392,1,0,0:0:0:0:
192,192,215480,1,0,0:0:0:70:cymbal10_s.wav
64,192,215480,1,0,0:0:0:70:electronic00.wav
448,192,215480,1,0,0:0:0:0:
448,192,215745,1,0,0:0:0:0:
64,192,215745,1,0,0:0:0:70:electronic00.wav
320,192,215745,1,0,0:0:0:70:cymbal10_s.wav
192,192,215833,1,0,0:0:0:70:electronic00.wav
448,192,215921,1,0,0:0:0:0:
64,192,215921,1,0,0:0:0:70:electronic00.wav
320,192,215921,1,0,0:0:0:70:cymbal10_s.wav
192,192,216098,1,0,0:0:0:0:
64,192,216186,1,0,0:0:0:70:electronic00.wav
320,192,216186,1,0,0:0:0:0:
448,192,216186,1,0,0:0:0:70:cymbal10_s.wav
64,192,216451,1,0,0:0:0:0:
192,192,216451,1,0,0:0:0:70:electronic00.wav
320,192,216451,1,0,0:0:0:0:
448,192,216539,1,0,0:0:0:70:electronic00.wav
192,192,216627,1,0,0:0:0:70:electronic00.wav
64,192,216627,1,0,0:0:0:0:
192,192,216803,1,0,0:0:0:0:
448,192,216803,1,0,0:0:0:0:
64,192,216980,1,0,0:0:0:0:
448,192,216980,1,0,0:0:0:0:
320,192,217156,1,0,0:0:0:0:
64,192,217156,1,0,0:0:0:0:
320,192,217333,1,0,0:0:0:0:
192,192,217333,1,0,0:0:0:0:
192,192,217509,1,0,0:0:0:0:
448,192,217509,1,0,0:0:0:0:
448,192,217686,1,0,0:0:0:70:electronic36.wav
64,192,217686,1,0,0:0:0:0:
320,192,217862,1,0,0:0:0:0:
64,192,217862,1,0,0:0:0:0:
64,192,218039,128,0,218127:0:0:0:70:electronic00.wav
192,192,218039,128,0,218127:0:0:0:0:
320,192,218039,128,0,218127:0:0:0:70:cymbal10.wav
448,192,218127,1,0,0:0:0:0:
192,192,218215,1,0,0:0:0:0:
320,192,218303,1,0,0:0:0:0:
64,192,218391,128,0,218480:0:0:0:70:electronic00.wav
192,192,218391,128,0,218480:0:0:0:0:
448,192,218391,128,0,218480:0:0:0:50:electronic19.wav
320,192,218480,1,0,0:0:0:0:
448,192,218568,1,0,0:0:0:0:
64,192,218656,1,0,0:0:0:0:
192,192,218744,128,0,218833:0:0:0:70:electronic00.wav
320,192,218744,128,0,218833:0:0:0:0:
448,192,218744,128,0,218833:0:0:0:0:
64,192,218833,1,0,0:0:0:0:
320,192,218921,1,0,0:0:0:0:
192,192,219009,1,0,0:0:0:0:
64,192,219097,128,0,219186:0:0:0:70:electronic00.wav
320,192,219097,128,0,219186:0:0:0:0:
448,192,219097,128,0,219186:0:0:0:50:electronic19.wav
192,192,219186,1,0,0:0:0:0:
64,192,219274,1,0,0:0:0:0:
320,192,219362,1,0,0:0:0:0:
192,192,219450,128,0,219539:0:0:0:70:electronic00.wav
64,192,219450,128,0,219539:0:0:0:0:
448,192,219450,128,0,219539:0:0:0:0:
320,192,219539,1,0,0:0:0:0:
64,192,219627,1,0,0:0:0:0:
448,192,219715,1,0,0:0:0:0:
320,192,219803,128,0,219891:0:0:0:50:electronic19.wav
192,192,219803,128,0,219891:0:0:0:0:
64,192,219803,128,0,219891:0:0:0:70:electronic00.wav
448,192,219891,1,0,0:0:0:0:
320,192,219980,1,0,0:0:0:0:
64,192,220068,1,0,0:0:0:0:
192,192,220156,128,0,220244:0:0:0:70:electronic00.wav
320,192,220156,128,0,220244:0:0:0:0:
448,192,220156,128,0,220244:0:0:0:0:
64,192,220244,1,0,0:0:0:0:
192,192,220333,1,0,0:0:0:0:
448,192,220421,1,0,0:0:0:0:
64,192,220509,128,0,220597:0:0:0:70:electronic00.wav
192,192,220509,128,0,220597:0:0:0:0:
320,192,220509,128,0,220597:0:0:0:50:electronic19.wav
448,192,220597,1,0,0:0:0:0:
192,192,220686,1,0,0:0:0:0:
320,192,220774,1,0,0:0:0:0:
192,192,220862,128,0,220950:0:0:0:70:electronic00.wav
64,192,220862,128,0,220950:0:0:0:0:
448,192,220862,128,0,220950:0:0:0:0:
320,192,220950,1,0,0:0:0:0:
448,192,221039,1,0,0:0:0:0:
64,192,221127,1,0,0:0:0:0:
192,192,221215,128,0,221303:0:0:0:70:electronic00.wav
320,192,221215,128,0,221303:0:0:0:0:
448,192,221215,128,0,221303:0:0:0:50:electronic19.wav
64,192,221303,1,0,0:0:0:0:
320,192,221391,1,0,0:0:0:0:
192,192,221480,1,0,0:0:0:0:
320,192,221568,128,0,221656:0:0:0:0:
448,192,221568,128,0,221656:0:0:0:0:
64,192,221568,128,0,221656:0:0:0:70:electronic00.wav
192,192,221656,1,0,0:0:0:0:
64,192,221744,1,0,0:0:0:0:
448,192,221833,1,0,0:0:0:0:
320,192,221921,128,0,222009:0:0:0:50:electronic19.wav
192,192,221921,128,0,222009:0:0:0:70:electronic00.wav
64,192,221921,128,0,222009:0:0:0:0:
448,192,222009,1,0,0:0:0:0:
64,192,222097,1,0,0:0:0:0:
192,192,222186,1,0,0:0:0:0:
64,192,222274,128,0,222362:0:0:0:70:electronic00.wav
320,192,222274,128,0,222362:0:0:0:0:
448,192,222274,128,0,222362:0:0:0:0:
192,192,222362,1,0,0:0:0:0:
448,192,222450,1,0,0:0:0:0:
64,192,222539,1,0,0:0:0:0:
192,192,222627,128,0,222715:0:0:0:70:electronic00.wav
320,192,222627,128,0,222715:0:0:0:0:
448,192,222627,128,0,222715:0:0:0:50:electronic19.wav
64,192,222715,1,0,0:0:0:0:
192,192,222803,1,0,0:0:0:0:
448,192,222891,1,0,0:0:0:0:
64,192,222980,128,0,223068:0:0:0:0:
192,192,222980,128,0,223068:0:0:0:70:electronic00.wav
320,192,222980,128,0,223068:0:0:0:0:
448,192,223068,1,0,0:0:0:0:
192,192,223156,1,0,0:0:0:0:
64,192,223244,1,0,0:0:0:0:
192,192,223333,128,0,223421:0:0:0:70:electronic00.wav
320,192,223333,128,0,223421:0:0:0:0:
448,192,223333,128,0,223421:0:0:0:50:electronic19.wav
64,192,223421,1,0,0:0:0:0:
320,192,223509,1,0,0:0:0:0:
448,192,223597,1,0,0:0:0:0:
64,192,223686,128,0,223774:0:0:0:70:electronic00.wav
192,192,223686,128,0,223774:0:0:0:0:
320,192,223686,128,0,223774:0:0:0:70:cymbal10_s.wav
192,192,223862,128,0,223950:0:0:0:70:electronic00.wav
320,192,223862,128,0,223950:0:0:0:0:
448,192,223862,128,0,223950:0:0:0:70:cymbal10_s.wav
64,192,224039,128,0,224127:0:0:0:70:electronic00.wav
192,192,224039,128,0,224127:0:0:0:70:cymbal10.wav
320,192,224039,128,0,224127:0:0:0:50:electronic19.wav
448,192,224127,1,0,0:0:0:0:
64,192,224215,1,0,0:0:0:0:
192,192,224303,1,0,0:0:0:0:
64,192,224391,128,0,224480:0:0:0:0:
320,192,224391,128,0,224480:0:0:0:70:cymbal10_s.wav
448,192,224391,128,0,224480:0:0:0:0:
192,192,224480,1,0,0:0:0:0:
448,192,224568,1,0,0:0:0:0:
320,192,224656,1,0,0:0:0:0:
64,192,224744,128,0,224833:0:0:0:70:cymbal10_s.wav
192,192,224744,128,0,224833:0:0:0:0:
448,192,224744,128,0,224833:0:0:0:50:electronic19.wav
320,192,224833,1,0,0:0:0:0:
64,192,224921,1,0,0:0:0:0:
192,192,225009,1,0,0:0:0:0:
64,192,225097,128,0,225186:0:0:0:70:electronic00.wav
320,192,225097,128,0,225186:0:0:0:0:
448,192,225097,128,0,225186:0:0:0:0:
192,192,225186,1,0,0:0:0:0:
64,192,225274,1,0,0:0:0:0:
448,192,225362,1,0,0:0:0:0:
64,192,225450,128,0,225539:0:0:0:0:
192,192,225450,128,0,225539:0:0:0:70:electronic00.wav
320,192,225450,128,0,225539:0:0:0:50:electronic19.wav
448,192,225539,1,0,0:0:0:0:
320,192,225627,1,0,0:0:0:0:
64,192,225715,1,0,0:0:0:0:
192,192,225803,128,0,225891:0:0:0:70:electronic00.wav
320,192,225803,128,0,225891:0:0:0:0:
448,192,225803,128,0,225891:0:0:0:0:
64,192,225891,1,0,0:0:0:0:
192,192,225980,1,0,0:0:0:0:
448,192,226068,1,0,0:0:0:0:
64,192,226156,128,0,226244:0:0:0:70:electronic00.wav
192,192,226156,128,0,226244:0:0:0:50:electronic19.wav
320,192,226156,128,0,226244:0:0:0:0:
448,192,226244,1,0,0:0:0:0:
192,192,226333,1,0,0:0:0:0:
320,192,226421,1,0,0:0:0:0:
64,192,226509,128,0,226597:0:0:0:0:
192,192,226509,128,0,226597:0:0:0:70:electronic00.wav
448,192,226509,128,0,226597:0:0:0:0:
320,192,226597,1,0,0:0:0:0:
64,192,226686,1,0,0:0:0:0:
320,192,226774,1,0,0:0:0:0:
448,192,226862,128,0,226950:0:0:0:50:electronic19.wav
192,192,226862,128,0,226950:0:0:0:70:electronic00.wav
64,192,226862,128,0,226950:0:0:0:0:
320,192,226950,1,0,0:0:0:0:
448,192,227039,1,0,0:0:0:0:
192,192,227127,1,0,0:0:0:0:
320,192,227215,128,0,227303:0:0:0:0:
64,192,227215,128,0,227303:0:0:0:70:electronic00.wav
448,192,227215,128,0,227303:0:0:0:0:
192,192,227303,1,0,0:0:0:0:
320,192,227391,1,0,0:0:0:0:
448,192,227480,1,0,0:0:0:0:
64,192,227568,1,0,0:0:0:0:
192,192,227568,1,0,0:0:0:70:electronic00.wav
320,192,227568,1,0,0:0:0:50:electronic19.wav
448,192,227656,1,0,0:0:0:0:
64,192,227744,1,0,0:0:0:0:
192,192,227833,1,0,0:0:0:0:
64,192,227921,128,0,228097:0:0:0:70:electronic00.wav
320,192,227921,128,0,228097:0:0:0:70:cymbal10_s.wav
448,192,227921,128,0,228097:0:0:0:0:
192,192,228186,128,0,228362:0:0:0:70:electronic00.wav
64,192,228186,128,0,228362:0:0:0:0:
448,192,228186,128,0,228362:0:0:0:70:cymbal10_s.wav
320,192,228450,128,0,228627:0:0:0:70:cymbal10_s.wav
448,192,228450,128,0,228627:0:0:0:0:
64,192,228450,128,0,228627:0:0:0:70:electronic00.wav
64,192,228715,128,0,228891:0:0:0:0:
192,192,228715,128,0,228891:0:0:0:70:electronic00.wav
448,192,228715,128,0,228891:0:0:0:70:cymbal10_s.wav
320,192,228980,1,0,0:0:0:0:
448,192,228980,1,0,0:0:0:0:
192,192,229068,1,0,0:0:0:0:
64,192,229068,1,0,0:0:0:0:
320,192,229156,1,0,0:0:0:0:
64,192,229333,128,0,229421:0:0:0:0:
192,192,229333,128,0,229421:0:0:0:70:electronic00.wav
448,192,229333,128,0,229421:0:0:0:70:cymbal10.wav
320,192,229421,1,0,0:0:0:0:
448,192,229509,1,0,0:0:0:0:
64,192,229597,1,0,0:0:0:70:electronic28G.wav
192,192,229686,128,0,229774:0:0:0:0:
320,192,229686,128,0,229774:0:0:0:50:electronic19.wav
448,192,229686,128,0,229774:0:0:0:70:electronic00.wav
64,192,229774,1,0,0:0:0:0:
320,192,229862,1,0,0:0:0:70:electronic28G.wav
192,192,229950,1,0,0:0:0:0:
320,192,230039,128,0,230127:0:0:0:0:
64,192,230039,128,0,230127:0:0:0:70:electronic00.wav
448,192,230039,128,0,230127:0:0:0:0:
192,192,230127,1,0,0:0:0:0:
64,192,230215,1,0,0:0:0:0:
320,192,230303,1,0,0:0:0:35:electronic28G.wav
192,192,230391,128,0,230480:0:0:0:70:electronic00.wav
448,192,230391,128,0,230480:0:0:0:50:electronic19.wav
64,192,230391,128,0,230480:0:0:0:0:
320,192,230480,1,0,0:0:0:0:
64,192,230568,1,0,0:0:0:70:electronic28G.wav
448,192,230568,128,0,230656:0:0:0:0:
192,192,230656,1,0,0:0:0:0:
320,192,230744,128,0,230833:0:0:0:70:electronic00.wav
448,192,230744,128,0,230833:0:0:0:0:
64,192,230744,128,0,231803:0:0:0:0:
192,192,230833,1,0,0:0:0:0:
320,192,230921,1,0,0:0:0:0:
448,192,231009,1,0,0:0:0:70:electronic28G.wav
192,192,231097,128,0,231186:0:0:0:70:electronic00.wav
320,192,231097,128,0,231186:0:0:0:50:electronic19.wav
448,192,231186,1,0,0:0:0:0:
192,192,231274,1,0,0:0:0:70:electronic28G.wav
320,192,231362,1,0,0:0:0:0:
192,192,231450,128,0,231539:0:0:0:70:electronic00.wav
448,192,231450,128,0,231539:0:0:0:0:
320,192,231539,1,0,0:0:0:0:
448,192,231627,1,0,0:0:0:35:electronic28G.wav
192,192,231715,1,0,0:0:0:35:electronic28G.wav
320,192,231803,128,0,232156:0:0:0:70:electronic00.wav
448,192,231803,128,0,232156:0:0:0:0:
64,192,232156,128,0,232244:0:0:0:70:electronic00.wav
192,192,232156,128,0,232244:0:0:0:70:cymbal10.wav
448,192,232244,1,0,0:0:0:0:
64,192,232333,1,0,0:0:0:0:
320,192,232421,1,0,0:0:0:70:electronic28G.wav
64,192,232509,128,0,232597:0:0:0:0:
192,192,232509,128,0,232597:0:0:0:70:electronic00.wav
448,192,232509,128,0,232597:0:0:0:50:electronic19.wav
320,192,232597,1,0,0:0:0:0:
64,192,232686,1,0,0:0:0:70:electronic28G.wav
320,192,232774,1,0,0:0:0:0:
192,192,232862,128,0,233127:0:0:0:0:
448,192,232862,128,0,232950:0:0:0:70:electronic00.wav
64,192,232862,128,0,232950:0:0:0:0:
320,192,232950,1,0,0:0:0:0:
64,192,233039,1,0,0:0:0:0:
448,192,233127,1,0,0:0:0:35:electronic28G.wav
320,192,233215,128,0,233656:0:0:0:50:electronic19.wav
64,192,233215,128,0,233303:0:0:0:0:
192,192,233215,128,0,233303:0:0:0:70:electronic00.wav
448,192,233303,1,0,0:0:0:0:
64,192,233391,1,0,0:0:0:70:electronic28G.wav
192,192,233480,1,0,0:0:0:0:
448,192,233568,128,0,233656:0:0:0:70:electronic00.wav
64,192,233568,128,0,233656:0:0:0:0:
192,192,233656,1,0,0:0:0:0:
64,192,233744,128,0,234274:0:0:0:0:
320,192,233833,1,0,0:0:0:35:electronic28G.wav
192,192,233921,128,0,234009:0:0:0:70:electronic00.wav
448,192,233921,128,0,234009:0:0:0:50:electronic19.wav
320,192,234009,1,0,0:0:0:0:
192,192,234097,1,0,0:0:0:70:electronic28G.wav
320,192,234186,1,0,0:0:0:0:
192,192,234274,128,0,234362:0:0:0:0:
448,192,234274,128,0,234362:0:0:0:70:electronic00.wav
320,192,234362,1,0,0:0:0:0:
192,192,234450,128,0,234627:0:0:0:70:Kick 11.wav
448,192,234450,128,0,234627:0:0:0:0:
320,192,234627,128,0,234980:0:0:0:70:electronic00.wav
64,192,234627,128,0,234980:0:0:0:0:
192,192,234980,1,0,0:0:0:70:electronic00.wav
448,192,234980,1,0,0:0:0:70:cymbal10.wav
64,192,235156,1,0,0:0:0:70:electronic00.wav
192,192,235156,1,0,0:0:0:0:
448,192,235244,1,0,0:0:0:35:electronic28G.wav
320,192,235333,1,0,0:0:0:0:
192,192,235333,1,0,0:0:0:70:electronic00.wav
192,192,235509,1,0,0:0:0:70:electronic00.wav
448,192,235509,1,0,0:0:0:35:electronic28G.wav
192,192,235686,1,0,0:0:0:70:electronic00.wav
320,192,235686,1,0,0:0:0:0:
448,192,235862,128,0,236039:0:0:0:0:
64,192,235862,1,0,0:0:0:70:electronic00.wav
192,192,235950,1,0,0:0:0:35:electronic28G.wav
64,192,236039,128,0,236215:0:0:0:0:
320,192,236039,1,0,0:0:0:70:electronic00.wav
448,192,236215,128,0,236391:0:0:0:35:electronic28G.wav
192,192,236215,1,0,0:0:0:70:electronic00.wav
64,192,236391,128,0,237097:0:0:0:0:
320,192,236391,1,0,0:0:0:70:electronic00.wav
192,192,236568,1,0,0:0:0:70:electronic00.wav
320,192,236568,1,0,0:0:0:0:
448,192,236656,1,0,0:0:0:35:electronic28G.wav
320,192,236744,1,0,0:0:0:70:electronic00.wav
192,192,236744,1,0,0:0:0:0:
192,192,236921,1,0,0:0:0:70:electronic00.wav
448,192,236921,1,0,0:0:0:35:electronic28G.wav
448,192,237097,128,0,237274:0:0:0:35:electronic28G.wav
320,192,237097,1,0,0:0:0:70:electronic00.wav
64,192,237274,128,0,237450:0:0:0:0:
192,192,237274,1,0,0:0:0:70:electronic00.wav
320,192,237362,1,0,0:0:0:35:electronic28G.wav
192,192,237450,1,0,0:0:0:70:electronic00.wav
448,192,237494,1,0,0:0:0:70:electronic00.wav
320,192,237539,1,0,0:0:0:70:electronic00.wav
64,192,237583,1,0,0:0:0:70:electronic00.wav
192,192,237627,1,0,0:0:0:30:electronic28G.wav
320,192,237715,1,0,0:0:0:0:
64,192,237803,1,0,0:0:0:70:electronic00.wav
192,192,237803,1,0,0:0:0:30:electronic28G.wav
448,192,237891,1,0,0:0:0:70:electronic00.wav
320,192,237980,1,0,0:0:0:70:electronic00.wav
448,192,238068,1,0,0:0:0:70:electronic00.wav
192,192,238156,1,0,0:0:0:70:electronic00.wav
320,192,238156,1,0,0:0:0:30:electronic28G.wav
64,192,238244,1,0,0:0:0:70:electronic00.wav
320,192,238333,1,0,0:0:0:70:electronic00.wav
64,192,238421,1,0,0:0:0:70:electronic00.wav
320,192,238509,1,0,0:0:0:70:electronic00.wav
448,192,238509,1,0,0:0:0:30:electronic28G.wav
64,192,238597,1,0,0:0:0:70:electronic00.wav
192,192,238686,1,0,0:0:0:70:electronic00.wav
64,192,238774,1,0,0:0:0:70:electronic00.wav
192,192,238862,1,0,0:0:0:70:electronic28G.wav
320,192,238862,1,0,0:0:0:70:electronic00.wav
448,192,238950,1,0,0:0:0:70:electronic00.wav
192,192,239039,1,0,0:0:0:70:electronic00.wav
448,192,239127,1,0,0:0:0:70:electronic00.wav
64,192,239215,1,0,0:0:0:0:
320,192,239215,1,0,0:0:0:70:Kick 11.wav
192,192,239303,1,0,0:0:0:0:
448,192,239391,1,0,0:0:0:0:
64,192,239480,1,0,0:0:0:0:
192,192,239568,1,0,0:0:0:70:Kick 11.wav
448,192,239568,1,0,0:0:0:0:
320,192,239656,1,0,0:0:0:0:
64,192,239744,1,0,0:0:0:0:
448,192,239833,1,0,0:0:0:0:
64,192,239921,1,0,0:0:0:0:
320,192,239921,1,0,0:0:0:70:Kick 11.wav
192,192,239965,1,0,0:0:0:70:Kick 11.wav
448,192,240009,1,0,0:0:0:70:Kick 11.wav
320,192,240053,1,0,0:0:0:30:electronic28.wav
192,192,240097,1,0,0:0:0:30:electronic28G.wav
448,192,240186,1,0,0:0:0:30:electronic28G.wav
192,192,240274,1,0,0:0:0:30:electronic28.wav
320,192,240362,1,0,0:0:0:30:electronic28.wav
192,192,240450,1,0,0:0:0:70:Kick 11.wav
64,192,240539,1,0,0:0:0:0:
320,192,240627,1,0,0:0:0:70:electronic00.wav
448,192,240627,1,0,0:0:0:70:cymbal10_s.wav
64,192,240803,1,0,0:0:0:0:
192,192,240803,1,0,0:0:0:0:
448,192,240803,1,0,0:0:0:0:
64,192,240980,1,0,0:0:0:0:
192,192,240980,1,0,0:0:0:0:
448,192,240980,1,0,0:0:0:0:
64,192,241156,1,0,0:0:0:0:
192,192,241156,1,0,0:0:0:0:
448,192,241156,1,0,0:0:0:0:
320,192,241244,1,0,0:0:0:0:
64,192,241333,1,0,0:0:0:0:
192,192,241333,1,0,0:0:0:70:electronic36.wav
448,192,241333,1,0,0:0:0:0:
320,192,241509,1,0,0:0:0:0:
448,192,241509,1,0,0:0:0:0:
64,192,241509,1,0,0:0:0:0:
192,192,241597,1,0,0:0:0:0:
64,192,241686,1,0,0:0:0:0:
320,192,241686,1,0,0:0:0:0:
448,192,241686,1,0,0:0:0:0:
192,192,241862,1,0,0:0:0:0:
320,192,241862,1,0,0:0:0:0:
64,192,242085,1,0,0:0:0:70:electronic00.wav
448,192,242085,1,0,0:0:0:0:
448,192,242272,1,0,0:0:0:0:
192,192,242272,1,0,0:0:0:0:
64,192,242272,1,0,0:0:0:0:
64,192,242460,1,0,0:0:0:0:
192,192,242460,1,0,0:0:0:0:
448,192,242460,1,0,0:0:0:0:
64,192,242647,1,0,0:0:0:0:
448,192,242647,1,0,0:0:0:0:
320,192,242647,1,0,0:0:0:0:
192,192,242741,1,0,0:0:0:0:
64,192,242835,1,0,0:0:0:0:
320,192,242835,1,0,0:0:0:70:electronic36.wav
448,192,242835,1,0,0:0:0:0:
64,192,243022,1,0,0:0:0:0:
192,192,243022,1,0,0:0:0:0:
448,192,243022,1,0,0:0:0:0:
320,192,243116,1,0,0:0:0:0:
448,192,243210,1,0,0:0:0:0:
192,192,243210,1,0,0:0:0:0:
64,192,243210,1,0,0:0:0:0:
64,192,243397,1,0,0:0:0:0:
448,192,243397,1,0,0:0:0:0:
64,192,243585,1,0,0:0:0:70:electronic00.wav
448,192,243585,1,0,0:0:0:70:cymbal10.wav
320,192,243636,1,0,0:0:0:0:
192,192,243688,1,0,0:0:0:0:
64,192,243740,1,0,0:0:0:0:
448,192,243791,1,0,0:0:0:0:
320,192,243791,1,0,0:0:0:0:
192,192,243843,1,0,0:0:0:0:
64,192,243895,1,0,0:0:0:0:
448,192,243947,1,0,0:0:0:0:
192,192,243998,1,0,0:0:0:0:
320,192,243998,1,0,0:0:0:0:
64,192,244050,1,0,0:0:0:0:
448,192,244102,1,0,0:0:0:0:
320,192,244153,1,0,0:0:0:0:
64,192,244205,1,0,0:0:0:0:
192,192,244205,1,0,0:0:0:0:
448,192,244257,1,0,0:0:0:0:
320,192,244309,1,0,0:0:0:0:
192,192,244360,1,0,0:0:0:0:
448,192,244412,1,0,0:0:0:0:
320,192,244412,1,0,0:0:0:70:electronic36.wav
64,192,244516,1,0,0:0:0:0:
192,192,244567,1,0,0:0:0:0:
448,192,244619,1,0,0:0:0:70:cymbal10.wav
320,192,244619,1,0,0:0:0:70:electronic00.wav
64,192,244722,1,0,0:0:0:0:
192,192,244774,1,0,0:0:0:0:
448,192,244826,1,0,0:0:0:70:cymbal10.wav
320,192,244826,1,0,0:0:0:70:electronic00.wav
64,192,244929,1,0,0:0:0:0:
192,192,244981,1,0,0:0:0:0:
448,192,245033,1,0,0:0:0:0:
320,192,245033,1,0,0:0:0:0:
192,192,245085,1,0,0:0:0:0:
64,192,245136,1,0,0:0:0:0:
448,192,245188,1,0,0:0:0:0:
320,192,245240,1,0,0:0:0:0:
192,192,245240,1,0,0:0:0:0:
64,192,245293,1,0,0:0:0:0:
448,192,245347,1,0,0:0:0:0:
320,192,245400,1,0,0:0:0:0:
192,192,245454,1,0,0:0:0:0:
64,192,245454,1,0,0:0:0:0:
448,192,245507,1,0,0:0:0:0:
320,192,245561,1,0,0:0:0:0:
192,192,245615,1,0,0:0:0:0:
64,192,245668,1,0,0:0:0:0:
448,192,245668,1,0,0:0:0:0:
320,192,245722,1,0,0:0:0:0:
192,192,245775,1,0,0:0:0:0:
448,192,245882,1,0,0:0:0:0:
64,192,245882,1,0,0:0:0:70:electronic00.wav
192,192,245990,1,0,0:0:0:70:electronic00.wav
320,192,245990,1,0,0:0:0:0:
448,192,246097,1,0,0:0:0:70:electronic36.wav
64,192,246097,1,0,0:0:0:0:
192,192,246208,1,0,0:0:0:0:
320,192,246208,1,0,0:0:0:0:
448,192,246319,1,0,0:0:0:0:
64,192,246319,1,0,0:0:0:0:
192,192,246430,1,0,0:0:0:0:
320,192,246430,1,0,0:0:0:0:
64,192,246541,128,0,246985:0:0:0:70:electronic00.wav
448,192,246541,128,0,246985:0:0:0:0:
192,192,246985,1,0,0:0:0:70:electronic00.wav
320,192,246985,1,0,0:0:0:70:cymbal10.wav
64,192,247225,1,0,0:0:0:0:
320,192,247225,1,0,0:0:0:0:
192,192,247465,1,0,0:0:0:0:
320,192,247465,1,0,0:0:0:0:
448,192,247705,1,0,0:0:0:0:
192,192,247705,1,0,0:0:0:0:
64,192,247825,1,0,0:0:0:0:
320,192,247945,1,0,0:0:0:70:electronic36.wav
192,192,247945,1,0,0:0:0:0:
448,192,248105,1,0,0:0:0:0:
64,192,248105,1,0,0:0:0:70:electronic00.wav
192,192,248265,1,0,0:0:0:70:electronic00.wav
320,192,248265,1,0,0:0:0:0:
192,192,248425,1,0,0:0:0:70:electronic00.wav
320,192,248425,1,0,0:0:0:70:cymbal10.wav
448,192,248575,128,0,248908:0:0:0:0:
64,192,248575,128,0,248908:0:0:0:0:
192,192,249048,1,0,0:0:0:70:electronic00.wav
320,192,249048,1,0,0:0:0:0:
64,192,249283,1,0,0:0:0:70:electronic00.wav
448,192,249283,1,0,0:0:0:0:
192,192,249376,1,0,0:0:0:70:electronic00.wav
320,192,249376,1,0,0:0:0:70:cymbal10.wav
192,192,249517,1,0,0:0:0:70:cymbal10.wav
64,192,249517,1,0,0:0:0:70:electronic00.wav
320,192,249658,1,0,0:0:0:0:
448,192,249658,1,0,0:0:0:0:
192,192,249798,1,0,0:0:0:0:
320,192,249928,1,0,0:0:0:70:electronic36.wav
448,192,249928,1,0,0:0:0:0:
192,192,250192,1,0,0:0:0:0:
64,192,250192,1,0,0:0:0:70:electronic00.wav
448,192,250312,1,0,0:0:0:0:
320,192,250312,1,0,0:0:0:70:electronic00.wav
64,192,250447,1,0,0:0:0:0:
192,192,250447,1,0,0:0:0:70:electronic00.wav
320,192,250515,1,0,0:0:0:70:electronic00.wav
448,192,250515,1,0,0:0:0:0:
192,192,250583,1,0,0:0:0:70:electronic00.wav
64,192,250583,1,0,0:0:0:0:
320,192,250651,1,0,0:0:0:70:electronic00.wav
192,192,250719,1,0,0:0:0:70:electronic00.wav
64,192,250719,1,0,0:0:0:0:
448,192,250719,1,0,0:0:0:0:
192,192,250994,1,0,0:0:0:70:electronic00.wav
448,192,250994,1,0,0:0:0:70:cymbal10.wav
320,192,251105,1,0,0:0:0:0:
64,192,251216,1,0,0:0:0:70:electronic00.wav
448,192,251216,1,0,0:0:0:0:
64,192,251438,1,0,0:0:0:0:
448,192,251438,1,0,0:0:0:70:electronic00.wav
320,192,251565,1,0,0:0:0:70:electronic36.wav
192,192,251565,1,0,0:0:0:0:
448,192,251719,1,0,0:0:0:0:
320,192,251787,1,0,0:0:0:0:
192,192,251855,1,0,0:0:0:0:
320,192,251991,1,0,0:0:0:0:
192,192,252069,1,0,0:0:0:0:
64,192,252148,1,0,0:0:0:70:electronic00.wav
448,192,252148,1,0,0:0:0:70:cymbal10_s.wav
192,192,252306,1,0,0:0:0:0:
320,192,252306,1,0,0:0:0:0:
64,192,252385,1,0,0:0:0:70:electronic00.wav
448,192,252385,1,0,0:0:0:70:cymbal10_s.wav
192,192,252543,1,0,0:0:0:0:
320,192,252622,1,0,0:0:0:70:cymbal10_s.wav
64,192,252622,1,0,0:0:0:70:electronic00.wav
192,192,252785,1,0,0:0:0:70:electronic36.wav
448,192,252785,1,0,0:0:0:0:
320,192,252923,1,0,0:0:0:0:
192,192,252998,1,0,0:0:0:0:
64,192,253073,1,0,0:0:0:0:
448,192,253223,1,0,0:0:0:0:
320,192,253311,1,0,0:0:0:0:
64,192,253395,1,0,0:0:0:70:electronic00.wav
192,192,253395,1,0,0:0:0:70:cymbal10.wav
192,192,253582,1,0,0:0:0:0:
320,192,253645,1,0,0:0:0:70:electronic00.wav
448,192,253645,1,0,0:0:0:70:cymbal10.wav
192,192,253883,1,0,0:0:0:70:electronic36.wav
64,192,253883,1,0,0:0:0:0:
320,192,254060,1,0,0:0:0:70:electronic00.wav
448,192,254060,1,0,0:0:0:70:cymbal10.wav
320,192,254240,1,0,0:0:0:0:
192,192,254300,1,0,0:0:0:70:cymbal10.wav
64,192,254300,1,0,0:0:0:70:electronic00.wav
192,192,254588,1,0,0:0:0:0:
320,192,254588,1,0,0:0:0:70:electronic36.wav
192,192,254765,128,0,255809:0:0:0:70:electronic00.wav
320,192,254765,128,0,255809:0:0:0:70:cymbal10.wav
64,192,256157,1,0,0:0:0:0:
320,192,256333,1,0,0:0:0:0:
64,192,256509,1,0,0:0:0:0:
192,192,256686,1,0,0:0:0:0:
448,192,256862,1,0,0:0:0:0:
320,192,257039,1,0,0:0:0:0:
192,192,257215,1,0,0:0:0:0:
448,192,257392,1,0,0:0:0:0:
320,192,257568,1,0,0:0:0:0:
64,192,257745,1,0,0:0:0:0:
192,192,257921,1,0,0:0:0:0:
320,192,258098,1,0,0:0:0:0:
64,192,258274,1,0,0:0:0:0:
192,192,258451,1,0,0:0:0:0:
448,192,258627,1,0,0:0:0:0:
320,192,258804,1,0,0:0:0:0:
64,192,258980,1,0,0:0:0:0:
192,192,259157,1,0,0:0:0:0:
448,192,259333,1,0,0:0:0:0:
64,192,259509,1,0,0:0:0:0:
448,192,259686,1,0,0:0:0:0:
192,192,259862,1,0,0:0:0:0:
320,192,260039,1,0,0:0:0:0:
64,192,260215,1,0,0:0:0:0:
448,192,260392,1,0,0:0:0:0:
64,192,260568,1,0,0:0:0:0:
448,192,260745,1,0,0:0:0:0:
192,192,260921,1,0,0:0:0:0:
320,192,261098,1,0,0:0:0:0:
64,192,261274,1,0,0:0:0:0:
192,192,261451,1,0,0:0:0:0:
320,192,261627,1,0,0:0:0:0:
64,192,261804,1,0,0:0:0:0:
448,192,261980,1,0,0:0:0:0:
192,192,262157,1,0,0:0:0:0:
448,192,262333,1,0,0:0:0:0:
64,192,262509,1,0,0:0:0:0:
320,192,262686,1,0,0:0:0:0:
64,192,262862,1,0,0:0:0:0:
192,192,263039,1,0,0:0:0:0:
320,192,263215,1,0,0:0:0:0:
64,192,263392,1,0,0:0:0:0:
448,192,263568,1,0,0:0:0:0:
192,192,263745,1,0,0:0:0:0:
448,192,263921,1,0,0:0:0:0:
320,192,264098,1,0,0:0:0:0:
64,192,264274,1,0,0:0:0:0:
192,192,264451,1,0,0:0:0:0:
64,192,264627,1,0,0:0:0:0:
448,192,264804,1,0,0:0:0:0:
64,192,264980,1,0,0:0:0:0:
448,192,265157,1,0,0:0:0:0:
64,192,265333,1,0,0:0:0:0:
320,192,265509,1,0,0:0:0:0:
64,192,265686,1,0,0:0:0:0:
320,192,265862,1,0,0:0:0:0:
64,192,266039,1,0,0:0:0:0:
448,192,266215,1,0,0:0:0:0:
192,192,266392,1,0,0:0:0:0:
320,192,266568,1,0,0:0:0:0:
64,192,266745,1,0,0:0:0:0:
448,192,266921,1,0,0:0:0:0:
192,192,267098,1,0,0:0:0:0:
320,192,267451,128,0,268862:0:0:0:0:
