osu file format v14

[General]
AudioFilename: audio.mp3
AudioLeadIn: 0
PreviewTime: 36506
Countdown: 0
SampleSet: Soft
StackLeniency: 0.7
Mode: 2
LetterboxInBreaks: 0
WidescreenStoryboard: 0

[Editor]
Bookmarks: 19665,28392,37120,45847,54574,58938,67665,78019,90019,97144,102023,128204,145659,154386,168295,174023,181386,189295,198023,207295,211581,217006,221835,227197,231560
DistanceSpacing: 0.8
BeatDivisor: 4
GridSize: 32
TimelineZoom: 2.9

[Metadata]
Title:KillerBeast
TitleUnicode:KillerBeast
Artist:Camellia
ArtistUnicode:かめりあ
Creator:Jemzuu
Version:KrakenBerserker
Source:
Tags:featured artist fa ajamez mir osu!catch world cup cwc 2021 cwc2021 grandfinals grand finals gf nm 1 no mod nm1 c96 comiket blackmagik blazing trap edm dubstep Cametek KamelCamellia かめるかめりあ ctcd-019 electronic instrumental hardcore killer beast kraken berserker
BeatmapID:3033155
BeatmapSetID:1478459

[Difficulty]
HPDrainRate:5
CircleSize:4.2
OverallDifficulty:9.9
ApproachRate:9.9
SliderMultiplier:2.02
SliderTickRate:2

[Events]
//Background and Video events
0,0,"banger.jpg",0,0
//Break Periods
//Storyboard Layer 0 (Background)
//Storyboard Layer 1 (Fail)
//Storyboard Layer 2 (Pass)
//Storyboard Layer 3 (Foreground)
//Storyboard Layer 4 (Overlay)
//Storyboard Sound Samples

[TimingPoints]
2211,272.727272727273,4,2,1,50,1,0
2211,-400,4,2,1,50,0,0
19665,-100,4,2,1,60,0,0
28392,-100,4,2,1,60,0,0
33165,-100,4,2,1,70,0,0
33711,-100,4,2,1,80,0,0
34256,-100,4,2,1,90,0,0
36574,-100,4,2,1,5,0,0
36847,-100,4,2,1,90,0,0
37120,-100,4,2,1,100,0,0
37392,-40,4,2,1,100,0,0
37665,-100,4,2,1,100,0,0
39029,-100,4,2,1,100,0,0
39301,-100,4,2,1,100,0,0
39574,-100,4,2,1,100,0,0
39847,-100,4,2,1,100,0,0
40120,-100,4,2,1,100,0,0
41074,-100,4,2,1,100,0,0
41211,-100,4,2,1,100,0,0
41756,-66.6666666666667,4,2,1,100,0,0
42029,-100,4,2,1,100,0,0
43392,-100,4,2,1,100,0,0
43801,-100,4,2,1,100,0,0
43938,-100,4,2,1,100,0,0
44211,-100,4,2,1,100,0,0
44756,-100,4,2,1,100,0,0
45301,-100,4,2,1,100,0,0
45438,-76.9230769230769,4,2,1,100,0,0
45574,-62.5,4,2,1,100,0,0
45711,-100,4,2,1,100,0,0
45847,-100,4,2,1,100,0,0
46120,-40,4,2,1,100,0,0
46392,-100,4,2,1,100,0,0
47756,-100,4,2,1,100,0,0
48301,-100,4,2,1,100,0,0
48574,-100,4,2,1,100,0,0
49120,-100,4,2,1,100,0,0
50142,-100,4,2,1,5,0,0
50211,-100,4,2,1,100,0,0
52120,-100,4,2,1,100,0,0
52529,-100,4,2,1,100,0,0
53483,-100,4,2,1,100,0,0
54574,-100,4,2,1,70,0,0
58938,-83.3333333333333,4,2,1,100,0,0
59756,-100,4,2,1,100,0,0
60574,-100,4,2,1,100,0,0
63029,-80,4,2,1,100,0,0
63301,-100,4,2,1,100,0,0
63574,-100,4,2,1,100,0,0
63847,-71.4285714285714,4,2,1,100,0,0
64120,-100,4,2,1,100,0,0
64938,-100,4,2,1,100,0,0
67120,-100,4,2,1,100,0,0
67938,-100,4,2,1,100,0,0
68756,300,4,2,1,100,1,0
69956,292.682926829268,4,2,1,100,1,0
69956,-40,4,2,1,100,0,0
70541,-100,4,2,1,100,0,0
70833,300,4,2,1,100,1,0
71433,322.58064516129,4,2,1,100,1,0
71756,315.789473684211,4,2,1,100,1,0
71756,-100,4,2,1,100,0,0
71966,-100,4,2,1,100,0,0
72177,-100,4,2,1,100,0,0
72387,319.148936170213,4,2,1,100,1,0
73663,342.857142857143,4,2,1,100,1,0
75034,370.37037037037,4,2,1,100,1,0
75774,372.670807453416,4,2,1,100,1,0
76519,375,4,2,1,100,1,0
77644,-80,4,2,1,100,0,0
78019,-31.25,4,2,1,100,0,0
78394,-100,4,2,1,100,0,0
78440,-83.3333333333333,4,2,1,100,0,0
80269,-33.3333333333333,4,2,1,100,0,0
80550,-100,4,2,1,100,0,0
81019,-66.6666666666667,4,2,1,100,0,0
81394,-76.9230769230769,4,2,1,100,0,0
82894,-100,4,2,1,100,0,0
83269,-33.3333333333333,4,2,1,100,0,0
83878,-26.6666666666667,4,2,1,100,0,0
84440,-100,4,2,1,5,0,0
84487,-83.3333333333333,4,2,1,100,0,0
86269,-33.3333333333333,4,2,1,100,0,0
86550,-100,4,2,1,100,0,0
87019,-34.965034965035,4,2,1,100,0,0
87300,-83.3333333333333,4,2,1,100,0,0
90019,-31.25,4,2,1,100,0,0
90394,-83.3333333333333,4,2,1,100,0,0
93394,-80,4,2,1,100,0,0
95269,-25,4,2,1,100,0,0
95878,-1000,4,2,1,100,0,0
96019,-1000,4,2,1,5,0,0
96394,-100,4,2,1,100,0,0
96581,-80,4,2,1,5,0,0
96769,-80,4,2,1,100,0,0
97144,-80,4,2,1,100,0,0
98269,-80,4,2,1,100,0,0
98550,-80,4,2,1,100,0,0
99019,-33.3333333333333,4,2,1,100,0,0
99394,-80,4,2,1,100,0,0
101269,-80,4,2,1,100,0,0
101456,-80,4,2,1,70,0,0
101644,-80,4,2,1,50,0,0
101831,-80,4,2,1,30,0,0
102023,272.727272727273,4,2,1,30,1,0
106386,-400,4,2,1,30,0,0
110750,-100,4,2,1,30,0,0
127113,-133.333333333333,4,2,1,60,0,0
128204,-100,4,2,1,60,0,0
141159,-100,4,2,1,70,0,0
141841,-100,4,2,1,80,0,0
142386,-100,4,2,1,90,0,0
142932,-100,4,2,1,100,0,0
146750,-100,4,2,1,100,0,0
147841,-100,4,2,1,100,0,0
148932,-100,4,2,1,100,0,0
154045,-100,4,2,1,100,0,0
154386,-100,4,2,1,100,0,1
154659,-36.3636363636364,4,2,1,100,0,1
154795,-100,4,2,1,100,0,1
156295,-100,4,2,1,100,0,1
156568,-100,4,2,1,100,0,1
156841,-100,4,2,1,100,0,1
157113,-100,4,2,1,100,0,1
157386,-100,4,2,1,100,0,1
158750,-100,4,2,1,100,0,1
159023,-42.5531914893617,4,2,1,100,0,1
159295,-100,4,2,1,100,0,1
159568,-100,4,2,1,100,0,1
160659,-100,4,2,1,100,0,1
161204,-100,4,2,1,100,0,1
161477,-100,4,2,1,100,0,1
161750,-100,4,2,1,100,0,1
162023,-100,4,2,1,100,0,1
162204,-100,4,2,1,100,0,1
162386,-100,4,2,1,100,0,1
162568,-100,4,2,1,100,0,0
163386,-39.2156862745098,4,2,1,100,0,0
163659,-100,4,2,1,100,0,0
163932,-100,4,2,1,100,0,0
165023,-100,4,2,1,100,0,0
165295,-100,4,2,1,100,0,0
165568,-100,4,2,1,100,0,0
165841,-100,4,2,1,100,0,0
166113,-100,4,2,1,100,0,0
167477,-100,4,2,1,5,0,0
167750,-100,4,2,1,100,0,0
168023,-100,4,2,1,100,0,0
168057,-100,4,2,1,5,0,0
168091,-100,4,2,1,100,0,0
168295,-100,4,2,1,100,0,0
169386,-100,4,2,1,100,0,0
170204,-100,4,2,1,100,0,0
170750,-100,4,2,1,70,0,0
171841,-33.3333333333333,4,2,1,100,0,0
172113,-100,4,2,1,100,0,0
172523,-100,4,2,1,70,0,0
172932,-66.6666666666667,4,2,1,70,0,0
173341,-100,4,2,1,50,0,0
173477,-83.3333333333333,4,2,1,70,0,0
173613,-71.4285714285714,4,2,1,90,0,0
173750,-36.3636363636364,4,2,1,100,0,0
174023,-83.3333333333333,4,2,1,100,0,0
174227,-100,4,2,1,100,0,0
174568,-100,4,2,1,100,0,0
175113,-100,4,2,1,100,0,0
175659,-100,4,2,1,100,0,0
175932,-100,4,2,1,100,0,0
176204,-33.3333333333333,4,2,1,100,0,0
176477,-100,4,2,1,100,0,0
176750,-100,4,2,1,70,0,0
177295,-100,4,2,1,70,0,0
177704,-100,4,2,1,50,0,0
177840,-100,4,2,1,70,0,0
177976,-100,4,2,1,90,0,0
178113,-100,4,2,1,100,0,0
178386,-100,4,2,1,100,0,0
179204,-100,4,2,1,100,0,0
180295,-100,4,2,1,100,0,0
181386,-100,4,2,1,100,0,0
181659,-100,4,2,1,100,0,0
181932,-100,4,2,1,100,0,0
182204,-100,4,2,1,100,0,0
182477,-100,4,2,1,100,0,0
183023,-100,4,2,1,100,0,0
183568,-100,4,2,1,100,0,0
183841,-100,4,2,1,100,0,0
184113,-100,4,2,1,100,0,0
184386,-100,4,2,1,100,0,0
184659,-100,4,2,1,100,0,0
184932,-100,4,2,1,100,0,0
185750,-100,4,2,1,100,0,0
186023,-100,4,2,1,100,0,0
186568,-100,4,2,1,100,0,0
188204,-100,4,2,1,70,0,0
188750,-100,4,2,1,70,0,0
189295,-86.9565217391304,4,2,2,100,0,1
191204,-86.9565217391304,4,2,2,100,0,1
191613,-86.9565217391304,4,2,2,100,0,1
195568,-86.9565217391304,4,2,2,100,0,1
195977,-86.9565217391304,4,2,2,100,0,1
196932,-100,4,2,1,100,0,0
197204,-33.3333333333333,4,2,1,100,0,0
197477,-100,4,2,1,100,0,1
197750,-100,4,2,2,100,0,0
198023,-86.9565217391304,4,2,2,100,0,1
204295,-86.9565217391304,4,2,2,100,0,1
204568,-100,4,2,1,100,0,0
207295,-100,4,2,1,100,0,0
207841,-100,4,2,1,100,0,0
208932,-83.3333333333333,4,2,1,100,0,0
209204,304.568527918782,4,2,1,100,1,0
209204,-90.9090909090909,4,2,1,100,0,0
209508,301.507537688442,4,2,1,100,1,0
209811,310.880829015544,4,2,1,100,1,0
210122,348.837209302326,4,2,1,100,1,0
210471,350.877192982456,4,2,1,100,1,0
210822,379.746835443038,4,2,1,100,1,0
211581,375,4,2,1,100,1,0
211581,-29.8507462686567,4,2,1,100,0,0
211768,-81.3008130081301,4,2,1,100,0,0
212143,-29.4117647058824,4,2,1,100,0,0
212331,-81.3008130081301,4,2,1,100,0,0
213643,-69.9300699300699,4,2,1,100,0,0
214768,340.909090909091,4,2,1,100,1,0
214938,348.837209302326,4,2,1,100,1,0
214938,-100,4,2,1,100,0,0
215113,315.789473684211,4,2,1,100,1,0
215113,-100,4,2,1,100,0,0
215902,291.26213592233,4,2,1,100,1,0
215902,-100,4,2,1,100,0,0
216193,-100,4,2,1,100,0,0
216461,272.727272727273,4,2,1,100,1,0
217006,272.727272727273,4,2,1,100,1,0
217006,-76.9230769230769,4,2,1,100,0,0
217278,-36.3636363636364,4,2,1,100,0,0
217551,-100,4,2,1,100,0,0
217824,-100,4,2,1,100,0,0
218096,-100,4,2,1,100,0,0
218369,-100,4,2,1,100,0,0
218642,-100,4,2,1,100,0,0
219460,-76.9230769230769,4,2,1,100,0,0
219750,300,4,2,1,100,1,0
220050,333.333333333333,4,2,1,100,1,0
220716,352.941176470588,4,2,1,100,1,0
221068,375,4,2,1,100,1,0
221068,-100,4,2,1,100,0,0
221443,392.156862745098,4,2,1,100,1,0
221443,-100,4,2,1,100,0,0
221835,375,4,2,1,100,1,0
221835,-33.3333333333333,4,2,1,100,0,0
224647,-100,4,2,1,100,0,0
224835,352.941176470588,4,2,1,100,1,0
225187,333.333333333333,4,2,1,100,1,0
225520,315.789473684211,4,2,1,100,1,0
225520,-100,4,2,1,100,0,0
225835,272.727272727273,4,2,1,100,1,0
225835,-100,4,2,1,100,0,0
226107,272.727272727273,4,2,1,100,1,0
227197,-100,4,2,1,100,0,0
227469,-40,4,2,1,100,0,0
227742,-86.9565217391304,4,2,1,100,0,0
229378,-40,4,2,1,100,0,0
229583,-81.9672131147541,4,2,1,100,0,0
229924,-100,4,2,1,100,0,0
230197,-100,4,2,1,100,0,0
230538,-100,4,2,1,50,0,0
230743,-100,4,2,1,100,0,0
230811,-100,4,2,1,50,0,0
231016,-100,4,2,1,75,0,0
231833,-100,4,2,1,100,0,0
231902,-100,4,2,1,50,0,0
240016,-100,4,2,1,40,0,0
240970,-100,4,2,1,30,0,0
241925,-100,4,2,1,20,0,0
242470,-100,4,2,1,10,0,0
243015,-100,4,2,1,5,0,0

[Colours]
Combo1 : 143,143,143
Combo2 : 255,128,128
Combo3 : 2,208,162

[HitObjects]
219,322,2211,6,0,P|163:71|383:252,1,707,2|2,0:0|0:0,0:0:0:0:
197,170,6301,1,0,0:0:0:0:
306,155,6438,1,0,0:0:0:0:
191,61,6574,6,0,P|255:75|77:129,1,707,2|2,0:0|0:0,0:0:0:0:
346,51,10938,6,0,P|369:67|123:130,1,707,2|2,0:0|0:0,0:0:0:0:
399,43,15301,6,0,P|277:45|124:259,1,404,2|0,0:0|0:0,0:0:0:0:
256,192,17620,12,0,19529,0:2:0:0:
259,308,19665,6,0,L|256:98,1,202,4|0,3:2|0:0,0:0:0:0:
468,285,20211,1,0,0:0:0:0:
468,184,20347,1,0,0:0:0:0:
469,83,20483,1,0,0:0:0:0:
328,40,20620,6,0,L|126:69,1,202,2|0,0:0|0:0,0:0:0:0:
235,129,21029,1,0,0:0:0:0:
355,145,21165,1,0,0:0:0:0:
238,210,21301,5,2,0:0:0:0:
437,264,21574,1,2,0:2:0:0:
128,355,21983,2,0,L|123:249,1,101,0|2,0:0|0:2,0:0:0:0:
366,295,22392,1,2,0:2:0:0:
369,194,22528,1,0,0:0:0:0:
373,93,22664,1,0,0:0:0:0:
236,115,22801,6,0,L|464:78,1,202,2|0,0:2|0:2,0:0:0:0:
334,92,23210,1,0,0:0:0:0:
227,102,23346,1,2,0:2:0:0:
340,136,23483,1,0,0:2:0:0:
228,151,23620,1,0,0:2:0:0:
116,175,23756,1,2,0:2:0:0:
116,175,23892,1,0,0:2:0:0:
354,248,24029,5,2,3:2:0:0:
354,248,24165,1,0,0:0:0:0:
237,276,24301,2,0,L|229:71,1,202,0|2,0:0|0:0,0:0:0:0:
111,64,24711,1,0,0:0:0:0:
220,78,24847,1,0,0:0:0:0:
340,91,24983,5,2,0:0:0:0:
112,171,25256,1,0,0:0:0:0:
212,213,25392,1,0,0:0:0:0:
110,249,25529,1,0,0:0:0:0:
234,290,25665,5,2,0:0:0:0:
46,339,25938,1,2,0:2:0:0:
286,274,26347,2,0,L|137:278,1,101,0|2,0:0|0:2,0:0:0:0:
393,219,26756,1,2,0:2:0:0:
171,146,27029,2,0,L|281:117,1,101,2|0,0:2|0:2,0:0:0:0:
167,63,27301,2,0,L|57:48,1,101,2|0,0:2|0:2,0:0:0:0:
187,74,27574,2,0,L|204:191,1,101,2|0,0:2|0:2,0:0:0:0:
77,182,27847,2,0,L|68:288,1,101,2|2,0:2|0:2,0:0:0:0:
194,310,28120,2,0,L|73:331,1,101,2|0,0:2|0:0,0:0:0:0:
321,359,28392,5,2,3:2:0:0:
435,355,28529,2,0,L|452:302,2,50.5,0|0|0,0:0|0:0|0:2,0:0:0:0:
321,359,28801,1,0,1:2:0:0:
207,267,28938,2,0,L|322:242,1,101,0|0,1:2|1:2,0:0:0:0:
434,217,29211,1,0,1:2:0:0:
210,164,29347,6,0,L|193:111,2,50.5,0|0|0,1:2|1:2|1:2,0:0:0:0:
346,106,29620,2,0,L|289:78,1,50.5,0|0,1:2|1:2,0:0:0:0:
245,86,29756,1,0,1:2:0:0:
374,35,29892,1,0,1:2:0:0:
146,32,30029,6,0,L|135:140,1,101,0|0,1:2|1:2,0:0:0:0:
254,183,30301,1,0,1:2:0:0:
382,231,30438,2,0,L|410:286,2,50.5,0|0|0,1:2|1:2|1:2,0:0:0:0:
148,304,30711,6,0,L|205:332,1,50.5,0|0,1:2|1:2,0:0:0:0:
249,324,30847,1,0,1:2:0:0:
124,281,30983,1,0,1:2:0:0:
244,248,31120,1,0,1:2:0:0:
369,249,31256,1,0,1:2:0:0:
135,164,31392,5,0,1:2:0:0:
28,93,31529,2,0,L|83:80,1,50.5,0|0,1:2|1:2,0:0:0:0:
259,71,31665,1,0,1:2:0:0:
140,142,31801,2,0,L|111:208,2,50.5,0|0|0,1:2|1:2|1:2,0:0:0:0:
371,199,32074,5,0,1:2:0:0:
245,237,32211,1,0,1:2:0:0:
382,292,32347,1,0,1:2:0:0:
152,339,32483,1,0,1:2:0:0:
392,320,32620,2,0,L|460:318,1,50.5,0|0,1:2|1:2,0:0:0:0:
243,358,32756,5,0,3:2:0:0:
347,363,32892,2,0,L|362:299,1,50.5,0|0,1:2|1:2,0:0:0:0:
187,287,33029,1,0,3:2:0:0:
295,273,33165,2,0,L|306:203,1,50.5,0|0,1:2|1:2,0:0:0:0:
137,203,33301,1,0,3:2:0:0:
248,166,33438,2,0,L|246:97,1,50.5,0|0,1:2|1:2,0:0:0:0:
84,115,33574,1,0,3:2:0:0:
195,71,33711,2,0,L|166:11,1,50.5,0|0,1:2|1:2,0:0:0:0:
16,59,33847,5,0,3:2:0:0:
125,143,33983,2,0,L|76:109,1,50.5,0|0,1:2|1:2,0:0:0:0:
279,270,34120,1,0,3:2:0:0:
168,250,34256,2,0,L|229:226,1,50.5,0|0,1:2|1:2,0:0:0:0:
394,249,34392,1,0,3:2:0:0:
280,181,34529,2,0,L|345:177,1,50.5,0|0,1:2|1:2,0:0:0:0:
486,151,34665,1,0,3:2:0:0:
261,87,34801,2,0,L|320:85,1,50.5,0|0,1:2|1:2,0:0:0:0:
479,289,34938,6,0,L|477:222,1,50.5,0|0,3:2|1:2,0:0:0:0:
327,326,35074,2,0,L|322:251,1,50.5,0|0,3:2|1:2,0:0:0:0:
171,279,35211,2,0,L|159:200,1,50.5,0|0,3:2|1:2,0:0:0:0:
328,201,35347,2,0,L|315:130,1,50.5,0|0,3:2|1:2,0:0:0:0:
142,163,35483,6,0,L|152:106,1,50.5,0|0,3:2|1:2,0:0:0:0:
292,94,35620,2,0,L|303:24,1,50.5,0|0,3:2|1:2,0:0:0:0:
445,79,35756,2,0,L|454:22,1,50.5,0|0,3:2|1:2,0:0:0:0:
277,176,35892,2,0,L|267:108,1,50.5,0|0,3:2|1:2,0:0:0:0:
92,229,36029,5,0,3:2:0:0:
238,237,36097,1,0,3:2:0:0:
389,263,36165,1,0,3:2:0:0:
238,335,36233,1,0,3:2:0:0:
85,347,36301,1,0,3:2:0:0:
241,352,36370,1,0,3:2:0:0:
396,358,36438,1,0,3:2:0:0:
238,335,36506,6,0,L|15:197,1,252.5,0|0,3:2|0:0,0:0:0:0:
475,291,37120,6,0,L|477:94,1,151.5,4|0,3:2|0:2,0:0:0:0:
98,124,37392,2,0,L|502:73,1,378.75,2|0,0:2|0:2,0:0:0:0:
266,197,37665,6,0,L|226:195,1,25.25,10|0,0:2|0:0,0:0:0:0:
152,238,37801,2,0,L|189:241,1,25.25,2|0,0:2|0:0,0:0:0:0:
367,236,37938,2,0,L|375:268,1,25.25,2|0,3:2|0:0,0:0:0:0:
280,301,38074,2,0,L|290:333,1,25.25,2|0,0:2|0:0,0:0:0:0:
69,350,38211,6,0,L|124:337,1,50.5,2|2,0:2|0:2,0:0:0:0:
273,277,38347,2,0,L|210:275,1,50.5,2|2,3:2|0:2,0:0:0:0:
69,261,38483,2,0,L|64:207,1,50.5,2|2,3:2|0:2,0:0:0:0:
139,201,38620,2,0,L|133:137,1,50.5,2|0,0:2|0:0,0:0:0:0:
340,101,38756,1,10,0:2:0:0:
130,78,38892,1,2,0:2:0:0:
383,56,39029,5,0,0:2:0:0:
396,78,39063,1,0,0:0:0:0:
383,56,39097,1,0,0:2:0:0:
266,41,39131,1,0,0:0:0:0:
145,87,39165,1,0,0:2:0:0:
170,99,39199,1,0,0:0:0:0:
202,103,39233,1,0,0:2:0:0:
394,194,39301,6,0,L|399:364,1,151.5,4|0,3:2|0:2,0:0:0:0:
221,356,39574,6,0,L|215:295,1,50.5,2|0,0:2|0:2,0:0:0:0:
142,305,39711,2,0,L|136:244,1,50.5,2|0,0:2|0:2,0:0:0:0:
315,246,39847,2,0,L|321:185,1,50.5,10|0,0:2|0:2,0:0:0:0:
394,194,39984,2,0,L|400:133,1,50.5,2|0,0:2|0:2,0:0:0:0:
239,160,40120,2,0,L|231:88,1,50.5,2|0,3:2|0:2,0:0:0:0:
76,110,40256,2,0,L|60:60,1,50.5,2|2,0:2|0:2,0:0:0:0:
225,175,40392,6,0,L|228:103,1,50.5,2|2,0:2|0:2,0:0:0:0:
394,118,40529,2,0,L|419:73,1,50.5,2|2,3:2|0:2,0:0:0:0:
251,313,40665,2,0,L|246:251,1,50.5,2|2,3:2|0:2,0:0:0:0:
75,245,40801,2,0,L|49:187,1,50.5,2|2,0:2|0:2,0:0:0:0:
230,160,40938,6,0,L|234:97,1,50.5,10|0,0:2|0:2,0:0:0:0:
413,82,41074,2,0,L|335:83,1,50.5,2|0,3:2|0:2,0:0:0:0:
210,225,41211,2,0,L|268:228,1,50.5,2|0,3:2|0:0,0:0:0:0:
439,320,41347,2,0,L|368:320,1,50.5
374,287,41756,2,0,B|496:199|496:199|362:202,1,227.2500086689,2|0,0:2|0:2,0:0:0:0:
237,247,42029,6,0,L|229:206,1,25.25,10|0,0:2|0:0,0:0:0:0:
332,202,42165,2,0,L|325:165,1,25.25,2|0,0:2|0:0,0:0:0:0:
115,141,42301,2,0,L|126:96,1,25.25,2|0,3:2|0:0,0:0:0:0:
221,114,42438,2,0,L|230:82,1,25.25,2|0,0:2|0:0,0:0:0:0:
412,40,42574,6,0,L|419:102,1,50.5,2|2,0:2|0:2,0:0:0:0:
253,192,42711,2,0,L|248:252,1,50.5,2|2,3:2|0:2,0:0:0:0:
412,246,42847,2,0,L|422:333,1,50.5,2|2,3:2|0:2,0:0:0:0:
343,296,42983,2,0,L|350:353,1,50.5,2|2,0:2|0:2,0:0:0:0:
175,351,43120,2,0,L|232:344,1,50.5,10|0,0:2|0:2,0:0:0:0:
374,169,43256,2,0,L|300:165,1,50.5,2|0,0:2|0:2,0:0:0:0:
136,49,43392,5,0,0:2:0:0:
123,71,43426,1,0,0:0:0:0:
136,49,43460,1,0,0:2:0:0:
243,48,43494,1,0,0:0:0:0:
350,96,43528,1,0,0:2:0:0:
325,108,43562,1,0,0:0:0:0:
293,112,43596,1,0,0:0:0:0:
137,189,43665,6,0,L|264:200,1,101,0|0,3:2|0:2,0:0:0:0:
265,203,43836,1,0,0:0:0:0:
77,314,43938,6,0,L|41:308,1,25.25,2|0,0:2|0:0,0:0:0:0:
144,269,44074,2,0,L|145:239,1,25.25,2|0,0:2|0:0,0:0:0:0:
314,197,44211,2,0,L|315:168,1,25.25,10|0,0:2|0:0,0:0:0:0:
225,115,44347,2,0,L|266:111,1,25.25,2|0,0:2|0:0,0:0:0:0:
436,31,44483,2,0,L|404:29,1,25.25,2|0,3:2|0:0,0:0:0:0:
325,318,44620,2,0,L|389:320,1,50.5,2|2,0:2|0:2,0:0:0:0:
208,363,44756,6,0,L|176:360,1,25.25,2|0,0:2|0:0,0:0:0:0:
367,249,44892,2,0,L|374:210,1,25.25,2|0,3:2|0:0,0:0:0:0:
275,203,45029,2,0,L|280:170,1,25.25,2|0,3:2|0:0,0:0:0:0:
183,149,45165,2,0,L|188:116,1,25.25,2|0,0:2|0:0,0:0:0:0:
419,44,45301,6,0,L|450:44,1,25.25,10|0,0:2|0:0,0:0:0:0:
419,44,45438,2,0,L|459:44,1,32.8249984973908,0|0,0:2|0:0,0:0:0:0:
419,44,45574,2,0,L|467:44,1,40.4,0|0,0:2|0:0,0:0:0:0:
419,44,45711,1,0,1:2:0:0:
239,113,45779,1,0,1:2:0:0:
59,191,45847,6,0,L|244:202,1,151.5,0|0,3:2|0:2,0:0:0:0:
440,364,46120,2,0,L|46:313,1,378.75,4|0,3:2|0:2,0:0:0:0:
266,260,46392,6,0,L|300:259,1,25.25,10|0,0:2|0:0,0:0:0:0:
210,199,46529,2,0,L|167:200,1,25.25,2|0,0:2|0:0,0:0:0:0:
369,163,46665,2,0,L|378:117,1,25.25,2|0,3:2|0:0,0:0:0:0:
286,97,46801,2,0,L|295:51,1,25.25,2|0,0:2|0:0,0:0:0:0:
78,70,46938,6,0,L|140:54,1,50.5,2|2,0:2|0:2,0:0:0:0:
274,245,47074,2,0,L|197:239,1,50.5,2|2,3:2|0:2,0:0:0:0:
68,303,47211,2,0,L|54:239,1,50.5,2|2,3:2|0:2,0:0:0:0:
138,237,47347,2,0,L|125:178,1,50.5,2|2,0:2|0:2,0:0:0:0:
306,145,47483,1,10,0:2:0:0:
92,118,47620,1,2,0:2:0:0:
317,310,47756,5,0,0:2:0:0:
330,324,47790,1,0,0:0:0:0:
317,310,47824,1,0,0:2:0:0:
205,334,47858,1,0,0:0:0:0:
91,329,47892,1,0,0:2:0:0:
78,307,47926,1,0,0:0:0:0:
91,329,47960,1,0,0:0:0:0:
267,359,48029,6,0,L|270:321,6,25.25,0|0|0|0|0|0|0,0:2|0:0|0:0|0:0|0:0|0:0|0:0,0:0:0:0:
450,266,48301,6,0,L|459:226,1,25.25,2|0,3:2|0:0,0:0:0:0:
369,213,48438,2,0,L|376:179,1,25.25,2|0,0:2|0:0,0:0:0:0:
172,123,48574,2,0,L|201:115,1,25.25,10|0,0:2|0:0,0:0:0:0:
374,38,48711,2,0,L|338:35,1,25.25,2|0,0:2|0:0,0:0:0:0:
169,211,48847,2,0,L|140:212,1,25.25,2|0,3:2|0:0,0:0:0:0:
56,152,48983,2,0,L|107:121,1,50.5,2|2,0:2|0:2,0:0:0:0:
251,353,49120,6,0,L|270:351,1,16.8333333333333,2|0,0:2|0:0,0:0:0:0:
209,296,49211,2,0,L|185:295,1,16.8333333333333,2|0,0:2|0:0,0:0:0:0:
249,243,49301,2,0,L|275:241,1,16.8333333333333,2|0,0:2|0:0,0:0:0:0:
412,213,49392,2,0,L|417:183,1,16.8333333333333,2|0,3:2|0:0,0:0:0:0:
265,157,49483,2,0,L|259:132,1,16.8333333333333,2|0,0:2|0:0,0:0:0:0:
110,126,49574,2,0,L|103:98,1,16.8333333333333,2|0,0:2|0:0,0:0:0:0:
258,67,49665,6,0,L|281:62,1,16.8333333333333,10|0,0:2|0:0,0:0:0:0:
118,39,49756,2,0,L|89:35,1,16.8333333333333,2|0,0:2|0:0,0:0:0:0:
263,68,49847,2,0,L|283:64,1,16.8333333333333,2|0,0:2|0:0,0:0:0:0:
113,98,49938,2,0,L|96:101,1,12.625,2|0,0:2|0:0,0:0:0:0:
240,212,50006,2,0,L|252:212,1,12.625,0|0,0:2|0:0,0:0:0:0:
393,293,50074,2,0,L|374:295,1,12.625,2|0,0:2|0:0,0:0:0:0:
202,349,50142,1,0,0:2:0:0:
176,349,50159,6,0,B|76:346|76:346|76:50,1,391.375,0|0,0:0|0:2,0:0:0:0:
276,56,50756,2,0,L|278:226,1,151.5,8|0,0:2|0:0,0:0:0:0:
72,234,51029,5,4,3:2:0:0:
72,259,51063,1,0,0:0:0:0:
72,284,51097,1,0,0:0:0:0:
95,289,51131,1,0,0:0:0:0:
122,289,51165,1,0,0:2:0:0:
67,326,51233,1,0,0:0:0:0:
232,354,51301,6,0,L|301:345,1,50.5,2|0,0:2|0:2,0:0:0:0:
230,324,51438,2,0,L|158:320,1,50.5,2|0,3:2|0:2,0:0:0:0:
347,275,51574,2,0,L|416:268,1,50.5,2|2,3:2|0:2,0:0:0:0:
254,160,51711,2,0,L|230:159,1,12.625,2|0,0:2|0:0,0:0:0:0:
197,105,51779,2,0,L|221:103,1,12.625,2|0,0:2|0:0,0:0:0:0:
385,61,51847,6,0,L|379:41,1,16.8333333333333,10|0,0:2|0:0,0:0:0:0:
322,41,51938,2,0,L|315:22,1,16.8333333333333,2|0,0:2|0:0,0:0:0:0:
257,33,52029,2,0,L|251:13,1,16.8333333333333,2|0,0:2|0:0,0:0:0:0:
412,155,52120,6,0,L|428:178,2,25.25,2|0|0,0:2|0:0|0:2,0:0:0:0:
310,151,52222,1,0,0:0:0:0:
205,206,52256,2,0,L|268:217,1,50.5,0|0,0:2|0:0,0:0:0:0:
401,262,52392,6,0,L|414:301,1,25.25,0|0,3:2|0:0,0:0:0:0:
316,300,52529,2,0,L|329:339,1,25.25,2|0,0:2|0:0,0:0:0:0:
129,353,52665,2,0,L|116:300,1,50.5,2|2,0:2|0:2,0:0:0:0:
196,290,52801,2,0,L|183:237,1,50.5,2|2,0:2|0:2,0:0:0:0:
340,144,52938,6,0,L|316:144,1,16.8333333333333,10|0,0:2|0:0,0:0:0:0:
164,54,53029,2,0,L|186:56,1,16.8333333333333,2|0,0:2|0:0,0:0:0:0:
343,44,53120,2,0,L|319:44,1,16.8333333333333,2|0,0:2|0:0,0:0:0:0:
155,151,53211,2,0,L|177:153,1,16.8333333333333,2|0,3:2|0:0,0:0:0:0:
235,181,53301,2,0,L|208:182,1,16.8333333333333,2|0,0:2|0:0,0:0:0:0:
155,151,53392,2,0,L|177:153,1,16.8333333333333,2|0,0:2|0:0,0:0:0:0:
347,245,53483,6,0,L|404:243,1,50.5,2|0,3:2|0:2,0:0:0:0:
239,288,53620,2,0,L|234:213,1,50.5,2|0,3:2|0:2,0:0:0:0:
401,207,53756,2,0,L|428:136,1,50.5,2|0,3:2|0:2,0:0:0:0:
268,145,53892,2,0,L|267:80,1,50.5,0|0,3:2|3:2,0:0:0:0:
113,105,54029,2,0,L|82:41,1,50.5,0|0,3:2|3:2,0:0:0:0:
241,34,54165,1,0,3:2:0:0:
390,37,54233,1,0,3:2:0:0:
243,60,54301,2,0,L|239:217,1,151.5,0|0,0:0|0:0,0:0:0:0:
44,280,54574,5,4,3:2:0:0:
160,334,54711,1,0,1:2:0:0:
164,284,54779,1,0,1:2:0:0:
169,234,54847,1,0,1:2:0:0:
300,250,54983,1,0,1:2:0:0:
304,199,55051,1,0,1:2:0:0:
309,149,55119,1,0,1:2:0:0:
450,162,55256,5,0,1:2:0:0:
445,111,55324,1,0,1:2:0:0:
440,61,55392,1,0,1:2:0:0:
314,153,55529,1,0,1:2:0:0:
309,102,55597,1,0,1:2:0:0:
304,52,55665,5,0,1:2:0:0:
176,159,55801,1,0,1:2:0:0:
171,108,55869,1,0,1:2:0:0:
166,58,55937,1,0,1:2:0:0:
40,219,56074,1,0,1:2:0:0:
91,224,56142,1,0,1:2:0:0:
141,229,56210,1,0,1:2:0:0:
265,339,56347,5,0,1:2:0:0:
214,344,56415,1,0,1:2:0:0:
164,349,56483,1,0,1:2:0:0:
285,269,56620,2,0,L|215:261,1,50.5,0|0,1:2|1:2,0:0:0:0:
71,113,56756,5,0,3:2:0:0:
189,84,56892,1,0,1:0:0:0:
317,74,57029,1,0,1:0:0:0:
447,83,57165,1,0,1:0:0:0:
228,194,57301,1,0,1:0:0:0:
360,210,57438,1,0,1:0:0:0:
132,302,57574,1,0,1:0:0:0:
264,316,57711,1,0,1:0:0:0:
32,351,57847,6,0,L|30:277,1,50.5,0|0,1:2|1:2,0:0:0:0:
177,289,57983,2,0,L|177:224,1,50.5,0|0,1:2|1:2,0:0:0:0:
327,231,58120,2,0,L|329:173,1,50.5,0|0,1:2|1:2,0:0:0:0:
477,179,58256,2,0,L|480:112,1,50.5,0|0,1:2|1:2,0:0:0:0:
240,101,58392,6,0,L|208:103,2,25.25,0|0|0,1:2|0:0|1:2,0:0:0:0:
349,78,58495,1,0,0:0:0:0:
456,41,58529,2,0,L|486:29,2,25.25,0|0|0,1:2|0:0|1:2,0:0:0:0:
359,91,58631,1,0,0:0:0:0:
264,125,58665,6,0,L|245:102,2,25.25,0|0|0,1:2|0:0|1:2,0:0:0:0:
302,139,58767,1,0,0:0:0:0:
340,148,58801,2,0,L|355:113,2,25.25,0|0|0,1:2|0:0|1:2,0:0:0:0:
309,160,58904,1,0,0:0:0:0:
104,206,58938,6,0,B|221:247|221:247|80:272,1,242.399992602539,4|2,3:2|0:2,0:0:0:0:
73,269,59245,1,0,0:0:0:0:
294,336,59347,1,8,0:2:0:0:
67,355,59483,5,2,3:2:0:0:
50,329,59517,1,0,0:0:0:0:
47,300,59551,1,0,0:0:0:0:
59,272,59585,1,0,0:0:0:0:
82,253,59619,1,0,0:0:0:0:
116,247,59653,1,0,0:0:0:0:
159,248,59687,1,0,0:2:0:0:
365,130,59756,6,0,L|333:126,1,25.25,10|0,0:2|0:0,0:0:0:0:
160,53,59892,2,0,L|202:46,1,25.25,2|0,0:2|0:0,0:0:0:0:
361,262,60029,2,0,L|370:215,1,25.25,2|0,3:2|0:0,0:0:0:0:
274,212,60165,2,0,L|283:165,1,25.25,2|0,0:2|0:0,0:0:0:0:
184,173,60301,2,0,L|193:126,1,25.25,2|0,0:2|0:0,0:0:0:0:
386,55,60438,2,0,L|377:8,1,25.25,10|0,0:2|0:0,0:0:0:0:
193,59,60574,6,0,L|278:50,1,67.3333333333333,2|0,3:2|0:2,0:0:0:0:
82,153,60756,2,0,L|159:146,1,67.3333333333333,2|8,0:2|0:2,0:0:0:0:
330,269,60938,2,0,L|246:270,1,67.3333333333333,2|0,0:2|0:2,0:0:0:0:
446,349,61120,5,2,3:2:0:0:
353,350,61154,1,0,0:0:0:0:
259,350,61188,1,0,0:0:0:0:
239,332,61222,1,0,0:0:0:0:
227,310,61256,1,0,0:0:0:0:
225,285,61290,1,0,0:0:0:0:
231,260,61324,1,0,0:0:0:0:
247,240,61358,1,0,0:0:0:0:
269,225,61392,1,0,0:2:0:0:
306,218,61426,1,0,0:0:0:0:
347,220,61460,1,0,0:0:0:0:
187,190,61529,6,0,L|119:186,1,50.5,8|0,0:2|0:0,0:0:0:0:
280,147,61665,2,0,L|281:80,1,50.5,2|2,3:2|0:2,0:0:0:0:
424,67,61801,2,0,L|363:62,1,50.5,2|2,0:2|0:2,0:0:0:0:
228,44,61938,2,0,L|289:37,1,50.5,10|2,0:2|0:2,0:0:0:0:
132,43,62074,2,0,L|66:45,1,50.5,2|2,0:2|0:2,0:0:0:0:
258,128,62211,5,2,3:2:0:0:
311,135,62279,1,2,0:2:0:0:
335,178,62347,1,2,0:2:0:0:
311,221,62415,1,2,0:2:0:0:
257,233,62483,1,2,0:2:0:0:
196,235,62551,1,2,0:2:0:0:
360,311,62620,1,10,0:2:0:0:
420,315,62688,1,2,0:2:0:0:
251,352,62756,6,0,L|245:313,6,25.25,2|0|0|0|0|0|0,3:2|0:0|0:0|0:0|0:0|0:0|0:2,0:0:0:0:
43,251,63029,6,0,L|246:166,1,189.375,10|0,0:2|0:2,0:0:0:0:
38,340,63301,6,0,L|35:169,1,151.5,2|0,3:2|0:2,0:0:0:0:
242,107,63574,5,2,0:2:0:0:
208,104,63608,1,0,0:0:0:0:
32,39,63711,1,0,0:0:0:0:
66,33,63745,1,0,0:0:0:0:
266,229,63847,6,0,B|132:183|132:183|225:138,1,212.099993527222,2|0,3:2|0:2,0:0:0:0:
374,113,64120,6,0,L|414:113,1,25.25,10|0,0:2|0:0,0:0:0:0:
219,36,64256,2,0,L|185:36,1,25.25,2|0,0:2|0:0,0:0:0:0:
399,207,64392,2,0,L|405:243,1,25.25,2|0,3:2|0:0,0:0:0:0:
319,265,64529,2,0,L|315:295,1,25.25,2|0,0:2|0:0,0:0:0:0:
402,313,64665,2,0,L|409:356,1,25.25,2|0,0:2|0:0,0:0:0:0:
212,369,64801,2,0,L|239:364,1,25.25,10|0,0:2|0:0,0:0:0:0:
445,124,64938,6,0,L|369:122,1,67.3333333333333,2|0,3:2|0:2,0:0:0:0:
195,43,65120,2,0,L|287:43,1,67.3333333333333,2|8,0:2|0:2,0:0:0:0:
77,124,65301,2,0,L|163:123,1,67.3333333333333,2|0,0:2|0:2,0:0:0:0:
343,263,65483,5,2,3:2:0:0:
244,284,65620,2,0,L|240:227,1,50.5,2|2,0:2|0:2,0:0:0:0:
82,245,65756,2,0,L|146:206,1,50.5,2|0,0:2|0:2,0:0:0:0:
285,148,65892,1,10,0:2:0:0:
255,129,65926,1,0,0:0:0:0:
222,124,65961,1,0,0:2:0:0:
60,129,66029,6,0,L|49:68,1,50.5,2|2,3:2|0:2,0:0:0:0:
205,41,66165,2,0,L|211:114,1,50.5,2|2,0:2|0:2,0:0:0:0:
369,157,66301,2,0,L|388:220,1,50.5,10|2,0:2|0:2,0:0:0:0:
224,255,66438,2,0,L|220:319,1,50.5,2|0,0:2|0:0,0:0:0:0:
63,356,66574,6,0,L|58:295,1,50.5,2|2,3:2|0:2,0:0:0:0:
137,289,66711,2,0,L|133:222,1,50.5,2|0,0:2|0:0,0:0:0:0:
299,284,66847,2,0,L|304:223,1,50.5,2|2,0:2|0:2,0:0:0:0:
135,173,66984,2,0,L|139:106,1,50.5,10|0,0:2|0:0,0:0:0:0:
341,29,67120,5,0,3:2:0:0:
369,31,67154,1,0,0:0:0:0:
394,43,67188,1,0,0:0:0:0:
411,63,67222,1,0,0:0:0:0:
418,87,67256,1,0,0:0:0:0:
413,112,67290,1,0,0:0:0:0:
397,132,67324,1,0,0:0:0:0:
373,146,67358,1,0,0:0:0:0:
342,149,67392,1,0,0:0:0:0:
306,152,67426,1,0,0:0:0:0:
240,187,67495,1,0,0:0:0:0:
179,219,67563,1,0,0:0:0:0:
240,187,67631,1,0,0:0:0:0:
423,154,67665,6,0,P|452:217|330:262,1,202,4|2,3:2|0:2,0:0:0:0:
282,294,68029,1,0,0:0:0:0:
358,279,68120,1,0,0:0:0:0:
156,233,68211,5,2,0:2:0:0:
182,231,68245,1,0,0:0:0:0:
207,228,68279,1,0,0:0:0:0:
232,225,68313,1,0,0:0:0:0:
257,222,68347,1,0,0:0:0:0:
282,219,68381,1,0,0:0:0:0:
307,216,68415,1,0,0:2:0:0:
140,162,68483,6,0,L|68:152,1,50.5,2|2,0:2|0:2,0:0:0:0:
272,42,68620,2,0,L|345:29,1,50.5,2|2,0:2|0:2,0:0:0:0:
135,95,68756,2,2,L|46:80,1,50.5,2|2,2:2|2:2,2:2:0:0:
271,128,68906,2,2,L|332:100,1,50.5,2|2,2:2|2:2,2:2:0:0:
139,24,69056,2,2,L|94:-9,1,50.5,2|2,2:2|2:2,2:2:0:0:
275,233,69206,2,2,L|311:182,1,50.5,2|2,2:2|2:2,2:2:0:0:
105,325,69356,6,0,L|81:243,1,67.3333333333333,2|0,0:2|0:2,0:0:0:0:
271,322,69556,2,0,L|273:222,1,67.3333333333333,2|0,0:2|0:2,0:0:0:0:
456,243,69756,2,0,L|484:158,1,67.3333333333333,2|0,0:2|0:2,0:0:0:0:
217,161,69956,6,0,B|468:122|468:122|399:19|399:19|352:143|352:143|334:277|334:277|390:180|390:180|470:284,1,883.75,2|0,0:2|0:0,0:0:0:0:
257,340,70541,6,0,L|187:343,1,50.5,2|2,0:2|0:2,0:0:0:0:
263,306,70687,2,0,L|356:302,1,50.5,2|2,0:2|0:2,0:0:0:0:
142,248,70833,2,0,L|89:248,1,50.5,2|2,0:2|0:2,0:0:0:0:
254,181,70983,2,0,L|312:175,1,50.5,2|2,0:2|0:2,0:0:0:0:
129,121,71133,6,0,L|66:116,1,50.5,2|2,0:2|0:2,0:0:0:0:
220,61,71283,2,0,L|157:28,1,50.5,2|2,0:2|0:2,0:0:0:0:
313,59,71433,2,0,L|257:9,1,50.5,2|2,0:2|0:2,0:0:0:0:
430,73,71594,2,0,L|398:20,1,50.5,2|2,0:2|0:2,0:0:0:0:
239,233,71756,6,0,L|322:229,1,67.3333333333333,0|0,3:2|0:2,0:0:0:0:
130,170,71966,2,0,L|205:167,1,67.3333333333333,0|0,3:2|0:2,0:0:0:0:
20,73,72177,2,0,L|103:62,1,67.3333333333333,0|0,3:2|0:2,0:0:0:0:
327,292,72387,5,4,3:2:0:0:
216,297,72546,1,0,1:2:0:0:
216,297,72626,1,0,1:2:0:0:
408,209,72706,1,0,3:2:0:0:
408,209,72785,1,0,1:2:0:0:
408,209,72865,1,0,1:2:0:0:
481,219,72945,1,0,1:2:0:0:
223,144,73025,5,0,3:2:0:0:
223,144,73105,1,0,1:2:0:0:
223,144,73184,1,0,1:2:0:0:
138,160,73264,1,0,1:2:0:0:
392,68,73344,1,0,3:2:0:0:
392,68,73424,1,0,1:2:0:0:
392,68,73504,1,0,1:2:0:0:
479,79,73583,1,0,1:2:0:0:
171,47,73663,5,0,3:2:0:0:
171,47,73748,1,0,1:2:0:0:
171,47,73834,1,0,1:2:0:0:
79,57,73920,1,0,1:2:0:0:
384,153,74005,1,0,3:2:0:0:
384,153,74091,1,0,1:2:0:0:
384,153,74177,1,0,1:2:0:0:
484,173,74263,1,0,1:2:0:0:
126,275,74348,5,0,3:2:0:0:
126,275,74434,1,0,1:2:0:0:
126,275,74520,1,0,1:2:0:0:
32,294,74605,1,0,1:2:0:0:
377,272,74691,1,0,3:2:0:0:
377,272,74777,1,0,1:2:0:0:
377,272,74863,1,0,1:2:0:0:
491,289,74948,1,0,1:2:0:0:
266,347,75034,6,0,L|263:271,1,50.5,0|0,3:2|0:0,0:0:0:0:
39,293,75219,2,0,L|28:230,1,50.5,0|0,3:2|0:0,0:0:0:0:
246,211,75404,2,0,L|247:134,1,50.5,0|0,3:2|0:0,0:0:0:0:
463,139,75589,2,0,L|491:60,1,50.5,0|0,3:2|0:0,0:0:0:0:
337,64,75728,1,0,0:0:0:0:
198,90,75774,6,0,L|189:28,1,50.5,0|0,3:2|0:0,0:0:0:0:
423,292,75960,1,0,3:2:0:0:
342,290,76053,1,0,0:0:0:0:
152,223,76146,1,0,3:2:0:0:
238,220,76239,1,0,0:0:0:0:
35,127,76333,2,0,L|28:53,1,50.5,0|0,3:2|0:0,0:0:0:0:
253,45,76519,5,0,3:2:0:0:
170,45,76612,1,0,3:2:0:0:
372,120,76706,1,0,3:2:0:0:
289,125,76800,1,0,3:2:0:0:
489,190,76894,1,0,3:2:0:0:
408,194,76987,1,0,3:2:0:0:
203,223,77081,1,0,3:2:0:0:
414,289,77175,1,0,3:2:0:0:
195,329,77269,6,0,L|35:290,1,151.5,0|0,0:0|0:0,0:0:0:0:
137,270,77644,2,0,L|334:255,1,189.375,0|0,0:0|0:0,0:0:0:0:
54,366,78019,6,0,B|30:206|30:206|47:41|47:41|382:49,1,646.4,4|2,3:2|0:2,0:0:0:0:
332,64,78440,2,0,L|167:66,1,151.499995376587,0|0,0:0|0:2,0:0:0:0:
435,155,78769,6,0,L|484:160,1,40.3999987670899,10|2,0:2|0:2,0:0:0:0:
313,222,78894,2,0,L|258:227,1,40.3999987670899,2|2,0:2|0:2,0:0:0:0:
325,241,79019,2,0,L|395:242,1,40.3999987670899,2|2,0:2|0:2,0:0:0:0:
194,314,79144,2,0,L|146:315,1,40.3999987670899,2|2,3:2|0:2,0:0:0:0:
203,329,79269,2,0,L|255:328,1,40.3999987670899,2|2,0:2|0:2,0:0:0:0:
82,360,79394,2,0,L|25:359,1,40.3999987670899,2|2,0:2|0:2,0:0:0:0:
222,218,79519,6,0,L|292:207,1,40.3999987670899,2|2,0:2|0:2,0:0:0:0:
211,197,79644,2,0,L|157:190,1,40.3999987670899,2|2,0:2|3:2,0:0:0:0:
360,147,79769,2,0,L|434:140,1,40.3999987670899,2|2,0:2|0:2,0:0:0:0:
229,113,79894,2,0,L|172:111,1,40.3999987670899,2|2,0:2|3:2,0:0:0:0:
381,62,80019,2,0,L|425:57,1,40.3999987670899,2|2,0:2|0:2,0:0:0:0:
240,30,80144,2,0,L|186:28,1,40.3999987670899,2|2,0:2|0:2,0:0:0:0:
23,310,80269,6,0,L|346:269,1,303.000011558533,10|0,0:2|0:2,0:0:0:0:
121,218,80550,5,2,0:2:0:0:
99,213,80573,1,0,0:0:0:0:
123,200,80597,1,0,0:0:0:0:
96,193,80620,1,0,0:0:0:0:
124,177,80644,1,0,0:0:0:0:
411,105,80831,5,2,0:2:0:0:
433,100,80854,1,0,0:0:0:0:
409,87,80878,1,0,0:0:0:0:
436,80,80901,1,0,0:0:0:0:
408,64,80925,1,0,0:2:0:0:
156,263,81019,6,0,B|177:170|177:170|316:146,1,227.2500086689,4|0,3:2|0:2,0:0:0:0:
109,90,81394,2,0,L|17:83,1,65.6499969947816,2|0,0:0|0:0,0:0:0:0:
250,27,81581,2,0,L|252:118,1,65.6499969947816,2|0,0:0|0:0,0:0:0:0:
465,164,81769,6,0,L|435:167,1,21.8833323315939,10|0,0:2|0:0,0:0:0:0:
364,225,81894,2,0,L|389:223,1,21.8833323315939,2|0,0:2|0:0,0:0:0:0:
465,281,82019,2,0,L|437:280,1,21.8833323315939,2|0,0:2|0:0,0:0:0:0:
233,367,82144,6,0,L|263:364,1,21.8833323315939,2|0,3:2|0:0,0:0:0:0:
339,307,82269,2,0,L|314:309,1,21.8833323315939,2|0,0:2|0:0,0:0:0:0:
235,253,82394,2,0,L|204:252,1,21.8833323315939,2|0,0:2|0:0,0:0:0:0:
45,93,82519,6,0,L|38:126,1,21.8833323315939,2|0,0:2|0:0,0:0:0:0:
131,150,82644,2,0,L|166:152,1,21.8833323315939,2|0,0:2|0:0,0:0:0:0:
246,143,82769,2,0,L|249:170,1,21.8833323315939,2|0,0:2|0:0,0:0:0:0:
48,253,82894,2,0,L|42:277,1,16.8333333333333,2|0,0:2|0:0,0:0:0:0:
242,312,83019,2,0,L|289:306,1,33.6666666666667,2|0,0:2|0:0,0:0:0:0:
94,356,83144,2,0,L|43:357,1,33.6666666666667,0|0,0:0|0:2,0:0:0:0:
296,185,83269,6,0,B|17:304|17:304|113:185,2,454.5000173378,10|0|0,0:2|3:2|3:2,0:0:0:0:
296,185,83878,6,0,B|296:19|296:19|296:340|296:340|296:257|296:257|296:342|296:342|296:289|296:289|296:342|296:342|11:293,1,1041.56252483279,0|2,0:0|0:2,0:0:0:0:
54,315,84440,1,0,0:2:0:0:
474,333,84769,6,0,L|479:289,1,40.3999987670899,10|2,0:2|0:2,0:0:0:0:
418,285,84894,2,0,L|412:243,1,40.3999987670899,2|2,0:2|0:2,0:0:0:0:
478,244,85019,2,0,L|482:183,1,40.3999987670899,2|2,0:2|0:2,0:0:0:0:
296,178,85144,6,0,L|234:175,1,40.3999987670899,2|2,3:2|0:2,0:0:0:0:
312,153,85269,2,0,L|361:149,1,40.3999987670899,2|2,0:2|0:2,0:0:0:0:
174,100,85394,2,0,L|130:95,1,40.3999987670899,2|2,0:2|0:2,0:0:0:0:
308,57,85519,2,0,L|370:49,1,40.3999987670899,2|2,0:2|0:2,0:0:0:0:
294,35,85644,6,0,L|235:38,1,40.3999987670899,2|2,0:2|3:2,0:0:0:0:
68,221,85769,2,0,L|128:229,1,40.3999987670899,2|2,0:2|0:2,0:0:0:0:
277,337,85894,2,0,L|214:339,1,40.3999987670899,2|2,0:2|3:2,0:0:0:0:
81,348,86019,2,0,L|22:350,1,40.3999987670899,2|2,0:2|0:2,0:0:0:0:
222,251,86144,2,0,L|282:251,1,40.3999987670899,2|2,0:2|0:2,0:0:0:0:
456,326,86269,6,0,L|133:285,1,303.000011558533,10|0,0:2|0:2,0:0:0:0:
358,234,86550,5,2,0:2:0:0:
380,229,86573,1,0,0:0:0:0:
356,216,86597,1,0,0:0:0:0:
383,209,86620,1,0,0:0:0:0:
355,193,86644,1,0,0:0:0:0:
72,119,86831,5,2,0:2:0:0:
50,114,86854,1,0,0:0:0:0:
74,101,86878,1,0,0:0:0:0:
47,94,86901,1,0,0:0:0:0:
75,78,86925,1,0,0:2:0:0:
311,58,87019,5,0,3:2:0:0:
358,58,87065,2,0,B|88:162|88:162|213:179,1,361.075004958611,0|0,0:0|0:2,0:0:0:0:
380,215,87394,6,0,L|471:217,1,60.5999981506348,2|2,0:2|0:2,0:0:0:0:
246,352,87581,2,0,L|242:309,1,30.8049987308732,2|0,0:2|0:2,0:0:0:0:
302,316,87675,2,0,L|304:263,1,30.8049987308732,0|0,0:2|0:2,0:0:0:0:
128,268,87769,2,0,L|49:261,1,60.5999981506348,10|2,0:2|0:2,0:0:0:0:
268,210,87956,2,0,L|269:132,1,61.6099974617463,2|0,0:2|0:0,0:0:0:0:
470,87,88144,6,0,L|397:85,1,60.5999981506348,2|2,3:2|0:2,0:0:0:0:
216,176,88331,2,0,L|212:133,1,30.8049987308732,2|0,0:2|0:2,0:0:0:0:
272,140,88425,2,0,L|274:87,1,30.8049987308732,0|0,0:2|0:2,0:0:0:0:
100,78,88519,2,0,L|23:72,1,60.5999981506348,2|2,0:2|0:2,0:0:0:0:
249,310,88706,6,0,L|253:267,1,30.8049987308732,2|0,3:2|0:0,0:0:0:0:
196,281,88800,2,0,L|194:228,1,30.8049987308732,0|0,0:2|0:0,0:0:0:0:
253,229,88894,1,2,0:2:0:0:
450,207,88987,5,2,3:2:0:0:
250,211,89081,2,0,L|246:168,1,30.8049987308732,2|0,0:2|0:2,0:0:0:0:
310,177,89175,2,0,L|312:124,1,30.8049987308732,0|0,0:2|0:2,0:0:0:0:
110,114,89269,6,0,L|21:109,1,60.5999981506348,8|0,0:2|0:0,0:0:0:0:
253,41,89456,2,0,L|169:47,1,61.6099974617463,2|0,0:0|0:0,0:0:0:0:
401,116,89644,2,0,L|435:116,1,30.8049987308732,2|0,0:2|0:0,0:0:0:0:
401,116,89831,1,8,0:2:0:0:
219,193,89925,1,8,0:2:0:0:
33,371,90019,6,0,B|30:206|30:206|41:46|41:46|341:35,1,565.6,4|0,3:2|0:0,0:0:0:0:
324,53,90394,2,0,L|145:79,1,181.799994451904,6|0,0:2|0:2,0:0:0:0:
375,154,90769,6,0,L|449:158,1,60.5999981506348,10|2,0:2|0:2,0:0:0:0:
239,233,90956,2,0,L|318:238,1,60.5999981506348,2|2,0:2|0:2,0:0:0:0:
102,306,91144,2,0,L|11:314,1,60.5999981506348,2|2,3:2|0:2,0:0:0:0:
234,345,91331,2,0,L|261:345,4,15.1499995376587,2|0|0|0|0,0:2|0:0|0:0|0:0|0:2,0:0:0:0:
428,300,91519,6,0,L|506:298,1,60.5999981506348,2|2,0:2|0:2,0:0:0:0:
304,260,91706,2,0,L|298:179,1,60.5999981506348,2|2,3:2|0:2,0:0:0:0:
114,157,91894,1,2,0:2:0:0:
299,199,91987,1,2,3:2:0:0:
114,157,92081,2,0,L|87:157,4,15.1499995376587,2|0|0|0|0,0:2|0:0|0:0|0:0|0:2,0:0:0:0:
321,39,92269,5,10,0:2:0:0:
309,62,92292,1,0,0:0:0:0:
295,83,92315,1,0,0:0:0:0:
276,101,92339,1,0,0:0:0:0:
255,115,92362,1,0,0:0:0:0:
232,126,92386,1,0,0:0:0:0:
232,160,92409,1,0,0:0:0:0:
232,185,92433,1,0,0:0:0:0:
232,217,92456,1,0,0:2:0:0:
442,336,92550,5,2,0:2:0:0:
464,331,92573,1,0,0:0:0:0:
440,318,92597,1,0,0:0:0:0:
467,311,92620,1,0,0:0:0:0:
439,295,92644,1,0,0:0:0:0:
151,350,92831,5,2,0:2:0:0:
129,345,92854,1,0,0:0:0:0:
153,332,92878,1,0,0:0:0:0:
126,325,92901,1,0,0:0:0:0:
154,309,92925,1,0,0:2:0:0:
374,311,93019,6,0,L|381:118,1,181.799994451904,2|0,0:0|0:0,0:0:0:0:
150,84,93394,6,0,L|303:78,1,126.25,0|2,3:2|0:2,0:0:0:0:
325,80,93644,1,2,0:2:0:0:
276,79,93706,1,2,0:2:0:0:
86,182,93769,6,0,L|7:188,1,63.125,10|2,0:2|0:2,0:0:0:0:
218,252,93956,2,0,L|223:334,1,63.125,2|0,0:2|0:2,0:0:0:0:
418,344,94144,2,0,L|498:344,1,63.125,2|2,3:2|0:2,0:0:0:0:
288,312,94331,2,0,L|285:229,1,63.125,2|0,0:2|0:2,0:0:0:0:
90,197,94519,2,0,L|165:191,1,63.125,2|2,0:2|0:2,0:0:0:0:
354,89,94706,2,0,L|270:89,1,63.125,2|0,3:2|0:2,0:0:0:0:
104,76,94894,1,2,0:2:0:0:
293,60,94987,2,0,L|212:60,1,63.125,2|0,3:2|0:2,0:0:0:0:
36,25,95175,1,2,0:2:0:0:
226,181,95269,6,0,B|391:52|391:52|505:210|505:210|313:290,2,606,10|0|0,0:2|3:2|3:2,0:0:0:0:
226,181,95878,6,0,L|226:154,1,27.775,0|2,0:0|0:2,0:0:0:0:
226,153,96440,1,0,0:0:0:0:
469,176,96769,6,0,L|492:260,3,63.125,10|2|2|2,0:2|0:2|0:2|0:2,0:0:0:0:
275,255,97144,6,0,L|190:261,1,63.125,6|2,3:2|0:2,0:0:0:0:
414,309,97331,2,0,L|371:326,1,31.5625,2|0,0:2|0:0,0:0:0:0:
348,328,97425,1,0,0:2:0:0:
164,351,97519,2,0,L|244:348,1,63.125,2|2,0:2|0:2,0:0:0:0:
43,291,97706,2,0,L|37:208,1,63.125,2|2,3:2|0:2,0:0:0:0:
211,174,97894,1,2,0:2:0:0:
34,152,97987,2,0,L|100:117,1,63.125,2|2,3:2|0:2,0:0:0:0:
211,94,98128,1,0,0:0:0:0:
330,97,98175,1,0,0:2:0:0:
131,252,98269,6,0,L|116:213,4,31.5625,10|0|0|0|0,0:2|0:0|0:0|0:0|0:2,0:0:0:0:
302,265,98550,2,0,L|307:209,4,31.5625,2|0|0|0|0,0:2|0:0|0:0|0:0|0:2,0:0:0:0:
475,244,98831,2,0,L|482:199,2,31.5625,2|0|0,0:2|0:0|0:2,0:0:0:0:
209,353,99019,6,0,B|481:220|481:220|481:61,1,454.5000173378,0|0,3:2|0:2,0:0:0:0:
285,80,99394,2,0,L|352:78,1,63.125,2|0,0:2|0:0,0:0:0:0:
151,124,99581,2,0,L|125:78,2,42.0833333333333,2|2|2,0:2|0:2|0:2,0:0:0:0:
455,223,99769,5,10,0:2:0:0:
252,42,99894,1,2,3:2:0:0:
48,217,100019,1,2,3:2:0:0:
467,344,100144,5,10,0:2:0:0:
252,77,100269,1,2,3:2:0:0:
34,345,100394,1,2,3:2:0:0:
300,329,100519,6,0,L|413:322,1,63.125,0|0,3:2|0:0,0:0:0:0:
154,275,100706,2,0,L|59:277,1,63.125,8|8,0:3|0:3,0:0:0:0:
295,189,100894,2,0,L|218:185,1,63.125,4|0,0:3|0:0,0:0:0:0:
437,108,101081,2,0,L|346:107,1,63.125,8|8,0:3|0:3,0:0:0:0:
226,84,101222,1,0,0:0:0:0:
78,71,101269,6,0,L|112:71,1,31.5625,4|0,3:3|3:2,0:0:0:0:
295,189,101362,2,0,L|334:186,1,31.5625,0|0,3:2|3:2,0:0:0:0:
131,263,101456,2,0,L|89:269,1,31.5625,0|0,3:2|3:2,0:0:0:0:
268,331,101550,2,0,L|299:328,1,31.5625,0|0,3:2|3:2,0:0:0:0:
467,245,101644,6,0,L|426:252,1,31.5625,0|0,3:2|3:2,0:0:0:0:
284,207,101737,2,0,L|241:202,1,31.5625,0|0,3:2|3:2,0:0:0:0:
102,163,101831,2,0,L|50:163,1,31.5625,0|0,3:2|3:2,0:0:0:0:
231,92,101925,2,0,L|272:90,1,31.5625,0|0,3:2|3:2,0:0:0:0:
461,96,102023,5,4,3:2:0:0:
256,192,102091,12,0,105841,0:2:0:0:
88,54,106386,6,0,P|261:78|25:277,1,707,2|2,0:0|0:0,0:0:0:0:
254,203,110750,5,2,0:2:0:0:
254,203,111159,1,2,0:2:0:0:
254,203,111568,1,2,0:2:0:0:
473,202,111841,1,2,0:2:0:0:
253,133,112659,1,2,0:2:0:0:
480,114,112932,5,2,0:2:0:0:
258,77,113341,1,2,0:2:0:0:
38,142,113750,1,2,0:2:0:0:
261,295,114023,1,2,0:2:0:0:
29,341,114841,1,2,0:2:0:0:
254,262,115114,5,2,0:2:0:0:
254,262,115523,1,2,0:2:0:0:
254,262,115932,1,2,0:2:0:0:
497,254,116205,1,2,0:2:0:0:
245,170,117023,1,2,0:2:0:0:
26,134,117295,5,2,0:2:0:0:
248,80,117705,1,2,0:2:0:0:
482,118,118114,1,2,0:2:0:0:
253,200,118386,1,2,0:2:0:0:
253,200,118659,1,2,0:2:0:0:
16,347,119205,1,2,0:2:0:0:
249,325,119477,5,2,0:2:0:0:
249,325,119886,1,2,0:2:0:0:
249,325,120295,1,2,0:2:0:0:
484,294,120568,1,2,0:2:0:0:
70,163,121386,1,2,0:2:0:0:
317,189,121659,5,2,0:2:0:0:
317,189,122068,1,2,0:2:0:0:
317,189,122477,1,2,0:2:0:0:
60,137,122750,1,2,0:2:0:0:
253,103,123568,1,2,0:2:0:0:
489,237,123841,5,2,0:2:0:0:
256,192,124114,12,0,126977,0:0:0:0:
274,22,127113,6,0,P|393:39|267:326,1,568.12502167225,0|0,3:2|0:0,0:0:0:0:
55,340,128204,6,0,P|34:244|139:189,1,202,4|0,3:2|0:0,0:0:0:0:
330,105,128750,1,0,0:0:0:0:
229,105,128886,1,0,0:0:0:0:
128,104,129022,1,0,0:0:0:0:
246,77,129159,6,0,L|445:48,1,202,2|0,0:0|0:0,0:0:0:0:
330,105,129568,1,0,0:0:0:0:
327,198,129704,1,0,0:0:0:0:
211,232,129840,5,2,0:0:0:0:
445,277,130113,1,2,0:2:0:0:
128,355,130522,2,0,L|123:249,1,101,0|2,0:0|0:2,0:0:0:0:
366,295,130931,1,2,0:2:0:0:
369,194,131067,1,0,0:0:0:0:
373,93,131203,1,0,0:0:0:0:
243,99,131340,6,0,L|237:340,1,202,2|0,0:2|0:2,0:0:0:0:
107,346,131749,1,0,0:0:0:0:
214,356,131885,1,2,0:2:0:0:
349,247,132022,1,0,0:2:0:0:
237,262,132159,1,0,0:2:0:0:
365,336,132295,1,2,0:2:0:0:
365,336,132431,1,0,0:2:0:0:
128,198,132568,5,2,3:2:0:0:
128,198,132704,1,0,0:0:0:0:
252,273,132840,2,0,L|258:68,1,202,2|0,0:0|0:0,0:0:0:0:
378,48,133250,1,0,0:0:0:0:
257,71,133386,1,0,0:0:0:0:
378,48,133522,5,2,0:0:0:0:
158,174,133795,1,0,0:0:0:0:
259,219,133931,1,0,0:0:0:0:
362,247,134068,1,0,0:0:0:0:
252,317,134204,5,2,0:0:0:0:
437,348,134477,1,2,0:2:0:0:
169,359,134886,2,0,L|164:250,1,101,0|2,0:0|0:2,0:0:0:0:
393,219,135295,1,2,0:2:0:0:
153,167,135568,2,0,L|263:138,1,101,2|0,0:2|0:2,0:0:0:0:
115,50,135840,2,0,L|101:179,1,101,2|0,0:2|0:2,0:0:0:0:
236,117,136113,2,0,L|253:234,1,101,2|0,0:2|0:2,0:0:0:0:
388,281,136386,2,0,L|282:272,1,101,2|2,0:2|0:2,0:0:0:0:
147,361,136659,2,0,L|246:343,1,101,2|0,0:2|0:0,0:0:0:0:
18,266,136931,5,4,3:2:0:0:
132,262,137068,2,0,L|135:197,2,50.5,0|0|0,1:2|0:0|1:2,0:0:0:0:
259,143,137341,1,0,1:2:0:0:
122,59,137477,2,0,L|238:3,1,101,0|0,1:2|1:2,0:0:0:0:
349,32,137750,1,0,1:2:0:0:
119,267,137886,6,0,L|103:218,2,50.5,0|0|0,1:2|1:2|1:2,0:0:0:0:
255,209,138159,2,0,L|209:186,1,50.5,0|0,1:2|0:0,0:0:0:0:
154,189,138295,1,0,1:2:0:0:
274,136,138431,1,0,1:2:0:0:
494,99,138568,6,0,L|357:80,1,101,0|0,1:2|1:2,0:0:0:0:
259,170,138840,1,0,1:2:0:0:
402,207,138977,2,0,L|430:262,2,50.5,0|0|0,1:2|0:0|1:2,0:0:0:0:
170,324,139250,6,0,L|227:352,1,50.5,0|0,1:2|0:0,0:0:0:0:
271,344,139386,1,0,1:2:0:0:
143,368,139522,1,0,1:2:0:0:
268,354,139659,1,0,1:2:0:0:
395,345,139795,1,0,1:2:0:0:
175,230,139931,5,0,1:2:0:0:
298,230,140068,2,0,L|308:168,1,50.5,0|0,1:2|0:0,0:0:0:0:
148,128,140204,1,0,1:2:0:0:
255,37,140341,2,0,L|198:65,1,50.5,0|0,1:2|0:0,0:0:0:0:
154,57,140477,1,0,1:2:0:0:
402,13,140613,5,0,1:2:0:0:
380,112,140750,1,0,1:2:0:0:
157,225,140886,1,0,1:2:0:0:
376,310,141022,1,0,1:2:0:0:
126,346,141159,2,0,L|58:344,1,50.5,0|0,1:2|0:0,0:0:0:0:
269,358,141295,5,0,3:0:0:0:
161,359,141431,2,0,L|146:295,1,50.5,0|0,1:2|1:2,0:0:0:0:
325,287,141568,1,0,3:0:0:0:
215,269,141704,2,0,L|204:199,1,50.5,0|0,1:2|1:2,0:0:0:0:
375,203,141840,1,0,3:0:0:0:
266,171,141977,2,0,L|268:102,1,50.5,0|0,1:2|0:0,0:0:0:0:
428,115,142113,1,0,3:0:0:0:
318,70,142250,2,0,L|347:10,1,50.5,0|0,1:2|0:0,0:0:0:0:
496,59,142386,5,0,3:0:0:0:
386,143,142522,2,0,L|435:109,1,50.5,0|0,1:2|1:2,0:0:0:0:
233,270,142659,1,0,3:0:0:0:
347,257,142795,2,0,L|286:233,1,50.5,0|0,1:2|1:2,0:0:0:0:
118,249,142931,1,0,3:0:0:0:
233,180,143068,2,0,L|168:176,1,50.5,0|0,1:2|0:0,0:0:0:0:
26,151,143204,1,0,3:0:0:0:
257,87,143340,2,0,L|198:85,1,50.5,0|0,1:2|1:2,0:0:0:0:
33,289,143477,6,0,L|43:205,1,50.5,0|0,3:2|1:2,0:0:0:0:
186,336,143613,2,0,L|194:267,1,50.5,0|0,3:2|1:2,0:0:0:0:
344,282,143750,2,0,L|356:217,1,50.5,0|0,3:2|1:2,0:0:0:0:
200,216,143886,2,0,L|182:132,1,50.5,0|0,3:2|1:2,0:0:0:0:
359,157,144022,6,0,L|350:91,1,50.5,0|0,3:2|1:2,0:0:0:0:
219,91,144159,2,0,L|205:11,1,50.5,0|0,3:2|1:2,0:0:0:0:
75,95,144295,2,0,L|62:26,1,50.5,0|0,3:2|1:2,0:0:0:0:
236,171,144431,2,0,L|240:98,1,50.5,0|0,3:2|1:2,0:0:0:0:
412,229,144568,5,0,3:2:0:0:
266,237,144636,1,0,3:2:0:0:
115,263,144704,1,0,3:2:0:0:
266,335,144772,1,0,3:2:0:0:
419,347,144840,1,0,3:2:0:0:
263,352,144909,1,0,3:2:0:0:
108,358,144977,1,0,3:2:0:0:
266,335,145045,6,0,L|476:177,1,252.5,0|0,3:2|0:0,0:0:0:0:
64,275,145659,6,0,L|55:149,1,101,4|0,3:2|0:2,0:0:0:0:
209,192,145863,2,0,L|212:77,1,101,0|0,3:2|0:2,0:0:0:0:
366,56,146068,2,0,L|443:48,1,50.5,0|0,3:2|0:2,0:0:0:0:
236,361,146204,6,0,L|128:355,1,101,4|0,3:2|0:2,0:0:0:0:
290,313,146409,2,0,L|290:184,1,101,0|0,3:2|0:2,0:0:0:0:
443,213,146613,2,0,L|447:154,1,50.5,0|0,3:2|0:2,0:0:0:0:
285,104,146750,6,0,L|412:90,1,101,4|0,3:2|0:2,0:0:0:0:
228,36,146954,2,0,L|94:31,1,101,0|0,3:2|0:2,0:0:0:0:
289,241,147159,2,0,L|375:233,1,50.5,0|0,3:2|0:2,0:0:0:0:
156,355,147295,6,0,L|37:339,1,101,4|0,3:2|0:2,0:0:0:0:
222,315,147500,2,0,L|225:180,1,101,0|0,3:2|0:2,0:0:0:0:
389,171,147704,2,0,L|447:167,1,50.5,0|0,3:2|0:2,0:0:0:0:
285,104,147841,6,0,L|169:104,1,101,4|0,3:2|0:2,0:0:0:0:
351,206,148045,2,0,L|361:333,1,101,0|0,3:2|0:2,0:0:0:0:
199,299,148250,2,0,L|194:369,1,50.5,0|0,3:2|0:2,0:0:0:0:
38,205,148386,6,0,L|174:186,1,101,4|0,3:2|0:2,0:0:0:0:
295,52,148591,2,0,L|193:43,1,101,0|0,3:2|0:2,0:0:0:0:
349,120,148795,2,0,L|409:118,1,50.5,0|0,3:2|0:2,0:0:0:0:
216,244,148932,6,0,L|91:246,1,101,4|0,3:2|0:2,0:0:0:0:
277,163,149136,2,0,L|277:300,1,101,0|0,3:2|0:2,0:0:0:0:
441,339,149341,2,0,L|380:342,1,50.5,0|0,3:2|0:2,0:0:0:0:
213,362,149477,6,0,L|327:338,1,101,4|0,3:2|0:2,0:0:0:0:
140,293,149682,2,0,L|31:279,1,101,0|0,3:2|0:2,0:0:0:0:
206,218,149886,2,0,L|209:148,1,50.5,0|0,3:2|0:2,0:0:0:0:
378,89,150023,6,0,L|304:86,1,50.5,0|0,3:0|0:0,0:0:0:0:
149,78,150159,2,0,L|86:47,1,50.5,0|0,3:0|0:0,0:0:0:0:
305,198,150295,2,0,L|255:152,1,50.5,0|0,3:0|3:0,0:0:0:0:
86,172,150432,2,0,L|45:123,1,50.5,0|0,3:0|0:0,0:0:0:0:
266,155,150568,6,0,L|246:86,1,50.5,0|0,3:0|0:0,0:0:0:0:
46,92,150704,2,0,L|63:23,1,50.5,0|0,3:0|3:0,0:0:0:0:
275,35,150841,2,0,L|338:26,1,50.5,0|0,3:0|0:0,0:0:0:0:
126,240,150977,2,0,L|208:236,1,50.5,0|0,3:0|0:0,0:0:0:0:
323,240,151113,5,0,3:0:0:0:
474,250,151182,1,0,3:0:0:0:
326,326,151250,1,0,3:0:0:0:
180,344,151318,1,0,3:0:0:0:
328,352,151386,1,0,3:0:0:0:
477,353,151454,1,0,3:0:0:0:
323,309,151523,1,0,3:0:0:0:
169,297,151591,1,0,3:0:0:0:
325,275,151659,5,0,3:0:0:0:
482,271,151727,1,0,3:0:0:0:
322,231,151795,1,0,3:0:0:0:
160,235,151863,1,0,3:0:0:0:
325,186,151932,1,0,3:0:0:0:
488,179,152000,1,0,3:0:0:0:
322,148,152068,1,0,3:0:0:0:
152,161,152136,1,0,3:0:0:0:
325,121,152204,5,0,3:0:0:0:
410,104,152295,1,0,3:0:0:0:
235,74,152386,1,0,3:0:0:0:
56,47,152477,1,0,3:0:0:0:
141,30,152568,1,0,3:0:0:0:
332,34,152659,1,0,3:0:0:0:
135,217,152750,5,0,3:0:0:0:
50,200,152841,1,0,3:0:0:0:
233,298,152932,1,0,3:0:0:0:
418,335,153023,1,0,3:0:0:0:
333,352,153114,1,0,3:0:0:0:
112,339,153204,2,0,L|134:335,1,16.8333333333333,0|0,3:0|0:0,0:0:0:0:
365,126,154045,5,2,0:2:0:0:
403,121,154079,1,0,0:2:0:0:
181,56,154182,1,2,0:2:0:0:
141,52,154216,1,0,0:0:0:0:
454,38,154386,6,0,L|461:204,1,151.5,6|0,3:2|0:2,0:0:0:0:
219,271,154659,6,0,B|459:123|459:123|379:252,1,416.625003973246,2|0,3:2|0:2,0:0:0:0:
192,331,154932,6,0,L|200:291,1,25.25,2|0,3:2|0:0,0:0:0:0:
289,282,155068,2,0,L|297:242,1,25.25,2|0,0:2|0:0,0:0:0:0:
92,227,155204,6,0,L|84:187,1,25.25,2|0,3:2|0:0,0:0:0:0:
179,161,155341,2,0,L|171:121,1,25.25,2|0,0:2|0:0,0:0:0:0:
374,59,155478,6,0,L|441:58,1,50.5,2|0,3:2|0:0,0:0:0:0:
262,158,155614,2,0,L|261:87,1,50.5,2|0,0:2|3:0,0:0:0:0:
98,361,155750,2,0,L|93:307,1,50.5,2|0,3:2|0:0,0:0:0:0:
176,303,155887,2,0,L|170:239,1,50.5,0|0,3:0|0:0,0:0:0:0:
383,204,156023,1,2,3:2:0:0:
173,181,156159,1,2,3:2:0:0:
416,124,156295,6,0,L|431:96,2,25.25,0|0|0,3:2|0:0|0:2,0:0:0:0:
312,142,156398,1,0,0:0:0:0:
205,105,156432,2,0,L|190:77,2,25.25,0|0|0,0:2|0:0|0:2,0:0:0:0:
416,124,156568,6,0,L|421:294,1,151.5,6|0,3:2|0:2,0:0:0:0:
231,357,156841,6,0,L|225:296,1,50.5,2|0,3:2|0:2,0:0:0:0:
147,304,156978,2,0,L|141:243,1,50.5,2|0,0:2|0:2,0:0:0:0:
312,243,157114,2,0,L|318:182,1,50.5,2|0,3:2|0:2,0:0:0:0:
398,186,157251,2,0,L|404:125,1,50.5,2|0,0:2|1:2,0:0:0:0:
241,137,157387,2,0,L|240:60,1,50.5,2|0,3:2|0:2,0:0:0:0:
73,99,157523,2,0,L|65:38,1,50.5,2|0,0:2|0:2,0:0:0:0:
235,49,157659,6,0,L|241:113,1,50.5,2|0,3:2|0:0,0:0:0:0:
408,144,157795,2,0,L|415:71,1,50.5,2|2,0:2|0:2,0:0:0:0:
248,221,157932,2,0,L|239:153,1,50.5,2|0,3:2|0:0,0:0:0:0:
382,340,158068,2,0,L|309:343,1,50.5,2|0,0:2|0:0,0:0:0:0:
192,316,158204,6,0,L|190:249,1,50.5,2|0,3:2|0:0,0:0:0:0:
44,201,158341,2,0,L|102:191,1,50.5,0|0,0:0|0:2,0:0:0:0:
260,145,158477,2,0,L|276:119,2,25.25,2|0|0,3:2|0:0|0:0,0:0:0:0:
161,157,158579,1,0,0:0:0:0:
61,79,158613,1,0,0:0:0:0:
86,91,158647,1,0,0:0:0:0:
118,95,158681,1,0,0:2:0:0:
287,224,158750,5,6,3:2:0:0:
315,221,158784,1,0,0:0:0:0:
336,205,158818,1,0,0:0:0:0:
344,182,158852,1,0,0:0:0:0:
335,158,158886,1,0,0:0:0:0:
315,142,158920,1,0,0:0:0:0:
287,140,158954,1,0,0:0:0:0:
104,360,159023,6,0,B|334:300|334:300|336:140,1,356.02499456749,2|0,3:2|0:2,0:0:0:0:
176,124,159295,6,0,L|93:121,1,50.5,2|0,3:2|0:2,0:0:0:0:
189,100,159432,2,0,L|130:97,1,50.5,2|0,0:2|1:2,0:0:0:0:
285,73,159568,2,0,L|348:83,1,50.5,2|0,3:2|0:2,0:0:0:0:
271,114,159705,2,0,L|363:117,1,50.5,2|0,0:2|0:2,0:0:0:0:
168,217,159841,6,0,L|161:290,1,50.5,2|0,3:2|0:0,0:0:0:0:
299,263,159977,2,0,L|301:344,1,50.5,2|0,0:2|0:0,0:0:0:0:
438,341,160113,2,0,L|503:341,1,50.5,2|2,3:2|0:2,0:0:0:0:
321,232,160250,2,0,L|235:236,1,50.5,2|0,0:2|0:0,0:0:0:0:
445,165,160386,1,2,3:2:0:0:
218,137,160523,1,2,0:2:0:0:
445,91,160659,6,0,L|480:87,1,25.25,0|0,3:2|0:0,0:0:0:0:
428,71,160727,1,0,0:2:0:0:
332,57,160761,1,0,0:0:0:0:
236,56,160795,2,0,L|201:52,1,25.25,0|0,0:2|0:0,0:0:0:0:
253,36,160863,1,0,0:2:0:0:
417,182,160932,5,4,3:2:0:0:
316,249,161068,2,0,L|369:254,1,50.5,2|0,0:2|0:2,0:0:0:0:
183,330,161204,6,0,L|151:327,1,25.25,2|0,3:2|0:0,0:0:0:0:
343,166,161341,2,0,L|303:165,1,25.25,2|0,0:2|0:0,0:0:0:0:
116,132,161477,2,0,L|114:100,1,25.25,2|0,3:2|0:0,0:0:0:0:
197,50,161613,2,0,L|140:50,1,50.5,2|0,0:2|1:2,0:0:0:0:
294,326,161750,2,0,L|329:330,1,25.25,2|0,3:2|0:0,0:0:0:0:
235,264,161886,2,0,L|301:258,1,50.5,2|0,0:2|0:2,0:0:0:0:
117,197,162023,6,0,L|36:193,1,67.3333333333333,2|0,3:2|0:2,0:0:0:0:
247,102,162204,2,0,L|167:101,1,67.3333333333333,2|0,3:2|0:2,0:0:0:0:
379,56,162386,2,0,L|462:54,1,67.3333333333333,2|0,3:2|0:2,0:0:0:0:
217,22,162568,5,0,3:0:0:0:
157,121,162704,2,0,L|145:149,1,25.25,2|0,0:2|0:0,0:0:0:0:
219,222,162841,2,0,L|229:255,1,25.25,2|0,0:2|0:0,0:0:0:0:
311,289,162977,2,0,L|338:302,1,25.25,2|0,0:2|0:0,0:0:0:0:
424,313,163113,2,0,L|454:313,1,25.25,2|0,0:2|0:0,0:0:0:0:
30,42,163386,6,0,B|285:67|285:67|288:214,1,386.324994842005,0|0,3:2|0:2,0:0:0:0:
108,244,163659,2,0,L|68:246,1,25.25,14|0,0:2|0:0,0:0:0:0:
172,301,163795,2,0,L|174:337,1,25.25,2|0,0:2|0:0,0:0:0:0:
375,100,163932,6,0,L|340:102,1,25.25,2|0,3:2|0:0,0:0:0:0:
267,39,164068,2,0,L|300:37,1,25.25,2|0,0:2|0:0,0:0:0:0:
465,85,164204,2,0,L|469:151,1,50.5,2|2,0:2|0:2,0:0:0:0:
322,209,164341,2,0,L|385:195,1,50.5,2|0,3:2|0:0,0:0:0:0:
224,144,164477,2,0,L|157:142,1,50.5,2|0,3:2|0:0,0:0:0:0:
224,144,164613,2,0,L|284:139,1,50.5,2|2,0:2|0:2,0:0:0:0:
111,314,164750,2,0,L|100:229,1,50.5,10|0,0:2|0:2,0:0:0:0:
177,246,164886,2,0,L|169:185,1,50.5,2|0,0:2|0:2,0:0:0:0:
332,105,165023,6,0,L|348:79,2,25.25,0|0|0,0:2|0:0|0:2,0:0:0:0:
230,117,165125,1,0,0:0:0:0:
126,44,165159,1,0,0:2:0:0:
151,56,165193,1,0,0:0:0:0:
183,60,165227,1,0,0:2:0:0:
351,189,165295,6,0,L|232:198,1,101,6|0,3:2|0:0,0:0:0:0:
302,228,165500,1,0,0:2:0:0:
467,350,165568,2,0,L|478:265,1,50.5,2|0,0:2|0:2,0:0:0:0:
396,284,165704,2,0,L|404:223,1,50.5,2|0,0:2|0:2,0:0:0:0:
237,234,165841,2,0,L|225:149,1,50.5,10|0,0:2|0:2,0:0:0:0:
311,166,165977,2,0,L|302:105,1,50.5,2|0,0:2|0:2,0:0:0:0:
142,101,166113,6,0,L|78:102,1,50.5,2|0,3:2|0:2,0:0:0:0:
246,52,166250,2,0,L|182:26,1,50.5,2|0,0:2|0:0,0:0:0:0:
354,31,166386,2,0,L|376:37,1,16.8333333333333,2|0,0:2|0:0,0:0:0:0:
431,70,166477,2,0,L|405:71,1,16.8333333333333,2|0,0:2|0:0,0:0:0:0:
352,100,166568,2,0,L|383:100,1,16.8333333333333,2|0,0:2|0:0,0:0:0:0:
207,191,166659,2,0,L|182:196,1,16.8333333333333,2|0,3:2|0:0,0:0:0:0:
131,241,166750,2,0,L|158:241,1,16.8333333333333,2|0,0:2|0:0,0:0:0:0:
208,272,166841,2,0,L|183:273,1,16.8333333333333,2|0,0:2|0:0,0:0:0:0:
355,349,166932,6,0,L|379:349,1,16.8333333333333,10|0,0:2|0:0,0:0:0:0:
232,357,167023,2,0,L|207:355,1,16.8333333333333,2|0,0:2|0:0,0:0:0:0:
74,328,167113,2,0,L|99:327,1,16.8333333333333,2|0,0:2|0:0,0:0:0:0:
230,266,167204,6,0,L|250:265,1,12.625,2|0,0:2|0:0,0:0:0:0:
369,194,167273,2,0,L|345:193,1,12.625,2|0,0:2|0:0,0:0:0:0:
227,145,167341,2,0,L|205:148,1,12.625,2|0,0:2|0:0,0:0:0:0:
79,96,167409,1,0,0:0:0:0:
61,97,167426,6,0,P|23:183|72:259,1,189.375,0|0,0:0|0:0,0:0:0:0:
277,280,167750,1,0,0:2:0:0:
302,281,167784,1,0,0:0:0:0:
327,282,167818,1,0,0:0:0:0:
199,338,167852,1,0,0:0:0:0:
70,356,167886,1,0,0:0:0:0:
95,357,167920,1,0,0:0:0:0:
120,358,167954,1,0,0:2:0:0:
287,373,168023,2,0,L|287:217,1,151.5,8|0,0:2|0:0,0:0:0:0:
470,149,168295,6,0,L|437:148,1,25.25,4|0,3:2|0:0,0:0:0:0:
354,130,168432,2,0,L|352:98,1,25.25,0|0,0:0|0:0,0:0:0:0:
171,43,168568,2,0,L|200:44,1,25.25,2|0,0:2|0:0,0:0:0:0:
283,125,168704,2,0,L|220:131,1,50.5,2|0,3:2|0:2,0:0:0:0:
58,180,168841,6,0,L|36:178,1,12.625,2|0,3:2|0:0,0:0:0:0:
92,211,168909,2,0,L|109:209,1,12.625,2|0,0:2|0:0,0:0:0:0:
267,287,168977,2,0,L|289:285,1,12.625,2|0,0:2|0:0,0:0:0:0:
233,318,169045,2,0,L|216:316,1,12.625,2|0,0:2|0:0,0:0:0:0:
58,86,169113,2,0,L|77:86,1,16.8333333333333,10|0,0:2|0:0,0:0:0:0:
138,45,169204,2,0,L|116:45,1,16.8333333333333,2|0,0:2|0:0,0:0:0:0:
58,86,169295,2,0,L|77:86,1,16.8333333333333,2|0,0:2|0:0,0:0:0:0:
262,48,169386,5,2,0:2:0:0:
287,57,169420,1,0,0:0:0:0:
298,80,169454,1,0,0:2:0:0:
287,102,169488,1,0,0:0:0:0:
262,112,169522,1,0,0:2:0:0:
228,115,169557,1,0,0:0:0:0:
262,112,169591,1,0,0:0:0:0:
440,155,169659,6,0,L|449:258,1,101,4|0,3:2|0:2,0:0:0:0:
432,271,169812,1,0,0:0:0:0:
312,305,169863,1,0,3:2:0:0:
178,314,169932,1,0,0:0:0:0:
138,234,170000,2,0,L|158:234,1,12.625,0|0,0:2|0:0,0:0:0:0:
345,209,170068,1,0,3:2:0:0:
385,119,170136,2,0,L|365:119,1,12.625,0|0,0:2|0:0,0:0:0:0:
194,49,170204,6,0,L|167:49,1,16.8333333333333,4|0,3:2|0:0,0:0:0:0:
236,94,170295,2,0,L|259:94,1,16.8333333333333
194,49,170386,2,0,L|167:49,1,16.8333333333333,0|0,0:0|3:2,0:0:0:0:
342,186,170477,2,0,L|363:186,1,16.8333333333333
218,251,170568,2,0,L|194:255,1,16.8333333333333
58,339,170659,2,0,L|74:339,1,16.8333333333333
253,180,170750,5,2,0:2:0:0:
282,183,170784,1,0,0:0:0:0:
304,199,170818,1,0,0:0:0:0:
312,224,170852,1,0,0:0:0:0:
303,247,170886,1,0,0:0:0:0:
279,262,170920,1,0,0:0:0:0:
249,264,170954,1,0,0:0:0:0:
420,143,171023,6,0,L|454:141,1,25.25,8|0,0:2|0:0,0:0:0:0:
332,86,171091,2,0,L|299:85,1,25.25
194,49,171159,2,0,L|145:42,1,25.25
53,146,171227,2,0,L|89:146,1,25.25
190,181,171295,6,0,L|221:184,1,25.25,2|0,0:0|0:0,0:0:0:0:
340,209,171363,2,0,L|372:212,1,25.25
248,293,171432,2,0,L|204:291,1,25.25
107,339,171500,2,0,L|135:334,1,25.25,0|0,0:2|0:0,0:0:0:0:
269,354,171568,5,0,3:0:0:0:
400,352,171636,1,0,3:0:0:0:
269,354,171704,1,0,3:2:0:0:
136,240,171773,1,0,3:2:0:0:
334,165,171841,6,0,B|396:21|396:21|450:157|450:157|117:157,1,606.000023117066,4|0,3:2|0:0,0:0:0:0:
146,156,172386,1,0,0:0:0:0:
107,264,172523,2,0,L|138:266,1,25.25,2|0,0:2|0:0,0:0:0:0:
200,340,172659,2,0,L|171:341,1,25.25,2|0,0:2|0:0,0:0:0:0:
102,166,172795,1,2,0:2:0:0:
265,144,172863,1,2,0:2:0:0:
102,166,172932,6,0,B|14:289|14:289|166:226,1,303.000011558533,0|0,3:2|0:2,0:0:0:0:
236,305,173341,2,0,L|211:305,1,25.25,2|0,0:2|0:0,0:0:0:0:
125,250,173477,2,0,L|157:215,1,30.2999990753174,2|0,0:2|0:0,0:0:0:0:
246,209,173613,2,0,L|250:152,1,35.3499989212036,2|0,0:2|0:0,0:0:0:0:
450,91,173750,6,0,B|174:60|174:60|173:203,1,416.625003973246,2|0,0:2|0:2,0:0:0:0:
387,299,174023,6,0,L|267:256,1,121.19999630127,4|0,3:2|0:2,0:0:0:0:
222,290,174227,1,0,3:2:0:0:
405,355,174295,1,0,3:2:0:0:
171,368,174432,2,0,L|165:337,1,25.25,2|0,0:2|0:0,0:0:0:0:
362,190,174568,6,0,L|368:159,1,25.25,2|0,3:2|0:0,0:0:0:0:
281,94,174704,2,0,L|350:85,1,50.5,2|0,0:2|0:2,0:0:0:0:
137,155,174841,2,0,L|97:155,1,25.25,2|0,3:2|0:0,0:0:0:0:
308,285,174977,2,0,L|337:284,1,25.25,2|0,0:2|0:0,0:0:0:0:
134,247,175113,6,0,L|128:278,1,25.25,2|0,3:2|0:0,0:0:0:0:
216,336,175249,2,0,L|147:345,1,50.5,2|0,0:2|0:2,0:0:0:0:
348,210,175386,2,0,L|388:206,1,25.25,2|0,3:2|0:0,0:0:0:0:
278,173,175523,2,0,L|277:130,1,25.25,2|0,0:2|0:0,0:0:0:0:
81,122,175659,6,0,L|66:79,1,25.25,2|0,3:2|0:0,0:0:0:0:
165,67,175795,2,0,L|150:24,1,25.25,2|0,0:2|0:0,0:0:0:0:
378,125,175932,2,0,L|219:136,1,151.5,2|0,3:2|0:2,0:0:0:0:
447,326,176204,6,0,B|490:204|490:204|446:33|446:33|143:144,1,606.000023117066,4|0,3:2|0:0,0:0:0:0:
165,138,176750,1,2,0:2:0:0:
165,138,176886,1,0,0:2:0:0:
165,138,177023,1,2,0:2:0:0:
165,138,177159,2,0,L|225:146,1,50.5,0|0,0:2|0:0,0:0:0:0:
429,202,177295,5,4,3:2:0:0:
190,342,177432,2,0,P|173:256|224:209,1,151.5,0|0,0:0|0:2,0:0:0:0:
414,108,177704,2,0,L|445:105,1,25.25,2|0,0:2|0:0,0:0:0:0:
248,82,177841,2,0,L|248:51,1,25.25,2|0,0:2|0:0,0:0:0:0:
56,29,177977,2,0,L|14:32,1,25.25,2|0,0:2|0:0,0:0:0:0:
243,186,178113,2,0,L|83:191,1,151.5,2|0,0:2|0:2,0:0:0:0:
315,304,178386,5,4,3:2:0:0:
204,308,178523,2,0,L|203:251,1,50.5,0|0,0:2|3:2,0:0:0:0:
391,217,178659,1,0,3:2:0:0:
168,167,178795,2,0,L|162:136,1,25.25,2|0,0:2|0:0,0:0:0:0:
261,123,178932,2,0,L|268:81,1,25.25,2|0,3:2|0:0,0:0:0:0:
70,45,179068,2,0,L|130:44,1,50.5,2|0,0:2|0:2,0:0:0:0:
295,307,179204,2,0,L|301:276,1,25.25,2|0,3:2|0:0,0:0:0:0:
203,257,179341,2,0,L|196:215,1,25.25,2|0,0:2|0:0,0:0:0:0:
412,182,179477,6,0,L|437:178,1,16.8333333333333,2|0,3:2|0:0,0:0:0:0:
366,114,179568,2,0,L|336:112,1,16.8333333333333,2|0,0:2|0:0,0:0:0:0:
412,182,179659,2,0,L|437:178,1,16.8333333333333,2|0,0:2|0:0,0:0:0:0:
259,368,179750,6,0,L|234:364,1,16.8333333333333,2|0,3:2|0:0,0:0:0:0:
305,300,179841,2,0,L|335:298,1,16.8333333333333,2|0,0:2|0:0,0:0:0:0:
259,368,179932,2,0,L|234:364,1,16.8333333333333,2|0,0:2|0:0,0:0:0:0:
50,347,180023,6,0,L|28:313,2,25.25,2|0|0,3:2|0:0|0:0,0:0:0:0:
167,356,180125,1,0,0:0:0:0:
285,348,180159,1,0,0:0:0:0:
310,349,180193,1,0,0:0:0:0:
340,351,180227,1,0,0:0:0:0:
274,273,180295,6,0,L|115:248,1,151.5,2|0,0:2|0:0,0:0:0:0:
320,193,180568,5,2,0:2:0:0:
422,140,180704,2,0,L|393:135,1,25.25,0|0,0:2|0:0,0:0:0:0:
272,90,180773,2,0,L|247:54,2,25.25,0|0|2,0:0|0:0|0:2,0:0:0:0:
369,53,180977,2,0,L|400:55,1,25.25,2|0,0:2|0:0,0:0:0:0:
222,173,181113,2,0,L|221:212,1,25.25,10|0,0:2|0:0,0:0:0:0:
39,289,181250,2,0,L|71:288,1,25.25,2|0,0:2|0:0,0:0:0:0:
288,352,181386,6,0,L|297:319,1,25.25,6|0,3:2|0:0,0:0:0:0:
206,309,181523,2,0,L|215:276,1,25.25,2|0,0:2|0:0,0:0:0:0:
406,183,181659,2,0,L|397:150,1,25.25,2|0,0:2|0:0,0:0:0:0:
220,117,181795,2,0,L|211:84,1,25.25,2|0,3:2|0:0,0:0:0:0:
409,76,181932,6,0,L|424:39,1,25.25,2|0,3:2|0:0,0:0:0:0:
329,58,182068,2,0,L|323:25,1,25.25,2|0,0:2|0:0,0:0:0:0:
122,183,182204,2,0,L|159:186,1,25.25,10|0,0:2|0:0,0:0:0:0:
237,217,182341,2,0,L|242:254,1,25.25,2|0,0:2|0:0,0:0:0:0:
37,307,182477,5,2,0:2:0:0:
62,308,182511,1,0,0:0:0:0:
87,310,182545,1,0,0:0:0:0:
112,312,182579,1,0,0:0:0:0:
137,314,182613,1,0,0:0:0:0:
142,367,182682,1,0,0:0:0:0:
321,361,182750,1,0,0:2:0:0:
217,338,182886,2,0,L|214:283,1,50.5
378,257,183023,6,0,L|385:220,1,25.25,2|0,0:2|0:0,0:0:0:0:
290,208,183159,2,0,L|284:173,1,25.25,2|0,0:2|0:0,0:0:0:0:
101,150,183295,2,0,L|94:113,1,25.25,10|0,0:2|0:0,0:0:0:0:
187,86,183431,2,0,L|193:51,1,25.25,2|0,0:2|0:0,0:0:0:0:
397,37,183568,6,0,L|365:42,1,25.25,6|0,3:2|0:0,0:0:0:0:
288,100,183704,2,0,L|318:103,1,25.25,2|0,0:2|0:0,0:0:0:0:
400,164,183841,2,0,L|367:164,1,25.25,2|0,0:2|0:0,0:0:0:0:
183,245,183977,2,0,L|213:246,1,25.25,2|0,3:2|0:0,0:0:0:0:
403,276,184113,6,0,L|410:314,1,25.25,2|0,3:2|0:0,0:0:0:0:
321,315,184250,2,0,L|328:353,1,25.25,2|0,0:2|0:0,0:0:0:0:
144,162,184386,2,0,L|137:200,1,25.25,10|0,0:2|0:0,0:0:0:0:
322,192,184523,2,0,L|315:230,1,25.25,2|0,3:2|0:0,0:0:0:0:
106,317,184659,5,2,3:2:0:0:
72,314,184693,1,0,0:0:0:0:
37,309,184727,1,0,0:0:0:0:
26,272,184761,1,0,0:0:0:0:
41,237,184795,1,0,0:0:0:0:
83,227,184829,1,0,0:0:0:0:
130,223,184863,1,0,0:2:0:0:
374,90,184932,6,0,L|462:91,1,50.5,6|0,3:2|1:0,0:0:0:0:
354,124,185068,2,0,L|354:181,1,50.5,0|0,1:2|1:2,1:2:0:0:
274,191,185204,2,0,L|266:248,1,50.5,2|0,1:2|1:2,1:2:0:0:
183,263,185341,2,0,L|160:317,1,50.5,2|0,1:2|1:2,1:2:0:0:
359,346,185477,6,0,L|411:346,1,50.5,10|0,1:2|1:2,1:2:0:0:
248,314,185613,2,0,L|246:239,1,50.5,2|0,1:2|1:2,1:2:0:0:
82,252,185750,2,0,L|76:183,1,50.5,2|0,1:2|1:2,1:2:0:0:
246,165,185886,2,0,L|252:88,1,50.5,2|0,1:2|1:2,1:2:0:0:
71,109,186023,6,0,L|81:42,1,50.5,2|0,1:2|1:2,1:2:0:0:
239,85,186159,2,0,L|249:19,1,50.5,2|0,1:2|1:2,1:2:0:0:
411,85,186295,2,0,L|421:21,1,50.5,2|0,1:2|1:2,1:2:0:0:
258,224,186432,2,0,L|246:153,1,50.5,2|0,1:2|1:2,1:2:0:0:
426,258,186568,6,0,L|414:197,1,50.5,2|0,1:2|1:2,1:2:0:0:
253,316,186704,2,0,L|244:253,1,50.5,2|0,1:2|1:2,1:2:0:0:
77,289,186841,2,0,L|64:222,1,50.5,2|0,1:2|1:2,1:2:0:0:
245,202,186977,2,0,L|252:133,1,50.5,2|0,1:2|1:2,1:2:0:0:
64,67,187113,6,0,L|125:8,1,67.3333333333333,6|2,3:2|3:2,0:0:0:0:
303,27,187295,1,2,3:2:0:0:
106,152,187386,2,0,L|174:120,1,67.3333333333333,2|2,3:2|3:2,0:0:0:0:
366,161,187568,1,2,3:2:0:0:
155,249,187659,6,0,L|233:232,1,67.3333333333333,2|2,3:2|3:2,0:0:0:0:
421,259,187841,1,2,3:2:0:0:
232,326,187932,1,2,3:2:0:0:
430,355,188023,1,2,3:2:0:0:
240,361,188113,1,2,3:2:0:0:
48,366,188204,6,8,L|32:285,3,50.5,8|8|8|8,3:3|0:3|0:3|0:3,0:3:0:0:
208,238,188477,2,8,L|269:235,1,50.5,8|8,0:3|0:3,0:3:0:0:
97,147,188613,2,8,L|175:139,1,50.5,8|8,0:3|0:3,0:3:0:0:
346,79,188750,6,0,L|386:78,2,25.25,2|0|0,3:2|3:2|3:2,0:0:0:0:
232,63,188852,1,0,0:0:0:0:
116,157,188886,2,0,L|77:171,2,25.25,2|0|0,3:2|3:2|3:2,0:0:0:0:
239,166,188988,1,0,0:0:0:0:
368,206,189023,6,0,L|391:168,2,25.25,2|0|0,3:2|3:2|3:2,0:0:0:0:
242,255,189125,1,0,0:0:0:0:
117,276,189159,2,0,L|96:240,2,25.25,2|0|0,3:2|3:2|3:2,0:0:0:0:
248,302,189261,1,0,0:0:0:0:
397,319,189295,6,0,L|490:315,1,58.0750011076927,4|0,3:2|0:2,0:0:0:0:
283,206,189432,2,0,L|209:199,1,58.0750011076927,2|2,0:2|0:2,0:0:0:0:
401,190,189568,2,0,L|402:65,1,116.150002215385,10|2,3:2|0:2,0:0:0:0:
345,66,189773,1,0,0:2:0:0:
201,57,189841,2,0,L|133:49,1,58.0750011076927,2|0,3:2|0:2,0:0:0:0:
285,112,189977,2,0,L|286:184,1,58.0750011076927,2|0,0:2|0:2,0:0:0:0:
430,222,190113,2,0,L|434:282,1,58.0750011076927,10|0,3:2|0:2,0:0:0:0:
282,349,190250,2,0,L|346:339,1,58.0750011076927,2|0,0:2|0:2,0:0:0:0:
185,314,190386,5,0,3:0:0:0:
75,273,190523,2,0,L|83:206,1,58.0750011076927,2|2,0:2|0:2,0:0:0:0:
227,178,190659,2,0,L|239:91,1,58.0750011076927,10|0,3:2|0:2,0:0:0:0:
94,92,190795,2,0,L|84:22,1,58.0750011076927,2|0,0:2|0:2,0:0:0:0:
239,87,190932,2,0,L|130:40,1,116.150002215385,2|2,3:2|0:2,0:0:0:0:
192,33,191136,1,0,0:2:0:0:
348,113,191204,2,0,L|281:134,1,58.0750011076927,10|0,3:2|0:2,0:0:0:0:
150,240,191341,2,0,L|219:244,1,58.0750011076927,2|0,0:2|0:2,0:0:0:0:
381,353,191477,6,0,L|380:221,1,116.150002215385,0|2,3:2|0:2,0:0:0:0:
324,251,191682,1,2,0:2:0:0:
183,311,191750,2,0,L|248:315,1,58.0750011076927,10|0,3:2|0:2,0:0:0:0:
92,241,191886,2,0,L|86:183,1,58.0750011076927,2|0,0:2|0:2,0:0:0:0:
238,61,192023,6,0,L|125:117,1,116.150002215385,2|2,3:2|0:2,0:0:0:0:
194,123,192227,1,0,0:2:0:0:
338,126,192295,2,0,L|348:213,1,58.0750011076927,10|0,3:2|0:2,0:0:0:0:
199,212,192432,2,0,L|208:289,1,58.0750011076927,2|0,0:2|0:2,0:0:0:0:
372,345,192568,5,2,3:2:0:0:
471,256,192704,2,0,L|402:232,1,58.0750011076927,0|0,0:2|0:2,0:0:0:0:
262,143,192841,2,0,L|379:87,1,116.150002215385,10|0,3:2|0:0,0:0:0:0:
309,79,193045,1,0,0:2:0:0:
156,131,193113,2,0,L|143:204,1,58.0750011076927,2|0,3:2|0:0,0:0:0:0:
284,193,193250,2,0,L|298:255,1,58.0750011076927,0|0,0:0|0:2,0:0:0:0:
134,312,193386,6,0,L|112:313,1,14.5187502769232,10|0,3:2|0:0,0:0:0:0:
232,247,193454,2,0,L|251:249,1,14.5187502769232,2|0,1:2|0:0,0:0:0:0:
365,333,193523,2,0,L|339:333,1,14.5187502769232,2|0,1:2|0:0,0:0:0:0:
232,348,193591,2,0,L|209:349,1,14.5187502769232,2|0,1:2|0:0,0:0:0:0:
57,74,193659,6,0,L|63:204,1,116.150002215385,6|2,3:2|0:2,0:0:0:0:
117,190,193863,1,0,0:2:0:0:
262,99,193932,2,0,L|326:120,1,58.0750011076927,10|0,3:2|0:2,0:0:0:0:
180,185,194068,2,0,L|172:270,1,58.0750011076927,2|2,0:2|0:2,0:0:0:0:
312,251,194204,2,0,L|246:256,1,58.0750011076927,2|0,3:2|0:2,0:0:0:0:
395,336,194341,2,0,L|455:335,1,58.0750011076927,2|0,0:2|0:2,0:0:0:0:
321,314,194477,2,0,L|314:244,1,58.0750011076927,10|0,3:2|0:2,0:0:0:0:
176,261,194613,2,0,L|166:189,1,58.0750011076927,2|0,0:2|0:2,0:0:0:0:
330,219,194750,6,0,L|317:91,1,116.150002215385,0|2,3:2|0:2,0:0:0:0:
266,179,194954,1,2,0:2:0:0:
410,157,195023,2,0,L|478:150,1,58.0750011076927,10|0,3:2|0:2,0:0:0:0:
275,105,195159,2,0,L|191:90,1,58.0750011076927,2|0,0:2|0:2,0:0:0:0:
46,384,195295,2,0,L|161:329,1,116.150002215385,2|2,3:2|0:2,0:0:0:0:
93,312,195500,1,0,0:2:0:0:
238,304,195568,2,0,L|243:221,1,58.0750011076927,10|0,3:2|0:2,0:0:0:0:
98,219,195704,2,0,L|89:138,1,58.0750011076927,2|0,0:2|0:2,0:0:0:0:
257,132,195841,6,0,L|150:88,1,116.150002215385,0|2,3:2|0:2,0:0:0:0:
208,74,196045,1,2,0:2:0:0:
352,69,196113,2,0,L|362:166,1,58.0750011076927,10|0,3:2|0:2,0:0:0:0:
221,211,196250,2,0,L|299:205,1,58.0750011076927,2|0,0:2|0:2,0:0:0:0:
128,277,196386,6,0,L|246:312,1,116.150002215385,14|0,3:2|0:2,0:0:0:0:
397,204,196591,2,0,L|271:175,1,116.150002215385,10|0,3:2|0:2,0:0:0:0:
122,121,196795,2,0,L|195:112,1,58.0750011076927,10|0,3:2|0:2,0:0:0:0:
380,153,196932,6,0,L|291:92,1,101,4|0,3:2|0:0,0:0:0:0:
232,85,197136,1,0,3:0:0:0:
164,84,197204,6,0,B|467:103|467:103|468:275,1,454.5000173378,8|0,0:2|0:2,0:0:0:0:
255,312,197477,6,0,L|154:314,1,101,2|2,3:2|0:2,0:0:0:0:
467,253,197750,2,0,L|468:61,1,151.5,8|0,0:2|0:2,0:0:0:0:
251,192,198023,6,0,L|237:117,1,58.0750011076927,6|0,3:2|0:0,0:0:0:0:
57,56,198159,1,0,0:0:0:0:
251,192,198295,2,0,L|266:120,1,58.0750011076927,8|0,3:2|0:0,0:0:0:0:
450,55,198432,1,2,0:2:0:0:
251,192,198568,2,0,L|230:124,1,58.0750011076927,0|0,3:2|0:0,0:0:0:0:
54,139,198704,1,2,0:2:0:0:
251,192,198841,2,0,L|272:128,1,58.0750011076927,8|0,3:2|0:0,0:0:0:0:
452,140,198977,1,2,0:2:0:0:
251,192,199113,6,0,L|228:133,1,58.0750011076927,0|0,3:2|0:0,0:0:0:0:
39,238,199250,1,2,0:2:0:0:
251,192,199386,2,0,L|274:131,1,58.0750011076927,8|0,3:2|0:0,0:0:0:0:
465,241,199523,1,2,0:2:0:0:
251,192,199659,2,0,L|223:133,1,58.0750011076927,0|0,3:2|0:0,0:0:0:0:
30,358,199795,1,2,0:2:0:0:
251,192,199932,2,0,L|281:131,1,58.0750011076927,10|0,3:2|0:2,0:0:0:0:
474,350,200068,1,2,0:2:0:0:
238,345,200204,6,0,L|241:224,1,116.150002215385,6|0,3:2|0:2,0:0:0:0:
300,215,200409,1,0,3:0:0:0:
120,151,200477,2,0,L|50:152,1,58.0750011076927,10|0,3:2|0:2,0:0:0:0:
247,75,200613,2,0,L|311:78,1,58.0750011076927,2|0,3:2|0:2,0:0:0:0:
90,289,200750,6,0,L|93:149,1,116.150002215385,6|0,3:2|0:2,0:0:0:0:
148,159,200954,1,0,3:0:0:0:
330,69,201023,2,0,L|266:64,1,58.0750011076927,10|0,3:2|0:2,0:0:0:0:
94,26,201159,2,0,L|162:24,1,58.0750011076927,2|0,3:2|0:2,0:0:0:0:
333,243,201295,6,0,L|221:173,1,116.150002215385,6|0,3:2|0:2,0:0:0:0:
293,177,201500,1,0,3:0:0:0:
480,111,201568,2,0,L|414:102,1,58.0750011076927,10|0,3:2|0:2,0:0:0:0:
233,58,201704,2,0,L|297:55,1,58.0750011076927,2|0,3:2|0:2,0:0:0:0:
466,322,201841,6,0,L|350:254,1,116.150002215385,6|0,3:2|0:2,0:0:0:0:
425,287,202045,1,0,3:0:0:0:
238,258,202113,2,0,L|164:246,1,58.0750011076927,10|0,3:2|0:2,0:0:0:0:
370,188,202250,2,0,L|428:184,1,58.0750011076927,2|0,3:2|0:2,0:0:0:0:
222,151,202386,6,0,L|215:86,1,58.0750011076927,4|0,3:2|3:2,0:0:0:0:
291,95,202523,2,0,L|299:24,1,58.0750011076927,0|0,3:2|3:2,0:0:0:0:
117,189,202659,2,0,L|101:108,1,58.0750011076927,0|0,3:2|3:2,0:0:0:0:
292,200,202795,2,0,L|309:115,1,58.0750011076927,0|0,3:2|3:2,0:0:0:0:
97,270,202932,2,0,L|61:212,1,58.0750011076927,0|0,3:2|3:2,0:0:0:0:
288,295,203068,2,0,L|334:234,1,58.0750011076927,0|0,3:2|3:2,0:0:0:0:
73,357,203204,2,0,L|19:322,1,58.0750011076927,0|0,3:2|3:2,0:0:0:0:
281,368,203341,2,0,L|361:340,1,58.0750011076927,0|0,3:2|3:2,0:0:0:0:
201,283,203477,5,0,3:2:0:0:
65,263,203545,1,0,3:2:0:0:
201,218,203613,1,0,3:2:0:0:
339,208,203682,1,0,3:2:0:0:
199,177,203750,1,0,3:2:0:0:
57,158,203818,1,0,3:2:0:0:
201,140,203886,1,0,3:2:0:0:
346,126,203954,1,0,3:2:0:0:
198,100,204023,1,0,3:2:0:0:
51,98,204091,1,0,3:2:0:0:
199,72,204159,1,0,3:2:0:0:
349,72,204227,1,0,3:2:0:0:
199,48,204295,6,0,L|164:44,1,29.0375005538464,0|0,3:2|3:2,0:0:0:0:
32,188,204363,2,0,L|66:193,1,29.0375005538464,0|0,3:2|3:2,0:0:0:0:
217,229,204432,2,0,L|272:233,1,29.0375005538464,0|0,3:2|3:2,0:0:0:0:
402,258,204500,2,0,L|449:257,1,29.0375005538464,0|0,3:2|3:2,0:0:0:0:
237,362,204568,6,0,P|137:340|250:156,1,404,6|0,3:2|0:0,0:0:0:0:
260,139,205148,2,0,L|234:154,15,25.25,0|0|0|0|0|0|0|0|0|0|0|0|0|0|0|2,0:0|0:0|0:0|0:0|0:0|0:0|0:0|0:0|0:0|0:0|0:0|0:0|0:0|0:0|0:0|0:2,0:0:0:0:
224,66,206136,5,2,0:2:0:0:
85,50,206204,1,2,0:2:0:0:
338,244,206375,5,2,0:2:0:0:
477,228,206443,1,2,0:2:0:0:
13,312,206750,5,0,3:2:0:0:
253,341,206932,1,0,3:2:0:0:
496,350,207113,1,0,3:2:0:0:
219,242,207295,6,0,L|210:186,1,50.5,14|0,0:2|0:2,0:0:0:0:
135,200,207432,2,0,L|119:132,1,50.5,2|0,0:2|0:2,0:0:0:0:
318,157,207568,2,0,L|327:103,1,50.5,2|0,3:2|0:2,0:0:0:0:
406,113,207705,2,0,L|421:48,1,50.5,2|0,0:2|0:2,0:0:0:0:
246,105,207841,6,0,L|245:43,1,50.5,2|0,0:2|0:2,0:0:0:0:
72,89,207977,2,0,L|57:29,1,50.5,2|0,3:2|0:2,0:0:0:0:
235,261,208113,2,0,L|235:194,1,50.5,2|0,3:2|0:2,0:0:0:0:
415,202,208250,2,0,L|442:149,1,50.5,2|0,0:2|0:2,0:0:0:0:
259,154,208386,2,0,L|191:160,1,50.5,10|2,0:2|0:2,0:0:0:0:
277,130,208523,2,0,L|214:128,1,50.5,2|0,0:2|0:0,0:0:0:0:
51,80,208659,2,0,L|119:86,1,50.5,2|0,0:2|0:0,0:0:0:0:
40,51,208796,2,0,L|103:49,1,50.5,0|0,0:0|0:0,0:0:0:0:
294,248,208932,6,0,L|109:279,1,181.799994451904,6|0,3:2|0:2,0:0:0:0:
54,312,209204,2,0,L|235:327,1,166.650005085755,2|0,3:2|0:2,0:0:0:0:
420,343,209508,5,2,3:2:0:0:
352,334,209583,1,2,0:2:0:0:
316,255,209658,1,2,0:2:0:0:
350,171,209734,1,2,0:2:0:0:
126,40,209811,5,2,3:2:0:0:
191,50,209888,1,2,0:2:0:0:
224,130,209966,1,2,0:2:0:0:
193,213,210044,1,2,0:2:0:0:
370,44,210122,5,2,3:2:0:0:
309,53,210209,1,0,0:2:0:0:
282,130,210296,1,2,0:2:0:0:
310,211,210383,1,0,0:2:0:0:
91,273,210470,2,0,L|22:271,1,50.5,2|0,3:2|0:2,0:0:0:0:
310,353,210646,2,0,L|371:353,1,50.5,2|0,0:2|0:2,0:0:0:0:
125,350,210822,6,0,L|119:266,1,50.5,2|0,3:2|0:2,0:0:0:0:
218,292,211011,2,0,L|224:224,1,50.5,2|0,0:2|0:2,0:0:0:0:
104,203,211201,2,0,L|95:117,1,50.5,2|0,0:2|0:2,0:0:0:0:
221,155,211391,2,0,L|228:80,1,50.5,2|0,0:2|0:2,0:0:0:0:
485,72,211581,6,0,L|128:37,1,338.350001290703,6|0,3:2|0:2,0:0:0:0:
337,30,211862,1,2,3:2:0:0:
148,38,211956,1,2,3:2:0:0:
219,15,212049,1,0,0:2:0:0:
475,269,212143,6,0,L|116:213,1,343.400006549835,2|0,3:2|0:2,0:0:0:0:
325,179,212424,1,2,3:2:0:0:
135,216,212518,1,2,3:2:0:0:
135,216,212612,1,0,0:2:0:0:
337,292,212706,2,0,L|429:293,1,62.1150009477997,2|0,3:2|0:2,0:0:0:0:
192,134,212893,2,0,L|290:135,1,62.1150009477997,2|0,3:2|0:2,0:0:0:0:
39,225,213081,6,0,L|61:95,1,124.230001895599,2|0,3:2|0:2,0:0:0:0:
253,60,213362,1,2,3:2:0:0:
59,102,213456,1,2,3:2:0:0:
59,102,213549,1,0,0:2:0:0:
293,270,213643,6,0,L|81:288,1,144.430001983444,2|0,3:2|0:0,0:0:0:0:
360,353,213924,1,0,3:2:0:0:
149,282,214018,1,2,3:2:0:0:
219,264,214112,1,0,0:2:0:0:
408,165,214206,2,0,L|482:155,1,72.2150009917221,2|0,3:2|0:2,0:0:0:0:
393,130,214393,2,0,L|489:119,1,72.2150009917221,2|2,0:2|0:2,0:0:0:0:
253,76,214581,6,0,L|91:53,1,144.430001983444,2|2,3:2|1:2,0:0:0:0:
294,167,214853,1,2,3:2:0:0:
110,55,214938,1,2,3:2:0:0:
43,59,215025,1,0,0:0:0:0:
247,163,215113,6,0,L|252:310,1,101,2|0,3:2|0:0,0:0:0:0:
434,318,215349,1,0,3:2:0:0:
250,263,215428,1,2,3:2:0:0:
192,273,215507,1,0,0:2:0:0:
392,198,215586,1,2,3:2:0:0:
450,202,215665,1,0,0:2:0:0:
279,105,215744,1,2,3:2:0:0:
279,105,215823,1,0,0:2:0:0:
94,78,215902,5,2,3:2:0:0:
161,67,215974,1,0,0:2:0:0:
358,180,216047,1,2,3:2:0:0:
290,171,216120,1,0,0:2:0:0:
75,226,216193,1,2,3:2:0:0:
225,272,216266,1,0,0:2:0:0:
446,330,216338,1,2,3:2:0:0:
257,358,216411,1,0,0:2:0:0:
257,358,216461,5,2,3:2:0:0:
257,358,216597,1,2,0:2:0:0:
257,358,216733,1,2,0:2:0:0:
257,358,216870,1,2,0:2:0:0:
37,195,217006,6,0,L|220:74,1,196.949990984345,4|0,3:2|0:2,0:0:0:0:
463,6,217278,6,0,B|199:90|199:90|202:242,1,416.625003973246,2|0,3:2|0:2,0:0:0:0:
383,230,217551,6,0,L|465:234,1,50.5,10|0,0:2|0:2,0:0:0:0:
362,256,217687,2,0,L|359:325,1,50.5,2|0,0:2|0:2,0:0:0:0:
211,355,217824,2,0,L|284:359,1,50.5,2|0,3:2|0:2,0:0:0:0:
416,333,217960,2,0,L|419:269,1,50.5,2|0,0:2|0:2,0:0:0:0:
255,218,218096,5,2,3:2:0:0:
191,208,218165,1,0,0:2:0:0:
378,102,218233,1,2,3:2:0:0:
442,98,218302,1,0,0:2:0:0:
268,28,218369,6,0,L|268:201,1,151.5,2|0,3:2|0:2,0:0:0:0:
99,241,218642,5,8,0:2:0:0:
200,249,218676,1,0,0:0:0:0:
301,258,218710,1,0,0:0:0:0:
321,259,218727,1,0,0:0:0:0:
341,254,218744,1,0,0:0:0:0:
359,241,218761,1,0,0:0:0:0:
373,223,218778,1,0,0:0:0:0:
383,200,218795,1,0,0:0:0:0:
385,175,218812,1,0,0:0:0:0:
383,150,218829,1,0,0:0:0:0:
373,128,218846,1,0,0:0:0:0:
358,109,218863,1,0,0:0:0:0:
341,97,218880,1,0,0:0:0:0:
320,91,218897,1,0,0:0:0:0:
299,90,218914,1,0,0:0:0:0:
199,83,218949,1,0,0:0:0:0:
101,105,218983,5,0,0:0:0:0:
91,127,219000,1,0,0:0:0:0:
89,152,219017,1,0,0:0:0:0:
91,177,219034,1,0,0:0:0:0:
100,199,219051,1,0,0:0:0:0:
114,218,219068,1,0,0:0:0:0:
132,231,219085,1,0,0:0:0:0:
151,236,219102,1,0,0:0:0:0:
172,234,219119,1,0,0:2:0:0:
299,288,219153,1,0,0:0:0:0:
427,351,219187,5,2,3:2:0:0:
342,192,219324,2,2,L|286:187,1,50.5,2|2,2:2|2:2,2:0:0:0:
101,114,219460,6,0,L|60:113,6,32.8249984973908,2|0|0|0|0|0|0,2:0|0:0|0:0|0:0|0:0|0:0|0:0,0:0:0:0:
327,50,219750,5,10,0:2:0:0:
268,47,219825,1,2,0:2:0:0:
209,45,219900,1,2,0:2:0:0:
150,43,219975,1,2,0:2:0:0:
330,203,220050,5,2,3:2:0:0:
381,202,220133,1,2,0:2:0:0:
432,201,220216,1,2,0:2:0:0:
485,201,220300,1,2,0:2:0:0:
300,296,220383,6,0,L|387:301,1,50.5,2|0,3:2|0:2,0:0:0:0:
159,242,220550,2,0,L|84:237,1,50.5,2|0,3:2|0:2,0:0:0:0:
274,143,220716,1,2,3:2:0:0:
343,136,220804,1,0,0:2:0:0:
167,98,220892,1,2,3:2:0:0:
331,60,220980,1,2,3:2:0:0:
486,240,221068,6,0,L|437:242,1,25.25,0|0,3:2|3:2,0:0:0:0:
337,324,221161,2,0,L|303:326,1,25.25,0|0,3:2|3:2,0:0:0:0:
184,342,221255,2,0,L|143:346,1,25.25,0|0,3:2|3:2,0:0:0:0:
25,251,221349,2,0,L|58:251,1,25.25,0|0,3:2|0:0,0:0:0:0:
168,224,221443,5,0,3:2:0:0:
290,211,221492,1,0,3:2:0:0:
413,197,221541,1,0,3:2:0:0:
290,211,221590,1,0,3:2:0:0:
166,175,221639,1,0,3:2:0:0:
41,155,221688,1,0,3:2:0:0:
167,120,221737,1,0,3:2:0:0:
294,109,221786,1,0,3:0:0:0:
447,84,221835,6,0,L|102:56,1,303.000011558533,6|0,3:2|0:2,0:0:0:0:
332,36,222116,1,2,3:2:0:0:
144,59,222210,1,2,3:2:0:0:
144,59,222303,1,0,0:2:0:0:
406,261,222397,6,0,L|61:233,1,303.000011558533,2|0,3:2|0:2,0:0:0:0:
294,191,222678,1,2,3:2:0:0:
103,236,222772,1,2,3:2:0:0:
179,241,222866,1,0,0:2:0:0:
401,350,222960,1,2,3:2:0:0:
325,354,223053,1,2,3:2:0:0:
101,360,223147,1,2,3:2:0:0:
425,253,223335,6,0,L|88:217,1,303.000011558533,6|0,3:2|0:2,0:0:0:0:
293,175,223616,1,2,3:2:0:0:
466,135,223710,1,2,3:2:0:0:
390,120,223803,1,0,0:2:0:0:
129,90,223897,6,0,L|466:54,1,303.000011558533,2|0,3:2|0:2,0:0:0:0:
239,33,224178,1,2,3:2:0:0:
430,57,224272,1,2,3:2:0:0:
430,57,224366,1,0,0:2:0:0:
195,175,224460,1,2,3:2:0:0:
270,192,224553,1,0,0:2:0:0:
476,211,224647,1,2,3:2:0:0:
184,291,224835,5,2,3:2:0:0:
275,300,224952,1,2,3:2:0:0:
77,264,225070,1,2,3:2:0:0:
272,217,225187,1,2,3:2:0:0:
179,210,225298,1,2,3:2:0:0:
384,167,225409,1,2,3:2:0:0:
171,128,225520,5,2,3:2:0:0:
260,126,225625,1,2,3:2:0:0:
56,47,225730,1,2,3:2:0:0:
263,40,225835,1,2,3:2:0:0:
50,96,225925,1,2,3:2:0:0:
268,92,226016,1,2,3:2:0:0:
291,123,226107,6,0,L|254:122,1,25.25,2|0,3:2|0:0,0:0:0:0:
214,71,226379,2,0,L|250:70,1,25.25,2|0,0:2|0:0,0:0:0:0:
322,25,226652,2,0,L|287:28,1,25.25,2|0,0:2|0:0,0:0:0:0:
71,84,226925,2,0,L|68:246,1,151.5,2|0,0:2|0:0,0:0:0:0:
319,293,227197,6,0,L|131:306,1,151.5,4|0,3:2|0:2,0:0:0:0:
414,212,227469,6,0,B|161:194|161:194|236:56,1,378.75,2|0,0:2|0:2,0:0:0:0:
403,128,227742,6,0,L|413:50,1,58.0750011076927,10|0,0:2|0:2,0:0:0:0:
332,80,227878,2,0,L|342:2,1,58.0750011076927,2|0,0:2|0:2,0:0:0:0:
175,240,228015,2,0,L|243:217,1,58.0750011076927,2|0,3:2|0:2,0:0:0:0:
293,281,228151,2,0,L|216:266,1,58.0750011076927,2|0,0:2|0:2,0:0:0:0:
71,170,228287,2,0,L|140:164,1,58.0750011076927,2|2,0:2|0:2,0:0:0:0:
288,100,228424,6,0,L|162:79,1,116.150002215385,2|2,3:2|0:2,0:0:0:0:
354,166,228628,2,0,L|483:135,1,116.150002215385,2|2,3:2|0:2,0:0:0:0:
310,229,228833,2,0,L|291:353,1,116.150002215385,10|2,0:2|0:2,0:0:0:0:
144,359,229037,1,2,3:2:0:0:
293,344,229106,5,0,0:0:0:0:
303,329,229140,1,0,0:0:0:0:
293,344,229174,1,0,0:2:0:0:
136,275,229242,1,2,3:2:0:0:
96,272,229310,1,0,0:0:0:0:
281,186,229378,6,0,B|30:154|30:154|118:44,1,378.75,6|0,3:2|0:2,0:0:0:0:
290,111,229651,2,0,L|297:32,1,61.6099974617463,2|0,0:2|0:2,0:0:0:0:
218,72,229787,2,0,L|227:1,1,61.6099974617463,2|0,0:2|0:2,0:0:0:0:
406,72,229924,6,0,L|465:77,1,50.5,10|0,0:2|0:2,0:0:0:0:
303,183,230060,2,0,L|290:260,1,50.5,2|0,0:2|0:2,0:0:0:0:
138,300,230197,2,0,L|63:303,1,50.5,2|0,3:2|0:2,0:0:0:0:
258,354,230333,2,0,L|266:284,1,50.5,2|2,0:2|0:2,0:0:0:0:
426,298,230469,5,8,3:2:0:0:
260,303,230560,1,0,3:0:0:0:
229,300,230607,1,0,3:0:0:0:
199,298,230652,1,0,3:0:0:0:
169,296,230696,1,0,3:0:0:0:
305,199,230742,5,8,3:2:0:0:
140,123,230833,1,0,3:0:0:0:
108,120,230879,1,0,3:0:0:0:
76,118,230925,1,0,3:0:0:0:
46,116,230969,1,0,3:0:0:0:
194,58,231015,5,8,3:0:0:0:
260,63,231106,1,0,3:0:0:0:
159,155,231151,1,0,3:0:0:0:
54,192,231197,1,0,3:0:0:0:
224,248,231287,1,0,3:0:0:0:
406,273,231378,1,0,3:0:0:0:
224,248,231469,1,0,3:0:0:0:
406,273,231560,5,0,3:0:0:0:
28,308,231833,5,6,0:2:0:0:
256,192,231901,12,2,238106,0:2:0:0:
256,192,240015,12,0,243560,0:2:0:0:
