osu file format v14

[General]
AudioFilename: audio.mp3
AudioLeadIn: 0
PreviewTime: 204975
Countdown: 1
SampleSet: Normal
StackLeniency: 0.7
Mode: 1
LetterboxInBreaks: 0
WidescreenStoryboard: 1

[Editor]
Bookmarks: 19619
DistanceSpacing: 1.3
BeatDivisor: 4
GridSize: 32
TimelineZoom: 2.999999

[Metadata]
Title:KillerBeast
TitleUnicode:KillerBeast
Artist:Camellia
ArtistUnicode:かめりあ
Creator:Capu
Version:Muzukashii
Source:osu!
Tags:FA Featured Artist Electronic Instrumental Blackmagik Blazing かめるかめりあ KamelCamellia Cametek Comic Market Comiket C96 Cychloryn MG Mappers' Guild beasttrollmc
BeatmapID:2269596
BeatmapSetID:1069639

[Difficulty]
HPDrainRate:6
CircleSize:2
OverallDifficulty:5
ApproachRate:10
SliderMultiplier:1.4
SliderTickRate:1

[Events]
//Background and Video events
0,0,"killerbeast.jpg",0,20
//Break Periods
2,102162,110375
//Storyboard Layer 0 (Background)
//Storyboard Layer 1 (Fail)
//Storyboard Layer 2 (Pass)
//Storyboard Layer 3 (Foreground)
//Storyboard Layer 4 (Overlay)
//Storyboard Sound Samples

[TimingPoints]
2165,272.727272727273,4,1,0,70,1,0
2165,-142.857142857143,4,1,0,70,0,0
19619,-100,4,1,0,70,0,0
37074,-100,4,1,0,70,0,1
41301,-100,4,1,0,70,0,0
41710,-100,4,1,0,70,0,1
45255,-100,4,1,0,70,0,0
46346,-100,4,1,0,70,0,1
50096,-100,4,1,0,70,0,0
50983,-100,4,1,0,70,0,1
54255,-100,4,1,0,70,0,0
67620,275.862068965517,4,1,0,100,1,0
67620,-98.9119683481701,4,1,0,100,0,0
68723,287.769784172662,4,1,0,100,1,0
68723,-94.7867298578199,4,1,0,100,0,0
69874,298.507462686567,4,1,0,100,1,0
69874,-91.4076782449726,4,1,0,100,0,0
70471,303.030303030303,4,1,0,100,1,8
70471,-90.00900090009,4,1,0,100,0,0
71077,307.692307692308,4,1,0,100,1,0
71077,-88.6524822695036,4,1,0,100,0,0
71692,315.789473684211,4,1,0,100,1,8
71692,-86.4304235090752,4,1,0,100,0,0
72323,321.71581769437,4,1,0,100,1,0
72323,-84.8176420695505,4,1,0,100,0,0
72966,333.333333333333,4,1,0,100,1,8
72966,-81.8330605564648,4,1,0,100,0,0
73632,339.943342776204,4,1,0,100,1,0
73632,-80.2568218298555,4,1,0,100,0,0
74311,346.820809248555,4,1,0,100,1,8
74311,-78.6782061369001,4,1,0,100,0,0
75004,357.142857142857,4,1,0,100,1,0
75004,-76.3941940412529,4,1,0,100,0,0
75361,361.44578313253,4,1,0,100,1,8
75361,-75.4716981132076,4,1,0,100,0,0
75722,365.853658536585,4,1,0,100,1,8
75722,-74.5712155108128,4,1,0,100,0,0
76453,375,4,1,0,100,1,0
76453,-72.7272727272727,4,1,0,100,0,0
96234,-72.7272727272727,4,1,0,35,0,0
96515,-72.7272727272727,4,1,0,100,0,0
101921,375,4,1,0,70,1,8
101962,272.727272727273,4,1,0,100,1,0
110689,-100,4,1,0,20,0,0
119416,-100,4,1,0,30,0,0
121598,-100,4,1,0,40,0,0
123780,-100,4,1,0,50,0,0
125962,-100,4,1,0,60,0,0
136871,-100,4,1,0,100,0,0
145598,-100,4,1,0,100,0,0
154325,-100,4,1,0,100,0,1
162507,-100,4,1,0,100,0,0
163325,-100,4,1,0,100,0,1
167280,-100,4,1,0,100,0,0
168234,-100,4,1,0,100,0,1
171780,-100,4,1,0,100,0,0
173962,-100,4,1,0,100,0,1
176143,-100,4,1,0,100,0,0
178325,-100,4,1,0,100,0,1
179962,-100,4,1,0,100,0,0
188143,-100,4,1,0,100,0,0
189234,-100,4,1,0,100,0,1
196871,-100,4,1,0,100,0,0
197962,-100,4,1,0,100,0,1
200143,-100,4,1,0,100,0,0
202325,-100,4,1,0,100,0,1
204507,-100,4,1,0,100,0,0
205052,-100,4,1,0,100,0,0
208871,285.714285714286,4,1,0,100,1,0
208871,-95.5109837631328,4,1,0,100,0,0
209156,291.26213592233,4,1,0,100,1,8
209156,-93.7207122774133,4,1,0,100,0,0
209447,297.029702970297,4,1,0,100,1,8
209447,-91.8273645546373,4,1,0,100,0,0
209744,324.324324324324,4,1,0,100,1,8
209744,-84.1042893187552,4,1,0,100,0,0
210068,335.195530726257,4,1,0,100,1,0
210068,-81.366965012205,4,1,0,100,0,0
210403,368.098159509202,4,1,0,100,1,8
210403,-74.1289844329133,4,1,0,100,0,0
210771,375,4,1,0,100,1,8
210771,-72.7272727272727,4,1,0,100,0,0
211521,375,4,1,0,100,1,0
211521,-72.7272727272727,4,1,0,100,0,1
214521,352.941176470588,4,1,0,100,1,0
214521,-77.2797527047913,4,1,0,100,0,1
214873,342.857142857143,4,1,0,100,1,9
214873,-79.5544948289578,4,1,0,100,0,1
215215,333.333333333333,4,1,0,100,1,9
215215,-81.8330605564648,4,1,0,100,0,1
215548,310.880829015544,4,1,0,100,1,9
215548,-87.7963125548727,4,1,0,100,0,1
215858,285.714285714286,4,1,0,100,1,1
215858,-95.5109837631328,4,1,0,100,0,1
216143,272.727272727273,4,1,0,100,1,9
216143,-100,4,1,0,60,0,1
216279,-100,4,1,0,60,0,0
216962,272.727272727273,4,1,0,100,1,1
216962,-100,4,1,0,100,0,1
218325,-100,4,1,0,100,0,0
219143,279.06976744186,4,1,0,100,1,0
219143,-97.7517106549365,4,1,0,100,0,0
219422,289.156626506024,4,1,0,100,1,8
219422,-94.3396226415094,4,1,0,100,0,0
219711,300,4,1,0,100,1,8
219711,-90.9090909090909,4,1,0,100,0,0
220011,315.789473684211,4,1,0,100,1,8
220011,-86.4304235090752,4,1,0,100,0,0
220326,346.820809248555,4,1,0,100,1,0
220326,-78.6782061369001,4,1,0,100,0,1
220672,361.44578313253,4,1,0,100,1,9
220672,-75.4716981132076,4,1,0,100,0,1
220943,-75.4716981132076,4,1,0,100,0,0
221033,375,4,1,0,100,1,0
221033,-72.7272727272727,4,1,0,65,0,0
221783,375,4,1,0,100,1,0
221783,-72.7272727272727,4,1,0,100,0,0
224783,361.44578313253,4,1,0,100,1,0
224783,-75.4716981132076,4,1,0,100,0,1
225144,333.333333333333,4,1,0,100,1,9
225144,-81.8330605564648,4,1,0,100,0,1
225477,297.029702970297,4,1,0,100,1,9
225477,-91.8273645546373,4,1,0,100,0,1
225774,279.06976744186,4,1,0,100,1,9
225774,-97.7517106549365,4,1,0,100,0,1
226053,272.727272727273,4,1,0,100,1,0
226053,-100,4,1,0,100,0,0
227143,-100,4,1,0,100,0,1
231507,-100,4,1,0,100,0,0

[HitObjects]
256,192,19619,5,4,0:0:0:0:
256,192,23437,1,8,0:0:0:0:
256,192,23983,1,4,0:0:0:0:
256,192,27801,1,8,0:0:0:0:
256,192,28346,1,4,0:0:0:0:
256,192,28483,1,8,0:0:0:0:
256,192,28619,1,8,0:0:0:0:
256,192,28892,1,8,0:0:0:0:
256,192,29165,1,0,0:0:0:0:
256,192,29301,1,8,0:0:0:0:
256,192,29574,1,8,0:0:0:0:
256,192,29846,1,8,0:0:0:0:
256,192,29983,1,8,0:0:0:0:
256,192,30255,1,0,0:0:0:0:
256,192,30392,1,8,0:0:0:0:
256,192,30665,1,8,0:0:0:0:
256,192,30937,1,8,0:0:0:0:
256,192,31074,1,8,0:0:0:0:
256,192,31346,1,0,0:0:0:0:
256,192,31483,1,8,0:0:0:0:
256,192,31755,1,0,0:0:0:0:
256,192,32028,1,8,0:0:0:0:
256,192,32165,1,8,0:0:0:0:
256,192,32301,1,0,0:0:0:0:
256,192,32437,1,0,0:0:0:0:
256,192,32710,1,12,0:0:0:0:
256,192,32983,1,0,0:0:0:0:
256,192,33255,1,8,0:0:0:0:
256,192,33528,1,0,0:0:0:0:
256,192,33801,1,8,0:0:0:0:
256,192,34074,1,0,0:0:0:0:
256,192,34346,1,8,0:0:0:0:
256,192,34619,1,0,0:0:0:0:
256,192,34892,1,12,0:0:0:0:
256,192,35028,1,0,0:0:0:0:
256,192,35165,1,0,0:0:0:0:
256,192,35301,1,0,0:0:0:0:
256,192,35437,1,12,0:0:0:0:
256,192,35710,1,0,0:0:0:0:
256,192,35983,1,12,0:0:0:0:
256,192,36119,1,0,0:0:0:0:
256,192,36187,1,0,0:0:0:0:
256,192,36255,1,0,0:0:0:0:
256,192,36392,1,0,0:0:0:0:
256,192,36528,1,8,0:0:0:0:
256,192,37074,1,4,0:0:0:0:
256,192,37346,1,12,0:0:0:0:
256,192,37619,1,8,0:0:0:0:
256,192,37755,1,8,0:0:0:0:
256,192,37892,1,0,0:0:0:0:
256,192,38028,1,8,0:0:0:0:
256,192,38165,1,0,0:0:0:0:
256,192,38233,1,0,0:0:0:0:
256,192,38301,1,0,0:0:0:0:
256,192,38437,1,0,0:0:0:0:
256,192,38710,1,8,0:0:0:0:
256,192,38846,1,0,0:0:0:0:
256,192,38983,1,8,0:0:0:0:
256,192,39051,1,8,0:0:0:0:
256,192,39119,1,8,0:0:0:0:
256,192,39255,1,0,0:0:0:0:
256,192,39528,1,8,0:0:0:0:
256,192,39665,1,0,0:0:0:0:
256,192,39801,1,8,0:0:0:0:
256,192,39937,1,8,0:0:0:0:
256,192,40074,1,0,0:0:0:0:
256,192,40210,1,8,0:0:0:0:
256,192,40278,1,8,0:0:0:0:
256,192,40346,1,8,0:0:0:0:
256,192,40483,1,0,0:0:0:0:
256,192,40619,1,0,0:0:0:0:
256,192,40892,1,8,0:0:0:0:
256,192,41028,1,0,0:0:0:0:
256,192,41165,1,0,0:0:0:0:
256,192,41301,1,8,0:0:0:0:
256,192,41710,1,8,0:0:0:0:
256,192,41915,1,0,0:0:0:0:
256,192,41983,1,8,0:0:0:0:
256,192,42119,1,8,0:0:0:0:
256,192,42256,1,0,0:0:0:0:
256,192,42392,1,8,0:0:0:0:
256,192,42529,1,0,0:0:0:0:
256,192,42597,1,0,0:0:0:0:
256,192,42665,1,0,0:0:0:0:
256,192,42801,1,0,0:0:0:0:
256,192,43074,1,8,0:0:0:0:
256,192,43210,1,0,0:0:0:0:
256,192,43347,1,8,0:0:0:0:
256,192,43415,1,8,0:0:0:0:
256,192,43483,1,8,0:0:0:0:
256,192,43619,1,0,0:0:0:0:
256,192,43892,1,8,0:0:0:0:
256,192,44028,1,0,0:0:0:0:
256,192,44165,1,8,0:0:0:0:
256,192,44301,1,8,0:0:0:0:
256,192,44437,1,0,0:0:0:0:
256,192,44710,1,8,0:0:0:0:
256,192,44846,1,0,0:0:0:0:
256,192,44983,1,0,0:0:0:0:
256,192,45119,1,8,0:0:0:0:
256,192,45255,1,8,0:0:0:0:
256,192,45665,1,8,0:0:0:0:
256,192,45733,1,8,0:0:0:0:
256,192,45801,1,0,0:0:0:0:
256,192,46074,1,12,0:0:0:0:
256,192,46346,1,8,0:0:0:0:
256,192,46482,1,8,0:0:0:0:
256,192,46619,1,0,0:0:0:0:
256,192,46755,1,8,0:0:0:0:
256,192,46892,1,0,0:0:0:0:
256,192,46960,1,0,0:0:0:0:
256,192,47028,1,0,0:0:0:0:
256,192,47164,1,0,0:0:0:0:
256,192,47437,1,8,0:0:0:0:
256,192,47573,1,0,0:0:0:0:
256,192,47710,1,8,0:0:0:0:
256,192,47778,1,8,0:0:0:0:
256,192,47846,1,8,0:0:0:0:
256,192,47982,1,0,0:0:0:0:
256,192,48255,1,8,0:0:0:0:
256,192,48392,1,0,0:0:0:0:
256,192,48528,1,8,0:0:0:0:
256,192,48664,1,8,0:0:0:0:
256,192,48801,1,0,0:0:0:0:
256,192,48937,1,8,0:0:0:0:
256,192,49005,1,8,0:0:0:0:
256,192,49073,1,8,0:0:0:0:
256,192,49210,1,0,0:0:0:0:
256,192,49346,1,0,0:0:0:0:
256,192,49619,1,8,0:0:0:0:
256,192,49755,1,0,0:0:0:0:
256,192,49824,1,0,0:0:0:0:
256,192,49892,1,0,0:0:0:0:
256,192,50028,1,8,0:0:0:0:
256,192,50710,1,8,0:0:0:0:
256,192,50983,1,4,0:0:0:0:
256,192,51119,1,8,0:0:0:0:
256,192,51255,1,8,0:0:0:0:
256,192,51392,1,0,0:0:0:0:
256,192,51528,1,0,0:0:0:0:
256,192,51596,1,0,0:0:0:0:
256,192,51665,1,0,0:0:0:0:
256,192,51801,1,8,0:0:0:0:
256,192,51983,1,0,0:0:0:0:
256,192,52074,1,0,0:0:0:0:
256,192,52346,1,0,0:0:0:0:
256,192,52483,1,8,0:0:0:0:
256,192,52619,1,0,0:0:0:0:
256,192,52687,1,0,0:0:0:0:
256,192,52755,1,0,0:0:0:0:
256,192,52892,1,8,0:0:0:0:
256,192,53074,1,0,0:0:0:0:
256,192,53165,1,0,0:0:0:0:
256,192,53437,1,0,0:0:0:0:
256,192,53574,1,0,0:0:0:0:
256,192,53710,1,0,0:0:0:0:
256,192,53983,1,8,0:0:0:0:
256,192,54528,1,4,0:0:0:0:
256,192,54665,1,8,0:0:0:0:
256,192,54801,1,8,0:0:0:0:
256,192,54937,1,8,0:0:0:0:
256,192,55074,1,8,0:0:0:0:
256,192,55210,1,8,0:0:0:0:
256,192,55346,1,8,0:0:0:0:
256,192,55619,1,0,0:0:0:0:
256,192,55755,1,8,0:0:0:0:
256,192,55892,1,8,0:0:0:0:
256,192,56028,1,8,0:0:0:0:
256,192,56165,1,8,0:0:0:0:
256,192,56437,1,8,0:0:0:0:
256,192,56710,1,0,0:0:0:0:
256,192,56846,1,8,0:0:0:0:
256,192,56915,1,8,0:0:0:0:
256,192,56983,1,8,0:0:0:0:
256,192,57119,1,0,0:0:0:0:
256,192,57255,1,0,0:0:0:0:
256,192,57392,1,8,0:0:0:0:
256,192,57528,1,8,0:0:0:0:
256,192,57665,1,0,0:0:0:0:
256,192,57801,1,8,0:0:0:0:
256,192,58074,1,0,0:0:0:0:
256,192,58346,1,8,0:0:0:0:
256,192,58892,1,4,0:0:0:0:
256,192,59165,1,8,0:0:0:0:
256,192,59437,1,0,0:0:0:0:
256,192,59574,1,0,0:0:0:0:
256,192,59710,1,8,0:0:0:0:
256,192,59846,1,8,0:0:0:0:
256,192,59983,1,0,0:0:0:0:
256,192,60119,1,0,0:0:0:0:
256,192,60255,1,8,0:0:0:0:
256,192,60392,1,0,0:0:0:0:
256,192,60528,1,8,0:0:0:0:
256,192,60710,1,8,0:0:0:0:
256,192,60892,1,8,0:0:0:0:
256,192,61074,1,4,0:0:0:0:
256,192,61619,5,0,0:0:0:0:
256,192,61687,1,0,0:0:0:0:
256,192,61755,1,0,0:0:0:0:
256,192,61892,1,8,0:0:0:0:
256,192,62028,1,0,0:0:0:0:
256,192,62165,1,0,0:0:0:0:
256,192,62437,1,0,0:0:0:0:
256,192,62574,1,8,0:0:0:0:
256,192,62710,1,0,0:0:0:0:
256,192,62915,1,0,0:0:0:0:
256,192,62983,1,8,0:0:0:0:
256,192,63255,1,0,0:0:0:0:
256,192,63528,1,8,0:0:0:0:
256,192,63665,1,8,0:0:0:0:
256,192,63801,1,0,0:0:0:0:
256,192,63937,1,0,0:0:0:0:
256,192,64074,1,8,0:0:0:0:
256,192,64210,1,0,0:0:0:0:
256,192,64346,1,8,0:0:0:0:
256,192,64483,1,8,0:0:0:0:
256,192,64619,1,0,0:0:0:0:
256,192,64755,1,0,0:0:0:0:
256,192,64892,1,8,0:0:0:0:
256,192,65074,1,8,0:0:0:0:
256,192,65255,1,8,0:0:0:0:
256,192,65437,1,0,0:0:0:0:
256,192,65846,1,8,0:0:0:0:
256,192,65983,1,8,0:0:0:0:
256,192,66119,1,0,0:0:0:0:
256,192,66255,1,8,0:0:0:0:
256,192,66392,1,0,0:0:0:0:
256,192,66528,1,0,0:0:0:0:
256,192,66596,1,0,0:0:0:0:
256,192,66665,1,0,0:0:0:0:
256,192,66801,1,0,0:0:0:0:
256,192,66937,1,8,0:0:0:0:
256,192,67074,1,0,0:0:0:0:
256,192,67620,1,4,0:0:0:0:
256,192,67895,1,8,0:0:0:0:
256,192,68171,1,8,0:0:0:0:
256,192,68447,1,0,0:0:0:0:
256,192,68585,1,8,0:0:0:0:
256,192,68723,1,0,0:0:0:0:
256,192,69010,1,0,0:0:0:0:
256,192,69298,1,8,0:0:0:0:
256,192,69490,1,8,0:0:0:0:
256,192,69682,1,8,0:0:0:0:
256,192,69874,1,0,0:0:0:0:
256,192,70471,1,8,0:0:0:0:
256,192,70774,1,0,0:0:0:0:
256,192,71077,1,8,0:0:0:0:
256,192,71384,1,8,0:0:0:0:
256,192,71692,1,0,0:0:0:0:
256,192,71902,1,4,0:0:0:0:
256,192,72113,1,4,0:0:0:0:
256,192,72323,1,12,0:0:0:0:
256,192,72644,1,0,0:0:0:0:
256,192,72966,1,0,0:0:0:0:
256,192,73299,1,8,0:0:0:0:
256,192,73632,1,8,0:0:0:0:
256,192,73971,1,0,0:0:0:0:
256,192,74311,1,8,0:0:0:0:
256,192,74657,1,0,0:0:0:0:
256,192,75004,1,8,0:0:0:0:
256,192,75182,1,0,0:0:0:0:
256,192,75361,1,8,0:0:0:0:
256,192,75541,1,0,0:0:0:0:
256,192,75722,1,8,0:0:0:0:
256,192,75904,1,0,0:0:0:0:
256,192,76087,1,8,0:0:0:0:
256,192,76270,1,0,0:0:0:0:
256,192,76453,1,8,0:0:0:0:
256,192,76546,1,8,0:0:0:0:
256,192,76640,1,8,0:0:0:0:
256,192,76828,1,8,0:0:0:0:
256,192,76921,1,8,0:0:0:0:
256,192,77015,1,8,0:0:0:0:
256,192,77203,1,0,0:0:0:0:
256,192,77953,1,4,0:0:0:0:
256,192,78328,1,8,0:0:0:0:
256,192,78421,1,0,0:0:0:0:
256,192,78703,1,8,0:0:0:0:
256,192,78796,1,8,0:0:0:0:
256,192,78890,1,8,0:0:0:0:
256,192,79078,1,0,0:0:0:0:
256,192,79265,1,8,0:0:0:0:
256,192,79359,1,8,0:0:0:0:
256,192,79453,1,8,0:0:0:0:
256,192,79640,1,0,0:0:0:0:
256,192,79828,1,8,0:0:0:0:
256,192,79921,1,0,0:0:0:0:
256,192,80203,1,8,0:0:0:0:
256,192,80484,1,8,0:0:0:0:
256,192,80765,1,8,0:0:0:0:
256,192,80953,1,0,0:0:0:0:
256,192,81328,1,8,0:0:0:0:
256,192,81515,1,0,0:0:0:0:
256,192,81703,1,8,0:0:0:0:
256,192,81828,1,8,0:0:0:0:
256,192,82078,1,0,0:0:0:0:
256,192,82203,1,0,0:0:0:0:
256,192,82453,1,8,0:0:0:0:
256,192,82640,1,0,0:0:0:0:
256,192,82828,1,8,0:0:0:0:
256,192,82921,1,0,0:0:0:0:
256,192,83203,1,8,0:0:0:0:
256,192,83484,1,0,0:0:0:0:
256,192,83578,1,8,0:0:0:0:
256,192,83765,1,0,0:0:0:0:
256,192,84328,1,8,0:0:0:0:
256,192,84421,1,0,0:0:0:0:
256,192,84703,1,8,0:0:0:0:
256,192,84796,1,8,0:0:0:0:
256,192,84890,1,8,0:0:0:0:
256,192,85078,1,0,0:0:0:0:
256,192,85265,1,8,0:0:0:0:
256,192,85359,1,8,0:0:0:0:
256,192,85453,1,8,0:0:0:0:
256,192,85640,1,0,0:0:0:0:
256,192,85828,1,8,0:0:0:0:
256,192,85921,1,0,0:0:0:0:
256,192,86203,1,8,0:0:0:0:
256,192,86484,1,8,0:0:0:0:
256,192,86765,1,8,0:0:0:0:
256,192,86953,1,0,0:0:0:0:
256,192,87328,1,8,0:0:0:0:
256,192,87515,1,0,0:0:0:0:
256,192,87703,1,8,0:0:0:0:
256,192,87890,1,8,0:0:0:0:
256,192,87984,1,8,0:0:0:0:
256,192,88078,1,8,0:0:0:0:
256,192,88265,1,0,0:0:0:0:
256,192,88453,1,8,0:0:0:0:
256,192,88640,1,0,0:0:0:0:
256,192,88828,1,8,0:0:0:0:
256,192,88921,1,0,0:0:0:0:
256,192,89203,1,8,0:0:0:0:
256,192,89953,1,4,0:0:0:0:
256,192,90328,1,8,0:0:0:0:
256,192,90421,1,0,0:0:0:0:
256,192,90703,1,0,0:0:0:0:
256,192,90796,1,0,0:0:0:0:
256,192,90890,1,0,0:0:0:0:
256,192,91078,1,0,0:0:0:0:
256,192,91265,1,8,0:0:0:0:
256,192,91359,1,8,0:0:0:0:
256,192,91453,1,8,0:0:0:0:
256,192,91640,1,0,0:0:0:0:
256,192,91828,1,8,0:0:0:0:
256,192,91921,1,0,0:0:0:0:
256,192,92203,1,8,0:0:0:0:
256,192,92484,1,8,0:0:0:0:
256,192,92765,1,8,0:0:0:0:
256,192,92953,1,0,0:0:0:0:
256,192,93328,1,8,0:0:0:0:
256,192,93703,1,8,0:0:0:0:
256,192,93890,1,0,0:0:0:0:
256,192,93984,1,0,0:0:0:0:
256,192,94078,1,0,0:0:0:0:
256,192,94265,1,0,0:0:0:0:
256,192,94453,1,8,0:0:0:0:
256,192,94546,1,8,0:0:0:0:
256,192,94640,1,8,0:0:0:0:
256,192,94828,1,8,0:0:0:0:
256,192,94921,1,0,0:0:0:0:
256,192,95203,1,8,0:0:0:0:
256,192,95484,1,8,0:0:0:0:
256,192,95765,1,8,0:0:0:0:
256,192,96328,1,0,0:0:0:0:
256,192,96703,1,0,0:0:0:0:
256,192,96796,1,0,0:0:0:0:
256,192,96890,1,0,0:0:0:0:
256,192,97078,1,12,0:0:0:0:
256,192,97265,1,8,0:0:0:0:
256,192,97453,1,0,0:0:0:0:
256,192,97546,1,0,0:0:0:0:
256,192,97640,1,0,0:0:0:0:
256,192,97828,1,8,0:0:0:0:
256,192,97921,1,0,0:0:0:0:
256,192,98203,1,8,0:0:0:0:
256,192,98484,1,8,0:0:0:0:
256,192,98765,1,8,0:0:0:0:
256,192,98953,1,0,0:0:0:0:
256,192,99328,1,8,0:0:0:0:
256,192,99515,1,0,0:0:0:0:
256,192,99703,1,8,0:0:0:0:
256,192,99953,1,0,0:0:0:0:
256,192,100078,1,8,0:0:0:0:
256,192,100328,1,8,0:0:0:0:
256,192,100453,1,0,0:0:0:0:
256,192,101203,1,0,0:0:0:0:
256,192,101296,1,0,0:0:0:0:
256,192,101390,1,0,0:0:0:0:
256,192,101578,1,8,0:0:0:0:
256,192,101765,1,0,0:0:0:0:
256,192,101962,1,12,0:0:0:0:
256,192,110825,5,8,0:0:0:0:
256,192,110962,1,8,0:0:0:0:
256,192,111234,1,8,0:0:0:0:
256,192,111507,1,0,0:0:0:0:
256,192,111643,1,8,0:0:0:0:
256,192,111916,1,8,0:0:0:0:
256,192,112052,1,0,0:0:0:0:
256,192,112325,1,8,0:0:0:0:
256,192,112598,1,8,0:0:0:0:
256,192,113007,1,0,0:0:0:0:
256,192,113143,1,8,0:0:0:0:
256,192,113416,1,0,0:0:0:0:
256,192,113689,1,8,0:0:0:0:
256,192,113825,1,0,0:0:0:0:
256,192,114098,1,0,0:0:0:0:
256,192,114234,1,8,0:0:0:0:
256,192,114371,1,8,0:0:0:0:
256,192,114643,1,0,0:0:0:0:
256,192,114780,1,8,0:0:0:0:
256,192,115052,1,8,0:0:0:0:
256,192,115325,1,0,0:0:0:0:
256,192,115598,1,8,0:0:0:0:
256,192,115871,1,0,0:0:0:0:
256,192,116007,1,8,0:0:0:0:
256,192,116280,1,0,0:0:0:0:
256,192,116552,1,8,0:0:0:0:
256,192,116689,1,0,0:0:0:0:
256,192,116962,1,8,0:0:0:0:
256,192,117371,1,0,0:0:0:0:
256,192,117507,1,8,0:0:0:0:
256,192,117780,1,8,0:0:0:0:
256,192,118052,1,8,0:0:0:0:
256,192,118189,1,0,0:0:0:0:
256,192,118325,1,8,0:0:0:0:
256,192,118462,1,0,0:0:0:0:
256,192,118598,1,8,0:0:0:0:
256,192,118734,1,0,0:0:0:0:
256,192,118871,1,8,0:0:0:0:
256,192,119143,1,8,0:0:0:0:
256,192,119416,1,0,0:0:0:0:
256,192,119552,1,8,0:0:0:0:
256,192,119689,1,8,0:0:0:0:
256,192,119961,1,8,0:0:0:0:
256,192,120234,1,0,0:0:0:0:
256,192,120370,1,8,0:0:0:0:
256,192,120643,1,8,0:0:0:0:
256,192,120779,1,0,0:0:0:0:
256,192,121052,1,8,0:0:0:0:
256,192,121325,1,8,0:0:0:0:
256,192,121734,1,0,0:0:0:0:
256,192,121870,1,8,0:0:0:0:
256,192,122143,1,0,0:0:0:0:
256,192,122416,1,8,0:0:0:0:
256,192,122552,1,0,0:0:0:0:
256,192,122825,1,0,0:0:0:0:
256,192,122961,1,8,0:0:0:0:
256,192,123098,1,8,0:0:0:0:
256,192,123370,1,0,0:0:0:0:
256,192,123507,1,8,0:0:0:0:
256,192,123779,1,8,0:0:0:0:
256,192,124052,1,0,0:0:0:0:
256,192,124325,1,8,0:0:0:0:
256,192,124598,1,0,0:0:0:0:
256,192,124734,1,8,0:0:0:0:
256,192,125007,1,0,0:0:0:0:
256,192,125143,1,8,0:0:0:0:
256,192,125279,1,8,0:0:0:0:
256,192,125416,1,8,0:0:0:0:
256,192,125689,1,8,0:0:0:0:
256,192,125962,1,8,0:0:0:0:
256,192,126234,1,8,0:0:0:0:
256,192,126507,1,8,0:0:0:0:
256,192,126780,1,8,0:0:0:0:
256,192,127052,1,0,0:0:0:0:
256,192,128143,1,4,0:0:0:0:
256,192,128280,5,8,0:0:0:0:
256,192,128417,1,8,0:0:0:0:
256,192,128552,1,0,0:0:0:0:
256,192,128689,1,8,0:0:0:0:
256,192,128962,1,0,0:0:0:0:
256,192,129098,1,8,0:0:0:0:
256,192,129371,1,8,0:0:0:0:
256,192,129507,1,0,0:0:0:0:
256,192,129643,1,0,0:0:0:0:
256,192,129780,1,8,0:0:0:0:
256,192,130053,1,8,0:0:0:0:
256,192,130462,1,0,0:0:0:0:
256,192,130598,1,8,0:0:0:0:
256,192,130871,1,0,0:0:0:0:
256,192,131144,1,8,0:0:0:0:
256,192,131280,1,0,0:0:0:0:
256,192,131553,1,0,0:0:0:0:
256,192,131689,1,8,0:0:0:0:
256,192,131826,1,8,0:0:0:0:
256,192,131962,1,0,0:0:0:0:
256,192,132098,1,0,0:0:0:0:
256,192,132235,1,8,0:0:0:0:
256,192,132507,1,4,0:0:0:0:
256,192,132643,1,8,0:0:0:0:
256,192,132780,1,0,0:0:0:0:
256,192,132916,1,0,0:0:0:0:
256,192,133053,1,8,0:0:0:0:
256,192,133326,1,0,0:0:0:0:
256,192,133462,1,8,0:0:0:0:
256,192,133735,1,0,0:0:0:0:
256,192,133871,1,0,0:0:0:0:
256,192,134007,1,8,0:0:0:0:
256,192,134144,1,0,0:0:0:0:
256,192,134417,1,8,0:0:0:0:
256,192,134825,1,0,0:0:0:0:
256,192,134962,1,8,0:0:0:0:
256,192,135234,1,8,0:0:0:0:
256,192,135507,1,8,0:0:0:0:
256,192,135643,1,0,0:0:0:0:
256,192,135780,1,8,0:0:0:0:
256,192,135916,1,0,0:0:0:0:
256,192,136053,1,8,0:0:0:0:
256,192,136189,1,0,0:0:0:0:
256,192,136325,1,8,0:0:0:0:
256,192,136598,1,8,0:0:0:0:
256,192,136871,1,4,0:0:0:0:
256,192,137008,1,8,0:0:0:0:
256,192,137144,1,8,0:0:0:0:
256,192,137417,1,8,0:0:0:0:
256,192,137690,1,0,0:0:0:0:
256,192,137826,1,8,0:0:0:0:
256,192,138099,1,8,0:0:0:0:
256,192,138371,1,8,0:0:0:0:
256,192,138508,1,8,0:0:0:0:
256,192,138780,1,0,0:0:0:0:
256,192,138917,1,8,0:0:0:0:
256,192,139190,1,8,0:0:0:0:
256,192,139462,1,8,0:0:0:0:
256,192,139599,1,8,0:0:0:0:
256,192,139871,1,0,0:0:0:0:
256,192,140008,1,8,0:0:0:0:
256,192,140280,1,8,0:0:0:0:
256,192,140553,1,8,0:0:0:0:
256,192,140690,1,8,0:0:0:0:
256,192,140826,1,0,0:0:0:0:
256,192,140962,1,0,0:0:0:0:
256,192,141235,1,12,0:0:0:0:
256,192,141508,1,0,0:0:0:0:
256,192,141780,1,8,0:0:0:0:
256,192,142053,1,0,0:0:0:0:
256,192,142326,1,8,0:0:0:0:
256,192,142599,1,0,0:0:0:0:
256,192,142871,1,8,0:0:0:0:
256,192,143144,1,0,0:0:0:0:
256,192,143417,1,12,0:0:0:0:
256,192,143552,1,0,0:0:0:0:
256,192,143689,1,0,0:0:0:0:
256,192,143825,1,0,0:0:0:0:
256,192,143962,1,12,0:0:0:0:
256,192,144098,1,8,0:0:0:0:
256,192,144234,1,0,0:0:0:0:
256,192,144371,1,0,0:0:0:0:
256,192,144508,1,12,0:0:0:0:
256,192,144644,1,0,0:0:0:0:
256,192,144712,1,0,0:0:0:0:
256,192,144780,1,0,0:0:0:0:
256,192,144917,1,0,0:0:0:0:
256,192,145053,1,8,0:0:0:0:
256,192,145598,1,4,0:0:0:0:
256,192,146143,1,12,0:0:0:0:
256,192,146689,1,4,0:0:0:0:
256,192,147234,1,12,0:0:0:0:
256,192,147780,1,4,0:0:0:0:
256,192,148325,1,12,0:0:0:0:
256,192,148871,1,4,0:0:0:0:
256,192,149416,1,12,0:0:0:0:
256,192,149962,1,0,0:0:0:0:
256,192,150234,1,0,0:0:0:0:
256,192,150371,1,0,0:0:0:0:
256,192,150507,1,0,0:0:0:0:
256,192,150780,1,0,0:0:0:0:
256,192,151052,1,8,0:0:0:0:
256,192,151189,1,8,0:0:0:0:
256,192,151325,1,8,0:0:0:0:
256,192,151598,1,8,0:0:0:0:
256,192,151871,1,8,0:0:0:0:
256,192,152143,1,0,0:0:0:0:
256,192,152416,1,0,0:0:0:0:
256,192,152689,1,0,0:0:0:0:
256,192,153234,1,0,0:0:0:0:
256,192,154325,1,4,0:0:0:0:
256,192,154598,1,8,0:0:0:0:
256,192,154871,1,8,0:0:0:0:
256,192,155007,1,8,0:0:0:0:
256,192,155143,1,0,0:0:0:0:
256,192,155280,1,0,0:0:0:0:
256,192,155416,1,8,0:0:0:0:
256,192,155484,1,8,0:0:0:0:
256,192,155552,1,8,0:0:0:0:
256,192,155689,1,8,0:0:0:0:
256,192,155825,1,0,0:0:0:0:
256,192,155962,1,8,0:0:0:0:
256,192,156098,1,8,0:0:0:0:
256,192,156234,1,0,0:0:0:0:
256,192,156507,1,0,0:0:0:0:
256,192,156780,1,8,0:0:0:0:
256,192,156916,1,0,0:0:0:0:
256,192,157052,1,8,0:0:0:0:
256,192,157189,1,0,0:0:0:0:
256,192,157325,1,8,0:0:0:0:
256,192,157462,1,8,0:0:0:0:
256,192,157530,1,8,0:0:0:0:
256,192,157598,1,8,0:0:0:0:
256,192,157734,1,0,0:0:0:0:
256,192,157802,1,0,0:0:0:0:
256,192,157871,1,0,0:0:0:0:
256,192,158007,1,0,0:0:0:0:
256,192,158143,1,8,0:0:0:0:
256,192,158280,1,0,0:0:0:0:
256,192,158416,1,8,0:0:0:0:
256,192,158552,1,8,0:0:0:0:
256,192,158689,1,0,0:0:0:0:
256,192,158962,1,8,0:0:0:0:
256,192,159234,1,0,0:0:0:0:
256,192,159371,1,0,0:0:0:0:
256,192,159507,1,8,0:0:0:0:
256,192,159643,1,0,0:0:0:0:
256,192,159780,1,8,0:0:0:0:
256,192,159848,1,8,0:0:0:0:
256,192,159916,1,8,0:0:0:0:
256,192,160052,1,0,0:0:0:0:
256,192,160189,1,8,0:0:0:0:
256,192,160325,1,0,0:0:0:0:
256,192,160393,1,0,0:0:0:0:
256,192,160462,1,0,0:0:0:0:
256,192,160598,1,8,0:0:0:0:
256,192,160734,1,8,0:0:0:0:
256,192,160871,1,0,0:0:0:0:
256,192,161143,1,8,0:0:0:0:
256,192,161280,1,0,0:0:0:0:
256,192,161416,1,8,0:0:0:0:
256,192,161552,1,0,0:0:0:0:
256,192,161621,1,0,0:0:0:0:
256,192,161689,1,0,0:0:0:0:
256,192,161825,1,0,0:0:0:0:
256,192,161962,1,12,0:0:0:0:
256,192,162143,1,12,0:0:0:0:
256,192,162325,1,12,0:0:0:0:
256,192,162507,1,12,0:0:0:0:
256,192,163325,1,4,0:0:0:0:
256,192,163598,1,8,0:0:0:0:
256,192,163734,1,0,0:0:0:0:
256,192,163871,1,12,0:0:0:0:
256,192,164007,1,8,0:0:0:0:
256,192,164143,1,0,0:0:0:0:
256,192,164212,1,0,0:0:0:0:
256,192,164280,1,0,0:0:0:0:
256,192,164416,1,0,0:0:0:0:
256,192,164552,1,8,0:0:0:0:
256,192,164621,1,8,0:0:0:0:
256,192,164689,1,8,0:0:0:0:
256,192,164825,1,8,0:0:0:0:
256,192,164962,1,0,0:0:0:0:
256,192,165234,1,0,0:0:0:0:
256,192,165507,1,8,0:0:0:0:
256,192,165643,1,0,0:0:0:0:
256,192,165780,1,8,0:0:0:0:
256,192,165916,1,8,0:0:0:0:
256,192,166052,1,0,0:0:0:0:
256,192,166189,1,8,0:0:0:0:
256,192,166257,1,8,0:0:0:0:
256,192,166325,1,8,0:0:0:0:
256,192,166462,1,0,0:0:0:0:
256,192,166598,1,0,0:0:0:0:
256,192,166871,1,8,0:0:0:0:
256,192,167143,1,8,0:0:0:0:
256,192,167280,1,0,0:0:0:0:
256,192,167689,2,8,L|96:192,1,140
256,192,168234,1,4,0:0:0:0:
256,192,168371,1,8,0:0:0:0:
256,192,168507,1,0,0:0:0:0:
256,192,168643,1,0,0:0:0:0:
256,192,168780,1,8,0:0:0:0:
256,192,168848,1,8,0:0:0:0:
256,192,168916,1,8,0:0:0:0:
256,192,169052,1,0,0:0:0:0:
256,192,169189,1,8,0:0:0:0:
256,192,169325,1,0,0:0:0:0:
256,192,169598,1,12,0:0:0:0:
256,192,169802,1,0,0:0:0:0:
256,192,170007,1,0,0:0:0:0:
256,192,170143,1,12,0:0:0:0:
256,192,170348,1,0,0:0:0:0:
256,192,170552,1,0,0:0:0:0:
256,192,170689,1,12,0:0:0:0:
256,192,170962,1,8,0:0:0:0:
256,192,171780,1,4,0:0:0:0:
256,192,172462,1,0,0:0:0:0:
256,192,172598,1,0,0:0:0:0:
256,192,172734,1,0,0:0:0:0:
256,192,172802,1,0,0:0:0:0:
256,192,172871,1,0,0:0:0:0:
256,192,173280,1,8,0:0:0:0:
256,192,173416,1,8,0:0:0:0:
256,192,173552,1,8,0:0:0:0:
256,192,173689,1,8,0:0:0:0:
256,192,173962,1,4,0:0:0:0:
256,192,174371,1,8,0:0:0:0:
256,192,174507,1,8,0:0:0:0:
256,192,174643,1,8,0:0:0:0:
256,192,174780,1,8,0:0:0:0:
256,192,174916,1,8,0:0:0:0:
256,192,175052,1,8,0:0:0:0:
256,192,175189,1,8,0:0:0:0:
256,192,175325,1,8,0:0:0:0:
256,192,175462,1,8,0:0:0:0:
256,192,175598,1,8,0:0:0:0:
256,192,175734,1,8,0:0:0:0:
256,192,175871,1,8,0:0:0:0:
256,192,176143,1,4,0:0:0:0:
256,192,177234,1,0,0:0:0:0:
256,192,177643,1,8,0:0:0:0:
256,192,177780,1,8,0:0:0:0:
256,192,177916,1,8,0:0:0:0:
256,192,178052,1,8,0:0:0:0:
256,192,178325,1,4,0:0:0:0:
256,192,178734,1,8,0:0:0:0:
256,192,178871,1,8,0:0:0:0:
256,192,179007,1,8,0:0:0:0:
256,192,179143,1,8,0:0:0:0:
256,192,179280,1,8,0:0:0:0:
256,192,179416,1,8,0:0:0:0:
256,192,179507,1,8,0:0:0:0:
256,192,179598,1,8,0:0:0:0:
256,192,179689,1,8,0:0:0:0:
256,192,179825,1,8,0:0:0:0:
256,192,179962,1,8,0:0:0:0:
256,192,180507,1,0,0:0:0:0:
256,192,180780,1,8,0:0:0:0:
256,192,180916,1,0,0:0:0:0:
256,192,181052,1,8,0:0:0:0:
256,192,181189,1,8,0:0:0:0:
256,192,181325,1,4,0:0:0:0:
256,192,181462,1,8,0:0:0:0:
256,192,181598,1,8,0:0:0:0:
256,192,181734,1,8,0:0:0:0:
256,192,181871,1,8,0:0:0:0:
256,192,182007,1,8,0:0:0:0:
256,192,182143,1,8,0:0:0:0:
256,192,182280,1,8,0:0:0:0:
256,192,182416,1,8,0:0:0:0:
256,192,182962,1,0,0:0:0:0:
256,192,183098,1,0,0:0:0:0:
256,192,183234,1,8,0:0:0:0:
256,192,183371,1,0,0:0:0:0:
256,192,183507,1,8,0:0:0:0:
256,192,183643,1,8,0:0:0:0:
256,192,183780,1,8,0:0:0:0:
256,192,183916,1,8,0:0:0:0:
256,192,184052,1,8,0:0:0:0:
256,192,184189,1,8,0:0:0:0:
256,192,184325,1,8,0:0:0:0:
256,192,184462,1,8,0:0:0:0:
256,192,184598,1,8,0:0:0:0:
256,192,184871,1,4,0:0:0:0:
256,192,185416,1,0,0:0:0:0:
256,192,185689,1,8,0:0:0:0:
256,192,185825,1,8,0:0:0:0:
256,192,185962,1,8,0:0:0:0:
256,192,186098,1,8,0:0:0:0:
256,192,186234,1,8,0:0:0:0:
256,192,186371,1,8,0:0:0:0:
256,192,186507,1,8,0:0:0:0:
256,192,186643,1,8,0:0:0:0:
256,192,186780,1,8,0:0:0:0:
256,192,186916,1,8,0:0:0:0:
256,192,187052,1,0,0:0:0:0:
256,192,187234,1,0,0:0:0:0:
256,192,187325,1,8,0:0:0:0:
256,192,187507,1,8,0:0:0:0:
256,192,187598,1,0,0:0:0:0:
256,192,187780,1,0,0:0:0:0:
256,192,187871,1,0,0:0:0:0:
256,192,188052,1,8,0:0:0:0:
256,192,188143,1,0,0:0:0:0:
256,192,189234,1,12,0:0:0:0:
256,192,189371,1,0,0:0:0:0:
256,192,189507,1,8,0:0:0:0:
256,192,189643,1,0,0:0:0:0:
256,192,189780,1,8,0:0:0:0:
256,192,189848,1,8,0:0:0:0:
256,192,189916,1,8,0:0:0:0:
256,192,190052,1,0,0:0:0:0:
256,192,190189,1,8,0:0:0:0:
256,192,190598,1,8,0:0:0:0:
256,192,190734,1,0,0:0:0:0:
256,192,190871,1,8,0:0:0:0:
256,192,191007,1,0,0:0:0:0:
256,192,191143,1,8,0:0:0:0:
256,192,191212,1,8,0:0:0:0:
256,192,191280,1,8,0:0:0:0:
256,192,191416,1,8,0:0:0:0:
256,192,191552,1,0,0:0:0:0:
256,192,191689,1,8,0:0:0:0:
256,192,191825,1,0,0:0:0:0:
256,192,191962,1,8,0:0:0:0:
256,192,192030,1,8,0:0:0:0:
256,192,192098,1,8,0:0:0:0:
256,192,192234,1,0,0:0:0:0:
256,192,192371,1,8,0:0:0:0:
256,192,192643,1,0,0:0:0:0:
256,192,192780,1,8,0:0:0:0:
256,192,192916,1,0,0:0:0:0:
256,192,193052,1,8,0:0:0:0:
256,192,193121,1,8,0:0:0:0:
256,192,193189,1,8,0:0:0:0:
256,192,193325,1,0,0:0:0:0:
256,192,193393,1,0,0:0:0:0:
256,192,193462,1,0,0:0:0:0:
256,192,193598,1,12,0:0:0:0:
256,192,193734,1,0,0:0:0:0:
256,192,193871,1,8,0:0:0:0:
256,192,194007,1,0,0:0:0:0:
256,192,194143,1,8,0:0:0:0:
256,192,194212,1,8,0:0:0:0:
256,192,194280,1,8,0:0:0:0:
256,192,194416,1,0,0:0:0:0:
256,192,194552,1,8,0:0:0:0:
256,192,194962,1,8,0:0:0:0:
256,192,195098,1,0,0:0:0:0:
256,192,195234,1,8,0:0:0:0:
256,192,195371,1,0,0:0:0:0:
256,192,195507,1,8,0:0:0:0:
256,192,195575,1,8,0:0:0:0:
256,192,195643,1,8,0:0:0:0:
256,192,195780,1,0,0:0:0:0:
256,192,195848,1,0,0:0:0:0:
256,192,195916,1,0,0:0:0:0:
256,192,196052,1,8,0:0:0:0:
256,192,196189,1,0,0:0:0:0:
256,192,196325,1,8,0:0:0:0:
256,192,196462,1,8,0:0:0:0:
256,192,196530,1,0,0:0:0:0:
256,192,196666,1,8,0:0:0:0:
256,192,196734,1,0,0:0:0:0:
256,192,196871,1,12,0:0:0:0:
256,192,197007,1,0,0:0:0:0:
256,192,197416,1,8,0:0:0:0:
256,192,197552,1,0,0:0:0:0:
256,192,197962,1,12,0:0:0:0:
256,192,198098,1,0,0:0:0:0:
256,192,198166,1,0,0:0:0:0:
256,192,198234,1,0,0:0:0:0:
256,192,198371,1,0,0:0:0:0:
256,192,198507,1,8,0:0:0:0:
256,192,198643,1,0,0:0:0:0:
256,192,198780,1,8,0:0:0:0:
256,192,198916,1,8,0:0:0:0:
256,192,199189,1,0,0:0:0:0:
256,192,199325,1,8,0:0:0:0:
256,192,199462,1,8,0:0:0:0:
256,192,199598,1,0,0:0:0:0:
256,192,199734,1,0,0:0:0:0:
256,192,199871,1,8,0:0:0:0:
256,192,199939,1,8,0:0:0:0:
256,192,200007,1,8,0:0:0:0:
256,192,200143,1,0,0:0:0:0:
256,192,200280,1,8,0:0:0:0:
256,192,200552,1,0,0:0:0:0:
256,192,200689,1,0,0:0:0:0:
256,192,200825,1,8,0:0:0:0:
256,192,201098,1,0,0:0:0:0:
256,192,201234,1,0,0:0:0:0:
256,192,201371,1,8,0:0:0:0:
256,192,201643,1,0,0:0:0:0:
256,192,201780,1,0,0:0:0:0:
256,192,201916,1,8,0:0:0:0:
256,192,202325,1,8,0:0:0:0:
256,192,202462,1,0,0:0:0:0:
256,192,202598,1,8,0:0:0:0:
256,192,202734,1,0,0:0:0:0:
256,192,202871,1,8,0:0:0:0:
256,192,202939,1,8,0:0:0:0:
256,192,203007,1,8,0:0:0:0:
256,192,203143,1,0,0:0:0:0:
256,192,203280,1,8,0:0:0:0:
256,192,203416,1,0,0:0:0:0:
256,192,203484,1,0,0:0:0:0:
256,192,203552,1,0,0:0:0:0:
256,192,203689,1,8,0:0:0:0:
256,192,203825,1,8,0:0:0:0:
256,192,203962,1,0,0:0:0:0:
256,192,204030,1,0,0:0:0:0:
256,192,204098,1,0,0:0:0:0:
256,192,204234,1,8,0:0:0:0:
256,192,204371,1,8,0:0:0:0:
256,192,204507,1,4,0:0:0:0:
256,192,205052,12,0,205598,0:0:0:0:
256,192,206143,5,8,0:0:0:0:
256,192,206416,1,8,0:0:0:0:
256,192,206689,1,0,0:0:0:0:
256,192,206871,1,0,0:0:0:0:
256,192,207052,1,0,0:0:0:0:
256,192,207234,1,12,0:0:0:0:
256,192,207371,1,0,0:0:0:0:
256,192,207507,1,8,0:0:0:0:
256,192,207643,1,8,0:0:0:0:
256,192,207780,1,0,0:0:0:0:
256,192,207916,1,0,0:0:0:0:
256,192,208052,1,8,0:0:0:0:
256,192,208189,1,0,0:0:0:0:
256,192,208325,1,8,0:0:0:0:
256,192,208393,1,8,0:0:0:0:
256,192,208462,1,8,0:0:0:0:
256,192,208598,1,0,0:0:0:0:
256,192,208734,1,8,0:0:0:0:
256,192,208871,1,0,0:0:0:0:
256,192,209156,1,0,0:0:0:0:
256,192,209447,1,0,0:0:0:0:
256,192,209744,1,0,0:0:0:0:
256,192,210068,1,0,0:0:0:0:
256,192,210403,1,0,0:0:0:0:
256,192,210771,1,0,0:0:0:0:
256,192,211521,1,12,0:0:0:0:
256,192,211802,1,0,0:0:0:0:
256,192,211896,1,8,0:0:0:0:
256,192,212083,1,0,0:0:0:0:
256,192,212364,1,0,0:0:0:0:
256,192,212458,1,8,0:0:0:0:
256,192,212646,1,0,0:0:0:0:
256,192,212833,1,8,0:0:0:0:
256,192,213021,1,8,0:0:0:0:
256,192,213302,1,0,0:0:0:0:
256,192,213396,1,8,0:0:0:0:
256,192,213583,1,0,0:0:0:0:
256,192,213864,1,0,0:0:0:0:
256,192,213958,1,8,0:0:0:0:
256,192,214146,1,0,0:0:0:0:
256,192,214333,1,8,0:0:0:0:
256,192,214521,1,0,0:0:0:0:
256,192,214697,1,8,0:0:0:0:
256,192,214873,1,0,0:0:0:0:
256,192,215044,1,8,0:0:0:0:
256,192,215215,1,0,0:0:0:0:
256,192,215381,1,8,0:0:0:0:
256,192,215548,1,0,0:0:0:0:
256,192,215703,1,8,0:0:0:0:
256,192,215858,1,8,0:0:0:0:
256,192,216000,1,8,0:0:0:0:
256,192,216143,1,8,0:0:0:0:
256,192,216279,1,8,0:0:0:0:
256,192,216962,1,4,0:0:0:0:
256,192,217234,1,8,0:0:0:0:
256,192,217507,1,8,0:0:0:0:
256,192,217643,1,8,0:0:0:0:
256,192,217780,1,0,0:0:0:0:
256,192,217916,1,0,0:0:0:0:
256,192,218052,1,8,0:0:0:0:
256,192,218189,1,8,0:0:0:0:
256,192,218325,1,8,0:0:0:0:
256,192,219143,1,0,0:0:0:0:
256,192,219282,1,0,0:0:0:0:
256,192,219422,1,8,0:0:0:0:
256,192,219566,1,0,0:0:0:0:
256,192,219711,1,8,0:0:0:0:
256,192,219786,1,8,0:0:0:0:
256,192,219861,1,8,0:0:0:0:
256,192,220011,1,0,0:0:0:0:
256,192,220089,1,0,0:0:0:0:
256,192,220168,1,0,0:0:0:0:
256,192,220326,1,4,0:0:0:0:
256,192,220499,1,4,0:0:0:0:
256,192,220672,1,4,0:0:0:0:
256,192,220943,1,12,0:0:0:0:
256,192,221783,1,4,0:0:0:0:
256,192,222064,1,0,0:0:0:0:
256,192,222158,1,8,0:0:0:0:
256,192,222345,1,8,0:0:0:0:
256,192,222626,1,0,0:0:0:0:
256,192,222720,1,8,0:0:0:0:
256,192,222908,1,0,0:0:0:0:
256,192,223283,1,4,0:0:0:0:
256,192,223564,1,0,0:0:0:0:
256,192,223658,1,8,0:0:0:0:
256,192,223845,1,8,0:0:0:0:
256,192,224126,1,0,0:0:0:0:
256,192,224220,1,8,0:0:0:0:
256,192,224408,1,0,0:0:0:0:
256,192,224783,12,0,225913,0:0:0:0:
256,192,226053,5,8,0:0:0:0:
256,192,226325,1,8,0:0:0:0:
256,192,226598,1,8,0:0:0:0:
256,192,226871,1,8,0:0:0:0:
256,192,227143,1,4,0:0:0:0:
256,192,227416,1,8,0:0:0:0:
256,192,227689,1,8,0:0:0:0:
256,192,227825,1,0,0:0:0:0:
256,192,227962,1,8,0:0:0:0:
256,192,228098,1,8,0:0:0:0:
256,192,228234,1,0,0:0:0:0:
256,192,228371,1,4,0:0:0:0:
256,192,228575,1,4,0:0:0:0:
256,192,228780,1,12,0:0:0:0:
256,192,228984,1,4,0:0:0:0:
256,192,229189,1,0,0:0:0:0:
256,192,229325,1,4,0:0:0:0:
256,192,229598,1,8,0:0:0:0:
256,192,229734,1,0,0:0:0:0:
256,192,229871,1,8,0:0:0:0:
256,192,230007,1,8,0:0:0:0:
256,192,230143,1,0,0:0:0:0:
256,192,230280,1,8,0:0:0:0:
256,192,230416,1,0,0:0:0:0:
256,192,230484,1,0,0:0:0:0:
256,192,230553,1,0,0:0:0:0:
256,192,230689,1,8,0:0:0:0:
256,192,230825,1,0,0:0:0:0:
256,192,230893,1,0,0:0:0:0:
256,192,230962,1,0,0:0:0:0:
256,192,231098,1,0,0:0:0:0:
256,192,231234,1,8,0:0:0:0:
256,192,231507,1,4,0:0:0:0:
