osu file format v14

[General]
AudioFilename: Key of timepieces.mp3
AudioLeadIn: 0
PreviewTime: 269893
Countdown: 0
SampleSet: Soft
StackLeniency: 0.7
Mode: 0
LetterboxInBreaks: 0
WidescreenStoryboard: 1

[Editor]
Bookmarks: 203691,225760
DistanceSpacing: 0.5
BeatDivisor: 4
GridSize: 32
TimelineZoom: 1.82624

[Metadata]
Title:Key of timepieces
TitleUnicode:Key of timepieces
Artist:Camellia
ArtistUnicode:かめりあ
Creator:Regou
Version:Fragments
Source:
Tags:kamelcamellia かめるかめりあ cametek Cyphisonia E.P.
BeatmapID:1132818
BeatmapSetID:534800

[Difficulty]
HPDrainRate:5.7
CircleSize:3.8
OverallDifficulty:8.3
ApproachRate:9.4
SliderMultiplier:3.59999990463257
SliderTickRate:1

[Events]
//Background and Video events
0,0,"55295359_p0.jpg",0,0
//Break Periods
2,203886,225215
//Storyboard Layer 0 (Background)
//Storyboard Layer 1 (Fail)
//Storyboard Layer 2 (Pass)
//Storyboard Layer 3 (Foreground)
//Storyboard Sound Samples

[TimingPoints]
24382,344.827586206897,4,2,1,20,1,0
24382,-1000,4,2,1,20,0,0
46445,344.827586206897,4,3,1,35,1,0
46445,-600,4,3,1,35,0,0
49203,-600,4,3,1,38,0,0
51962,-600,4,3,1,41,0,0
54720,-600,4,3,1,44,0,0
57479,-200,4,3,1,50,0,0
60238,-200,4,3,1,53,0,0
62996,-200,4,3,1,56,0,0
67479,-200,4,1,50,30,0,0
67996,-166.666666666667,4,1,50,60,0,0
68513,-400,4,3,1,40,0,0
70410,-400,4,3,1,22,0,0
71272,-400,4,3,1,45,0,0
73169,-400,4,3,1,27,0,0
74031,-333.333333333333,4,3,1,30,0,0
74720,-303.030303030303,4,3,1,35,0,0
75410,-277.777777777778,4,3,1,40,0,0
76100,-250,4,3,1,45,0,0
76789,-200,4,3,1,50,0,0
78945,-200,4,3,1,30,0,0
79203,-100,4,3,1,30,0,0
79548,-200,4,3,1,50,0,0
82307,-200,4,3,1,53,0,0
85065,-133.333333333333,4,3,1,55,0,0
85410,-200,4,3,1,55,0,0
87479,-133.333333333333,4,2,1,60,0,0
87824,-400,4,1,51,60,0,0
90238,-100,4,3,2,60,0,0
90582,-100,4,2,1,70,0,0
90927,-100,4,2,2,80,0,0
91100,-200,4,2,2,80,0,0
91272,-400,4,2,2,80,0,0
91617,-200,4,2,2,80,0,0
91789,-200,4,2,2,80,0,0
91962,-400,4,2,2,80,0,0
92307,-200,4,2,2,80,0,0
92824,-100,4,2,2,80,0,0
93341,-400,4,2,2,80,0,0
93686,-100,4,2,2,80,0,0
95065,-100,4,2,2,80,0,0
95755,-75.187969924812,4,2,2,80,0,0
96100,-100,4,2,2,70,0,0
96445,-200,4,2,2,80,0,0
96789,-400,4,2,2,80,0,0
97307,-200,4,2,2,80,0,0
97479,-400,4,2,2,80,0,0
97996,-200,4,2,2,80,0,0
98513,-400,4,2,2,80,0,0
98858,-100,4,2,2,80,0,0
99203,-133.333333333333,4,2,2,80,0,0
99548,-133.333333333333,4,2,2,80,0,0
99893,-400,4,2,2,80,0,0
100410,-133.333333333333,4,2,2,80,0,0
100582,-100,4,2,2,80,0,0
101099,-133.333333333333,4,2,2,80,0,0
101272,-66.6666666666667,4,2,2,80,0,0
101617,-100,4,2,1,70,0,0
101962,-83.3333333333333,4,2,2,80,0,0
102134,-200,4,2,2,80,0,0
102307,-400,4,2,2,80,0,0
102823,-200,4,2,2,80,0,0
102996,-400,4,2,2,80,0,0
103513,-200,4,2,2,80,0,0
104376,-400,4,2,2,80,0,0
104720,-100,4,2,2,80,0,0
107134,-400,4,2,1,60,0,0
107651,-100,4,2,2,80,0,0
108169,-83.3333333333333,4,2,2,80,0,0
108513,-133.333333333333,4,2,2,80,0,0
109203,-600,4,2,2,80,0,0
109548,-83.3333333333333,4,2,2,80,0,0
109893,-133.333333333333,4,2,2,80,0,0
110238,-200,4,2,2,80,0,0
110927,-83.3333333333333,4,2,2,80,0,0
111445,-100,4,2,2,80,0,0
111962,-66.6666666666667,4,2,2,80,0,0
112134,-83.3333333333333,4,2,2,45,0,0
112393,-83.3333333333333,4,2,2,35,0,0
112651,-100,4,2,2,70,0,0
113169,-200,4,2,2,80,0,0
113341,-400,4,2,2,80,0,0
113858,-200,4,2,2,80,0,0
114031,-400,4,2,2,80,0,0
114548,-200,4,2,2,80,0,0
115410,-400,4,2,2,80,0,0
115755,-100,4,2,2,80,0,0
117824,-133.333333333333,4,2,2,80,0,0
118169,-100,4,2,2,60,0,0
118513,-100,4,2,2,50,0,0
118686,-200,4,2,2,80,0,0
118858,-400,4,2,2,80,0,0
119376,-200,4,2,2,80,0,0
119548,-400,4,2,2,80,0,0
120065,-200,4,2,2,80,0,0
120582,-400,4,2,2,80,0,0
120927,-100,4,2,2,80,0,0
121272,-83.3333333333333,4,2,2,80,0,0
121789,-100,4,2,2,80,0,0
121962,-133.333333333333,4,2,2,80,0,0
122307,-100,4,2,2,80,0,0
122651,-83.3333333333333,4,2,2,80,0,0
123341,-66.6666666666667,4,2,2,80,0,0
123686,-100,4,2,1,50,0,0
124031,-100,4,2,2,80,0,0
124203,-200,4,2,2,80,0,0
124376,-400,4,2,2,80,0,0
124893,-200,4,2,2,80,0,0
125065,-400,4,2,2,80,0,0
125582,-200,4,2,2,80,0,0
126445,-400,4,2,2,80,0,0
126789,-100,4,2,2,80,0,0
129203,-100,4,2,1,50,0,0
129548,-90.9090909090909,4,2,2,80,0,0
130582,-58.8235294117647,4,2,2,80,0,0
130927,-83.3333333333333,4,2,2,80,0,0
132134,-66.6666666666667,4,2,2,80,0,0
132393,-100,4,2,2,80,0,0
132996,-83.3333333333333,4,2,2,80,0,0
133686,-66.6666666666667,4,2,2,80,0,0
134031,-1000,4,2,1,80,0,0
134720,-600,4,2,1,30,0,0
146272,-600,4,2,1,35,0,0
155582,-600,4,2,2,60,0,0
156100,-600,4,3,0,60,0,0
156272,-600,4,3,0,50,0,0
156445,-1000,4,2,1,60,0,0
156789,-100,4,2,1,80,0,0
157393,-200,4,2,2,80,0,0
157824,-400,4,2,2,80,0,0
158513,-133.333333333333,4,2,2,80,0,0
158772,-100,4,2,2,80,0,0
159289,-200,4,2,2,80,0,0
159893,-50,4,2,2,80,0,0
160065,-200,4,2,2,80,0,0
160582,-400,4,2,2,80,0,0
161272,-133.333333333333,4,2,2,80,0,0
161617,-100,4,2,2,80,0,0
161962,-83.3333333333333,4,2,2,80,0,0
162307,-100,4,2,2,80,0,0
162824,-200,4,2,2,80,0,0
163341,-400,4,2,2,80,0,0
164031,-133.333333333333,4,2,2,80,0,0
164289,-100,4,2,2,80,0,0
165065,-200,4,2,2,80,0,0
165410,-50,4,2,2,80,0,0
165582,-400,4,2,2,80,0,0
166186,-200,4,2,2,80,0,0
166445,-100,4,2,2,80,0,0
166876,-133.333333333333,4,2,2,80,0,0
167134,-100,4,2,2,80,0,0
167479,-83.3333333333333,4,2,2,80,0,0
167824,-100,4,2,2,80,0,0
168427,-200,4,2,2,80,0,0
168858,-400,4,2,2,80,0,0
169548,-133.333333333333,4,2,2,80,0,0
169807,-100,4,2,2,80,0,0
170324,-200,4,2,2,80,0,0
170927,-50,4,2,2,80,0,0
171186,-400,4,2,2,80,0,0
171703,-200,4,2,2,80,0,0
171876,-100,4,2,2,80,0,0
172393,-133.333333333333,4,2,2,80,0,0
172651,-200,4,2,2,70,0,0
172996,-200,4,2,2,90,0,0
173341,-100,4,2,2,70,0,0
173686,-100,4,2,2,80,0,0
173945,-200,4,2,2,80,0,0
174203,-400,4,2,2,80,0,0
175065,-100,4,2,2,80,0,0
175410,-50,4,2,2,80,0,0
176445,-83.3333333333333,4,2,2,85,0,0
176703,-133.333333333333,4,2,2,80,0,0
177134,-83.3333333333333,4,2,2,95,0,0
177393,-133.333333333333,4,2,2,85,0,0
177738,-83.3333333333333,4,2,2,80,0,0
178082,-133.333333333333,4,2,2,60,0,0
178341,-133.333333333333,4,2,2,40,0,0
178427,-133.333333333333,4,2,2,43,0,0
178513,-133.333333333333,4,2,2,46,0,0
178600,-133.333333333333,4,2,2,50,0,0
178686,-133.333333333333,4,2,2,53,0,0
178772,-133.333333333333,4,2,2,56,0,0
178858,-83.3333333333333,4,2,2,70,0,0
179117,-83.3333333333333,4,2,2,80,0,0
179203,-75.187969924812,4,2,2,80,0,0
179462,-200,4,2,2,80,0,0
180151,-133.333333333333,4,2,2,80,0,0
180582,-83.3333333333333,4,2,2,80,0,0
181272,-200,4,2,2,80,0,0
181617,-100,4,2,2,80,0,0
181962,-83.3333333333333,4,2,2,80,0,0
182220,-66.6666666666667,4,2,2,80,0,0
182651,-100,4,2,2,80,0,0
182910,-133.333333333333,4,2,2,80,0,0
183341,-83.3333333333333,4,2,2,85,0,0
183600,-83.3333333333333,4,2,2,90,0,0
183858,-71.4285714285714,4,2,2,95,0,0
184031,-75.187969924812,4,2,2,100,0,0
184376,-133.333333333333,4,2,52,70,0,0
184720,-75.187969924812,4,2,2,80,0,0
184979,-200,4,2,2,80,0,0
185668,-100,4,2,2,80,0,0
186099,-83.3333333333333,4,2,2,80,0,0
186789,-200,4,2,2,80,0,0
187134,-100,4,2,2,80,0,0
187479,-83.3333333333333,4,2,2,80,0,0
187737,-66.6666666666667,4,2,2,80,0,0
188168,-100,4,2,2,80,0,0
188427,-133.333333333333,4,2,2,85,0,0
188858,-83.3333333333333,4,2,2,90,0,0
189375,-71.4285714285714,4,2,2,95,0,0
189548,-58.8235294117647,4,2,2,100,0,0
189893,-100,4,2,52,80,0,0
190151,-83.3333333333333,4,2,2,80,0,0
190238,-83.3333333333333,4,2,2,80,0,0
190496,-200,4,2,2,80,0,0
191186,-100,4,2,2,80,0,0
191617,-83.3333333333333,4,2,2,80,0,0
191876,-66.6666666666667,4,2,2,80,0,0
192307,-200,4,2,2,80,0,0
192651,-100,4,2,2,80,0,0
192997,-83.3333333333333,4,2,2,80,0,0
193255,-66.6666666666667,4,2,2,80,0,0
193686,-100,4,2,2,80,0,0
193945,-133.333333333333,4,2,2,85,0,0
194376,-83.3333333333333,4,2,2,90,0,0
194634,-83.3333333333333,4,2,2,95,0,0
195065,-75.187969924812,4,2,2,100,0,0
195411,-133.333333333333,4,2,2,80,0,0
195755,-75.187969924812,4,2,2,70,0,0
196013,-200,4,2,2,80,0,0
196703,-100,4,2,2,80,0,0
197134,-83.3333333333333,4,2,2,80,0,0
197824,-200,4,2,2,80,0,0
198169,-200,4,2,2,80,0,0
198513,-200,4,2,2,85,0,0
198772,-58.8235294117647,4,2,2,80,0,0
198858,-58.8235294117647,4,2,52,70,0,0
199031,-58.8235294117647,4,2,2,90,0,0
199462,-58.8235294117647,4,2,2,70,0,0
199548,-1000,4,2,2,35,0,0
203686,-200,4,3,1,40,0,0
225755,-303.030303030303,4,3,1,40,0,0
236789,-200,4,3,1,50,0,0
239548,-200,4,3,1,53,0,0
242307,-200,4,3,1,56,0,0
247479,-83.3333333333333,4,2,1,60,0,0
247824,-400,4,3,1,40,0,0
254031,-454.545454545455,4,3,1,40,0,0
254720,-526.315789473684,4,3,1,40,0,0
255410,-625,4,3,1,40,0,0
256100,-1000,4,3,1,40,0,0
258858,-1000,4,3,2,70,0,0
264376,-200,4,2,2,70,0,0
265065,-166.666666666667,4,2,2,73,0,0
265755,-142.857142857143,4,2,2,76,0,0
266445,-125,4,2,2,80,0,0
267134,-50,4,2,1,30,0,0
267479,-45,4,2,1,35,0,0
267824,-40,4,2,1,40,0,0
268169,-35,4,2,1,45,0,0
269203,-83.3333333333333,4,2,1,60,0,0
269548,-66.6666666666667,4,2,2,60,0,0
269893,-200,4,2,2,70,0,0
270410,-133.333333333333,4,2,1,80,0,0
271617,-200,4,2,1,80,0,0
271962,-133.333333333333,4,2,2,80,0,0
272307,-133.333333333333,4,2,2,90,0,0
272996,-200,4,2,2,80,0,0
273169,-600,4,2,2,80,0,0
273686,-200,4,2,2,80,0,0
273858,-600,4,2,2,80,0,0
274376,-133.333333333333,4,2,2,80,0,0
275410,-200,4,2,1,80,0,0
275582,-58.8235294117647,4,2,2,80,0,0
275927,-133.333333333333,4,2,1,80,0,0
277134,-200,4,2,2,80,0,0
277479,-133.333333333333,4,2,2,80,0,0
278858,-133.333333333333,4,2,2,83,0,0
279203,-133.333333333333,4,2,2,86,0,0
279548,-133.333333333333,4,2,2,90,0,0
279893,-75.187969924812,4,2,1,80,0,0
280582,-100,4,2,2,80,0,0
280927,-200,4,2,2,80,0,0
281445,-133.333333333333,4,2,1,80,0,0
282651,-200,4,2,1,80,0,0
282996,-133.333333333333,4,2,1,80,0,0
283341,-100,4,2,1,80,0,0
283772,-200,4,2,2,80,0,0
284548,-600,4,2,2,80,0,0
285065,-133.333333333333,4,2,2,80,0,0
285238,-100,4,2,1,80,0,0
285410,-133.333333333333,4,2,2,80,0,0
285582,-100,4,2,1,80,0,0
285755,-100,4,2,2,80,0,0
286445,-100,4,1,2,80,0,0
286962,-83.3333333333333,4,2,1,90,0,0
287479,-75.187969924812,4,2,2,80,0,0
288255,-66.6666666666667,4,2,2,75,0,0
288513,-100,4,2,2,80,0,0
288858,-133.333333333333,4,2,2,80,0,0
289203,-133.333333333333,4,2,2,90,0,0
289979,-75.187969924812,4,2,2,90,0,0
290238,-58.8235294117647,4,2,2,95,0,0
290582,-200,4,2,2,50,0,0
291617,-200,4,2,2,70,0,0
291962,-100,4,2,2,70,0,0
292307,-100,4,2,2,80,0,0
292479,-200,4,2,2,80,0,0
292651,-400,4,2,2,80,0,0
293169,-200,4,2,2,80,0,0
293341,-400,4,2,2,80,0,0
293858,-200,4,2,2,80,0,0
294376,-100,4,2,2,80,0,0
294720,-400,4,2,2,80,0,0
295238,-100,4,2,2,80,0,0
297479,-100,4,2,1,70,0,0
297824,-100,4,2,2,80,0,0
297996,-200,4,2,2,80,0,0
298169,-400,4,2,2,80,0,0
298686,-200,4,2,2,80,0,0
298858,-400,4,2,2,80,0,0
299376,-200,4,2,2,80,0,0
299893,-100,4,2,2,80,0,0
300238,-400,4,2,2,80,0,0
300582,-133.333333333333,4,2,2,80,0,0
301617,-100,4,2,2,80,0,0
301962,-83.3333333333333,4,2,2,80,0,0
302307,-75.187969924812,4,2,2,80,0,0
304031,-100,4,2,1,80,0,0
304548,-133.333333333333,4,2,2,80,0,0
304720,-100,4,2,2,80,0,0
306272,-200,4,2,2,80,0,0
306789,-100,4,2,2,80,0,0
308858,-90.9090909090909,4,2,2,90,0,0
309893,-58.8235294117647,4,2,2,80,0,0
310238,-83.3333333333333,4,2,2,90,0,0
311445,-75.187969924812,4,2,2,90,0,0
312134,-66.6666666666667,4,2,2,95,0,0
312651,-58.8235294117647,4,2,2,100,0,0
313341,-58.8235294117647,4,2,2,70,0,0
314031,-200,4,2,3,50,0,0
316789,-222.222222222222,4,2,3,46,0,0
319548,-250,4,2,3,43,0,0
322307,-285.714285714286,4,2,3,40,0,0
326617,-333.333333333333,4,2,3,36,0,0
327824,-400,4,2,3,30,0,0
331962,-500,4,2,3,30,0,0
334893,-666.666666666667,4,2,3,30,0,0
336100,-1000,4,2,1,30,0,0

[Colours]
Combo1 : 91,91,255
Combo2 : 130,255,130
Combo3 : 255,255,102
Combo4 : 255,147,220
Combo5 : 255,189,91
Combo6 : 255,74,111
Combo7 : 111,255,255
Combo8 : 190,125,255

[HitObjects]
161,308,24382,6,0,B|194:324|188:358|188:358|158:344|120:340|79:343|42:363|42:363|67:337|84:307|88:253|75:216|47:198|17:196|-10:206|-23:232|-28:255|-22:283|-5:301|21:306|45:295,1,539.999985694885,8|0,3:3|3:0,0:0:0:0:
86,27,29899,6,0,B|86:28|112:34|148:32|201:17|201:17|182:59|165:71|165:71|125:84|101:123|95:165|120:220|200:236|249:200|281:144|246:86|199:76,1,539.999985694885,8|0,3:0|3:0,2:0:0:0:
224,352,35416,6,0,B|346:347|337:228|337:228|308:298|258:322|258:322|318:313|318:313|343:336|343:336|386:332|386:332|416:364|468:348,1,539.999985694885,0|0,3:0|3:0,0:0:0:0:
507,194,40933,6,0,B|423:137|409:70|447:-2|447:-2|509:24|532:76|511:123|511:123|482:116|430:131|413:174|421:221,1,539.999985694885,0|0,3:0|3:0,0:0:0:0:
329,233,46445,6,0,P|306:234|265:237,1,59.9999984105428,4|8,3:0|0:2,0:0:0:0:
325,239,46962,2,0,P|302:240|264:243,1,59.9999984105428
321,245,47479,2,0,P|298:246|260:249,1,59.9999984105428,8|2,0:2|0:2,0:0:0:0:
319,251,47996,2,0,P|296:252|258:255,1,59.9999984105428
334,345,48513,5,0,0:0:0:0:
265,330,48686,1,0,0:0:0:0:
196,336,48858,1,8,0:2:0:0:
139,374,49031,1,0,0:0:0:0:
16,275,49203,6,0,P|13:241|9:204,1,59.9999984105428,0|8,0:0|0:2,0:0:0:0:
22,269,49720,2,0,P|19:235|15:198,1,59.9999984105428
28,263,50238,2,0,P|25:229|21:192,1,59.9999984105428,8|2,0:2|0:2,0:0:0:0:
33,257,50755,2,0,P|30:223|26:186,1,59.9999984105428
5,69,51272,5,0,0:0:0:0:
71,96,51445,1,0,0:0:0:0:
141,92,51617,1,8,0:2:0:0:
194,48,51789,1,0,0:0:0:0:
334,120,51962,6,0,P|339:153|350:187,1,59.9999984105428,0|8,0:0|0:2,0:0:0:0:
334,120,52479,2,0,P|307:106|271:98,1,59.9999984105428
334,120,52996,2,0,P|359:103|384:76,1,59.9999984105428,8|2,3:2|0:2,0:0:0:0:
313,37,53513,5,0,0:0:0:0:
416,160,53686,2,0,P|436:166|465:167,1,44.9999988079071,8|0,0:2|0:0,0:0:0:0:
410,158,54031,1,0,0:0:0:0:
271,179,54203,2,0,P|252:189|238:200,2,29.9999992052714,0|8|0,0:0|0:2|0:0,0:0:0:0:
133,283,54720,6,0,P|128:316|117:350,1,59.9999984105428,0|8,0:0|0:2,0:0:0:0:
133,283,55238,2,0,P|160:269|196:261,1,59.9999984105428
133,283,55755,2,0,P|107:266|82:239,1,59.9999984105428,8|0,0:2|0:0,0:0:0:0:
154,200,56272,5,0,0:0:0:0:
59,316,56445,2,0,P|39:322|10:323,1,44.9999988079071,8|0,0:2|0:0,0:0:0:0:
59,316,56789,1,0,0:0:0:0:
196,342,56962,2,0,P|215:352|229:363,2,29.9999992052714,0|8|0,0:0|0:2|0:0,0:0:0:0:
282,259,57479,6,0,P|357:240|441:309,1,179.999995231629,8|8,0:0|0:2,0:0:0:0:
500,212,57996,1,0,0:0:0:0:
494,199,58082,1,0,0:0:0:0:
348,324,58341,1,0,0:0:0:0:
323,139,58513,2,0,P|314:90|317:35,1,89.9999976158143,8|0,0:2|0:0,0:0:0:0:
239,15,58772,5,0,0:0:0:0:
232,21,58858,1,2,0:2:0:0:
401,99,59031,1,0,0:0:0:0:
249,204,59203,2,0,P|168:206|104:211,1,134.999996423721,8|0,0:2|0:0,0:0:0:0:
96,214,59548,1,0,0:0:0:0:
9,138,59720,5,0,0:0:0:0:
32,329,59893,1,8,0:2:0:0:
9,138,60065,1,0,0:0:0:0:
141,373,60238,6,0,P|211:329|319:364,1,179.999995231629,0|8,0:0|0:2,0:0:0:0:
384,307,60755,1,0,0:0:0:0:
395,316,60841,1,0,0:0:0:0:
295,257,61100,1,0,0:0:0:0:
487,359,61272,2,0,P|491:314|507:244,1,89.9999976158143,8|0,0:2|0:0,0:0:0:0:
496,193,61531,5,0,0:0:0:0:
493,182,61617,1,0,0:0:0:0:
295,257,61789,1,0,0:0:0:0:
345,16,61962,2,0,P|368:108|384:172,1,134.999996423721,8|0,0:2|0:0,0:0:0:0:
385,165,62307,5,0,0:0:0:0:
465,95,62479,1,0,0:0:0:0:
286,145,62651,2,0,P|227:139|160:134,1,89.9999976158143,8|0,0:2|0:0,0:0:0:0:
0,265,62996,6,0,B|116:239|71:312|203:285,1,179.999995231629,8|8,0:0|0:2,0:0:0:0:
246,372,63513,1,0,0:0:0:0:
253,355,63600,2,0,P|259:294|271:230,1,89.9999976158143
270,242,63858,1,0,0:0:0:0:
147,2,64031,6,0,P|156:57|160:104,1,89.9999976158143,8|0,0:2|0:0,0:0:0:0:
178,169,64289,1,0,0:0:0:0:
199,166,64376,2,0,P|309:178|400:191,1,179.999995231629,2|8,0:2|0:2,0:0:0:0:
378,372,64893,5,0,0:0:0:0:
378,372,64979,1,0,0:0:0:0:
378,372,65065,2,0,P|366:315|357:268,1,89.9999976158143
449,124,65410,2,0,P|461:181|470:228,1,89.9999976158143,8|0,0:2|0:0,0:0:0:0:
502,314,65755,5,2,0:2:0:0:
10,314,66100,5,8,0:2:0:0:
39,301,66272,1,0,0:0:0:0:
387,362,66617,5,0,0:0:0:0:
416,349,66789,1,8,0:2:0:0:
149,43,67134,5,2,0:2:0:0:
178,30,67307,1,0,0:0:0:0:
230,187,67479,6,0,P|235:142|241:98,1,89.9999976158143,4|0,0:0|0:0,0:0:0:0:
249,84,67738,2,0,P|309:91|366:99,1,89.9999976158143
332,231,67996,6,0,B|175:182|234:297|62:241,1,269.999984607697
9,193,68513,6,0,P|3:161|-4:135,3,44.9999988079071,4|0|8|0,1:0|0:0|0:2|0:0,0:0:0:0:
75,151,69203,2,0,P|73:121|69:104,3,44.9999988079071,0|0|8|0,0:2|0:0|0:2|0:0,0:0:0:0:
148,127,69893,2,0,P|149:97|145:71,2,44.9999988079071,0|0|8,0:2|0:0|0:2,0:0:0:0:
256,101,70410,6,0,L|255:43,1,44.9999988079071,0|0,0:0|0:2,0:0:0:0:
256,283,70755,2,0,L|257:341,2,44.9999988079071,0|8|0,0:0|0:2|0:0,0:0:0:0:
364,127,71272,6,0,P|363:97|367:71,3,44.9999988079071,0|0|8|0,0:0|0:0|0:2|0:0,0:0:0:0:
437,151,71962,2,0,P|439:121|443:104,3,44.9999988079071,0|0|8|0,0:0|0:0|0:2|0:0,0:0:0:0:
503,193,72651,2,0,P|509:161|516:135,2,44.9999988079071,0|0|8,0:0|0:0|0:2,0:0:0:0:
256,327,73169,6,0,L|256:283,1,44.9999988079071
256,56,73513,2,0,L|256:101,2,44.9999988079071,0|8|0,0:0|0:2|0:0,0:0:0:0:
186,217,74031,6,0,P|182:184|178:154,1,53.9999969215394,0|0,1:0|3:3,0:0:0:0:
326,217,74376,2,0,P|330:184|334:154,1,53.9999969215394,0|0,1:1|3:0,0:0:0:0:
181,225,74720,6,0,P|177:192|173:158,1,59.399998245163,0|0,1:0|3:0,0:0:0:0:
331,225,75065,2,0,P|335:192|339:158,1,59.399998245163,0|0,1:0|3:0,0:0:0:0:
176,234,75410,6,0,P|172:201|165:162,1,64.7999998654175,0|0,1:0|0:0,0:0:0:0:
336,234,75755,2,0,P|340:201|347:162,1,64.7999998654175,0|0,1:0|0:0,0:0:0:0:
172,239,76100,6,0,P|168:206|161:163,1,71.9999980926514,0|0,1:0|0:0,0:0:0:0:
340,239,76445,2,0,P|344:206|351:163,1,71.9999980926514,0|0,1:0|0:0,0:0:0:0:
248,367,76789,6,0,B|216:267|278:288|249:176,3,179.999995231629,0|0|0|0,1:0|1:0|1:0|1:0,0:0:0:0:
256,0,77996,6,0,L|256:32,4,22.4999994039536,0|0|0|0|0,3:0|3:0|3:0|3:0|1:0,0:0:0:0:
185,124,78341,1,0,0:0:0:0:
176,129,78427,2,0,P|152:129|122:113,1,44.9999988079071,0|0,1:0|0:0,0:0:0:0:
337,106,78600,1,0,0:0:0:0:
346,101,78686,2,0,P|370:101|400:117,1,44.9999988079071,0|0,1:0|0:0,0:0:0:0:
495,198,78858,5,0,1:0:0:0:
477,268,78945,1,8,1:0:0:0:
40,198,79203,6,0,L|101:209,1,44.9999988079071,0|0,1:0|1:3,0:0:0:0:
29,229,79289,2,0,L|90:240,1,44.9999988079071,0|0,3:0|3:0,0:0:0:0:
21,260,79376,2,0,L|82:271,1,44.9999988079071,0|0,3:0|3:0,0:0:0:0:
10,291,79462,2,0,L|71:302,1,44.9999988079071,0|0,3:0|3:0,0:0:0:0:
34,372,79548,6,0,P|80:372|119:346,1,89.9999976158143,0|0,1:0|3:0,0:0:0:0:
192,256,79893,2,0,P|208:213|197:168,1,89.9999976158143,8|0,3:1|3:0,0:0:0:0:
34,373,80238,1,0,3:0:0:0:
192,256,80410,1,0,1:0:0:0:
133,58,80582,2,0,P|98:28|52:23,1,89.9999976158143,8|0,3:1|3:0,0:0:0:0:
269,367,80927,5,0,3:0:0:0:
367,265,81100,1,0,1:0:0:0:
299,301,81272,5,8,3:1:0:0:
439,282,81445,1,0,3:0:0:0:
283,73,81617,5,0,3:0:0:0:
412,130,81789,1,0,1:0:0:0:
355,78,81962,5,8,3:1:0:0:
421,203,82134,1,0,3:0:0:0:
478,372,82307,6,0,P|432:372|393:346,1,89.9999976158143,0|0,1:0|3:0,0:0:0:0:
320,256,82651,2,0,P|304:213|315:168,1,89.9999976158143,8|0,3:1|3:0,0:0:0:0:
478,373,82996,1,0,3:0:0:0:
320,256,83169,1,0,1:0:0:0:
379,58,83341,2,0,P|414:28|460:23,1,89.9999976158143,8|0,3:1|0:0,0:0:0:0:
240,349,83686,5,0,0:0:0:0:
34,339,83858,1,0,1:0:0:0:
221,266,84031,5,8,3:1:0:0:
64,255,84203,1,0,0:0:0:0:
247,172,84376,5,0,0:0:0:0:
48,163,84548,1,0,1:0:0:0:
233,86,84720,5,8,3:1:0:0:
74,75,84893,1,0,0:0:0:0:
139,332,85065,6,0,L|154:83,1,179.999995231629,0|0,1:0|3:0,0:0:0:0:
150,135,85410,2,0,P|85:140|41:146,1,89.9999976158143,8|0,3:1|3:0,0:0:0:0:
45,146,85669,1,0,1:0:0:0:
294,32,85927,1,0,1:0:0:0:
278,171,86100,6,0,P|272:233|267:298,1,89.9999976158143,8|0,3:1|0:0,0:0:0:0:
266,276,86358,2,0,P|336:281|424:293,1,134.999996423721,0|0,1:0|1:0,0:0:0:0:
512,138,86789,2,0,P|442:133|354:121,1,134.999996423721,8|0,3:1|1:0,0:0:0:0:
481,301,87307,1,0,1:0:0:0:
218,379,87479,6,0,P|160:289|26:305,1,202.500002360344,8|0,3:1|3:0,0:0:0:0:
3,306,87824,1,4,1:0:0:0:
256,192,87910,12,0,90065,0:0:0:0:
448,272,90238,5,8,2:3:0:0:
441,295,90324,1,8,2:3:0:0:
435,316,90410,1,0,2:3:0:0:
428,338,90496,1,8,2:3:0:0:
420,363,90582,6,0,B|255:388|255:388|335:306,1,269.999992847443,4|0,1:1|3:0,1:0:0:0:
342,299,90927,1,8,0:2:0:0:
36,228,91100,6,0,P|34:250|46:286,1,44.9999988079071,0|0,2:0|2:0,0:0:0:0:
100,337,91272,2,0,B|62:335|74:353|23:346,1,67.4999982118607
22,356,91617,1,8,0:2:0:0:
116,207,91789,6,0,P|114:229|126:265,1,44.9999988079071
180,316,91962,2,0,B|142:314|154:332|103:325,1,67.4999982118607
100,337,92307,1,8,2:2:0:0:
201,184,92479,6,2,P|199:206|211:242,1,44.9999988079071
313,90,92651,5,2,0:0:0:0:
313,51,92738,1,2,0:0:0:0:
287,18,92824,1,0,1:0:0:0:
248,9,92910,1,2,0:0:0:0:
271,149,92996,5,8,0:2:0:0:
304,168,93082,1,2,0:0:0:0:
346,162,93169,1,2,0:0:0:0:
373,133,93255,1,2,0:0:0:0:
239,81,93341,6,0,P|209:98|176:114,1,67.4999982118607,0|0,1:0|0:0,0:0:0:0:
372,363,93686,6,0,P|373:321|378:265,1,89.9999976158143,8|0,0:0|0:0,0:0:0:0:
278,239,93858,2,0,P|277:281|272:337,1,89.9999976158143
380,370,94031,2,0,P|381:328|386:272,1,89.9999976158143
73,289,94203,5,0,1:0:0:0:
73,289,94289,1,0,0:0:0:0:
73,289,94376,2,0,P|72:247|67:191,1,89.9999976158143,8|0,0:0|0:0,0:0:0:0:
167,165,94548,2,0,P|168:207|173:263,1,89.9999976158143
65,296,94720,2,0,P|64:254|59:198,1,89.9999976158143
455,164,94893,5,0,1:0:0:0:
455,164,94979,1,0,0:0:0:0:
455,164,95065,2,0,P|456:122|461:66,1,89.9999976158143,8|0,0:0|0:0,0:0:0:0:
361,40,95238,2,0,P|360:82|355:138,1,89.9999976158143
504,311,95410,5,0,0:0:0:0:
460,261,95496,1,2,0:0:0:0:
400,237,95582,1,0,1:0:0:0:
337,247,95669,1,2,0:0:0:0:
286,286,95755,5,8,0:0:0:0:
243,348,95841,1,2,0:0:0:0:
172,369,95927,1,2,0:0:0:0:
100,352,96013,1,2,0:0:0:0:
39,264,96100,6,0,P|20:164|112:225,1,269.999992847443,4|0,1:0|2:0,0:0:0:0:
110,242,96445,1,8,2:0:0:0:
370,149,96617,6,0,P|372:127|360:91,1,44.9999988079071
306,40,96789,2,0,B|344:42|332:24|383:31,1,67.4999982118607
384,21,97134,1,8,2:0:0:0:
290,170,97307,6,0,P|292:148|280:112,1,44.9999988079071
226,61,97479,2,0,B|264:63|252:45|303:52,1,67.4999982118607
306,40,97824,1,8,0:0:0:0:
205,193,97996,6,2,P|207:171|195:135,1,44.9999988079071
422,246,98169,5,0,0:0:0:0:
379,245,98255,1,2,0:0:0:0:
350,271,98341,1,0,1:0:0:0:
350,313,98427,1,2,0:0:0:0:
374,345,98513,2,0,P|414:351|461:362,1,67.4999982118607,8|0,0:2|0:0,0:0:0:0:
245,306,98858,6,0,B|113:245|144:380|-24:326,1,269.999992847443,0|0,1:0|0:0,0:0:0:0:
9,248,99203,6,0,P|83:248|81:124,1,202.500002360344,8|0,0:3|0:0,0:0:0:0:
138,59,99548,2,0,B|37:50|37:50|73:79,1,134.999996423721,0|0,2:0|1:0,1:0:0:0:
199,179,99807,2,0,B|300:170|300:170|259:148,1,134.999996423721,0|0,2:0|2:0,1:0:0:0:
219,53,100065,6,0,L|215:106,1,44.9999988079071,0|0,0:0|2:0,0:0:0:0:
199,263,100324,1,0,0:0:0:0:
241,259,100410,6,0,L|316:253,1,67.5000007867814,0|0,1:0|0:0,0:0:0:0:
459,382,100582,2,0,B|416:351|403:225|403:225|407:295|341:344,1,269.999992847443,8|0,3:0|0:0,0:0:0:0:
313,383,100927,1,0,0:0:0:0:
295,370,101013,1,0,0:0:0:0:
275,353,101100,2,0,L|207:358,1,67.5000007867814,0|0,1:0|0:0,0:0:0:0:
266,94,101272,6,0,P|252:264|190:109,1,405.000004720688,8|0,0:2|0:0,0:0:0:0:
24,114,101617,6,0,B|94:96|158:158|158:158|155:95|196:41,1,269.999992847443,4|0,1:0|0:0,1:0:0:0:
64,202,101962,1,8,2:0:0:0:
255,358,102134,6,0,P|232:357|211:349,1,44.9999988079071
177,279,102307,2,0,B|213:271|213:271|252:285,1,67.4999982118607
256,284,102651,1,8,0:0:0:0:
379,302,102824,6,0,P|356:301|335:293,1,44.9999988079071
301,223,102996,2,0,B|337:215|337:215|376:229,1,67.4999982118607
380,228,103341,1,8,0:0:0:0:
499,243,103513,6,0,P|476:242|455:234,1,44.9999988079071
255,0,103686,5,0,0:0:0:0:
289,9,103772,1,2,0:0:0:0:
316,31,103858,1,0,1:0:0:0:
335,64,103945,1,2,0:0:0:0:
231,170,104031,5,8,0:0:0:0:
223,142,104117,1,2,0:0:0:0:
227,114,104203,1,2,0:0:0:0:
243,88,104289,1,2,0:0:0:0:
375,141,104376,6,0,P|343:146|293:157,1,67.4999982118607,0|0,1:0|0:0,0:0:0:0:
47,171,104720,6,0,P|45:127|37:56,1,89.9999976158143,8|0,0:0|0:0,0:0:0:0:
132,31,104893,2,0,P|134:75|142:146,1,89.9999976158143
41,179,105065,2,0,P|39:135|31:64,1,89.9999976158143
260,276,105238,5,0,1:0:0:0:
260,276,105324,1,0,0:0:0:0:
260,276,105410,2,8,P|262:320|270:391,1,89.9999976158143,8|0,0:0|0:0,0:0:0:0:
158,326,105582,2,0,P|156:282|148:211,1,89.9999976158143
266,268,105755,2,0,P|268:312|276:383,1,89.9999976158143
349,161,105927,5,0,1:0:0:0:
349,161,106013,1,0,0:0:0:0:
349,161,106100,2,0,P|347:117|339:46,1,89.9999976158143,8|0,0:0|0:0,0:0:0:0:
438,29,106272,2,0,P|440:73|448:144,1,89.9999976158143
509,248,106445,5,0,0:0:0:0:
456,261,106531,1,2,0:0:0:0:
403,273,106617,1,0,1:0:0:0:
350,285,106703,1,2,0:0:0:0:
297,296,106789,1,8,0:0:0:0:
243,305,106876,1,0,0:0:0:0:
189,315,106962,1,0,0:0:0:0:
136,327,107048,1,0,0:0:0:0:
36,352,107134,6,0,B|26:314|26:314|34:288|34:288|20:240,1,112.499997019768,4|0,1:0|0:0,0:0:0:0:
23,164,107651,6,0,B|96:178|96:178|51:189,1,89.9999976158143,0|0,1:0|0:0,0:0:0:0:
102,98,107824,2,0,B|175:112|175:112|130:123,1,89.9999976158143,8|0,0:0|0:0,0:0:0:0:
193,32,107996,2,0,B|266:46|266:46|221:57,1,89.9999976158143,0|0,1:0|0:0,0:0:0:0:
287,332,108169,6,0,B|218:378|138:328|138:328|128:206|262:146|331:217,1,431.999975372315,0|0,1:0|0:0,0:0:0:0:
504,366,108686,6,0,P|482:354|450:309,1,67.5000007867814
454,183,108858,2,0,P|454:208|431:258,1,67.5000007867814,0|0,1:0|0:0,0:0:0:0:
324,323,109031,2,0,P|345:309|400:304,1,67.5000007867814
403,23,109203,6,0,L|438:18,1,29.9999992052714,8|0,0:3|0:0,0:0:0:0:
450,15,109462,1,0,0:0:0:0:
470,8,109548,6,0,B|428:103|459:207|459:207|412:134|349:125,1,323.999981529237
263,271,109893,6,0,B|307:321|392:301|392:301|384:231|301:183,1,270.000003147125,0|0,1:0|0:0,0:0:0:0:
71,287,110410,6,0,P|44:292|8:311,1,44.9999988079071,0|0,1:0|0:0,0:0:0:0:
129,236,110582,2,0,P|138:210|139:169,1,44.9999988079071,8|0,0:0|0:0,0:0:0:0:
145,308,110755,2,0,P|162:328|197:350,1,44.9999988079071,0|0,1:0|0:0,0:0:0:0:
213,46,110927,6,0,B|234:148|140:183|63:174|27:126|27:126|82:61,1,323.999981529237,0|0,1:0|0:0,0:0:0:0:
66,76,111272,1,0,0:0:0:0:
265,369,111445,6,0,L|354:384,1,89.9999976158143,0|0,1:0|0:0,0:0:0:0:
423,66,111703,2,0,L|512:81,1,89.9999976158143,0|0,1:0|0:0,0:0:0:0:
283,156,111876,5,0,0:0:0:0:
387,141,111962,2,0,B|394:182|394:182|381:225|381:225|394:293,1,135.000001573563,8|0,1:2|0:0,0:0:0:0:
130,350,112134,6,0,P|38:363|71:282,1,215.999987686158,4|0,1:2|0:0,0:0:0:0:
145,239,112393,2,0,P|53:252|86:171,1,215.999987686158,4|0,1:2|0:0,0:0:0:0:
41,96,112651,6,0,B|110:73|162:131|162:131|182:58|202:-7,1,269.999992847443,4|0,1:0|0:0,0:0:0:0:
164,15,112996,1,8,0:0:0:0:
489,264,113169,6,0,P|461:261|429:252,1,44.9999988079071
375,289,113341,2,0,B|382:330|366:324|374:368,1,67.4999982118607
375,369,113686,1,8,0:0:0:0:
373,209,113858,6,0,P|345:206|313:197,1,44.9999988079071
259,234,114031,2,0,B|266:275|250:269|258:313,1,67.4999982118607
259,314,114376,1,8,0:0:0:0:
257,153,114548,6,0,P|229:150|197:141,1,44.9999988079071
165,50,114720,5,0,0:0:0:0:
205,56,114807,1,2,0:0:0:0:
238,52,114893,1,0,1:0:0:0:
274,40,114979,1,2,0:0:0:0:
327,141,115065,5,8,0:0:0:0:
367,147,115151,1,2,0:0:0:0:
400,143,115238,1,2,0:0:0:0:
437,133,115324,1,2,0:0:0:0:
512,6,115410,6,0,P|508:49|505:88,1,67.4999982118607,0|0,1:0|0:0,0:0:0:0:
389,373,115755,6,0,P|342:360|284:346,1,89.9999976158143,8|0,0:0|0:0,0:0:0:0:
425,255,115927,2,0,P|472:268|530:282,1,89.9999976158143
385,366,116100,2,0,P|338:353|280:339,1,89.9999976158143
218,24,116272,5,0,1:0:0:0:
218,24,116358,1,0,0:0:0:0:
218,24,116445,2,0,P|265:37|323:51,1,89.9999976158143,8|0,0:0|0:0,0:0:0:0:
342,155,116617,2,0,P|295:142|237:128,1,89.9999976158143
223,18,116789,2,0,P|270:31|328:45,1,89.9999976158143
88,359,116962,5,0,1:0:0:0:
88,359,117048,1,0,0:0:0:0:
88,359,117134,2,0,P|41:346|-17:332,1,89.9999976158143,8|0,0:0|0:0,0:0:0:0:
124,241,117307,2,0,P|171:254|229:268,1,89.9999976158143
0,174,117479,5,0,0:0:0:0:
15,116,117565,1,2,0:0:0:0:
58,77,117651,1,2,0:0:0:0:
115,65,117738,1,2,0:0:0:0:
216,100,117824,5,8,0:0:0:0:
264,158,117910,1,0,0:0:0:0:
333,183,117996,1,0,0:0:0:0:
402,153,118082,1,0,0:0:0:0:
474,72,118169,6,0,B|443:9|350:-3|296:11|296:11|326:99,1,269.999992847443,4|0,1:0|0:0,0:0:0:0:
500,176,118513,1,8,0:0:0:0:
32,269,118686,6,0,P|60:266|92:257,1,44.9999988079071
146,294,118858,2,0,B|139:335|155:329|147:373,1,67.4999982118607
146,374,119203,1,8,0:0:0:0:
148,214,119376,6,0,P|176:211|208:202,1,44.9999988079071
262,239,119548,2,0,B|255:280|271:274|263:318,1,67.4999982118607
262,319,119893,1,8,0:0:0:0:
264,158,120065,6,0,P|292:155|324:146,1,44.9999988079071
483,287,120238,5,0,0:0:0:0:
460,274,120324,1,2,0:0:0:0:
437,265,120410,1,0,1:0:0:0:
424,284,120496,1,2,0:0:0:0:
410,307,120582,2,0,P|369:310|338:311,1,67.4999982118607,8|0,0:0|0:0,0:0:0:0:
259,337,120927,6,0,B|215:357|131:366|85:328|69:268|146:219|183:272|161:313,1,269.999992847443,0|0,1:0|0:0,0:0:0:0:
5,362,121272,6,0,B|-26:303|-13:222|-13:222|18:255|38:294,1,215.999987686158,8|0,0:2|0:0,0:0:0:0:
262,245,121531,2,0,B|290:186|277:105|277:105|245:138|226:177,1,215.999987686158,0|0,2:0|0:0,0:0:0:0:
202,185,121789,2,0,P|162:187|106:148,1,89.9999976158143,0|0,1:0|0:0,1:0:0:0:
176,33,121962,6,0,P|185:62|175:109,1,67.5000007867814,8|0,0:2|0:0,0:0:0:0:
163,83,122134,2,0,P|154:54|164:7,1,67.5000007867814
262,245,122307,6,0,B|410:296|368:146|530:215,1,269.999992847443
264,333,122651,6,0,B|217:324|168:279|168:279|199:381,1,215.999987686158,8|0,0:0|0:0,1:0:0:0:
93,303,122910,2,0,B|46:294|-3:249|-3:249|28:351,1,215.999987686158,0|0,0:0|0:0,1:0:0:0:
62,377,123169,1,0,1:0:0:0:
211,92,123341,6,0,P|62:23|144:179,1,405.000004720688,8|0,0:0|0:0,0:0:0:0:
501,362,123686,6,0,B|439:359|388:295|388:295|325:350|245:328,1,269.999992847443,4|0,1:0|0:0,0:0:0:0:
283,358,124031,1,8,0:0:0:0:
512,174,124203,6,0,P|484:174|454:186,1,44.9999988079071,0|0,2:0|2:0,0:0:0:0:
403,217,124376,2,0,B|400:243|400:243|402:254|402:254|399:284,1,67.4999982118607
391,294,124720,1,8,0:0:0:0:
439,112,124893,6,0,P|411:112|381:124,1,44.9999988079071,0|0,2:0|2:0,0:0:0:0:
331,165,125065,2,0,B|328:191|328:191|330:202|330:202|327:232,1,67.4999982118607
319,243,125410,1,8,0:0:0:0:
350,55,125582,6,0,P|322:55|292:67,1,44.9999988079071,0|0,2:0|2:0,0:0:0:0:
214,160,125755,5,0,0:0:0:0:
170,155,125841,1,2,0:0:0:0:
131,139,125927,1,0,0:0:0:0:
102,108,126013,1,2,0:0:0:0:
89,22,126100,5,8,0:0:0:0:
102,54,126186,1,2,0:0:0:0:
107,87,126272,1,2,0:0:0:0:
97,119,126358,1,2,0:0:0:0:
20,215,126445,6,0,P|25:255|30:293,1,67.4999982118607,0|0,1:0|0:0,0:0:0:0:
31,365,126789,6,0,P|86:358|146:355,1,89.9999976158143,8|0,0:0|0:0,0:0:0:0:
205,257,126962,2,0,P|150:264|90:267,1,89.9999976158143
28,370,127134,2,0,P|83:363|143:360,1,89.9999976158143
317,15,127307,5,0,1:0:0:0:
321,21,127393,1,0,0:0:0:0:
325,26,127479,2,0,P|270:33|210:36,1,89.9999976158143,8|0,0:0|0:0,0:0:0:0:
160,148,127651,2,0,P|215:141|275:138,1,89.9999976158143
328,32,127824,2,0,P|273:39|213:42,1,89.9999976158143
344,357,127996,5,0,1:0:0:0:
344,357,128082,1,0,0:0:0:0:
344,357,128169,2,0,P|399:350|459:347,1,89.9999976158143,8|0,0:0|0:0,0:0:0:0:
507,242,128341,2,0,P|452:249|392:252,1,89.9999976158143
223,376,128513,5,0,0:0:0:0:
190,310,128600,1,2,0:0:0:0:
142,256,128686,1,0,1:0:0:0:
79,224,128772,1,2,0:0:0:0:
6,221,128858,1,8,0:0:0:0:
13,291,128945,1,2,0:0:0:0:
55,347,129031,1,2,0:0:0:0:
121,372,129117,1,2,0:0:0:0:
235,361,129203,6,0,L|273:64,1,269.999992847443,4|0,1:0|0:0,0:0:0:0:
165,15,129548,6,0,B|144:58|144:58|149:120,1,99.0000003986359,8|0,0:0|0:0,0:0:0:0:
382,135,129720,2,0,B|400:86|400:86|391:40,1,99.0000003986359,0|0,2:0|2:0,2:0:0:0:
261,161,129893,2,0,L|246:291,1,99.0000003986359
381,365,130065,5,0,1:0:0:0:
381,365,130151,1,0,0:0:0:0:
381,365,130238,2,0,P|377:318|366:245,1,99.0000003986359,8|0,0:0|0:0,0:0:0:0:
498,127,130410,2,0,P|502:174|513:247,1,99.0000003986359
210,349,130582,6,0,B|184:255|65:211|-18:291|-18:291|35:384|132:361,1,458.999996595383
403,133,130927,6,0,B|421:84|421:84|411:29,1,107.999993843079,8|0,0:0|2:0,2:0:0:0:
131,2,131100,2,0,B|110:45|110:45|116:113,1,107.999993843079,0|0,2:0|0:0,0:0:0:0:
252,220,131272,2,0,L|267:94,1,107.999993843079
0,68,131445,5,0,1:0:0:0:
0,68,131531,1,0,0:0:0:0:
0,68,131617,2,0,P|5:122|7:207,1,107.999993843079,8|0,0:0|0:0,0:0:0:0:
189,360,131789,2,0,P|184:306|182:221,1,107.999993843079
252,18,131962,5,0,1:0:0:0:
252,18,132134,2,0,L|84:32,1,135.000001573563
7,175,132307,2,0,L|174:182,1,135.000001573563,8|0,0:0|0:0,0:0:0:0:
277,352,132479,6,0,P|348:249|492:334,1,269.999992847443
480,298,132824,1,0,1:0:0:0:
162,1,132996,6,0,P|228:126|428:63,1,323.999981529237,8|0,0:3|0:0,0:0:0:0:
441,52,133341,1,0,0:0:0:0:
0,291,133513,6,0,L|133:274,1,107.999993843079,0|0,1:0|0:0,0:0:0:0:
178,180,133686,6,0,B|132:185|132:185|112:199|112:199|32:209,1,135.000001573563,8|0,0:3|0:0,0:0:0:0:
325,365,133858,2,0,B|371:360|371:360|391:346|391:346|471:336,1,135.000001573563
472,87,134031,6,0,P|460:116|467:146,1,62.99999833107
482,83,134720,6,0,B|455:99|447:140|460:178|527:180|551:149|552:112|536:85|503:79|503:79|516:46|510:-13|510:-13|473:-22|440:2|395:30|377:77|370:112|377:147|385:165|404:190|404:190|351:156|291:157|250:192|237:256|237:256|286:230|331:230|355:244,1,929.999975363414,4|0,3:1|3:0,0:0:0:0:
415,290,140238,6,0,B|433:336|414:378|414:378|375:320|332:295|285:310|235:338|215:358|199:382|199:382|176:348|171:304|171:304|124:334|66:350|20:331|20:331|70:315|110:310|147:283|168:260|186:220|178:176|124:131|76:129|56:169|48:204|96:214,1,959.999974568685,8|2,3:0|3:2,0:0:0:0:
8,38,146272,5,8,3:3:0:0:
256,192,146358,12,0,155238,0:0:0:0:
273,217,155410,5,0,1:0:0:0:
276,211,155582,1,8,3:0:0:0:
283,216,155755,1,8,3:0:0:0:
281,225,155927,1,8,3:0:0:0:
275,227,156100,1,8,3:3:0:0:
267,222,156272,1,4,3:3:0:0:
271,215,156445,6,0,L|242:212,1,26.9999992847443,0|0,3:0|0:0,0:0:0:0:
273,223,156789,6,0,B|301:143|259:50|259:50|298:99|350:100,1,269.999992847443,4|0,1:0|1:0,0:0:0:0:
400,47,157134,1,8,0:1:0:0:
445,376,157393,6,0,P|468:295|385:293,1,179.999995231629,0|0,1:0|0:0,0:0:0:0:
358,360,157824,2,0,P|288:351|212:347,1,134.999996423721,8|0,0:2|0:0,0:0:0:0:
0,358,158427,5,0,1:0:0:0:
86,345,158513,2,0,B|68:265|115:295|82:169,1,135.000001573563,8|0,0:0|0:0,0:0:0:0:
6,25,158772,2,0,P|40:179|192:118,1,359.999990463257,0|0,1:0|0:0,0:0:0:0:
156,41,159203,5,8,0:3:0:0:
195,36,159289,1,0,2:0:0:0:
274,151,159462,2,0,L|336:142,1,44.9999988079071,8|0,0:3|1:0,0:0:0:0:
468,295,159807,5,0,1:0:0:0:
500,217,159893,2,0,B|411:203|411:203|315:260,1,179.999995231629
219,335,160151,6,0,B|258:326|298:357|298:357|351:363|384:323,1,179.999995231629,0|0,1:0|0:0,0:0:0:0:
500,217,160582,2,0,B|411:203|411:203|357:234,1,134.999996423721,2|0,0:0|1:0,0:0:0:0:
335,250,161186,5,0,1:0:0:0:
254,208,161272,1,8,0:0:0:0:
173,162,161358,2,0,L|168:-11,1,135.000001573563
258,0,161617,6,0,L|260:107,1,89.9999976158143
76,109,161789,2,0,L|78:216,1,89.9999976158143,0|0,1:0|0:0,0:0:0:0:
0,352,161962,6,0,B|103:374|188:277|188:277|188:340|237:380,1,323.999981529237,8|0,0:0|0:0,0:0:0:0:
272,253,162307,6,0,P|336:337|364:207,1,269.999992847443,4|0,1:0|1:0,0:0:0:0:
324,184,162651,1,8,0:0:0:0:
29,30,162910,6,0,B|40:103|40:103|68:136|68:136|78:202,1,179.999995231629,0|0,1:0|0:0,0:0:0:0:
35,274,163341,2,0,L|8:278,6,14.9999996026357
54,286,163772,1,0,0:0:0:0:
226,370,163945,5,0,1:0:0:0:
275,300,164031,2,0,B|266:245|266:245|245:220|245:220|238:171,1,135.000001573563,8|0,0:0|0:0,0:0:0:0:
305,91,164289,6,0,P|240:139|241:10,1,269.999992847443,0|0,1:0|0:0,0:0:0:0:
488,229,164720,5,0,0:0:0:0:
505,313,164807,1,2,0:0:0:0:
429,354,164893,1,0,0:0:0:0:
367,294,164979,1,2,0:0:0:0:
400,214,165065,6,0,L|407:154,1,44.9999988079071,0|0,1:0|0:0,0:0:0:0:
81,361,165324,5,0,1:0:0:0:
98,350,165410,2,0,B|184:331|184:331|282:371,1,179.999995231629,2|0,0:0|0:0,0:0:0:0:
271,237,165669,6,0,B|283:280|283:280|220:256,1,112.499997019768,0|8,1:0|0:0,0:0:0:0:
184,334,166186,6,0,L|268:364,1,89.9999976158143,0|0,0:0|1:0,0:0:0:0:
271,237,166445,6,0,B|197:125|197:125|270:-1,1,269.999992847443,0|0,0:0|1:0,0:0:0:0:
353,56,166789,1,8,0:0:0:0:
442,98,166876,2,0,L|462:283,1,135.000001573563
464,321,167134,6,0,L|451:181,1,89.9999976158143
265,7,167307,2,0,L|278:147,1,89.9999976158143,0|0,1:0|0:0,0:0:0:0:
268,364,167479,6,0,B|162:367|95:257|95:257|84:319|36:346,1,323.999981529237,8|0,0:0|0:0,0:0:0:0:
185,237,167824,6,0,B|232:300|311:275|311:275|301:204|211:162,1,269.999992847443,4|0,1:2|0:0,0:0:0:0:
152,151,168169,1,8,0:0:0:0:
265,7,168427,6,0,B|318:21|318:21|349:67|349:67|436:91,1,179.999995231629,0|0,1:0|0:0,0:0:0:0:
465,9,168858,6,0,L|402:-3,1,44.9999988079071,8|0,0:0|0:0,0:0:0:0:
423,169,169117,2,0,L|343:151,1,67.4999982118607,0|0,1:0|0:0,0:0:0:0:
419,367,169548,5,8,0:0:0:0:
489,320,169634,2,0,P|444:289|403:300,1,67.5000007867814
0,303,169807,6,0,B|225:242|133:406|348:364,1,359.999990463257,0|0,1:0|0:0,0:0:0:0:
354,291,170238,5,8,0:3:0:0:
340,279,170324,2,0,L|336:221,1,44.9999988079071
489,320,170496,2,0,L|485:262,1,44.9999988079071,8|0,0:3|1:0,0:0:0:0:
254,13,170841,5,0,1:0:0:0:
271,94,170927,2,0,B|186:117|186:117|105:65,1,179.999995231629
2,141,171186,6,0,B|49:121|49:121|107:158,1,112.499997019768,0|8,1:0|0:0,0:0:0:0:
108,67,171703,2,0,L|162:103,1,44.9999988079071
291,322,171876,6,0,P|162:361|247:205,1,359.999990463257,0|0,1:0|1:0,0:0:0:0:
267,229,172307,1,8,0:0:0:0:
349,254,172393,2,0,L|508:241,1,135.000001573563
451,166,172651,6,0,L|515:161,1,44.9999988079071
460,158,172824,2,0,L|524:153,1,44.9999988079071,0|0,1:0|0:0,0:0:0:0:
344,21,172996,5,8,0:0:0:0:
337,101,173082,1,2,0:0:0:0:
276,156,173169,1,2,0:0:0:0:
193,159,173255,1,2,0:0:0:0:
123,108,173341,6,0,B|72:88|32:12|32:12|35:95|0:146,1,269.999992847443,4|0,1:0|1:0,0:0:0:0:
52,215,173686,2,0,L|58:336,1,89.9999976158143,8|0,0:0|0:0,0:0:0:0:
217,374,173858,1,0,0:0:0:0:
199,363,173945,6,0,P|148:321|226:292,1,179.999995231629,0|0,1:0|0:0,0:0:0:0:
285,338,174376,2,0,L|306:334,3,14.9999996026357,8|0|0|0,0:0|0:0|0:0|0:0,0:0:0:0:
297,359,174634,2,0,L|332:348,1,22.4999994039536,0|0,1:0|0:0,0:0:0:0:
499,255,174893,1,0,0:0:0:0:
306,255,175065,6,0,B|365:272|365:272|401:317|401:317|498:339,1,179.999995231629,8|0,0:0|0:0,0:0:0:0:
499,255,175324,1,0,1:0:0:0:
512,172,175410,6,0,B|453:159|453:159|417:114|417:114|358:97,1,179.999995231629
6,289,175755,5,8,0:3:0:0:
46,294,175841,1,2,0:0:0:0:
82,286,175927,1,2,0:0:0:0:
116,262,176013,1,2,0:0:0:0:
188,27,176445,6,0,P|213:131|239:237,1,215.999987686158,8|0,0:0|0:0,0:0:0:0:
226,254,176703,2,0,P|321:261|451:279,1,202.500002360344,4|0,1:0|0:0,0:0:0:0:
78,110,177134,6,0,P|103:214|129:320,1,215.999987686158,8|0,0:0|0:0,0:0:0:0:
116,336,177393,2,0,P|211:343|354:357,1,202.500002360344,4|0,1:0|0:0,0:0:0:0:
512,48,177738,5,0,1:0:0:0:
431,75,177824,2,0,P|336:68|204:49,1,215.999987686158,8|0,0:0|0:0,0:0:0:0:
440,156,178082,2,0,P|396:152|355:148,2,67.5000007867814,0|2|0,2:0|0:0|2:0,0:0:0:0:
512,269,178341,5,2,0:0:0:0:
439,318,178427,1,0,1:0:0:0:
354,290,178513,1,0,1:0:0:0:
300,220,178600,1,0,1:0:0:0:
216,197,178686,1,0,1:0:0:0:
136,228,178772,1,0,1:0:0:0:
128,320,178858,6,0,P|-3:348|55:214,1,323.999981529236,4|0,1:1|1:0,0:0:0:0:
136,228,179203,2,0,B|213:235|213:235|249:278|249:278|375:293,1,239.39998379509,8|0,0:0|0:0,0:0:0:0:
101,136,179462,6,0,L|281:151,1,179.999995231629,0|0,1:0|0:0,0:0:0:0:
96,48,179893,1,8,0:0:0:0:
512,320,180065,5,0,0:0:0:0:
484,311,180151,2,0,B|340:273|402:394|176:324,1,270.000003147125,0|0,1:0|0:0,0:0:0:0:
144,373,180582,6,0,B|138:291|138:291|168:243|168:243|155:147,1,215.999987686158,8|0,0:0|0:0,1:0:0:0:
82,21,180841,2,0,B|92:97|92:97|62:145|62:145|68:227,1,215.999987686158,0|0,1:0|0:0,0:0:0:0:
68,227,181272,6,0,P|110:256|162:253,1,89.9999976158143,8|0,0:0|0:0,0:0:0:0:
352,133,181617,6,0,P|408:45|281:54,1,269.999992847443,0|0,1:0|1:0,0:0:0:0:
240,110,181962,1,8,0:0:0:0:
263,193,182048,1,2,0:0:0:0:
288,277,182134,1,2,0:0:0:0:
311,361,182220,6,0,B|189:407|51:364|8:244|8:244|103:334|189:284,1,540.000006294251,0|0,1:0|0:0,0:0:0:0:
286,277,182651,1,8,0:0:0:0:
404,42,182910,5,0,1:0:0:0:
378,22,182996,2,0,L|391:231,1,202.500002360344
496,296,183341,2,0,L|484:60,1,215.999987686158,8|0,0:0|0:0,0:0:0:0:
385,126,183600,2,0,L|397:362,1,215.999987686158,0|0,1:0|0:0,0:0:0:0:
498,384,183858,1,0,1:0:0:0:
259,173,184031,6,0,P|164:121|314:79,1,359.099975692636,8|0,0:0|0:0,0:0:0:0:
385,126,184376,1,4,0:1:0:0:
309,372,184634,5,0,0:0:0:0:
274,363,184720,2,0,B|202:347|202:347|136:382|136:382|38:365,1,239.39998379509,8|0,0:0|0:0,0:0:0:0:
265,268,184979,6,0,L|89:235,1,179.999995231629,0|0,1:0|0:0,0:0:0:0:
258,172,185410,1,8,0:0:0:0:
395,59,185582,5,0,0:0:0:0:
423,51,185669,2,0,B|511:8|511:8|468:206,1,269.999992847443,0|0,1:0|0:0,0:0:0:0:
484,365,186100,6,0,B|369:323|405:409|256:357,1,215.999987686158,8|0,0:0|0:0,0:0:0:0:
120,285,186358,2,0,B|235:327|199:241|348:293,1,215.999987686158,0|0,1:0|0:0,0:0:0:0:
330,287,186789,6,0,L|324:184,1,89.9999976158143,8|0,0:0|0:0,0:0:0:0:
433,163,187134,6,0,B|452:0|452:0|352:32,1,269.999992847443,0|0,1:0|0:0,0:0:0:0:
189,83,187479,1,8,0:0:0:0:
99,64,187565,1,2,0:0:0:0:
7,49,187651,1,2,0:0:0:0:
0,139,187738,6,0,B|108:162|108:162|157:318|157:318|437:361,1,540.000006294251,0|0,1:0|0:0,0:0:0:0:
512,375,188169,1,8,0:0:0:0:
407,37,188427,5,0,1:0:0:0:
375,38,188513,2,0,L|134:49,1,202.500002360344
273,184,188858,2,0,L|520:174,1,215.999987686158,8|0,0:0|0:0,0:0:0:0:
278,43,189117,2,0,L|31:53,1,215.999987686158,0|0,1:0|0:0,0:0:0:0:
488,175,189376,1,0,1:0:0:0:
155,365,189548,6,4,P|257:214|62:242,1,458.999996595383,4|0,0:2|0:0,0:0:0:0:
69,315,189893,1,4,1:0:0:0:
368,347,190065,6,0,L|459:355,1,89.9999976158143,0|0,0:0|1:0,0:0:0:0:
482,358,190238,2,0,B|545:218|423:275|494:78,1,215.999987686158,8|0,0:0|0:0,0:0:0:0:
394,237,190496,6,0,P|374:166|418:63,1,179.999995231629,0|0,1:0|0:0,0:0:0:0:
496,70,190927,1,8,0:0:0:0:
277,14,191100,5,0,0:0:0:0:
294,43,191186,2,0,B|305:139|241:214|241:214|137:179|104:93,1,359.999990463257,0|0,1:0|0:0,0:0:0:0:
3,306,191617,6,0,B|61:265|61:265|229:309,1,215.999987686158,8|0,0:0|0:0,0:0:0:0:
332,336,191876,2,0,L|165:292,1,135.000001573563,0|0,1:0|0:0,0:0:0:0:
475,309,192307,6,0,L|363:272,1,89.9999976158143,8|0,0:0|0:0,0:0:0:0:
0,299,192651,6,0,P|130:319|79:185,1,269.999992847443,0|0,1:0|1:0,1:0:0:0:
95,133,192996,1,8,0:0:0:0:
185,116,193082,1,2,0:0:0:0:
275,102,193169,1,2,0:0:0:0:
336,24,193255,6,0,B|523:-5|523:-5|482:165|482:165|308:193,1,540.000006294251,0|0,1:0|0:0,0:0:0:0:
275,102,193686,1,8,0:0:0:0:
512,231,193945,5,0,1:0:0:0:
509,254,194031,2,0,L|290:289,1,202.500002360344
294,374,194376,2,0,L|518:337,1,215.999987686158,8|0,0:0|0:0,0:0:0:0:
405,272,194634,2,0,L|180:307,1,215.999987686158,0|0,1:0|0:0,0:0:0:0:
294,374,194893,1,0,1:0:0:0:
0,107,195065,6,0,B|87:138|160:61|160:61|212:164|311:145,1,359.099975692636,8|0,0:0|0:0,0:0:0:0:
275,40,195410,1,0,1:0:0:0:
188,308,195669,5,0,1:0:0:0:
207,336,195755,2,0,P|302:348|276:239,1,239.39998379509,4|0,1:1|0:0,0:0:0:0:
188,308,196013,6,0,L|3:328,1,179.999995231629,0|0,1:0|0:0,0:0:0:0:
0,239,196445,1,8,0:0:0:0:
281,242,196703,5,0,1:0:0:0:
322,239,196789,2,0,B|310:148|310:148|365:87|365:87|343:-32,1,269.999992847443
402,201,197134,6,0,P|456:235|425:143,1,215.999987686158,8|0,0:0|0:0,0:0:0:0:
273,54,197393,2,0,L|139:65,1,107.999993843079,0|0,1:0|0:0,0:0:0:0:
218,154,197824,6,0,L|102:164,1,89.9999976158143,8|0,0:0|0:0,0:0:0:0:
268,375,198169,6,0,L|262:316,1,44.9999988079071,0|0,1:0|0:0,0:0:0:0:
344,243,198341,1,0,0:0:0:0:
344,243,198427,1,0,0:0:0:0:
344,243,198513,2,0,L|350:302,1,44.9999988079071,8|0,0:0|0:0,0:0:0:0:
442,367,198686,2,0,L|436:308,1,44.9999988079071,0|0,1:0|0:0,0:0:0:0:
383,7,198858,6,0,B|348:72|325:154|325:154|284:88|225:32,1,305.999997730255,4|0,1:0|2:0,0:0:0:0:
12,235,199117,6,0,B|56:233|56:233|99:246|99:246|188:236,1,152.999998865128,0|0,1:0|0:0,0:0:0:0:
24,153,199289,2,0,B|68:151|68:151|111:164|111:164|200:154,1,152.999998865128,0|0,1:0|0:0,0:0:0:0:
226,376,199462,1,4,1:0:0:0:
234,369,199548,6,2,B|256:334|301:332|333:351|341:398|408:396|439:350|447:274|393:237|345:234|317:256|303:282|294:303|307:341,1,386.999989748001,0|0,0:0|0:0,0:1:0:0:
488,94,203341,5,2,0:0:0:0:
410,52,203427,1,2,0:0:0:0:
350,116,203513,1,2,0:0:0:0:
389,193,203600,1,2,0:0:0:0:
474,177,203686,1,4,1:0:0:0:
132,293,225755,6,0,P|76:261|10:277,1,118.799996490326,4|8,3:0|0:2,0:0:0:0:
118,284,226272,2,0,P|61:259|-5:295,1,118.799996490326
99,273,226789,2,0,P|36:264|13:282,1,89.0999973677445,8|0,0:2|0:0,0:0:0:0:
3,284,227134,1,2,0:2:0:0:
149,364,227307,6,0,P|179:357|220:357,1,59.399998245163,0|8,0:0|0:2,0:0:0:0:
287,265,227651,2,0,P|319:270|352:270,1,59.399998245163
462,349,227996,5,0,0:0:0:0:
468,343,228082,1,0,0:0:0:0:
475,338,228169,2,0,L|481:305,3,29.6999991225815,8|0|0|0,0:2|0:0|0:0|0:0,0:0:0:0:
494,152,228513,6,0,P|438:184|372:168,1,118.799996490326,0|8,0:0|0:2,0:0:0:0:
480,161,229031,2,0,P|423:186|357:150,1,118.799996490326
461,172,229548,2,0,P|398:181|375:163,1,89.0999973677445,8|0,0:2|0:0,0:0:0:0:
365,161,229893,1,2,0:2:0:0:
300,28,230065,6,0,P|270:35|229:35,1,59.399998245163,0|8,0:0|0:2,0:0:0:0:
163,128,230410,2,0,P|131:123|98:123,1,59.399998245163
30,87,230669,1,0,0:0:0:0:
30,87,230755,5,0,0:0:0:0:
131,203,230927,1,8,0:2:0:0:
172,52,231100,1,0,0:0:0:0:
10,254,231272,6,0,B|84:245|48:293|138:282,1,118.799996490326,8|8,0:0|0:2,0:0:0:0:
109,294,231789,2,0,B|183:285|147:333|237:322,1,118.799996490326
213,333,232307,1,8,0:2:0:0:
184,117,232565,5,0,0:0:0:0:
179,131,232651,2,0,P|179:167|183:197,1,59.399998245163,2|0,0:2|0:0,0:0:0:0:
307,301,232996,2,0,P|310:269|304:234,1,59.399998245163,8|0,0:2|0:0,0:0:0:0:
297,228,233255,2,0,P|349:230|405:234,1,89.0999973677445
500,232,233686,2,0,L|504:201,3,29.6999991225815,8|0|0|0,0:2|0:0|0:0|0:0,0:0:0:0:
512,130,234031,6,0,B|438:121|474:169|384:158,1,118.799996490326,0|8,0:0|0:2,0:0:0:0:
413,170,234548,2,0,B|339:161|375:209|285:198,1,118.799996490326
306,208,235065,1,8,0:2:0:0:
237,97,235324,5,0,0:0:0:0:
245,108,235410,2,0,P|284:114|315:113,1,59.399998245163
246,278,235755,2,0,P|207:272|176:273,1,59.399998245163,8|0,0:2|0:0,0:0:0:0:
187,272,236013,1,0,0:0:0:0:
187,272,236100,1,0,0:0:0:0:
218,187,236272,5,0,0:0:0:0:
146,358,236445,1,8,0:2:0:0:
323,337,236617,1,0,0:0:0:0:
146,361,236789,6,0,P|63:307|-30:339,1,179.999995231629,8|8,0:3|0:2,0:0:0:0:
0,224,237307,1,0,0:0:0:0:
7,199,237393,1,0,0:0:0:0:
218,15,237651,5,0,0:0:0:0:
158,164,237824,1,8,0:2:0:0:
57,42,237996,2,0,P|45:16|31:-6,1,44.9999988079071
148,85,238169,6,0,B|258:70|215:139|356:120,1,179.999995231629,2|8,0:2|0:2,0:0:0:0:
512,223,238686,1,0,0:0:0:0:
502,205,238772,2,0,P|448:184|372:227,1,134.999996423721
258,376,239203,5,8,0:2:0:0:
244,367,239289,1,0,0:0:0:0:
228,357,239376,1,0,0:0:0:0:
212,347,239462,1,0,0:0:0:0:
195,336,239548,6,0,L|181:131,1,179.999995231629,0|8,0:0|0:2,0:0:0:0:
26,67,240065,1,0,0:0:0:0:
12,86,240151,2,0,P|17:155|29:238,1,134.999996423721
115,367,240582,2,0,P|110:317|104:263,1,89.9999976158143,8|0,0:2|0:0,0:0:0:0:
103,257,240841,1,0,0:0:0:0:
99,237,240927,5,0,0:0:0:0:
9,329,241100,1,0,0:0:0:0:
206,301,241272,2,0,P|265:336|340:328,1,134.999996423721,8|0,0:2|0:0,0:0:0:0:
348,324,241617,1,0,0:0:0:0:
329,178,241789,1,0,0:0:0:0:
512,242,241962,2,0,P|462:250|415:259,1,89.9999976158143,8|0,0:2|0:0,0:0:0:0:
329,178,242220,1,0,0:0:0:0:
310,204,242307,6,0,P|301:113|296:9,1,179.999995231629,8|8,0:0|0:2,0:0:0:0:
85,132,242824,1,0,0:0:0:0:
104,119,242910,2,0,P|186:116|223:177,1,134.999996423721
394,121,243341,1,8,0:2:0:0:
318,293,243600,5,0,0:0:0:0:
293,304,243686,2,0,P|236:305|185:310,1,89.9999976158143,2|0,0:2|0:0,0:0:0:0:
234,217,244031,5,8,0:2:0:0:
349,377,244289,1,0,0:0:0:0:
349,377,244376,1,0,0:0:0:0:
411,197,244548,1,0,0:0:0:0:
293,304,244720,5,8,0:2:0:0:
262,308,244807,1,0,0:0:0:0:
232,312,244893,1,0,0:0:0:0:
202,317,244979,1,0,0:0:0:0:
171,323,245065,1,0,0:0:0:0:
86,47,245410,5,8,0:2:0:0:
75,86,245582,1,0,0:0:0:0:
448,169,245927,5,0,0:0:0:0:
459,208,246100,1,0,0:2:0:0:
51,297,246358,5,0,0:0:0:0:
48,312,246445,2,0,L|42:348,1,22.4999994039536,0|0,1:0|0:0,0:0:0:0:
114,274,246617,1,0,0:0:0:0:
123,284,246703,2,0,L|155:300,1,22.4999994039536,0|0,1:0|0:0,0:0:0:0:
115,211,246876,1,0,0:0:0:0:
125,204,246962,2,0,L|151:178,1,22.4999994039536,0|0,1:0|0:0,0:0:0:0:
57,191,247134,1,0,0:0:0:0:
47,182,247220,2,0,L|30:149,1,22.4999994039536,0|0,1:0|0:0,0:0:0:0:
12,243,247393,5,0,0:0:0:0:
1,242,247479,2,0,B|55:256|110:239|110:239|166:305|166:305|241:275|305:310,1,323.999981529237,0|0,1:0|0:0,0:0:0:0:
504,277,247824,6,0,P|505:269|514:227,3,44.9999988079071,4|0|0|0,1:0|0:0|0:0|0:0,0:0:0:0:
434,237,248513,2,0,P|434:228|440:186,3,44.9999988079071,8|0|0|0,0:2|0:0|0:0|0:0,0:0:0:0:
359,217,249203,2,0,P|358:208|361:166,2,44.9999988079071,0|0|0,1:0|0:0|0:0,0:0:0:0:
256,89,249720,6,0,L|256:138,1,44.9999988079071,0|8,0:0|0:2,0:0:0:0:
256,295,250065,2,0,L|256:246,2,44.9999988079071
153,217,250582,6,0,P|153:208|150:166,3,44.9999988079071,0|0|0|0,1:3|0:0|0:0|0:0,0:0:0:0:
78,237,251272,2,0,P|77:228|71:186,3,44.9999988079071,8|0|0|0,0:2|0:0|0:0|0:0,0:0:0:0:
8,277,251962,2,0,P|7:269|-2:227,2,44.9999988079071,4|0|0,0:3|0:0|0:0,0:0:0:0:
256,295,252479,6,0,L|256:246,1,44.9999988079071,0|8,0:0|0:2,0:0:0:0:
256,89,252824,2,0,L|256:138,2,44.9999988079071
144,204,253341,6,0,P|169:203|193:196,1,44.9999988079071,0|0,1:0|0:0,0:0:0:0:
368,204,253686,2,0,P|343:203|319:196,1,44.9999988079071
147,210,254031,6,0,P|172:209|194:204,1,39.6000001594544,8|0,0:2|0:0,0:0:0:0:
365,210,254376,2,0,P|340:209|316:201,1,39.6000001594544
150,217,254720,6,0,P|175:216|195:212,1,34.199998676529,0|0,1:3|0:0,0:0:0:0:
362,218,255065,2,0,P|337:217|315:211,1,34.199998676529
154,222,255410,6,0,P|179:221|194:218,1,28.7999992370606,8|0,0:2|0:0,0:0:0:0:
359,226,255755,2,0,P|334:225|321:223,1,28.7999992370606
256,298,256100,6,0,L|256:321,3,17.9999995231628,0|0|0|0,3:0|0:0|0:0|0:0,0:0:0:0:
255,205,256789,2,0,L|255:228,3,17.9999995231628,8|0|0|0,0:2|0:0|0:0|0:0,0:0:0:0:
255,115,257479,2,0,L|255:138,3,17.9999995231628,0|0|0|0,1:0|0:0|0:0|0:0,0:0:0:0:
254,22,258169,2,0,L|254:45,3,17.9999995231628,8|0|0|0,0:2|0:0|0:0|0:0,0:0:0:0:
29,95,258858,5,0,1:0:0:0:
102,132,259548,5,8,0:2:0:0:
155,189,260238,5,0,1:0:0:0:
194,256,260927,5,8,0:2:0:0:
318,256,261617,5,0,1:0:0:0:
357,189,262307,5,8,0:2:0:0:
410,132,262996,5,0,1:0:0:0:
483,95,263686,5,8,0:2:0:0:
512,233,264376,6,0,P|508:286|504:339,1,89.9999976158143,8|0,0:2|2:0,0:0:0:0:
504,344,264634,2,0,P|458:338|396:332,1,89.9999976158143,8|0,0:2|2:0,0:0:0:0:
400,330,264893,1,8,0:2:0:0:
403,155,265065,6,0,P|396:93|392:29,1,107.999993843079,8|0,0:0|2:0,0:0:0:0:
393,28,265324,2,0,P|337:35|263:42,1,107.999993843079,8|0,0:0|2:0,0:0:0:0:
268,42,265582,1,8,0:0:0:0:
250,240,265755,6,0,P|240:310|235:379,1,125.999992816925,8|0,0:0|0:0,0:0:0:0:
235,382,266013,2,0,P|174:374|93:366,1,125.999992816925,8|0,0:0|0:0,0:0:0:0:
99,366,266272,1,8,0:0:0:0:
159,173,266445,6,0,P|154:101|149:24,1,143.999996185303,8|0,0:0|0:0,0:0:0:0:
154,14,266703,2,0,P|94:21|4:28,1,143.999996185303,8|0,0:0|0:0,0:0:0:0:
0,29,266962,1,8,0:0:0:0:
219,304,267134,6,0,P|190:286|230:266,7,89.9999976158143,0|0|0|0|0|0|0|0,1:0|1:0|1:0|1:0|1:0|1:0|1:0|1:0,0:0:0:0:
226,241,267479,6,0,P|265:215|272:256,7,99.9999973509047,0|0|0|0|0|0|0|0,1:0|1:0|1:0|1:0|1:0|1:0|1:0|1:0,0:0:0:0:
293,257,267824,6,0,P|321:303|273:300,7,112.499997019768,0|0|0|0|0|0|0|0,1:0|1:0|1:0|1:0|1:0|1:0|1:0|1:0,0:0:0:0:
280,327,268169,6,0,P|221:351|223:322,7,128.571425165449,0|0|0|0|0|0|0|0,1:0|1:0|1:0|1:0|1:0|1:0|1:0|1:0,0:0:0:0:
249,272,268513,6,0,B|231:291|231:291|154:251|154:251|118:273,1,128.571425165449,0|0,1:0|1:0,1:0:0:0:
249,272,268600,2,0,B|223:272|223:272|197:189|197:189|156:180,1,128.571425165449,0|0,1:0|1:0,1:0:0:0:
249,272,268686,2,0,B|230:254|230:254|271:177|271:177|248:141,1,128.571425165449,0|0,1:0|1:0,1:0:0:0:
249,272,268772,2,0,B|249:245|249:245|332:219|332:219|341:178,1,128.571425165449,0|0,1:0|1:0,1:0:0:0:
249,272,268858,2,0,B|267:253|267:253|344:293|344:293|380:271,1,128.571425165449,0|0,1:0|1:0,1:0:0:0:
249,272,268945,2,0,B|276:271|276:271|302:354|302:354|343:363,1,128.571425165449,0|0,1:0|1:0,1:0:0:0:
249,272,269031,2,0,B|268:290|268:290|228:367|228:367|250:403,1,128.571425165449,0|0,1:0|1:0,1:0:0:0:
249,272,269117,2,0,B|250:298|250:298|167:324|167:324|158:365,1,128.571425165449,0|0,1:0|1:0,1:0:0:0:
249,272,269203,6,0,B|20:241|20:241|197:201,1,323.999981529237
493,147,269548,5,8,0:3:0:0:
472,153,269634,1,8,0:3:0:0:
451,159,269720,1,0,0:0:0:0:
431,165,269807,1,8,0:3:0:0:
391,197,269893,6,0,B|385:127|385:127|327:85|327:85|318:-13,1,224.999994039536,4|0,1:0|0:0,1:0:0:0:
282,382,270410,6,0,B|201:350|189:288|221:210|276:188|333:204|351:267|340:293|283:279,1,337.500003933907,2|0,2:1|0:0,0:0:0:0:
492,337,270927,2,0,B|442:337|409:270|409:270|400:339|347:368|285:362,1,270.000003147125,2|0,0:1|0:0,0:0:0:0:
181,141,271445,6,0,P|148:141|107:126,1,67.5000007867814,2|0,0:1|0:0,0:0:0:0:
0,197,271617,2,0,B|49:194|49:194|84:219|84:219|148:215,1,134.999996423721,0|0,1:0|0:0,0:0:0:0:
143,243,271962,6,0,P|141:268|146:325,1,67.5000007867814,8|0,0:0|0:0,0:0:0:0:
29,116,272134,2,0,P|31:91|26:34,1,67.5000007867814
507,116,272307,5,0,0:0:0:0:
431,127,272393,1,2,0:0:0:0:
355,138,272479,1,2,0:0:0:0:
277,147,272565,1,2,0:0:0:0:
202,155,272651,6,0,B|314:132|270:228|412:206,1,202.500002360344,0|0,1:0|0:0,0:0:0:0:
471,293,272996,6,0,P|472:264|481:225,1,44.9999988079071
323,284,273169,6,0,L|337:286,1,14.9999996026357
251,327,273341,2,0,L|265:329,1,14.9999996026357,8|0,0:0|0:0,0:0:0:0:
178,364,273513,2,0,L|192:366,1,14.9999996026357
182,22,273686,6,0,P|187:50|187:81,1,44.9999988079071
156,229,273858,6,0,L|170:227,1,14.9999996026357
84,186,274031,2,0,L|98:184,1,14.9999996026357
11,149,274203,2,0,L|25:147,1,14.9999996026357
17,364,274376,6,0,B|0:238|0:238|29:272|77:277,1,202.500002360344,0|0,1:0|0:0,0:0:0:0:
218,354,274720,5,8,3:0:0:0:
255,344,274807,1,2,0:0:0:0:
282,315,274893,1,2,0:0:0:0:
298,278,274979,1,2,0:0:0:0:
320,190,275065,5,0,0:0:0:0:
310,226,275151,1,2,0:0:0:0:
318,263,275238,1,2,0:0:0:0:
345,297,275324,1,2,0:0:0:0:
442,354,275410,6,0,P|420:356|398:359,1,44.9999988079071,2|0,0:1|0:0,0:0:0:0:
417,48,275582,6,0,P|336:110|472:162,1,305.999997730255,4|0,1:0|0:0,0:0:0:0:
158,299,275841,5,8,0:2:0:0:
205,359,275927,2,0,B|214:315|195:277|195:277|252:334|296:336|365:292|352:251|308:223|286:226|288:285,1,337.500003933907,2|0,0:1|0:0,0:0:0:0:
204,101,276445,2,0,B|151:143|131:215|131:215|77:152|-5:135,1,270.000003147125,2|0,0:1|0:0,0:0:0:0:
52,341,276962,6,0,P|48:296|39:238,1,67.5000007867814,2|0,0:1|0:0,0:0:0:0:
211,261,277134,2,0,B|215:216|245:185|245:185|233:214|231:246,1,134.999996423721,0|0,1:0|0:0,0:0:0:0:
219,335,277479,6,0,P|223:290|232:232,1,67.5000007867814,8|0,0:0|0:0,0:0:0:0:
166,65,277651,1,0,0:0:0:0:
229,40,277738,1,2,0:0:0:0:
298,47,277824,1,0,0:0:0:0:
347,97,277910,1,2,0:0:0:0:
409,120,277996,1,0,0:0:0:0:
477,102,278082,1,2,0:0:0:0:
420,11,278169,6,0,B|409:97|409:97|408:136|408:136|395:256,1,202.500002360344,0|0,1:0|0:0,0:0:0:0:
382,303,278513,2,0,P|384:332|391:356,1,45.0000005245209
418,292,278628,2,0,P|447:289|471:283,1,45.0000005245209
406,256,278743,2,0,P|403:226|397:203,1,45.0000005245209
372,264,278858,5,8,0:0:0:0:
297,290,278973,1,0,0:0:0:0:
220,317,279088,1,0,0:0:0:0:
291,211,279203,5,0,0:0:0:0:
219,235,279318,1,0,0:0:0:0:
143,258,279433,1,0,0:0:0:0:
0,184,279548,6,0,P|50:181|90:174,1,67.5000007867814,2|0,0:1|0:0,0:0:0:0:
25,320,279720,2,0,P|75:323|115:330,1,67.5000007867814,2|0,0:1|0:0,0:0:0:0:
120,64,279893,5,0,1:0:0:0:
110,51,279979,1,0,0:0:0:0:
129,77,280065,2,0,B|206:60|171:109|276:91,1,119.699991897545,2|0,0:1|0:0,0:0:0:0:
512,40,280238,5,10,1:0:0:0:
505,19,280324,1,0,1:0:0:0:
262,369,280496,5,0,1:0:0:0:
256,359,280582,2,0,P|240:312|255:311,1,89.9999976158143,8|0,0:2|0:0,0:0:0:0:
407,126,280755,2,0,P|423:173|408:174,1,89.9999976158143,8|0,0:2|0:0,0:0:0:0:
189,214,280927,6,0,B|232:229|281:213|281:213|313:253|313:253|360:241|410:260,1,224.999994039536,4|0,1:0|0:0,1:0:0:0:
233,136,281445,6,0,B|244:40|144:17|50:9|35:80|127:129|180:104|210:63,1,337.500003933907,2|0,0:1|0:0,0:0:0:0:
35,362,281962,2,0,B|48:304|39:241|-1:191|-1:191|40:232|92:238,1,270.000003147125,2|0,0:1|0:0,0:0:0:0:
55,79,282479,6,0,P|67:125|74:150,1,67.5000007867814,2|0,0:1|0:0,0:0:0:0:
298,313,282651,2,0,B|229:294|251:346|158:322,1,134.999996423721,0|0,1:0|0:0,0:0:0:0:
146,337,282996,6,0,P|156:296|162:251,1,67.5000007867814,8|0,0:1|0:0,0:0:0:0:
153,44,283169,2,0,P|163:85|169:130,1,67.5000007867814
378,283,283341,6,0,B|345:238|353:154|353:154|309:226|248:239,1,269.999992847443
232,159,283686,5,0,0:0:0:0:
258,141,283772,2,0,P|280:113|293:79,1,44.9999988079071,0|0,1:0|0:0,0:0:0:0:
443,223,283945,1,0,1:0:0:0:
435,192,284031,1,0,0:0:0:0:
303,317,284203,1,0,1:0:0:0:
309,296,284289,1,0,0:0:0:0:
328,225,284376,6,0,P|335:201|348:172,1,44.9999988079071,8|0,0:0|0:0,0:0:0:0:
54,13,284548,6,0,L|80:10,1,14.9999996026357
114,69,284720,2,0,L|140:66,1,14.9999996026357
167,133,284893,2,0,L|193:130,1,14.9999996026357
30,369,285065,6,0,P|28:331|24:285,1,67.5000007867814,0|0,1:0|0:0,0:0:0:0:
8,180,285238,2,0,P|51:179|33:216,1,89.9999976158143,0|0,0:1|0:0,0:0:0:0:
237,336,285410,6,0,P|235:298|231:252,1,67.5000007867814,0|0,1:0|0:0,0:0:0:0:
214,144,285582,2,0,P|257:143|239:180,1,89.9999976158143,0|0,0:1|0:0,0:0:0:0:
443,369,285755,5,8,0:3:0:0:
450,324,285841,1,2,0:0:0:0:
457,278,285927,1,0,0:0:0:0:
463,234,286013,1,2,0:0:0:0:
467,187,286100,1,0,0:0:0:0:
471,142,286186,1,2,0:0:0:0:
476,97,286272,1,2,0:0:0:0:
479,52,286358,1,2,0:0:0:0:
355,22,286445,6,0,B|229:96|285:249|424:236|504:90|405:2|275:41|255:74|242:152,1,449.999988079071,4|0,1:0|2:0,0:0:0:0:
128,316,286962,6,0,B|193:310|193:310|251:368|335:330,1,215.999987686158,2|0,0:1|1:0,0:0:0:0:
473,281,287220,2,0,B|408:287|408:287|350:229|266:267,1,215.999987686158,2|0,0:1|0:0,0:0:0:0:
120,344,287479,6,0,P|107:225|87:73,1,239.39998379509,8|0,0:3|0:0,0:0:0:0:
184,0,287738,1,0,0:0:0:0:
192,64,287824,2,0,P|197:117|207:201,1,119.699991897545,0|0,1:0|0:0,0:0:0:0:
20,369,287996,1,0,0:0:0:0:
12,307,288082,2,0,P|7:254|-3:170,1,119.699991897545,0|8,0:1|0:0,0:0:0:0:
473,281,288255,6,0,B|316:236|373:361|186:303,1,270.000003147125,2|0,0:1|0:0,0:0:0:0:
412,6,288513,6,0,B|406:61|406:61|377:110|377:110|394:163|394:163|382:265,1,269.999992847443,0|0,1:0|0:0,0:0:0:0:
291,352,288858,2,0,B|310:210|310:210|235:273,1,202.500002360344,8|0,0:0|0:0,0:0:0:0:
200,337,289203,5,4,0:2:0:0:
176,21,289376,1,0,1:0:0:0:
30,364,289548,5,12,0:2:0:0:
4,43,289720,1,0,1:0:0:0:
241,233,289893,5,8,0:0:0:0:
161,216,289979,2,0,P|100:205|5:192,1,119.699991897545,0|0,0:1|1:0,0:0:0:0:
237,48,290151,5,0,0:0:0:0:
311,13,290238,2,0,P|373:-3|436:58,1,152.999998865128,8|0,0:3|0:0,0:0:0:0:
387,354,290410,2,0,P|332:368|256:307,1,152.999998865128,0|0,1:0|0:0,0:0:0:0:
482,193,290582,6,0,L|518:198,22,22.4999994039536
403,168,291617,5,8,0:3:0:0:
325,191,291703,1,8,0:3:0:0:
246,214,291789,1,0,1:0:0:0:
166,235,291876,1,8,0:0:0:0:
88,258,291962,6,0,B|37:212|20:143|20:143|29:213|-21:297,1,269.999992847443,4|0,1:0|0:0,0:0:0:0:
2,292,292307,1,8,0:0:0:0:
202,384,292479,6,0,P|229:377|259:375,1,44.9999988079071
270,227,292651,2,0,B|261:270|278:268|271:306,1,67.4999982118607
273,306,292996,1,8,0:0:0:0:
333,360,293169,6,0,P|360:353|390:351,1,44.9999988079071
401,203,293341,2,0,B|392:246|409:244|402:282,1,67.4999982118607
404,282,293686,1,8,0:0:0:0:
469,338,293858,6,0,P|496:331|526:329,1,44.9999988079071
506,98,294031,5,0,0:0:0:0:
451,108,294117,1,2,0:0:0:0:
394,101,294203,1,0,1:0:0:0:
350,67,294289,1,2,0:0:0:0:
329,19,294376,2,0,P|308:132|172:131,1,269.999992847443,8|0,0:0|0:0,0:0:0:0:
182,113,294720,6,0,P|190:82|197:44,1,67.4999982118607,0|0,1:0|0:0,0:0:0:0:
200,29,295065,1,0,0:0:0:0:
0,354,295238,6,0,P|48:351|118:343,1,89.9999976158143,8|0,0:3|0:0,0:0:0:0:
182,244,295410,2,0,P|134:247|64:255,1,89.9999976158143,0|0,0:3|0:0,0:0:0:0:
330,258,295582,5,0,1:0:0:0:
330,258,295669,1,0,0:0:0:0:
330,258,295755,2,0,P|378:255|448:247,1,89.9999976158143,8|0,0:0|0:0,0:0:0:0:
512,148,295927,2,0,P|464:151|394:159,1,89.9999976158143
336,264,296100,2,0,P|384:261|454:253,1,89.9999976158143
191,25,296272,5,0,1:0:0:0:
191,25,296358,1,0,0:0:0:0:
191,25,296445,2,0,P|143:28|73:36,1,89.9999976158143,8|0,0:0|0:0,0:0:0:0:
9,135,296617,2,0,P|57:132|127:124,1,89.9999976158143
309,354,296789,5,0,0:0:0:0:
351,294,296876,1,2,0:0:0:0:
345,222,296962,1,0,0:0:0:0:
291,169,297048,1,2,0:0:0:0:
219,170,297134,1,8,0:0:0:0:
166,222,297220,1,2,0:0:0:0:
160,294,297307,1,2,0:0:0:0:
202,354,297393,1,2,0:0:0:0:
255,284,297479,6,0,B|204:289|173:267|173:267|140:303|140:303|98:292|98:292|64:337|-2:319,1,269.999992847443,4|0,1:0|0:0,0:0:0:0:
35,250,297824,1,8,0:0:0:0:
413,2,297996,6,0,P|386:9|356:11,1,44.9999988079071
345,159,298169,2,0,B|354:116|337:118|344:80,1,67.4999982118607
342,80,298513,1,8,0:0:0:0:
282,26,298686,6,0,P|255:33|225:35,1,44.9999988079071
214,183,298858,2,0,B|223:140|206:142|213:104,1,67.4999982118607
211,104,299203,1,8,0:0:0:0:
146,48,299376,6,0,P|119:55|89:57,1,44.9999988079071
43,367,299548,5,0,0:0:0:0:
71,339,299634,1,2,0:0:0:0:
85,300,299720,1,0,0:0:0:0:
79,261,299807,1,2,0:0:0:0:
54,229,299893,2,0,B|-34:268|-61:341|-12:408|59:379|63:312|19:293,1,269.999992847443,8|0,0:0|0:0,0:0:0:0:
216,348,300238,6,0,P|170:347|158:345,1,44.9999988079071,0|0,1:0|0:0,0:0:0:0:
128,90,300582,6,0,P|125:113|124:138,2,45.0000005245209
140,97,300755,2,0,P|143:74|144:49,2,45.0000005245209,8|0|0,0:3|0:0|0:0,0:0:0:0:
149,102,300927,6,0,P|185:108|243:74,1,90.0000010490418
251,43,301100,1,0,1:0:0:0:
452,188,301272,5,8,0:0:0:0:
506,115,301387,1,0,0:0:0:0:
421,102,301502,1,0,0:0:0:0:
452,188,301617,6,0,B|447:235|447:235|456:269|456:269|437:307|437:307|430:386,1,179.999995231629,0|0,0:0|1:0,0:0:0:0:
325,296,301876,5,0,0:0:0:0:
307,309,301962,2,0,P|257:316|193:318,1,107.999993843079,8|0,0:0|0:0,0:0:0:0:
179,333,302134,2,0,P|239:334|311:345,1,107.999993843079
330,135,302307,6,0,P|204:189|272:44,1,359.099975692636
364,332,302651,5,8,0:0:0:0:
286,340,302738,1,0,0:0:0:0:
210,348,302824,1,0,0:0:0:0:
135,357,302910,1,0,0:0:0:0:
57,365,302996,1,4,1:0:0:0:
256,192,303082,12,0,303945,0:0:0:0:
257,360,304031,6,0,B|226:345|196:302|197:240|209:186|248:166|302:144|312:70|258:29|258:29|212:60|219:94|246:127,1,449.999988079071,4|0,1:0|0:0,0:0:0:0:
225,111,304548,2,0,P|195:108|127:91,1,67.5000007867814,0|0,1:0|0:0,0:0:0:0:
339,294,304720,6,0,P|335:249|333:176,1,89.9999976158143,8|0,0:0|0:0,0:0:0:0:
133,366,304893,2,0,P|131:321|128:277,1,89.9999976158143
1,172,305065,5,0,0:0:0:0:
38,182,305151,1,2,0:0:0:0:
72,180,305238,1,0,1:0:0:0:
101,159,305324,1,2,0:0:0:0:
158,100,305410,5,8,0:0:0:0:
195,110,305496,1,2,0:0:0:0:
229,108,305582,1,2,0:0:0:0:
260,82,305669,1,2,0:0:0:0:
317,16,305755,6,0,P|428:22|369:130,1,269.999992847443,0|8,1:0|0:3,0:0:0:0:
343,140,306100,1,0,0:0:0:0:
466,343,306272,6,0,P|469:317|475:287,1,44.9999988079071,8|0,0:3|0:0,0:0:0:0:
488,277,306445,2,0,P|485:303|479:333,1,44.9999988079071
208,354,306617,5,0,1:0:0:0:
208,354,306703,1,0,0:0:0:0:
208,354,306789,2,0,P|212:310|216:239,1,89.9999976158143,8|0,0:0|0:0,1:0:0:0:
315,232,306962,2,0,P|311:276|307:347,1,89.9999976158143,0|0,0:0|0:0,1:0:0:0:
211,360,307134,2,0,P|215:316|219:245,1,89.9999976158143,0|0,0:0|0:0,1:0:0:0:
75,80,307307,5,0,1:0:0:0:
75,80,307393,1,0,0:0:0:0:
75,80,307479,2,0,P|71:124|62:194,1,89.9999976158143,8|0,0:0|0:0,1:0:0:0:
175,122,307651,2,0,P|178:77|187:7,1,89.9999976158143,0|0,0:0|0:0,1:0:0:0:
0,295,307824,5,0,0:0:0:0:
53,262,307910,1,2,0:0:0:0:
116,256,307996,1,0,1:0:0:0:
177,278,308082,1,2,0:0:0:0:
255,343,308169,5,8,0:0:0:0:
323,372,308255,1,2,0:0:0:0:
397,375,308341,1,2,0:0:0:0:
465,342,308427,1,2,0:0:0:0:
494,201,308513,6,0,B|417:224|327:179|327:179|384:233|405:280,1,269.999992847443,4|0,1:0|0:0,0:0:0:0:
391,111,308858,6,0,P|407:64|423:-6,1,99.0000003986359,8|0,0:0|0:0,0:0:0:0:
398,269,309031,2,0,P|431:310|483:355,1,99.0000003986359
261,212,309203,2,0,P|208:220|143:242,1,99.0000003986359
305,371,309376,5,0,1:0:0:0:
305,371,309462,1,0,0:0:0:0:
305,371,309548,2,0,P|311:312|320:240,1,99.0000003986359,8|0,0:0|0:0,0:0:0:0:
214,27,309720,2,0,P|208:86|199:158,1,99.0000003986359
3,304,309893,6,0,P|95:376|34:217,1,458.999996595383
97,287,310238,6,0,P|136:281|204:266,1,107.999993843079,8|0,0:0|0:0,0:0:0:0:
375,262,310410,2,0,P|350:231|303:179,1,107.999993843079
214,27,310582,2,0,P|199:63|178:130,1,107.999993843079
279,376,310755,5,0,1:0:0:0:
279,376,310841,1,0,0:0:0:0:
279,376,310927,2,0,P|282:322|282:260,1,107.999993843079,8|0,0:0|0:0,0:0:0:0:
479,38,311100,2,0,P|476:92|476:154,1,107.999993843079
501,241,311272,5,4,1:0:0:0:
25,258,311445,2,0,B|101:244|73:294|189:283,1,119.699991897545,0|8,0:0|0:0,0:0:0:0:
201,344,311617,2,0,P|101:298|30:388,1,239.39998379509,0|8,0:0|0:0,0:0:0:0:
5,33,311962,5,4,1:0:0:0:
346,183,312134,2,0,B|261:198|292:142|163:155,1,135.000001573563,0|8,0:0|0:0,0:0:0:0:
158,83,312307,2,0,P|270:134|349:33,1,270.000003147125,0|8,0:0|0:0,0:0:0:0:
503,262,312565,5,0,0:0:0:0:
496,312,312651,2,0,B|423:317|358:261|358:261|315:330|196:336,1,305.999997730255,6|0,1:0|0:0,0:0:0:0:
252,26,312910,1,8,0:0:0:0:
252,26,312996,2,0,P|239:99|239:212,1,152.999998865128
47,384,313169,2,0,P|59:310|59:197,1,152.999998865128,8|0,0:0|0:0,0:0:0:0:
25,37,313341,5,0,1:0:0:0:
53,58,313427,1,8,1:2:0:0:
85,63,313513,1,8,1:2:0:0:
119,51,313600,1,8,1:2:0:0:
22,48,313686,5,0,1:0:0:0:
50,69,313772,1,8,1:2:0:0:
82,74,313858,1,8,1:2:0:0:
116,62,313945,1,8,1:2:0:0:
191,24,314031,6,0,P|264:1|331:77,1,179.999995231629,4|8,0:2|0:0,0:0:0:0:
306,159,314548,2,0,P|233:182|166:106,1,179.999995231629,4|0,0:2|1:0,0:0:0:0:
251,89,315065,1,12,1:2:0:0:
502,288,315410,5,0,0:0:0:0:
429,267,315582,1,4,1:2:0:0:
355,282,315755,1,8,0:0:0:0:
310,343,315927,1,0,0:0:0:0:
299,354,316013,1,0,0:0:0:0:
286,360,316100,1,4,0:0:0:0:
270,363,316186,1,0,0:0:0:0:
253,361,316272,1,0,1:0:0:0:
184,335,316445,2,0,P|135:327|83:319,1,89.9999976158143,8|0,0:0|0:0,0:0:0:0:
6,224,316789,6,0,P|-15:140|26:69,1,161.999990764618,0|8,1:0|0:0,0:0:0:0:
139,88,317307,2,0,P|160:172|119:243,1,161.999990764618,4|0,0:2|1:0,0:0:0:0:
70,156,317824,1,12,0:2:0:0:
236,27,318169,5,0,0:0:0:0:
289,85,318341,1,0,1:0:0:0:
365,100,318513,1,8,0:0:0:0:
440,85,318686,1,0,0:0:0:0:
456,80,318772,1,0,0:0:0:0:
468,68,318858,1,4,0:0:0:0:
477,54,318945,1,0,0:0:0:0:
487,32,319031,1,0,1:0:0:0:
477,106,319203,1,8,0:0:0:0:
485,182,319376,2,0,P|490:213|500:238,1,40.4999976911546
492,380,319548,6,0,P|448:344|364:365,1,143.999996185303,0|8,1:0|0:0,0:0:0:0:
241,253,320065,2,0,P|285:289|369:268,1,143.999996185303,4|0,0:2|0:0,0:0:0:0:
310,214,320582,1,12,0:0:0:0:
0,39,320927,5,0,0:0:0:0:
72,32,321100,1,0,1:0:0:0:
140,60,321272,1,8,0:0:0:0:
178,126,321445,1,0,0:0:0:0:
183,141,321531,1,0,0:0:0:0:
185,160,321617,1,4,0:0:0:0:
183,177,321703,1,0,0:0:0:0:
178,194,321789,1,0,1:0:0:0:
226,140,321962,1,8,0:0:0:0:
301,118,322134,1,0,0:0:0:0:
487,134,322307,6,0,P|443:98|363:118,1,125.999992816925,0|8,1:0|0:0,0:0:0:0:
191,90,322824,2,0,P|235:126|315:106,1,125.999992816925,4|0,0:0|0:0,0:0:0:0:
260,53,323341,1,12,0:0:0:0:
497,299,323686,5,0,0:0:0:0:
418,282,323858,1,0,1:0:0:0:
440,357,324031,1,8,0:0:0:0:
366,343,324203,1,0,0:0:0:0:
352,340,324289,1,0,0:0:0:0:
338,336,324376,1,4,0:0:0:0:
322,331,324462,1,0,0:0:0:0:
306,327,324548,1,0,0:0:0:0:
227,358,324720,1,8,0:0:0:0:
240,278,324893,2,0,L|243:222,1,31.4999982042313
52,300,325065,5,4,1:0:0:0:
181,170,325410,1,0,1:0:0:0:
178,195,325582,1,4,0:0:0:0:
327,47,325927,1,0,0:0:0:0:
324,72,326100,1,12,0:0:0:0:
465,301,326617,5,0,1:0:0:0:
459,326,326789,2,0,P|403:329|340:335,2,107.999993843079,4|0|4,0:0|0:0|0:0,0:0:0:0:
465,301,327824,5,4,1:0:0:0:
336,171,328169,1,8,0:0:0:0:
340,196,328341,1,4,0:0:0:0:
190,48,328686,1,0,0:0:0:0:
193,73,328858,1,4,0:0:0:0:
52,302,329376,5,0,1:0:0:0:
58,327,329548,2,0,P|114:330|162:334,2,89.9999976158143,4|0|4,0:0|0:0|0:0,0:0:0:0:
32,68,330582,5,0,1:0:0:0:
44,180,330927,1,0,1:0:0:0:
55,167,331100,1,4,0:0:0:0:
144,107,331445,1,0,0:0:0:0:
127,104,331617,1,4,0:0:0:0:
195,360,332134,5,0,1:0:0:0:
194,343,332307,2,0,P|192:310|190:263,1,71.9999980926514,4|0,0:0|0:0,0:0:0:0:
190,257,332824,1,0,1:0:0:0:
189,242,332996,1,4,0:0:0:0:
480,316,333341,5,0,1:0:0:0:
468,204,333686,1,0,1:0:0:0:
457,217,333858,1,4,0:0:0:0:
368,277,334203,1,0,1:0:0:0:
385,280,334376,1,4,0:0:0:0:
302,41,334893,5,0,1:0:0:0:
302,53,335065,2,0,P|303:77|305:113,1,53.9999969215394,4|0,0:0|0:0,0:0:0:0:
305,118,335582,1,0,1:0:0:0:
304,131,335755,1,4,0:0:0:0:
231,321,336100,6,0,B|195:287|142:239|76:248|34:271|6:328|6:328|55:364|102:361|141:351|168:323|195:281|208:227,1,539.999985694885,8|0,0:3|0:0,0:0:0:0:
203,50,341617,6,0,B|251:65|293:57|323:10|323:10|301:61|273:123|293:183|336:208|392:216|450:175|469:108|417:55|368:71|361:120,1,539.999985694885,0|0,3:0|3:0,0:0:0:0:
399,299,347134,6,0,B|462:300|503:264|504:201|504:201|459:208|465:261|465:261|475:297|500:343|459:379|406:401|377:394|337:372|326:344|307:309|327:287,1,539.999985694885,0|0,3:0|3:0,0:0:0:0:
320,169,352651,6,0,P|230:213|151:103,1,251.99999332428,0|0,3:0|3:0,0:0:0:0:
153,86,355410,2,0,P|205:31|316:69,1,197.999994754791,0|0,3:0|3:0,0:0:0:0:
234,132,357479,6,0,L|237:111,1,17.9999995231628,0|0,3:0|0:0,0:0:0:0:
239,234,357824,2,0,L|242:213,1,17.9999995231628,0|0,3:0|0:0,0:0:0:0:
