osu file format v14

[General]
AudioFilename: audio.mp3
AudioLeadIn: 0
PreviewTime: 87828
Countdown: 0
SampleSet: Normal
StackLeniency: 0.7
Mode: 1
LetterboxInBreaks: 0
WidescreenStoryboard: 0

[Editor]
DistanceSpacing: 0.8
BeatDivisor: 4
GridSize: 4
TimelineZoom: 3.099999

[Metadata]
Title:Key of timepieces
TitleUnicode:Key of timepieces
Artist:Camellia
ArtistUnicode:かめりあ
Creator:Nifty
Version:Timeless Oni
Source:
Tags:sv drumstep kamelcamellia かめるかめりあ cametek cyphisonia e.p.
BeatmapID:1506653
BeatmapSetID:712825

[Difficulty]
HPDrainRate:5
CircleSize:2
OverallDifficulty:6
ApproachRate:10
SliderMultiplier:1.4
SliderTickRate:1

[Events]
//Background and Video events
0,0,"times.jpg",0,-80
//Break Periods
2,43890,45998
//Storyboard Layer 0 (Background)
//Storyboard Layer 1 (Fail)
//Storyboard Layer 2 (Pass)
//Storyboard Layer 3 (Foreground)
//Storyboard Sound Samples

[TimingPoints]
931,344.827586206897,4,1,0,40,1,0
931,-200,4,1,0,40,0,0
24380,344.827586206897,4,1,0,40,1,0
24380,-200,4,1,0,40,0,0
24421,-196.078431372549,4,1,0,40,0,0
24464,-192.307692307692,4,1,0,40,0,0
24722,-142.857142857143,4,1,0,40,0,0
25714,-200,4,1,0,40,0,0
25757,-196.078431372549,4,1,0,40,0,0
25800,-192.307692307692,4,1,0,40,0,0
26878,-142.857142857143,4,1,0,40,0,0
27136,-200,4,1,0,40,0,0
29033,-142.857142857143,4,1,0,40,0,0
29895,-200,4,1,0,40,0,0
29938,-196.078431372549,4,1,0,40,0,0
29981,-192.307692307692,4,1,0,40,0,0
30067,-185.185185185185,4,1,0,40,0,0
31188,-142.857142857143,4,1,0,40,0,0
31274,-200,4,1,0,40,0,0
33343,-142.857142857143,4,1,0,40,0,0
34033,-200,4,1,0,40,0,0
35498,-142.857142857143,4,1,0,40,0,0
36748,-200,4,1,0,40,0,0
36791,-196.078431372549,4,1,0,40,0,0
36834,-192.307692307692,4,1,0,40,0,0
37653,-142.857142857143,4,1,0,40,0,0
38171,-200,4,1,0,40,0,0
39809,-142.857142857143,4,1,0,40,0,0
40929,-200,4,1,0,40,0,0
40972,-196.078431372549,4,1,0,40,0,0
41015,-192.307692307692,4,1,0,40,0,0
41102,-185.185185185185,4,1,0,40,0,0
41964,-142.857142857143,4,1,0,40,0,0
42309,-200,4,1,0,40,0,0
43645,-204.081632653061,4,1,0,40,0,0
43688,-200,4,1,0,40,0,0
46619,-199.203187250996,4,1,0,50,0,0
46791,-198.412698412698,4,1,0,50,0,0
46964,-197.628458498024,4,1,0,50,0,0
47136,-196.850393700787,4,1,0,50,0,0
47309,-196.078431372549,4,1,0,50,0,0
47481,-195.3125,4,1,0,50,0,0
47653,-194.552529182879,4,1,0,50,0,0
47826,-193.798449612403,4,1,0,50,0,0
47998,-193.050193050193,4,1,0,50,0,0
48171,-192.307692307692,4,1,0,50,0,0
48343,-191.570881226054,4,1,0,50,0,0
48515,-190.839694656489,4,1,0,50,0,0
48688,-190.114068441065,4,1,0,50,0,0
48860,-189.393939393939,4,1,0,50,0,0
49033,-188.679245283019,4,1,0,50,0,0
49205,-187.96992481203,4,1,0,50,0,0
49378,-187.265917602996,4,1,0,50,0,0
49550,-186.567164179104,4,1,0,50,0,0
49722,-185.873605947955,4,1,0,50,0,0
49895,-185.185185185185,4,1,0,50,0,0
50067,-184.50184501845,4,1,0,50,0,0
50240,-183.823529411765,4,1,0,50,0,0
50412,-183.150183150183,4,1,0,50,0,0
50584,-182.481751824818,4,1,0,50,0,0
50757,-181.818181818182,4,1,0,50,0,0
50929,-181.159420289855,4,1,0,50,0,0
51102,-180.505415162455,4,1,0,50,0,0
51274,-179.856115107914,4,1,0,50,0,0
51446,-179.21146953405,4,1,0,50,0,0
51619,-178.571428571429,4,1,0,50,0,0
51791,-177.935943060498,4,1,0,50,0,0
51964,-177.304964539007,4,1,0,50,0,0
52136,-176.678445229682,4,1,0,50,0,0
52309,-176.056338028169,4,1,0,50,0,0
52481,-175.438596491228,4,1,0,50,0,0
52653,-174.825174825175,4,1,0,50,0,0
52826,-174.216027874564,4,1,0,50,0,0
52998,-173.611111111111,4,1,0,50,0,0
53171,-173.010380622837,4,1,0,50,0,0
53343,-172.413793103448,4,1,0,50,0,0
53515,-171.232876712329,4,1,0,50,0,0
53688,-170.648464163823,4,1,0,50,0,0
53860,-170.068027210884,4,1,0,50,0,0
54033,-169.491525423729,4,1,0,50,0,0
54205,-168.918918918919,4,1,0,50,0,0
54378,-168.350168350168,4,1,0,50,0,0
54550,-167.785234899329,4,1,0,50,0,0
54722,-167.224080267559,4,1,0,50,0,0
54895,-166.666666666667,4,1,0,50,0,0
55067,-166.112956810631,4,1,0,50,0,0
55240,-165.562913907285,4,1,0,50,0,0
55412,-165.016501650165,4,1,0,50,0,0
55584,-164.473684210526,4,1,0,50,0,0
55757,-163.934426229508,4,1,0,50,0,0
55929,-163.398692810458,4,1,0,50,0,0
56102,-162.866449511401,4,1,0,50,0,0
56274,-162.337662337662,4,1,0,50,0,0
56446,-161.812297734628,4,1,0,50,0,0
56619,-161.290322580645,4,1,0,50,0,0
56791,-160.771704180064,4,1,0,50,0,0
56964,-160.25641025641,4,1,0,50,0,0
57136,-159.744408945687,4,1,0,50,0,0
57309,-159.235668789809,4,1,0,50,0,0
57481,-158.730158730159,4,1,0,50,0,0
57653,-158.227848101266,4,1,0,50,0,0
57826,-157.728706624606,4,1,0,50,0,0
57998,-157.232704402516,4,1,0,50,0,0
58171,-156.739811912226,4,1,0,50,0,0
58343,-156.25,4,1,0,50,0,0
58515,-155.763239875389,4,1,0,50,0,0
58688,-155.27950310559,4,1,0,50,0,0
58860,-154.798761609907,4,1,0,50,0,0
59033,-154.320987654321,4,1,0,50,0,0
59205,-153.846153846154,4,1,0,50,0,0
59378,-153.374233128834,4,1,0,50,0,0
59550,-152.905198776758,4,1,0,50,0,0
59722,-152.439024390244,4,1,0,50,0,0
59895,-151.975683890578,4,1,0,50,0,0
60067,-151.515151515152,4,1,0,50,0,0
60240,-151.057401812689,4,1,0,50,0,0
60412,-150.602409638554,4,1,0,50,0,0
60584,-150.15015015015,4,1,0,50,0,0
60757,-149.700598802395,4,1,0,50,0,0
60929,-149.253731343284,4,1,0,50,0,0
61102,-148.809523809524,4,1,0,50,0,0
61274,-148.367952522255,4,1,0,50,0,0
61446,-147.92899408284,4,1,0,50,0,0
61619,-147.492625368732,4,1,0,50,0,0
61791,-147.058823529412,4,1,0,50,0,0
61964,-146.627565982405,4,1,0,50,0,0
62136,-146.198830409357,4,1,0,50,0,0
62309,-145.772594752187,4,1,0,50,0,0
62481,-145.348837209302,4,1,0,50,0,0
62653,-144.927536231884,4,1,0,50,0,0
62826,-144.508670520231,4,1,0,50,0,0
62998,-144.092219020173,4,1,0,50,0,0
63171,-143.67816091954,4,1,0,50,0,0
63343,-143.266475644699,4,1,0,50,0,0
63515,-142.857142857143,4,1,0,50,0,0
63688,-142.450142450142,4,1,0,50,0,0
63860,-142.045454545455,4,1,0,50,0,0
64033,-141.643059490085,4,1,0,50,0,0
64205,-141.242937853107,4,1,0,50,0,0
64378,-140.845070422535,4,1,0,50,0,0
64550,-140.449438202247,4,1,0,50,0,0
64722,-140.449438202247,4,1,0,50,0,0
64895,-140.056022408964,4,1,0,50,0,0
65067,-139.664804469274,4,1,0,50,0,0
65240,-139.275766016713,4,1,0,50,0,0
65412,-138.888888888889,4,1,0,50,0,0
65584,-138.504155124654,4,1,0,50,0,0
65757,-138.121546961326,4,1,0,50,0,0
65929,-137.741046831956,4,1,0,50,0,0
66102,-137.362637362637,4,1,0,50,0,0
66274,-136.986301369863,4,1,0,50,0,0
66446,-136.612021857923,4,1,0,50,0,0
66619,-136.239782016349,4,1,0,50,0,0
66791,-135.869565217391,4,1,0,50,0,0
66964,-135.50135501355,4,1,0,50,0,0
67136,-135.135135135135,4,1,0,50,0,0
67309,-134.770889487871,4,1,0,50,0,0
67481,-134.408602150538,4,1,0,50,0,0
67653,-134.048257372654,4,1,0,50,0,0
67826,-133.689839572192,4,1,0,50,0,0
67998,-133.333333333333,4,1,0,50,0,0
68515,-133.333333333333,4,1,0,50,0,0
74205,-132.978723404255,4,1,0,55,0,0
74378,-132.62599469496,4,1,0,55,0,0
74550,-132.275132275132,4,1,0,55,0,0
74722,-131.926121372032,4,1,0,55,0,0
74895,-131.578947368421,4,1,0,55,0,0
75067,-131.233595800525,4,1,0,55,0,0
75240,-130.890052356021,4,1,0,55,0,0
75412,-130.548302872063,4,1,0,55,0,0
75584,-130.208333333333,4,1,0,55,0,0
75757,-129.87012987013,4,1,0,55,0,0
75929,-129.533678756477,4,1,0,55,0,0
76102,-129.198966408269,4,1,0,55,0,0
76274,-128.865979381443,4,1,0,55,0,0
76446,-128.53470437018,4,1,0,55,0,0
76619,-128.205128205128,4,1,0,55,0,0
76791,-127.877237851662,4,1,0,55,0,0
76964,-127.551020408163,4,1,0,40,0,0
77136,-127.226463104326,4,1,0,60,0,0
77309,-126.903553299492,4,1,0,60,0,0
77481,-126.582278481013,4,1,0,60,0,0
77653,-126.262626262626,4,1,0,60,0,0
77826,-125.944584382872,4,1,0,60,0,0
77998,-125.628140703518,4,1,0,60,0,0
78688,-125.31328320802,4,1,0,60,0,0
79205,-125,4,1,0,65,0,0
79722,-124.378109452736,4,1,0,65,0,0
79895,-123.762376237624,4,1,0,65,0,0
80067,-123.152709359606,4,1,0,65,0,0
80240,-122.549019607843,4,1,0,65,0,0
80412,-121.951219512195,4,1,0,65,0,0
80584,-121.359223300971,4,1,0,65,0,0
80757,-120.772946859903,4,1,0,65,0,0
80929,-120.192307692308,4,1,0,65,0,0
81102,-119.617224880383,4,1,0,65,0,0
81274,-119.047619047619,4,1,0,65,0,0
81446,-118.483412322275,4,1,0,65,0,0
81619,-117.924528301887,4,1,0,65,0,0
81791,-117.370892018779,4,1,0,65,0,0
81964,-116.822429906542,4,1,0,65,0,0
82136,-116.279069767442,4,1,0,65,0,0
82309,-115.740740740741,4,1,0,65,0,0
82481,-115.207373271889,4,1,0,65,0,0
82653,-114.678899082569,4,1,0,65,0,0
82826,-114.155251141552,4,1,0,65,0,0
82998,-113.636363636364,4,1,0,65,0,0
83171,-113.122171945701,4,1,0,65,0,0
83343,-112.612612612613,4,1,0,65,0,0
83515,-112.107623318386,4,1,0,65,0,0
83688,-111.607142857143,4,1,0,65,0,0
83860,-111.111111111111,4,1,0,65,0,0
84033,-110.619469026549,4,1,0,65,0,0
84205,-110.132158590308,4,1,0,65,0,0
84378,-109.649122807018,4,1,0,65,0,0
84550,-109.170305676856,4,1,0,65,0,0
84722,-108.695652173913,4,1,0,65,0,0
84895,-108.225108225108,4,1,0,65,0,0
85067,-107.758620689655,4,1,0,65,0,0
85240,-107.296137339056,4,1,0,65,0,0
85412,-106.837606837607,4,1,0,65,0,0
85584,-105.263157894737,4,1,0,65,0,0
85671,-104.712041884817,4,1,0,65,0,0
85843,-104.166666666667,4,1,0,65,0,0
85929,-103.626943005181,4,1,0,65,0,0
86102,-102.564102564103,4,1,0,65,0,0
86274,-101.522842639594,4,1,0,65,0,0
86360,-101.010101010101,4,1,0,65,0,0
86533,-100,4,1,0,65,0,0
86619,-99.502487562189,4,1,0,65,0,0
86791,-98.5221674876847,4,1,0,65,0,0
86964,-97.5609756097561,4,1,0,65,0,0
87050,-97.0873786407767,4,1,0,65,0,0
87222,-96.1538461538461,4,1,0,65,0,0
87309,-95.7854406130268,4,1,0,65,0,0
87481,-94.7867298578199,4,1,0,65,0,0
87653,-142.857142857143,4,1,0,50,0,0
87912,-147.058823529412,4,1,0,48,0,0
88085,-151.515151515152,4,1,0,46,0,0
88257,-156.25,4,1,0,44,0,0
88429,-161.290322580645,4,1,0,42,0,0
88602,-166.666666666667,4,1,0,40,0,0
88774,-172.413793103448,4,1,0,38,0,0
88947,-178.571428571429,4,1,0,36,0,0
89119,-185.185185185185,4,1,0,34,0,0
89292,-192.307692307692,4,1,0,32,0,0
89464,-200,4,1,0,30,0,0
89636,-208.333333333333,4,1,0,28,0,0
89809,-217.391304347826,4,1,0,26,0,0
90067,-125,4,1,0,60,0,0
90153,-119.047619047619,4,1,0,60,0,0
90240,-113.636363636364,4,1,0,60,0,0
90326,-108.695652173913,4,1,0,60,0,0
90412,-104.166666666667,4,1,0,60,0,0
90498,-100,4,1,0,60,0,0
90586,-96.1538461538461,4,1,0,85,0,1
90929,-100,4,1,0,85,0,1
91102,-95.2380952380952,4,1,0,85,0,1
91188,-93.4579439252336,4,1,0,85,0,1
91274,-91.743119266055,4,1,0,85,0,1
91446,-100,4,1,0,85,0,1
91619,-95.2380952380952,4,1,0,85,0,1
91791,-90.9090909090909,4,1,0,85,0,1
91878,-89.2857142857143,4,1,0,85,0,1
91964,-87.719298245614,4,1,0,85,0,1
92136,-95.2380952380952,4,1,0,85,0,1
92309,-90.9090909090909,4,1,0,85,0,1
92481,-86.9565217391304,4,1,0,85,0,1
92567,-85.4700854700855,4,1,0,85,0,1
92653,-84.0336134453781,4,1,0,85,0,1
92740,-82.6446280991736,4,1,0,85,0,1
92826,-81.3008130081301,4,1,0,85,0,1
92998,-79.3650793650794,4,1,0,85,0,1
93171,-76.9230769230769,4,1,0,85,0,1
93343,-74.0740740740741,4,1,0,85,0,1
93688,-83.3333333333333,4,1,0,85,0,1
93860,-80,4,1,0,85,0,1
93946,-81.3008130081301,4,1,0,85,0,1
94033,-82.6446280991736,4,1,0,85,0,1
94205,-86.9565217391304,4,1,0,85,0,1
94378,-90.9090909090909,4,1,0,85,0,1
94550,-86.9565217391304,4,1,0,85,0,1
94636,-88.4955752212389,4,1,0,85,0,1
94722,-90.0900900900901,4,1,0,85,0,1
94895,-95.2380952380952,4,1,0,85,0,1
95067,-100,4,1,0,85,0,1
95240,-95.2380952380952,4,1,0,85,0,1
95326,-97.0873786407767,4,1,0,85,0,1
95412,-99.009900990099,4,1,0,85,0,1
95498,-101.010101010101,4,1,0,85,0,1
95584,-102.040816326531,4,1,0,85,0,1
95757,-105.263157894737,4,1,0,85,0,1
95929,-111.111111111111,4,1,0,85,0,1
96015,-113.636363636364,4,1,0,85,0,1
96102,-116.279069767442,4,1,0,85,0,1
96446,-100,4,1,0,85,0,1
96619,-95.2380952380952,4,1,0,85,0,1
96705,-93.4579439252336,4,1,0,85,0,1
96791,-91.743119266055,4,1,0,85,0,1
96963,-100,4,1,0,85,0,1
97136,-95.2380952380952,4,1,0,85,0,1
97308,-90.9090909090909,4,1,0,85,0,1
97395,-89.2857142857143,4,1,0,85,0,1
97481,-87.719298245614,4,1,0,85,0,1
97653,-95.2380952380952,4,1,0,85,0,1
97826,-90.9090909090909,4,1,0,85,0,1
97998,-86.9565217391304,4,1,0,85,0,1
98084,-85.4700854700855,4,1,0,85,0,1
98170,-84.0336134453781,4,1,0,85,0,1
98257,-82.6446280991736,4,1,0,85,0,1
98343,-81.3008130081301,4,1,0,85,0,1
98515,-79.3650793650794,4,1,0,85,0,1
98688,-76.9230769230769,4,1,0,85,0,1
98860,-74.0740740740741,4,1,0,85,0,1
99205,-83.3333333333333,4,1,0,85,0,1
99291,-84.7457627118644,4,1,0,85,0,1
99464,-86.2068965517241,4,1,0,85,0,1
99550,-87.719298245614,4,1,0,85,0,1
99722,-89.2857142857143,4,1,0,85,0,1
99809,-90.9090909090909,4,1,0,85,0,1
99895,-92.5925925925926,4,1,0,85,0,1
99981,-94.3396226415094,4,1,0,85,0,1
100067,-96.1538461538461,4,1,0,85,0,1
100240,-98.0392156862745,4,1,0,85,0,1
100326,-100,4,1,0,85,0,1
100412,-102.040816326531,4,1,0,85,0,1
100584,-104.166666666667,4,1,0,85,0,1
100757,-106.382978723404,4,1,0,85,0,1
100843,-108.695652173913,4,1,0,85,0,1
100929,-111.111111111111,4,1,0,85,0,1
101015,-113.636363636364,4,1,0,85,0,1
101102,-116.279069767442,4,1,0,85,0,1
101274,-119.047619047619,4,1,0,85,0,1
101446,-108.695652173913,4,1,0,85,0,1
101533,-104.166666666667,4,1,0,85,0,1
101619,-100,4,1,0,85,0,1
101963,-100,4,1,0,85,0,1
102136,-95.2380952380952,4,1,0,85,0,1
102222,-93.4579439252336,4,1,0,85,0,1
102308,-91.743119266055,4,1,0,85,0,1
102480,-100,4,1,0,85,0,1
102653,-95.2380952380952,4,1,0,85,0,1
102825,-90.9090909090909,4,1,0,85,0,1
102912,-89.2857142857143,4,1,0,85,0,1
102998,-87.719298245614,4,1,0,85,0,1
103170,-95.2380952380952,4,1,0,85,0,1
103343,-90.9090909090909,4,1,0,85,0,1
103515,-86.9565217391304,4,1,0,85,0,1
103601,-85.4700854700855,4,1,0,85,0,1
103687,-84.0336134453781,4,1,0,85,0,1
103774,-82.6446280991736,4,1,0,85,0,1
103860,-81.3008130081301,4,1,0,85,0,1
104032,-79.3650793650794,4,1,0,85,0,1
104205,-76.9230769230769,4,1,0,85,0,1
104377,-74.0740740740741,4,1,0,85,0,1
104722,-83.3333333333333,4,1,0,85,0,1
104895,-80,4,1,0,85,0,1
104981,-81.3008130081301,4,1,0,85,0,1
105067,-82.6446280991736,4,1,0,85,0,1
105240,-86.9565217391304,4,1,0,85,0,1
105412,-90.9090909090909,4,1,0,85,0,1
105584,-86.9565217391304,4,1,0,85,0,1
105671,-88.4955752212389,4,1,0,85,0,1
105757,-90.0900900900901,4,1,0,85,0,1
105929,-95.2380952380952,4,1,0,85,0,1
106102,-100,4,1,0,85,0,1
106274,-95.2380952380952,4,1,0,85,0,1
106360,-97.0873786407767,4,1,0,85,0,1
106446,-99.009900990099,4,1,0,85,0,1
106533,-101.010101010101,4,1,0,85,0,1
106619,-103.092783505155,4,1,0,85,0,1
106791,-107.52688172043,4,1,0,85,0,1
106964,-112.359550561798,4,1,0,85,0,1
107050,-114.942528735632,4,1,0,85,0,1
107138,-117.647058823529,4,1,0,85,0,0
107653,-83.3333333333333,4,1,0,85,0,0
107826,-86.9565217391304,4,1,0,85,0,0
107998,-90.9090909090909,4,1,0,85,0,0
108171,-95.2380952380952,4,1,0,85,0,0
108515,-100,4,1,0,85,0,0
108688,-95.2380952380952,4,1,0,85,0,0
108860,-90.9090909090909,4,1,0,85,0,0
109033,-86.9565217391304,4,1,0,85,0,0
109205,-83.3333333333333,4,1,0,85,0,0
109378,-80,4,1,0,85,0,0
109550,-76.9230769230769,4,1,0,85,0,0
109722,-74.0740740740741,4,1,0,85,0,0
109895,-71.4285714285714,4,1,0,85,0,0
110412,-83.3333333333333,4,1,0,85,0,0
110584,-86.9565217391304,4,1,0,85,0,0
110757,-90.9090909090909,4,1,0,85,0,0
110929,-95.2380952380952,4,1,0,85,0,0
111274,-100,4,1,0,85,0,0
111446,-95.2380952380952,4,1,0,85,0,0
111619,-90.9090909090909,4,1,0,85,0,0
111705,-88.4955752212389,4,1,0,85,0,0
111878,-83.3333333333333,4,1,0,85,0,0
111964,-81.3008130081301,4,1,0,85,0,0
112136,-71.4285714285714,4,1,0,85,0,0
112395,-83.3333333333333,4,1,0,85,0,0
112655,-100,4,1,0,85,0,1
112998,-100,4,1,0,85,0,1
113171,-95.2380952380952,4,1,0,85,0,1
113257,-93.4579439252336,4,1,0,85,0,1
113343,-91.743119266055,4,1,0,85,0,1
113515,-100,4,1,0,85,0,1
113688,-95.2380952380952,4,1,0,85,0,1
113860,-90.9090909090909,4,1,0,85,0,1
113946,-89.2857142857143,4,1,0,85,0,1
114033,-87.719298245614,4,1,0,85,0,1
114205,-95.2380952380952,4,1,0,85,0,1
114378,-90.9090909090909,4,1,0,85,0,1
114550,-86.9565217391304,4,1,0,85,0,1
114636,-85.4700854700855,4,1,0,85,0,1
114722,-84.0336134453781,4,1,0,85,0,1
114809,-82.6446280991736,4,1,0,85,0,1
114895,-81.3008130081301,4,1,0,85,0,1
115067,-79.3650793650794,4,1,0,85,0,1
115240,-76.9230769230769,4,1,0,85,0,1
115412,-74.0740740740741,4,1,0,85,0,1
115757,-83.3333333333333,4,1,0,85,0,1
115929,-80,4,1,0,85,0,1
116015,-81.3008130081301,4,1,0,85,0,1
116102,-82.6446280991736,4,1,0,85,0,1
116274,-86.9565217391304,4,1,0,85,0,1
116446,-90.9090909090909,4,1,0,85,0,1
116619,-86.9565217391304,4,1,0,85,0,1
116705,-88.4955752212389,4,1,0,85,0,1
116791,-90.0900900900901,4,1,0,85,0,1
116964,-95.2380952380952,4,1,0,85,0,1
117136,-100,4,1,0,85,0,1
117309,-95.2380952380952,4,1,0,85,0,1
117395,-97.0873786407767,4,1,0,85,0,1
117481,-99.009900990099,4,1,0,85,0,1
117567,-101.010101010101,4,1,0,85,0,1
117653,-103.092783505155,4,1,0,85,0,1
117826,-107.52688172043,4,1,0,85,0,1
117998,-112.359550561798,4,1,0,85,0,1
118084,-114.942528735632,4,1,0,85,0,1
118171,-117.647058823529,4,1,0,85,0,1
118515,-100,4,1,0,85,0,1
118688,-95.2380952380952,4,1,0,85,0,1
118774,-93.4579439252336,4,1,0,85,0,1
118860,-91.743119266055,4,1,0,85,0,1
119032,-100,4,1,0,85,0,1
119205,-95.2380952380952,4,1,0,85,0,1
119377,-90.9090909090909,4,1,0,85,0,1
119464,-89.2857142857143,4,1,0,85,0,1
119550,-87.719298245614,4,1,0,85,0,1
119722,-95.2380952380952,4,1,0,85,0,1
119895,-90.9090909090909,4,1,0,85,0,1
120067,-86.9565217391304,4,1,0,85,0,1
120153,-85.4700854700855,4,1,0,85,0,1
120239,-84.0336134453781,4,1,0,85,0,1
120326,-82.6446280991736,4,1,0,85,0,1
120412,-81.3008130081301,4,1,0,85,0,1
120584,-79.3650793650794,4,1,0,85,0,1
120757,-76.9230769230769,4,1,0,85,0,1
120929,-74.0740740740741,4,1,0,85,0,1
121274,-83.3333333333333,4,1,0,85,0,1
121360,-84.7457627118644,4,1,0,85,0,1
121533,-86.2068965517241,4,1,0,85,0,1
121619,-87.719298245614,4,1,0,85,0,1
121791,-89.2857142857143,4,1,0,85,0,1
121878,-90.9090909090909,4,1,0,85,0,1
121964,-92.5925925925926,4,1,0,85,0,1
122136,-83.3333333333333,4,1,0,85,0,1
122222,-84.7457627118644,4,1,0,85,0,1
122395,-86.2068965517241,4,1,0,85,0,1
122481,-87.719298245614,4,1,0,85,0,1
122653,-89.2857142857143,4,1,0,85,0,1
122826,-90.9090909090909,4,1,0,85,0,1
122912,-92.5925925925926,4,1,0,85,0,1
122998,-94.3396226415094,4,1,0,85,0,1
123084,-96.1538461538461,4,1,0,85,0,1
123171,-98.0392156862745,4,1,0,85,0,1
123343,-92.5925925925926,4,1,0,85,0,1
123429,-94.3396226415094,4,1,0,85,0,1
123515,-96.1538461538461,4,1,0,85,0,1
123602,-98.0392156862745,4,1,0,85,0,1
123688,-100,4,1,0,85,0,1
124032,-100,4,1,0,85,0,1
124205,-95.2380952380952,4,1,0,85,0,1
124291,-93.4579439252336,4,1,0,85,0,1
124377,-91.743119266055,4,1,0,85,0,1
124549,-100,4,1,0,85,0,1
124722,-95.2380952380952,4,1,0,85,0,1
124894,-90.9090909090909,4,1,0,85,0,1
124981,-89.2857142857143,4,1,0,85,0,1
125067,-87.719298245614,4,1,0,85,0,1
125239,-95.2380952380952,4,1,0,85,0,1
125412,-90.9090909090909,4,1,0,85,0,1
125584,-86.9565217391304,4,1,0,85,0,1
125670,-85.4700854700855,4,1,0,85,0,1
125756,-84.0336134453781,4,1,0,85,0,1
125843,-82.6446280991736,4,1,0,85,0,1
125929,-81.3008130081301,4,1,0,85,0,1
126101,-79.3650793650794,4,1,0,85,0,1
126274,-76.9230769230769,4,1,0,85,0,1
126446,-74.0740740740741,4,1,0,85,0,1
126791,-83.3333333333333,4,1,0,85,0,1
126963,-80,4,1,0,85,0,1
127049,-81.3008130081301,4,1,0,85,0,1
127136,-82.6446280991736,4,1,0,85,0,1
127308,-86.9565217391304,4,1,0,85,0,1
127480,-90.9090909090909,4,1,0,85,0,1
127653,-86.9565217391304,4,1,0,85,0,1
127739,-88.4955752212389,4,1,0,85,0,1
127825,-90.0900900900901,4,1,0,85,0,1
127998,-95.2380952380952,4,1,0,85,0,1
128170,-100,4,1,0,85,0,1
128343,-95.2380952380952,4,1,0,85,0,1
128429,-97.0873786407767,4,1,0,85,0,1
128515,-99.009900990099,4,1,0,85,0,1
128601,-101.010101010101,4,1,0,85,0,1
128687,-103.092783505155,4,1,0,85,0,1
128860,-107.52688172043,4,1,0,85,0,1
129032,-112.359550561798,4,1,0,85,0,1
129118,-114.942528735632,4,1,0,85,0,1
129205,-117.647058823529,4,1,0,85,0,1
129549,-100,4,1,0,85,0,1
129722,-95.2380952380952,4,1,0,85,0,1
129808,-93.4579439252336,4,1,0,85,0,1
129894,-91.743119266055,4,1,0,85,0,1
130066,-100,4,1,0,85,0,1
130239,-95.2380952380952,4,1,0,85,0,1
130411,-90.9090909090909,4,1,0,85,0,1
130498,-89.2857142857143,4,1,0,85,0,1
130584,-87.719298245614,4,1,0,85,0,1
130756,-95.2380952380952,4,1,0,85,0,1
130929,-90.9090909090909,4,1,0,85,0,1
131101,-86.9565217391304,4,1,0,85,0,1
131187,-85.4700854700855,4,1,0,85,0,1
131273,-84.0336134453781,4,1,0,85,0,1
131360,-82.6446280991736,4,1,0,85,0,1
131446,-81.3008130081301,4,1,0,85,0,1
131618,-79.3650793650794,4,1,0,85,0,1
131791,-76.9230769230769,4,1,0,85,0,1
131963,-74.0740740740741,4,1,0,90,0,1
132136,-71.4285714285714,4,1,0,90,0,1
132222,-70.4225352112676,4,1,0,90,0,1
132309,-69.4444444444444,4,1,0,90,0,1
132481,-71.4285714285714,4,1,0,90,0,1
132653,-68.9655172413793,4,1,0,90,0,1
132740,-68.0272108843537,4,1,0,90,0,1
132826,-67.1140939597315,4,1,0,90,0,1
132912,-66.2251655629139,4,1,0,90,0,1
132998,-65.359477124183,4,1,0,90,0,1
133171,-68.9655172413793,4,1,0,90,0,1
133343,-66.6666666666667,4,1,0,90,0,1
133429,-65.7894736842105,4,1,0,90,0,1
133515,-64.9350649350649,4,1,0,90,0,1
133602,-64.1025641025641,4,1,0,90,0,1
133688,-63.2911392405063,4,1,0,90,0,1
133860,-62.5,4,1,0,90,0,1
134035,-61.7283950617284,4,1,0,85,0,0
134119,-33.3333333333333,4,1,0,85,0,0
134636,-111.111111111111,4,1,0,80,0,0
135153,-125,4,1,0,60,0,0
135757,-142.857142857143,4,1,0,55,0,0
136059,-156.25,4,1,0,55,0,0
136102,-153.846153846154,4,1,0,50,0,0
136446,-158.730158730159,4,1,0,50,0,0
136791,-163.934426229508,4,1,0,50,0,0
137136,-169.491525423729,4,1,0,50,0,0
137481,-175.438596491228,4,1,0,50,0,0
141964,-169.491525423729,4,1,0,50,0,0
142309,-163.934426229508,4,1,0,50,0,0
142653,-158.730158730159,4,1,0,50,0,0
142998,-153.846153846154,4,1,0,50,0,0
143343,-149.253731343284,4,1,0,50,0,0
143515,-144.927536231884,4,1,0,50,0,0
143688,-142.857142857143,4,1,0,50,0,0
144033,-138.888888888889,4,1,0,50,0,0
144378,-135.135135135135,4,1,0,50,0,0
144722,-131.578947368421,4,1,0,50,0,0
145067,-128.205128205128,4,1,0,50,0,0
145412,-125,4,1,0,50,0,0
145757,-121.951219512195,4,1,0,50,0,0
145800,-120.481927710843,4,1,0,50,0,0
145843,-119.047619047619,4,1,0,50,0,0
146102,-116.279069767442,4,1,0,50,0,0
146274,-114.942528735632,4,1,0,50,0,0
146446,-113.636363636364,4,1,0,50,0,0
146791,-111.111111111111,4,1,0,50,0,0
147093,-109.89010989011,4,1,0,50,0,0
147136,-108.695652173913,4,1,0,50,0,0
148171,-106.382978723404,4,1,0,50,0,0
148515,-104.166666666667,4,1,0,50,0,0
149550,-102.040816326531,4,1,0,50,0,0
149895,-100,4,1,0,50,0,0
150929,-98.0392156862745,4,1,0,50,0,0
151102,-97.0873786407767,4,1,0,50,0,0
151274,-96.1538461538461,4,1,0,50,0,0
152309,-94.3396226415094,4,1,0,50,0,0
152481,-93.4579439252336,4,1,0,50,0,0
152653,-92.5925925925926,4,1,0,50,0,0
154033,-76.9230769230769,4,1,0,50,0,0
155326,-66.6666666666667,4,1,0,70,0,0
155584,-68.4931506849315,4,1,0,70,0,0
155757,-70.4225352112676,4,1,0,70,0,0
155929,-72.463768115942,4,1,0,70,0,0
156102,-74.6268656716418,4,1,0,70,0,0
156274,-76.9230769230769,4,1,0,70,0,0
156446,-79.3650793650794,4,1,0,70,0,0
156791,-71.4285714285714,4,1,0,70,0,0
157050,-87.719298245614,4,1,0,70,0,0
157136,-86.2068965517241,4,1,0,70,0,0
157395,-100,4,1,0,70,0,0
157653,-93.5251596708288,4,1,0,70,0,0
157826,-89.6551414982271,4,1,0,70,0,0
157998,-86.0927494408276,4,1,0,70,0,0
158084,-84.4156118232506,4,1,0,70,0,0
158171,-82.9875518672199,4,1,0,70,0,0
158257,-81.2500152343779,4,1,0,70,0,0
158343,-79.7546110128357,4,1,0,70,0,0
158429,-78.3132577297143,4,1,0,70,0,0
158515,-76.9230769230769,4,1,0,70,0,0
158688,-78.9330150754165,4,1,0,70,0,0
158774,-79.9779260923985,4,1,0,70,0,0
159033,-83.2854442029167,4,1,0,70,0,0
159205,-80,4,1,0,70,0,0
159378,-76.9230769230769,4,1,0,70,0,0
159464,-74.0740740740741,4,1,0,70,0,0
159550,-71.3582835193049,4,1,0,70,0,0
159809,-87.719298245614,4,1,0,70,0,0
159895,-86.2068965517241,4,1,0,70,0,0
160153,-100,4,1,0,70,0,0
160412,-93.5637496608314,4,1,0,70,0,0
160584,-89.71426008164,4,1,0,70,0,0
160671,-87.9059055187328,4,1,0,70,0,0
160757,-86.1690118999405,4,1,0,70,0,0
160843,-84.4994968054965,4,1,0,70,0,0
160929,-82.8933767363054,4,1,0,70,0,0
161102,-79.8575979313688,4,1,0,70,0,0
161188,-78.4215929150796,4,1,0,70,0,0
161274,-76.9230769230769,4,1,0,70,0,0
161446,-78.9473476454348,4,1,0,70,0,0
161533,-80,4,1,0,70,0,0
161791,-83.3333333333333,4,1,0,70,0,0
161964,-79.0043555101193,4,1,0,70,0,0
162050,-77.0042275320915,4,1,0,70,0,0
162136,-75.10287215914,4,1,0,70,0,0
162222,-73.2931491427633,4,1,0,70,0,0
162309,-71.5686414840473,4,1,0,70,0,0
162567,-87.719298245614,4,1,0,70,0,0
162653,-86.2068965517241,4,1,0,70,0,0
162912,-100,4,1,0,70,0,0
163171,-93.5637496608314,4,1,0,70,0,0
163343,-89.71426008164,4,1,0,70,0,0
163400,-88.500587643902,4,1,0,70,0,0
163458,-87.3192382618931,4,1,0,70,0,0
163515,-86.1690118999405,4,1,0,70,0,0
163602,-84.4994968054965,4,1,0,70,0,0
163688,-82.8933767363054,4,1,0,70,0,0
163860,-79.8575979313688,4,1,0,70,0,0
163946,-78.4215929150796,4,1,0,70,0,0
164033,-76.9230769230769,4,1,0,70,0,0
164205,-78.9473476454348,4,1,0,70,0,0
164291,-80,4,1,0,70,0,0
164550,-83.3333333333333,4,1,0,70,0,0
164722,-78.9473476454348,4,1,0,70,0,0
164809,-77.5193798449612,4,1,0,70,0,0
164895,-76.3358778625954,4,1,0,70,0,0
164981,-75.187969924812,4,1,0,70,0,0
165067,-74.0740740740741,4,1,0,70,0,0
165240,-84.7457627118644,4,1,0,70,0,0
165326,-83.3333333333333,4,1,0,70,0,0
165412,-81.9672131147541,4,1,0,70,0,0
165671,-100,4,1,0,70,0,0
165929,-93.5251596708288,4,1,0,70,0,0
166102,-89.6551414982271,4,1,0,70,0,0
166360,-84.4156118232506,4,1,0,70,0,0
166446,-82.9875518672199,4,1,0,70,0,0
166533,-81.2500152343779,4,1,0,70,0,0
166619,-79.7546110128357,4,1,0,70,0,0
166705,-78.3132577297143,4,1,0,70,0,0
166791,-76.9230769230769,4,1,0,70,0,0
166964,-78.9189368356505,4,1,0,70,0,0
167050,-79.9561840111619,4,1,0,70,0,0
167309,-83.3812775679349,4,1,0,70,0,0
167481,-78.9473476454348,4,1,0,70,0,0
167653,-75.0000187500047,4,1,0,70,0,0
167740,-73.1707138608015,4,1,0,70,0,0
167826,-71.4285714285714,4,1,0,70,0,0
168084,-87.719298245614,4,1,0,70,0,0
168170,-86.2068965517241,4,1,0,70,0,0
168429,-100,4,1,0,70,0,0
168687,-93.5251596708288,4,1,0,70,0,0
168860,-89.6551414982271,4,1,0,70,0,0
169032,-86.0927494408276,4,1,0,70,0,0
169118,-84.4156118232506,4,1,0,70,0,0
169205,-82.9875518672199,4,1,0,70,0,0
169291,-81.2500152343779,4,1,0,70,0,0
169377,-79.7546110128357,4,1,0,70,0,0
169463,-78.3132577297143,4,1,0,70,0,0
169549,-76.9230769230769,4,1,0,70,0,0
169722,-78.9330150754165,4,1,0,70,0,0
169808,-79.9779260923985,4,1,0,70,0,0
170067,-83.2854442029167,4,1,0,70,0,0
170239,-80,4,1,0,70,0,0
170412,-76.3358778625954,4,1,0,70,0,0
170498,-75.187969924812,4,1,0,70,0,0
170584,-74.0740740740741,4,1,0,70,0,0
170757,-84.7457627118644,4,1,0,70,0,0
170843,-83.3333333333333,4,1,0,70,0,0
170929,-81.9672131147541,4,1,0,70,0,0
171187,-100,4,1,0,70,0,0
171446,-93.5637496608314,4,1,0,70,0,0
171618,-89.71426008164,4,1,0,70,0,0
171877,-84.4994968054965,4,1,0,70,0,0
172050,-81.9672131147541,4,1,0,70,0,0
172136,-79.8575979313688,4,1,0,70,0,0
172222,-78.4215929150796,4,1,0,70,0,0
172308,-76.9230769230769,4,1,0,70,0,0
172480,-78.9473476454348,4,1,0,70,0,0
172567,-80,4,1,0,70,0,0
172740,-85.8369098712446,4,1,0,70,0,0
172825,-83.3333333333333,4,1,0,70,0,0
172912,-80.9716599190283,4,1,0,70,0,0
172998,-79.0043555101193,4,1,0,70,0,0
173084,-77.0042275320915,4,1,0,70,0,0
173170,-75.10287215914,4,1,0,70,0,0
173256,-73.2931491427633,4,1,0,70,0,0
173343,-71.5686414840473,4,1,0,70,0,0
173601,-92.5925925925926,4,1,0,70,0,0
173687,-90.9090909090909,4,1,0,70,0,0
173860,-98.0392156862745,4,1,0,70,0,0
173946,-100,4,1,0,70,0,0
174205,-93.5637496608314,4,1,0,70,0,0
174377,-89.71426008164,4,1,0,70,0,0
174434,-88.500587643902,4,1,0,70,0,0
174492,-87.3192382618931,4,1,0,70,0,0
174549,-86.1690118999405,4,1,0,70,0,0
174636,-84.4994968054965,4,1,0,70,0,0
174722,-82.8933767363054,4,1,0,70,0,0
174894,-79.8575979313688,4,1,0,70,0,0
175067,-76.9230769230769,4,1,0,70,0,0
175239,-78.9473476454348,4,1,0,70,0,0
175325,-80,4,1,0,70,0,0
175498,-81.3008130081301,4,1,0,70,0,0
175584,-83.3333333333333,4,1,0,70,0,0
175756,-78.9473476454348,4,1,0,70,0,0
175843,-76.9230769230769,4,1,0,70,0,0
175929,-75.0000187500047,4,1,0,70,0,0
176015,-73.1707138608015,4,1,0,70,0,0
176446,-83.3333333333333,4,1,0,70,0,0
176705,-76.9230769230769,4,1,0,70,0,0
177136,-83.3333333333333,4,1,0,70,0,0
177395,-76.9230769230769,4,1,0,70,0,0
177740,-100,4,1,0,70,0,0
178171,-95.7820460385982,4,1,0,70,0,0
178257,-91.9055982457059,4,1,0,70,0,0
178343,-88.3306392488362,4,1,0,70,0,0
178429,-85.0233856822319,4,1,0,70,0,0
178515,-81.9549198767726,4,1,0,70,0,0
178602,-79.1001566183101,4,1,0,70,0,0
178688,-76.4375806894211,4,1,0,70,0,0
178774,-73.9484165425566,4,1,0,70,0,0
178862,-71.6163084657638,4,1,0,70,0,1
179033,-83.3333333333333,4,1,0,85,0,1
179119,-81.9672131147541,4,1,0,85,0,1
179205,-80.6451612903226,4,1,0,85,0,1
179378,-86.2068965517241,4,1,0,85,0,1
179464,-84.7457627118644,4,1,0,85,0,1
179550,-83.3333333333333,4,1,0,85,0,1
179722,-84.7457627118644,4,1,0,85,0,1
179895,-86.2068965517241,4,1,0,85,0,1
180067,-87.719298245614,4,1,0,85,0,1
180153,-89.2857142857143,4,1,0,85,0,1
180240,-90.9090909090909,4,1,0,85,0,1
180412,-89.2857142857143,4,1,0,85,0,1
180584,-87.719298245614,4,1,0,85,0,1
180757,-86.2068965517241,4,1,0,85,0,1
180843,-84.7457627118644,4,1,0,85,0,1
180929,-83.3333333333333,4,1,0,85,0,1
181102,-81.9672131147541,4,1,0,85,0,1
181274,-80.6451612903226,4,1,0,85,0,1
181446,-81.9672131147541,4,1,0,85,0,1
181619,-83.3333333333333,4,1,0,85,0,1
181878,-81.9672131147541,4,1,0,85,0,1
181964,-80.6451612903226,4,1,0,85,0,1
182136,-86.2068965517241,4,1,0,85,0,1
182222,-84.7457627118644,4,1,0,85,0,1
182309,-83.3333333333333,4,1,0,85,0,1
182481,-84.7457627118644,4,1,0,85,0,1
182653,-86.2068965517241,4,1,0,85,0,1
182826,-87.719298245614,4,1,0,85,0,1
182912,-89.2857142857143,4,1,0,85,0,1
182998,-90.9090909090909,4,1,0,85,0,1
183171,-89.2857142857143,4,1,0,85,0,1
183257,-87.719298245614,4,1,0,85,0,1
183343,-86.2068965517241,4,1,0,85,0,1
183515,-90.9090909090909,4,1,0,85,0,1
183602,-89.2857142857143,4,1,0,85,0,1
183774,-87.719298245614,4,1,0,85,0,1
183860,-86.2068965517241,4,1,0,85,0,1
184033,-83.3333333333333,4,1,0,85,0,1
184378,-71.4285714285714,4,1,0,85,0,1
184550,-83.3333333333333,4,1,0,85,0,1
184636,-81.9672131147541,4,1,0,85,0,1
184722,-80.6451612903226,4,1,0,85,0,1
184895,-86.2068965517241,4,1,0,85,0,1
184981,-84.7457627118644,4,1,0,85,0,1
185067,-83.3333333333333,4,1,0,85,0,1
185239,-84.7457627118644,4,1,0,85,0,1
185412,-86.2068965517241,4,1,0,85,0,1
185584,-87.719298245614,4,1,0,85,0,1
185670,-89.2857142857143,4,1,0,85,0,1
185757,-90.9090909090909,4,1,0,85,0,1
185929,-89.2857142857143,4,1,0,85,0,1
186101,-87.719298245614,4,1,0,85,0,1
186274,-86.2068965517241,4,1,0,85,0,1
186360,-84.7457627118644,4,1,0,85,0,1
186446,-83.3333333333333,4,1,0,85,0,1
186619,-81.9672131147541,4,1,0,85,0,1
186791,-80.6451612903226,4,1,0,85,0,1
186963,-81.9672131147541,4,1,0,85,0,1
187136,-83.3333333333333,4,1,0,85,0,1
187309,-81.9672131147541,4,1,0,85,0,1
187395,-80.6451612903226,4,1,0,85,0,1
187481,-79.3650793650794,4,1,0,85,0,1
187653,-86.2068965517241,4,1,0,85,0,1
187739,-84.7457627118644,4,1,0,85,0,1
187826,-83.3333333333333,4,1,0,85,0,1
187998,-84.7457627118644,4,1,0,85,0,1
188170,-86.2068965517241,4,1,0,85,0,1
188343,-87.719298245614,4,1,0,85,0,1
188429,-89.2857142857143,4,1,0,85,0,1
188602,-90.9090909090909,4,1,0,85,0,1
188688,-89.2857142857143,4,1,0,85,0,1
188774,-87.719298245614,4,1,0,85,0,1
188860,-86.2068965517241,4,1,0,85,0,1
189032,-90.9090909090909,4,1,0,85,0,1
189119,-89.2857142857143,4,1,0,85,0,1
189291,-87.719298245614,4,1,0,85,0,1
189377,-86.2068965517241,4,1,0,85,0,1
189552,-83.4609590498804,4,1,0,85,0,0
189897,-83.4609590498804,4,1,0,85,0,1
190067,-83.3333333333333,4,1,0,85,0,1
190153,-81.9672131147541,4,1,0,85,0,1
190239,-80.6451612903226,4,1,0,85,0,1
190412,-86.2068965517241,4,1,0,85,0,1
190498,-84.7457627118644,4,1,0,85,0,1
190584,-83.3333333333333,4,1,0,85,0,1
190756,-84.7457627118644,4,1,0,85,0,1
190929,-86.2068965517241,4,1,0,85,0,1
191101,-87.719298245614,4,1,0,85,0,1
191187,-89.2857142857143,4,1,0,85,0,1
191274,-90.9090909090909,4,1,0,85,0,1
191446,-89.2857142857143,4,1,0,85,0,1
191618,-87.719298245614,4,1,0,85,0,1
191791,-86.2068965517241,4,1,0,85,0,1
191877,-84.7457627118644,4,1,0,85,0,1
191963,-83.3333333333333,4,1,0,85,0,1
192136,-81.9672131147541,4,1,0,85,0,1
192308,-80.6451612903226,4,1,0,85,0,1
192480,-81.9672131147541,4,1,0,85,0,1
192653,-83.3333333333333,4,1,0,85,0,1
192826,-81.9672131147541,4,1,0,85,0,1
192912,-80.6451612903226,4,1,0,85,0,1
192998,-79.3650793650794,4,1,0,85,0,1
193170,-86.2068965517241,4,1,0,85,0,1
193256,-84.7457627118644,4,1,0,85,0,1
193429,-83.3333333333333,4,1,0,85,0,1
193515,-84.7457627118644,4,1,0,85,0,1
193687,-86.2068965517241,4,1,0,85,0,1
193860,-87.719298245614,4,1,0,85,0,1
193946,-89.2857142857143,4,1,0,85,0,1
194119,-90.9090909090909,4,1,0,85,0,1
194205,-89.2857142857143,4,1,0,85,0,1
194291,-87.719298245614,4,1,0,85,0,1
194377,-86.2068965517241,4,1,0,85,0,1
194549,-90.9090909090909,4,1,0,85,0,1
194636,-89.2857142857143,4,1,0,85,0,1
194808,-87.719298245614,4,1,0,85,0,1
194894,-86.2068965517241,4,1,0,85,0,1
195067,-83.3333333333333,4,1,0,85,0,1
195412,-100,4,1,0,85,0,1
195584,-76.9230769230769,4,1,0,85,0,1
195671,-75.7575757575758,4,1,0,85,0,1
195757,-74.6268656716418,4,1,0,85,0,1
196015,-80.6451612903226,4,1,0,85,0,1
196274,-87.719298245614,4,1,0,85,0,1
196446,-83.3333333333333,4,1,0,85,0,1
196619,-84.7457627118644,4,1,0,85,0,1
196705,-86.2068965517241,4,1,0,85,0,1
196791,-87.719298245614,4,1,0,85,0,1
196964,-89.2857142857143,4,1,0,85,0,1
197136,-90.9090909090909,4,1,0,85,0,1
197309,-89.2857142857143,4,1,0,85,0,1
197395,-87.719298245614,4,1,0,85,0,1
197567,-86.2068965517241,4,1,0,85,0,1
197653,-84.7457627118644,4,1,0,85,0,1
197826,-83.3333333333333,4,1,0,85,0,1
197998,-86.2068965517241,4,1,0,85,0,1
198171,-89.2857142857143,4,1,0,85,0,1
198343,-87.719298245614,4,1,0,85,0,1
198429,-86.2068965517241,4,1,0,85,0,1
198515,-84.7457627118644,4,1,0,85,0,1
198688,-83.3333333333333,4,1,0,85,0,1
198860,-80,4,1,0,85,0,1
199033,-76.9230769230769,4,1,0,85,0,1
199119,-75.7575757575758,4,1,0,85,0,1
199291,-73.5294117647059,4,1,0,85,0,1
199464,-71.4285714285714,4,1,0,85,0,1
199552,-33.3333333333333,4,1,0,5,0,0
200929,-90.9090909090909,4,1,0,5,0,0
203257,-106.382978723404,4,1,0,70,0,0
203429,-107.52688172043,4,1,0,70,0,0
203515,-108.695652173913,4,1,0,70,0,0
203602,-109.89010989011,4,1,0,70,0,0
203688,-111.111111111111,4,1,0,70,0,0
203860,-111.304285882832,4,1,0,50,0,0
204033,-111.498133521245,4,1,0,50,0,0
204205,-111.692657548078,4,1,0,50,0,0
204378,-111.887861509681,4,1,0,50,0,0
204550,-112.083748977236,4,1,0,50,0,0
204722,-112.28032354698,4,1,0,50,0,0
204895,-112.477588840424,4,1,0,50,0,0
205067,-112.67554850457,4,1,0,50,0,0
205240,-112.874206212145,4,1,0,50,0,0
205412,-113.07356566182,4,1,0,50,0,0
205584,-113.273630578443,4,1,0,50,0,0
205757,-113.474404713273,4,1,0,50,0,0
205929,-113.675891844209,4,1,0,50,0,0
206015,-113.776903971155,4,1,0,50,0,0
206102,-113.878095776034,4,1,0,50,0,0
206274,-114.081020340646,4,1,0,50,0,0
206360,-114.182754065192,4,1,0,50,0,0
206446,-114.284669397308,4,1,0,50,0,0
206619,-114.48904683289,4,1,0,50,0,0
206791,-114.694156562111,4,1,0,50,0,0
206964,-114.9000025278,4,1,0,50,0,0
207136,-115.106588701137,4,1,0,50,0,0
207309,-115.313919081917,4,1,0,50,0,0
207481,-115.521997698802,4,1,0,50,0,0
207653,-115.730828609587,4,1,0,50,0,0
207826,-115.94041590146,4,1,0,50,0,0
207998,-116.150763691271,4,1,0,50,0,0
208171,-116.361876125801,4,1,0,50,0,0
208343,-116.573757382033,4,1,0,50,0,0
208515,-116.78641166743,4,1,0,50,0,0
208688,-116.99984322021,4,1,0,50,0,0
208774,-117.106851804792,4,1,0,50,0,0
208860,-117.214056309633,4,1,0,50,0,0
209033,-117.429055236279,4,1,0,50,0,0
209119,-117.536850741129,4,1,0,50,0,0
209205,-117.644844332342,4,1,0,50,0,0
209378,-117.861427961917,4,1,0,50,0,0
209550,-118.078810521294,4,1,0,50,0,0
209722,-118.29699643926,4,1,0,50,0,0
209895,-118.515990177395,4,1,0,50,0,0
210067,-118.735796230376,4,1,0,50,0,0
210240,-118.956419126289,4,1,0,50,0,0
210412,-119.177863426936,4,1,0,50,0,0
210584,-119.40013372815,4,1,0,50,0,0
210757,-119.623234660115,4,1,0,50,0,0
210929,-119.847170887684,4,1,0,50,0,0
211102,-120.071947110709,4,1,0,50,0,0
211274,-120.297568064364,4,1,0,50,0,0
211446,-120.524038519483,4,1,0,50,0,0
211619,-120.751363282891,4,1,0,50,0,0
211705,-120.865347542264,4,1,0,50,0,0
211791,-120.979547197751,4,1,0,50,0,0
211878,-121.093962860482,4,1,0,50,0,0
211964,-121.208595143899,4,1,0,50,0,0
212136,-121.4385120382,4,1,0,50,0,0
212309,-121.669302834895,4,1,0,50,0,0
212481,-121.900972525959,4,1,0,50,0,0
212653,-122.13352614146,4,1,0,50,0,0
212826,-122.366968749924,4,1,0,50,0,0
212998,-122.601305458701,4,1,0,50,0,0
213171,-122.83654141434,4,1,0,50,0,0
213257,-122.95449822884,4,1,0,50,0,0
213343,-123.072681802966,4,1,0,50,0,0
213515,-123.309731850657,4,1,0,50,0,0
213688,-123.547696823836,4,1,0,50,0,0
213860,-123.786582029654,4,1,0,50,0,0
214033,-124.026238991121,4,1,0,50,0,0
214119,-124.146492861577,4,1,0,50,0,0
214205,-124.266980150835,4,1,0,50,0,0
214378,-124.508657709514,4,1,0,50,0,0
214464,-124.629849347438,4,1,0,50,0,0
214550,-124.7512771412,4,1,0,50,0,0
214722,-124.994843962687,4,1,0,50,0,0
214895,-125.239363733936,4,1,0,50,0,0
215067,-125.484842058504,4,1,0,50,0,0
215240,-125.731284583961,4,1,0,50,0,0
215412,-125.978697002337,4,1,0,50,0,0
215584,-126.227085050548,4,1,0,50,0,0
215757,-126.476454510846,4,1,0,50,0,0
215929,-126.726811211268,4,1,0,50,0,0
216059,-126.915310682335,4,1,0,50,0,0
216102,-126.978161026085,4,1,0,50,0,0
216274,-127.230509876268,4,1,0,50,0,0
216446,-127.483863729948,4,1,0,50,0,0
216619,-127.738228602889,4,1,0,50,0,0
216791,-127.993610558961,4,1,0,50,0,0
216964,-128.250015710627,4,1,0,50,0,0
217136,-128.507450219426,4,1,0,50,0,0
217222,-128.636555421774,4,1,0,50,0,0
217309,-128.765920296471,4,1,0,50,0,0
217395,-128.895545627734,4,1,0,50,0,0
217481,-129.025432202942,4,1,0,50,0,0
217653,-129.285992250598,4,1,0,50,0,0
217826,-129.547606802286,4,1,0,50,0,0
217998,-129.810282272459,4,1,0,50,0,0
218171,-130.0740251277,4,1,0,50,0,0
218343,-130.338841887254,4,1,0,50,0,0
218515,-130.604739123564,4,1,0,50,0,0
218688,-130.871723462813,4,1,0,50,0,0
218774,-131.005625381554,4,1,0,50,0,0
218860,-131.13980158548,4,1,0,50,0,0
219033,-131.408980226891,4,1,0,50,0,0
219205,-131.679266177785,4,1,0,50,0,0
219378,-131.950666284889,4,1,0,50,0,0
219550,-132.223187451491,4,1,0,50,0,0
219722,-132.496836638025,4,1,0,50,0,0
219895,-132.77162086267,4,1,0,50,0,0
220067,-133.047547201944,4,1,0,50,0,0
220240,-133.324622791311,4,1,0,50,0,0
220326,-133.463593800883,4,1,0,50,0,0
220412,-133.602854825802,4,1,0,50,0,0
220584,-133.882250560632,4,1,0,50,0,0
220757,-134.162817311833,4,1,0,50,0,0
220929,-134.444562456894,4,1,0,50,0,0
221102,-134.727493435403,4,1,0,50,0,0
221274,-135.011617749707,4,1,0,50,0,0
221446,-135.296942965574,4,1,0,50,0,0
221576,-135.511821373738,4,1,0,50,0,0
221619,-135.58347671286,4,1,0,50,0,0
221791,-135.871226686196,4,1,0,50,0,0
221964,-136.160200645672,4,1,0,50,0,0
222136,-136.450406417536,4,1,0,50,0,0
222309,-136.7418518949,4,1,0,50,0,0
222481,-137.034545038459,4,1,0,50,0,0
222653,-137.328493877209,4,1,0,50,0,0
222740,-137.475941710201,4,1,0,50,0,0
222826,-137.623706509188,4,1,0,50,0,0
222912,-137.771789297336,4,1,0,50,0,0
222998,-137.920191102217,4,1,0,50,0,0
223171,-138.21795589465,4,1,0,50,0,0
223343,-138.517009196144,4,1,0,50,0,0
223515,-138.817359388426,4,1,0,50,0,0
223688,-139.119014926079,4,1,0,50,0,0
223860,-139.421984337334,4,1,0,50,0,0
224033,-139.726276224875,4,1,0,50,0,0
224205,-140.031899266653,4,1,0,50,0,0
224291,-140.185212703023,4,1,0,50,0,0
224378,-140.338862216708,4,1,0,50,0,0
224550,-140.647173906011,4,1,0,50,0,0
224722,-140.956843243304,4,1,0,50,0,0
224895,-141.267879215963,4,1,0,50,0,0
225067,-141.580290890866,4,1,0,50,0,0
225153,-141.737015472013,4,1,0,50,0,0
225240,-141.894087415271,4,1,0,50,0,0
225326,-142.051507876756,4,1,0,50,0,0
225412,-142.209278017716,4,1,0,50,0,0
225584,-142.525872008916,4,1,0,50,0,0
225757,-142.857142857143,4,1,0,60,0,0
225929,-142.539077087984,4,1,0,60,0,0
226102,-142.222424494115,4,1,0,60,0,0
226274,-141.907175678245,4,1,0,60,0,0
226446,-141.59332132622,4,1,0,60,0,0
226619,-141.2808522061,4,1,0,60,0,0
226791,-140.969759167263,4,1,0,60,0,0
226964,-140.660033139504,4,1,0,60,0,0
227093,-140.42872890936,4,1,0,60,0,0
227136,-140.351665132155,4,1,0,60,0,0
227309,-140.044646233219,4,1,0,60,0,0
227481,-139.738967608507,4,1,0,60,0,0
227653,-139.434620500793,4,1,0,60,0,0
227826,-139.131596228977,4,1,0,60,0,0
227998,-138.829886187259,4,1,0,60,0,0
228171,-138.529481844326,4,1,0,60,0,0
228257,-138.379766664037,4,1,0,60,0,0
228343,-138.230374742546,4,1,0,60,0,0
228429,-138.08130503403,4,1,0,60,0,0
228515,-137.932556497175,4,1,0,60,0,0
228688,-137.636018795575,4,1,0,60,0,0
228860,-137.340753396437,4,1,0,60,0,0
229033,-137.046752129021,4,1,0,60,0,0
229205,-136.754006892402,4,1,0,60,0,0
229378,-136.462509654723,4,1,0,60,0,0
229550,-136.172252452462,4,1,0,60,0,0
229722,-135.88322738971,4,1,0,60,0,0
229895,-135.59542663745,4,1,0,60,0,0
230067,-135.308842432853,4,1,0,60,0,0
230240,-135.023467078578,4,1,0,60,0,0
230412,-134.739292942086,4,1,0,60,0,0
230584,-134.456312454957,4,1,0,60,0,0
230671,-134.315267482139,4,1,0,60,0,0
230757,-134.174518112218,4,1,0,60,0,0
230929,-133.893902471681,4,1,0,60,0,0
231015,-133.754034356061,4,1,0,60,0,0
231102,-133.614458153288,4,1,0,60,0,0
231274,-133.336177838461,4,1,0,60,0,0
231446,-133.059054269466,4,1,0,60,0,0
231619,-132.783080248782,4,1,0,60,0,0
231791,-132.508248638478,4,1,0,60,0,0
231964,-132.234552359593,4,1,0,60,0,0
232136,-131.961984391537,4,1,0,60,0,0
232309,-131.69053777148,4,1,0,60,0,0
232481,-131.42020559377,4,1,0,60,0,0
232610,-131.218269782138,4,1,0,60,0,0
232653,-131.150981009338,4,1,0,60,0,0
232826,-130.882857225126,4,1,0,60,0,0
232998,-130.615827503514,4,1,0,60,0,0
233171,-130.349885161751,4,1,0,60,0,0
233343,-130.085023571406,4,1,0,60,0,0
233515,-129.821236157811,4,1,0,60,0,0
233688,-129.558516399517,4,1,0,60,0,0
233774,-129.427554867576,4,1,0,60,0,0
233860,-129.296857827761,4,1,0,60,0,0
233946,-129.166424479621,4,1,0,60,0,0
234033,-129.036254025931,4,1,0,60,0,0
234205,-128.776698629043,4,1,0,60,0,0
234378,-128.518185323223,4,1,0,60,0,0
234550,-128.260707845194,4,1,0,60,0,0
234636,-128.132355598039,4,1,0,60,0,0
234722,-128.004259981772,4,1,0,60,0,0
234895,-127.748835569364,4,1,0,60,0,0
235067,-127.494428493475,4,1,0,60,0,0
235240,-127.241032688221,4,1,0,60,0,0
235326,-127.114712129667,4,1,0,60,0,0
235412,-126.988642135847,4,1,0,60,0,0
235584,-126.737250866249,4,1,0,60,0,0
235757,-126.486852956504,4,1,0,60,0,0
235929,-126.237442530404,4,1,0,60,0,0
236102,-125.989172490516,4,1,0,60,0,0
236188,-125.86532410321,4,1,0,60,0,0
236274,-125.741718964743,4,1,0,60,0,0
236446,-125.495235573381,4,1,0,60,0,0
236533,-125.372355897014,4,1,0,60,0,0
236619,-125.249716622516,4,1,0,60,0,0
236705,-125.127317045093,4,1,0,60,0,0
236791,-125.005156462704,4,1,0,60,0,0
236964,-124.76154948854,4,1,0,60,0,0
237136,-124.518890138228,4,1,0,60,0,0
237309,-124.27717289316,4,1,0,60,0,0
237395,-124.156665847233,4,1,0,60,0,0
237481,-124.036392277494,4,1,0,60,0,0
237653,-123.796542857744,4,1,0,60,0,0
237826,-123.557619242369,4,1,0,60,0,0
237998,-123.319616081371,4,1,0,60,0,0
238128,-123.1416387443,4,1,0,60,0,0
238171,-123.082528065893,4,1,0,60,0,0
238343,-122.846349927828,4,1,0,60,0,0
238515,-122.611076439423,4,1,0,60,0,0
238688,-122.376702412901,4,1,0,60,0,0
238774,-122.259851087501,4,1,0,60,0,0
238860,-122.143222700074,4,1,0,60,0,0
239033,-121.910632191965,4,1,0,60,0,0
239205,-121.678925818443,4,1,0,60,0,0
239291,-121.563402608264,4,1,0,60,0,0
239378,-121.448098547845,4,1,0,60,0,0
239464,-121.333013014179,4,1,0,60,0,0
239550,-121.218145386619,4,1,0,60,0,0
239722,-120.989061378961,4,1,0,60,0,0
239895,-120.760841606457,4,1,0,60,0,0
240067,-120.533481187737,4,1,0,60,0,0
240153,-120.420121720659,4,1,0,60,0,0
240240,-120.30697527812,4,1,0,60,0,0
240412,-120.081319069274,4,1,0,60,0,0
240584,-119.856507788875,4,1,0,60,0,0
240757,-119.632536700271,4,1,0,60,0,0
240843,-119.520864757361,4,1,0,60,0,0
240929,-119.409401102149,4,1,0,60,0,0
241102,-119.187096328203,4,1,0,60,0,0
241274,-118.965617746815,4,1,0,60,0,0
241446,-118.744960760728,4,1,0,60,0,0
241619,-118.525120806729,4,1,0,60,0,0
241705,-118.415505799991,4,1,0,60,0,0
241791,-118.306093355338,4,1,0,60,0,0
241878,-118.196882911804,4,1,0,60,0,0
241964,-118.087873910492,4,1,0,60,0,0
242136,-117.870458009239,4,1,0,60,0,0
242222,-117.762050001766,4,1,0,60,0,0
242309,-117.653841221435,4,1,0,60,0,0
242481,-117.438019149443,4,1,0,60,0,0
242653,-117.222987427835,4,1,0,60,0,0
242826,-117.008741723094,4,1,0,60,0,0
242912,-116.901912281481,4,1,0,60,0,0
242998,-116.795277733331,4,1,0,60,0,0
243171,-116.582591187988,4,1,0,60,0,0
243343,-116.370677847561,4,1,0,60,0,0
243515,-116.159533503313,4,1,0,60,0,0
243645,-116.001610102348,4,1,0,60,0,0
243688,-115.949153976998,4,1,0,60,0,0
243860,-115.739535120583,4,1,0,60,0,0
244033,-115.530672815979,4,1,0,60,0,0
244205,-115.322562974769,4,1,0,60,0,0
244291,-115.218788958353,4,1,0,60,0,0
244378,-115.115201537939,4,1,0,60,0,0
244550,-114.90858447562,4,1,0,60,0,0
244722,-114.702707786823,4,1,0,60,0,0
244809,-114.600045840018,4,1,0,60,0,0
244895,-114.497567499178,4,1,0,60,0,0
244981,-114.395272272188,4,1,0,60,0,0
245067,-114.293159668687,4,1,0,60,0,0
245240,-114.089480379462,4,1,0,60,0,0
245412,-113.88652574348,4,1,0,60,0,0
245584,-113.684291900335,4,1,0,60,0,0
245671,-113.583444077191,4,1,0,60,0,0
245757,-113.482775016994,4,1,0,60,0,0
245843,-113.382284244851,4,1,0,60,0,0
245929,-113.281971287552,4,1,0,60,0,0
246102,-113.081876932993,4,1,0,60,0,0
246274,-112.882488200958,4,1,0,60,0,0
246360,-112.783057278003,4,1,0,60,0,0
246446,-112.683801365502,4,1,0,60,0,0
246533,-112.584720001801,4,1,0,60,0,0
246619,-112.48581272687,4,1,0,60,0,0
246705,-112.387079082292,4,1,0,60,0,0
246878,-112.190130858569,4,1,0,60,0,0
246964,-112.091915370604,4,1,0,60,0,0
247050,-111.993871695341,4,1,0,60,0,0
247136,-111.895999382334,4,1,0,60,0,0
247222,-111.798297982712,4,1,0,60,0,0
247481,-111.506214798882,4,1,0,60,0,0
247538,-111.409192595299,4,1,0,60,0,0
247596,-111.409192595299,4,1,0,60,0,0
247653,-111.3123390841,4,1,0,60,0,0
247740,-111.215653825707,4,1,0,60,0,0
247826,-111.119136382072,4,1,0,70,0,0
248171,-142.870409395158,4,1,0,70,0,0
253688,-141.177932195063,4,1,0,70,0,0
253860,-140.353044046996,4,1,0,70,0,0
254033,-139.537739376992,4,1,0,70,0,0
254378,-137.935220103231,4,1,0,70,0,0
254722,-136.369091127281,4,1,0,70,0,0
255067,-134.837945015783,4,1,0,70,0,0
255240,-134.085283603783,4,1,0,70,0,0
255412,-133.340978216084,4,1,0,70,0,0
255757,-131.876885015225,4,1,0,70,0,0
256102,-130.444594310789,4,1,0,70,0,0
256446,-129.043081032603,4,1,0,70,0,0
256619,-128.353557575555,4,1,0,70,0,0
256791,-127.671363696137,4,1,0,70,0,0
256964,-126.996383143008,4,1,0,70,0,0
257136,-126.328502110318,4,1,0,70,0,0
257481,-125.013595228481,4,1,0,70,0,0
257826,-123.725779132163,4,1,0,70,0,0
257998,-123.091769838085,4,1,0,70,0,0
258171,-122.464225138231,4,1,0,70,0,0
258343,-121.842898203914,4,1,0,70,0,0
258515,-121.227991058223,4,1,0,70,0,0
258860,-120.016610298865,4,1,0,70,0,0
259033,-119.419953402334,4,1,0,70,0,0
259205,-118.829199661574,4,1,0,70,0,0
259378,-118.244261901581,4,1,0,70,0,0
259550,-117.665054655418,4,1,0,70,0,0
259722,-117.091494122592,4,1,0,70,0,0
259895,-116.523498128633,4,1,0,70,0,0
260067,-115.960986085841,4,1,0,70,0,0
260240,-115.403878955179,4,1,0,70,0,0
260412,-114.852099209243,4,1,0,70,0,0
260584,-114.305570796298,4,1,0,70,0,0
260757,-113.764219105335,4,1,0,70,0,0
260929,-113.227970932115,4,1,0,70,0,0
261102,-112.696754446169,4,1,0,70,0,0
261274,-112.170499158721,4,1,0,70,0,0
261446,-111.649135891513,4,1,0,70,0,0
261619,-111.132473242079,4,1,0,70,0,0
261791,-110.546342132085,4,1,0,70,0,0
261964,-109.987406441962,4,1,0,70,0,0
262136,-109.433974652903,4,1,0,70,0,0
262309,-108.886084467291,4,1,0,70,0,0
262481,-108.343653066288,4,1,0,70,0,0
262653,-107.806715495922,4,1,0,70,0,0
262826,-107.274958591866,4,1,0,70,0,0
262998,-106.748421724585,4,1,0,70,0,0
263171,-106.227141247043,4,1,0,70,0,0
263343,-105.710815379232,4,1,0,70,0,0
263515,-105.199484522526,4,1,0,70,0,0
263688,-104.693186148673,4,1,0,70,0,0
263860,-104.191629244507,4,1,0,70,0,0
264033,-103.694855076071,4,1,0,70,0,0
264205,-103.202795557326,4,1,0,70,0,0
264378,-102.715489393085,4,1,0,70,0,0
264550,-102.232659040792,4,1,0,70,0,0
264636,-101.992942088407,4,1,0,70,0,0
264809,-101.516968053625,4,1,0,70,0,0
264895,-101.280591802754,4,1,0,70,0,0
265067,-100.81112632239,4,1,0,70,0,0
265240,-100.345992983808,4,1,0,70,0,0
265326,-100.115032171966,4,1,0,70,0,0
265498,-99.6563847852604,4,1,0,70,0,0
265584,-99.4285839281648,4,1,0,70,0,0
265757,-98.9760923248989,4,1,0,70,0,0
265929,-98.5277005703769,4,1,0,70,0,0
266015,-98.3051214019097,4,1,0,70,0,0
266188,-97.8627748598361,4,1,0,70,0,0
266274,-97.6430910678053,4,1,0,70,0,0
266446,-97.2066691551574,4,1,0,70,0,0
266619,-96.774224765879,4,1,0,70,0,0
266705,-96.559395615431,4,1,0,70,0,0
266878,-96.1325860626977,4,1,0,70,0,0
266964,-95.9205930962112,4,1,0,70,0,0
267136,-95.499490987713,4,1,0,80,0,0
267222,-95.2902780093861,4,1,0,80,0,0
267309,-95.0819796828826,4,1,0,80,0,0
267395,-94.8745900231779,4,1,0,80,0,0
267481,-94.668103097351,4,1,0,80,0,0
267567,-94.462513024019,4,1,0,80,0,0
267653,-94.2578139727783,4,1,0,80,0,0
267740,-94.0540886252866,4,1,0,80,0,0
267826,-93.8511539468633,4,1,0,80,0,0
267912,-93.6490931021824,4,1,0,80,0,0
267998,-93.4479004592964,4,1,0,80,0,0
268084,-93.2475704345523,4,1,0,80,0,0
268171,-93.0480974920746,4,1,0,80,0,0
268257,-92.8495623535879,4,1,0,80,0,0
268343,-92.6517867897082,4,1,0,80,0,0
268429,-92.4548519844047,4,1,0,80,0,0
268515,-92.258752587858,4,1,0,80,0,0
268602,-92.0634832955413,4,1,0,80,0,0
268688,-91.8690388477418,4,1,0,80,0,0
268774,-91.6754140290886,4,1,0,80,0,0
268860,-91.4826873588308,4,1,0,80,0,0
268946,-91.2906859764726,4,1,0,80,0,0
269033,-91.0994888407681,4,1,0,80,0,0
269119,-90.9090909090909,4,1,0,80,0,0
269378,-95.2380952380954,4,1,0,70,0,0
269550,-90.9090909090909,4,1,0,70,0,0
269636,-86.9565217391304,4,1,0,70,0,0
269722,-83.3333333333333,4,1,0,70,0,0
269809,-80,4,1,0,70,0,0
269895,-76.9230769230769,4,1,0,80,0,0
270412,-83.3333333333333,4,1,0,80,0,0
270469,-86.9565217391304,4,1,0,80,0,0
270527,-90.9090909090909,4,1,0,80,0,0
270584,-95.2380952380952,4,1,0,80,0,0
270929,-100,4,1,0,80,0,0
270987,-95.2380952380952,4,1,0,80,0,0
271044,-90.9090909090909,4,1,0,80,0,0
271102,-86.9565217391304,4,1,0,80,0,0
271274,-86.9565217391304,4,1,0,80,0,0
271446,-83.3333333333333,4,1,0,80,0,0
271504,-86.9565217391304,4,1,0,80,0,0
271561,-90.9090909090909,4,1,0,80,0,0
271619,-95.2380952380952,4,1,0,80,0,0
271964,-100,4,1,0,80,0,0
272021,-95.2380952380952,4,1,0,80,0,0
272079,-90.9090909090909,4,1,0,80,0,0
272136,-86.9565217391304,4,1,0,80,0,0
272309,-83.3333333333333,4,1,0,80,0,0
272395,-81.9672131147541,4,1,0,80,0,0
272481,-80.6451612903226,4,1,0,80,0,0
272567,-79.3650793650794,4,1,0,80,0,0
272653,-78.125,4,1,0,80,0,0
272998,-71.4285714285714,4,1,0,80,0,0
273171,-72.9121780107079,4,1,0,80,0,0
273343,-74.4586668771365,4,1,0,80,0,0
273515,-76.0722381973922,4,1,0,80,0,0
273688,-77.7572930509085,4,1,0,80,0,0
273860,-79.5186260453717,4,1,0,80,0,0
274033,-81.3616688905523,4,1,0,80,0,0
274205,-83.2921731177843,4,1,0,80,0,0
274378,-85.3164429527338,4,1,0,80,0,0
274550,-87.441632710166,4,1,0,80,0,0
274722,-89.6753215308653,4,1,0,80,0,0
274809,-90.8355966536166,4,1,0,80,0,0
274895,-92.0262053822447,4,1,0,80,0,0
274981,-93.2484399535996,4,1,0,80,0,0
275067,-94.5036667422696,4,1,0,80,0,0
275153,-95.7930563445178,4,1,0,80,0,0
275240,-97.1181169962532,4,1,0,80,0,0
275326,-98.4804467073063,4,1,0,80,0,0
275412,-99.8814407298537,4,1,0,80,0,0
275584,-83.3333333333333,4,1,0,80,0,0
275757,-86.9565217391304,4,1,0,80,0,0
275843,-85.1063829787234,4,1,0,80,0,0
275929,-83.3333333333333,4,1,0,80,0,0
275987,-86.9565217391304,4,1,0,80,0,0
276044,-90.9090909090909,4,1,0,80,0,0
276102,-95.2380952380952,4,1,0,80,0,0
276446,-100,4,1,0,80,0,0
276504,-95.2380952380952,4,1,0,80,0,0
276561,-90.9090909090909,4,1,0,80,0,0
276619,-86.9565217391304,4,1,0,80,0,0
276964,-95.2380952380952,4,1,0,80,0,0
277021,-90.9090909090909,4,1,0,80,0,0
277079,-86.9565217391304,4,1,0,80,0,0
277136,-83.3333333333333,4,1,0,80,0,0
277481,-76.9230769230769,4,1,0,80,0,0
277538,-80,4,1,0,80,0,0
277596,-83.3333333333333,4,1,0,80,0,0
277653,-86.9565217391304,4,1,0,80,0,0
277740,-85.4700854700855,4,1,0,80,0,0
277826,-84.0336134453781,4,1,0,80,0,0
277912,-82.6446280991736,4,1,0,80,0,0
277998,-81.3008130081301,4,1,0,80,0,0
278084,-80,4,1,0,80,0,0
278171,-78.7401574803149,4,1,0,80,0,0
278515,-100,4,1,0,80,0,0
278573,-99.0593325778408,4,1,0,80,0,0
278630,-98.1362936473433,4,1,0,80,0,0
278688,-97.2302032014017,4,1,0,80,0,0
278774,-95.9021031331217,4,1,0,80,0,0
278860,-94.6097960875065,4,1,0,80,0,0
278975,-92.9399124877784,4,1,0,80,0,0
279090,-91.3279541168359,4,1,0,80,0,0
279205,-89.7708777886201,4,1,0,80,0,0
279320,-88.2660834043875,4,1,0,80,0,0
279435,-86.810905880484,4,1,0,80,0,0
279550,-85.4029310285929,4,1,0,80,0,0
279722,-83.3745342490081,4,1,0,80,0,0
279895,-81.4403209400168,4,1,0,80,0,0
280067,-79.5937534822267,4,1,0,80,0,0
280240,-77.8291277067025,4,1,0,80,0,0
280326,-76.9757757233799,4,1,0,80,0,0
280412,-76.140991797331,4,1,0,80,0,0
280498,-75.3241196870132,4,1,0,80,0,0
280584,-74.5245334764204,4,1,0,80,0,0
280757,-72.9753357960077,4,1,0,80,0,0
281446,-100,4,1,0,80,0,0
281504,-95.2380952380952,4,1,0,80,0,0
281561,-90.9090909090909,4,1,0,80,0,0
281619,-86.9565217391304,4,1,0,80,0,0
281791,-83.3333333333333,4,1,0,80,0,0
281964,-80,4,1,0,80,0,0
282021,-83.3333333333333,4,1,0,80,0,0
282079,-86.9565217391304,4,1,0,80,0,0
282136,-90.9090909090909,4,1,0,80,0,0
282309,-86.9565217391304,4,1,0,80,0,0
282481,-83.3333333333333,4,1,0,80,0,0
282538,-86.9565217391304,4,1,0,80,0,0
282596,-90.9090909090909,4,1,0,80,0,0
282653,-95.2380952380952,4,1,0,80,0,0
282998,-86.9565217391304,4,1,0,80,0,0
283056,-90.9090909090909,4,1,0,80,0,0
283113,-95.2380952380952,4,1,0,80,0,0
283171,-100,4,1,0,80,0,0
283343,-97.5609756097561,4,1,0,80,0,0
283429,-95.2380952380952,4,1,0,80,0,0
283515,-93.0232558139535,4,1,0,80,0,0
283688,-90.9090909090909,4,1,0,80,0,0
283774,-88.422958844418,4,1,0,80,0,0
283946,-83.8374760224819,4,1,0,80,0,0
284033,-81.7186410843737,4,1,0,80,0,0
284119,-79.7042017664045,4,1,0,80,0,0
284205,-77.7866886751138,4,1,0,80,0,0
284291,-75.9592706390833,4,1,0,80,0,0
284378,-74.0740740740741,4,1,0,80,0,0
284550,-75.7097982863844,4,1,0,80,0,0
284722,-77.4193348595265,4,1,0,80,0,0
284895,-79.2079207920792,4,1,0,80,0,0
285067,-81.0811029948927,4,1,0,80,0,0
285240,-83.0449597107378,4,1,0,80,0,0
285412,-85.1063829787234,4,1,0,80,0,0
285584,-87.2727526611644,4,1,0,80,0,0
285757,-89.5522120739665,4,1,0,80,0,0
285843,-90.7372675197785,4,1,0,80,0,0
285929,-91.9540229885058,4,1,0,80,0,0
286015,-93.2038545386083,4,1,0,80,0,0
286102,-94.4882187364469,4,1,0,80,0,0
286188,-95.8083832335329,4,1,0,80,0,0
286274,-97.1659604320776,4,1,0,80,0,0
286360,-98.5626607187386,4,1,0,80,0,0
286446,-100,4,1,0,80,0,0
286964,-83.3333333333333,4,1,0,80,0,0
287136,-82.3529217993125,4,1,0,80,0,0
287222,-81.8713163024621,4,1,0,80,0,0
287395,-80.9248742022831,4,1,0,80,0,0
287481,-80.459779363193,4,1,0,80,0,0
287653,-79.5454455061994,4,1,0,80,0,0
287740,-79.0960273229317,4,1,0,80,0,0
287826,-78.6516588814633,4,1,0,80,0,0
287912,-78.2123167192123,4,1,0,80,0,0
287998,-77.7777950617322,4,1,0,80,0,0
288171,-76.9230769230769,4,1,0,80,0,0
288257,-76.5027238794837,4,1,0,80,0,0
288429,-75.6756511322213,4,1,0,80,0,0
288515,-75.2688414845725,4,1,0,80,0,0
288688,-74.4680930285205,4,1,0,80,0,0
288860,-73.6842027700839,4,1,0,80,0,0
289033,-72.9166438802155,4,1,0,80,0,0
289205,-72.1649633329821,4,1,0,80,0,0
289378,-71.4285714285714,4,1,0,80,0,0
289464,-71.0659826328952,4,1,0,80,0,0
289550,-70.7070564228169,4,1,0,80,0,0
289722,-70.0000210000063,4,1,0,80,0,0
289895,-69.3069375551423,4,1,0,80,0,0
289981,-68.9655172413793,4,1,0,80,0,0
290067,-68.6274442522113,4,1,0,80,0,0
290153,-68.2926696014303,4,1,0,80,0,0
290240,-67.9611452540354,4,1,0,80,0,0
290412,-67.3077052514818,4,1,0,80,0,0
290584,-66.6666666666667,4,1,0,80,0,0
290671,-33.3333333333333,4,1,0,5,0,0
291533,-96.1538461538461,4,1,0,85,0,0
291705,-97.0873786407767,4,1,0,85,0,0
291791,-98.0392156862745,4,1,0,85,0,0
291878,-99.009900990099,4,1,0,85,0,0
291966,-100,4,1,0,85,0,1
292481,-95.2380952380952,4,1,0,85,0,1
292567,-93.4579439252336,4,1,0,85,0,1
292653,-91.743119266055,4,1,0,85,0,1
292826,-100,4,1,0,85,0,1
292998,-95.2380952380952,4,1,0,85,0,1
293171,-90.9090909090909,4,1,0,85,0,1
293257,-89.2857142857143,4,1,0,85,0,1
293343,-87.719298245614,4,1,0,85,0,1
293515,-95.2380952380952,4,1,0,85,0,1
293688,-90.9090909090909,4,1,0,85,0,1
293860,-86.9565217391304,4,1,0,85,0,1
293946,-85.4700854700855,4,1,0,85,0,1
294033,-84.0336134453781,4,1,0,85,0,1
294119,-82.6446280991736,4,1,0,85,0,1
294205,-81.3008130081301,4,1,0,85,0,1
294378,-79.3650793650794,4,1,0,85,0,1
294550,-76.9230769230769,4,1,0,85,0,1
294722,-74.0740740740741,4,1,0,85,0,1
295067,-83.3333333333333,4,1,0,85,0,1
295239,-80,4,1,0,85,0,1
295325,-81.3008130081301,4,1,0,85,0,1
295412,-82.6446280991736,4,1,0,85,0,1
295584,-86.9565217391304,4,1,0,85,0,1
295757,-90.9090909090909,4,1,0,85,0,1
295929,-86.9565217391304,4,1,0,85,0,1
296015,-88.4955752212389,4,1,0,85,0,1
296101,-90.0900900900901,4,1,0,85,0,1
296274,-95.2380952380952,4,1,0,85,0,1
296446,-100,4,1,0,85,0,1
296619,-95.2380952380952,4,1,0,85,0,1
296705,-97.0873786407767,4,1,0,85,0,1
296791,-99.009900990099,4,1,0,85,0,1
296877,-101.010101010101,4,1,0,85,0,1
296963,-102.040816326531,4,1,0,85,0,1
297136,-105.263157894737,4,1,0,85,0,1
297308,-111.111111111111,4,1,0,85,0,1
297394,-113.636363636364,4,1,0,85,0,1
297481,-116.279069767442,4,1,0,85,0,1
297825,-100,4,1,0,85,0,1
297998,-95.2380952380952,4,1,0,85,0,1
298084,-93.4579439252336,4,1,0,85,0,1
298170,-91.743119266055,4,1,0,85,0,1
298342,-100,4,1,0,85,0,1
298515,-95.2380952380952,4,1,0,85,0,1
298687,-90.9090909090909,4,1,0,85,0,1
298774,-89.2857142857143,4,1,0,85,0,1
298860,-87.719298245614,4,1,0,85,0,1
299032,-95.2380952380952,4,1,0,85,0,1
299205,-90.9090909090909,4,1,0,85,0,1
299377,-86.9565217391304,4,1,0,85,0,1
299463,-85.4700854700855,4,1,0,85,0,1
299549,-84.0336134453781,4,1,0,85,0,1
299636,-82.6446280991736,4,1,0,85,0,1
299722,-81.3008130081301,4,1,0,85,0,1
299894,-79.3650793650794,4,1,0,85,0,1
300067,-76.9230769230769,4,1,0,85,0,1
300239,-74.0740740740741,4,1,0,85,0,1
300584,-100,4,1,0,85,0,1
300642,-99.1759470559124,4,1,0,85,0,1
300699,-98.3654611323635,4,1,0,85,0,1
300757,-97.5680195448257,4,1,0,85,0,1
300843,-96.3958553638028,4,1,0,85,0,1
300929,-95.251521166793,4,1,0,85,0,1
301044,-93.7673762669145,4,1,0,85,0,1
301159,-92.3287716764874,4,1,0,85,0,1
301274,-90.9336429926989,4,1,0,85,0,1
301389,-89.5800487315465,4,1,0,85,0,1
301504,-88.2660834043875,4,1,0,85,0,1
301619,-86.9901831578306,4,1,0,85,0,1
301791,-85.1439912608207,4,1,0,85,0,1
301964,-83.3745342490081,4,1,0,85,0,1
302136,-81.6771921341597,4,1,0,85,0,1
302222,-80.8541431684313,4,1,0,85,0,1
302309,-80.0475162056197,4,1,0,85,0,1
302395,-79.2568246070248,4,1,0,85,0,1
302481,-78.4816007735147,4,1,0,85,0,1
302653,-76.9757757233799,4,1,0,85,0,1
302740,-76.2443264690566,4,1,0,85,0,1
302826,-75.5266473117045,4,1,0,85,0,1
302912,-74.8223530283225,4,1,0,85,0,1
303000,-74.1311275863424,4,1,0,85,0,0
303343,-71.4285714285714,4,1,0,85,0,0
303429,-74.045826962307,4,1,0,85,0,0
303515,-76.8621193499617,4,1,0,85,0,0
303602,-79.9011782227741,4,1,0,85,0,0
303688,-83.1903845225953,4,1,0,85,0,0
303774,-86.7620991916375,4,1,0,85,0,0
303860,-90.6541878155332,4,1,0,85,0,0
303946,-94.9119596662136,4,1,0,85,0,0
304035,-99.5892937525644,4,1,0,85,0,1
304550,-95.2380952380952,4,1,0,85,0,1
304722,-91.5244681513156,4,1,0,85,0,1
304895,-88.0896611807362,4,1,0,85,0,1
304981,-86.4671178520876,4,1,0,85,0,1
305067,-84.903265464493,4,1,0,85,0,1
305153,-83.395045667127,4,1,0,85,0,1
305240,-81.9394074469811,4,1,0,85,0,1
305412,-79.1754353461313,4,1,0,85,0,1
305498,-77.862215024293,4,1,0,85,0,1
305584,-76.5919053078956,4,1,0,85,0,1
305757,-74.1715959873167,4,1,0,85,0,1
306015,-83.3333333333333,4,1,0,85,0,1
306274,-80,4,1,0,85,0,1
306360,-81.3008130081301,4,1,0,85,0,1
306447,-82.6446280991736,4,1,0,85,0,1
306619,-86.9565217391304,4,1,0,85,0,1
306792,-90.9090909090909,4,1,0,85,0,1
306964,-86.9565217391304,4,1,0,85,0,1
307050,-88.4955752212389,4,1,0,85,0,1
307136,-90.0900900900901,4,1,0,85,0,1
307309,-95.2380952380952,4,1,0,85,0,1
307481,-100,4,1,0,85,0,1
307653,-95.2380952380952,4,1,0,85,0,1
307740,-97.0873786407767,4,1,0,85,0,1
307826,-99.009900990099,4,1,0,85,0,1
307912,-101.010101010101,4,1,0,85,0,1
307998,-102.040816326531,4,1,0,85,0,1
308171,-105.263157894737,4,1,0,85,0,1
308343,-111.111111111111,4,1,0,85,0,1
308429,-113.636363636364,4,1,0,85,0,1
308516,-116.279069767442,4,1,0,85,0,1
308860,-100,4,1,0,85,0,1
309033,-95.2380952380952,4,1,0,85,0,1
309119,-93.4579439252336,4,1,0,85,0,1
309205,-91.743119266055,4,1,0,85,0,1
309377,-100,4,1,0,85,0,1
309550,-95.2380952380952,4,1,0,85,0,1
309722,-90.9090909090909,4,1,0,85,0,1
309809,-89.2857142857143,4,1,0,85,0,1
309895,-87.719298245614,4,1,0,85,0,1
310067,-95.2380952380952,4,1,0,85,0,1
310240,-90.9090909090909,4,1,0,85,0,1
310412,-86.9565217391304,4,1,0,85,0,1
310498,-85.4700854700855,4,1,0,85,0,1
310584,-84.0336134453781,4,1,0,85,0,1
310671,-82.6446280991736,4,1,0,85,0,1
310757,-81.3008130081301,4,1,0,85,0,1
310929,-79.3650793650794,4,1,0,85,0,1
311102,-76.9230769230769,4,1,0,85,0,1
311274,-74.0740740740741,4,1,0,85,0,1
311446,-71.4285714285714,4,1,0,85,0,1
311533,-70.4225352112676,4,1,0,85,0,1
311619,-69.4444444444444,4,1,0,85,0,1
311792,-71.4285714285714,4,1,0,85,0,1
311964,-68.9655172413793,4,1,0,85,0,1
312051,-68.0272108843537,4,1,0,85,0,1
312137,-67.1140939597315,4,1,0,85,0,1
312222,-66.2251655629139,4,1,0,85,0,1
312309,-65.359477124183,4,1,0,85,0,1
312482,-68.9655172413793,4,1,0,85,0,1
312653,-66.6666666666667,4,1,0,85,0,1
312740,-65.7894736842105,4,1,0,85,0,1
312826,-64.9350649350649,4,1,0,85,0,1
312912,-64.1025641025641,4,1,0,85,0,1
312998,-63.2911392405063,4,1,0,85,0,1
313084,-62.5,4,1,0,85,0,1
313171,-61.7283950617284,4,1,0,85,0,1
313343,-62.5,4,1,0,85,0,1
313429,-63.6942675159236,4,1,0,85,0,1
313515,-64.9350649350649,4,1,0,85,0,1
313602,-66.2251655629139,4,1,0,85,0,1
313688,-67.5675675675676,4,1,0,85,0,1
313774,-68.9655172413793,4,1,0,85,0,1
313860,-70.4225352112676,4,1,0,85,0,1
313946,-71.9424460431655,4,1,0,85,0,1
314035,-73.5294117647059,4,1,0,70,0,0
314378,-83.3333333333333,4,1,0,70,0,0
314550,-83.8323453691432,4,1,0,70,0,0
314636,-84.0840638837084,4,1,0,70,0,0
314722,-84.3373697198481,4,1,0,70,0,0
314895,-84.8485157024906,4,1,0,70,0,0
315067,-85.3658224271381,4,1,0,70,0,0
315412,-86.9565217391304,4,1,0,70,0,0
315757,-87.5000109375014,4,1,0,70,0,0
315929,-88.0503366164369,4,1,0,70,0,0
316015,-88.3280645642821,4,1,0,70,0,0
316102,-88.6076285851754,4,1,0,70,0,0
316188,-88.8888888888889,4,1,0,70,0,0
316274,-89.1719404438444,4,1,0,70,0,0
316446,-89.7435667324188,4,1,0,70,0,0
316791,-90.9090909090909,4,1,0,65,0,0
317050,-91.6885267395835,4,1,0,65,0,0
317136,-91.9513172945716,4,1,0,65,0,0
317309,-92.481358070247,4,1,0,65,0,0
317395,-92.7487196039259,4,1,0,65,0,0
317481,-93.0176314920493,4,1,0,65,0,0
317567,-93.2881072589342,4,1,0,65,0,0
317653,-93.5601605866596,4,1,0,65,0,0
317826,-94.1090554556431,4,1,0,65,0,0
318171,-95.7949834083089,4,1,0,65,0,0
318515,-96.3704944384588,4,1,0,65,0,0
318688,-96.9528683021323,4,1,0,65,0,0
318774,-97.2467500136146,4,1,0,65,0,0
318860,-97.542418759358,4,1,0,65,0,0
318946,-97.8398908889537,4,1,0,65,0,0
319033,-98.1391829520463,4,1,0,65,0,0
319205,-98.7432940960397,4,1,0,65,0,0
319378,-99.3547899937804,4,1,0,65,0,0
319464,-99.6634365746873,4,1,0,65,0,0
319550,-100,4,1,0,60,0,0
319895,-101.26582278481,4,1,0,60,0,0
320067,-101.910828025478,4,1,0,60,0,0
320153,-102.23642172524,4,1,0,60,0,0
320240,-102.564102564103,4,1,0,60,0,0
320326,-102.893890675241,4,1,0,60,0,0
320412,-103.225806451613,4,1,0,60,0,0
320584,-103.896103896104,4,1,0,60,0,0
320929,-105.960264900662,4,1,0,60,0,0
321274,-106.666666666667,4,1,0,60,0,0
321446,-107.38255033557,4,1,0,60,0,0
321533,-107.744107744108,4,1,0,60,0,0
321619,-108.108108108108,4,1,0,60,0,0
321705,-108.474576271186,4,1,0,60,0,0
321791,-108.843537414966,4,1,0,60,0,0
321964,-109.58904109589,4,1,0,60,0,0
322309,-111.111111111111,4,1,0,50,0,0
322567,-112.280701754386,4,1,0,50,0,0
322653,-112.676056338028,4,1,0,50,0,0
322826,-113.475177304965,4,1,0,50,0,0
322912,-113.879003558719,4,1,0,50,0,0
322998,-114.285714285714,4,1,0,50,0,0
323084,-114.695340501792,4,1,0,50,0,0
323171,-115.107913669065,4,1,0,50,0,0
323343,-115.942028985507,4,1,0,50,0,0
323688,-118.518518518519,4,1,0,50,0,0
324033,-119.402985074627,4,1,0,50,0,0
324205,-120.300751879699,4,1,0,50,0,0
324291,-120.754716981132,4,1,0,50,0,0
324378,-121.212121212121,4,1,0,50,0,0
324464,-121.673003802281,4,1,0,50,0,0
324550,-122.137404580153,4,1,0,50,0,0
324722,-123.076923076923,4,1,0,50,0,0
324895,-124.031007751938,4,1,0,50,0,0
324981,-124.513618677043,4,1,0,50,0,0
325067,-125,4,1,0,50,0,0
330584,-125,4,1,0,50,0,0
330929,-122.953591167014,4,1,0,50,0,0
331102,-121.955383842375,4,1,0,50,0,0
331446,-120.006672370984,4,1,0,50,0,0
331619,-119.055414342606,4,1,0,50,0,0
332136,-116.290293132942,4,1,0,50,0,0
332309,-115.396953982003,4,1,0,50,0,0
332653,-113.650699122276,4,1,0,50,0,0
332826,-112.797305497966,4,1,0,50,0,0
332998,-111.956507136108,4,1,0,50,0,0
333343,-110.312083916608,4,1,0,60,0,0
333688,-108.715268189695,4,1,0,60,0,0
333860,-107.934129959169,4,1,0,60,0,0
334205,-106.404938891644,4,1,0,60,0,0
334378,-105.656533852882,4,1,0,60,0,0
334895,-103.472966652732,4,1,0,60,0,0
335067,-102.765100560789,4,1,0,60,0,0
335412,-101.377928808363,4,1,0,60,0,0
335584,-100.698343008766,4,1,0,60,0,0
335757,-100.027707675026,4,1,0,60,0,0

[HitObjects]
160,96,24380,5,0,0:0:0:0:
160,96,24423,1,0,0:0:0:0:
352,96,24466,1,8,0:0:0:0:
352,288,24724,1,12,0:0:0:0:
352,96,25716,1,8,0:0:0:0:
352,96,25759,1,8,0:0:0:0:
352,96,25802,1,8,0:0:0:0:
352,288,26880,1,12,0:0:0:0:
352,288,29035,1,12,0:0:0:0:
160,96,29897,1,0,0:0:0:0:
160,96,29940,1,0,0:0:0:0:
352,96,29983,1,8,0:0:0:0:
352,96,30069,1,8,0:0:0:0:
352,288,31190,1,12,0:0:0:0:
352,288,33345,1,12,0:0:0:0:
352,288,35500,1,12,0:0:0:0:
352,96,36750,1,8,0:0:0:0:
352,96,36793,1,8,0:0:0:0:
352,96,36836,1,8,0:0:0:0:
352,288,37655,1,12,0:0:0:0:
352,288,39811,1,12,0:0:0:0:
160,96,40931,1,0,0:0:0:0:
160,96,40974,1,0,0:0:0:0:
160,96,41017,1,0,0:0:0:0:
352,96,41104,1,8,0:0:0:0:
352,288,41966,1,12,0:0:0:0:
160,96,43647,1,0,0:0:0:0:
352,96,43690,1,8,0:0:0:0:
289,146,46448,5,4,0:0:0:0:
160,96,46621,5,0,0:0:0:0:
352,96,46793,1,8,0:0:0:0:
352,96,46966,1,8,0:0:0:0:
160,96,47138,1,0,0:0:0:0:
352,96,47311,1,8,0:0:0:0:
160,96,47483,1,0,0:0:0:0:
160,96,47655,1,0,0:0:0:0:
352,96,47785,1,8,0:0:0:0:
352,96,47828,1,8,0:0:0:0:
160,96,48000,1,0,0:0:0:0:
352,96,48173,1,8,0:0:0:0:
352,96,48345,1,8,0:0:0:0:
352,96,48517,1,8,0:0:0:0:
160,96,48690,1,0,0:0:0:0:
352,96,48862,1,8,0:0:0:0:
160,96,49035,1,0,0:0:0:0:
160,96,49207,1,0,0:0:0:0:
160,96,49380,1,0,0:0:0:0:
352,96,49552,1,8,0:0:0:0:
352,96,49724,1,8,0:0:0:0:
160,96,49897,1,0,0:0:0:0:
352,96,50069,1,8,0:0:0:0:
160,96,50242,1,0,0:0:0:0:
160,96,50414,1,0,0:0:0:0:
352,96,50586,1,8,0:0:0:0:
352,96,50759,1,8,0:0:0:0:
160,96,50931,1,0,0:0:0:0:
352,96,51104,1,8,0:0:0:0:
160,96,51276,1,0,0:0:0:0:
352,96,51448,1,8,0:0:0:0:
352,96,51621,1,8,0:0:0:0:
160,96,51793,1,0,0:0:0:0:
160,96,51966,1,0,0:0:0:0:
160,96,52138,1,0,0:0:0:0:
352,96,52311,1,8,0:0:0:0:
352,96,52483,1,8,0:0:0:0:
160,96,52655,1,0,0:0:0:0:
352,96,52828,1,8,0:0:0:0:
160,96,53000,1,0,0:0:0:0:
160,96,53173,1,0,0:0:0:0:
352,96,53302,1,8,0:0:0:0:
352,96,53345,1,8,0:0:0:0:
352,96,53517,1,8,0:0:0:0:
160,96,53690,1,0,0:0:0:0:
352,96,53862,1,8,0:0:0:0:
160,96,54035,1,0,0:0:0:0:
352,96,54207,1,8,0:0:0:0:
352,96,54380,1,8,0:0:0:0:
160,96,54552,1,0,0:0:0:0:
160,96,54724,1,0,0:0:0:0:
160,96,54897,1,0,0:0:0:0:
352,96,55069,1,8,0:0:0:0:
352,96,55242,1,8,0:0:0:0:
352,96,55328,1,8,0:0:0:0:
160,96,55414,1,0,0:0:0:0:
352,96,55586,1,8,0:0:0:0:
160,96,55759,1,0,0:0:0:0:
160,96,55931,1,0,0:0:0:0:
352,96,56104,1,8,0:0:0:0:
352,96,56276,1,8,0:0:0:0:
160,96,56448,1,0,0:0:0:0:
352,96,56621,1,8,0:0:0:0:
160,96,56793,1,0,0:0:0:0:
352,96,56966,1,8,0:0:0:0:
352,96,57138,1,8,0:0:0:0:
160,96,57311,1,0,0:0:0:0:
160,96,57483,1,0,0:0:0:0:
160,96,57655,1,0,0:0:0:0:
352,96,57828,1,8,0:0:0:0:
352,96,58000,1,8,0:0:0:0:
160,96,58086,1,0,0:0:0:0:
160,96,58173,1,0,0:0:0:0:
352,96,58345,1,8,0:0:0:0:
160,96,58517,1,0,0:0:0:0:
160,96,58690,1,0,0:0:0:0:
352,96,58819,1,8,0:0:0:0:
352,96,58862,1,8,0:0:0:0:
352,96,59035,1,8,0:0:0:0:
160,96,59207,1,0,0:0:0:0:
352,96,59380,1,8,0:0:0:0:
276,111,59466,1,8,0:0:0:0:
160,96,59552,1,0,0:0:0:0:
352,96,59724,1,8,0:0:0:0:
352,96,59897,1,8,0:0:0:0:
160,96,60069,1,0,0:0:0:0:
160,96,60242,1,0,0:0:0:0:
160,96,60414,1,0,0:0:0:0:
352,96,60586,1,8,0:0:0:0:
352,96,60759,1,8,0:0:0:0:
256,106,60845,1,0,0:0:0:0:
160,96,60931,1,0,0:0:0:0:
352,96,61104,1,8,0:0:0:0:
160,96,61276,1,0,0:0:0:0:
160,96,61448,1,0,0:0:0:0:
352,96,61621,1,8,0:0:0:0:
160,96,61793,1,0,0:0:0:0:
352,96,61966,1,8,0:0:0:0:
352,96,62138,1,8,0:0:0:0:
283,91,62224,1,8,0:0:0:0:
160,96,62311,1,0,0:0:0:0:
352,96,62483,1,8,0:0:0:0:
352,96,62655,1,8,0:0:0:0:
160,96,62828,1,0,0:0:0:0:
160,96,63000,1,0,0:0:0:0:
160,96,63173,1,0,0:0:0:0:
352,96,63345,1,8,0:0:0:0:
352,96,63517,1,8,0:0:0:0:
160,96,63604,1,0,0:0:0:0:
160,96,63690,1,0,0:0:0:0:
352,96,63862,1,8,0:0:0:0:
160,96,64035,1,0,0:0:0:0:
160,96,64207,1,0,0:0:0:0:
352,96,64336,1,8,0:0:0:0:
352,96,64380,1,8,0:0:0:0:
352,96,64552,1,8,0:0:0:0:
160,96,64724,1,0,0:0:0:0:
352,96,64897,1,8,0:0:0:0:
299,112,64983,1,8,0:0:0:0:
299,112,65069,1,0,0:0:0:0:
352,96,65242,1,8,0:0:0:0:
352,96,65414,1,8,0:0:0:0:
160,96,65586,1,0,0:0:0:0:
286,100,65673,1,8,0:0:0:0:
160,96,65759,1,0,0:0:0:0:
160,96,65931,1,0,0:0:0:0:
352,96,66104,1,8,0:0:0:0:
352,96,66276,1,8,0:0:0:0:
285,97,66362,1,0,0:0:0:0:
160,96,66448,1,0,0:0:0:0:
352,96,66621,1,8,0:0:0:0:
160,96,66793,1,0,0:0:0:0:
160,96,66966,1,0,0:0:0:0:
196,100,67052,1,0,0:0:0:0:
352,96,67138,1,8,0:0:0:0:
160,96,67311,1,0,0:0:0:0:
352,96,67483,1,8,0:0:0:0:
352,96,67655,1,8,0:0:0:0:
256,104,67742,1,8,0:0:0:0:
160,96,67828,1,0,0:0:0:0:
352,96,68000,1,8,0:0:0:0:
352,96,68173,1,8,0:0:0:0:
160,96,68345,1,0,0:0:0:0:
160,288,68517,1,4,0:0:0:0:
160,96,68690,1,0,0:0:0:0:
352,96,68862,1,8,0:0:0:0:
160,96,69035,1,0,0:0:0:0:
352,96,69207,1,8,0:0:0:0:
352,96,69380,1,8,0:0:0:0:
160,96,69552,1,0,0:0:0:0:
352,96,69724,1,8,0:0:0:0:
160,96,69897,1,0,0:0:0:0:
160,96,70069,1,0,0:0:0:0:
352,96,70242,1,8,0:0:0:0:
352,96,70414,1,8,0:0:0:0:
160,96,70586,1,0,0:0:0:0:
160,96,70759,1,0,0:0:0:0:
352,96,70931,1,8,0:0:0:0:
352,96,71104,1,8,0:0:0:0:
160,96,71276,1,0,0:0:0:0:
160,96,71448,1,0,0:0:0:0:
352,96,71621,1,8,0:0:0:0:
160,96,71793,1,0,0:0:0:0:
352,96,71966,1,8,0:0:0:0:
352,96,72138,1,8,0:0:0:0:
160,96,72311,1,0,0:0:0:0:
352,96,72483,1,8,0:0:0:0:
160,96,72655,1,0,0:0:0:0:
160,96,72828,1,0,0:0:0:0:
352,96,73000,1,8,0:0:0:0:
352,96,73173,1,8,0:0:0:0:
160,96,73345,1,0,0:0:0:0:
160,96,73517,1,0,0:0:0:0:
352,96,73690,1,8,0:0:0:0:
352,96,73862,1,8,0:0:0:0:
352,96,73948,1,8,0:0:0:0:
160,96,74035,1,0,0:0:0:0:
160,96,74207,1,0,0:0:0:0:
352,96,74380,1,8,0:0:0:0:
160,96,74552,1,0,0:0:0:0:
352,96,74724,1,8,0:0:0:0:
352,96,74897,1,8,0:0:0:0:
160,96,75069,1,0,0:0:0:0:
352,96,75242,1,8,0:0:0:0:
160,96,75414,1,0,0:0:0:0:
160,96,75586,1,0,0:0:0:0:
352,96,75759,1,8,0:0:0:0:
352,96,75931,1,8,0:0:0:0:
160,96,76104,1,0,0:0:0:0:
160,96,76276,1,0,0:0:0:0:
352,96,76448,1,8,0:0:0:0:
352,96,76621,1,8,0:0:0:0:
352,96,76707,1,8,0:0:0:0:
160,96,76793,1,0,0:0:0:0:
160,96,76966,1,0,0:0:0:0:
352,96,77138,1,8,0:0:0:0:
160,96,77311,1,0,0:0:0:0:
352,96,77483,1,8,0:0:0:0:
352,96,77655,1,8,0:0:0:0:
160,96,77828,1,0,0:0:0:0:
160,96,78000,1,8,0:0:0:0:
160,96,78058,1,0,0:0:0:0:
160,96,78115,1,0,0:0:0:0:
352,96,78173,1,8,0:0:0:0:
160,96,78259,1,0,0:0:0:0:
160,96,78345,1,0,0:0:0:0:
352,96,78431,1,8,0:0:0:0:
160,96,78517,1,0,0:0:0:0:
352,96,78690,1,8,0:0:0:0:
352,96,78776,1,0,0:0:0:0:
160,96,78862,1,8,0:0:0:0:
352,96,78948,1,8,0:0:0:0:
160,96,79035,1,0,0:0:0:0:
352,96,79207,1,8,0:0:0:0:
288,112,79265,1,0,0:0:0:0:
288,112,79322,1,0,0:0:0:0:
352,96,79380,1,8,0:0:0:0:
352,96,79466,1,0,0:0:0:0:
160,96,79552,1,8,0:0:0:0:
160,96,79724,1,0,0:0:0:0:
352,96,79897,1,8,0:0:0:0:
352,96,80069,1,8,0:0:0:0:
352,96,80242,1,8,0:0:0:0:
160,96,80414,1,0,0:0:0:0:
352,96,80586,1,8,0:0:0:0:
352,96,80759,1,8,0:0:0:0:
352,96,80931,1,8,0:0:0:0:
160,96,81104,1,0,0:0:0:0:
352,96,81276,1,8,0:0:0:0:
352,96,81448,1,8,0:0:0:0:
352,96,81621,1,8,0:0:0:0:
160,96,81793,1,0,0:0:0:0:
352,96,81966,1,8,0:0:0:0:
352,96,82138,1,8,0:0:0:0:
160,96,82311,1,0,0:0:0:0:
160,96,82483,1,0,0:0:0:0:
352,96,82655,1,8,0:0:0:0:
352,96,82828,1,8,0:0:0:0:
352,96,83000,1,8,0:0:0:0:
160,96,83173,1,0,0:0:0:0:
352,96,83345,1,8,0:0:0:0:
352,96,83517,1,8,0:0:0:0:
352,96,83690,1,8,0:0:0:0:
160,96,83862,1,0,0:0:0:0:
352,96,84035,1,8,0:0:0:0:
352,96,84207,1,8,0:0:0:0:
352,96,84380,1,8,0:0:0:0:
160,96,84552,1,0,0:0:0:0:
352,96,84724,1,8,0:0:0:0:
352,96,84897,1,8,0:0:0:0:
160,96,85069,1,0,0:0:0:0:
160,96,85242,1,0,0:0:0:0:
352,96,85414,1,8,0:0:0:0:
160,96,85586,1,0,0:0:0:0:
352,96,85673,1,8,0:0:0:0:
352,96,85845,1,8,0:0:0:0:
160,96,85931,1,0,0:0:0:0:
352,96,86104,1,8,0:0:0:0:
160,96,86276,1,0,0:0:0:0:
352,96,86362,1,8,0:0:0:0:
352,96,86535,1,8,0:0:0:0:
160,96,86621,1,0,0:0:0:0:
352,96,86793,1,8,0:0:0:0:
160,96,86966,1,0,0:0:0:0:
352,96,87052,1,8,0:0:0:0:
352,96,87224,1,8,0:0:0:0:
160,96,87311,1,0,0:0:0:0:
352,96,87483,1,8,0:0:0:0:
352,96,87828,1,8,0:0:0:0:
352,96,88000,1,8,0:0:0:0:
352,96,88173,1,8,0:0:0:0:
352,96,88345,1,8,0:0:0:0:
352,96,88517,1,8,0:0:0:0:
352,96,88690,1,8,0:0:0:0:
352,96,88862,1,8,0:0:0:0:
352,96,89035,1,8,0:0:0:0:
352,96,89207,1,8,0:0:0:0:
352,96,89380,1,8,0:0:0:0:
352,96,89552,1,8,0:0:0:0:
352,96,89724,1,8,0:0:0:0:
352,96,89897,1,8,0:0:0:0:
160,96,90069,1,0,0:0:0:0:
160,96,90155,1,0,0:0:0:0:
352,96,90242,1,8,0:0:0:0:
352,96,90328,1,8,0:0:0:0:
160,96,90414,1,0,0:0:0:0:
352,96,90500,1,8,0:0:0:0:
160,288,90586,1,4,0:0:0:0:
352,96,90931,1,8,0:0:0:0:
160,96,91104,1,0,0:0:0:0:
352,96,91190,1,8,0:0:0:0:
160,96,91276,1,0,0:0:0:0:
160,96,91448,1,0,0:0:0:0:
352,96,91621,1,8,0:0:0:0:
160,96,91793,1,0,0:0:0:0:
352,96,91880,1,8,0:0:0:0:
160,96,91966,1,0,0:0:0:0:
160,96,92138,1,0,0:0:0:0:
352,96,92311,1,8,0:0:0:0:
160,96,92483,1,0,0:0:0:0:
352,96,92569,1,8,0:0:0:0:
160,96,92655,1,0,0:0:0:0:
160,96,92742,1,0,0:0:0:0:
352,96,92828,1,8,0:0:0:0:
352,96,93000,1,8,0:0:0:0:
160,96,93173,1,0,0:0:0:0:
160,96,93345,1,0,0:0:0:0:
160,96,93690,1,0,0:0:0:0:
352,96,93862,1,8,0:0:0:0:
160,96,93948,1,0,0:0:0:0:
352,96,94035,1,8,0:0:0:0:
160,96,94207,1,0,0:0:0:0:
160,96,94380,1,0,0:0:0:0:
352,96,94552,1,8,0:0:0:0:
160,96,94638,1,0,0:0:0:0:
352,96,94724,1,8,0:0:0:0:
160,96,94897,1,0,0:0:0:0:
160,96,95069,1,0,0:0:0:0:
352,96,95242,1,8,0:0:0:0:
160,96,95328,1,0,0:0:0:0:
352,96,95414,1,8,0:0:0:0:
352,96,95500,1,8,0:0:0:0:
160,96,95586,1,0,0:0:0:0:
352,96,95759,1,8,0:0:0:0:
160,96,95931,1,0,0:0:0:0:
352,96,96017,1,8,0:0:0:0:
160,288,96104,1,4,0:0:0:0:
352,96,96448,1,8,0:0:0:0:
160,96,96621,1,0,0:0:0:0:
160,96,96707,1,0,0:0:0:0:
352,96,96793,1,8,0:0:0:0:
160,96,96966,1,0,0:0:0:0:
352,96,97138,1,8,0:0:0:0:
160,96,97311,1,0,0:0:0:0:
160,96,97397,1,0,0:0:0:0:
352,96,97483,1,8,0:0:0:0:
160,96,97655,1,0,0:0:0:0:
352,96,97828,1,8,0:0:0:0:
160,96,98000,1,0,0:0:0:0:
160,96,98086,1,0,0:0:0:0:
352,96,98173,1,8,0:0:0:0:
352,96,98259,1,8,0:0:0:0:
160,96,98345,1,0,0:0:0:0:
352,96,98517,1,8,0:0:0:0:
352,96,98690,1,8,0:0:0:0:
160,96,98862,1,0,0:0:0:0:
352,96,99207,1,8,0:0:0:0:
352,96,99293,1,8,0:0:0:0:
160,96,99466,1,0,0:0:0:0:
352,96,99552,1,8,0:0:0:0:
160,96,99724,1,0,0:0:0:0:
160,96,99811,1,0,0:0:0:0:
352,96,99897,1,8,0:0:0:0:
352,96,99983,1,8,0:0:0:0:
160,96,100069,1,0,0:0:0:0:
352,96,100242,1,8,0:0:0:0:
160,96,100328,1,0,0:0:0:0:
160,96,100414,1,0,0:0:0:0:
352,96,100586,1,8,0:0:0:0:
352,96,100759,1,8,0:0:0:0:
160,96,100845,1,0,0:0:0:0:
352,96,100931,1,8,0:0:0:0:
352,96,101017,1,8,0:0:0:0:
160,96,101104,1,0,0:0:0:0:
352,96,101276,1,8,0:0:0:0:
160,96,101448,1,0,0:0:0:0:
352,96,101535,1,8,0:0:0:0:
160,288,101621,1,4,0:0:0:0:
352,96,101966,1,8,0:0:0:0:
160,96,102138,1,0,0:0:0:0:
352,96,102224,1,8,0:0:0:0:
352,96,102311,1,8,0:0:0:0:
160,96,102483,1,0,0:0:0:0:
352,96,102655,1,8,0:0:0:0:
160,96,102828,1,0,0:0:0:0:
352,96,102914,1,8,0:0:0:0:
160,96,103000,1,0,0:0:0:0:
160,96,103173,1,0,0:0:0:0:
352,96,103345,1,8,0:0:0:0:
160,96,103517,1,0,0:0:0:0:
352,96,103604,1,8,0:0:0:0:
352,96,103690,1,8,0:0:0:0:
160,96,103776,1,0,0:0:0:0:
160,96,103862,1,0,0:0:0:0:
352,96,104035,1,8,0:0:0:0:
160,96,104207,1,0,0:0:0:0:
160,96,104380,1,0,0:0:0:0:
160,96,104724,1,0,0:0:0:0:
352,96,104897,1,8,0:0:0:0:
352,96,104983,1,8,0:0:0:0:
160,96,105069,1,0,0:0:0:0:
352,96,105242,1,8,0:0:0:0:
160,96,105414,1,0,0:0:0:0:
352,96,105586,1,8,0:0:0:0:
352,96,105673,1,8,0:0:0:0:
160,96,105759,1,0,0:0:0:0:
352,96,105931,1,8,0:0:0:0:
160,96,106104,1,0,0:0:0:0:
352,96,106276,1,8,0:0:0:0:
160,96,106362,1,0,0:0:0:0:
352,96,106448,1,8,0:0:0:0:
352,96,106535,1,8,0:0:0:0:
160,96,106621,1,0,0:0:0:0:
352,96,106793,1,8,0:0:0:0:
352,96,106966,1,0,0:0:0:0:
352,96,107052,1,8,0:0:0:0:
160,288,107138,1,4,0:0:0:0:
160,96,107655,1,0,0:0:0:0:
352,96,107828,1,8,0:0:0:0:
160,96,108000,1,0,0:0:0:0:
160,96,108173,1,0,0:0:0:0:
160,96,108517,1,0,0:0:0:0:
352,96,108690,1,8,0:0:0:0:
160,96,108862,1,0,0:0:0:0:
352,96,109035,1,8,0:0:0:0:
352,96,109207,1,8,0:0:0:0:
160,96,109380,1,0,0:0:0:0:
352,96,109552,1,8,0:0:0:0:
160,96,109724,1,0,0:0:0:0:
160,96,109897,1,0,0:0:0:0:
160,96,110414,1,0,0:0:0:0:
352,96,110586,1,8,0:0:0:0:
160,96,110759,1,0,0:0:0:0:
160,96,110931,1,0,0:0:0:0:
160,96,111276,1,0,0:0:0:0:
352,96,111448,1,8,0:0:0:0:
160,96,111621,1,0,0:0:0:0:
352,96,111707,1,8,0:0:0:0:
160,96,111880,1,0,0:0:0:0:
352,96,111966,1,8,0:0:0:0:
352,288,112138,1,12,0:0:0:0:
160,288,112397,1,4,0:0:0:0:
160,288,112655,1,4,0:0:0:0:
352,96,113000,1,8,0:0:0:0:
160,96,113173,1,0,0:0:0:0:
352,96,113259,1,8,0:0:0:0:
160,96,113345,1,0,0:0:0:0:
160,96,113517,1,0,0:0:0:0:
352,96,113690,1,8,0:0:0:0:
160,96,113862,1,0,0:0:0:0:
352,96,113948,1,8,0:0:0:0:
352,96,114035,1,8,0:0:0:0:
160,96,114207,1,0,0:0:0:0:
352,96,114380,1,8,0:0:0:0:
160,96,114552,1,0,0:0:0:0:
352,96,114638,1,8,0:0:0:0:
160,96,114724,1,0,0:0:0:0:
160,96,114811,1,0,0:0:0:0:
352,96,114897,1,8,0:0:0:0:
352,96,115069,1,8,0:0:0:0:
160,96,115242,1,0,0:0:0:0:
160,96,115414,1,0,0:0:0:0:
160,96,115759,1,0,0:0:0:0:
352,96,115931,1,8,0:0:0:0:
352,96,116017,1,8,0:0:0:0:
160,96,116104,1,0,0:0:0:0:
352,96,116276,1,8,0:0:0:0:
160,96,116448,1,0,0:0:0:0:
352,96,116621,1,8,0:0:0:0:
352,96,116707,1,8,0:0:0:0:
160,96,116793,1,0,0:0:0:0:
352,96,116966,1,8,0:0:0:0:
160,96,117138,1,0,0:0:0:0:
352,96,117311,1,8,0:0:0:0:
352,96,117397,1,8,0:0:0:0:
160,96,117483,1,0,0:0:0:0:
352,96,117569,1,8,0:0:0:0:
160,96,117655,1,0,0:0:0:0:
352,96,117828,1,8,0:0:0:0:
160,96,118000,1,0,0:0:0:0:
352,96,118086,1,8,0:0:0:0:
160,288,118173,1,4,0:0:0:0:
352,96,118517,1,8,0:0:0:0:
160,96,118690,1,0,0:0:0:0:
160,96,118776,1,0,0:0:0:0:
160,96,118862,1,0,0:0:0:0:
160,96,119035,1,0,0:0:0:0:
352,96,119207,1,8,0:0:0:0:
160,96,119380,1,0,0:0:0:0:
352,96,119466,1,8,0:0:0:0:
160,96,119552,1,0,0:0:0:0:
160,96,119724,1,0,0:0:0:0:
352,96,119897,1,8,0:0:0:0:
160,96,120069,1,0,0:0:0:0:
352,96,120155,1,8,0:0:0:0:
160,96,120242,1,0,0:0:0:0:
352,96,120328,1,8,0:0:0:0:
160,96,120414,1,0,0:0:0:0:
352,96,120586,1,8,0:0:0:0:
352,96,120759,1,8,0:0:0:0:
160,96,120931,1,0,0:0:0:0:
352,96,121276,1,8,0:0:0:0:
352,96,121362,1,8,0:0:0:0:
160,96,121535,1,0,0:0:0:0:
352,96,121621,1,8,0:0:0:0:
160,96,121793,1,0,0:0:0:0:
352,96,121880,1,8,0:0:0:0:
352,96,121966,1,8,0:0:0:0:
160,96,122138,1,0,0:0:0:0:
352,96,122224,1,8,0:0:0:0:
160,96,122397,1,0,0:0:0:0:
160,96,122483,1,0,0:0:0:0:
352,96,122655,1,8,0:0:0:0:
160,96,122828,1,0,0:0:0:0:
160,96,122914,1,0,0:0:0:0:
352,96,123000,1,8,0:0:0:0:
352,96,123086,1,8,0:0:0:0:
160,96,123173,1,0,0:0:0:0:
352,96,123345,1,8,0:0:0:0:
160,96,123431,1,0,0:0:0:0:
160,96,123517,1,0,0:0:0:0:
352,96,123604,1,8,0:0:0:0:
160,288,123690,1,4,0:0:0:0:
352,96,124035,1,8,0:0:0:0:
352,96,124207,1,8,0:0:0:0:
160,96,124293,1,0,0:0:0:0:
352,96,124380,1,8,0:0:0:0:
160,96,124552,1,0,0:0:0:0:
352,96,124724,1,8,0:0:0:0:
160,96,124897,1,0,0:0:0:0:
160,96,124983,1,0,0:0:0:0:
160,96,125069,1,0,0:0:0:0:
160,96,125242,1,0,0:0:0:0:
352,96,125414,1,8,0:0:0:0:
352,96,125586,1,8,0:0:0:0:
160,96,125673,1,0,0:0:0:0:
352,96,125759,1,8,0:0:0:0:
352,96,125845,1,8,0:0:0:0:
160,96,125931,1,0,0:0:0:0:
352,96,126104,1,8,0:0:0:0:
160,96,126276,1,0,0:0:0:0:
160,96,126448,1,0,0:0:0:0:
160,96,126793,1,0,0:0:0:0:
352,96,126966,1,8,0:0:0:0:
352,96,127052,1,8,0:0:0:0:
352,96,127138,1,8,0:0:0:0:
160,96,127311,1,0,0:0:0:0:
160,96,127483,1,0,0:0:0:0:
352,96,127655,1,8,0:0:0:0:
160,96,127742,1,0,0:0:0:0:
352,96,127828,1,8,0:0:0:0:
160,96,128000,1,0,0:0:0:0:
160,96,128173,1,0,0:0:0:0:
352,96,128345,1,8,0:0:0:0:
160,96,128431,1,0,0:0:0:0:
352,96,128517,1,8,0:0:0:0:
352,96,128604,1,8,0:0:0:0:
160,96,128690,1,0,0:0:0:0:
352,96,128862,1,8,0:0:0:0:
352,96,129035,1,0,0:0:0:0:
352,96,129121,1,8,0:0:0:0:
160,288,129207,1,4,0:0:0:0:
352,96,129552,1,8,0:0:0:0:
160,96,129724,1,0,0:0:0:0:
160,96,129811,1,0,0:0:0:0:
352,96,129897,1,8,0:0:0:0:
160,96,130069,1,0,0:0:0:0:
352,96,130242,1,8,0:0:0:0:
160,96,130414,1,0,0:0:0:0:
352,96,130500,1,8,0:0:0:0:
160,96,130586,1,0,0:0:0:0:
160,96,130759,1,0,0:0:0:0:
345,94,130931,1,8,0:0:0:0:
352,96,131104,1,8,0:0:0:0:
160,96,131190,1,0,0:0:0:0:
352,96,131276,1,8,0:0:0:0:
352,96,131362,1,8,0:0:0:0:
160,96,131448,1,0,0:0:0:0:
352,96,131621,1,8,0:0:0:0:
352,96,131793,1,8,0:0:0:0:
160,96,131966,1,0,0:0:0:0:
352,96,132138,1,8,0:0:0:0:
352,96,132224,1,8,0:0:0:0:
352,96,132311,1,8,0:0:0:0:
160,96,132483,1,0,0:0:0:0:
352,96,132655,1,8,0:0:0:0:
352,96,132742,1,8,0:0:0:0:
160,96,132828,1,0,0:0:0:0:
160,96,132914,1,0,0:0:0:0:
352,96,133000,1,8,0:0:0:0:
160,96,133173,1,0,0:0:0:0:
352,96,133345,1,8,0:0:0:0:
160,96,133431,1,0,0:0:0:0:
352,96,133517,1,8,0:0:0:0:
160,96,133604,1,0,0:0:0:0:
352,96,133690,1,8,0:0:0:0:
160,96,133862,1,0,0:0:0:0:
352,96,134035,1,8,0:0:0:0:
256,192,134121,12,0,134552,0:0:0:0:
160,288,134724,5,4,0:0:0:0:
352,96,135242,1,8,0:0:0:0:
352,96,135759,1,8,0:0:0:0:
352,96,136061,1,8,0:0:0:0:
352,96,136104,1,8,0:0:0:0:
352,96,136448,1,8,0:0:0:0:
352,96,136793,1,8,0:0:0:0:
352,96,137138,1,8,0:0:0:0:
352,96,137483,1,8,0:0:0:0:
352,96,137828,1,8,0:0:0:0:
352,96,138173,1,8,0:0:0:0:
352,96,138517,1,8,0:0:0:0:
352,96,138862,1,8,0:0:0:0:
352,96,139207,1,8,0:0:0:0:
352,96,139552,1,8,0:0:0:0:
352,96,139897,1,8,0:0:0:0:
160,96,140242,1,0,0:0:0:0:
352,96,140328,1,0,0:0:0:0:
352,96,140414,1,8,0:0:0:0:
352,96,140586,1,8,0:0:0:0:
160,96,140759,1,0,0:0:0:0:
352,96,140931,1,8,0:0:0:0:
352,96,141276,1,8,0:0:0:0:
352,96,141578,1,8,0:0:0:0:
352,96,141621,1,8,0:0:0:0:
352,96,141966,1,8,0:0:0:0:
352,96,142311,1,8,0:0:0:0:
352,96,142655,1,8,0:0:0:0:
352,96,143000,1,8,0:0:0:0:
352,96,143345,1,8,0:0:0:0:
160,96,143517,1,0,0:0:0:0:
352,96,143690,1,8,0:0:0:0:
160,96,143776,1,0,0:0:0:0:
352,96,144035,1,8,0:0:0:0:
352,96,144380,1,8,0:0:0:0:
352,96,144724,1,8,0:0:0:0:
352,96,145069,1,8,0:0:0:0:
352,96,145414,1,8,0:0:0:0:
160,96,145759,1,0,0:0:0:0:
160,96,145802,1,0,0:0:0:0:
352,96,145845,1,8,0:0:0:0:
352,96,146104,1,8,0:0:0:0:
352,96,146276,1,8,0:0:0:0:
352,96,146448,1,8,0:0:0:0:
352,96,146793,1,8,0:0:0:0:
352,96,147095,1,8,0:0:0:0:
352,96,147138,1,8,0:0:0:0:
352,96,147483,1,8,0:0:0:0:
160,96,147655,1,0,0:0:0:0:
352,96,147828,1,8,0:0:0:0:
160,96,147914,1,0,0:0:0:0:
352,96,148173,1,8,0:0:0:0:
352,96,148517,1,8,0:0:0:0:
352,96,148862,1,8,0:0:0:0:
160,96,149035,1,0,0:0:0:0:
352,96,149207,1,8,0:0:0:0:
160,96,149293,1,0,0:0:0:0:
352,96,149552,1,8,0:0:0:0:
352,96,149897,1,8,0:0:0:0:
352,96,150242,1,8,0:0:0:0:
160,96,150414,1,0,0:0:0:0:
352,96,150586,1,8,0:0:0:0:
160,96,150673,1,0,0:0:0:0:
352,96,150931,1,8,0:0:0:0:
160,96,151104,1,0,0:0:0:0:
352,96,151276,1,8,0:0:0:0:
300,112,151362,1,0,0:0:0:0:
160,96,151535,1,0,0:0:0:0:
352,96,151621,1,8,0:0:0:0:
160,96,151793,1,0,0:0:0:0:
352,96,151966,1,8,0:0:0:0:
160,96,152052,1,0,0:0:0:0:
300,112,152224,1,0,0:0:0:0:
352,96,152311,1,8,0:0:0:0:
160,96,152483,1,0,0:0:0:0:
256,192,152655,12,8,155242,0:0:0:0:
160,96,155414,5,0,0:0:0:0:
352,96,155586,1,8,0:0:0:0:
352,96,155759,1,8,0:0:0:0:
352,96,155931,1,8,0:0:0:0:
160,96,156104,1,0,0:0:0:0:
160,96,156276,1,0,0:0:0:0:
160,96,156448,1,0,0:0:0:0:
160,288,156793,1,4,0:0:0:0:
160,96,157052,1,0,0:0:0:0:
352,96,157138,1,8,0:0:0:0:
160,96,157397,1,0,0:0:0:0:
301,132,157655,1,0,0:0:0:0:
352,96,157828,1,8,0:0:0:0:
301,132,158000,1,0,0:0:0:0:
352,96,158086,1,8,0:0:0:0:
296,135,158259,1,8,0:0:0:0:
264,136,158345,1,0,0:0:0:0:
296,135,158431,1,0,0:0:0:0:
352,96,158517,1,8,0:0:0:0:
303,133,158690,1,8,0:0:0:0:
301,132,158776,1,0,0:0:0:0:
301,132,159035,1,0,0:0:0:0:
352,96,159207,1,8,0:0:0:0:
160,96,159380,1,0,0:0:0:0:
352,96,159466,1,8,0:0:0:0:
160,96,159552,1,0,0:0:0:0:
160,96,159811,1,0,0:0:0:0:
352,96,159897,1,8,0:0:0:0:
160,96,160155,1,0,0:0:0:0:
303,119,160414,1,0,0:0:0:0:
352,96,160586,1,8,0:0:0:0:
209,119,160673,1,8,0:0:0:0:
247,112,160759,1,0,0:0:0:0:
247,112,160845,1,0,0:0:0:0:
209,119,160931,1,8,0:0:0:0:
356,88,161104,1,0,0:0:0:0:
160,96,161190,1,0,0:0:0:0:
352,96,161276,1,8,0:0:0:0:
160,96,161448,1,0,0:0:0:0:
160,96,161535,1,0,0:0:0:0:
160,96,161793,1,0,0:0:0:0:
352,96,161966,1,8,0:0:0:0:
331,75,162052,1,0,0:0:0:0:
160,96,162138,1,0,0:0:0:0:
352,96,162224,1,8,0:0:0:0:
160,288,162311,1,4,0:0:0:0:
336,78,162569,1,0,0:0:0:0:
336,78,162655,1,8,0:0:0:0:
312,77,162914,1,0,0:0:0:0:
328,68,163173,1,0,0:0:0:0:
352,96,163345,1,8,0:0:0:0:
160,96,163402,1,0,0:0:0:0:
160,96,163460,1,0,0:0:0:0:
352,96,163517,1,8,0:0:0:0:
160,96,163604,1,0,0:0:0:0:
352,96,163690,1,8,0:0:0:0:
352,96,163862,1,0,0:0:0:0:
160,96,163948,1,0,0:0:0:0:
352,96,164035,1,8,0:0:0:0:
160,96,164207,1,0,0:0:0:0:
160,96,164293,1,0,0:0:0:0:
352,96,164552,1,8,0:0:0:0:
160,96,164724,1,0,0:0:0:0:
160,96,164811,1,0,0:0:0:0:
352,96,164897,1,8,0:0:0:0:
352,96,164983,1,8,0:0:0:0:
160,96,165069,1,0,0:0:0:0:
336,77,165242,1,8,0:0:0:0:
160,96,165328,1,0,0:0:0:0:
352,96,165414,1,8,0:0:0:0:
160,96,165673,1,0,0:0:0:0:
160,96,165931,1,0,0:0:0:0:
352,96,166104,1,8,0:0:0:0:
160,96,166362,1,0,0:0:0:0:
340,71,166535,1,8,0:0:0:0:
340,71,166621,1,0,0:0:0:0:
264,120,166707,1,0,0:0:0:0:
352,96,166793,1,8,0:0:0:0:
160,96,166966,1,0,0:0:0:0:
160,96,167052,1,0,0:0:0:0:
160,96,167311,1,0,0:0:0:0:
352,96,167483,1,8,0:0:0:0:
160,96,167655,1,0,0:0:0:0:
352,96,167742,1,8,0:0:0:0:
160,288,167828,1,4,0:0:0:0:
160,96,168086,1,0,0:0:0:0:
352,96,168173,1,8,0:0:0:0:
160,96,168431,1,0,0:0:0:0:
160,96,168690,1,0,0:0:0:0:
352,96,168862,1,8,0:0:0:0:
160,96,169035,1,0,0:0:0:0:
220,88,169121,1,8,0:0:0:0:
352,96,169293,1,8,0:0:0:0:
160,96,169380,1,0,0:0:0:0:
224,128,169466,1,0,0:0:0:0:
352,96,169552,1,8,0:0:0:0:
160,96,169724,1,8,0:0:0:0:
160,96,169811,1,0,0:0:0:0:
349,89,170069,1,0,0:0:0:0:
352,96,170242,1,8,0:0:0:0:
160,96,170414,1,0,0:0:0:0:
352,96,170500,1,8,0:0:0:0:
160,96,170586,1,0,0:0:0:0:
352,96,170759,1,8,0:0:0:0:
160,96,170845,1,0,0:0:0:0:
352,96,170931,1,8,0:0:0:0:
160,96,171190,1,0,0:0:0:0:
160,96,171448,1,0,0:0:0:0:
352,96,171621,1,8,0:0:0:0:
346,83,171880,1,0,0:0:0:0:
346,83,172052,1,8,0:0:0:0:
346,83,172138,1,0,0:0:0:0:
248,104,172224,1,0,0:0:0:0:
352,96,172311,1,8,0:0:0:0:
160,96,172483,1,0,0:0:0:0:
160,96,172569,1,0,0:0:0:0:
340,75,172742,1,8,0:0:0:0:
160,96,172828,1,0,0:0:0:0:
160,96,172914,1,0,0:0:0:0:
352,96,173000,1,8,0:0:0:0:
160,96,173086,1,0,0:0:0:0:
352,96,173173,1,8,0:0:0:0:
352,96,173259,1,8,0:0:0:0:
160,288,173345,1,4,0:0:0:0:
160,96,173604,1,0,0:0:0:0:
352,96,173690,1,8,0:0:0:0:
160,96,173862,1,8,0:0:0:0:
160,96,173948,1,0,0:0:0:0:
329,75,174207,1,0,0:0:0:0:
352,96,174380,1,8,0:0:0:0:
160,96,174437,1,0,0:0:0:0:
160,96,174494,1,0,0:0:0:0:
352,96,174552,1,8,0:0:0:0:
160,96,174638,1,0,0:0:0:0:
352,96,174724,1,8,0:0:0:0:
160,96,174897,1,0,0:0:0:0:
352,96,175069,1,8,0:0:0:0:
160,96,175242,1,0,0:0:0:0:
160,96,175328,1,0,0:0:0:0:
337,76,175500,1,8,0:0:0:0:
337,76,175586,1,0,0:0:0:0:
352,96,175759,1,8,0:0:0:0:
160,96,175845,1,0,0:0:0:0:
352,96,175931,1,8,0:0:0:0:
352,96,176017,1,8,0:0:0:0:
352,96,176448,1,8,0:0:0:0:
160,288,176707,1,4,0:0:0:0:
352,96,177138,1,8,0:0:0:0:
160,288,177397,1,4,0:0:0:0:
160,96,177742,1,0,0:0:0:0:
352,96,177828,1,8,0:0:0:0:
160,96,178086,1,0,0:0:0:0:
160,96,178173,1,8,0:0:0:0:
160,96,178259,1,0,0:0:0:0:
352,96,178345,1,8,0:0:0:0:
160,96,178431,1,0,0:0:0:0:
352,96,178517,1,8,0:0:0:0:
352,96,178604,1,8,0:0:0:0:
352,96,178690,1,8,0:0:0:0:
352,96,178776,1,8,0:0:0:0:
158,286,178862,1,4,0:0:0:0:
271,118,179035,1,8,0:0:0:0:
160,96,179121,1,0,0:0:0:0:
352,96,179207,1,8,0:0:0:0:
160,96,179380,1,0,0:0:0:0:
352,96,179466,1,8,0:0:0:0:
160,96,179552,1,0,0:0:0:0:
160,96,179724,1,0,0:0:0:0:
352,96,179897,1,8,0:0:0:0:
352,96,180069,1,8,0:0:0:0:
160,96,180155,1,0,0:0:0:0:
280,113,180242,1,0,0:0:0:0:
160,96,180414,1,0,0:0:0:0:
352,96,180586,1,8,0:0:0:0:
160,96,180759,1,0,0:0:0:0:
160,96,180845,1,0,0:0:0:0:
286,112,180931,1,8,0:0:0:0:
272,96,181104,1,0,0:0:0:0:
352,96,181276,1,8,0:0:0:0:
160,96,181448,1,0,0:0:0:0:
160,96,181621,1,0,0:0:0:0:
266,124,181793,1,8,0:0:0:0:
160,96,181880,1,0,0:0:0:0:
352,96,181966,1,8,0:0:0:0:
160,96,182138,1,0,0:0:0:0:
352,96,182224,1,8,0:0:0:0:
160,96,182311,1,0,0:0:0:0:
160,96,182483,1,0,0:0:0:0:
352,96,182655,1,8,0:0:0:0:
160,96,182828,1,0,0:0:0:0:
266,126,182914,1,8,0:0:0:0:
266,126,183000,1,0,0:0:0:0:
160,96,183173,1,0,0:0:0:0:
160,96,183259,1,0,0:0:0:0:
352,96,183345,1,8,0:0:0:0:
160,96,183517,1,0,0:0:0:0:
160,96,183604,1,0,0:0:0:0:
352,96,183776,1,8,0:0:0:0:
160,96,183862,1,0,0:0:0:0:
352,96,184035,1,8,0:0:0:0:
160,288,184380,1,4,0:0:0:0:
160,96,184552,1,0,0:0:0:0:
160,96,184638,1,0,0:0:0:0:
352,96,184724,1,8,0:0:0:0:
160,96,184897,1,0,0:0:0:0:
352,96,184983,1,8,0:0:0:0:
160,96,185069,1,0,0:0:0:0:
160,96,185242,1,0,0:0:0:0:
352,96,185414,1,8,0:0:0:0:
160,96,185586,1,0,0:0:0:0:
288,115,185673,1,0,0:0:0:0:
288,115,185759,1,8,0:0:0:0:
307,108,185931,1,0,0:0:0:0:
352,96,186104,1,8,0:0:0:0:
160,96,186276,1,0,0:0:0:0:
352,96,186362,1,8,0:0:0:0:
160,96,186448,1,0,0:0:0:0:
160,96,186621,1,0,0:0:0:0:
352,96,186793,1,8,0:0:0:0:
160,96,186966,1,0,0:0:0:0:
160,96,187138,1,0,0:0:0:0:
160,96,187311,1,0,0:0:0:0:
160,96,187397,1,0,0:0:0:0:
352,96,187483,1,8,0:0:0:0:
160,96,187655,1,0,0:0:0:0:
352,96,187742,1,8,0:0:0:0:
160,96,187828,1,0,0:0:0:0:
160,96,188000,1,0,0:0:0:0:
352,96,188173,1,8,0:0:0:0:
160,96,188345,1,0,0:0:0:0:
352,96,188431,1,8,0:0:0:0:
352,96,188604,1,8,0:0:0:0:
160,96,188690,1,0,0:0:0:0:
160,96,188776,1,0,0:0:0:0:
352,96,188862,1,8,0:0:0:0:
160,96,189035,1,0,0:0:0:0:
352,96,189121,1,8,0:0:0:0:
352,96,189293,1,8,0:0:0:0:
160,96,189380,1,0,0:0:0:0:
352,96,189552,1,8,0:0:0:0:
160,288,189897,1,4,0:0:0:0:
292,115,190069,1,0,0:0:0:0:
160,96,190155,1,0,0:0:0:0:
352,96,190242,1,8,0:0:0:0:
160,96,190414,1,0,0:0:0:0:
352,96,190500,1,8,0:0:0:0:
160,96,190586,1,0,0:0:0:0:
160,96,190759,1,0,0:0:0:0:
352,96,190931,1,8,0:0:0:0:
321,89,191104,1,8,0:0:0:0:
320,95,191190,1,8,0:0:0:0:
320,95,191276,1,0,0:0:0:0:
320,95,191448,1,0,0:0:0:0:
352,96,191621,1,8,0:0:0:0:
160,96,191793,1,0,0:0:0:0:
352,96,191880,1,8,0:0:0:0:
352,96,191966,1,8,0:0:0:0:
160,96,192138,1,0,0:0:0:0:
352,96,192311,1,8,0:0:0:0:
352,96,192483,1,0,0:0:0:0:
160,96,192655,1,0,0:0:0:0:
160,96,192828,1,0,0:0:0:0:
160,96,192914,1,0,0:0:0:0:
352,96,193000,1,8,0:0:0:0:
160,96,193173,1,0,0:0:0:0:
160,96,193259,1,0,0:0:0:0:
339,81,193431,1,8,0:0:0:0:
339,81,193517,1,0,0:0:0:0:
352,96,193690,1,8,0:0:0:0:
160,96,193862,1,0,0:0:0:0:
160,96,193948,1,0,0:0:0:0:
348,88,194121,1,8,0:0:0:0:
348,88,194207,1,0,0:0:0:0:
160,96,194293,1,0,0:0:0:0:
352,96,194380,1,8,0:0:0:0:
350,86,194552,1,0,0:0:0:0:
160,96,194638,1,0,0:0:0:0:
348,81,194811,1,8,0:0:0:0:
160,96,194897,1,0,0:0:0:0:
352,96,195069,1,8,0:0:0:0:
160,96,195414,1,0,0:0:0:0:
160,96,195586,1,0,0:0:0:0:
160,96,195673,1,0,0:0:0:0:
352,96,195759,1,8,0:0:0:0:
160,96,196017,1,0,0:0:0:0:
304,104,196276,1,0,0:0:0:0:
352,96,196448,1,8,0:0:0:0:
344,88,196621,1,8,0:0:0:0:
344,88,196707,1,0,0:0:0:0:
288,84,196793,1,0,0:0:0:0:
344,88,196966,1,0,0:0:0:0:
352,96,197138,1,8,0:0:0:0:
327,78,197311,1,0,0:0:0:0:
160,96,197397,1,0,0:0:0:0:
329,83,197569,1,8,0:0:0:0:
160,96,197655,1,0,0:0:0:0:
352,96,197828,1,8,0:0:0:0:
160,96,198000,1,0,0:0:0:0:
160,96,198173,1,0,0:0:0:0:
160,96,198345,1,0,0:0:0:0:
160,96,198431,1,0,0:0:0:0:
352,96,198517,1,8,0:0:0:0:
160,96,198690,1,0,0:0:0:0:
352,96,198862,1,8,0:0:0:0:
160,96,199035,1,0,0:0:0:0:
160,96,199121,1,0,0:0:0:0:
160,96,199293,1,0,0:0:0:0:
160,288,199466,1,4,0:0:0:0:
256,192,199552,12,0,203173,0:0:0:0:
352,96,203345,5,8,0:0:0:0:
352,96,203431,1,8,0:0:0:0:
160,96,203517,1,0,0:0:0:0:
352,96,203604,1,8,0:0:0:0:
160,288,203690,1,4,0:0:0:0:
160,96,203862,1,0,0:0:0:0:
352,96,204035,1,8,0:0:0:0:
352,96,204207,1,8,0:0:0:0:
160,96,204380,1,0,0:0:0:0:
352,96,204552,1,8,0:0:0:0:
352,96,204724,1,8,0:0:0:0:
160,96,204897,1,0,0:0:0:0:
352,96,205069,1,8,0:0:0:0:
352,96,205242,1,8,0:0:0:0:
160,96,205414,1,0,0:0:0:0:
352,96,205586,1,8,0:0:0:0:
160,96,205759,1,0,0:0:0:0:
352,96,205931,1,8,0:0:0:0:
160,96,206017,1,0,0:0:0:0:
352,96,206104,1,8,0:0:0:0:
352,96,206276,1,8,0:0:0:0:
352,96,206362,1,8,0:0:0:0:
160,96,206448,1,0,0:0:0:0:
160,96,206621,1,0,0:0:0:0:
352,96,206793,1,8,0:0:0:0:
160,96,206966,1,0,0:0:0:0:
160,96,207138,1,0,0:0:0:0:
352,96,207311,1,8,0:0:0:0:
160,96,207483,1,0,0:0:0:0:
160,96,207655,1,0,0:0:0:0:
352,96,207828,1,8,0:0:0:0:
160,96,208000,1,0,0:0:0:0:
160,96,208173,1,0,0:0:0:0:
352,96,208345,1,8,0:0:0:0:
160,96,208517,1,0,0:0:0:0:
352,96,208690,1,8,0:0:0:0:
160,96,208776,1,0,0:0:0:0:
352,96,208862,1,8,0:0:0:0:
160,96,209035,1,0,0:0:0:0:
352,96,209121,1,8,0:0:0:0:
160,96,209207,1,0,0:0:0:0:
160,96,209380,1,0,0:0:0:0:
352,96,209552,1,8,0:0:0:0:
352,96,209724,1,8,0:0:0:0:
160,96,209897,1,0,0:0:0:0:
352,96,210069,1,8,0:0:0:0:
352,96,210242,1,8,0:0:0:0:
160,96,210414,1,0,0:0:0:0:
352,96,210586,1,8,0:0:0:0:
352,96,210759,1,8,0:0:0:0:
160,96,210931,1,0,0:0:0:0:
352,96,211104,1,8,0:0:0:0:
160,96,211276,1,0,0:0:0:0:
352,96,211448,1,8,0:0:0:0:
160,96,211621,1,0,0:0:0:0:
160,96,211707,1,0,0:0:0:0:
352,96,211793,1,8,0:0:0:0:
352,96,211880,1,8,0:0:0:0:
160,96,211966,1,0,0:0:0:0:
160,96,212138,1,0,0:0:0:0:
352,96,212311,1,8,0:0:0:0:
160,96,212483,1,0,0:0:0:0:
160,96,212655,1,0,0:0:0:0:
352,96,212828,1,8,0:0:0:0:
160,96,213000,1,0,0:0:0:0:
160,96,213173,1,0,0:0:0:0:
160,96,213259,1,0,0:0:0:0:
352,96,213345,1,8,0:0:0:0:
160,96,213517,1,0,0:0:0:0:
160,96,213690,1,0,0:0:0:0:
352,96,213862,1,8,0:0:0:0:
160,96,214035,1,0,0:0:0:0:
160,96,214121,1,0,0:0:0:0:
352,96,214207,1,8,0:0:0:0:
352,96,214380,1,8,0:0:0:0:
160,96,214466,1,0,0:0:0:0:
352,96,214552,1,8,0:0:0:0:
352,96,214724,1,8,0:0:0:0:
160,96,214897,1,0,0:0:0:0:
352,96,215069,1,8,0:0:0:0:
352,96,215242,1,8,0:0:0:0:
160,96,215414,1,0,0:0:0:0:
352,96,215586,1,8,0:0:0:0:
352,96,215759,1,8,0:0:0:0:
160,96,215931,1,0,0:0:0:0:
352,96,216061,1,8,0:0:0:0:
352,96,216104,1,8,0:0:0:0:
352,96,216276,1,8,0:0:0:0:
160,96,216448,1,0,0:0:0:0:
352,96,216621,1,8,0:0:0:0:
352,96,216793,1,8,0:0:0:0:
160,96,216966,1,0,0:0:0:0:
352,96,217138,1,8,0:0:0:0:
352,96,217224,1,8,0:0:0:0:
160,96,217311,1,0,0:0:0:0:
160,96,217397,1,0,0:0:0:0:
352,96,217483,1,8,0:0:0:0:
160,96,217655,1,0,0:0:0:0:
352,96,217828,1,8,0:0:0:0:
160,96,218000,1,0,0:0:0:0:
160,96,218173,1,0,0:0:0:0:
352,96,218345,1,8,0:0:0:0:
160,96,218517,1,0,0:0:0:0:
160,96,218690,1,0,0:0:0:0:
160,96,218776,1,0,0:0:0:0:
352,96,218862,1,8,0:0:0:0:
160,96,219035,1,0,0:0:0:0:
160,96,219207,1,0,0:0:0:0:
352,96,219380,1,8,0:0:0:0:
160,96,219552,1,0,0:0:0:0:
352,96,219724,1,8,0:0:0:0:
352,96,219897,1,8,0:0:0:0:
160,96,220069,1,0,0:0:0:0:
160,96,220242,1,0,0:0:0:0:
160,96,220328,1,0,0:0:0:0:
352,96,220414,1,8,0:0:0:0:
352,96,220586,1,8,0:0:0:0:
352,96,220759,1,8,0:0:0:0:
160,96,220931,1,0,0:0:0:0:
352,96,221104,1,8,0:0:0:0:
352,96,221276,1,8,0:0:0:0:
160,96,221448,1,0,0:0:0:0:
352,96,221578,1,8,0:0:0:0:
352,96,221621,1,8,0:0:0:0:
352,96,221793,1,8,0:0:0:0:
160,96,221966,1,0,0:0:0:0:
352,96,222138,1,8,0:0:0:0:
160,96,222311,1,0,0:0:0:0:
160,96,222483,1,0,0:0:0:0:
352,96,222655,1,8,0:0:0:0:
352,96,222742,1,8,0:0:0:0:
160,96,222828,1,0,0:0:0:0:
160,96,222914,1,0,0:0:0:0:
352,96,223000,1,8,0:0:0:0:
160,96,223173,1,0,0:0:0:0:
352,96,223345,1,8,0:0:0:0:
160,96,223517,1,0,0:0:0:0:
160,96,223690,1,0,0:0:0:0:
352,96,223862,1,8,0:0:0:0:
160,96,224035,1,0,0:0:0:0:
160,96,224207,1,0,0:0:0:0:
160,96,224293,1,0,0:0:0:0:
352,96,224380,1,8,0:0:0:0:
160,96,224552,1,0,0:0:0:0:
160,96,224724,1,0,0:0:0:0:
352,96,224897,1,8,0:0:0:0:
160,96,225069,1,0,0:0:0:0:
160,96,225155,1,0,0:0:0:0:
352,96,225242,1,8,0:0:0:0:
352,96,225328,1,8,0:0:0:0:
160,96,225414,1,0,0:0:0:0:
352,96,225586,1,8,0:0:0:0:
160,288,225759,1,4,0:0:0:0:
160,96,225931,1,0,0:0:0:0:
352,96,226104,1,8,0:0:0:0:
352,96,226276,1,8,0:0:0:0:
160,96,226448,1,0,0:0:0:0:
352,96,226621,1,8,0:0:0:0:
352,96,226793,1,8,0:0:0:0:
160,96,226966,1,0,0:0:0:0:
352,96,227095,1,8,0:0:0:0:
352,96,227138,1,8,0:0:0:0:
352,96,227311,1,8,0:0:0:0:
160,96,227483,1,0,0:0:0:0:
352,96,227655,1,8,0:0:0:0:
160,96,227828,1,0,0:0:0:0:
160,96,228000,1,0,0:0:0:0:
352,96,228173,1,8,0:0:0:0:
352,96,228259,1,8,0:0:0:0:
160,96,228345,1,0,0:0:0:0:
160,96,228431,1,0,0:0:0:0:
352,96,228517,1,8,0:0:0:0:
160,96,228690,1,0,0:0:0:0:
352,96,228862,1,8,0:0:0:0:
160,96,229035,1,0,0:0:0:0:
160,96,229207,1,0,0:0:0:0:
352,96,229380,1,8,0:0:0:0:
160,96,229552,1,0,0:0:0:0:
160,96,229724,1,0,0:0:0:0:
352,96,229897,1,8,0:0:0:0:
160,96,230069,1,0,0:0:0:0:
160,96,230242,1,0,0:0:0:0:
352,96,230414,1,8,0:0:0:0:
160,96,230586,1,0,0:0:0:0:
160,96,230673,1,0,0:0:0:0:
352,96,230759,1,8,0:0:0:0:
352,96,230931,1,8,0:0:0:0:
352,96,231017,1,8,0:0:0:0:
160,96,231104,1,0,0:0:0:0:
352,96,231276,1,8,0:0:0:0:
160,96,231448,1,0,0:0:0:0:
352,96,231621,1,8,0:0:0:0:
352,96,231793,1,8,0:0:0:0:
160,96,231966,1,0,0:0:0:0:
352,96,232138,1,8,0:0:0:0:
352,96,232311,1,8,0:0:0:0:
160,96,232483,1,0,0:0:0:0:
352,96,232612,1,8,0:0:0:0:
352,96,232655,1,8,0:0:0:0:
352,96,232828,1,8,0:0:0:0:
160,96,233000,1,0,0:0:0:0:
352,96,233173,1,8,0:0:0:0:
160,96,233345,1,0,0:0:0:0:
160,96,233517,1,0,0:0:0:0:
352,96,233690,1,8,0:0:0:0:
352,96,233776,1,8,0:0:0:0:
160,96,233862,1,0,0:0:0:0:
160,96,233948,1,0,0:0:0:0:
352,96,234035,1,8,0:0:0:0:
160,96,234207,1,0,0:0:0:0:
352,96,234380,1,8,0:0:0:0:
160,96,234552,1,0,0:0:0:0:
160,96,234638,1,0,0:0:0:0:
160,96,234724,1,0,0:0:0:0:
352,96,234897,1,8,0:0:0:0:
160,96,235069,1,0,0:0:0:0:
160,96,235242,1,0,0:0:0:0:
160,96,235328,1,0,0:0:0:0:
352,96,235414,1,8,0:0:0:0:
160,96,235586,1,0,0:0:0:0:
160,96,235759,1,0,0:0:0:0:
352,96,235931,1,8,0:0:0:0:
160,96,236104,1,0,0:0:0:0:
160,96,236190,1,0,0:0:0:0:
352,96,236276,1,8,0:0:0:0:
352,96,236448,1,8,0:0:0:0:
352,96,236535,1,8,0:0:0:0:
160,96,236621,1,0,0:0:0:0:
160,96,236707,1,0,0:0:0:0:
352,96,236793,1,8,0:0:0:0:
160,96,236966,1,0,0:0:0:0:
352,96,237138,1,8,0:0:0:0:
352,96,237311,1,8,0:0:0:0:
160,96,237397,1,0,0:0:0:0:
160,96,237483,1,0,0:0:0:0:
352,96,237655,1,8,0:0:0:0:
352,96,237828,1,8,0:0:0:0:
160,96,238000,1,0,0:0:0:0:
352,96,238130,1,8,0:0:0:0:
352,96,238173,1,8,0:0:0:0:
352,96,238345,1,8,0:0:0:0:
160,96,238517,1,0,0:0:0:0:
352,96,238690,1,8,0:0:0:0:
160,96,238776,1,0,0:0:0:0:
160,96,238862,1,0,0:0:0:0:
160,96,239035,1,0,0:0:0:0:
352,96,239207,1,8,0:0:0:0:
352,96,239293,1,8,0:0:0:0:
160,96,239380,1,0,0:0:0:0:
160,96,239466,1,0,0:0:0:0:
352,96,239552,1,8,0:0:0:0:
160,96,239724,1,0,0:0:0:0:
352,96,239897,1,8,0:0:0:0:
160,96,240069,1,0,0:0:0:0:
352,96,240155,1,8,0:0:0:0:
160,96,240242,1,0,0:0:0:0:
352,96,240414,1,8,0:0:0:0:
160,96,240586,1,0,0:0:0:0:
160,96,240759,1,0,0:0:0:0:
160,96,240845,1,0,0:0:0:0:
352,96,240931,1,8,0:0:0:0:
160,96,241104,1,0,0:0:0:0:
160,96,241276,1,0,0:0:0:0:
352,96,241448,1,8,0:0:0:0:
160,96,241621,1,0,0:0:0:0:
160,96,241707,1,0,0:0:0:0:
352,96,241793,1,8,0:0:0:0:
352,96,241880,1,8,0:0:0:0:
160,96,241966,1,0,0:0:0:0:
352,96,242138,1,8,0:0:0:0:
352,96,242224,1,8,0:0:0:0:
160,96,242311,1,0,0:0:0:0:
160,96,242483,1,0,0:0:0:0:
352,96,242655,1,8,0:0:0:0:
160,96,242828,1,0,0:0:0:0:
352,96,242914,1,8,0:0:0:0:
160,96,243000,1,0,0:0:0:0:
160,96,243173,1,0,0:0:0:0:
352,96,243345,1,8,0:0:0:0:
160,96,243517,1,0,0:0:0:0:
352,96,243647,1,8,0:0:0:0:
352,96,243690,1,8,0:0:0:0:
160,96,243862,1,0,0:0:0:0:
352,96,244035,1,8,0:0:0:0:
160,96,244207,1,0,0:0:0:0:
352,96,244293,1,8,0:0:0:0:
160,96,244380,1,0,0:0:0:0:
160,96,244552,1,0,0:0:0:0:
352,96,244724,1,8,0:0:0:0:
352,96,244811,1,8,0:0:0:0:
160,96,244897,1,0,0:0:0:0:
160,96,244983,1,0,0:0:0:0:
352,96,245069,1,8,0:0:0:0:
160,96,245242,1,0,0:0:0:0:
352,96,245414,1,8,0:0:0:0:
160,96,245586,1,0,0:0:0:0:
352,96,245673,1,8,0:0:0:0:
160,96,245759,1,0,0:0:0:0:
160,96,245845,1,0,0:0:0:0:
352,96,245931,1,8,0:0:0:0:
352,96,246104,1,8,0:0:0:0:
160,96,246276,1,0,0:0:0:0:
160,96,246362,1,0,0:0:0:0:
352,96,246448,1,8,0:0:0:0:
160,96,246535,1,0,0:0:0:0:
160,96,246621,1,0,0:0:0:0:
352,96,246707,1,8,0:0:0:0:
160,96,246880,1,0,0:0:0:0:
352,96,246966,1,8,0:0:0:0:
160,96,247052,1,0,0:0:0:0:
160,96,247138,1,0,0:0:0:0:
352,96,247224,1,8,0:0:0:0:
352,96,247483,1,8,0:0:0:0:
285,138,247540,1,0,0:0:0:0:
285,138,247598,1,0,0:0:0:0:
352,96,247655,1,8,0:0:0:0:
352,96,247742,1,8,0:0:0:0:
160,96,247828,1,0,0:0:0:0:
292,144,248173,1,0,0:0:0:0:
352,96,248517,1,8,0:0:0:0:
160,96,248862,1,0,0:0:0:0:
352,96,249207,1,8,0:0:0:0:
352,96,249552,1,8,0:0:0:0:
160,96,249897,1,0,0:0:0:0:
352,96,250242,1,8,0:0:0:0:
160,96,250586,1,0,0:0:0:0:
160,96,250931,1,0,0:0:0:0:
352,96,251276,1,8,0:0:0:0:
160,96,251621,1,0,0:0:0:0:
352,96,251966,1,8,0:0:0:0:
352,96,252311,1,8,0:0:0:0:
160,96,252655,1,0,0:0:0:0:
352,96,253000,1,8,0:0:0:0:
160,96,253345,1,0,0:0:0:0:
352,96,253690,1,8,0:0:0:0:
160,96,253862,1,0,0:0:0:0:
352,96,254035,1,8,0:0:0:0:
160,96,254380,1,0,0:0:0:0:
160,96,254724,1,0,0:0:0:0:
352,96,255069,1,8,0:0:0:0:
160,96,255242,1,0,0:0:0:0:
352,96,255414,1,8,0:0:0:0:
160,96,255759,1,0,0:0:0:0:
160,96,256104,1,0,0:0:0:0:
352,96,256448,1,8,0:0:0:0:
160,96,256621,1,0,0:0:0:0:
352,96,256793,1,8,0:0:0:0:
200,80,256966,1,8,0:0:0:0:
160,96,257138,1,0,0:0:0:0:
160,96,257483,1,0,0:0:0:0:
352,96,257828,1,8,0:0:0:0:
160,96,258000,1,0,0:0:0:0:
352,96,258173,1,8,0:0:0:0:
224,80,258345,1,8,0:0:0:0:
160,96,258517,1,0,0:0:0:0:
160,96,258862,1,0,0:0:0:0:
160,96,259035,1,0,0:0:0:0:
352,96,259207,1,8,0:0:0:0:
160,96,259380,1,0,0:0:0:0:
352,96,259552,1,8,0:0:0:0:
352,96,259724,1,8,0:0:0:0:
160,96,259897,1,0,0:0:0:0:
352,96,260069,1,8,0:0:0:0:
160,96,260242,1,0,0:0:0:0:
160,96,260414,1,0,0:0:0:0:
352,96,260586,1,8,0:0:0:0:
160,96,260759,1,0,0:0:0:0:
352,96,260931,1,8,0:0:0:0:
352,96,261104,1,8,0:0:0:0:
160,96,261276,1,0,0:0:0:0:
352,96,261448,1,8,0:0:0:0:
160,96,261621,1,0,0:0:0:0:
160,96,261793,1,0,0:0:0:0:
352,96,261966,1,8,0:0:0:0:
160,96,262138,1,0,0:0:0:0:
352,96,262311,1,8,0:0:0:0:
352,96,262483,1,8,0:0:0:0:
160,96,262655,1,0,0:0:0:0:
352,96,262828,1,8,0:0:0:0:
160,96,263000,1,0,0:0:0:0:
160,96,263173,1,0,0:0:0:0:
352,96,263345,1,8,0:0:0:0:
160,96,263517,1,0,0:0:0:0:
352,96,263690,1,8,0:0:0:0:
352,96,263862,1,8,0:0:0:0:
160,96,264035,1,0,0:0:0:0:
160,96,264207,1,0,0:0:0:0:
352,96,264380,1,8,0:0:0:0:
160,96,264552,1,0,0:0:0:0:
352,96,264638,1,8,0:0:0:0:
160,96,264811,1,0,0:0:0:0:
352,96,264897,1,8,0:0:0:0:
352,96,265069,1,8,0:0:0:0:
160,96,265242,1,0,0:0:0:0:
352,96,265328,1,8,0:0:0:0:
160,96,265500,1,0,0:0:0:0:
352,96,265586,1,8,0:0:0:0:
352,96,265759,1,8,0:0:0:0:
160,96,265931,1,0,0:0:0:0:
352,96,266017,1,8,0:0:0:0:
160,96,266190,1,0,0:0:0:0:
352,96,266276,1,8,0:0:0:0:
352,96,266448,1,8,0:0:0:0:
160,96,266621,1,0,0:0:0:0:
352,96,266707,1,8,0:0:0:0:
160,96,266880,1,0,0:0:0:0:
352,96,266966,1,8,0:0:0:0:
352,96,267138,1,8,0:0:0:0:
352,96,267224,1,8,0:0:0:0:
160,96,267311,1,0,0:0:0:0:
160,96,267397,1,0,0:0:0:0:
352,96,267483,1,8,0:0:0:0:
352,96,267569,1,8,0:0:0:0:
160,96,267655,1,0,0:0:0:0:
160,96,267742,1,0,0:0:0:0:
352,96,267828,1,8,0:0:0:0:
352,96,267914,1,8,0:0:0:0:
160,96,268000,1,0,0:0:0:0:
160,96,268086,1,0,0:0:0:0:
352,96,268173,1,8,0:0:0:0:
352,96,268259,1,8,0:0:0:0:
160,96,268345,1,0,0:0:0:0:
160,96,268431,1,0,0:0:0:0:
352,96,268517,1,8,0:0:0:0:
352,96,268604,1,8,0:0:0:0:
160,96,268690,1,0,0:0:0:0:
160,96,268776,1,0,0:0:0:0:
352,96,268862,1,8,0:0:0:0:
352,96,268948,1,8,0:0:0:0:
160,96,269035,1,0,0:0:0:0:
160,96,269121,1,0,0:0:0:0:
160,96,269380,1,0,0:0:0:0:
352,96,269552,1,8,0:0:0:0:
352,96,269638,1,8,0:0:0:0:
160,96,269724,1,0,0:0:0:0:
352,96,269811,1,8,0:0:0:0:
160,288,269897,1,4,0:0:0:0:
160,96,270414,1,0,0:0:0:0:
277,162,270471,1,0,0:0:0:0:
277,162,270529,1,0,0:0:0:0:
352,96,270586,1,8,0:0:0:0:
160,96,270931,1,0,0:0:0:0:
295,121,270989,1,8,0:0:0:0:
291,131,271046,1,8,0:0:0:0:
291,131,271104,1,0,0:0:0:0:
160,96,271448,1,0,0:0:0:0:
295,121,271506,1,0,0:0:0:0:
291,131,271563,1,8,0:0:0:0:
160,96,271621,1,0,0:0:0:0:
352,96,271966,1,8,0:0:0:0:
322,100,272023,1,8,0:0:0:0:
349,68,272081,1,0,0:0:0:0:
160,96,272138,1,0,0:0:0:0:
352,96,272311,1,8,0:0:0:0:
160,96,272397,1,0,0:0:0:0:
352,96,272483,1,8,0:0:0:0:
352,96,272569,1,8,0:0:0:0:
160,96,272655,1,0,0:0:0:0:
160,96,273000,1,0,0:0:0:0:
352,96,273173,1,8,0:0:0:0:
352,96,273345,1,8,0:0:0:0:
352,96,273517,1,8,0:0:0:0:
160,96,273690,1,0,0:0:0:0:
352,96,273862,1,8,0:0:0:0:
352,96,274035,1,8,0:0:0:0:
352,96,274207,1,8,0:0:0:0:
160,96,274380,1,0,0:0:0:0:
352,96,274552,1,8,0:0:0:0:
352,96,274724,1,8,0:0:0:0:
352,96,274811,1,8,0:0:0:0:
160,96,274897,1,0,0:0:0:0:
352,96,274983,1,8,0:0:0:0:
160,96,275069,1,0,0:0:0:0:
160,96,275155,1,0,0:0:0:0:
352,96,275242,1,8,0:0:0:0:
352,96,275328,1,8,0:0:0:0:
160,96,275414,1,0,0:0:0:0:
352,288,275586,1,12,0:0:0:0:
160,96,275759,1,0,0:0:0:0:
352,96,275845,1,8,0:0:0:0:
160,96,275931,1,0,0:0:0:0:
346,101,275989,1,0,0:0:0:0:
346,101,276046,1,0,0:0:0:0:
352,96,276104,1,8,0:0:0:0:
160,96,276448,1,0,0:0:0:0:
347,80,276506,1,0,0:0:0:0:
347,80,276563,1,8,0:0:0:0:
347,80,276621,1,0,0:0:0:0:
160,96,276966,1,0,0:0:0:0:
346,101,277023,1,8,0:0:0:0:
346,101,277081,1,8,0:0:0:0:
160,96,277138,1,0,0:0:0:0:
352,96,277483,1,8,0:0:0:0:
349,99,277540,1,8,0:0:0:0:
349,99,277598,1,8,0:0:0:0:
160,96,277655,1,0,0:0:0:0:
160,96,277742,1,0,0:0:0:0:
352,96,277828,1,8,0:0:0:0:
160,96,277914,1,0,0:0:0:0:
352,96,278000,1,8,0:0:0:0:
352,96,278086,1,8,0:0:0:0:
160,96,278173,1,0,0:0:0:0:
352,96,278517,1,8,0:0:0:0:
160,96,278575,1,0,0:0:0:0:
160,96,278632,1,0,0:0:0:0:
352,96,278690,1,8,0:0:0:0:
160,96,278776,1,0,0:0:0:0:
352,96,278862,1,8,0:0:0:0:
160,96,278977,1,0,0:0:0:0:
160,96,279092,1,0,0:0:0:0:
352,96,279207,1,8,0:0:0:0:
160,96,279322,1,0,0:0:0:0:
160,96,279437,1,0,0:0:0:0:
352,96,279552,1,8,0:0:0:0:
352,96,279724,1,8,0:0:0:0:
160,96,279897,1,0,0:0:0:0:
352,96,280069,1,8,0:0:0:0:
352,96,280242,1,8,0:0:0:0:
160,96,280328,1,0,0:0:0:0:
160,96,280414,1,0,0:0:0:0:
352,96,280500,1,8,0:0:0:0:
160,96,280586,1,0,0:0:0:0:
352,96,280759,1,8,0:0:0:0:
160,288,280931,1,4,0:0:0:0:
160,96,281448,1,0,0:0:0:0:
351,81,281506,1,0,0:0:0:0:
351,81,281563,1,0,0:0:0:0:
352,96,281621,1,8,0:0:0:0:
160,96,281793,1,0,0:0:0:0:
160,96,281966,1,0,0:0:0:0:
351,81,282023,1,8,0:0:0:0:
352,90,282081,1,8,0:0:0:0:
351,81,282138,1,0,0:0:0:0:
160,96,282483,1,0,0:0:0:0:
347,88,282540,1,0,0:0:0:0:
346,88,282598,1,8,0:0:0:0:
160,96,282655,1,0,0:0:0:0:
352,96,283000,1,8,0:0:0:0:
353,88,283058,1,8,0:0:0:0:
352,90,283115,1,0,0:0:0:0:
160,96,283173,1,0,0:0:0:0:
160,96,283345,1,8,0:0:0:0:
352,96,283431,1,8,0:0:0:0:
160,96,283517,1,0,0:0:0:0:
160,96,283690,1,0,0:0:0:0:
352,96,283776,1,8,0:0:0:0:
352,96,283948,1,8,0:0:0:0:
160,96,284035,1,0,0:0:0:0:
352,96,284121,1,8,0:0:0:0:
160,96,284207,1,0,0:0:0:0:
160,96,284293,1,0,0:0:0:0:
352,96,284380,1,8,0:0:0:0:
160,96,284552,1,0,0:0:0:0:
352,96,284724,1,8,0:0:0:0:
352,96,284897,1,8,0:0:0:0:
160,96,285069,1,0,0:0:0:0:
352,96,285242,1,8,0:0:0:0:
160,96,285414,1,0,0:0:0:0:
352,96,285586,1,8,0:0:0:0:
352,96,285759,1,8,0:0:0:0:
352,96,285845,1,8,0:0:0:0:
160,96,285931,1,0,0:0:0:0:
160,96,286017,1,0,0:0:0:0:
352,96,286104,1,8,0:0:0:0:
160,96,286190,1,0,0:0:0:0:
352,96,286276,1,8,0:0:0:0:
352,96,286362,1,8,0:0:0:0:
160,288,286448,1,4,0:0:0:0:
352,96,286966,1,8,0:0:0:0:
160,96,287138,1,0,0:0:0:0:
352,96,287224,1,8,0:0:0:0:
160,96,287397,1,0,0:0:0:0:
352,96,287483,1,8,0:0:0:0:
160,96,287655,1,0,0:0:0:0:
352,96,287742,1,8,0:0:0:0:
160,96,287828,1,0,0:0:0:0:
160,96,287914,1,0,0:0:0:0:
352,96,288000,1,8,0:0:0:0:
160,96,288173,1,0,0:0:0:0:
352,96,288259,1,8,0:0:0:0:
352,96,288431,1,8,0:0:0:0:
160,96,288517,5,0,0:0:0:0:
160,96,288690,1,0,0:0:0:0:
352,96,288862,1,8,0:0:0:0:
160,96,289035,1,0,0:0:0:0:
352,96,289207,1,8,0:0:0:0:
160,96,289380,1,0,0:0:0:0:
160,96,289466,1,0,0:0:0:0:
352,96,289552,1,8,0:0:0:0:
160,96,289724,1,0,0:0:0:0:
352,96,289897,1,8,0:0:0:0:
352,96,289983,1,8,0:0:0:0:
160,96,290069,1,0,0:0:0:0:
160,96,290155,1,0,0:0:0:0:
352,96,290242,1,8,0:0:0:0:
160,96,290414,1,0,0:0:0:0:
352,288,290586,1,12,0:0:0:0:
256,192,290673,12,0,291448,0:0:0:0:
352,96,291621,5,8,0:0:0:0:
352,96,291707,1,8,0:0:0:0:
160,96,291793,1,0,0:0:0:0:
352,96,291880,1,8,0:0:0:0:
160,288,291966,1,4,0:0:0:0:
352,96,292311,1,8,0:0:0:0:
160,96,292483,1,0,0:0:0:0:
352,96,292569,1,8,0:0:0:0:
160,96,292655,1,0,0:0:0:0:
160,96,292828,1,0,0:0:0:0:
352,96,293000,1,8,0:0:0:0:
160,96,293173,1,0,0:0:0:0:
352,96,293259,1,8,0:0:0:0:
160,96,293345,1,0,0:0:0:0:
160,96,293517,1,0,0:0:0:0:
352,96,293690,1,8,0:0:0:0:
160,96,293862,1,0,0:0:0:0:
352,96,293948,1,8,0:0:0:0:
160,96,294035,1,0,0:0:0:0:
352,96,294121,1,8,0:0:0:0:
160,96,294207,1,0,0:0:0:0:
352,96,294380,1,8,0:0:0:0:
352,96,294552,1,8,0:0:0:0:
160,96,294724,1,0,0:0:0:0:
160,96,295069,1,0,0:0:0:0:
352,96,295241,1,8,0:0:0:0:
160,96,295327,1,0,0:0:0:0:
352,96,295414,1,8,0:0:0:0:
160,96,295586,1,0,0:0:0:0:
160,96,295759,1,0,0:0:0:0:
352,96,295931,1,8,0:0:0:0:
160,96,296017,1,0,0:0:0:0:
352,96,296103,1,8,0:0:0:0:
160,96,296276,1,0,0:0:0:0:
160,96,296448,1,0,0:0:0:0:
352,96,296621,1,8,0:0:0:0:
160,96,296707,1,0,0:0:0:0:
352,96,296793,1,8,0:0:0:0:
352,96,296879,1,8,0:0:0:0:
160,96,296965,1,0,0:0:0:0:
352,96,297138,1,8,0:0:0:0:
160,96,297310,1,0,0:0:0:0:
352,96,297396,1,8,0:0:0:0:
160,288,297483,1,4,0:0:0:0:
352,96,297827,1,8,0:0:0:0:
160,96,298000,1,0,0:0:0:0:
160,96,298086,1,0,0:0:0:0:
352,96,298172,1,8,0:0:0:0:
160,96,298345,1,0,0:0:0:0:
352,96,298517,1,8,0:0:0:0:
160,96,298690,1,0,0:0:0:0:
160,96,298776,1,0,0:0:0:0:
352,96,298862,1,8,0:0:0:0:
160,96,299034,1,0,0:0:0:0:
352,96,299207,1,8,0:0:0:0:
160,96,299379,1,0,0:0:0:0:
160,96,299465,1,0,0:0:0:0:
352,96,299552,1,8,0:0:0:0:
352,96,299638,1,8,0:0:0:0:
160,96,299724,1,0,0:0:0:0:
352,96,299896,1,8,0:0:0:0:
352,96,300069,1,8,0:0:0:0:
160,96,300241,1,0,0:0:0:0:
352,96,300586,1,8,0:0:0:0:
160,96,300644,1,0,0:0:0:0:
160,96,300701,1,0,0:0:0:0:
352,96,300759,1,8,0:0:0:0:
160,96,300845,1,0,0:0:0:0:
352,96,300931,1,8,0:0:0:0:
160,96,301046,1,0,0:0:0:0:
160,96,301161,1,0,0:0:0:0:
352,96,301276,1,8,0:0:0:0:
352,96,301391,1,8,0:0:0:0:
160,96,301506,1,0,0:0:0:0:
352,96,301621,1,8,0:0:0:0:
160,96,301793,1,0,0:0:0:0:
352,96,301966,1,8,0:0:0:0:
352,96,302138,1,8,0:0:0:0:
160,96,302224,1,0,0:0:0:0:
352,96,302311,1,8,0:0:0:0:
352,96,302397,1,8,0:0:0:0:
160,96,302483,1,0,0:0:0:0:
352,96,302655,1,8,0:0:0:0:
352,96,302742,1,8,0:0:0:0:
160,96,302828,1,0,0:0:0:0:
352,96,302914,1,8,0:0:0:0:
160,288,303000,1,4,0:0:0:0:
352,96,303345,1,8,0:0:0:0:
352,96,303431,1,8,0:0:0:0:
352,96,303517,1,8,0:0:0:0:
352,96,303604,1,8,0:0:0:0:
352,96,303690,1,8,0:0:0:0:
352,96,303776,1,8,0:0:0:0:
352,96,303862,1,8,0:0:0:0:
352,96,303948,1,8,0:0:0:0:
160,288,304035,1,4,0:0:0:0:
160,288,304552,1,4,0:0:0:0:
352,96,304724,1,8,0:0:0:0:
160,96,304897,1,0,0:0:0:0:
160,96,304983,1,0,0:0:0:0:
352,96,305069,1,8,0:0:0:0:
352,96,305155,1,8,0:0:0:0:
160,96,305242,1,0,0:0:0:0:
352,96,305414,1,8,0:0:0:0:
352,96,305500,1,8,0:0:0:0:
160,96,305586,1,0,0:0:0:0:
160,96,305759,1,0,0:0:0:0:
352,96,306017,1,8,0:0:0:0:
160,96,306104,1,0,0:0:0:0:
352,96,306276,1,8,0:0:0:0:
160,96,306362,1,0,0:0:0:0:
352,96,306448,1,8,0:0:0:0:
160,96,306621,1,0,0:0:0:0:
352,96,306793,1,8,0:0:0:0:
160,96,306966,1,0,0:0:0:0:
160,96,307052,1,0,0:0:0:0:
352,96,307138,1,8,0:0:0:0:
160,96,307311,1,0,0:0:0:0:
352,96,307483,1,8,0:0:0:0:
160,96,307655,1,0,0:0:0:0:
352,96,307742,1,8,0:0:0:0:
352,96,307828,1,8,0:0:0:0:
160,96,307914,1,0,0:0:0:0:
160,96,308000,1,0,0:0:0:0:
352,96,308173,1,8,0:0:0:0:
160,96,308345,1,0,0:0:0:0:
352,96,308431,1,8,0:0:0:0:
160,288,308517,1,4,0:0:0:0:
352,96,308862,1,8,0:0:0:0:
160,96,309035,1,0,0:0:0:0:
160,96,309121,1,0,0:0:0:0:
352,96,309207,1,8,0:0:0:0:
160,96,309380,1,0,0:0:0:0:
352,96,309552,1,8,0:0:0:0:
160,96,309724,1,0,0:0:0:0:
352,96,309811,1,8,0:0:0:0:
160,96,309897,1,0,0:0:0:0:
160,96,310069,1,0,0:0:0:0:
352,96,310242,1,8,0:0:0:0:
160,96,310414,1,0,0:0:0:0:
160,96,310500,1,0,0:0:0:0:
352,96,310586,1,8,0:0:0:0:
352,96,310673,1,8,0:0:0:0:
160,96,310759,1,0,0:0:0:0:
352,96,310931,1,8,0:0:0:0:
352,96,311104,1,8,0:0:0:0:
160,96,311276,1,0,0:0:0:0:
160,96,311448,1,0,0:0:0:0:
352,96,311535,1,8,0:0:0:0:
160,96,311621,1,0,0:0:0:0:
352,96,311793,1,8,0:0:0:0:
352,96,311966,1,8,0:0:0:0:
160,96,312052,1,0,0:0:0:0:
160,96,312138,1,0,0:0:0:0:
352,96,312224,1,8,0:0:0:0:
160,96,312311,1,0,0:0:0:0:
352,96,312483,1,8,0:0:0:0:
160,96,312655,1,0,0:0:0:0:
352,96,312742,1,8,0:0:0:0:
160,96,312828,1,0,0:0:0:0:
352,96,312914,1,8,0:0:0:0:
160,96,313000,1,0,0:0:0:0:
160,96,313086,1,0,0:0:0:0:
352,96,313173,1,8,0:0:0:0:
160,96,313345,1,0,0:0:0:0:
352,96,313431,1,8,0:0:0:0:
352,96,313517,1,8,0:0:0:0:
160,96,313604,1,8,0:0:0:0:
160,96,313690,1,0,0:0:0:0:
352,96,313776,1,8,0:0:0:0:
352,96,313862,1,8,0:0:0:0:
160,96,313948,1,8,0:0:0:0:
276,149,314035,1,4,0:0:0:0:
352,96,314380,1,8,0:0:0:0:
160,96,314552,1,0,0:0:0:0:
352,96,314638,1,8,0:0:0:0:
160,96,314724,1,0,0:0:0:0:
160,96,314897,1,0,0:0:0:0:
352,96,315069,1,8,0:0:0:0:
160,96,315586,1,0,0:0:0:0:
352,96,315759,1,8,0:0:0:0:
160,96,315931,1,0,0:0:0:0:
160,96,316017,1,0,0:0:0:0:
352,96,316104,1,8,0:0:0:0:
352,96,316190,1,8,0:0:0:0:
160,96,316276,1,0,0:0:0:0:
352,96,316448,1,8,0:0:0:0:
160,96,316793,1,0,0:0:0:0:
160,96,317052,1,0,0:0:0:0:
352,96,317138,1,8,0:0:0:0:
160,96,317311,1,0,0:0:0:0:
352,96,317397,1,8,0:0:0:0:
352,96,317483,1,8,0:0:0:0:
160,96,317569,1,0,0:0:0:0:
160,96,317655,1,0,0:0:0:0:
352,96,317828,1,8,0:0:0:0:
160,96,318345,1,0,0:0:0:0:
352,96,318517,1,8,0:0:0:0:
160,96,318690,1,0,0:0:0:0:
160,96,318776,1,0,0:0:0:0:
352,96,318862,1,8,0:0:0:0:
352,96,318948,1,8,0:0:0:0:
160,96,319035,1,0,0:0:0:0:
352,96,319207,1,8,0:0:0:0:
160,96,319380,1,0,0:0:0:0:
352,96,319466,1,8,0:0:0:0:
160,96,319552,1,0,0:0:0:0:
352,96,319897,1,8,0:0:0:0:
160,96,320069,1,0,0:0:0:0:
352,96,320155,1,8,0:0:0:0:
352,96,320242,1,8,0:0:0:0:
160,96,320328,1,0,0:0:0:0:
160,96,320414,1,0,0:0:0:0:
352,96,320586,1,8,0:0:0:0:
160,96,321104,1,0,0:0:0:0:
352,96,321276,1,8,0:0:0:0:
160,96,321448,1,0,0:0:0:0:
160,96,321535,1,0,0:0:0:0:
352,96,321621,1,8,0:0:0:0:
352,96,321707,1,8,0:0:0:0:
160,96,321793,1,0,0:0:0:0:
352,96,321966,1,8,0:0:0:0:
160,96,322311,1,0,0:0:0:0:
160,96,322569,1,0,0:0:0:0:
352,96,322655,1,8,0:0:0:0:
160,96,322828,1,0,0:0:0:0:
352,96,322914,1,8,0:0:0:0:
352,96,323000,1,8,0:0:0:0:
160,96,323086,1,0,0:0:0:0:
160,96,323173,1,0,0:0:0:0:
352,96,323345,1,8,0:0:0:0:
160,96,323862,1,0,0:0:0:0:
352,96,324035,1,8,0:0:0:0:
160,96,324207,1,0,0:0:0:0:
160,96,324293,1,0,0:0:0:0:
352,96,324380,1,8,0:0:0:0:
352,96,324466,1,8,0:0:0:0:
160,96,324552,1,0,0:0:0:0:
352,96,324724,1,8,0:0:0:0:
160,96,324897,1,0,0:0:0:0:
352,96,324983,1,8,0:0:0:0:
160,96,325069,1,0,0:0:0:0:
352,96,325414,1,8,0:0:0:0:
160,96,325586,1,0,0:0:0:0:
160,96,325931,1,0,0:0:0:0:
352,96,326104,1,8,0:0:0:0:
160,96,326621,1,0,0:0:0:0:
352,96,326793,1,8,0:0:0:0:
160,96,327138,1,0,0:0:0:0:
160,96,327311,1,0,0:0:0:0:
352,96,327483,1,8,0:0:0:0:
160,96,327828,1,0,0:0:0:0:
352,96,328173,1,8,0:0:0:0:
160,96,328345,1,0,0:0:0:0:
160,96,328690,1,0,0:0:0:0:
352,96,328862,1,8,0:0:0:0:
160,96,329380,1,0,0:0:0:0:
352,96,329552,1,8,0:0:0:0:
160,96,329897,1,0,0:0:0:0:
160,96,330069,1,0,0:0:0:0:
352,96,330242,1,8,0:0:0:0:
160,96,330586,1,0,0:0:0:0:
352,96,330931,1,8,0:0:0:0:
160,96,331104,1,0,0:0:0:0:
160,96,331448,1,0,0:0:0:0:
352,96,331621,1,8,0:0:0:0:
160,96,332138,1,0,0:0:0:0:
352,96,332311,1,8,0:0:0:0:
160,96,332655,1,0,0:0:0:0:
160,96,332828,1,0,0:0:0:0:
352,96,333000,1,8,0:0:0:0:
160,96,333345,1,0,0:0:0:0:
352,96,333690,1,8,0:0:0:0:
160,96,333862,1,0,0:0:0:0:
160,96,334207,1,0,0:0:0:0:
352,96,334380,1,8,0:0:0:0:
160,96,334897,1,0,0:0:0:0:
352,96,335069,1,8,0:0:0:0:
160,96,335414,1,0,0:0:0:0:
160,96,335586,1,0,0:0:0:0:
352,96,335759,1,8,0:0:0:0:
160,288,336104,5,4,0:0:0:0:
