osu file format v14

[General]
AudioFilename: audio.mp3
AudioLeadIn: 0
PreviewTime: -1
Countdown: 0
SampleSet: Normal
StackLeniency: 0.7
Mode: 0
LetterboxInBreaks: 0
WidescreenStoryboard: 0

[Editor]
DistanceSpacing: 0.5
BeatDivisor: 4
GridSize: 32
TimelineZoom: 2.4

[Metadata]
Title:Key of timepieces
TitleUnicode:Key of timepieces
Artist:Camellia
ArtistUnicode:かめりあ
Creator:Bergy
Version:if key == "no": timepiece = "locked"
Source:
Tags:
BeatmapID:1228787
BeatmapSetID:580349

[Difficulty]
HPDrainRate:6
CircleSize:4
OverallDifficulty:6
ApproachRate:9.4
SliderMultiplier:2.6
SliderTickRate:1

[Events]
//Background and Video events
0,0,"60194538_p0.jpg",0,0
//Break Periods
//Storyboard Layer 0 (Background)
//Storyboard Layer 1 (Fail)
//Storyboard Layer 2 (Pass)
//Storyboard Layer 3 (Foreground)
//Storyboard Sound Samples

[TimingPoints]
24385,344.827586206897,4,1,0,30,1,0
87833,-200,4,1,0,30,0,0
90247,-76.9230769230769,4,1,0,30,0,0
90591,-76.9230769230769,4,1,0,30,0,1
91109,-66.6666666666667,4,1,0,30,0,1
91453,-142.857142857143,4,1,0,30,0,1
91798,-66.6666666666667,4,1,0,30,0,1
92143,-142.857142857143,4,1,0,30,0,1
92488,-66.6666666666667,4,1,0,30,0,1
92833,-142.857142857143,4,1,0,30,0,1
93005,-76.9230769230769,4,1,0,30,0,1
93350,-111.111111111111,4,1,0,30,0,0
93695,-66.6666666666667,4,1,0,30,0,0
93867,-142.857142857143,4,1,0,30,0,0
94385,-66.6666666666667,4,1,0,30,0,0
94557,-142.857142857143,4,1,0,30,0,0
95074,-66.6666666666667,4,1,0,30,0,0
95247,-142.857142857143,4,1,0,30,0,0
95419,-76.9230769230769,4,1,0,30,0,0
96109,-76.9230769230769,4,1,0,30,0,1
96626,-66.6666666666667,4,1,0,30,0,1
96971,-142.857142857143,4,1,0,30,0,1
97316,-66.6666666666667,4,1,0,30,0,1
97660,-142.857142857143,4,1,0,30,0,1
98005,-66.6666666666667,4,1,0,30,0,1
98350,-142.857142857143,4,1,0,30,0,1
98522,-66.6666666666667,4,1,0,30,0,1
98867,-76.9230769230769,4,1,0,30,0,0
101626,-76.9230769230769,4,1,0,30,0,1
102143,-66.6666666666667,4,1,0,30,0,1
102488,-142.857142857143,4,1,0,30,0,1
102833,-66.6666666666667,4,1,0,30,0,1
103178,-142.857142857143,4,1,0,30,0,1
103522,-66.6666666666667,4,1,0,30,0,1
103867,-142.857142857143,4,1,0,30,0,1
104040,-76.9230769230769,4,1,0,30,0,1
104385,-111.111111111111,4,1,0,30,0,0
104729,-66.6666666666667,4,1,0,30,0,0
104902,-142.857142857143,4,1,0,30,0,0
105419,-66.6666666666667,4,1,0,30,0,0
105591,-142.857142857143,4,1,0,30,0,0
106109,-66.6666666666667,4,1,0,30,0,0
106281,-142.857142857143,4,1,0,30,0,0
106453,-76.923076923077,4,1,0,30,0,0
107143,-200,4,1,0,30,0,0
107660,-66.6666666666667,4,1,0,30,0,1
108178,-111.111111111111,4,1,0,30,0,0
108695,-66.6666666666667,4,1,0,30,0,1
109212,-58.8235294117647,4,1,0,30,0,1
109385,-142.857142857143,4,1,0,30,0,0
109557,-111.111111111111,4,1,0,30,0,0
109902,-142.857142857143,4,1,0,30,0,0
110419,-66.6666666666667,4,1,0,30,0,1
110936,-111.111111111111,4,1,0,30,0,0
111453,-90.9090909090909,4,1,0,30,0,0
112143,-58.8235294117647,4,1,0,30,0,1
112660,-76.9230769230769,4,1,0,30,0,1
113178,-66.6666666666667,4,1,0,30,0,1
113522,-142.857142857143,4,1,0,30,0,1
113867,-66.6666666666667,4,1,0,30,0,1
114212,-142.857142857143,4,1,0,30,0,1
114557,-66.6666666666667,4,1,0,30,0,1
114902,-142.857142857143,4,1,0,30,0,1
115074,-76.9230769230769,4,1,0,30,0,1
115419,-111.111111111111,4,1,0,30,0,0
115764,-66.6666666666667,4,1,0,30,0,0
115936,-142.857142857143,4,1,0,30,0,0
116453,-66.6666666666667,4,1,0,30,0,0
116626,-142.857142857143,4,1,0,30,0,0
117143,-66.6666666666667,4,1,0,30,0,0
117316,-142.857142857143,4,1,0,30,0,0
117488,-76.9230769230769,4,1,0,30,0,0
118178,-76.9230769230769,4,1,0,30,0,1
118695,-66.6666666666667,4,1,0,30,0,1
119040,-142.857142857143,4,1,0,30,0,1
119385,-66.6666666666667,4,1,0,30,0,1
119729,-142.857142857143,4,1,0,30,0,1
120074,-66.6666666666667,4,1,0,30,0,1
120419,-142.857142857143,4,1,0,30,0,1
120591,-66.6666666666667,4,1,0,30,0,1
120936,-76.9230769230769,4,1,0,30,0,0
123695,-76.9230769230769,4,1,0,30,0,1
124212,-66.6666666666667,4,1,0,30,0,1
124557,-142.857142857143,4,1,0,30,0,1
124902,-66.6666666666667,4,1,0,30,0,1
125247,-142.857142857143,4,1,0,30,0,1
125591,-66.6666666666667,4,1,0,30,0,1
125936,-142.857142857143,4,1,0,30,0,1
126109,-76.9230769230769,4,1,0,30,0,1
126454,-111.111111111111,4,1,0,30,0,0
126798,-66.6666666666667,4,1,0,30,0,0
126971,-142.857142857143,4,1,0,30,0,0
127488,-66.6666666666667,4,1,0,30,0,0
127660,-142.857142857143,4,1,0,30,0,0
128178,-66.6666666666667,4,1,0,30,0,0
128350,-142.857142857143,4,1,0,30,0,0
128522,-76.923076923077,4,1,0,30,0,0
129212,-76.9230769230769,4,1,0,30,0,1
129557,-100,4,1,0,30,0,1
130591,-50,4,1,0,30,0,1
130936,-83.3333333333333,4,1,0,30,0,1
131971,-111.111111111111,4,1,0,30,0,1
132143,-66.6666666666667,4,1,0,30,0,1
132660,-90.9090909090909,4,1,0,30,0,1
133005,-58.8235294117647,4,1,0,30,0,1
133350,-66.6666666666667,4,1,0,30,0,1
133695,-52.6315789473684,4,1,0,30,0,1
134040,-50,4,1,0,30,0,1
134729,-133.333333333333,4,1,0,30,0,0
156798,-76.9230769230769,4,1,0,30,0,0
157833,-90.9090909090909,4,1,0,30,0,0
158436,-76.9230769230769,4,1,0,30,0,0
159212,-66.6666666666667,4,1,0,30,0,0
159557,-76.9230769230769,4,1,0,30,0,0
160591,-66.6666666666667,4,1,0,30,0,0

[Colours]
Combo1 : 212,212,212
Combo2 : 123,215,213
Combo3 : 170,170,170
Combo4 : 55,154,159

[HitObjects]
345,41,87833,6,0,B|376:90|345:146|345:146|365:194|365:194|360:235|326:251|326:251|214:307|230:195|95:262|95:262|166:167|153:77|56:31|56:31|96:61|98:118,1,845
7,349,90247,5,0,0:0:0:0:
49,321,90333,1,0,0:0:0:0:
82,346,90419,5,0,0:0:0:0:
120,360,90505,1,0,0:0:0:0:
158,343,90591,6,0,B|231:319|325:346|325:346|291:327|277:282,1,253.499988395692
371,264,90936,1,0,0:0:0:0:
246,58,91109,6,0,L|132:43,1,97.50000371933
133,61,91281,2,0,L|230:74,1,97.50000371933
295,175,91453,6,0,L|356:163,1,45.4999986114502
483,103,91626,1,0,0:0:0:0:
217,147,91798,6,0,P|212:194|237:235,1,97.50000371933
251,259,91971,2,0,P|213:229|201:183,1,97.50000371933
432,250,92143,6,0,L|360:233,1,45.4999986114502
175,321,92316,1,0,0:0:0:0:
370,28,92488,6,0,B|365:63|365:63|371:81|371:81|365:123,1,97.50000371933
346,140,92660,2,0,B|352:89|352:89|346:71|346:71|350:35,1,97.50000371933
223,197,92833,6,0,P|217:168|225:145,1,45.4999986114502
175,322,93005,6,0,B|117:342|24:316|24:316|-9:305|32:271|84:283,1,253.499988395691
183,330,93350,6,0,B|222:314|287:333|287:333|310:340|281:364|244:356,1,175.499994644165
85,283,93695,6,0,L|80:178,1,97.50000371933
258,71,93867,6,0,L|255:124,1,45.4999986114502
274,55,94040,2,0,L|257:106,1,45.4999986114502
293,43,94212,1,0,0:0:0:0:
208,307,94385,6,0,L|212:201,1,97.50000371933
357,123,94557,6,0,L|349:176,1,45.4999986114502
374,108,94729,2,0,L|353:157,1,45.4999986114502
394,98,94902,1,0,0:0:0:0:
288,353,95074,6,0,L|301:248,1,97.50000371933
452,182,95247,2,0,L|440:234,1,45.4999986114502
233,229,95419,5,0,0:0:0:0:
162,182,95505,1,0,0:0:0:0:
184,101,95591,1,0,0:0:0:0:
268,96,95678,1,0,0:0:0:0:
298,175,95764,5,0,0:0:0:0:
264,201,95850,1,0,0:0:0:0:
229,178,95936,1,0,0:0:0:0:
240,137,96023,1,0,0:0:0:0:
282,135,96109,6,0,B|317:155|401:153|444:116|444:116|405:131|361:110,1,253.499988395692
411,28,96453,1,0,0:0:0:0:
328,224,96626,6,0,L|450:234,1,97.50000371933
441,247,96798,2,0,L|343:239,1,97.50000371933
496,86,96971,6,0,L|496:169,1,45.4999986114502
507,324,97143,1,0,0:0:0:0:
304,232,97316,6,0,P|276:193|277:145,1,97.50000371933
273,124,97489,2,0,P|255:167|268:213,1,97.50000371933
391,14,97660,6,0,P|400:47|397:78,1,45.4999986114502
409,247,97833,1,0,0:0:0:0:
273,124,98005,6,0,B|224:118|224:118|177:132,1,97.50000371933
157,121,98178,2,0,B|221:103|221:103|266:109,1,97.50000371933
337,297,98350,6,0,L|253:284,1,45.4999986114502
290,9,98522,6,0,P|350:63|315:188,1,195.00000743866
4,28,98867,6,0,B|13:198|13:198|28:156|66:137,1,253.499988395691
143,76,99212,1,0,0:0:0:0:
153,93,99298,2,0,L|149:185,1,84.4999961318971
116,379,99471,1,0,0:0:0:0:
126,362,99557,2,0,L|122:269,1,84.4999961318971
258,68,99729,5,0,0:0:0:0:
248,85,99815,2,0,L|251:177,1,84.4999961318971
285,371,99988,1,0,0:0:0:0:
275,354,100074,2,0,L|278:261,1,84.4999961318971
482,246,100247,5,0,0:0:0:0:
465,256,100333,2,0,L|372:252,1,84.4999961318971
153,172,100505,1,0,0:0:0:0:
170,162,100591,2,0,L|262:165,1,84.4999961318971
440,354,100764,5,0,0:0:0:0:
423,364,100850,2,0,L|330:360,1,84.4999961318971
111,280,101022,1,0,0:0:0:0:
128,270,101108,2,0,L|220:273,1,84.4999961318971
80,370,101281,5,0,0:0:0:0:
27,323,101367,1,0,0:0:0:0:
21,253,101453,1,0,0:0:0:0:
62,197,101539,1,0,0:0:0:0:
132,183,101626,6,0,B|174:149|224:163|224:163|273:233|394:217,1,253.499988395691
446,154,101971,1,0,0:0:0:0:
132,183,102143,6,0,P|195:159|236:167,1,97.50000371933
252,168,102316,2,0,P|206:148|159:156,1,97.50000371933
223,332,102488,6,0,L|216:271,1,45.4999986114502
189,57,102660,1,0,0:0:0:0:
337,246,102833,6,0,L|346:128,1,97.50000371933
360,132,103005,2,0,L|353:230,1,97.50000371933
420,320,103178,6,0,L|425:260,1,45.4999986114502
443,54,103350,1,0,0:0:0:0:
276,160,103522,6,0,B|254:146|228:147|228:147|205:164|184:162,1,97.50000371933
177,152,103695,2,0,B|197:152|219:133|219:133|245:129|268:141,1,97.50000371933
436,128,103867,6,0,P|413:122|372:130,1,45.4999986114502
98,97,104040,2,0,P|96:215|211:243,1,253.499988395691
106,89,104385,6,0,B|157:83|182:117|182:117|205:71|246:58,1,175.499994644165
395,28,104729,6,0,P|415:64|410:139,1,97.50000371933
428,317,104902,2,0,P|411:289|412:265,1,45.4999986114502
420,331,105074,2,0,P|403:303|404:279,1,45.4999986114502
412,346,105247,1,0,0:0:0:0:
328,64,105419,6,0,P|341:102|323:176,1,97.50000371933
310,354,105592,2,0,P|298:323|303:300,1,45.4999986114502
300,366,105764,2,0,P|288:335|293:312,1,45.4999986114502
289,380,105937,1,0,0:0:0:0:
254,86,106109,6,0,P|260:126|230:196,1,97.50000371933
185,368,106282,2,0,P|178:336|187:314,1,45.4999986114502
45,138,106453,1,0,0:0:0:0:
120,132,106539,1,0,0:0:0:0:
196,127,106625,1,0,0:0:0:0:
272,122,106711,1,0,0:0:0:0:
350,172,106797,5,0,0:0:0:0:
307,170,106884,1,0,0:0:0:0:
265,168,106970,1,0,0:0:0:0:
223,167,107056,1,0,0:0:0:0:
195,189,107143,6,0,B|177:237|193:296|193:296|209:258,1,130
512,307,107660,2,0,L|382:299,1,97.50000371933
104,282,107833,2,0,L|234:274,1,97.50000371933
472,384,108005,2,0,L|342:376,1,97.50000371933
132,211,108178,6,0,P|231:186|275:337,1,292.499991073609
169,349,108695,6,0,L|299:341,1,97.50000371933
496,255,108867,2,0,L|366:247,1,97.50000371933
132,211,109040,2,0,L|262:203,1,97.50000371933
423,46,109212,6,0,B|438:94|438:94|425:174,1,110.50000210762
352,376,109385,6,0,L|342:300,1,45.4999986114502
318,67,109557,2,0,B|318:112|273:138|273:138|313:167|308:216,1,175.499994644165
95,210,109902,6,0,B|163:194|163:194|231:205,1,136.499995834351
52,308,110419,6,0,B|102:316|102:316|169:306,1,97.50000371933
391,163,110591,2,0,B|351:194|351:194|288:219,1,97.50000371933
3,153,110764,2,0,B|42:184|42:184|105:209,1,97.50000371933
284,360,110936,6,0,P|301:283|188:151,1,233.999992858887
216,10,111453,6,0,L|210:157,1,143.000004364014
378,84,111712,2,0,P|301:64|224:103,1,143.000004364014
416,180,111971,1,0,0:0:0:0:
159,300,112143,6,0,B|261:243|261:370|394:300,1,221.000004215241
167,308,112402,2,0,P|273:235|192:139,1,221.000004215241
241,157,112660,6,0,B|333:207|395:123|395:123|299:85,1,253.499988395691
240,70,113005,1,0,0:0:0:0:
143,175,113178,6,0,L|148:293,1,97.50000371933
163,288,113350,2,0,L|158:170,1,97.50000371933
84,23,113522,6,0,L|84:95,1,45.4999986114502
32,285,113695,1,0,0:0:0:0:
230,154,113867,6,0,P|267:138|336:152,1,97.50000371933
354,152,114040,2,0,P|311:128|263:129,1,97.50000371933
114,184,114212,2,0,P|147:190|194:182,1,45.4999986114502
386,65,114385,1,0,0:0:0:0:
391,328,114557,6,0,B|373:284|373:284|377:221,1,97.50000371933
391,217,114729,2,0,B|388:283|388:283|406:327,1,97.50000371933
506,383,114902,6,0,B|508:362|508:362|503:332,1,45.4999986114502
386,65,115074,6,0,B|276:40|192:59|192:59|155:83|265:91,1,253.499988395691
394,73,115419,6,0,B|495:84|495:84|448:72|411:17,1,175.499994644165
336,0,115764,6,0,B|314:45|314:45|308:113,1,97.50000371933
341,243,115936,2,0,B|348:220|348:220|351:184,1,45.4999986114502
352,263,116109,2,0,B|359:240|359:240|362:204,1,45.4999986114502
363,282,116281,1,0,0:0:0:0:
198,49,116453,6,0,B|184:97|184:97|190:165,1,97.50000371933
245,287,116626,2,0,B|248:263|248:263|245:227,1,45.4999986114502
259,305,116798,2,0,B|262:281|262:281|259:245,1,45.4999986114502
273,322,116970,1,0,0:0:0:0:
103,131,117143,6,0,B|98:180|98:180|116:247,1,97.50000371933
190,357,117316,2,0,B|188:333|188:333|179:298,1,45.4999986114502
18,79,117488,1,0,0:0:0:0:
7,160,117574,1,0,0:0:0:0:
60,222,117660,1,0,0:0:0:0:
142,225,117746,1,0,0:0:0:0:
198,165,117832,5,0,0:0:0:0:
157,160,117919,1,0,0:0:0:0:
119,178,118005,1,0,0:0:0:0:
96,213,118091,1,0,0:0:0:0:
95,255,118178,6,0,P|158:272|268:127,1,253.499988395691
253,59,118522,1,0,0:0:0:0:
387,141,118695,6,0,L|396:255,1,97.50000371933
410,254,118867,2,0,L|401:140,1,97.50000371933
255,13,119040,6,0,L|251:90,1,45.4999986114502
244,236,119212,1,0,0:0:0:0:
387,141,119385,6,0,P|420:122|502:120,1,97.50000371933
512,111,119557,2,0,P|464:102|417:112,1,97.50000371933
217,115,119729,6,0,P|254:117|294:132,1,45.4999986114502
474,284,119902,1,0,0:0:0:0:
249,331,120074,6,0,B|236:284|236:284|245:222,1,97.50000371933
229,231,120247,6,0,B|220:278|220:278|234:339,1,97.50000371933
397,374,120419,2,0,B|383:353|383:353|356:335,1,45.4999986114502
111,260,120591,2,0,B|87:273|67:311|67:311|95:237|92:155,1,195.00000743866
42,17,120936,6,0,P|55:116|209:87,1,253.499988395691
241,58,121281,1,0,0:0:0:0:
267,36,121367,2,0,P|298:27|361:49,1,84.4999961318971
253,204,121540,1,0,0:0:0:0:
227,226,121626,2,0,P|196:235|133:213,1,84.4999961318971
314,131,121798,5,0,0:0:0:0:
336,157,121884,2,0,P|345:188|323:251,1,84.4999961318971
180,143,122057,1,0,0:0:0:0:
158,117,122143,2,0,P|149:86|171:23,1,84.4999961318971
180,296,122316,5,0,0:0:0:0:
156,320,122402,2,0,L|43:323,1,84.4999961318971
314,131,122574,1,0,0:0:0:0:
338,107,122660,2,0,L|451:104,1,84.4999961318971
158,117,122833,5,0,0:0:0:0:
134,93,122919,2,0,L|131:-20,1,84.4999961318971
333,237,123091,1,0,0:0:0:0:
357,261,123177,2,0,L|360:374,1,84.4999961318971
70,191,123350,5,0,0:0:0:0:
137,183,123436,1,0,0:0:0:0:
204,175,123522,1,0,0:0:0:0:
271,168,123608,1,0,0:0:0:0:
338,160,123695,6,0,B|389:94|389:94|352:285,1,253.499988395691
274,252,124040,1,0,0:0:0:0:
389,94,124212,6,0,L|261:84,1,97.50000371933
275,70,124385,2,0,L|372:77,1,97.50000371933
511,193,124557,6,0,L|437:197,1,45.4999986114502
274,252,124729,1,0,0:0:0:0:
192,37,124902,6,0,P|178:78|182:143,1,97.50000371933
178,169,125074,2,0,P|163:122|166:74,1,97.50000371933
314,1,125247,2,0,P|330:34|327:84,1,45.4999986114502
417,197,125419,1,0,0:0:0:0:
178,169,125591,6,0,B|221:154|221:154|279:158,1,97.50000371933
297,174,125764,2,0,B|226:169|226:169|183:184,1,97.50000371933
77,264,125936,2,0,B|99:250|99:250|139:239,1,45.4999986114502
267,353,126109,6,0,B|88:361|88:361|186:294,1,253.499988395691
275,361,126453,6,0,B|369:413|425:336|425:336|327:278,1,253.499988395691
277,278,126798,6,0,P|260:227|221:183,1,97.50000371933
228,30,126971,2,0,P|235:67|249:89,1,45.4999986114502
243,17,127143,2,0,P|240:55|248:80,1,45.4999986114502
261,10,127316,1,0,0:0:0:0:
139,338,127488,6,0,P|131:285|101:235,1,97.50000371933
134,85,127661,2,0,P|134:123|144:147,1,45.4999986114502
151,75,127833,2,0,P|142:112|145:138,1,45.4999986114502
170,71,128006,1,0,0:0:0:0:
12,359,128178,6,0,P|13:305|-7:251,1,97.50000371933
51,108,128351,2,0,P|45:145|50:171,1,45.4999986114502
90,253,128522,5,0,0:0:0:0:
157,248,128608,1,0,0:0:0:0:
224,243,128694,1,0,0:0:0:0:
292,239,128780,1,0,0:0:0:0:
359,234,128867,5,0,0:0:0:0:
319,225,128953,1,0,0:0:0:0:
279,239,129039,1,0,0:0:0:0:
254,272,129125,1,0,0:0:0:0:
250,313,129212,6,0,B|403:335|403:335|479:271,1,253.499988395691
492,248,129557,1,0,0:0:0:0:
240,135,129729,6,0,L|334:129,1,65
512,89,129902,2,0,L|418:83,1,65
195,62,130074,2,0,L|289:56,1,65
508,10,130247,1,0,0:0:0:0:
400,246,130419,2,0,L|400:163,1,65
205,155,130591,6,0,P|256:299|282:167,1,390
233,227,130936,2,0,B|218:264|218:264|216:335,1,77.999997619629
398,344,131109,2,0,B|373:312|373:312|312:275,1,77.999997619629
72,365,131281,2,0,B|111:359|111:359|174:325,1,77.999997619629
221,79,131453,5,0,0:0:0:0:
221,79,131540,1,0,0:0:0:0:
221,79,131626,2,0,B|206:116|206:116|204:187,1,77.999997619629
324,367,131798,2,0,B|339:330|339:330|341:259,1,77.999997619629
96,226,131971,6,0,L|198:223,1,58.4999982147217
326,66,132143,2,0,L|347:183,1,97.50000371933
359,177,132316,2,0,L|376:81,1,97.50000371933
392,66,132488,2,0,L|409:161,1,97.50000371933
393,289,132660,6,0,P|336:247|228:247,1,143.000004364014
62,283,132919,1,0,0:0:0:0:
62,283,133005,2,0,B|97:334|165:334|211:284|211:284|177:299|133:290,1,221.000004215241
150,24,133350,6,0,L|153:145,1,97.50000371933
164,293,133522,1,0,0:0:0:0:
408,106,133695,6,0,P|359:79|274:83,1,123.499996702194
37,150,133867,2,0,P|86:123|171:127,1,123.499996702194
336,319,134040,2,0,B|205:393|14:295|51:38|202:-28|391:-5|457:160|336:319|220:172,1,780
4,9,134729,5,0,0:0:0:0:
