osu file format v14

[General]
AudioFilename: K.Y.A.F.A..mp3
AudioLeadIn: 0
PreviewTime: 53377
Countdown: 0
SampleSet: Normal
StackLeniency: 0.7
Mode: 1
LetterboxInBreaks: 0
WidescreenStoryboard: 1

[Editor]
Bookmarks: 36059,87908,96090,171358,175996,184177,193177,197268,201359,212796,244995,247450,256450,275063,275268,275813,276086,276359,279904,280177
DistanceSpacing: 0.8
BeatDivisor: 6
GridSize: 32
TimelineZoom: 8

[Metadata]
Title:K.Y.A.F.A.
TitleUnicode:K.Y.A.F.A.
Artist:Camellia
ArtistUnicode:かめりあ
Creator:un-plugged
Version:score v2 friendly
Source:
Tags:kyafa paraqueloencuentresmasfacildenada
BeatmapID:1856621
BeatmapSetID:885702

[Difficulty]
HPDrainRate:4
CircleSize:5
OverallDifficulty:6
ApproachRate:5
SliderMultiplier:1.4
SliderTickRate:1

[Events]
//Background and Video events
0,0,"BG.jpg",0,0
//Break Periods
//Storyboard Layer 0 (Background)
//Storyboard Layer 1 (Fail)
//Storyboard Layer 2 (Pass)
//Storyboard Layer 3 (Foreground)
//Storyboard Sound Samples

[TimingPoints]
1150,272.727272727273,4,1,1,100,1,8
16422,-95.2380952380952,4,1,1,100,0,0
16490,-90.9090909090909,4,1,1,100,0,0
16559,-86.9565217391304,4,1,1,100,0,0
16627,-83.3333333333333,4,1,1,100,0,0
16695,-80,4,1,1,100,0,0
16831,-76.9230769230769,4,1,1,100,0,0
16900,-74.0740740740741,4,1,1,100,0,0
16968,-71.4285714285714,4,1,1,100,0,0
17036,-68.9655172413793,4,1,1,100,0,0
17104,-66.6666666666667,4,1,1,100,0,0
17240,-64.5161290322581,4,1,1,100,0,0
17309,-62.5,4,1,1,100,0,0
17377,-60.6060606060606,4,1,1,100,0,0
17445,-58.8235294117647,4,1,1,100,0,0
17513,-60.6060606060606,4,1,1,100,0,0
17559,-62.5,4,1,1,100,0,0
17604,-64.5161290322581,4,1,1,100,0,0
17650,-66.6666666666667,4,1,1,100,0,0
17786,-68.9655172413793,4,1,1,100,0,0
17831,-71.4285714285714,4,1,1,100,0,0
17877,-74.0740740740741,4,1,1,100,0,0
17922,-76.9230769230769,4,1,1,100,0,0
18059,-80,4,1,1,100,0,0
18150,-83.3333333333333,4,1,1,100,0,0
18240,-86.9565217391304,4,1,1,100,0,0
18331,-90.9090909090909,4,1,1,100,0,0
18422,-95.2380952380952,4,1,1,100,0,0
18513,-100,4,1,1,100,0,0
18604,-105.263157894737,4,1,1,100,0,0
18877,-100,4,1,1,100,0,0
19013,-90.9090909090909,4,1,1,100,0,0
19150,-83.3333333333333,4,1,1,100,0,0
19422,-76.9230769230769,4,1,1,100,0,0
19695,-71.4285714285714,4,1,1,100,0,0
19831,-66.6666666666667,4,1,1,100,0,0
19968,-71.4285714285714,4,1,1,100,0,0
20036,-76.9230769230769,4,1,1,100,0,0
20104,-83.3333333333333,4,1,1,100,0,0
20240,-90.9090909090909,4,1,1,100,0,0
20377,-100,4,1,1,100,0,0
20513,-90.9090909090908,4,1,1,100,0,0
20786,-83.3333333333333,4,1,1,100,0,0
21059,-76.923076923077,4,1,1,100,0,0
21195,-71.4285714285715,4,1,1,100,0,0
21331,-66.6666666666667,4,1,1,100,0,0
21604,-71.4285714285715,4,1,1,100,0,0
21740,-76.923076923077,4,1,1,100,0,0
21877,-83.3333333333333,4,1,1,100,0,0
22013,-90.9090909090908,4,1,1,100,0,0
22150,-100,4,1,1,100,0,0
22218,-90.9090909090909,4,1,1,100,0,0
22286,-83.3333333333333,4,1,1,100,0,0
22422,-76.9230769230769,4,1,1,100,0,0
22627,-71.4285714285714,4,1,1,100,0,0
22831,-66.6666666666667,4,1,1,100,0,0
22968,-71.4285714285714,4,1,1,100,0,0
23240,-76.9230769230769,4,1,1,100,0,0
23377,-83.3333333333333,4,1,1,100,0,0
23513,-90.9090909090909,4,1,1,100,0,0
23786,-100,4,1,1,100,0,0
24059,-90.9090909090908,4,1,1,100,0,0
24195,-83.3333333333333,4,1,1,100,0,0
24331,-76.923076923077,4,1,1,100,0,0
24400,-71.4285714285715,4,1,1,100,0,0
24468,-66.6666666666667,4,1,1,100,0,0
24604,-71.4285714285715,4,1,1,100,0,0
24740,-76.923076923077,4,1,1,100,0,0
24877,-83.3333333333333,4,1,1,100,0,0
25013,-90.9090909090908,4,1,1,100,0,0
25150,-100,4,1,1,100,0,0
25422,-90.9090909090909,4,1,1,100,0,0
25559,-83.3333333333333,4,1,1,100,0,0
25695,-76.9230769230769,4,1,1,100,0,0
25968,-71.4285714285714,4,1,1,100,0,0
26104,-66.6666666666667,4,1,1,100,0,0
26240,-71.4285714285714,4,1,1,100,0,0
26377,-76.9230769230769,4,1,1,100,0,0
26513,-83.3333333333333,4,1,1,100,0,0
26581,-90.9090909090909,4,1,1,100,0,0
26650,-100,4,1,1,100,0,0
26786,-90.9090909090908,4,1,1,100,0,0
26968,-83.3333333333333,4,1,1,100,0,0
27150,-76.923076923077,4,1,1,100,0,0
27331,-71.4285714285715,4,1,1,100,0,0
27604,-66.6666666666667,4,1,1,100,0,0
27740,-71.4285714285715,4,1,1,100,0,0
27877,-76.923076923077,4,1,1,100,0,0
28150,-83.3333333333333,4,1,1,100,0,0
28286,-90.9090909090908,4,1,1,100,0,0
28422,-100,4,1,1,100,0,0
28559,-90.9090909090909,4,1,1,100,0,0
28695,-83.3333333333333,4,1,1,100,0,0
28763,-76.9230769230769,4,1,1,100,0,0
28831,-71.4285714285714,4,1,1,100,0,0
28968,-66.6666666666667,4,1,1,100,0,0
29104,-71.4285714285714,4,1,1,100,0,0
29240,-76.9230769230769,4,1,1,100,0,0
29513,-83.3333333333333,4,1,1,100,0,0
29786,-90.9090909090909,4,1,1,100,0,0
29922,-100,4,1,1,100,0,0
30059,-90.9090909090908,4,1,1,100,0,0
30331,-83.3333333333333,4,1,1,100,0,0
30604,-76.923076923077,4,1,1,100,0,0
30740,-71.4285714285715,4,1,1,100,0,0
30877,-66.6666666666667,4,1,1,100,0,0
30945,-71.4285714285715,4,1,1,100,0,0
31013,-76.923076923077,4,1,1,100,0,0
31150,-83.3333333333333,4,1,1,100,0,0
31354,-90.9090909090908,4,1,1,100,0,0
31513,-100,4,1,1,100,0,0
31695,-90.9090909090909,4,1,1,100,0,0
31968,-83.3333333333333,4,1,1,100,0,0
32104,-76.9230769230769,4,1,1,100,0,0
32240,-71.4285714285714,4,1,1,100,0,0
32513,-66.6666666666667,4,1,1,100,0,0
32650,-71.4285714285714,4,1,1,100,0,0
32786,-76.9230769230769,4,1,1,100,0,0
32922,-83.3333333333333,4,1,1,100,0,0
33059,-90.9090909090909,4,1,1,100,0,0
33195,-100,4,1,1,100,0,0
33331,-90.9090909090908,4,1,1,100,0,0
33468,-83.3333333333333,4,1,1,100,0,0
33604,-76.923076923077,4,1,1,100,0,0
33740,-71.4285714285715,4,1,1,100,0,0
36059,-70.4225352112676,4,1,1,100,0,0
38240,-69.4444444444444,4,1,1,100,0,0
40422,-68.4931506849315,4,1,1,100,0,0
42604,-67.5675675675676,4,1,1,100,0,0
44786,-66.6666666666667,4,1,1,100,0,0
45877,-65.7894736842105,4,1,1,100,0,0
46968,-64.9350649350649,4,1,1,100,0,0
48059,-64.1025641025641,4,1,1,100,0,0
49150,-63.2911392405063,4,1,1,100,0,0
49422,-62.5,4,1,1,100,0,0
49695,-61.7283950617284,4,1,1,100,0,0
49968,-60.9756097560976,4,1,1,100,0,0
50240,-60.2409638554217,4,1,1,100,0,0
50513,-59.5238095238095,4,1,1,100,0,0
50786,-58.8235294117647,4,1,1,100,0,0
51059,-58.1395348837209,4,1,1,100,0,0
51331,-57.4712643678161,4,1,1,100,0,0
51400,-56.8181818181818,4,1,1,100,0,0
51468,-56.1797752808989,4,1,1,100,0,0
51536,-55.5555555555556,4,1,1,100,0,0
51604,-54.9450549450549,4,1,1,100,0,0
51672,-54.3478260869565,4,1,1,100,0,0
51740,-53.763440860215,4,1,1,100,0,0
51809,-53.1914893617021,4,1,1,100,0,0
51877,-52.6315789473684,4,1,1,100,0,0
51945,-51.5463917525773,4,1,1,100,0,0
52013,-50.5050505050505,4,1,1,100,0,0
52081,-49.5049504950495,4,1,1,100,0,0
52150,-48.5436893203883,4,1,1,100,0,0
52218,-47.6190476190476,4,1,1,100,0,0
52286,-46.7289719626168,4,1,1,100,0,0
52354,-45.8715596330275,4,1,1,100,0,0
52422,-45.045045045045,4,1,1,100,0,0
52423,0.27000027000027,4,1,1,100,1,0
52423,-10000000000,4,1,1,100,0,0
52557,0.135000135000135,4,1,1,100,1,0
52557,-10000000000,4,1,1,100,0,0
52694,0.860881542699725,4,1,1,100,1,0
52694,-10000000000,4,1,1,100,0,0
52830,0.27000027000027,4,1,1,100,1,0
52830,-10000000000,4,1,1,100,0,0
52966,0.135000135000135,4,1,1,100,1,0
52966,-10000000000,4,1,1,100,0,0
53138,272.727272727273,4,1,1,100,1,8
53138,-66.6666666666667,4,1,1,100,0,8
53547,272.727272727273,4,1,1,100,1,8
53547,-83.3333333333333,4,1,1,100,0,1
55456,272.727272727273,4,1,1,100,1,9
55456,-83.3333333333333,4,1,1,100,0,1
55457,-1E-15,4,1,1,100,0,1
55728,272.727272727273,4,1,1,100,1,9
55728,-83.3333333333333,4,1,1,100,0,1
57331,-90.9090909090909,4,1,1,100,0,1
57513,-100,4,1,1,100,0,1
57695,-111.111111111111,4,1,1,100,0,1
57909,-83.3333333333333,4,1,1,100,0,1
62274,0.54000054000054,4,1,0,100,1,0
62274,-10000000000000,4,1,0,100,0,0
62315,0.27000027000027,4,1,0,100,1,0
62315,-10000000000000,4,1,0,100,0,0
62361,0.18000018000018,4,1,0,100,1,0
62361,-10000000000000,4,1,0,100,0,0
62406,0.135000135000135,4,1,0,100,1,0
62406,-10000000000000,4,1,0,100,0,0
62452,0.108000108000108,4,1,0,100,1,0
62452,-10000000000000,4,1,0,100,0,0
62497,0.09000009000009,4,1,0,100,1,0
62497,-10000000000000,4,1,0,100,0,0
62546,272.727272727273,4,1,1,100,1,9
62546,-83.3333333333333,4,1,1,100,0,1
64182,-1E-15,4,1,1,100,0,1
64455,-83.3333333333333,4,1,1,100,0,1
66091,-90.9090909090909,4,1,1,100,0,1
66227,-100,4,1,1,100,0,1
66432,-111.111111111111,4,1,1,100,0,1
66636,-81.9672131147541,4,1,1,100,0,1
67182,-80.6451612903226,4,1,1,100,0,1
67727,-79.3650793650794,4,1,1,100,0,1
68272,-78.125,4,1,1,100,0,1
68818,-76.9230769230769,4,1,1,100,0,1
68886,-74.0740740740741,4,1,1,100,0,1
68954,-71.4285714285714,4,1,1,100,0,1
69022,-68.9655172413793,4,1,1,100,0,1
69091,-66.6666666666667,4,1,1,100,0,1
69159,-64.5161290322581,4,1,1,100,0,1
69227,-62.5,4,1,1,100,0,1
69295,-60.6060606060606,4,1,1,100,0,1
69363,-58.8235294117647,4,1,1,100,0,1
69432,-57.1428571428571,4,1,1,100,0,1
69500,-55.5555555555556,4,1,1,100,0,1
69568,-54.054054054054,4,1,1,100,0,1
69636,-52.6315789473684,4,1,1,100,0,1
69704,-51.2820512820513,4,1,1,100,0,1
69772,-50,4,1,1,100,0,1
69841,-48.780487804878,4,1,1,100,0,1
69909,-47.6190476190476,4,1,1,100,0,1
69977,-46.5116279069767,4,1,1,100,0,1
70045,-45.4545454545455,4,1,1,100,0,1
70113,-44.4444444444445,4,1,1,100,0,1
70182,-43.4782608695652,4,1,1,100,0,1
70250,-42.5531914893617,4,1,1,100,0,1
70318,-41.6666666666667,4,1,1,100,0,1
70386,-40.8163265306122,4,1,1,100,0,1
70454,-40,4,1,1,100,0,1
70522,-39.2156862745098,4,1,1,100,0,1
70591,-38.4615384615385,4,1,1,100,0,1
70659,-37.7358490566038,4,1,1,100,0,1
71000,272.727272727273,4,1,1,100,1,8
71000,-66.6666666666667,4,1,1,100,0,8
71136,-67.5675675675676,4,1,1,100,0,8
71272,-68.4931506849315,4,1,1,100,0,8
71409,-69.4444444444444,4,1,1,100,0,8
71545,-70.4225352112676,4,1,1,100,0,8
71681,-71.4285714285714,4,1,1,100,0,8
71727,-72.463768115942,4,1,1,100,0,8
71772,-73.5294117647059,4,1,1,100,0,8
71818,-75.7575757575758,4,1,1,100,0,8
71954,-76.9230769230769,4,1,1,100,0,8
72022,-78.125,4,1,1,100,0,8
72090,-79.3650793650794,4,1,1,100,0,8
72227,-80.6451612903226,4,1,1,100,0,8
72272,-81.9672131147541,4,1,1,100,0,8
72318,-83.3333333333333,4,1,1,100,0,8
72363,-84.7457627118644,4,1,1,100,0,8
72431,-86.2068965517241,4,1,1,100,0,8
72500,-87.719298245614,4,1,1,100,0,8
72636,-89.2857142857143,4,1,1,100,0,8
72772,-90.9090909090909,4,1,1,100,0,8
72818,-92.5925925925926,4,1,1,100,0,8
72863,-94.3396226415094,4,1,1,100,0,8
72909,-96.1538461538461,4,1,1,100,0,8
73045,-98.0392156862745,4,1,1,100,0,8
73113,-99.009900990099,4,1,1,100,0,8
73181,-100,4,1,1,100,0,8
73318,-100,4,1,1,100,0,8
73363,-100,4,1,1,100,0,8
73409,-100,4,1,1,100,0,8
73454,-100,4,1,1,100,0,8
73590,-100,4,1,1,100,0,8
73659,-100,4,1,1,100,0,8
73727,-100,4,1,1,100,0,8
73863,-100,4,1,1,100,0,8
73909,-100,4,1,1,100,0,8
73954,-100,4,1,1,100,0,8
74000,-100,4,1,1,100,0,8
74136,-100,4,1,1,100,0,8
74272,-90.9090909090909,4,1,1,100,0,0
74318,-83.3333333333333,4,1,1,100,0,0
74363,-76.9230769230769,4,1,1,100,0,0
74409,-71.4285714285714,4,1,1,100,0,0
74454,-66.6666666666667,4,1,1,100,0,0
74500,-62.5,4,1,1,100,0,0
74545,-58.8235294117647,4,1,1,100,0,0
75500,-62.5,4,1,1,100,0,0
75636,-66.6666666666667,4,1,1,100,0,0
75772,-67.5675675675676,4,1,1,100,0,0
75909,-68.4931506849315,4,1,1,100,0,0
76045,-69.4444444444444,4,1,1,100,0,0
76090,-70.4225352112676,4,1,1,100,0,0
76136,-71.4285714285714,4,1,1,100,0,0
76181,-72.463768115942,4,1,1,100,0,0
76318,-73.5294117647059,4,1,1,100,0,0
76386,-74.6268656716418,4,1,1,100,0,0
76454,-75.7575757575758,4,1,1,100,0,0
76590,-76.9230769230769,4,1,1,100,0,0
76636,-78.125,4,1,1,100,0,0
76681,-79.3650793650794,4,1,1,100,0,0
76727,-80.6451612903226,4,1,1,100,0,0
76795,-81.9672131147541,4,1,1,100,0,0
76863,-83.3333333333333,4,1,1,100,0,0
77000,-84.7457627118644,4,1,1,100,0,0
77136,-86.2068965517241,4,1,1,100,0,0
77181,-87.719298245614,4,1,1,100,0,0
77227,-89.2857142857143,4,1,1,100,0,0
77272,-90.9090909090909,4,1,1,100,0,0
77409,-92.5925925925926,4,1,1,100,0,0
77477,-94.3396226415094,4,1,1,100,0,0
77545,-96.1538461538461,4,1,1,100,0,0
77546,-25,4,1,1,100,0,0
77547,-98.0392156862745,4,1,1,100,0,0
77681,-98.0392156862745,4,1,1,100,0,0
77682,-25,4,1,1,100,0,0
77683,-100,4,1,1,100,0,0
77818,-100,4,1,1,100,0,0
77819,-25,4,1,1,100,0,0
77820,-100,4,1,1,100,0,0
77954,-100,4,1,1,100,0,0
77955,-25,4,1,1,100,0,0
77956,-100,4,1,1,100,0,0
78022,-100,4,1,1,100,0,0
78023,-25,4,1,1,100,0,0
78024,-100,4,1,1,100,0,0
78090,-100,4,1,1,100,0,0
78091,-25,4,1,1,100,0,0
78092,-100,4,1,1,100,0,0
78159,-25,4,1,1,100,0,0
78160,-100,4,1,1,100,0,0
78227,-100,4,1,1,100,0,0
78228,-25,4,1,1,100,0,0
78229,-100,4,1,1,100,0,0
78295,-25,4,1,1,100,0,0
78296,-100,4,1,1,100,0,0
78363,-100,4,1,1,100,0,0
78364,-25,4,1,1,100,0,0
78365,-100,4,1,1,100,0,0
78500,-100,4,1,1,100,0,0
78501,-25,4,1,1,100,0,0
78502,-100,4,1,1,100,0,0
78636,-100,4,1,1,100,0,0
78637,-25,4,1,1,100,0,0
78638,-100,4,1,1,100,0,0
78772,-100,4,1,1,100,0,0
78773,-25,4,1,1,100,0,0
78774,-100,4,1,1,100,0,0
78909,-100,4,1,1,100,0,0
78910,-25,4,1,1,100,0,0
78911,-100,4,1,1,100,0,0
78977,-100,4,1,1,100,0,0
78978,-25,4,1,1,100,0,0
78979,-100,4,1,1,100,0,0
79045,-100,4,1,1,100,0,0
79046,-25,4,1,1,100,0,0
79047,-100,4,1,1,100,0,0
79181,-100,4,1,1,100,0,0
79182,-25,4,1,1,100,0,0
79183,-100,4,1,1,100,0,0
79215,-25,4,1,1,100,0,0
79216,-100,4,1,1,100,0,0
79250,-25,4,1,1,100,0,0
79251,-100,4,1,1,100,0,0
79284,-25,4,1,1,100,0,0
79285,-100,4,1,1,100,0,0
79318,-100,4,1,1,100,0,0
79319,-25,4,1,1,100,0,0
79320,-100,4,1,1,100,0,0
79352,-25,4,1,1,100,0,0
79353,-100,4,1,1,100,0,0
79386,-25,4,1,1,100,0,0
79387,-100,4,1,1,100,0,0
79420,-25,4,1,1,100,0,0
79421,-100,4,1,1,100,0,0
79454,-100,4,1,1,100,0,0
79455,-25,4,1,1,100,0,0
79456,-100,4,1,1,100,0,0
79488,-25,4,1,1,100,0,0
79489,-100,4,1,1,100,0,0
79522,-100,4,1,1,100,0,0
79523,-25,4,1,1,100,0,0
79524,-100,4,1,1,100,0,0
79556,-25,4,1,1,100,0,0
79557,-100,4,1,1,100,0,0
79590,-25,4,1,1,100,0,0
79591,-100,4,1,1,100,0,0
79625,-25,4,1,1,100,0,0
79626,-100,4,1,1,100,0,0
79659,-25,4,1,1,100,0,0
79660,-100,4,1,1,100,0,0
79693,-25,4,1,1,100,0,0
79694,-100,4,1,1,100,0,0
79861,-99.009900990099,4,1,1,100,0,8
79997,-98.0392156862745,4,1,1,100,0,8
80134,-97.0873786407767,4,1,1,100,0,8
80202,-96.1538461538461,4,1,1,100,0,8
80270,-95.2380952380952,4,1,1,100,0,8
80406,-94.3396226415094,4,1,1,100,0,8
80452,-93.4579439252336,4,1,1,100,0,8
80497,-92.5925925925926,4,1,1,100,0,8
80543,-91.743119266055,4,1,1,100,0,8
80679,-90.9090909090909,4,1,1,100,0,8
80747,-90.0900900900901,4,1,1,100,0,8
80815,-89.2857142857143,4,1,1,100,0,8
80952,-88.4955752212389,4,1,1,100,0,8
80997,-87.719298245614,4,1,1,100,0,8
81043,-86.9565217391304,4,1,1,100,0,8
81088,-86.2068965517241,4,1,1,100,0,8
81156,-85.4700854700855,4,1,1,100,0,8
81224,-84.7457627118644,4,1,1,100,0,8
81361,-84.0336134453781,4,1,1,100,0,8
81497,-83.3333333333333,4,1,1,100,0,8
81543,-82.6446280991736,4,1,1,100,0,8
81588,-81.9672131147541,4,1,1,100,0,8
81634,-81.3008130081301,4,1,1,100,0,8
81770,-80.6451612903226,4,1,1,100,0,8
81838,-80,4,1,1,100,0,8
81906,-79.3650793650794,4,1,1,100,0,8
82043,-78.7401574803149,4,1,1,100,0,8
82088,-78.125,4,1,1,100,0,8
82134,-77.5193798449612,4,1,1,100,0,8
82179,-76.9230769230769,4,1,1,100,0,8
82315,-76.3358778625954,4,1,1,100,0,8
82384,-75.7575757575758,4,1,1,100,0,8
82452,-75.187969924812,4,1,1,100,0,8
82588,-74.6268656716418,4,1,1,100,0,8
82634,-74.0740740740741,4,1,1,100,0,8
82679,-73.5294117647059,4,1,1,100,0,8
82724,-72.992700729927,4,1,1,100,0,8
82861,-72.463768115942,4,1,1,100,0,8
83000,-67.5675675675676,4,1,1,100,0,0
83045,-63.2911392405063,4,1,1,100,0,0
83090,-59.5238095238095,4,1,1,100,0,0
83136,-56.1797752808989,4,1,1,100,0,0
83181,-53.1914893617021,4,1,1,100,0,0
83227,-50.5050505050505,4,1,1,100,0,0
83272,-48.0769230769231,4,1,1,100,0,0
83819,0.4,4,1,1,100,1,0
83819,-100000000000000,4,1,1,100,0,0
83877,0.2,4,1,1,100,1,0
83877,-100000000000000,4,1,1,100,0,0
83922,0.133333333333333,4,1,1,100,1,0
83922,-100000000000000,4,1,1,100,0,0
83968,0.1,4,1,1,100,1,0
83968,-100000000000000,4,1,1,100,0,0
84013,0.08,4,1,1,100,1,0
84013,-100000000000000,4,1,1,100,0,0
84090,272.727272727273,4,1,1,100,1,8
84090,-95.2380952380952,4,1,1,100,0,0
84635,-90.9090909090909,4,1,1,100,0,0
85180,-86.9565217391304,4,1,1,100,0,0
85453,-83.3333333333333,4,1,1,100,0,0
85726,-80,4,1,1,100,0,0
85999,-76.9230769230769,4,1,1,100,0,0
86271,-74.0740740740741,4,1,1,100,0,0
86544,-71.4285714285714,4,1,1,100,0,0
86817,-68.9655172413793,4,1,1,100,0,0
87090,-66.6666666666667,4,1,1,100,0,0
87361,-64.5161290322581,4,1,1,100,0,0
87429,-62.5,4,1,1,100,0,0
87498,-60.6060606060606,4,1,1,100,0,0
87566,-58.8235294117647,4,1,1,100,0,0
87634,-57.1428571428571,4,1,1,100,0,0
87702,-55.5555555555556,4,1,1,100,0,0
87770,-54.054054054054,4,1,1,100,0,0
87839,-52.6315789473684,4,1,1,100,0,0
87909,0.135000135000135,4,1,1,100,1,0
87909,-100000000000000,4,1,1,100,0,0
88317,272.727272727273,4,1,1,100,1,8
88453,272.727272727273,4,1,1,100,1,8
92814,-98.0392156862745,4,1,1,100,0,0
92882,-96.1538461538461,4,1,1,100,0,0
92951,-94.3396226415094,4,1,1,100,0,0
93019,-92.5925925925926,4,1,1,100,0,0
93087,-90.9090909090909,4,1,1,100,0,0
93155,-89.2857142857143,4,1,1,100,0,0
93223,-87.719298245614,4,1,1,100,0,0
93291,-86.2068965517241,4,1,1,100,0,0
93360,-84.7457627118644,4,1,1,100,0,0
93428,-83.3333333333333,4,1,1,100,0,0
93496,-81.9672131147541,4,1,1,100,0,0
93564,-80.6451612903226,4,1,1,100,0,0
93632,-79.3650793650794,4,1,1,100,0,0
93701,-78.125,4,1,1,100,0,0
93769,-76.9230769230769,4,1,1,100,0,0
93837,-75.7575757575758,4,1,1,100,0,0
93905,-74.6268656716418,4,1,1,100,0,0
93973,-73.5294117647059,4,1,1,100,0,0
94041,-72.463768115942,4,1,1,100,0,0
94110,-71.4285714285714,4,1,1,100,0,0
94178,-70.4225352112676,4,1,1,100,0,0
94246,-69.4444444444444,4,1,1,100,0,0
94314,-68.4931506849315,4,1,1,100,0,0
94382,-67.5675675675676,4,1,1,100,0,0
94451,-66.6666666666667,4,1,1,100,0,0
94519,-65.7894736842105,4,1,1,100,0,0
94587,-64.9350649350649,4,1,1,100,0,0
94655,-64.1025641025641,4,1,1,100,0,0
94723,-63.2911392405063,4,1,1,100,0,0
94791,-62.5,4,1,1,100,0,0
94860,-61.7283950617284,4,1,1,100,0,0
94928,-60.9756097560976,4,1,1,100,0,0
94996,-60.2409638554217,4,1,1,100,0,0
95064,-59.5238095238095,4,1,1,100,0,0
95132,-58.8235294117647,4,1,1,100,0,0
95201,-58.1395348837209,4,1,1,100,0,0
95269,-57.4712643678161,4,1,1,100,0,0
95337,-56.8181818181818,4,1,1,100,0,0
95405,-56.1797752808989,4,1,1,100,0,0
95473,-55.5555555555556,4,1,1,100,0,0
95541,-54.9450549450549,4,1,1,100,0,0
95610,-54.3478260869565,4,1,1,100,0,0
95678,-53.763440860215,4,1,1,100,0,0
95746,-53.1914893617021,4,1,1,100,0,0
95814,-52.6315789473684,4,1,1,100,0,0
95882,-52.0833333333333,4,1,1,100,0,0
95951,-51.5463917525773,4,1,1,100,0,0
96019,-51.0204081632653,4,1,1,100,0,0
96087,-50.5050505050505,4,1,1,100,0,0
96090,0.27000027000027,4,1,1,100,1,0
96090,-10000000000,4,1,1,100,0,0
96224,0.135000135000135,4,1,1,100,1,0
96224,-10000000000,4,1,1,100,0,0
96361,0.860881542699725,4,1,1,100,1,0
96361,-10000000000,4,1,1,100,0,0
96497,0.27000027000027,4,1,1,100,1,0
96497,-10000000000,4,1,1,100,0,0
96633,0.135000135000135,4,1,1,100,1,0
96633,-10000000000,4,1,1,100,0,0
96771,272.727272727273,4,1,1,100,1,8
96771,-66.6666666666667,4,1,1,100,0,0
97180,272.727272727273,4,1,1,100,1,8
97180,-100,4,1,1,100,0,0
99358,-66.6666666666667,4,1,1,100,0,0
99427,-71.4285714285714,4,1,1,100,0,0
99495,-76.9230769230769,4,1,1,100,0,0
99563,-83.3333333333333,4,1,1,100,0,0
99631,-90.9090909090909,4,1,1,100,0,0
99767,-100,4,1,1,100,0,0
99836,-83.3333333333333,4,1,1,100,0,0
99904,-76.9230769230769,4,1,1,100,0,0
99972,-71.4285714285714,4,1,1,100,0,0
100040,-66.6666666666667,4,1,1,100,0,0
100177,-71.4285714285714,4,1,1,100,0,0
100245,-76.9230769230769,4,1,1,100,0,0
100313,-83.3333333333333,4,1,1,100,0,0
100381,-90.9090909090909,4,1,1,100,0,0
100449,-100,4,1,1,100,0,0
100586,-90.9090909090909,4,1,1,100,0,0
100654,-83.3333333333333,4,1,1,100,0,0
100722,-76.9230769230769,4,1,1,100,0,0
100790,-71.4285714285714,4,1,1,100,0,0
100858,-66.6666666666667,4,1,1,100,0,0
100927,-62.5,4,1,1,100,0,0
100998,0.27000027000027,4,1,1,100,1,0
100998,-10000000000,4,1,1,100,0,0
101270,0.135000135000135,4,1,1,100,1,0
101270,-10000000000,4,1,1,100,0,0
101543,272.727272727273,4,1,1,100,1,8
101679,-25,4,1,1,100,0,0
101680,-100,4,1,1,100,0,0
101815,-25,4,1,1,100,0,0
101816,-100,4,1,1,100,0,0
101952,-100,4,1,1,100,0,0
101953,-25,4,1,1,100,0,0
101954,-100,4,1,1,100,0,0
102088,-25,4,1,1,100,0,0
102089,-100,4,1,1,100,0,0
102361,-100,4,1,1,100,0,0
102362,-25,4,1,1,100,0,0
102363,-100,4,1,1,100,0,0
102497,-100,4,1,1,100,0,0
102498,-25,4,1,1,100,0,0
102499,-100,4,1,1,100,0,0
102633,-25,4,1,1,100,0,0
102634,-100,4,1,1,100,0,0
102770,-25,4,1,1,100,0,0
102771,-100,4,1,1,100,0,0
103043,-25,4,1,1,100,0,0
103044,-100,4,1,1,100,0,0
103179,-25,4,1,1,100,0,0
103180,-100,4,1,1,100,0,0
103315,-100,4,1,1,100,0,0
103316,-25,4,1,1,100,0,0
103317,-100,4,1,1,100,0,0
103452,-100,4,1,1,100,0,0
103453,-25,4,1,1,100,0,0
103454,-100,4,1,1,100,0,0
103588,-25,4,1,1,100,0,0
103589,-100,4,1,1,100,0,0
103861,-100,4,1,1,100,0,0
103862,-25,4,1,1,100,0,0
103863,-100,4,1,1,100,0,0
103997,-100,4,1,1,100,0,0
103998,-25,4,1,1,100,0,0
103999,-100,4,1,1,100,0,0
104133,-100,4,1,1,100,0,0
104134,-25,4,1,1,100,0,0
104135,-100,4,1,1,100,0,0
104270,-100,4,1,1,100,0,0
104271,-25,4,1,1,100,0,0
104272,-100,4,1,1,100,0,0
104543,-100,4,1,1,100,0,0
104544,-25,4,1,1,100,0,0
104545,-100,4,1,1,100,0,0
104679,-100,4,1,1,100,0,0
104680,-25,4,1,1,100,0,0
104681,-100,4,1,1,100,0,0
104815,-100,4,1,1,100,0,0
104816,-25,4,1,1,100,0,0
104817,-100,4,1,1,100,0,0
104952,-100,4,1,1,100,0,0
104953,-25,4,1,1,100,0,0
104954,-100,4,1,1,100,0,0
105224,-100,4,1,1,100,0,0
105225,-25,4,1,1,100,0,0
105226,-100,4,1,1,100,0,0
105361,-100,4,1,1,100,0,0
105362,-25,4,1,1,100,0,0
105363,-100,4,1,1,100,0,0
105395,-25,4,1,1,100,0,0
105396,-100,4,1,1,100,0,0
105429,-25,4,1,1,100,0,0
105430,-100,4,1,1,100,0,0
105463,-25,4,1,1,100,0,0
105464,-100,4,1,1,100,0,0
105497,-100,4,1,1,100,0,0
105498,-25,4,1,1,100,0,0
105499,-100,4,1,1,100,0,0
105531,-25,4,1,1,100,0,0
105532,-100,4,1,1,100,0,0
105565,-25,4,1,1,100,0,0
105566,-100,4,1,1,100,0,0
105599,-25,4,1,1,100,0,0
105600,-100,4,1,1,100,0,0
105633,-100,4,1,1,100,0,0
105634,-25,4,1,1,100,0,0
105635,-100,4,1,1,100,0,0
108056,-66.6666666666667,4,1,1,100,0,0
108124,-71.4285714285714,4,1,1,100,0,0
108192,-76.9230769230769,4,1,1,100,0,0
108261,-83.3333333333333,4,1,1,100,0,0
108329,-90.9090909090909,4,1,1,100,0,0
108465,-100,4,1,1,100,0,0
108533,-83.3333333333333,4,1,1,100,0,0
108601,-76.9230769230769,4,1,1,100,0,0
108670,-71.4285714285714,4,1,1,100,0,0
108738,-66.6666666666667,4,1,1,100,0,0
108874,-71.4285714285714,4,1,1,100,0,0
108942,-76.9230769230769,4,1,1,100,0,0
109011,-83.3333333333333,4,1,1,100,0,0
109079,-90.9090909090909,4,1,1,100,0,0
109147,-100,4,1,1,100,0,0
109283,-90.9090909090909,4,1,1,100,0,0
109351,-83.3333333333333,4,1,1,100,0,0
109420,-76.9230769230769,4,1,1,100,0,0
109488,-71.4285714285714,4,1,1,100,0,0
109556,-66.6666666666667,4,1,1,100,0,0
109624,-62.5,4,1,1,100,0,0
109724,0.27000027000027,4,1,1,100,1,0
109724,-10000000000,4,1,1,100,0,0
109996,0.135000135000135,4,1,1,100,1,0
109996,-10000000000,4,1,1,100,0,0
110270,272.727272727273,4,1,1,100,1,8
110336,-95.2380952380952,4,1,1,100,0,0
110404,-90.9090909090909,4,1,1,100,0,0
110472,-86.9565217391304,4,1,1,100,0,0
110540,-83.3333333333333,4,1,1,100,0,0
110608,-80,4,1,1,100,0,0
110677,-76.9230769230769,4,1,1,100,0,0
110745,-74.0740740740741,4,1,1,100,0,0
110813,-71.4285714285714,4,1,1,100,0,0
110881,-68.9655172413793,4,1,1,100,0,0
110949,-66.6666666666667,4,1,1,100,0,0
111018,-64.5161290322581,4,1,1,100,0,0
111086,-62.5,4,1,1,100,0,0
111154,-60.6060606060606,4,1,1,100,0,0
111223,-58.8235294117647,4,1,1,100,0,0
111291,-57.1428571428571,4,1,1,100,0,0
111358,-55.5555555555556,4,1,1,100,0,0
111426,-54.054054054054,4,1,1,100,0,0
111495,-52.6315789473684,4,1,1,100,0,0
111563,-51.2820512820513,4,1,1,100,0,0
111631,-50,4,1,1,100,0,0
111699,-47.6190476190476,4,1,1,100,0,0
111768,-46.5116279069767,4,1,1,100,0,0
111836,-45.4545454545455,4,1,1,100,0,0
111904,-44.4444444444445,4,1,1,100,0,0
111972,-43.4782608695652,4,1,1,100,0,0
112041,-42.5531914893617,4,1,1,100,0,0
112109,-41.6666666666667,4,1,1,100,0,0
112177,-40.8163265306122,4,1,1,100,0,0
112245,-40,4,1,1,100,0,0
112314,-39.2156862745098,4,1,1,100,0,0
112382,-38.4615384615385,4,1,1,100,0,0
112449,-37.7358490566038,4,1,1,100,0,0
112517,-37.037037037037,4,1,1,100,0,0
112586,-36.3636363636364,4,1,1,100,0,0
112654,-35.7142857142857,4,1,1,100,0,0
112722,-35.0877192982456,4,1,1,100,0,0
112790,-34.4827586206897,4,1,1,100,0,0
112859,-33.8983050847458,4,1,1,100,0,0
112927,-33.3333333333333,4,1,1,100,0,0
112995,-32.7868852459016,4,1,1,100,0,0
113063,-32.258064516129,4,1,1,100,0,0
113132,-31.7460317460317,4,1,1,100,0,0
113200,-31.25,4,1,1,100,0,0
113268,-30.7692307692308,4,1,1,100,0,0
113336,-30.3030303030303,4,1,1,100,0,0
113405,-29.8507462686567,4,1,1,100,0,0
113473,-29.4117647058824,4,1,1,100,0,0
113542,-28.9855072463768,4,1,1,100,0,0
113544,-1000,4,1,1,100,0,0
113545,-28.9855072463768,4,1,1,100,0,0
114631,-40.8163265306122,4,1,1,100,0,0
115040,-68.9655172413793,4,1,1,100,0,0
115176,-74.0740740740741,4,1,1,100,0,0
115312,-80,4,1,1,100,0,0
115449,-86.9565217391304,4,1,1,100,0,0
115585,-95.2380952380952,4,1,1,100,0,0
115994,-100,4,1,1,100,0,0
116811,-66.6666666666667,4,1,1,100,0,0
116879,-71.4285714285714,4,1,1,100,0,0
116947,-76.9230769230769,4,1,1,100,0,0
117016,-83.3333333333333,4,1,1,100,0,0
117084,-90.9090909090909,4,1,1,100,0,0
117220,-100,4,1,1,100,0,0
117288,-83.3333333333333,4,1,1,100,0,0
117356,-76.9230769230769,4,1,1,100,0,0
117425,-71.4285714285714,4,1,1,100,0,0
117493,-66.6666666666667,4,1,1,100,0,0
117629,-71.4285714285714,4,1,1,100,0,0
117697,-76.9230769230769,4,1,1,100,0,0
117766,-83.3333333333333,4,1,1,100,0,0
117834,-90.9090909090909,4,1,1,100,0,0
117902,-100,4,1,1,100,0,0
118038,-90.9090909090909,4,1,1,100,0,0
118106,-83.3333333333333,4,1,1,100,0,0
118175,-76.9230769230769,4,1,1,100,0,0
118243,-71.4285714285714,4,1,1,100,0,0
118311,-66.6666666666667,4,1,1,100,0,0
118379,-62.5,4,1,1,100,0,0
118451,0.27000027000027,4,1,1,100,1,0
118451,-10000000000,4,1,1,100,0,0
118724,0.135000135000135,4,1,1,100,1,0
118724,-10000000000,4,1,1,100,0,0
118997,272.727272727273,4,1,1,100,1,8
119133,-25,4,1,1,100,0,0
119134,-100,4,1,1,100,0,0
119269,-25,4,1,1,100,0,0
119270,-100,4,1,1,100,0,0
119406,-100,4,1,1,100,0,0
119407,-25,4,1,1,100,0,0
119408,-100,4,1,1,100,0,0
119542,-25,4,1,1,100,0,0
119543,-100,4,1,1,100,0,0
119815,-100,4,1,1,100,0,0
119816,-25,4,1,1,100,0,0
119817,-100,4,1,1,100,0,0
119951,-100,4,1,1,100,0,0
119952,-25,4,1,1,100,0,0
119953,-100,4,1,1,100,0,0
120087,-25,4,1,1,100,0,0
120088,-100,4,1,1,100,0,0
120224,-25,4,1,1,100,0,0
120225,-100,4,1,1,100,0,0
120497,-25,4,1,1,100,0,0
120498,-100,4,1,1,100,0,0
120633,-25,4,1,1,100,0,0
120634,-100,4,1,1,100,0,0
120769,-100,4,1,1,100,0,0
120770,-25,4,1,1,100,0,0
120771,-100,4,1,1,100,0,0
120906,-100,4,1,1,100,0,0
120907,-25,4,1,1,100,0,0
120908,-100,4,1,1,100,0,0
121042,-25,4,1,1,100,0,0
121043,-100,4,1,1,100,0,0
121315,-100,4,1,1,100,0,0
121316,-25,4,1,1,100,0,0
121317,-100,4,1,1,100,0,0
121451,-100,4,1,1,100,0,0
121452,-25,4,1,1,100,0,0
121453,-100,4,1,1,100,0,0
121587,-100,4,1,1,100,0,0
121588,-25,4,1,1,100,0,0
121589,-100,4,1,1,100,0,0
121724,-100,4,1,1,100,0,0
121725,-25,4,1,1,100,0,0
121726,-100,4,1,1,100,0,0
121997,-100,4,1,1,100,0,0
121998,-25,4,1,1,100,0,0
121999,-100,4,1,1,100,0,0
122133,-100,4,1,1,100,0,0
122134,-25,4,1,1,100,0,0
122135,-100,4,1,1,100,0,0
122269,-100,4,1,1,100,0,0
122270,-25,4,1,1,100,0,0
122271,-100,4,1,1,100,0,0
122406,-100,4,1,1,100,0,0
122407,-25,4,1,1,100,0,0
122408,-100,4,1,1,100,0,0
122678,-100,4,1,1,100,0,0
122679,-25,4,1,1,100,0,0
122680,-100,4,1,1,100,0,0
122815,-100,4,1,1,100,0,0
122816,-25,4,1,1,100,0,0
122817,-100,4,1,1,100,0,0
122849,-25,4,1,1,100,0,0
122850,-100,4,1,1,100,0,0
122883,-25,4,1,1,100,0,0
122884,-100,4,1,1,100,0,0
122917,-25,4,1,1,100,0,0
122918,-100,4,1,1,100,0,0
122951,-100,4,1,1,100,0,0
122952,-25,4,1,1,100,0,0
122953,-100,4,1,1,100,0,0
122985,-25,4,1,1,100,0,0
122986,-100,4,1,1,100,0,0
123019,-25,4,1,1,100,0,0
123020,-100,4,1,1,100,0,0
123053,-25,4,1,1,100,0,0
123054,-100,4,1,1,100,0,0
123087,-100,4,1,1,100,0,0
123088,-25,4,1,1,100,0,0
123089,-100,4,1,1,100,0,0
123330,-98.0392156862745,4,1,1,100,0,0
124421,-96.1538461538461,4,1,1,100,0,0
125512,-92.5925925925926,4,1,1,100,0,0
126603,-90.9090909090909,4,1,1,100,0,0
127694,-89.2857142857143,4,1,1,100,0,0
127762,-87.719298245614,4,1,1,100,0,0
127830,-86.2068965517241,4,1,1,100,0,0
127898,-84.7457627118644,4,1,1,100,0,0
127967,-83.3333333333333,4,1,1,100,0,0
128035,-81.9672131147541,4,1,1,100,0,0
128103,-80.6451612903226,4,1,1,100,0,0
128171,-79.3650793650794,4,1,1,100,0,0
128239,-78.125,4,1,1,100,0,0
128307,-76.9230769230769,4,1,1,100,0,0
128376,-75.7575757575758,4,1,1,100,0,0
128444,-74.6268656716418,4,1,1,100,0,0
128512,-73.5294117647059,4,1,1,100,0,0
128580,-72.463768115942,4,1,1,100,0,0
128648,-71.4285714285714,4,1,1,100,0,0
128717,-70.4225352112676,4,1,1,100,0,0
128785,-69.4444444444444,4,1,1,100,0,0
128853,-68.4931506849315,4,1,1,100,0,0
128921,-67.5675675675676,4,1,1,100,0,0
128989,-66.6666666666667,4,1,1,100,0,0
129057,-65.7894736842105,4,1,1,100,0,0
129126,-64.9350649350649,4,1,1,100,0,0
129194,-64.1025641025641,4,1,1,100,0,0
129262,-63.2911392405063,4,1,1,100,0,0
129330,-62.5,4,1,1,100,0,0
129398,-61.7283950617284,4,1,1,100,0,0
129467,-60.9756097560976,4,1,1,100,0,0
129535,-60.2409638554217,4,1,1,100,0,0
129603,-59.5238095238095,4,1,1,100,0,0
129671,-58.8235294117647,4,1,1,100,0,0
129739,-58.1395348837209,4,1,1,100,0,0
129807,-57.4712643678161,4,1,1,100,0,0
129876,-56.8181818181818,4,1,1,100,0,0
129944,-56.1797752808989,4,1,1,100,0,0
130012,-55.5555555555556,4,1,1,100,0,0
130080,-54.9450549450549,4,1,1,100,0,0
130148,-54.3478260869565,4,1,1,100,0,0
130217,-53.763440860215,4,1,1,100,0,0
130285,-53.1914893617021,4,1,1,100,0,0
130353,-52.6315789473684,4,1,1,100,0,0
130421,-52.0833333333333,4,1,1,100,0,0
130489,-51.5463917525773,4,1,1,100,0,0
130557,-51.0204081632653,4,1,1,100,0,0
130626,-50.5050505050505,4,1,1,100,0,0
130694,-50,4,1,1,100,0,0
130762,-49.5049504950495,4,1,1,100,0,0
130830,-49.0196078431373,4,1,1,100,0,0
130898,-48.5436893203883,4,1,1,100,0,0
130967,-48.0769230769231,4,1,1,100,0,0
131035,-47.6190476190476,4,1,1,100,0,0
131103,-47.1698113207547,4,1,1,100,0,0
131171,-46.7289719626168,4,1,1,100,0,0
131239,-46.2962962962963,4,1,1,100,0,0
131307,-45.8715596330275,4,1,1,100,0,0
131376,-45.4545454545455,4,1,1,100,0,0
131444,-45.045045045045,4,1,1,100,0,0
131512,-44.6428571428571,4,1,1,100,0,0
131543,191.387559808612,4,1,0,100,1,0
131543,-3.13479623824451,4,1,0,100,0,0
131544,191.237559808612,4,1,0,100,1,0
131544,-3.13774709758393,4,1,0,100,0,0
131545,191.087559808612,4,1,0,100,1,0
131545,-3.13971742543171,4,1,0,100,0,0
131546,190.937559808612,4,1,0,100,1,0
131546,-3.14267756128221,4,1,0,100,0,0
131547,190.787559808612,4,1,0,100,1,0
131547,-3.14465408805031,4,1,0,100,0,0
131548,190.637559808612,4,1,0,100,1,0
131548,-3.14762354422411,4,1,0,100,0,0
131549,190.487559808612,4,1,0,100,1,0
131549,-3.1496062992126,4,1,0,100,0,0
131550,190.337559808612,4,1,0,100,1,0
131550,-3.15258511979823,4,1,0,100,0,0
131551,190.187559808612,4,1,0,100,1,0
131551,-3.15457413249211,4,1,0,100,0,0
131552,190.037559808612,4,1,0,100,1,0
131552,-3.15756236185665,4,1,0,100,0,0
131553,189.887559808612,4,1,0,100,1,0
131553,-3.15955766192733,4,1,0,100,0,0
131554,189.737559808612,4,1,0,100,1,0
131554,-3.16255534471853,4,1,0,100,0,0
131555,189.587559808612,4,1,0,100,1,0
131555,-3.16455696202532,4,1,0,100,0,0
131556,189.437559808612,4,1,0,100,1,0
131556,-3.1675641431739,4,1,0,100,0,0
131557,189.287559808612,4,1,0,100,1,0
131557,-3.16957210776545,4,1,0,100,0,0
131558,189.137559808612,4,1,0,100,1,0
131558,-3.17258883248731,4,1,0,100,0,0
131559,188.987559808612,4,1,0,100,1,0
131559,-3.17460317460317,4,1,0,100,0,0
131560,188.837559808612,4,1,0,100,1,0
131560,-3.17762948840165,4,1,0,100,0,0
131561,188.687559808612,4,1,0,100,1,0
131561,-3.17965023847377,4,1,0,100,0,0
131562,188.537559808612,4,1,0,100,1,0
131562,-3.18268618714195,4,1,0,100,0,0
131563,188.387559808612,4,1,0,100,1,0
131563,-3.18471337579618,4,1,0,100,0,0
131564,188.237559808612,4,1,0,100,1,0
131564,-3.18775900541919,4,1,0,100,0,0
131565,188.087559808612,4,1,0,100,1,0
131565,-3.18979266347687,4,1,0,100,0,0
131566,187.937559808612,4,1,0,100,1,0
131566,-3.19284802043423,4,1,0,100,0,0
131567,187.787559808612,4,1,0,100,1,0
131567,-3.19488817891374,4,1,0,100,0,0
131568,187.637559808612,4,1,0,100,1,0
131568,-3.19795330988168,4,1,0,100,0,0
131569,187.487559808612,4,1,0,100,1,0
131569,-3.2,4,1,0,100,0,0
131570,187.337559808612,4,1,0,100,1,0
131570,-3.20307495195388,4,1,0,100,0,0
131571,187.187559808612,4,1,0,100,1,0
131571,-3.20512820512821,4,1,0,100,0,0
131572,187.037559808612,4,1,0,100,1,0
131572,-3.20821302534488,4,1,0,100,0,0
131573,186.887559808612,4,1,0,100,1,0
131573,-3.21027287319422,4,1,0,100,0,0
131574,186.737559808612,4,1,0,100,1,0
131574,-3.2133676092545,4,1,0,100,0,0
131575,186.587559808612,4,1,0,100,1,0
131575,-3.21543408360129,4,1,0,100,0,0
131576,186.437559808612,4,1,0,100,1,0
131576,-3.21853878339234,4,1,0,100,0,0
131577,186.287559808612,4,1,0,100,1,0
131577,-3.22061191626409,4,1,0,100,0,0
131578,186.137559808612,4,1,0,100,1,0
131578,-3.22372662798195,4,1,0,100,0,0
131579,185.987559808612,4,1,0,100,1,0
131579,-3.2258064516129,4,1,0,100,0,0
131580,185.837559808612,4,1,0,100,1,0
131580,-3.22893122376493,4,1,0,100,0,0
131581,185.687559808612,4,1,0,100,1,0
131581,-3.23101777059774,4,1,0,100,0,0
131582,185.537559808612,4,1,0,100,1,0
131582,-3.23415265200517,4,1,0,100,0,0
131583,185.387559808612,4,1,0,100,1,0
131583,-3.23624595469256,4,1,0,100,0,0
131584,185.237559808612,4,1,0,100,1,0
131584,-3.23939099449304,4,1,0,100,0,0
131585,185.087559808612,4,1,0,100,1,0
131585,-3.24149108589951,4,1,0,100,0,0
131586,184.937559808612,4,1,0,100,1,0
131586,-3.24464633354964,4,1,0,100,0,0
131587,184.787559808612,4,1,0,100,1,0
131587,-3.24675324675325,4,1,0,100,0,0
131588,184.637559808612,4,1,0,100,1,0
131588,-3.2499187520312,4,1,0,100,0,0
131589,184.487559808612,4,1,0,100,1,0
131589,-3.2520325203252,4,1,0,100,0,0
131590,184.337559808612,4,1,0,100,1,0
131590,-3.25520833333333,4,1,0,100,0,0
131591,184.187559808612,4,1,0,100,1,0
131591,-3.25732899022801,4,1,0,100,0,0
131592,184.037559808612,4,1,0,100,1,0
131592,-3.2605151613955,4,1,0,100,0,0
131593,183.887559808612,4,1,0,100,1,0
131593,-3.2626427406199,4,1,0,100,0,0
131594,183.737559808612,4,1,0,100,1,0
131594,-3.26583932070542,4,1,0,100,0,0
131595,183.587559808612,4,1,0,100,1,0
131595,-3.26797385620915,4,1,0,100,0,0
131596,183.437559808612,4,1,0,100,1,0
131596,-3.27118089630357,4,1,0,100,0,0
131597,183.287559808612,4,1,0,100,1,0
131597,-3.27332242225859,4,1,0,100,0,0
131598,183.137559808612,4,1,0,100,1,0
131598,-3.27653997378768,4,1,0,100,0,0
131599,182.987559808612,4,1,0,100,1,0
131599,-3.27868852459016,4,1,0,100,0,0
131600,182.837559808612,4,1,0,100,1,0
131600,-3.28191663931736,4,1,0,100,0,0
131601,182.687559808612,4,1,0,100,1,0
131601,-3.28407224958949,4,1,0,100,0,0
131602,182.537559808612,4,1,0,100,1,0
131602,-3.28731097961867,4,1,0,100,0,0
131603,182.387559808612,4,1,0,100,1,0
131603,-3.28947368421053,4,1,0,100,0,0
131604,182.237559808612,4,1,0,100,1,0
131604,-3.2927230819888,4,1,0,100,0,0
131605,182.087559808612,4,1,0,100,1,0
131605,-3.29489291598023,4,1,0,100,0,0
131606,181.937559808612,4,1,0,100,1,0
131606,-3.29815303430079,4,1,0,100,0,0
131607,181.787559808612,4,1,0,100,1,0
131607,-3.3003300330033,4,1,0,100,0,0
131608,181.637559808612,4,1,0,100,1,0
131608,-3.30360092500826,4,1,0,100,0,0
131609,181.487559808612,4,1,0,100,1,0
131609,-3.30578512396694,4,1,0,100,0,0
131610,181.337559808612,4,1,0,100,1,0
131610,-3.30906684315023,4,1,0,100,0,0
131611,181.187559808612,4,1,0,100,1,0
131611,-3.3112582781457,4,1,0,100,0,0
131612,181.037559808612,4,1,0,100,1,0
131612,-3.31455087835598,4,1,0,100,0,0
131613,180.887559808612,4,1,0,100,1,0
131613,-3.3167495854063,4,1,0,100,0,0
131614,180.737559808612,4,1,0,100,1,0
131614,-3.32005312084993,4,1,0,100,0,0
131615,180.587559808612,4,1,0,100,1,0
131615,-3.32225913621262,4,1,0,100,0,0
131616,180.437559808612,4,1,0,100,1,0
131616,-3.3255736614566,4,1,0,100,0,0
131617,180.287559808612,4,1,0,100,1,0
131617,-3.32778702163062,4,1,0,100,0,0
131618,180.137559808612,4,1,0,100,1,0
131618,-3.3311125916056,4,1,0,100,0,0
131619,179.987559808612,4,1,0,100,1,0
131619,-3.33333333333333,4,1,0,100,0,0
131620,179.837559808612,4,1,0,100,1,0
131620,-3.33667000333667,4,1,0,100,0,0
131621,179.687559808612,4,1,0,100,1,0
131621,-3.33889816360601,4,1,0,100,0,0
131622,179.537559808612,4,1,0,100,1,0
131622,-3.34224598930481,4,1,0,100,0,0
131623,179.387559808612,4,1,0,100,1,0
131623,-3.34448160535117,4,1,0,100,0,0
131624,179.237559808612,4,1,0,100,1,0
131624,-3.3478406427854,4,1,0,100,0,0
131625,179.087559808612,4,1,0,100,1,0
131625,-3.3500837520938,4,1,0,100,0,0
131626,178.937559808612,4,1,0,100,1,0
131626,-3.35345405767941,4,1,0,100,0,0
131627,178.787559808612,4,1,0,100,1,0
131627,-3.35570469798658,4,1,0,100,0,0
131628,178.637559808612,4,1,0,100,1,0
131628,-3.35908632851864,4,1,0,100,0,0
131629,178.487559808612,4,1,0,100,1,0
131629,-3.36134453781513,4,1,0,100,0,0
131630,178.337559808612,4,1,0,100,1,0
131630,-3.36473755047106,4,1,0,100,0,0
131631,178.187559808612,4,1,0,100,1,0
131631,-3.36700336700337,4,1,0,100,0,0
131632,178.037559808612,4,1,0,100,1,0
131632,-3.37040781934614,4,1,0,100,0,0
131633,177.887559808612,4,1,0,100,1,0
131633,-3.37268128161889,4,1,0,100,0,0
131634,177.737559808612,4,1,0,100,1,0
131634,-3.37609723160027,4,1,0,100,0,0
131635,177.587559808612,4,1,0,100,1,0
131635,-3.37837837837838,4,1,0,100,0,0
131636,177.437559808612,4,1,0,100,1,0
131636,-3.38180588434224,4,1,0,100,0,0
131637,177.287559808612,4,1,0,100,1,0
131637,-3.38409475465313,4,1,0,100,0,0
131638,177.137559808612,4,1,0,100,1,0
131638,-3.38753387533875,4,1,0,100,0,0
131639,176.987559808612,4,1,0,100,1,0
131639,-3.38983050847458,4,1,0,100,0,0
131640,176.837559808612,4,1,0,100,1,0
131640,-3.39328130302002,4,1,0,100,0,0
131641,176.687559808612,4,1,0,100,1,0
131641,-3.3955857385399,4,1,0,100,0,0
131642,176.537559808612,4,1,0,100,1,0
131642,-3.39904826648538,4,1,0,100,0,0
131643,176.387559808612,4,1,0,100,1,0
131643,-3.40136054421769,4,1,0,100,0,0
131644,176.237559808612,4,1,0,100,1,0
131644,-3.40483486550902,4,1,0,100,0,0
131645,176.087559808612,4,1,0,100,1,0
131645,-3.40715502555366,4,1,0,100,0,0
131646,175.937559808612,4,1,0,100,1,0
131646,-3.4106412005457,4,1,0,100,0,0
131647,175.787559808612,4,1,0,100,1,0
131647,-3.41296928327645,4,1,0,100,0,0
131648,175.637559808612,4,1,0,100,1,0
131648,-3.41646737273659,4,1,0,100,0,0
131649,175.487559808612,4,1,0,100,1,0
131649,-3.41880341880342,4,1,0,100,0,0
131650,175.337559808612,4,1,0,100,1,0
131650,-3.42231348391513,4,1,0,100,0,0
131651,175.187559808612,4,1,0,100,1,0
131651,-3.42465753424658,4,1,0,100,0,0
131652,175.037559808612,4,1,0,100,1,0
131652,-3.42817963661296,4,1,0,100,0,0
131653,174.887559808612,4,1,0,100,1,0
131653,-3.43053173241853,4,1,0,100,0,0
131654,174.737559808612,4,1,0,100,1,0
131654,-3.43406593406593,4,1,0,100,0,0
131655,174.587559808612,4,1,0,100,1,0
131655,-3.43642611683849,4,1,0,100,0,0
131656,174.437559808612,4,1,0,100,1,0
131656,-3.43997248022016,4,1,0,100,0,0
131657,174.287559808612,4,1,0,100,1,0
131657,-3.44234079173838,4,1,0,100,0,0
131658,174.137559808612,4,1,0,100,1,0
131658,-3.44589937973811,4,1,0,100,0,0
131659,173.987559808612,4,1,0,100,1,0
131659,-3.44827586206897,4,1,0,100,0,0
131660,173.837559808612,4,1,0,100,1,0
131660,-3.45184673800483,4,1,0,100,0,0
131661,173.687559808612,4,1,0,100,1,0
131661,-3.45423143350604,4,1,0,100,0,0
131662,173.537559808612,4,1,0,100,1,0
131662,-3.45781466113416,4,1,0,100,0,0
131663,173.387559808612,4,1,0,100,1,0
131663,-3.46020761245675,4,1,0,100,0,0
131664,173.237559808612,4,1,0,100,1,0
131664,-3.46380325597506,4,1,0,100,0,0
131665,173.087559808612,4,1,0,100,1,0
131665,-3.46620450606586,4,1,0,100,0,0
131666,172.937559808612,4,1,0,100,1,0
131666,-3.46981263011797,4,1,0,100,0,0
131667,172.787559808612,4,1,0,100,1,0
131667,-3.47222222222222,4,1,0,100,0,0
131668,172.637559808612,4,1,0,100,1,0
131668,-3.47584289190129,4,1,0,100,0,0
131669,172.487559808612,4,1,0,100,1,0
131669,-3.47826086956522,4,1,0,100,0,0
131670,172.337559808612,4,1,0,100,1,0
131670,-3.48189415041783,4,1,0,100,0,0
131671,172.187559808612,4,1,0,100,1,0
131671,-3.48432055749129,4,1,0,100,0,0
131672,172.037559808612,4,1,0,100,1,0
131672,-3.48796651552145,4,1,0,100,0,0
131673,171.887559808612,4,1,0,100,1,0
131673,-3.49040139616056,4,1,0,100,0,0
131674,171.737559808612,4,1,0,100,1,0
131674,-3.49406009783368,4,1,0,100,0,0
131675,171.587559808612,4,1,0,100,1,0
131675,-3.4965034965035,4,1,0,100,0,0
131676,171.437559808612,4,1,0,100,1,0
131676,-3.50017500875044,4,1,0,100,0,0
131677,171.287559808612,4,1,0,100,1,0
131677,-3.50262697022767,4,1,0,100,0,0
131678,171.137559808612,4,1,0,100,1,0
131678,-3.50631136044881,4,1,0,100,0,0
131679,170.987559808612,4,1,0,100,1,0
131679,-3.50877192982456,4,1,0,100,0,0
131680,170.837559808612,4,1,0,100,1,0
131680,-3.51246926589392,4,1,0,100,0,0
131681,170.687559808612,4,1,0,100,1,0
131681,-3.51493848857645,4,1,0,100,0,0
131682,170.537559808612,4,1,0,100,1,0
131682,-3.51864883884588,4,1,0,100,0,0
131683,170.387559808612,4,1,0,100,1,0
131683,-3.52112676056338,4,1,0,100,0,0
131684,170.237559808612,4,1,0,100,1,0
131684,-3.52485019386676,4,1,0,100,0,0
131685,170.087559808612,4,1,0,100,1,0
131685,-3.52733686067019,4,1,0,100,0,0
131686,169.937559808612,4,1,0,100,1,0
131686,-3.53107344632768,4,1,0,100,0,0
131687,169.787559808612,4,1,0,100,1,0
131687,-3.53356890459364,4,1,0,100,0,0
131688,169.637559808612,4,1,0,100,1,0
131688,-3.53731871241599,4,1,0,100,0,0
131689,169.487559808612,4,1,0,100,1,0
131689,-3.53982300884956,4,1,0,100,0,0
131690,169.337559808612,4,1,0,100,1,0
131690,-3.54358610914245,4,1,0,100,0,0
131691,169.187559808612,4,1,0,100,1,0
131691,-3.54609929078014,4,1,0,100,0,0
131692,169.037559808612,4,1,0,100,1,0
131692,-3.5498757543486,4,1,0,100,0,0
131693,168.887559808612,4,1,0,100,1,0
131693,-3.55239786856128,4,1,0,100,0,0
131694,168.737559808612,4,1,0,100,1,0
131694,-3.55618776671408,4,1,0,100,0,0
131695,168.587559808612,4,1,0,100,1,0
131695,-3.55871886120996,4,1,0,100,0,0
131696,168.437559808612,4,1,0,100,1,0
131696,-3.56252226576416,4,1,0,100,0,0
131697,168.287559808612,4,1,0,100,1,0
131697,-3.5650623885918,4,1,0,100,0,0
131698,168.137559808612,4,1,0,100,1,0
131698,-3.56887937187723,4,1,0,100,0,0
131699,167.987559808612,4,1,0,100,1,0
131699,-3.57142857142857,4,1,0,100,0,0
131700,167.837559808612,4,1,0,100,1,0
131700,-3.57525920629246,4,1,0,100,0,0
131701,167.687559808612,4,1,0,100,1,0
131701,-3.5778175313059,4,1,0,100,0,0
131702,167.537559808612,4,1,0,100,1,0
131702,-3.58166189111748,4,1,0,100,0,0
131703,167.387559808612,4,1,0,100,1,0
131703,-3.584229390681,4,1,0,100,0,0
131704,167.237559808612,4,1,0,100,1,0
131704,-3.5880875493362,4,1,0,100,0,0
131705,167.087559808612,4,1,0,100,1,0
131705,-3.59066427289048,4,1,0,100,0,0
131706,166.937559808612,4,1,0,100,1,0
131706,-3.59453630481668,4,1,0,100,0,0
131707,166.787559808612,4,1,0,100,1,0
131707,-3.59712230215827,4,1,0,100,0,0
131708,166.637559808612,4,1,0,100,1,0
131708,-3.60100828231905,4,1,0,100,0,0
131709,166.487559808612,4,1,0,100,1,0
131709,-3.6036036036036,4,1,0,100,0,0
131710,166.337559808612,4,1,0,100,1,0
131710,-3.60750360750361,4,1,0,100,0,0
131711,166.187559808612,4,1,0,100,1,0
131711,-3.6101083032491,4,1,0,100,0,0
131712,166.037559808612,4,1,0,100,1,0
131712,-3.61402240693892,4,1,0,100,0,0
131713,165.887559808612,4,1,0,100,1,0
131713,-3.61663652802893,4,1,0,100,0,0
131714,165.737559808612,4,1,0,100,1,0
131714,-3.62056480811007,4,1,0,100,0,0
131715,165.587559808612,4,1,0,100,1,0
131715,-3.6231884057971,4,1,0,100,0,0
131716,165.437559808612,4,1,0,100,1,0
131716,-3.62713093942691,4,1,0,100,0,0
131717,165.287559808612,4,1,0,100,1,0
131717,-3.62976406533575,4,1,0,100,0,0
131718,165.137559808612,4,1,0,100,1,0
131718,-3.63372093023256,4,1,0,100,0,0
131719,164.987559808612,4,1,0,100,1,0
131719,-3.63636363636364,4,1,0,100,0,0
131720,164.837559808612,4,1,0,100,1,0
131720,-3.6403349108118,4,1,0,100,0,0
131721,164.687559808612,4,1,0,100,1,0
131721,-3.64298724954463,4,1,0,100,0,0
131722,164.537559808612,4,1,0,100,1,0
131722,-3.64697301239971,4,1,0,100,0,0
131723,164.387559808612,4,1,0,100,1,0
131723,-3.64963503649635,4,1,0,100,0,0
131724,164.237559808612,4,1,0,100,1,0
131724,-3.65363536719035,4,1,0,100,0,0
131725,164.087559808612,4,1,0,100,1,0
131725,-3.6563071297989,4,1,0,100,0,0
131726,163.937559808612,4,1,0,100,1,0
131726,-3.66032210834553,4,1,0,100,0,0
131727,163.787559808612,4,1,0,100,1,0
131727,-3.66300366300366,4,1,0,100,0,0
131728,163.637559808612,4,1,0,100,1,0
131728,-3.66703337000367,4,1,0,100,0,0
131729,163.487559808612,4,1,0,100,1,0
131729,-3.6697247706422,4,1,0,100,0,0
131730,163.337559808612,4,1,0,100,1,0
131730,-3.67376928728876,4,1,0,100,0,0
131731,163.187559808612,4,1,0,100,1,0
131731,-3.67647058823529,4,1,0,100,0,0
131732,163.037559808612,4,1,0,100,1,0
131732,-3.68052999631947,4,1,0,100,0,0
131733,162.887559808612,4,1,0,100,1,0
131733,-3.68324125230203,4,1,0,100,0,0
131734,162.737559808612,4,1,0,100,1,0
131734,-3.68731563421829,4,1,0,100,0,0
131735,162.587559808612,4,1,0,100,1,0
131735,-3.690036900369,4,1,0,100,0,0
131736,162.437559808612,4,1,0,100,1,0
131736,-3.6941263391208,4,1,0,100,0,0
131737,162.287559808612,4,1,0,100,1,0
131737,-3.69685767097967,4,1,0,100,0,0
131738,162.137559808612,4,1,0,100,1,0
131738,-3.70096225018505,4,1,0,100,0,0
131739,161.987559808612,4,1,0,100,1,0
131739,-3.7037037037037,4,1,0,100,0,0
131740,161.837559808612,4,1,0,100,1,0
131740,-3.70782350760104,4,1,0,100,0,0
131741,161.687559808612,4,1,0,100,1,0
131741,-3.71057513914657,4,1,0,100,0,0
131741,-37.1747211895911,4,1,0,100,0,0
131742,161.537559808612,4,1,0,100,1,0
131742,-3.7147102526003,4,1,0,100,0,0
131743,161.387559808612,4,1,0,100,1,0
131743,-3.71747211895911,4,1,0,100,0,0
131744,161.237559808612,4,1,0,100,1,0
131744,-3.72162262746558,4,1,0,100,0,0
131745,161.087559808612,4,1,0,100,1,0
131745,-3.7243947858473,4,1,0,100,0,0
131746,160.937559808612,4,1,0,100,1,0
131746,-3.72856077554064,4,1,0,100,0,0
131747,160.787559808612,4,1,0,100,1,0
131747,-3.73134328358209,4,1,0,100,0,0
131748,160.637559808612,4,1,0,100,1,0
131748,-3.73552484124019,4,1,0,100,0,0
131749,160.487559808612,4,1,0,100,1,0
131749,-3.73831775700935,4,1,0,100,0,0
131750,160.337559808612,4,1,0,100,1,0
131750,-3.74251497005988,4,1,0,100,0,0
131751,160.187559808612,4,1,0,100,1,0
131751,-3.74531835205993,4,1,0,100,0,0
131752,160.037559808612,4,1,0,100,1,0
131752,-3.74953130858643,4,1,0,100,0,0
131753,159.887559808612,4,1,0,100,1,0
131753,-3.75234521575985,4,1,0,100,0,0
131754,159.737559808612,4,1,0,100,1,0
131754,-3.75657400450789,4,1,0,100,0,0
131755,159.587559808612,4,1,0,100,1,0
131755,-3.7593984962406,4,1,0,100,0,0
131756,159.437559808612,4,1,0,100,1,0
131756,-3.76364320662401,4,1,0,100,0,0
131757,159.287559808612,4,1,0,100,1,0
131757,-3.76647834274953,4,1,0,100,0,0
131758,159.137559808612,4,1,0,100,1,0
131758,-3.77073906485671,4,1,0,100,0,0
131759,158.987559808612,4,1,0,100,1,0
131759,-3.77358490566038,4,1,0,100,0,0
131760,158.837559808612,4,1,0,100,1,0
131760,-3.77786173026067,4,1,0,100,0,0
131761,158.687559808612,4,1,0,100,1,0
131761,-3.78071833648393,4,1,0,100,0,0
131762,158.537559808612,4,1,0,100,1,0
131762,-3.78501135503406,4,1,0,100,0,0
131763,158.387559808612,4,1,0,100,1,0
131763,-3.78787878787879,4,1,0,100,0,0
131764,158.237559808612,4,1,0,100,1,0
131764,-3.79218809252939,4,1,0,100,0,0
131765,158.087559808612,4,1,0,100,1,0
131765,-3.79506641366224,4,1,0,100,0,0
131766,157.937559808612,4,1,0,100,1,0
131766,-3.79939209726444,4,1,0,100,0,0
131767,157.787559808612,4,1,0,100,1,0
131767,-3.80228136882129,4,1,0,100,0,0
131768,157.637559808612,4,1,0,100,1,0
131768,-3.80662352493338,4,1,0,100,0,0
131769,157.487559808612,4,1,0,100,1,0
131769,-3.80952380952381,4,1,0,100,0,0
131770,157.337559808612,4,1,0,100,1,0
131770,-3.813882532418,4,1,0,100,0,0
131771,157.187559808612,4,1,0,100,1,0
131771,-3.81679389312977,4,1,0,100,0,0
131772,157.037559808612,4,1,0,100,1,0
131772,-3.82116927779901,4,1,0,100,0,0
131773,156.887559808612,4,1,0,100,1,0
131773,-3.82409177820268,4,1,0,100,0,0
131774,156.737559808612,4,1,0,100,1,0
131774,-3.82848392036753,4,1,0,100,0,0
131775,156.587559808612,4,1,0,100,1,0
131775,-3.83141762452107,4,1,0,100,0,0
131776,156.437559808612,4,1,0,100,1,0
131776,-3.83582662063675,4,1,0,100,0,0
131777,156.287559808612,4,1,0,100,1,0
131777,-3.83877159309021,4,1,0,100,0,0
131778,156.137559808612,4,1,0,100,1,0
131778,-3.84319754035357,4,1,0,100,0,0
131779,155.987559808612,4,1,0,100,1,0
131779,-3.84615384615385,4,1,0,100,0,0
131780,155.837559808612,4,1,0,100,1,0
131780,-3.85059684251059,4,1,0,100,0,0
131781,155.687559808612,4,1,0,100,1,0
131781,-3.85356454720617,4,1,0,100,0,0
131782,155.537559808612,4,1,0,100,1,0
131782,-3.85802469135802,4,1,0,100,0,0
131783,155.387559808612,4,1,0,100,1,0
131783,-3.86100386100386,4,1,0,100,0,0
131784,155.237559808612,4,1,0,100,1,0
131784,-3.86548125241593,4,1,0,100,0,0
131785,155.087559808612,4,1,0,100,1,0
131785,-3.86847195357834,4,1,0,100,0,0
131786,154.937559808612,4,1,0,100,1,0
131786,-3.87296669248644,4,1,0,100,0,0
131787,154.787559808612,4,1,0,100,1,0
131787,-3.87596899224806,4,1,0,100,0,0
131788,154.637559808612,4,1,0,100,1,0
131788,-3.88048117966628,4,1,0,100,0,0
131789,154.487559808612,4,1,0,100,1,0
131789,-3.88349514563107,4,1,0,100,0,0
131790,154.337559808612,4,1,0,100,1,0
131790,-3.88802488335925,4,1,0,100,0,0
131791,154.187559808612,4,1,0,100,1,0
131791,-3.89105058365759,4,1,0,100,0,0
131792,154.037559808612,4,1,0,100,1,0
131792,-3.89559797428905,4,1,0,100,0,0
131793,153.887559808612,4,1,0,100,1,0
131793,-3.89863547758285,4,1,0,100,0,0
131794,153.737559808612,4,1,0,100,1,0
131794,-3.9032006245121,4,1,0,100,0,0
131795,153.587559808612,4,1,0,100,1,0
131795,-3.90625,4,1,0,100,0,0
131796,153.437559808612,4,1,0,100,1,0
131796,-3.91083300743058,4,1,0,100,0,0
131797,153.287559808612,4,1,0,100,1,0
131797,-3.91389432485323,4,1,0,100,0,0
131798,153.137559808612,4,1,0,100,1,0
131798,-3.91849529780564,4,1,0,100,0,0
131799,152.987559808612,4,1,0,100,1,0
131799,-3.92156862745098,4,1,0,100,0,0
131800,152.837559808612,4,1,0,100,1,0
131800,-3.92618767177071,4,1,0,100,0,0
131801,152.687559808612,4,1,0,100,1,0
131801,-3.92927308447937,4,1,0,100,0,0
131802,152.537559808612,4,1,0,100,1,0
131802,-3.933910306845,4,1,0,100,0,0
131803,152.387559808612,4,1,0,100,1,0
131803,-3.93700787401575,4,1,0,100,0,0
131804,152.237559808612,4,1,0,100,1,0
131804,-3.94166338194718,4,1,0,100,0,0
131805,152.087559808612,4,1,0,100,1,0
131805,-3.94477317554241,4,1,0,100,0,0
131806,151.937559808612,4,1,0,100,1,0
131806,-3.94944707740916,4,1,0,100,0,0
131807,151.787559808612,4,1,0,100,1,0
131807,-3.95256916996047,4,1,0,100,0,0
131808,151.637559808612,4,1,0,100,1,0
131808,-3.95726157499011,4,1,0,100,0,0
131809,151.487559808612,4,1,0,100,1,0
131809,-3.96039603960396,4,1,0,100,0,0
131810,151.337559808612,4,1,0,100,1,0
131810,-3.96510705789056,4,1,0,100,0,0
131811,151.187559808612,4,1,0,100,1,0
131811,-3.96825396825397,4,1,0,100,0,0
131812,151.037559808612,4,1,0,100,1,0
131812,-3.97298371076679,4,1,0,100,0,0
131813,150.887559808612,4,1,0,100,1,0
131813,-3.97614314115308,4,1,0,100,0,0
131814,150.737559808612,4,1,0,100,1,0
131814,-3.98089171974522,4,1,0,100,0,0
131815,150.587559808612,4,1,0,100,1,0
131815,-3.98406374501992,4,1,0,100,0,0
131816,150.437559808612,4,1,0,100,1,0
131816,-3.98883127243718,4,1,0,100,0,0
131817,150.287559808612,4,1,0,100,1,0
131817,-3.99201596806387,4,1,0,100,0,0
131818,150.137559808612,4,1,0,100,1,0
131818,-3.99680255795364,4,1,0,100,0,0
131819,149.987559808612,4,1,0,100,1,0
131819,-4,4,1,0,100,0,0
131820,149.837559808612,4,1,0,100,1,0
131820,-4.0048057669203,4,1,0,100,0,0
131821,149.687559808612,4,1,0,100,1,0
131821,-4.00801603206413,4,1,0,100,0,0
131822,149.537559808612,4,1,0,100,1,0
131822,-4.01284109149278,4,1,0,100,0,0
131823,149.387559808612,4,1,0,100,1,0
131823,-4.01606425702811,4,1,0,100,0,0
131824,149.237559808612,4,1,0,100,1,0
131824,-4.02090872537193,4,1,0,100,0,0
131825,149.087559808612,4,1,0,100,1,0
131825,-4.02414486921529,4,1,0,100,0,0
131826,148.937559808612,4,1,0,100,1,0
131826,-4.0290088638195,4,1,0,100,0,0
131827,148.787559808612,4,1,0,100,1,0
131827,-4.03225806451613,4,1,0,100,0,0
131828,148.637559808612,4,1,0,100,1,0
131828,-4.0371417036738,4,1,0,100,0,0
131829,148.487559808612,4,1,0,100,1,0
131829,-4.04040404040404,4,1,0,100,0,0
131830,148.337559808612,4,1,0,100,1,0
131830,-4.0453074433657,4,1,0,100,0,0
131831,148.187559808612,4,1,0,100,1,0
131831,-4.04858299595142,4,1,0,100,0,0
131832,148.037559808612,4,1,0,100,1,0
131832,-4.05350628293474,4,1,0,100,0,0
131833,147.887559808612,4,1,0,100,1,0
131833,-4.05679513184584,4,1,0,100,0,0
131834,147.737559808612,4,1,0,100,1,0
131834,-4.06173842404549,4,1,0,100,0,0
131835,147.587559808612,4,1,0,100,1,0
131835,-4.0650406504065,4,1,0,100,0,0
131836,147.437559808612,4,1,0,100,1,0
131836,-4.07000407000407,4,1,0,100,0,0
131837,147.287559808612,4,1,0,100,1,0
131837,-4.07331975560081,4,1,0,100,0,0
131838,147.137559808612,4,1,0,100,1,0
131838,-4.07830342577488,4,1,0,100,0,0
131839,146.987559808612,4,1,0,100,1,0
131839,-4.08163265306122,4,1,0,100,0,0
131840,146.837559808612,4,1,0,100,1,0
131840,-4.08663669799755,4,1,0,100,0,0
131841,146.687559808612,4,1,0,100,1,0
131841,-4.08997955010225,4,1,0,100,0,0
131842,146.537559808612,4,1,0,100,1,0
131842,-4.09500409500409,4,1,0,100,0,0
131843,146.387559808612,4,1,0,100,1,0
131843,-4.09836065573771,4,1,0,100,0,0
131844,146.237559808612,4,1,0,100,1,0
131844,-4.10340582683627,4,1,0,100,0,0
131845,146.087559808612,4,1,0,100,1,0
131845,-4.10677618069815,4,1,0,100,0,0
131846,145.937559808612,4,1,0,100,1,0
131846,-4.11184210526316,4,1,0,100,0,0
131847,145.787559808612,4,1,0,100,1,0
131847,-4.11522633744856,4,1,0,100,0,0
131848,145.637559808612,4,1,0,100,1,0
131848,-4.12031314379893,4,1,0,100,0,0
131849,145.487559808612,4,1,0,100,1,0
131849,-4.12371134020619,4,1,0,100,0,0
131850,145.337559808612,4,1,0,100,1,0
131850,-4.12881915772089,4,1,0,100,0,0
131851,145.187559808612,4,1,0,100,1,0
131851,-4.13223140495868,4,1,0,100,0,0
131852,145.037559808612,4,1,0,100,1,0
131852,-4.13736036408771,4,1,0,100,0,0
131853,144.887559808612,4,1,0,100,1,0
131853,-4.1407867494824,4,1,0,100,0,0
131854,144.737559808612,4,1,0,100,1,0
131854,-4.14593698175788,4,1,0,100,0,0
131855,144.587559808612,4,1,0,100,1,0
131855,-4.149377593361,4,1,0,100,0,0
131856,144.437559808612,4,1,0,100,1,0
131856,-4.15454923140839,4,1,0,100,0,0
131857,144.287559808612,4,1,0,100,1,0
131857,-4.15800415800416,4,1,0,100,0,0
131858,144.137559808612,4,1,0,100,1,0
131858,-4.16319733555371,4,1,0,100,0,0
131859,143.987559808612,4,1,0,100,1,0
131859,-4.16666666666667,4,1,0,100,0,0
131860,143.837559808612,4,1,0,100,1,0
131860,-4.17188151856487,4,1,0,100,0,0
131861,143.687559808612,4,1,0,100,1,0
131861,-4.17536534446764,4,1,0,100,0,0
131862,143.537559808612,4,1,0,100,1,0
131862,-4.18060200668896,4,1,0,100,0,0
131863,143.387559808612,4,1,0,100,1,0
131863,-4.18410041841004,4,1,0,100,0,0
131864,143.237559808612,4,1,0,100,1,0
131864,-4.18935902806871,4,1,0,100,0,0
131865,143.087559808612,4,1,0,100,1,0
131865,-4.19287211740042,4,1,0,100,0,0
131866,142.937559808612,4,1,0,100,1,0
131866,-4.19815281276238,4,1,0,100,0,0
131867,142.787559808612,4,1,0,100,1,0
131867,-4.20168067226891,4,1,0,100,0,0
131868,142.637559808612,4,1,0,100,1,0
131868,-4.20698359276399,4,1,0,100,0,0
131869,142.487559808612,4,1,0,100,1,0
131869,-4.21052631578947,4,1,0,100,0,0
131870,142.337559808612,4,1,0,100,1,0
131870,-4.21585160202361,4,1,0,100,0,0
131871,142.187559808612,4,1,0,100,1,0
131871,-4.21940928270042,4,1,0,100,0,0
131872,142.037559808612,4,1,0,100,1,0
131872,-4.2247570764681,4,1,0,100,0,0
131873,141.887559808612,4,1,0,100,1,0
131873,-4.22832980972516,4,1,0,100,0,0
131874,141.737559808612,4,1,0,100,1,0
131874,-4.23370025402201,4,1,0,100,0,0
131875,141.587559808612,4,1,0,100,1,0
131875,-4.23728813559322,4,1,0,100,0,0
131876,141.437559808612,4,1,0,100,1,0
131876,-4.24268137462877,4,1,0,100,0,0
131877,141.287559808612,4,1,0,100,1,0
131877,-4.24628450106157,4,1,0,100,0,0
131878,141.137559808612,4,1,0,100,1,0
131878,-4.25170068027211,4,1,0,100,0,0
131879,140.987559808612,4,1,0,100,1,0
131879,-4.25531914893617,4,1,0,100,0,0
131880,140.837559808612,4,1,0,100,1,0
131880,-4.26075841499787,4,1,0,100,0,0
131881,140.687559808612,4,1,0,100,1,0
131881,-4.26439232409382,4,1,0,100,0,0
131882,140.537559808612,4,1,0,100,1,0
131882,-4.26985482493595,4,1,0,100,0,0
131883,140.387559808612,4,1,0,100,1,0
131883,-4.27350427350427,4,1,0,100,0,0
131884,140.237559808612,4,1,0,100,1,0
131884,-4.27899015832264,4,1,0,100,0,0
131885,140.087559808612,4,1,0,100,1,0
131885,-4.28265524625268,4,1,0,100,0,0
131886,139.937559808612,4,1,0,100,1,0
131886,-4.28816466552316,4,1,0,100,0,0
131887,139.787559808612,4,1,0,100,1,0
131887,-4.29184549356223,4,1,0,100,0,0
131888,139.637559808612,4,1,0,100,1,0
131888,-4.29737859905458,4,1,0,100,0,0
131889,139.487559808612,4,1,0,100,1,0
131889,-4.3010752688172,4,1,0,100,0,0
131890,139.337559808612,4,1,0,100,1,0
131890,-4.30663221360896,4,1,0,100,0,0
131891,139.187559808612,4,1,0,100,1,0
131891,-4.31034482758621,4,1,0,100,0,0
131892,139.037559808612,4,1,0,100,1,0
131892,-4.31592576607682,4,1,0,100,0,0
131893,138.887559808612,4,1,0,100,1,0
131893,-4.31965442764579,4,1,0,100,0,0
131894,138.737559808612,4,1,0,100,1,0
131894,-4.32525951557093,4,1,0,100,0,0
131895,138.587559808612,4,1,0,100,1,0
131895,-4.32900432900433,4,1,0,100,0,0
131896,138.437559808612,4,1,0,100,1,0
131896,-4.33463372345037,4,1,0,100,0,0
131897,138.287559808612,4,1,0,100,1,0
131897,-4.33839479392625,4,1,0,100,0,0
131898,138.137559808612,4,1,0,100,1,0
131898,-4.34404865334492,4,1,0,100,0,0
131899,137.987559808612,4,1,0,100,1,0
131899,-4.34782608695652,4,1,0,100,0,0
131900,137.837559808612,4,1,0,100,1,0
131900,-4.3535045711798,4,1,0,100,0,0
131901,137.687559808612,4,1,0,100,1,0
131901,-4.35729847494553,4,1,0,100,0,0
131902,137.537559808612,4,1,0,100,1,0
131902,-4.3630017452007,4,1,0,100,0,0
131903,137.387559808612,4,1,0,100,1,0
131903,-4.36681222707424,4,1,0,100,0,0
131904,137.237559808612,4,1,0,100,1,0
131904,-4.37254044599913,4,1,0,100,0,0
131905,137.087559808612,4,1,0,100,1,0
131905,-4.37636761487965,4,1,0,100,0,0
131906,136.937559808612,4,1,0,100,1,0
131906,-4.38212094653812,4,1,0,100,0,0
131907,136.787559808612,4,1,0,100,1,0
131907,-4.3859649122807,4,1,0,100,0,0
131908,136.637559808612,4,1,0,100,1,0
131908,-4.39174352217831,4,1,0,100,0,0
131909,136.487559808612,4,1,0,100,1,0
131909,-4.3956043956044,4,1,0,100,0,0
131910,136.337559808612,4,1,0,100,1,0
131910,-4.40140845070423,4,1,0,100,0,0
131911,136.187559808612,4,1,0,100,1,0
131911,-4.40528634361234,4,1,0,100,0,0
131912,136.037559808612,4,1,0,100,1,0
131912,-4.41111601235112,4,1,0,100,0,0
131913,135.887559808612,4,1,0,100,1,0
131913,-4.41501103752759,4,1,0,100,0,0
131914,135.737559808612,4,1,0,100,1,0
131914,-4.42086648983201,4,1,0,100,0,0
131915,135.587559808612,4,1,0,100,1,0
131915,-4.42477876106195,4,1,0,100,0,0
131916,135.437559808612,4,1,0,100,1,0
131916,-4.43066016836509,4,1,0,100,0,0
131917,135.287559808612,4,1,0,100,1,0
131917,-4.43458980044346,4,1,0,100,0,0
131918,135.137559808612,4,1,0,100,1,0
131918,-4.4404973357016,4,1,0,100,0,0
131919,134.987559808612,4,1,0,100,1,0
131919,-4.44444444444444,4,1,0,100,0,0
131920,134.837559808612,4,1,0,100,1,0
131920,-4.45037828215398,4,1,0,100,0,0
131921,134.687559808612,4,1,0,100,1,0
131921,-4.4543429844098,4,1,0,100,0,0
131922,134.537559808612,4,1,0,100,1,0
131922,-4.46030330062444,4,1,0,100,0,0
131923,134.387559808612,4,1,0,100,1,0
131923,-4.46428571428571,4,1,0,100,0,0
131924,134.237559808612,4,1,0,100,1,0
131924,-4.47027268663388,4,1,0,100,0,0
131925,134.087559808612,4,1,0,100,1,0
131925,-4.47427293064877,4,1,0,100,0,0
131926,133.937559808612,4,1,0,100,1,0
131926,-4.48028673835125,4,1,0,100,0,0
131927,133.787559808612,4,1,0,100,1,0
131927,-4.48430493273543,4,1,0,100,0,0
131928,133.637559808612,4,1,0,100,1,0
131928,-4.49034575662326,4,1,0,100,0,0
131929,133.487559808612,4,1,0,100,1,0
131929,-4.49438202247191,4,1,0,100,0,0
131930,133.337559808612,4,1,0,100,1,0
131930,-4.5004500450045,4,1,0,100,0,0
131931,133.187559808612,4,1,0,100,1,0
131931,-4.5045045045045,4,1,0,100,0,0
131932,133.037559808612,4,1,0,100,1,0
131932,-4.510599909788,4,1,0,100,0,0
131933,132.887559808612,4,1,0,100,1,0
131933,-4.51467268623025,4,1,0,100,0,0
131934,132.737559808612,4,1,0,100,1,0
131934,-4.52079566003617,4,1,0,100,0,0
131935,132.587559808612,4,1,0,100,1,0
131935,-4.52488687782805,4,1,0,100,0,0
131936,132.437559808612,4,1,0,100,1,0
131936,-4.53103760761214,4,1,0,100,0,0
131937,132.287559808612,4,1,0,100,1,0
131937,-4.53514739229025,4,1,0,100,0,0
131938,132.137559808612,4,1,0,100,1,0
131938,-4.54132606721163,4,1,0,100,0,0
131939,131.987559808612,4,1,0,100,1,0
131939,-4.54545454545455,4,1,0,100,0,0
131940,131.837559808612,4,1,0,100,1,0
131940,-4.55166135639508,4,1,0,100,0,0
131941,131.687559808612,4,1,0,100,1,0
131941,-4.55580865603645,4,1,0,100,0,0
131942,131.537559808612,4,1,0,100,1,0
131942,-4.56204379562044,4,1,0,100,0,0
131943,131.387559808612,4,1,0,100,1,0
131943,-4.5662100456621,4,1,0,100,0,0
131944,131.237559808612,4,1,0,100,1,0
131944,-4.57247370827618,4,1,0,100,0,0
131945,131.087559808612,4,1,0,100,1,0
131945,-4.5766590389016,4,1,0,100,0,0
131946,130.937559808612,4,1,0,100,1,0
131946,-4.58295142071494,4,1,0,100,0,0
131947,130.787559808612,4,1,0,100,1,0
131947,-4.58715596330275,4,1,0,100,0,0
131948,130.637559808612,4,1,0,100,1,0
131948,-4.59347726228755,4,1,0,100,0,0
131949,130.487559808612,4,1,0,100,1,0
131949,-4.59770114942529,4,1,0,100,0,0
131950,130.337559808612,4,1,0,100,1,0
131950,-4.60405156537753,4,1,0,100,0,0
131951,130.187559808612,4,1,0,100,1,0
131951,-4.60829493087558,4,1,0,100,0,0
131952,130.037559808612,4,1,0,100,1,0
131952,-4.61467466543609,4,1,0,100,0,0
131953,129.887559808612,4,1,0,100,1,0
131953,-4.6189376443418,4,1,0,100,0,0
131954,129.737559808612,4,1,0,100,1,0
131954,-4.62534690101758,4,1,0,100,0,0
131955,129.587559808612,4,1,0,100,1,0
131955,-4.62962962962963,4,1,0,100,0,0
131956,129.437559808612,4,1,0,100,1,0
131956,-4.63606861381548,4,1,0,100,0,0
131957,129.287559808612,4,1,0,100,1,0
131957,-4.64037122969838,4,1,0,100,0,0
131958,129.137559808612,4,1,0,100,1,0
131958,-4.64684014869889,4,1,0,100,0,0
131959,128.987559808612,4,1,0,100,1,0
131959,-4.65116279069767,4,1,0,100,0,0
131960,128.837559808612,4,1,0,100,1,0
131960,-4.65766185374942,4,1,0,100,0,0
131961,128.687559808612,4,1,0,100,1,0
131961,-4.66200466200466,4,1,0,100,0,0
131962,128.537559808612,4,1,0,100,1,0
131962,-4.66853408029879,4,1,0,100,0,0
131963,128.387559808612,4,1,0,100,1,0
131963,-4.67289719626168,4,1,0,100,0,0
131964,128.237559808612,4,1,0,100,1,0
131964,-4.67945718296678,4,1,0,100,0,0
131965,128.087559808612,4,1,0,100,1,0
131965,-4.68384074941452,4,1,0,100,0,0
131966,127.937559808612,4,1,0,100,1,0
131966,-4.69043151969981,4,1,0,100,0,0
131967,127.787559808612,4,1,0,100,1,0
131967,-4.69483568075117,4,1,0,100,0,0
131968,127.637559808612,4,1,0,100,1,0
131968,-4.70145745181006,4,1,0,100,0,0
131969,127.487559808612,4,1,0,100,1,0
131969,-4.70588235294118,4,1,0,100,0,0
131970,127.337559808612,4,1,0,100,1,0
131970,-4.71253534401508,4,1,0,100,0,0
131971,127.187559808612,4,1,0,100,1,0
131971,-4.71698113207547,4,1,0,100,0,0
131972,127.037559808612,4,1,0,100,1,0
131972,-4.72366556447803,4,1,0,100,0,0
131973,126.887559808612,4,1,0,100,1,0
131973,-4.72813238770686,4,1,0,100,0,0
131974,126.737559808612,4,1,0,100,1,0
131974,-4.73484848484848,4,1,0,100,0,0
131975,126.587559808612,4,1,0,100,1,0
131975,-4.739336492891,4,1,0,100,0,0
131976,126.437559808612,4,1,0,100,1,0
131976,-4.74608448030375,4,1,0,100,0,0
131977,126.287559808612,4,1,0,100,1,0
131977,-4.75059382422803,4,1,0,100,0,0
131978,126.137559808612,4,1,0,100,1,0
131978,-4.75737392959087,4,1,0,100,0,0
131979,125.987559808612,4,1,0,100,1,0
131979,-4.76190476190476,4,1,0,100,0,0
131980,125.837559808612,4,1,0,100,1,0
131980,-4.76871721506915,4,1,0,100,0,0
131981,125.687559808612,4,1,0,100,1,0
131981,-4.77326968973747,4,1,0,100,0,0
131982,125.537559808612,4,1,0,100,1,0
131982,-4.78011472275335,4,1,0,100,0,0
131983,125.387559808612,4,1,0,100,1,0
131983,-4.78468899521531,4,1,0,100,0,0
131984,125.237559808612,4,1,0,100,1,0
131984,-4.79156684235745,4,1,0,100,0,0
131985,125.087559808612,4,1,0,100,1,0
131985,-4.79616306954436,4,1,0,100,0,0
131986,124.937559808612,4,1,0,100,1,0
131986,-4.8030739673391,4,1,0,100,0,0
131987,124.787559808612,4,1,0,100,1,0
131987,-4.80769230769231,4,1,0,100,0,0
131988,124.637559808612,4,1,0,100,1,0
131988,-4.81463649494463,4,1,0,100,0,0
131989,124.487559808612,4,1,0,100,1,0
131989,-4.81927710843374,4,1,0,100,0,0
131990,124.337559808612,4,1,0,100,1,0
131990,-4.82625482625483,4,1,0,100,0,0
131991,124.187559808612,4,1,0,100,1,0
131991,-4.83091787439614,4,1,0,100,0,0
131992,124.037559808612,4,1,0,100,1,0
131992,-4.83792936623125,4,1,0,100,0,0
131993,123.887559808612,4,1,0,100,1,0
131993,-4.84261501210654,4,1,0,100,0,0
131994,123.737559808612,4,1,0,100,1,0
131994,-4.84966052376334,4,1,0,100,0,0
131995,123.587559808612,4,1,0,100,1,0
131995,-4.85436893203883,4,1,0,100,0,0
131996,123.437559808612,4,1,0,100,1,0
131996,-4.86144871171609,4,1,0,100,0,0
131997,123.287559808612,4,1,0,100,1,0
131997,-4.8661800486618,4,1,0,100,0,0
131998,123.137559808612,4,1,0,100,1,0
131998,-4.87329434697856,4,1,0,100,0,0
131999,122.987559808612,4,1,0,100,1,0
131999,-4.8780487804878,4,1,0,100,0,0
132000,122.837559808612,4,1,0,100,1,0
132000,-4.88519785051295,4,1,0,100,0,0
132001,122.687559808612,4,1,0,100,1,0
132001,-4.88997555012225,4,1,0,100,0,0
132002,122.537559808612,4,1,0,100,1,0
132002,-4.89715964740451,4,1,0,100,0,0
132003,122.387559808612,4,1,0,100,1,0
132003,-4.90196078431373,4,1,0,100,0,0
132004,122.237559808612,4,1,0,100,1,0
132004,-4.90918016691213,4,1,0,100,0,0
132005,122.087559808612,4,1,0,100,1,0
132005,-4.91400491400491,4,1,0,100,0,0
132006,121.937559808612,4,1,0,100,1,0
132006,-4.92125984251969,4,1,0,100,0,0
132007,121.787559808612,4,1,0,100,1,0
132007,-4.92610837438424,4,1,0,100,0,0
132008,121.637559808612,4,1,0,100,1,0
132008,-4.93339911198816,4,1,0,100,0,0
132009,121.487559808612,4,1,0,100,1,0
132009,-4.93827160493827,4,1,0,100,0,0
132010,121.337559808612,4,1,0,100,1,0
132010,-4.94559841740851,4,1,0,100,0,0
132011,121.187559808612,4,1,0,100,1,0
132011,-4.95049504950495,4,1,0,100,0,0
132012,121.037559808612,4,1,0,100,1,0
132012,-4.95785820525533,4,1,0,100,0,0
132013,120.887559808612,4,1,0,100,1,0
132013,-4.96277915632754,4,1,0,100,0,0
132014,120.737559808612,4,1,0,100,1,0
132014,-4.97017892644135,4,1,0,100,0,0
132015,120.587559808612,4,1,0,100,1,0
132015,-4.97512437810945,4,1,0,100,0,0
132016,120.437559808612,4,1,0,100,1,0
132016,-4.9825610363727,4,1,0,100,0,0
132017,120.287559808612,4,1,0,100,1,0
132017,-4.98753117206983,4,1,0,100,0,0
132018,120.137559808612,4,1,0,100,1,0
132018,-4.995004995005,4,1,0,100,0,0
132019,119.987559808612,4,1,0,100,1,0
132019,-5,4,1,0,100,0,0
132020,119.837559808612,4,1,0,100,1,0
132020,-5.00751126690035,4,1,0,100,0,0
132021,119.687559808612,4,1,0,100,1,0
132021,-5.0125313283208,4,1,0,100,0,0
132022,119.537559808612,4,1,0,100,1,0
132022,-5.02008032128514,4,1,0,100,0,0
132023,119.387559808612,4,1,0,100,1,0
132023,-5.0251256281407,4,1,0,100,0,0
132024,119.237559808612,4,1,0,100,1,0
132024,-5.03271263210871,4,1,0,100,0,0
132025,119.087559808612,4,1,0,100,1,0
132025,-5.03778337531486,4,1,0,100,0,0
132026,118.937559808612,4,1,0,100,1,0
132026,-5.04540867810293,4,1,0,100,0,0
132027,118.787559808612,4,1,0,100,1,0
132027,-5.05050505050505,4,1,0,100,0,0
132028,118.637559808612,4,1,0,100,1,0
132028,-5.05816894284269,4,1,0,100,0,0
132029,118.487559808612,4,1,0,100,1,0
132029,-5.06329113924051,4,1,0,100,0,0
132030,118.337559808612,4,1,0,100,1,0
132030,-5.0709939148073,4,1,0,100,0,0
132031,118.187559808612,4,1,0,100,1,0
132031,-5.0761421319797,4,1,0,100,0,0
132032,118.037559808612,4,1,0,100,1,0
132032,-5.08388408744281,4,1,0,100,0,0
132033,117.887559808612,4,1,0,100,1,0
132033,-5.08905852417303,4,1,0,100,0,0
132034,117.737559808612,4,1,0,100,1,0
132034,-5.09683995922528,4,1,0,100,0,0
132035,117.587559808612,4,1,0,100,1,0
132035,-5.10204081632653,4,1,0,100,0,0
132036,117.437559808612,4,1,0,100,1,0
132036,-5.10986203372509,4,1,0,100,0,0
132037,117.287559808612,4,1,0,100,1,0
132037,-5.1150895140665,4,1,0,100,0,0
132038,117.137559808612,4,1,0,100,1,0
132038,-5.12295081967213,4,1,0,100,0,0
132039,116.987559808612,4,1,0,100,1,0
132039,-5.12820512820513,4,1,0,100,0,0
132040,116.837559808612,4,1,0,100,1,0
132040,-5.13610683102209,4,1,0,100,0,0
132041,116.687559808612,4,1,0,100,1,0
132041,-5.1413881748072,4,1,0,100,0,0
132042,116.537559808612,4,1,0,100,1,0
132042,-5.14933058702369,4,1,0,100,0,0
132043,116.387559808612,4,1,0,100,1,0
132043,-5.15463917525773,4,1,0,100,0,0
132044,116.237559808612,4,1,0,100,1,0
132044,-5.16262261228704,4,1,0,100,0,0
132045,116.087559808612,4,1,0,100,1,0
132045,-5.16795865633075,4,1,0,100,0,0
132046,115.937559808612,4,1,0,100,1,0
132046,-5.175983436853,4,1,0,100,0,0
132047,115.787559808612,4,1,0,100,1,0
132047,-5.18134715025907,4,1,0,100,0,0
132048,115.637559808612,4,1,0,100,1,0
132048,-5.18941359626362,4,1,0,100,0,0
132049,115.487559808612,4,1,0,100,1,0
132049,-5.19480519480519,4,1,0,100,0,0
132050,115.337559808612,4,1,0,100,1,0
132050,-5.20291363163371,4,1,0,100,0,0
132051,115.187559808612,4,1,0,100,1,0
132051,-5.20833333333333,4,1,0,100,0,0
132052,115.037559808612,4,1,0,100,1,0
132052,-5.21648408972353,4,1,0,100,0,0
132053,114.887559808612,4,1,0,100,1,0
132053,-5.22193211488251,4,1,0,100,0,0
132054,114.737559808612,4,1,0,100,1,0
132054,-5.23012552301255,4,1,0,100,0,0
132055,114.587559808612,4,1,0,100,1,0
132055,-5.23560209424084,4,1,0,100,0,0
132056,114.437559808612,4,1,0,100,1,0
132056,-5.24383848977451,4,1,0,100,0,0
132057,114.287559808612,4,1,0,100,1,0
132057,-5.249343832021,4,1,0,100,0,0
132058,114.137559808612,4,1,0,100,1,0
132058,-5.25762355415352,4,1,0,100,0,0
132059,113.987559808612,4,1,0,100,1,0
132059,-5.26315789473684,4,1,0,100,0,0
132060,113.837559808612,4,1,0,100,1,0
132060,-5.27148128624143,4,1,0,100,0,0
132061,113.687559808612,4,1,0,100,1,0
132061,-5.27704485488127,4,1,0,100,0,0
132062,113.537559808612,4,1,0,100,1,0
132062,-5.28541226215645,4,1,0,100,0,0
132063,113.387559808612,4,1,0,100,1,0
132063,-5.29100529100529,4,1,0,100,0,0
132064,113.237559808612,4,1,0,100,1,0
132064,-5.29941706412295,4,1,0,100,0,0
132065,113.087559808612,4,1,0,100,1,0
132065,-5.30503978779841,4,1,0,100,0,0
132066,112.937559808612,4,1,0,100,1,0
132066,-5.3134962805526,4,1,0,100,0,0
132067,112.787559808612,4,1,0,100,1,0
132067,-5.31914893617021,4,1,0,100,0,0
132068,112.637559808612,4,1,0,100,1,0
132068,-5.3276505061268,4,1,0,100,0,0
132069,112.487559808612,4,1,0,100,1,0
132069,-5.33333333333333,4,1,0,100,0,0
132070,112.337559808612,4,1,0,100,1,0
132070,-5.34188034188034,4,1,0,100,0,0
132071,112.187559808612,4,1,0,100,1,0
132071,-5.3475935828877,4,1,0,100,0,0
132072,112.037559808612,4,1,0,100,1,0
132072,-5.35618639528656,4,1,0,100,0,0
132073,111.887559808612,4,1,0,100,1,0
132073,-5.36193029490617,4,1,0,100,0,0
132074,111.737559808612,4,1,0,100,1,0
132074,-5.37056928034372,4,1,0,100,0,0
132075,111.587559808612,4,1,0,100,1,0
132075,-5.37634408602151,4,1,0,100,0,0
132076,111.437559808612,4,1,0,100,1,0
132076,-5.3850296176629,4,1,0,100,0,0
132077,111.287559808612,4,1,0,100,1,0
132077,-5.39083557951482,4,1,0,100,0,0
132078,111.137559808612,4,1,0,100,1,0
132078,-5.39956803455724,4,1,0,100,0,0
132079,110.987559808612,4,1,0,100,1,0
132079,-5.40540540540541,4,1,0,100,0,0
132080,110.837559808612,4,1,0,100,1,0
132080,-5.41418516513265,4,1,0,100,0,0
132081,110.687559808612,4,1,0,100,1,0
132081,-5.42005420054201,4,1,0,100,0,0
132082,110.537559808612,4,1,0,100,1,0
132082,-5.42888165038002,4,1,0,100,0,0
132083,110.387559808612,4,1,0,100,1,0
132083,-5.43478260869565,4,1,0,100,0,0
132084,110.237559808612,4,1,0,100,1,0
132084,-5.44365813826892,4,1,0,100,0,0
132085,110.087559808612,4,1,0,100,1,0
132085,-5.44959128065395,4,1,0,100,0,0
132086,109.937559808612,4,1,0,100,1,0
132086,-5.45851528384279,4,1,0,100,0,0
132087,272.727272727273,4,1,1,100,1,8
132087,-50,4,1,1,100,0,8
132496,-100,4,1,1,100,0,8
145145,-95.2380952380952,4,1,1,100,0,8
145555,-90.9090909090909,4,1,1,100,0,8
145691,-86.9565217391304,4,1,1,100,0,8
145964,-83.3333333333333,4,1,1,100,0,8
146373,-80,4,1,1,100,0,8
146509,-76.9230769230769,4,1,1,100,0,8
146782,-74.0740740740741,4,1,1,100,0,8
147055,-71.4285714285714,4,1,1,100,0,8
147327,-68.9655172413793,4,1,1,100,0,8
147736,-66.6666666666667,4,1,1,100,0,8
147873,-64.5161290322581,4,1,1,100,0,8
148145,-62.5,4,1,1,100,0,8
148420,-90.9090909090909,4,1,1,100,0,8
148466,-86.9565217391304,4,1,1,100,0,8
148511,-83.3333333333333,4,1,1,100,0,8
148557,-80,4,1,1,100,0,8
148693,-76.9230769230769,4,1,1,100,0,8
148738,-74.0740740740741,4,1,1,100,0,8
148784,-71.4285714285714,4,1,1,100,0,8
148829,-68.9655172413793,4,1,1,100,0,8
148966,-71.4285714285714,4,1,1,100,0,8
149057,-74.0740740740741,4,1,1,100,0,8
149147,-76.9230769230769,4,1,1,100,0,8
149238,-80,4,1,1,100,0,8
149329,-83.3333333333333,4,1,1,100,0,8
149375,-86.9565217391304,4,1,1,100,0,8
149541,-70.4225352112676,4,1,1,100,0,0
151723,-69.4444444444444,4,1,1,100,0,0
153905,-68.4931506849315,4,1,1,100,0,0
156087,-67.5675675675676,4,1,1,100,0,0
158268,-66.6666666666667,4,1,1,100,0,0
159359,-65.7894736842105,4,1,1,100,0,0
160450,-64.9350649350649,4,1,1,100,0,0
161541,-64.1025641025641,4,1,1,100,0,0
162632,-63.2911392405063,4,1,1,100,0,0
162904,-62.5,4,1,1,100,0,0
163177,-61.7283950617284,4,1,1,100,0,0
163450,-60.9756097560976,4,1,1,100,0,0
163722,-60.2409638554217,4,1,1,100,0,0
163995,-59.5238095238095,4,1,1,100,0,0
164268,-58.8235294117647,4,1,1,100,0,0
164541,-58.1395348837209,4,1,1,100,0,0
164813,-57.4712643678161,4,1,1,100,0,0
164882,-56.8181818181818,4,1,1,100,0,0
164950,-56.1797752808989,4,1,1,100,0,0
165018,-55.5555555555556,4,1,1,100,0,0
165086,-54.9450549450549,4,1,1,100,0,0
165154,-54.3478260869565,4,1,1,100,0,0
165222,-53.763440860215,4,1,1,100,0,0
165291,-53.1914893617021,4,1,1,100,0,0
165359,-52.6315789473684,4,1,1,100,0,0
165427,-51.5463917525773,4,1,1,100,0,0
165495,-50.5050505050505,4,1,1,100,0,0
165563,-49.5049504950495,4,1,1,100,0,0
165632,-48.5436893203883,4,1,1,100,0,0
165700,-47.6190476190476,4,1,1,100,0,0
165768,-46.7289719626168,4,1,1,100,0,0
165836,-45.8715596330275,4,1,1,100,0,0
165904,-45.045045045045,4,1,1,100,0,0
165906,0.27000027000027,4,1,1,100,1,0
165906,-10000000000,4,1,1,100,0,0
166039,0.135000135000135,4,1,1,100,1,0
166039,-10000000000,4,1,1,100,0,0
166176,0.860881542699725,4,1,1,100,1,0
166176,-10000000000,4,1,1,100,0,0
166312,0.27000027000027,4,1,1,100,1,0
166312,-10000000000,4,1,1,100,0,0
166448,0.135000135000135,4,1,1,100,1,0
166448,-10000000000,4,1,1,100,0,0
166587,272.727272727273,4,1,1,100,1,8
166587,-66.6666666666667,4,1,1,100,0,8
166996,272.727272727273,4,1,1,100,1,8
166996,-83.3333333333333,4,1,1,100,0,1
168905,272.727272727273,4,1,1,100,1,9
168905,-83.3333333333333,4,1,1,100,0,1
168906,-1E-15,4,1,1,100,0,1
169177,272.727272727273,4,1,1,100,1,9
169177,-83.3333333333333,4,1,1,100,0,1
170814,-90.9090909090909,4,1,1,100,0,1
170996,-100,4,1,1,100,0,1
171177,-111.111111111111,4,1,1,100,0,1
171358,-83.3333333333333,4,1,1,100,0,1
175724,0.09000009000009,4,1,0,100,1,0
175724,-10000000000000,4,1,0,100,0,0
175767,0.108000108000108,4,1,0,100,1,0
175767,-10000000000000,4,1,0,100,0,0
175813,0.18000018000018,4,1,0,100,1,0
175813,-10000000000000,4,1,0,100,0,0
175858,0.135000135000135,4,1,0,100,1,0
175858,-10000000000000,4,1,0,100,0,0
175904,0.27000027000027,4,1,0,100,1,0
175904,-10000000000000,4,1,0,100,0,0
175949,0.54000054000054,4,1,0,100,1,0
175949,-10000000000000,4,1,0,100,0,0
175996,272.727272727273,4,1,1,100,1,9
175996,-83.3333333333333,4,1,1,100,0,1
177633,-1E-15,4,1,1,100,0,1
177905,-83.3333333333333,4,1,1,100,0,1
179541,-90.9090909090909,4,1,1,100,0,1
179677,-100,4,1,1,100,0,1
179882,-111.111111111111,4,1,1,100,0,1
180086,-81.9672131147541,4,1,1,100,0,1
180632,-80.6451612903226,4,1,1,100,0,1
181177,-79.3650793650794,4,1,1,100,0,1
181722,-78.125,4,1,1,100,0,1
182268,-76.9230769230769,4,1,1,100,0,1
182336,-74.0740740740741,4,1,1,100,0,1
182404,-71.4285714285714,4,1,1,100,0,1
182472,-68.9655172413793,4,1,1,100,0,1
182541,-66.6666666666667,4,1,1,100,0,1
182609,-64.5161290322581,4,1,1,100,0,1
182677,-62.5,4,1,1,100,0,1
182745,-60.6060606060606,4,1,1,100,0,1
182813,-58.8235294117647,4,1,1,100,0,1
182882,-57.1428571428571,4,1,1,100,0,1
182950,-55.5555555555556,4,1,1,100,0,1
183018,-54.054054054054,4,1,1,100,0,1
183086,-52.6315789473684,4,1,1,100,0,1
183154,-51.2820512820513,4,1,1,100,0,1
183222,-50,4,1,1,100,0,1
183291,-48.780487804878,4,1,1,100,0,1
183359,-47.6190476190476,4,1,1,100,0,1
183427,-46.5116279069767,4,1,1,100,0,1
183495,-45.4545454545455,4,1,1,100,0,1
183563,-44.4444444444445,4,1,1,100,0,1
183632,-43.4782608695652,4,1,1,100,0,1
183700,-42.5531914893617,4,1,1,100,0,1
183768,-41.6666666666667,4,1,1,100,0,1
183836,-40.8163265306122,4,1,1,100,0,1
183904,-40,4,1,1,100,0,1
183972,-39.2156862745098,4,1,1,100,0,1
184041,-38.4615384615385,4,1,1,100,0,1
184109,-37.7358490566038,4,1,1,100,0,1
184450,272.727272727273,4,1,1,100,1,8
184450,-66.6666666666667,4,1,1,100,0,8
184586,-67.5675675675676,4,1,1,100,0,8
184722,-68.4931506849315,4,1,1,100,0,8
184859,-69.4444444444444,4,1,1,100,0,8
184996,-70.4225352112676,4,1,1,100,0,8
185132,-71.4285714285714,4,1,1,100,0,8
185177,-72.463768115942,4,1,1,100,0,8
185223,-73.5294117647059,4,1,1,100,0,8
185268,-74.6268656716418,4,1,1,100,0,8
185405,-75.7575757575758,4,1,1,100,0,8
185473,-76.9230769230769,4,1,1,100,0,8
185541,-78.125,4,1,1,100,0,8
185677,-79.3650793650794,4,1,1,100,0,8
185723,-80.6451612903226,4,1,1,100,0,8
185768,-81.9672131147541,4,1,1,100,0,8
185814,-83.3333333333333,4,1,1,100,0,8
185882,-84.7457627118644,4,1,1,100,0,8
185950,-86.2068965517241,4,1,1,100,0,8
186087,-87.719298245614,4,1,1,100,0,8
186223,-89.2857142857143,4,1,1,100,0,8
186268,-90.9090909090909,4,1,1,100,0,8
186314,-92.5925925925926,4,1,1,100,0,8
186359,-94.3396226415094,4,1,1,100,0,8
186496,-96.1538461538461,4,1,1,100,0,8
186564,-98.0392156862745,4,1,1,100,0,8
186632,-100,4,1,1,100,0,8
186768,-100,4,1,1,100,0,8
186814,-100,4,1,1,100,0,8
186859,-100,4,1,1,100,0,8
186905,-100,4,1,1,100,0,8
187041,-100,4,1,1,100,0,8
187109,-100,4,1,1,100,0,8
187177,-100,4,1,1,100,0,8
187314,-100,4,1,1,100,0,8
187359,-100,4,1,1,100,0,8
187405,-100,4,1,1,100,0,8
187450,-100,4,1,1,100,0,8
187587,-100,4,1,1,100,0,8
187722,-90.9090909090909,4,1,1,100,0,0
187768,-83.3333333333333,4,1,1,100,0,0
187813,-76.9230769230769,4,1,1,100,0,0
187859,-71.4285714285714,4,1,1,100,0,0
187904,-66.6666666666667,4,1,1,100,0,0
187950,-62.5,4,1,1,100,0,0
187995,-58.8235294117647,4,1,1,100,0,0
188950,-62.5,4,1,1,100,0,0
189086,-66.6666666666667,4,1,1,100,0,0
189222,-67.5675675675676,4,1,1,100,0,0
189359,-68.4931506849315,4,1,1,100,0,0
189495,-69.4444444444444,4,1,1,100,0,0
189540,-70.4225352112676,4,1,1,100,0,0
189586,-71.4285714285714,4,1,1,100,0,0
189631,-72.463768115942,4,1,1,100,0,0
189768,-73.5294117647059,4,1,1,100,0,0
189837,-75.7575757575758,4,1,1,100,0,8
189905,-76.9230769230769,4,1,1,100,0,8
190041,-78.125,4,1,1,100,0,8
190087,-79.3650793650794,4,1,1,100,0,8
190132,-80.6451612903226,4,1,1,100,0,8
190177,-81.9672131147541,4,1,1,100,0,8
190246,-83.3333333333333,4,1,1,100,0,8
190314,-84.7457627118644,4,1,1,100,0,8
190450,-86.2068965517241,4,1,1,100,0,8
190587,-87.719298245614,4,1,1,100,0,8
190632,-89.2857142857143,4,1,1,100,0,8
190677,-90.9090909090909,4,1,1,100,0,8
190722,-92.5925925925926,4,1,1,100,0,8
190859,-94.3396226415094,4,1,1,100,0,8
190927,-96.1538461538461,4,1,1,100,0,8
190996,-98.0392156862745,4,1,1,100,0,0
190997,-25,4,1,1,100,0,0
190998,-100,4,1,1,100,0,0
191132,-100,4,1,1,100,0,0
191133,-25,4,1,1,100,0,0
191134,-100,4,1,1,100,0,0
191268,-100,4,1,1,100,0,0
191269,-25,4,1,1,100,0,0
191270,-100,4,1,1,100,0,0
191405,-100,4,1,1,100,0,0
191406,-25,4,1,1,100,0,0
191407,-100,4,1,1,100,0,0
191473,-100,4,1,1,100,0,0
191474,-25,4,1,1,100,0,0
191475,-100,4,1,1,100,0,0
191541,-100,4,1,1,100,0,0
191542,-25,4,1,1,100,0,0
191543,-100,4,1,1,100,0,0
191609,-25,4,1,1,100,0,0
191610,-100,4,1,1,100,0,0
191677,-100,4,1,1,100,0,0
191678,-25,4,1,1,100,0,0
191679,-100,4,1,1,100,0,0
191746,-25,4,1,1,100,0,0
191747,-100,4,1,1,100,0,0
191814,-100,4,1,1,100,0,0
191815,-25,4,1,1,100,0,0
191816,-100,4,1,1,100,0,0
191950,-100,4,1,1,100,0,0
191951,-25,4,1,1,100,0,0
191952,-100,4,1,1,100,0,0
192087,-100,4,1,1,100,0,0
192088,-25,4,1,1,100,0,0
192089,-100,4,1,1,100,0,0
192223,-100,4,1,1,100,0,0
192224,-25,4,1,1,100,0,0
192225,-100,4,1,1,100,0,0
192359,-100,4,1,1,100,0,0
192360,-25,4,1,1,100,0,0
192361,-100,4,1,1,100,0,0
192427,-100,4,1,1,100,0,0
192428,-25,4,1,1,100,0,0
192429,-100,4,1,1,100,0,0
192496,-100,4,1,1,100,0,0
192497,-25,4,1,1,100,0,0
192498,-100,4,1,1,100,0,0
192632,-100,4,1,1,100,0,0
192633,-25,4,1,1,100,0,0
192634,-100,4,1,1,100,0,0
192666,-25,4,1,1,100,0,0
192667,-100,4,1,1,100,0,0
192700,-25,4,1,1,100,0,0
192701,-100,4,1,1,100,0,0
192734,-25,4,1,1,100,0,0
192735,-100,4,1,1,100,0,0
192768,-100,4,1,1,100,0,0
192769,-25,4,1,1,100,0,0
192770,-100,4,1,1,100,0,0
192802,-25,4,1,1,100,0,0
192803,-100,4,1,1,100,0,0
192837,-25,4,1,1,100,0,0
192838,-100,4,1,1,100,0,0
192871,-25,4,1,1,100,0,0
192872,-100,4,1,1,100,0,0
192905,-100,4,1,1,100,0,0
192906,-25,4,1,1,100,0,0
192907,-100,4,1,1,100,0,0
192939,-25,4,1,1,100,0,0
192940,-100,4,1,1,100,0,0
192973,-100,4,1,1,100,0,0
192974,-25,4,1,1,100,0,0
192975,-100,4,1,1,100,0,0
193007,-25,4,1,1,100,0,0
193008,-100,4,1,1,100,0,0
193041,-25,4,1,1,100,0,0
193042,-100,4,1,1,100,0,0
193075,-25,4,1,1,100,0,0
193076,-100,4,1,1,100,0,0
193109,-25,4,1,1,100,0,0
193110,-100,4,1,1,100,0,0
193143,-25,4,1,1,100,0,0
193144,-100,4,1,1,100,0,0
193314,-99.009900990099,4,1,1,100,0,8
193450,-98.0392156862745,4,1,1,100,0,8
193587,-97.0873786407767,4,1,1,100,0,8
193655,-96.1538461538461,4,1,1,100,0,8
193723,-95.2380952380952,4,1,1,100,0,8
193859,-94.3396226415094,4,1,1,100,0,8
193905,-93.4579439252336,4,1,1,100,0,8
193950,-92.5925925925926,4,1,1,100,0,8
193996,-91.743119266055,4,1,1,100,0,8
194132,-90.9090909090909,4,1,1,100,0,8
194200,-90.0900900900901,4,1,1,100,0,8
194268,-89.2857142857143,4,1,1,100,0,8
194405,-88.4955752212389,4,1,1,100,0,8
194450,-87.719298245614,4,1,1,100,0,8
194496,-86.9565217391304,4,1,1,100,0,8
194541,-86.2068965517241,4,1,1,100,0,8
194609,-85.4700854700855,4,1,1,100,0,8
194677,-84.7457627118644,4,1,1,100,0,8
194814,-84.0336134453781,4,1,1,100,0,8
194950,-83.3333333333333,4,1,1,100,0,8
194996,-82.6446280991736,4,1,1,100,0,8
195041,-81.9672131147541,4,1,1,100,0,8
195087,-81.3008130081301,4,1,1,100,0,8
195223,-80.6451612903226,4,1,1,100,0,8
195291,-80,4,1,1,100,0,8
195359,-79.3650793650794,4,1,1,100,0,8
195496,-78.7401574803149,4,1,1,100,0,8
195541,-78.125,4,1,1,100,0,8
195587,-77.5193798449612,4,1,1,100,0,8
195632,-76.9230769230769,4,1,1,100,0,8
195768,-76.3358778625954,4,1,1,100,0,8
195837,-75.7575757575758,4,1,1,100,0,8
195905,-75.187969924812,4,1,1,100,0,8
196041,-74.6268656716418,4,1,1,100,0,8
196087,-74.0740740740741,4,1,1,100,0,8
196132,-73.5294117647059,4,1,1,100,0,8
196177,-72.992700729927,4,1,1,100,0,8
196314,-72.463768115942,4,1,1,100,0,8
196450,-67.5675675675676,4,1,1,100,0,0
196495,-63.2911392405063,4,1,1,100,0,0
196540,-59.5238095238095,4,1,1,100,0,0
196586,-56.1797752808989,4,1,1,100,0,0
196631,-53.1914893617021,4,1,1,100,0,0
196677,-50.5050505050505,4,1,1,100,0,0
196722,-48.0769230769231,4,1,1,100,0,0
197269,0.4,4,1,1,100,1,0
197269,-100000000000000,4,1,1,100,0,0
197326,0.2,4,1,1,100,1,0
197326,-100000000000000,4,1,1,100,0,0
197371,0.133333333333333,4,1,1,100,1,0
197371,-100000000000000,4,1,1,100,0,0
197417,0.1,4,1,1,100,1,0
197417,-100000000000000,4,1,1,100,0,0
197462,0.08,4,1,1,100,1,0
197462,-100000000000000,4,1,1,100,0,0
197541,272.727272727273,4,1,1,100,1,8
197541,-95.2380952380952,4,1,1,100,0,0
198086,-90.9090909090909,4,1,1,100,0,0
198631,-86.9565217391304,4,1,1,100,0,0
198904,-83.3333333333333,4,1,1,100,0,0
199177,-80,4,1,1,100,0,0
199450,-76.9230769230769,4,1,1,100,0,0
199722,-74.0740740740741,4,1,1,100,0,0
199995,-71.4285714285714,4,1,1,100,0,0
200268,-68.9655172413793,4,1,1,100,0,0
200541,-66.6666666666667,4,1,1,100,0,0
200812,-64.5161290322581,4,1,1,100,0,0
200880,-62.5,4,1,1,100,0,0
200949,-60.6060606060606,4,1,1,100,0,0
201017,-58.8235294117647,4,1,1,100,0,0
201085,-57.1428571428571,4,1,1,100,0,0
201153,-55.5555555555556,4,1,1,100,0,0
201221,-54.054054054054,4,1,1,100,0,0
201290,-52.6315789473684,4,1,1,100,0,0
201360,0.135000135000135,4,1,1,100,1,0
201360,-100000000000000,4,1,1,100,0,0
201767,272.727272727273,4,1,1,100,1,8
201903,272.727272727273,4,1,1,100,1,8
206263,-98.0392156862745,4,1,1,100,0,0
206331,-96.1538461538461,4,1,1,100,0,0
206400,-94.3396226415094,4,1,1,100,0,0
206468,-92.5925925925926,4,1,1,100,0,0
206536,-90.9090909090909,4,1,1,100,0,0
206604,-89.2857142857143,4,1,1,100,0,0
206672,-87.719298245614,4,1,1,100,0,0
206740,-86.2068965517241,4,1,1,100,0,0
206809,-84.7457627118644,4,1,1,100,0,0
206877,-83.3333333333333,4,1,1,100,0,0
206945,-81.9672131147541,4,1,1,100,0,0
207013,-80.6451612903226,4,1,1,100,0,0
207081,-79.3650793650794,4,1,1,100,0,0
207150,-78.125,4,1,1,100,0,0
207218,-76.9230769230769,4,1,1,100,0,0
207286,-75.7575757575758,4,1,1,100,0,0
207354,-74.6268656716418,4,1,1,100,0,0
207422,-73.5294117647059,4,1,1,100,0,0
207490,-72.463768115942,4,1,1,100,0,0
207559,-71.4285714285714,4,1,1,100,0,0
207627,-70.4225352112676,4,1,1,100,0,0
207695,-69.4444444444444,4,1,1,100,0,0
207763,-68.4931506849315,4,1,1,100,0,0
207831,-67.5675675675676,4,1,1,100,0,0
207900,-66.6666666666667,4,1,1,100,0,0
207968,-65.7894736842105,4,1,1,100,0,0
208036,-64.9350649350649,4,1,1,100,0,0
208104,-64.1025641025641,4,1,1,100,0,0
208172,-63.2911392405063,4,1,1,100,0,0
208240,-62.5,4,1,1,100,0,0
208309,-61.7283950617284,4,1,1,100,0,0
208377,-60.9756097560976,4,1,1,100,0,0
208445,-60.2409638554217,4,1,1,100,0,0
208513,-59.5238095238095,4,1,1,100,0,0
208581,-58.8235294117647,4,1,1,100,0,0
208650,-58.1395348837209,4,1,1,100,0,0
208718,-57.4712643678161,4,1,1,100,0,0
208786,-56.8181818181818,4,1,1,100,0,0
208854,-56.1797752808989,4,1,1,100,0,0
208922,-55.5555555555556,4,1,1,100,0,0
208990,-54.9450549450549,4,1,1,100,0,0
209059,-54.3478260869565,4,1,1,100,0,0
209127,-53.763440860215,4,1,1,100,0,0
209195,-53.1914893617021,4,1,1,100,0,0
209263,-52.6315789473684,4,1,1,100,0,0
209331,-52.0833333333333,4,1,1,100,0,0
209400,-51.5463917525773,4,1,1,100,0,0
209468,-51.0204081632653,4,1,1,100,0,0
209536,-50.5050505050505,4,1,1,100,0,0
209542,0.27000027000027,4,1,1,100,1,0
209542,-10000000000,4,1,1,100,0,0
209675,0.135000135000135,4,1,1,100,1,0
209675,-10000000000,4,1,1,100,0,0
209812,0.860881542699725,4,1,1,100,1,0
209812,-10000000000,4,1,1,100,0,0
209948,0.27000027000027,4,1,1,100,1,0
209948,-10000000000,4,1,1,100,0,0
210084,0.135000135000135,4,1,1,100,1,0
210084,-10000000000,4,1,1,100,0,0
210223,272.727272727273,4,1,1,100,1,8
210223,-66.6666666666667,4,1,1,100,0,0
210632,272.727272727273,4,1,1,100,1,8
210632,-100,4,1,1,100,0,0
212796,-66.6666666666667,4,1,1,100,0,0
212865,-71.4285714285714,4,1,1,100,0,0
212933,-76.9230769230769,4,1,1,100,0,0
213001,-83.3333333333333,4,1,1,100,0,0
213069,-90.9090909090909,4,1,1,100,0,0
213205,-100,4,1,1,100,0,0
213274,-83.3333333333333,4,1,1,100,0,0
213342,-76.9230769230769,4,1,1,100,0,0
213410,-71.4285714285714,4,1,1,100,0,0
213478,-66.6666666666667,4,1,1,100,0,0
213615,-71.4285714285714,4,1,1,100,0,0
213683,-76.9230769230769,4,1,1,100,0,0
213751,-83.3333333333333,4,1,1,100,0,0
213819,-90.9090909090909,4,1,1,100,0,0
213887,-100,4,1,1,100,0,0
214024,-90.9090909090909,4,1,1,100,0,0
214092,-83.3333333333333,4,1,1,100,0,0
214160,-76.9230769230769,4,1,1,100,0,0
214228,-71.4285714285714,4,1,1,100,0,0
214296,-66.6666666666667,4,1,1,100,0,0
214365,-62.5,4,1,1,100,0,0
214450,0.27000027000027,4,1,1,100,1,0
214450,-10000000000,4,1,1,100,0,0
214722,0.135000135000135,4,1,1,100,1,0
214722,-10000000000,4,1,1,100,0,0
214996,272.727272727273,4,1,1,100,1,8
215132,-25,4,1,1,100,0,0
215133,-100,4,1,1,100,0,0
215268,-25,4,1,1,100,0,0
215269,-100,4,1,1,100,0,0
215405,-100,4,1,1,100,0,0
215406,-25,4,1,1,100,0,0
215407,-100,4,1,1,100,0,0
215541,-25,4,1,1,100,0,0
215542,-100,4,1,1,100,0,0
215814,-100,4,1,1,100,0,0
215815,-25,4,1,1,100,0,0
215816,-100,4,1,1,100,0,0
215950,-100,4,1,1,100,0,0
215951,-25,4,1,1,100,0,0
215952,-100,4,1,1,100,0,0
216087,-25,4,1,1,100,0,0
216088,-100,4,1,1,100,0,0
216223,-25,4,1,1,100,0,0
216224,-100,4,1,1,100,0,0
216496,-25,4,1,1,100,0,0
216497,-100,4,1,1,100,0,0
216632,-25,4,1,1,100,0,0
216633,-100,4,1,1,100,0,0
216768,-100,4,1,1,100,0,0
216769,-25,4,1,1,100,0,0
216770,-100,4,1,1,100,0,0
216905,-100,4,1,1,100,0,0
216906,-25,4,1,1,100,0,0
216907,-100,4,1,1,100,0,0
217041,-25,4,1,1,100,0,0
217042,-100,4,1,1,100,0,0
217314,-100,4,1,1,100,0,0
217315,-25,4,1,1,100,0,0
217316,-100,4,1,1,100,0,0
217450,-100,4,1,1,100,0,0
217451,-25,4,1,1,100,0,0
217452,-100,4,1,1,100,0,0
217586,-100,4,1,1,100,0,0
217587,-25,4,1,1,100,0,0
217588,-100,4,1,1,100,0,0
217723,-100,4,1,1,100,0,0
217724,-25,4,1,1,100,0,0
217725,-100,4,1,1,100,0,0
217996,-100,4,1,1,100,0,0
217997,-25,4,1,1,100,0,0
217998,-100,4,1,1,100,0,0
218132,-100,4,1,1,100,0,0
218133,-25,4,1,1,100,0,0
218134,-100,4,1,1,100,0,0
218268,-100,4,1,1,100,0,0
218269,-25,4,1,1,100,0,0
218270,-100,4,1,1,100,0,0
218405,-100,4,1,1,100,0,0
218406,-25,4,1,1,100,0,0
218407,-100,4,1,1,100,0,0
218677,-100,4,1,1,100,0,0
218678,-25,4,1,1,100,0,0
218679,-100,4,1,1,100,0,0
218814,-100,4,1,1,100,0,0
218815,-25,4,1,1,100,0,0
218816,-100,4,1,1,100,0,0
218848,-25,4,1,1,100,0,0
218849,-100,4,1,1,100,0,0
218882,-25,4,1,1,100,0,0
218883,-100,4,1,1,100,0,0
218916,-25,4,1,1,100,0,0
218917,-100,4,1,1,100,0,0
218950,-100,4,1,1,100,0,0
218951,-25,4,1,1,100,0,0
218952,-100,4,1,1,100,0,0
218984,-25,4,1,1,100,0,0
218985,-100,4,1,1,100,0,0
219018,-25,4,1,1,100,0,0
219019,-100,4,1,1,100,0,0
219052,-25,4,1,1,100,0,0
219053,-100,4,1,1,100,0,0
219086,-100,4,1,1,100,0,0
219087,-25,4,1,1,100,0,0
219088,-100,4,1,1,100,0,0
221524,-66.6666666666667,4,1,1,100,0,0
221592,-71.4285714285714,4,1,1,100,0,0
221660,-76.9230769230769,4,1,1,100,0,0
221729,-83.3333333333333,4,1,1,100,0,0
221797,-90.9090909090909,4,1,1,100,0,0
221933,-100,4,1,1,100,0,0
222001,-83.3333333333333,4,1,1,100,0,0
222069,-76.9230769230769,4,1,1,100,0,0
222138,-71.4285714285714,4,1,1,100,0,0
222206,-66.6666666666667,4,1,1,100,0,0
222342,-71.4285714285714,4,1,1,100,0,0
222410,-76.9230769230769,4,1,1,100,0,0
222479,-83.3333333333333,4,1,1,100,0,0
222547,-90.9090909090909,4,1,1,100,0,0
222615,-100,4,1,1,100,0,0
222751,-90.9090909090909,4,1,1,100,0,0
222819,-83.3333333333333,4,1,1,100,0,0
222888,-76.9230769230769,4,1,1,100,0,0
222956,-71.4285714285714,4,1,1,100,0,0
223024,-66.6666666666667,4,1,1,100,0,0
223092,-62.5,4,1,1,100,0,0
223177,0.27000027000027,4,1,1,100,1,0
223177,-10000000000,4,1,1,100,0,0
223449,0.135000135000135,4,1,1,100,1,0
223449,-10000000000,4,1,1,100,0,0
223723,272.727272727273,4,1,1,100,1,8
223791,-95.2380952380952,4,1,1,100,0,0
223859,-90.9090909090909,4,1,1,100,0,0
223927,-86.9565217391304,4,1,1,100,0,0
223995,-83.3333333333333,4,1,1,100,0,0
224063,-80,4,1,1,100,0,0
224132,-76.9230769230769,4,1,1,100,0,0
224200,-74.0740740740741,4,1,1,100,0,0
224268,-71.4285714285714,4,1,1,100,0,0
224336,-68.9655172413793,4,1,1,100,0,0
224404,-66.6666666666667,4,1,1,100,0,0
224473,-64.5161290322581,4,1,1,100,0,0
224541,-62.5,4,1,1,100,0,0
224609,-60.6060606060606,4,1,1,100,0,0
224678,-58.8235294117647,4,1,1,100,0,0
224746,-57.1428571428571,4,1,1,100,0,0
224813,-55.5555555555556,4,1,1,100,0,0
224881,-54.054054054054,4,1,1,100,0,0
224950,-52.6315789473684,4,1,1,100,0,0
225018,-51.2820512820513,4,1,1,100,0,0
225086,-50,4,1,1,100,0,0
225154,-47.6190476190476,4,1,1,100,0,0
225223,-46.5116279069767,4,1,1,100,0,0
225291,-45.4545454545455,4,1,1,100,0,0
225359,-44.4444444444445,4,1,1,100,0,0
225427,-43.4782608695652,4,1,1,100,0,0
225496,-42.5531914893617,4,1,1,100,0,0
225564,-41.6666666666667,4,1,1,100,0,0
225632,-40.8163265306122,4,1,1,100,0,0
225700,-40,4,1,1,100,0,0
225769,-39.2156862745098,4,1,1,100,0,0
225837,-38.4615384615385,4,1,1,100,0,0
225904,-37.7358490566038,4,1,1,100,0,0
225972,-37.037037037037,4,1,1,100,0,0
226041,-36.3636363636364,4,1,1,100,0,0
226109,-35.7142857142857,4,1,1,100,0,0
226177,-35.0877192982456,4,1,1,100,0,0
226245,-34.4827586206897,4,1,1,100,0,0
226314,-33.8983050847458,4,1,1,100,0,0
226382,-33.3333333333333,4,1,1,100,0,0
226450,-32.7868852459016,4,1,1,100,0,0
226518,-32.258064516129,4,1,1,100,0,0
226587,-31.7460317460317,4,1,1,100,0,0
226655,-31.25,4,1,1,100,0,0
226723,-30.7692307692308,4,1,1,100,0,0
226791,-30.3030303030303,4,1,1,100,0,0
226860,-29.8507462686567,4,1,1,100,0,0
226928,-29.4117647058824,4,1,1,100,0,0
226996,-28.9855072463768,4,1,1,100,0,0
226997,-1000,4,1,1,100,0,0
227000,-28.9855072463768,4,1,1,100,0,0
228086,-40.8163265306122,4,1,1,100,0,0
228495,-68.9655172413793,4,1,1,100,0,0
228631,-74.0740740740741,4,1,1,100,0,0
228767,-80,4,1,1,100,0,0
228904,-86.9565217391304,4,1,1,100,0,0
229040,-95.2380952380952,4,1,1,100,0,0
229449,-100,4,1,1,100,0,0
230266,-66.6666666666667,4,1,1,100,0,0
230334,-71.4285714285714,4,1,1,100,0,0
230402,-76.9230769230769,4,1,1,100,0,0
230471,-83.3333333333333,4,1,1,100,0,0
230539,-90.9090909090909,4,1,1,100,0,0
230675,-100,4,1,1,100,0,0
230743,-83.3333333333333,4,1,1,100,0,0
230811,-76.9230769230769,4,1,1,100,0,0
230880,-71.4285714285714,4,1,1,100,0,0
230948,-66.6666666666667,4,1,1,100,0,0
231084,-71.4285714285714,4,1,1,100,0,0
231152,-76.9230769230769,4,1,1,100,0,0
231221,-83.3333333333333,4,1,1,100,0,0
231289,-90.9090909090909,4,1,1,100,0,0
231357,-100,4,1,1,100,0,0
231493,-90.9090909090909,4,1,1,100,0,0
231561,-83.3333333333333,4,1,1,100,0,0
231630,-76.9230769230769,4,1,1,100,0,0
231698,-71.4285714285714,4,1,1,100,0,0
231766,-66.6666666666667,4,1,1,100,0,0
231834,-62.5,4,1,1,100,0,0
231905,0.27000027000027,4,1,1,100,1,0
231905,-10000000000,4,1,1,100,0,0
232178,0.135000135000135,4,1,1,100,1,0
232178,-10000000000,4,1,1,100,0,0
232450,272.727272727273,4,1,1,100,1,8
232587,-25,4,1,1,100,0,0
232588,-100,4,1,1,100,0,0
232723,-25,4,1,1,100,0,0
232724,-100,4,1,1,100,0,0
232859,-100,4,1,1,100,0,0
232860,-25,4,1,1,100,0,0
232861,-100,4,1,1,100,0,0
232996,-25,4,1,1,100,0,0
232997,-100,4,1,1,100,0,0
233268,-100,4,1,1,100,0,0
233269,-25,4,1,1,100,0,0
233270,-100,4,1,1,100,0,0
233405,-100,4,1,1,100,0,0
233406,-25,4,1,1,100,0,0
233407,-100,4,1,1,100,0,0
233541,-25,4,1,1,100,0,0
233542,-100,4,1,1,100,0,0
233677,-25,4,1,1,100,0,0
233678,-100,4,1,1,100,0,0
233950,-25,4,1,1,100,0,0
233951,-100,4,1,1,100,0,0
234086,-25,4,1,1,100,0,0
234087,-100,4,1,1,100,0,0
234223,-100,4,1,1,100,0,0
234224,-25,4,1,1,100,0,0
234225,-100,4,1,1,100,0,0
234359,-100,4,1,1,100,0,0
234360,-25,4,1,1,100,0,0
234361,-100,4,1,1,100,0,0
234496,-25,4,1,1,100,0,0
234497,-100,4,1,1,100,0,0
234768,-100,4,1,1,100,0,0
234769,-25,4,1,1,100,0,0
234770,-100,4,1,1,100,0,0
234905,-100,4,1,1,100,0,0
234906,-25,4,1,1,100,0,0
234907,-100,4,1,1,100,0,0
235041,-100,4,1,1,100,0,0
235042,-25,4,1,1,100,0,0
235043,-100,4,1,1,100,0,0
235177,-100,4,1,1,100,0,0
235178,-25,4,1,1,100,0,0
235179,-100,4,1,1,100,0,0
235450,-100,4,1,1,100,0,0
235451,-25,4,1,1,100,0,0
235452,-100,4,1,1,100,0,0
235586,-100,4,1,1,100,0,0
235587,-25,4,1,1,100,0,0
235588,-100,4,1,1,100,0,0
235723,-100,4,1,1,100,0,0
235724,-25,4,1,1,100,0,0
235725,-100,4,1,1,100,0,0
235859,-100,4,1,1,100,0,0
235860,-25,4,1,1,100,0,0
235861,-100,4,1,1,100,0,0
236132,-100,4,1,1,100,0,0
236133,-25,4,1,1,100,0,0
236134,-100,4,1,1,100,0,0
236268,-100,4,1,1,100,0,0
236269,-25,4,1,1,100,0,0
236270,-100,4,1,1,100,0,0
236302,-25,4,1,1,100,0,0
236303,-100,4,1,1,100,0,0
236336,-25,4,1,1,100,0,0
236337,-100,4,1,1,100,0,0
236371,-25,4,1,1,100,0,0
236372,-100,4,1,1,100,0,0
236405,-100,4,1,1,100,0,0
236406,-25,4,1,1,100,0,0
236407,-100,4,1,1,100,0,0
236439,-25,4,1,1,100,0,0
236440,-100,4,1,1,100,0,0
236473,-25,4,1,1,100,0,0
236474,-100,4,1,1,100,0,0
236507,-25,4,1,1,100,0,0
236508,-100,4,1,1,100,0,0
236541,-100,4,1,1,100,0,0
236542,-25,4,1,1,100,0,0
236543,-100,4,1,1,100,0,0
236796,-98.0392156862745,4,1,1,100,0,0
237887,-96.1538461538461,4,1,1,100,0,0
238978,-92.5925925925926,4,1,1,100,0,0
240069,-90.9090909090909,4,1,1,100,0,0
241160,-89.2857142857143,4,1,1,100,0,0
241228,-87.719298245614,4,1,1,100,0,0
241296,-86.2068965517241,4,1,1,100,0,0
241364,-84.7457627118644,4,1,1,100,0,0
241433,-83.3333333333333,4,1,1,100,0,0
241501,-81.9672131147541,4,1,1,100,0,0
241569,-80.6451612903226,4,1,1,100,0,0
241637,-79.3650793650794,4,1,1,100,0,0
241705,-78.125,4,1,1,100,0,0
241773,-76.9230769230769,4,1,1,100,0,0
241842,-75.7575757575758,4,1,1,100,0,0
241910,-74.6268656716418,4,1,1,100,0,0
241978,-73.5294117647059,4,1,1,100,0,0
242046,-72.463768115942,4,1,1,100,0,0
242114,-71.4285714285714,4,1,1,100,0,0
242183,-70.4225352112676,4,1,1,100,0,0
242251,-69.4444444444444,4,1,1,100,0,0
242319,-68.4931506849315,4,1,1,100,0,0
242387,-67.5675675675676,4,1,1,100,0,0
242455,-66.6666666666667,4,1,1,100,0,0
242523,-65.7894736842105,4,1,1,100,0,0
242592,-64.9350649350649,4,1,1,100,0,0
242660,-64.1025641025641,4,1,1,100,0,0
242728,-63.2911392405063,4,1,1,100,0,0
242796,-62.5,4,1,1,100,0,0
242864,-61.7283950617284,4,1,1,100,0,0
242933,-60.9756097560976,4,1,1,100,0,0
243001,-60.2409638554217,4,1,1,100,0,0
243069,-59.5238095238095,4,1,1,100,0,0
243137,-58.8235294117647,4,1,1,100,0,0
243205,-58.1395348837209,4,1,1,100,0,0
243273,-57.4712643678161,4,1,1,100,0,0
243342,-56.8181818181818,4,1,1,100,0,0
243410,-56.1797752808989,4,1,1,100,0,0
243478,-55.5555555555556,4,1,1,100,0,0
243546,-54.9450549450549,4,1,1,100,0,0
243614,-54.3478260869565,4,1,1,100,0,0
243683,-53.763440860215,4,1,1,100,0,0
243751,-53.1914893617021,4,1,1,100,0,0
243819,-52.6315789473684,4,1,1,100,0,0
243887,-52.0833333333333,4,1,1,100,0,0
243955,-51.5463917525773,4,1,1,100,0,0
244023,-51.0204081632653,4,1,1,100,0,0
244092,-50.5050505050505,4,1,1,100,0,0
244160,-50,4,1,1,100,0,0
244228,-49.5049504950495,4,1,1,100,0,0
244296,-49.0196078431373,4,1,1,100,0,0
244364,-48.5436893203883,4,1,1,100,0,0
244433,-48.0769230769231,4,1,1,100,0,0
244501,-47.6190476190476,4,1,1,100,0,0
244569,-47.1698113207547,4,1,1,100,0,0
244637,-46.7289719626168,4,1,1,100,0,0
244705,-46.2962962962963,4,1,1,100,0,0
244773,-45.8715596330275,4,1,1,100,0,0
244842,-45.4545454545455,4,1,1,100,0,0
244910,-45.045045045045,4,1,1,100,0,0
244978,-44.6428571428571,4,1,1,100,0,0
244996,191.387559808612,4,1,0,100,1,0
244996,-3.13479623824451,4,1,0,100,0,0
244997,191.237559808612,4,1,0,100,1,0
244997,-3.13774709758393,4,1,0,100,0,0
244998,191.087559808612,4,1,0,100,1,0
244998,-3.13971742543171,4,1,0,100,0,0
244999,190.937559808612,4,1,0,100,1,0
244999,-3.14267756128221,4,1,0,100,0,0
245000,190.787559808612,4,1,0,100,1,0
245000,-3.14465408805031,4,1,0,100,0,0
245001,190.637559808612,4,1,0,100,1,0
245001,-3.14762354422411,4,1,0,100,0,0
245002,190.487559808612,4,1,0,100,1,0
245002,-3.1496062992126,4,1,0,100,0,0
245003,190.337559808612,4,1,0,100,1,0
245003,-3.15258511979823,4,1,0,100,0,0
245004,190.187559808612,4,1,0,100,1,0
245004,-3.15457413249211,4,1,0,100,0,0
245005,190.037559808612,4,1,0,100,1,0
245005,-3.15756236185665,4,1,0,100,0,0
245006,189.887559808612,4,1,0,100,1,0
245006,-3.15955766192733,4,1,0,100,0,0
245007,189.737559808612,4,1,0,100,1,0
245007,-3.16255534471853,4,1,0,100,0,0
245008,189.587559808612,4,1,0,100,1,0
245008,-3.16455696202532,4,1,0,100,0,0
245009,189.437559808612,4,1,0,100,1,0
245009,-3.1675641431739,4,1,0,100,0,0
245010,189.287559808612,4,1,0,100,1,0
245010,-3.16957210776545,4,1,0,100,0,0
245011,189.137559808612,4,1,0,100,1,0
245011,-3.17258883248731,4,1,0,100,0,0
245012,188.987559808612,4,1,0,100,1,0
245012,-3.17460317460317,4,1,0,100,0,0
245013,188.837559808612,4,1,0,100,1,0
245013,-3.17762948840165,4,1,0,100,0,0
245014,188.687559808612,4,1,0,100,1,0
245014,-3.17965023847377,4,1,0,100,0,0
245015,188.537559808612,4,1,0,100,1,0
245015,-3.18268618714195,4,1,0,100,0,0
245016,188.387559808612,4,1,0,100,1,0
245016,-3.18471337579618,4,1,0,100,0,0
245017,188.237559808612,4,1,0,100,1,0
245017,-3.18775900541919,4,1,0,100,0,0
245018,188.087559808612,4,1,0,100,1,0
245018,-3.18979266347687,4,1,0,100,0,0
245019,187.937559808612,4,1,0,100,1,0
245019,-3.19284802043423,4,1,0,100,0,0
245020,187.787559808612,4,1,0,100,1,0
245020,-3.19488817891374,4,1,0,100,0,0
245021,187.637559808612,4,1,0,100,1,0
245021,-3.19795330988168,4,1,0,100,0,0
245022,187.487559808612,4,1,0,100,1,0
245022,-3.2,4,1,0,100,0,0
245023,187.337559808612,4,1,0,100,1,0
245023,-3.20307495195388,4,1,0,100,0,0
245024,187.187559808612,4,1,0,100,1,0
245024,-3.20512820512821,4,1,0,100,0,0
245025,187.037559808612,4,1,0,100,1,0
245025,-3.20821302534488,4,1,0,100,0,0
245026,186.887559808612,4,1,0,100,1,0
245026,-3.21027287319422,4,1,0,100,0,0
245027,186.737559808612,4,1,0,100,1,0
245027,-3.2133676092545,4,1,0,100,0,0
245028,186.587559808612,4,1,0,100,1,0
245028,-3.21543408360129,4,1,0,100,0,0
245029,186.437559808612,4,1,0,100,1,0
245029,-3.21853878339234,4,1,0,100,0,0
245030,186.287559808612,4,1,0,100,1,0
245030,-3.22061191626409,4,1,0,100,0,0
245031,186.137559808612,4,1,0,100,1,0
245031,-3.22372662798195,4,1,0,100,0,0
245032,185.987559808612,4,1,0,100,1,0
245032,-3.2258064516129,4,1,0,100,0,0
245033,185.837559808612,4,1,0,100,1,0
245033,-3.22893122376493,4,1,0,100,0,0
245034,185.687559808612,4,1,0,100,1,0
245034,-3.23101777059774,4,1,0,100,0,0
245035,185.537559808612,4,1,0,100,1,0
245035,-3.23415265200517,4,1,0,100,0,0
245036,185.387559808612,4,1,0,100,1,0
245036,-3.23624595469256,4,1,0,100,0,0
245037,185.237559808612,4,1,0,100,1,0
245037,-3.23939099449304,4,1,0,100,0,0
245038,185.087559808612,4,1,0,100,1,0
245038,-3.24149108589951,4,1,0,100,0,0
245039,184.937559808612,4,1,0,100,1,0
245039,-3.24464633354964,4,1,0,100,0,0
245040,184.787559808612,4,1,0,100,1,0
245040,-3.24675324675325,4,1,0,100,0,0
245041,184.637559808612,4,1,0,100,1,0
245041,-3.2499187520312,4,1,0,100,0,0
245042,184.487559808612,4,1,0,100,1,0
245042,-3.2520325203252,4,1,0,100,0,0
245043,184.337559808612,4,1,0,100,1,0
245043,-3.25520833333333,4,1,0,100,0,0
245044,184.187559808612,4,1,0,100,1,0
245044,-3.25732899022801,4,1,0,100,0,0
245045,184.037559808612,4,1,0,100,1,0
245045,-3.2605151613955,4,1,0,100,0,0
245046,183.887559808612,4,1,0,100,1,0
245046,-3.2626427406199,4,1,0,100,0,0
245047,183.737559808612,4,1,0,100,1,0
245047,-3.26583932070542,4,1,0,100,0,0
245048,183.587559808612,4,1,0,100,1,0
245048,-3.26797385620915,4,1,0,100,0,0
245049,183.437559808612,4,1,0,100,1,0
245049,-3.27118089630357,4,1,0,100,0,0
245050,183.287559808612,4,1,0,100,1,0
245050,-3.27332242225859,4,1,0,100,0,0
245051,183.137559808612,4,1,0,100,1,0
245051,-3.27653997378768,4,1,0,100,0,0
245052,182.987559808612,4,1,0,100,1,0
245052,-3.27868852459016,4,1,0,100,0,0
245053,182.837559808612,4,1,0,100,1,0
245053,-3.28191663931736,4,1,0,100,0,0
245054,182.687559808612,4,1,0,100,1,0
245054,-3.28407224958949,4,1,0,100,0,0
245055,182.537559808612,4,1,0,100,1,0
245055,-3.28731097961867,4,1,0,100,0,0
245056,182.387559808612,4,1,0,100,1,0
245056,-3.28947368421053,4,1,0,100,0,0
245057,182.237559808612,4,1,0,100,1,0
245057,-3.2927230819888,4,1,0,100,0,0
245058,182.087559808612,4,1,0,100,1,0
245058,-3.29489291598023,4,1,0,100,0,0
245059,181.937559808612,4,1,0,100,1,0
245059,-3.29815303430079,4,1,0,100,0,0
245060,181.787559808612,4,1,0,100,1,0
245060,-3.3003300330033,4,1,0,100,0,0
245061,181.637559808612,4,1,0,100,1,0
245061,-3.30360092500826,4,1,0,100,0,0
245062,181.487559808612,4,1,0,100,1,0
245062,-3.30578512396694,4,1,0,100,0,0
245063,181.337559808612,4,1,0,100,1,0
245063,-3.30906684315023,4,1,0,100,0,0
245064,181.187559808612,4,1,0,100,1,0
245064,-3.3112582781457,4,1,0,100,0,0
245065,181.037559808612,4,1,0,100,1,0
245065,-3.31455087835598,4,1,0,100,0,0
245066,180.887559808612,4,1,0,100,1,0
245066,-3.3167495854063,4,1,0,100,0,0
245067,180.737559808612,4,1,0,100,1,0
245067,-3.32005312084993,4,1,0,100,0,0
245068,180.587559808612,4,1,0,100,1,0
245068,-3.32225913621262,4,1,0,100,0,0
245069,180.437559808612,4,1,0,100,1,0
245069,-3.3255736614566,4,1,0,100,0,0
245070,180.287559808612,4,1,0,100,1,0
245070,-3.32778702163062,4,1,0,100,0,0
245071,180.137559808612,4,1,0,100,1,0
245071,-3.3311125916056,4,1,0,100,0,0
245072,179.987559808612,4,1,0,100,1,0
245072,-3.33333333333333,4,1,0,100,0,0
245073,179.837559808612,4,1,0,100,1,0
245073,-3.33667000333667,4,1,0,100,0,0
245074,179.687559808612,4,1,0,100,1,0
245074,-3.33889816360601,4,1,0,100,0,0
245075,179.537559808612,4,1,0,100,1,0
245075,-3.34224598930481,4,1,0,100,0,0
245076,179.387559808612,4,1,0,100,1,0
245076,-3.34448160535117,4,1,0,100,0,0
245077,179.237559808612,4,1,0,100,1,0
245077,-3.3478406427854,4,1,0,100,0,0
245078,179.087559808612,4,1,0,100,1,0
245078,-3.3500837520938,4,1,0,100,0,0
245079,178.937559808612,4,1,0,100,1,0
245079,-3.35345405767941,4,1,0,100,0,0
245080,178.787559808612,4,1,0,100,1,0
245080,-3.35570469798658,4,1,0,100,0,0
245081,178.637559808612,4,1,0,100,1,0
245081,-3.35908632851864,4,1,0,100,0,0
245082,178.487559808612,4,1,0,100,1,0
245082,-3.36134453781513,4,1,0,100,0,0
245083,178.337559808612,4,1,0,100,1,0
245083,-3.36473755047106,4,1,0,100,0,0
245084,178.187559808612,4,1,0,100,1,0
245084,-3.36700336700337,4,1,0,100,0,0
245085,178.037559808612,4,1,0,100,1,0
245085,-3.37040781934614,4,1,0,100,0,0
245086,177.887559808612,4,1,0,100,1,0
245086,-3.37268128161889,4,1,0,100,0,0
245087,177.737559808612,4,1,0,100,1,0
245087,-3.37609723160027,4,1,0,100,0,0
245088,177.587559808612,4,1,0,100,1,0
245088,-3.37837837837838,4,1,0,100,0,0
245089,177.437559808612,4,1,0,100,1,0
245089,-3.38180588434224,4,1,0,100,0,0
245090,177.287559808612,4,1,0,100,1,0
245090,-3.38409475465313,4,1,0,100,0,0
245091,177.137559808612,4,1,0,100,1,0
245091,-3.38753387533875,4,1,0,100,0,0
245092,176.987559808612,4,1,0,100,1,0
245092,-3.38983050847458,4,1,0,100,0,0
245093,176.837559808612,4,1,0,100,1,0
245093,-3.39328130302002,4,1,0,100,0,0
245094,176.687559808612,4,1,0,100,1,0
245094,-3.3955857385399,4,1,0,100,0,0
245095,176.537559808612,4,1,0,100,1,0
245095,-3.39904826648538,4,1,0,100,0,0
245096,176.387559808612,4,1,0,100,1,0
245096,-3.40136054421769,4,1,0,100,0,0
245097,176.237559808612,4,1,0,100,1,0
245097,-3.40483486550902,4,1,0,100,0,0
245098,176.087559808612,4,1,0,100,1,0
245098,-3.40715502555366,4,1,0,100,0,0
245099,175.937559808612,4,1,0,100,1,0
245099,-3.4106412005457,4,1,0,100,0,0
245100,175.787559808612,4,1,0,100,1,0
245100,-3.41296928327645,4,1,0,100,0,0
245101,175.637559808612,4,1,0,100,1,0
245101,-3.41646737273659,4,1,0,100,0,0
245102,175.487559808612,4,1,0,100,1,0
245102,-3.41880341880342,4,1,0,100,0,0
245103,175.337559808612,4,1,0,100,1,0
245103,-3.42231348391513,4,1,0,100,0,0
245104,175.187559808612,4,1,0,100,1,0
245104,-3.42465753424658,4,1,0,100,0,0
245105,175.037559808612,4,1,0,100,1,0
245105,-3.42817963661296,4,1,0,100,0,0
245106,174.887559808612,4,1,0,100,1,0
245106,-3.43053173241853,4,1,0,100,0,0
245107,174.737559808612,4,1,0,100,1,0
245107,-3.43406593406593,4,1,0,100,0,0
245108,174.587559808612,4,1,0,100,1,0
245108,-3.43642611683849,4,1,0,100,0,0
245109,174.437559808612,4,1,0,100,1,0
245109,-3.43997248022016,4,1,0,100,0,0
245110,174.287559808612,4,1,0,100,1,0
245110,-3.44234079173838,4,1,0,100,0,0
245111,174.137559808612,4,1,0,100,1,0
245111,-3.44589937973811,4,1,0,100,0,0
245112,173.987559808612,4,1,0,100,1,0
245112,-3.44827586206897,4,1,0,100,0,0
245113,173.837559808612,4,1,0,100,1,0
245113,-3.45184673800483,4,1,0,100,0,0
245114,173.687559808612,4,1,0,100,1,0
245114,-3.45423143350604,4,1,0,100,0,0
245115,173.537559808612,4,1,0,100,1,0
245115,-3.45781466113416,4,1,0,100,0,0
245116,173.387559808612,4,1,0,100,1,0
245116,-3.46020761245675,4,1,0,100,0,0
245117,173.237559808612,4,1,0,100,1,0
245117,-3.46380325597506,4,1,0,100,0,0
245118,173.087559808612,4,1,0,100,1,0
245118,-3.46620450606586,4,1,0,100,0,0
245119,172.937559808612,4,1,0,100,1,0
245119,-3.46981263011797,4,1,0,100,0,0
245120,172.787559808612,4,1,0,100,1,0
245120,-3.47222222222222,4,1,0,100,0,0
245121,172.637559808612,4,1,0,100,1,0
245121,-3.47584289190129,4,1,0,100,0,0
245122,172.487559808612,4,1,0,100,1,0
245122,-3.47826086956522,4,1,0,100,0,0
245123,172.337559808612,4,1,0,100,1,0
245123,-3.48189415041783,4,1,0,100,0,0
245124,172.187559808612,4,1,0,100,1,0
245124,-3.48432055749129,4,1,0,100,0,0
245125,172.037559808612,4,1,0,100,1,0
245125,-3.48796651552145,4,1,0,100,0,0
245126,171.887559808612,4,1,0,100,1,0
245126,-3.49040139616056,4,1,0,100,0,0
245127,171.737559808612,4,1,0,100,1,0
245127,-3.49406009783368,4,1,0,100,0,0
245128,171.587559808612,4,1,0,100,1,0
245128,-3.4965034965035,4,1,0,100,0,0
245129,171.437559808612,4,1,0,100,1,0
245129,-3.50017500875044,4,1,0,100,0,0
245130,171.287559808612,4,1,0,100,1,0
245130,-3.50262697022767,4,1,0,100,0,0
245131,171.137559808612,4,1,0,100,1,0
245131,-3.50631136044881,4,1,0,100,0,0
245132,170.987559808612,4,1,0,100,1,0
245132,-3.50877192982456,4,1,0,100,0,0
245133,170.837559808612,4,1,0,100,1,0
245133,-3.51246926589392,4,1,0,100,0,0
245134,170.687559808612,4,1,0,100,1,0
245134,-3.51493848857645,4,1,0,100,0,0
245135,170.537559808612,4,1,0,100,1,0
245135,-3.51864883884588,4,1,0,100,0,0
245136,170.387559808612,4,1,0,100,1,0
245136,-3.52112676056338,4,1,0,100,0,0
245137,170.237559808612,4,1,0,100,1,0
245137,-3.52485019386676,4,1,0,100,0,0
245138,170.087559808612,4,1,0,100,1,0
245138,-3.52733686067019,4,1,0,100,0,0
245139,169.937559808612,4,1,0,100,1,0
245139,-3.53107344632768,4,1,0,100,0,0
245140,169.787559808612,4,1,0,100,1,0
245140,-3.53356890459364,4,1,0,100,0,0
245141,169.637559808612,4,1,0,100,1,0
245141,-3.53731871241599,4,1,0,100,0,0
245142,169.487559808612,4,1,0,100,1,0
245142,-3.53982300884956,4,1,0,100,0,0
245143,169.337559808612,4,1,0,100,1,0
245143,-3.54358610914245,4,1,0,100,0,0
245144,169.187559808612,4,1,0,100,1,0
245144,-3.54609929078014,4,1,0,100,0,0
245145,169.037559808612,4,1,0,100,1,0
245145,-3.5498757543486,4,1,0,100,0,0
245146,168.887559808612,4,1,0,100,1,0
245146,-3.55239786856128,4,1,0,100,0,0
245147,168.737559808612,4,1,0,100,1,0
245147,-3.55618776671408,4,1,0,100,0,0
245148,168.587559808612,4,1,0,100,1,0
245148,-3.55871886120996,4,1,0,100,0,0
245149,168.437559808612,4,1,0,100,1,0
245149,-3.56252226576416,4,1,0,100,0,0
245150,168.287559808612,4,1,0,100,1,0
245150,-3.5650623885918,4,1,0,100,0,0
245151,168.137559808612,4,1,0,100,1,0
245151,-3.56887937187723,4,1,0,100,0,0
245152,167.987559808612,4,1,0,100,1,0
245152,-3.57142857142857,4,1,0,100,0,0
245153,167.837559808612,4,1,0,100,1,0
245153,-3.57525920629246,4,1,0,100,0,0
245154,167.687559808612,4,1,0,100,1,0
245154,-3.5778175313059,4,1,0,100,0,0
245155,167.537559808612,4,1,0,100,1,0
245155,-3.58166189111748,4,1,0,100,0,0
245156,167.387559808612,4,1,0,100,1,0
245156,-3.584229390681,4,1,0,100,0,0
245157,167.237559808612,4,1,0,100,1,0
245157,-3.5880875493362,4,1,0,100,0,0
245158,167.087559808612,4,1,0,100,1,0
245158,-3.59066427289048,4,1,0,100,0,0
245159,166.937559808612,4,1,0,100,1,0
245159,-3.59453630481668,4,1,0,100,0,0
245160,166.787559808612,4,1,0,100,1,0
245160,-3.59712230215827,4,1,0,100,0,0
245161,166.637559808612,4,1,0,100,1,0
245161,-3.60100828231905,4,1,0,100,0,0
245162,166.487559808612,4,1,0,100,1,0
245162,-3.6036036036036,4,1,0,100,0,0
245163,166.337559808612,4,1,0,100,1,0
245163,-3.60750360750361,4,1,0,100,0,0
245164,166.187559808612,4,1,0,100,1,0
245164,-3.6101083032491,4,1,0,100,0,0
245165,166.037559808612,4,1,0,100,1,0
245165,-3.61402240693892,4,1,0,100,0,0
245166,165.887559808612,4,1,0,100,1,0
245166,-3.61663652802893,4,1,0,100,0,0
245167,165.737559808612,4,1,0,100,1,0
245167,-3.62056480811007,4,1,0,100,0,0
245168,165.587559808612,4,1,0,100,1,0
245168,-3.6231884057971,4,1,0,100,0,0
245169,165.437559808612,4,1,0,100,1,0
245169,-3.62713093942691,4,1,0,100,0,0
245170,165.287559808612,4,1,0,100,1,0
245170,-3.62976406533575,4,1,0,100,0,0
245171,165.137559808612,4,1,0,100,1,0
245171,-3.63372093023256,4,1,0,100,0,0
245172,164.987559808612,4,1,0,100,1,0
245172,-3.63636363636364,4,1,0,100,0,0
245173,164.837559808612,4,1,0,100,1,0
245173,-3.6403349108118,4,1,0,100,0,0
245174,164.687559808612,4,1,0,100,1,0
245174,-3.64298724954463,4,1,0,100,0,0
245175,164.537559808612,4,1,0,100,1,0
245175,-3.64697301239971,4,1,0,100,0,0
245176,164.387559808612,4,1,0,100,1,0
245176,-3.64963503649635,4,1,0,100,0,0
245177,164.237559808612,4,1,0,100,1,0
245177,-3.65363536719035,4,1,0,100,0,0
245178,164.087559808612,4,1,0,100,1,0
245178,-3.6563071297989,4,1,0,100,0,0
245179,163.937559808612,4,1,0,100,1,0
245179,-3.66032210834553,4,1,0,100,0,0
245180,163.787559808612,4,1,0,100,1,0
245180,-3.66300366300366,4,1,0,100,0,0
245181,163.637559808612,4,1,0,100,1,0
245181,-3.66703337000367,4,1,0,100,0,0
245182,163.487559808612,4,1,0,100,1,0
245182,-3.6697247706422,4,1,0,100,0,0
245183,163.337559808612,4,1,0,100,1,0
245183,-3.67376928728876,4,1,0,100,0,0
245184,163.187559808612,4,1,0,100,1,0
245184,-3.67647058823529,4,1,0,100,0,0
245185,163.037559808612,4,1,0,100,1,0
245185,-3.68052999631947,4,1,0,100,0,0
245186,162.887559808612,4,1,0,100,1,0
245186,-3.68324125230203,4,1,0,100,0,0
245187,162.737559808612,4,1,0,100,1,0
245187,-3.68731563421829,4,1,0,100,0,0
245188,162.587559808612,4,1,0,100,1,0
245188,-3.690036900369,4,1,0,100,0,0
245189,162.437559808612,4,1,0,100,1,0
245189,-3.6941263391208,4,1,0,100,0,0
245190,162.287559808612,4,1,0,100,1,0
245190,-3.69685767097967,4,1,0,100,0,0
245191,162.137559808612,4,1,0,100,1,0
245191,-3.70096225018505,4,1,0,100,0,0
245192,161.987559808612,4,1,0,100,1,0
245192,-3.7037037037037,4,1,0,100,0,0
245193,161.837559808612,4,1,0,100,1,0
245193,-3.70782350760104,4,1,0,100,0,0
245194,161.687559808612,4,1,0,100,1,0
245194,-3.71057513914657,4,1,0,100,0,0
245194,-37.1747211895911,4,1,0,100,0,0
245195,161.537559808612,4,1,0,100,1,0
245195,-3.7147102526003,4,1,0,100,0,0
245196,161.387559808612,4,1,0,100,1,0
245196,-3.71747211895911,4,1,0,100,0,0
245197,161.237559808612,4,1,0,100,1,0
245197,-3.72162262746558,4,1,0,100,0,0
245198,161.087559808612,4,1,0,100,1,0
245198,-3.7243947858473,4,1,0,100,0,0
245199,160.937559808612,4,1,0,100,1,0
245199,-3.72856077554064,4,1,0,100,0,0
245200,160.787559808612,4,1,0,100,1,0
245200,-3.73134328358209,4,1,0,100,0,0
245201,160.637559808612,4,1,0,100,1,0
245201,-3.73552484124019,4,1,0,100,0,0
245202,160.487559808612,4,1,0,100,1,0
245202,-3.73831775700935,4,1,0,100,0,0
245203,160.337559808612,4,1,0,100,1,0
245203,-3.74251497005988,4,1,0,100,0,0
245204,160.187559808612,4,1,0,100,1,0
245204,-3.74531835205993,4,1,0,100,0,0
245205,160.037559808612,4,1,0,100,1,0
245205,-3.74953130858643,4,1,0,100,0,0
245206,159.887559808612,4,1,0,100,1,0
245206,-3.75234521575985,4,1,0,100,0,0
245207,159.737559808612,4,1,0,100,1,0
245207,-3.75657400450789,4,1,0,100,0,0
245208,159.587559808612,4,1,0,100,1,0
245208,-3.7593984962406,4,1,0,100,0,0
245209,159.437559808612,4,1,0,100,1,0
245209,-3.76364320662401,4,1,0,100,0,0
245210,159.287559808612,4,1,0,100,1,0
245210,-3.76647834274953,4,1,0,100,0,0
245211,159.137559808612,4,1,0,100,1,0
245211,-3.77073906485671,4,1,0,100,0,0
245212,158.987559808612,4,1,0,100,1,0
245212,-3.77358490566038,4,1,0,100,0,0
245213,158.837559808612,4,1,0,100,1,0
245213,-3.77786173026067,4,1,0,100,0,0
245214,158.687559808612,4,1,0,100,1,0
245214,-3.78071833648393,4,1,0,100,0,0
245215,158.537559808612,4,1,0,100,1,0
245215,-3.78501135503406,4,1,0,100,0,0
245216,158.387559808612,4,1,0,100,1,0
245216,-3.78787878787879,4,1,0,100,0,0
245217,158.237559808612,4,1,0,100,1,0
245217,-3.79218809252939,4,1,0,100,0,0
245218,158.087559808612,4,1,0,100,1,0
245218,-3.79506641366224,4,1,0,100,0,0
245219,157.937559808612,4,1,0,100,1,0
245219,-3.79939209726444,4,1,0,100,0,0
245220,157.787559808612,4,1,0,100,1,0
245220,-3.80228136882129,4,1,0,100,0,0
245221,157.637559808612,4,1,0,100,1,0
245221,-3.80662352493338,4,1,0,100,0,0
245222,157.487559808612,4,1,0,100,1,0
245222,-3.80952380952381,4,1,0,100,0,0
245223,157.337559808612,4,1,0,100,1,0
245223,-3.813882532418,4,1,0,100,0,0
245224,157.187559808612,4,1,0,100,1,0
245224,-3.81679389312977,4,1,0,100,0,0
245225,157.037559808612,4,1,0,100,1,0
245225,-3.82116927779901,4,1,0,100,0,0
245226,156.887559808612,4,1,0,100,1,0
245226,-3.82409177820268,4,1,0,100,0,0
245227,156.737559808612,4,1,0,100,1,0
245227,-3.82848392036753,4,1,0,100,0,0
245228,156.587559808612,4,1,0,100,1,0
245228,-3.83141762452107,4,1,0,100,0,0
245229,156.437559808612,4,1,0,100,1,0
245229,-3.83582662063675,4,1,0,100,0,0
245230,156.287559808612,4,1,0,100,1,0
245230,-3.83877159309021,4,1,0,100,0,0
245231,156.137559808612,4,1,0,100,1,0
245231,-3.84319754035357,4,1,0,100,0,0
245232,155.987559808612,4,1,0,100,1,0
245232,-3.84615384615385,4,1,0,100,0,0
245233,155.837559808612,4,1,0,100,1,0
245233,-3.85059684251059,4,1,0,100,0,0
245234,155.687559808612,4,1,0,100,1,0
245234,-3.85356454720617,4,1,0,100,0,0
245235,155.537559808612,4,1,0,100,1,0
245235,-3.85802469135802,4,1,0,100,0,0
245236,155.387559808612,4,1,0,100,1,0
245236,-3.86100386100386,4,1,0,100,0,0
245237,155.237559808612,4,1,0,100,1,0
245237,-3.86548125241593,4,1,0,100,0,0
245238,155.087559808612,4,1,0,100,1,0
245238,-3.86847195357834,4,1,0,100,0,0
245239,154.937559808612,4,1,0,100,1,0
245239,-3.87296669248644,4,1,0,100,0,0
245240,154.787559808612,4,1,0,100,1,0
245240,-3.87596899224806,4,1,0,100,0,0
245241,154.637559808612,4,1,0,100,1,0
245241,-3.88048117966628,4,1,0,100,0,0
245242,154.487559808612,4,1,0,100,1,0
245242,-3.88349514563107,4,1,0,100,0,0
245243,154.337559808612,4,1,0,100,1,0
245243,-3.88802488335925,4,1,0,100,0,0
245244,154.187559808612,4,1,0,100,1,0
245244,-3.89105058365759,4,1,0,100,0,0
245245,154.037559808612,4,1,0,100,1,0
245245,-3.89559797428905,4,1,0,100,0,0
245246,153.887559808612,4,1,0,100,1,0
245246,-3.89863547758285,4,1,0,100,0,0
245247,153.737559808612,4,1,0,100,1,0
245247,-3.9032006245121,4,1,0,100,0,0
245248,153.587559808612,4,1,0,100,1,0
245248,-3.90625,4,1,0,100,0,0
245249,153.437559808612,4,1,0,100,1,0
245249,-3.91083300743058,4,1,0,100,0,0
245250,153.287559808612,4,1,0,100,1,0
245250,-3.91389432485323,4,1,0,100,0,0
245251,153.137559808612,4,1,0,100,1,0
245251,-3.91849529780564,4,1,0,100,0,0
245252,152.987559808612,4,1,0,100,1,0
245252,-3.92156862745098,4,1,0,100,0,0
245253,152.837559808612,4,1,0,100,1,0
245253,-3.92618767177071,4,1,0,100,0,0
245254,152.687559808612,4,1,0,100,1,0
245254,-3.92927308447937,4,1,0,100,0,0
245255,152.537559808612,4,1,0,100,1,0
245255,-3.933910306845,4,1,0,100,0,0
245256,152.387559808612,4,1,0,100,1,0
245256,-3.93700787401575,4,1,0,100,0,0
245257,152.237559808612,4,1,0,100,1,0
245257,-3.94166338194718,4,1,0,100,0,0
245258,152.087559808612,4,1,0,100,1,0
245258,-3.94477317554241,4,1,0,100,0,0
245259,151.937559808612,4,1,0,100,1,0
245259,-3.94944707740916,4,1,0,100,0,0
245260,151.787559808612,4,1,0,100,1,0
245260,-3.95256916996047,4,1,0,100,0,0
245261,151.637559808612,4,1,0,100,1,0
245261,-3.95726157499011,4,1,0,100,0,0
245262,151.487559808612,4,1,0,100,1,0
245262,-3.96039603960396,4,1,0,100,0,0
245263,151.337559808612,4,1,0,100,1,0
245263,-3.96510705789056,4,1,0,100,0,0
245264,151.187559808612,4,1,0,100,1,0
245264,-3.96825396825397,4,1,0,100,0,0
245265,151.037559808612,4,1,0,100,1,0
245265,-3.97298371076679,4,1,0,100,0,0
245266,150.887559808612,4,1,0,100,1,0
245266,-3.97614314115308,4,1,0,100,0,0
245267,150.737559808612,4,1,0,100,1,0
245267,-3.98089171974522,4,1,0,100,0,0
245268,150.587559808612,4,1,0,100,1,0
245268,-3.98406374501992,4,1,0,100,0,0
245269,150.437559808612,4,1,0,100,1,0
245269,-3.98883127243718,4,1,0,100,0,0
245270,150.287559808612,4,1,0,100,1,0
245270,-3.99201596806387,4,1,0,100,0,0
245271,150.137559808612,4,1,0,100,1,0
245271,-3.99680255795364,4,1,0,100,0,0
245272,149.987559808612,4,1,0,100,1,0
245272,-4,4,1,0,100,0,0
245273,149.837559808612,4,1,0,100,1,0
245273,-4.0048057669203,4,1,0,100,0,0
245274,149.687559808612,4,1,0,100,1,0
245274,-4.00801603206413,4,1,0,100,0,0
245275,149.537559808612,4,1,0,100,1,0
245275,-4.01284109149278,4,1,0,100,0,0
245276,149.387559808612,4,1,0,100,1,0
245276,-4.01606425702811,4,1,0,100,0,0
245277,149.237559808612,4,1,0,100,1,0
245277,-4.02090872537193,4,1,0,100,0,0
245278,149.087559808612,4,1,0,100,1,0
245278,-4.02414486921529,4,1,0,100,0,0
245279,148.937559808612,4,1,0,100,1,0
245279,-4.0290088638195,4,1,0,100,0,0
245280,148.787559808612,4,1,0,100,1,0
245280,-4.03225806451613,4,1,0,100,0,0
245281,148.637559808612,4,1,0,100,1,0
245281,-4.0371417036738,4,1,0,100,0,0
245282,148.487559808612,4,1,0,100,1,0
245282,-4.04040404040404,4,1,0,100,0,0
245283,148.337559808612,4,1,0,100,1,0
245283,-4.0453074433657,4,1,0,100,0,0
245284,148.187559808612,4,1,0,100,1,0
245284,-4.04858299595142,4,1,0,100,0,0
245285,148.037559808612,4,1,0,100,1,0
245285,-4.05350628293474,4,1,0,100,0,0
245286,147.887559808612,4,1,0,100,1,0
245286,-4.05679513184584,4,1,0,100,0,0
245287,147.737559808612,4,1,0,100,1,0
245287,-4.06173842404549,4,1,0,100,0,0
245288,147.587559808612,4,1,0,100,1,0
245288,-4.0650406504065,4,1,0,100,0,0
245289,147.437559808612,4,1,0,100,1,0
245289,-4.07000407000407,4,1,0,100,0,0
245290,147.287559808612,4,1,0,100,1,0
245290,-4.07331975560081,4,1,0,100,0,0
245291,147.137559808612,4,1,0,100,1,0
245291,-4.07830342577488,4,1,0,100,0,0
245292,146.987559808612,4,1,0,100,1,0
245292,-4.08163265306122,4,1,0,100,0,0
245293,146.837559808612,4,1,0,100,1,0
245293,-4.08663669799755,4,1,0,100,0,0
245294,146.687559808612,4,1,0,100,1,0
245294,-4.08997955010225,4,1,0,100,0,0
245295,146.537559808612,4,1,0,100,1,0
245295,-4.09500409500409,4,1,0,100,0,0
245296,146.387559808612,4,1,0,100,1,0
245296,-4.09836065573771,4,1,0,100,0,0
245297,146.237559808612,4,1,0,100,1,0
245297,-4.10340582683627,4,1,0,100,0,0
245298,146.087559808612,4,1,0,100,1,0
245298,-4.10677618069815,4,1,0,100,0,0
245299,145.937559808612,4,1,0,100,1,0
245299,-4.11184210526316,4,1,0,100,0,0
245300,145.787559808612,4,1,0,100,1,0
245300,-4.11522633744856,4,1,0,100,0,0
245301,145.637559808612,4,1,0,100,1,0
245301,-4.12031314379893,4,1,0,100,0,0
245302,145.487559808612,4,1,0,100,1,0
245302,-4.12371134020619,4,1,0,100,0,0
245303,145.337559808612,4,1,0,100,1,0
245303,-4.12881915772089,4,1,0,100,0,0
245304,145.187559808612,4,1,0,100,1,0
245304,-4.13223140495868,4,1,0,100,0,0
245305,145.037559808612,4,1,0,100,1,0
245305,-4.13736036408771,4,1,0,100,0,0
245306,144.887559808612,4,1,0,100,1,0
245306,-4.1407867494824,4,1,0,100,0,0
245307,144.737559808612,4,1,0,100,1,0
245307,-4.14593698175788,4,1,0,100,0,0
245308,144.587559808612,4,1,0,100,1,0
245308,-4.149377593361,4,1,0,100,0,0
245309,144.437559808612,4,1,0,100,1,0
245309,-4.15454923140839,4,1,0,100,0,0
245310,144.287559808612,4,1,0,100,1,0
245310,-4.15800415800416,4,1,0,100,0,0
245311,144.137559808612,4,1,0,100,1,0
245311,-4.16319733555371,4,1,0,100,0,0
245312,143.987559808612,4,1,0,100,1,0
245312,-4.16666666666667,4,1,0,100,0,0
245313,143.837559808612,4,1,0,100,1,0
245313,-4.17188151856487,4,1,0,100,0,0
245314,143.687559808612,4,1,0,100,1,0
245314,-4.17536534446764,4,1,0,100,0,0
245315,143.537559808612,4,1,0,100,1,0
245315,-4.18060200668896,4,1,0,100,0,0
245316,143.387559808612,4,1,0,100,1,0
245316,-4.18410041841004,4,1,0,100,0,0
245317,143.237559808612,4,1,0,100,1,0
245317,-4.18935902806871,4,1,0,100,0,0
245318,143.087559808612,4,1,0,100,1,0
245318,-4.19287211740042,4,1,0,100,0,0
245319,142.937559808612,4,1,0,100,1,0
245319,-4.19815281276238,4,1,0,100,0,0
245320,142.787559808612,4,1,0,100,1,0
245320,-4.20168067226891,4,1,0,100,0,0
245321,142.637559808612,4,1,0,100,1,0
245321,-4.20698359276399,4,1,0,100,0,0
245322,142.487559808612,4,1,0,100,1,0
245322,-4.21052631578947,4,1,0,100,0,0
245323,142.337559808612,4,1,0,100,1,0
245323,-4.21585160202361,4,1,0,100,0,0
245324,142.187559808612,4,1,0,100,1,0
245324,-4.21940928270042,4,1,0,100,0,0
245325,142.037559808612,4,1,0,100,1,0
245325,-4.2247570764681,4,1,0,100,0,0
245326,141.887559808612,4,1,0,100,1,0
245326,-4.22832980972516,4,1,0,100,0,0
245327,141.737559808612,4,1,0,100,1,0
245327,-4.23370025402201,4,1,0,100,0,0
245328,141.587559808612,4,1,0,100,1,0
245328,-4.23728813559322,4,1,0,100,0,0
245329,141.437559808612,4,1,0,100,1,0
245329,-4.24268137462877,4,1,0,100,0,0
245330,141.287559808612,4,1,0,100,1,0
245330,-4.24628450106157,4,1,0,100,0,0
245331,141.137559808612,4,1,0,100,1,0
245331,-4.25170068027211,4,1,0,100,0,0
245332,140.987559808612,4,1,0,100,1,0
245332,-4.25531914893617,4,1,0,100,0,0
245333,140.837559808612,4,1,0,100,1,0
245333,-4.26075841499787,4,1,0,100,0,0
245334,140.687559808612,4,1,0,100,1,0
245334,-4.26439232409382,4,1,0,100,0,0
245335,140.537559808612,4,1,0,100,1,0
245335,-4.26985482493595,4,1,0,100,0,0
245336,140.387559808612,4,1,0,100,1,0
245336,-4.27350427350427,4,1,0,100,0,0
245337,140.237559808612,4,1,0,100,1,0
245337,-4.27899015832264,4,1,0,100,0,0
245338,140.087559808612,4,1,0,100,1,0
245338,-4.28265524625268,4,1,0,100,0,0
245339,139.937559808612,4,1,0,100,1,0
245339,-4.28816466552316,4,1,0,100,0,0
245340,139.787559808612,4,1,0,100,1,0
245340,-4.29184549356223,4,1,0,100,0,0
245341,139.637559808612,4,1,0,100,1,0
245341,-4.29737859905458,4,1,0,100,0,0
245342,139.487559808612,4,1,0,100,1,0
245342,-4.3010752688172,4,1,0,100,0,0
245343,139.337559808612,4,1,0,100,1,0
245343,-4.30663221360896,4,1,0,100,0,0
245344,139.187559808612,4,1,0,100,1,0
245344,-4.31034482758621,4,1,0,100,0,0
245345,139.037559808612,4,1,0,100,1,0
245345,-4.31592576607682,4,1,0,100,0,0
245346,138.887559808612,4,1,0,100,1,0
245346,-4.31965442764579,4,1,0,100,0,0
245347,138.737559808612,4,1,0,100,1,0
245347,-4.32525951557093,4,1,0,100,0,0
245348,138.587559808612,4,1,0,100,1,0
245348,-4.32900432900433,4,1,0,100,0,0
245349,138.437559808612,4,1,0,100,1,0
245349,-4.33463372345037,4,1,0,100,0,0
245350,138.287559808612,4,1,0,100,1,0
245350,-4.33839479392625,4,1,0,100,0,0
245351,138.137559808612,4,1,0,100,1,0
245351,-4.34404865334492,4,1,0,100,0,0
245352,137.987559808612,4,1,0,100,1,0
245352,-4.34782608695652,4,1,0,100,0,0
245353,137.837559808612,4,1,0,100,1,0
245353,-4.3535045711798,4,1,0,100,0,0
245354,137.687559808612,4,1,0,100,1,0
245354,-4.35729847494553,4,1,0,100,0,0
245355,137.537559808612,4,1,0,100,1,0
245355,-4.3630017452007,4,1,0,100,0,0
245356,137.387559808612,4,1,0,100,1,0
245356,-4.36681222707424,4,1,0,100,0,0
245357,137.237559808612,4,1,0,100,1,0
245357,-4.37254044599913,4,1,0,100,0,0
245358,137.087559808612,4,1,0,100,1,0
245358,-4.37636761487965,4,1,0,100,0,0
245359,136.937559808612,4,1,0,100,1,0
245359,-4.38212094653812,4,1,0,100,0,0
245360,136.787559808612,4,1,0,100,1,0
245360,-4.3859649122807,4,1,0,100,0,0
245361,136.637559808612,4,1,0,100,1,0
245361,-4.39174352217831,4,1,0,100,0,0
245362,136.487559808612,4,1,0,100,1,0
245362,-4.3956043956044,4,1,0,100,0,0
245363,136.337559808612,4,1,0,100,1,0
245363,-4.40140845070423,4,1,0,100,0,0
245364,136.187559808612,4,1,0,100,1,0
245364,-4.40528634361234,4,1,0,100,0,0
245365,136.037559808612,4,1,0,100,1,0
245365,-4.41111601235112,4,1,0,100,0,0
245366,135.887559808612,4,1,0,100,1,0
245366,-4.41501103752759,4,1,0,100,0,0
245367,135.737559808612,4,1,0,100,1,0
245367,-4.42086648983201,4,1,0,100,0,0
245368,135.587559808612,4,1,0,100,1,0
245368,-4.42477876106195,4,1,0,100,0,0
245369,135.437559808612,4,1,0,100,1,0
245369,-4.43066016836509,4,1,0,100,0,0
245370,135.287559808612,4,1,0,100,1,0
245370,-4.43458980044346,4,1,0,100,0,0
245371,135.137559808612,4,1,0,100,1,0
245371,-4.4404973357016,4,1,0,100,0,0
245372,134.987559808612,4,1,0,100,1,0
245372,-4.44444444444444,4,1,0,100,0,0
245373,134.837559808612,4,1,0,100,1,0
245373,-4.45037828215398,4,1,0,100,0,0
245374,134.687559808612,4,1,0,100,1,0
245374,-4.4543429844098,4,1,0,100,0,0
245375,134.537559808612,4,1,0,100,1,0
245375,-4.46030330062444,4,1,0,100,0,0
245376,134.387559808612,4,1,0,100,1,0
245376,-4.46428571428571,4,1,0,100,0,0
245377,134.237559808612,4,1,0,100,1,0
245377,-4.47027268663388,4,1,0,100,0,0
245378,134.087559808612,4,1,0,100,1,0
245378,-4.47427293064877,4,1,0,100,0,0
245379,133.937559808612,4,1,0,100,1,0
245379,-4.48028673835125,4,1,0,100,0,0
245380,133.787559808612,4,1,0,100,1,0
245380,-4.48430493273543,4,1,0,100,0,0
245381,133.637559808612,4,1,0,100,1,0
245381,-4.49034575662326,4,1,0,100,0,0
245382,133.487559808612,4,1,0,100,1,0
245382,-4.49438202247191,4,1,0,100,0,0
245383,133.337559808612,4,1,0,100,1,0
245383,-4.5004500450045,4,1,0,100,0,0
245384,133.187559808612,4,1,0,100,1,0
245384,-4.5045045045045,4,1,0,100,0,0
245385,133.037559808612,4,1,0,100,1,0
245385,-4.510599909788,4,1,0,100,0,0
245386,132.887559808612,4,1,0,100,1,0
245386,-4.51467268623025,4,1,0,100,0,0
245387,132.737559808612,4,1,0,100,1,0
245387,-4.52079566003617,4,1,0,100,0,0
245388,132.587559808612,4,1,0,100,1,0
245388,-4.52488687782805,4,1,0,100,0,0
245389,132.437559808612,4,1,0,100,1,0
245389,-4.53103760761214,4,1,0,100,0,0
245390,132.287559808612,4,1,0,100,1,0
245390,-4.53514739229025,4,1,0,100,0,0
245391,132.137559808612,4,1,0,100,1,0
245391,-4.54132606721163,4,1,0,100,0,0
245392,131.987559808612,4,1,0,100,1,0
245392,-4.54545454545455,4,1,0,100,0,0
245393,131.837559808612,4,1,0,100,1,0
245393,-4.55166135639508,4,1,0,100,0,0
245394,131.687559808612,4,1,0,100,1,0
245394,-4.55580865603645,4,1,0,100,0,0
245395,131.537559808612,4,1,0,100,1,0
245395,-4.56204379562044,4,1,0,100,0,0
245396,131.387559808612,4,1,0,100,1,0
245396,-4.5662100456621,4,1,0,100,0,0
245397,131.237559808612,4,1,0,100,1,0
245397,-4.57247370827618,4,1,0,100,0,0
245398,131.087559808612,4,1,0,100,1,0
245398,-4.5766590389016,4,1,0,100,0,0
245399,130.937559808612,4,1,0,100,1,0
245399,-4.58295142071494,4,1,0,100,0,0
245400,130.787559808612,4,1,0,100,1,0
245400,-4.58715596330275,4,1,0,100,0,0
245401,130.637559808612,4,1,0,100,1,0
245401,-4.59347726228755,4,1,0,100,0,0
245402,130.487559808612,4,1,0,100,1,0
245402,-4.59770114942529,4,1,0,100,0,0
245403,130.337559808612,4,1,0,100,1,0
245403,-4.60405156537753,4,1,0,100,0,0
245404,130.187559808612,4,1,0,100,1,0
245404,-4.60829493087558,4,1,0,100,0,0
245405,130.037559808612,4,1,0,100,1,0
245405,-4.61467466543609,4,1,0,100,0,0
245406,129.887559808612,4,1,0,100,1,0
245406,-4.6189376443418,4,1,0,100,0,0
245407,129.737559808612,4,1,0,100,1,0
245407,-4.62534690101758,4,1,0,100,0,0
245408,129.587559808612,4,1,0,100,1,0
245408,-4.62962962962963,4,1,0,100,0,0
245409,129.437559808612,4,1,0,100,1,0
245409,-4.63606861381548,4,1,0,100,0,0
245410,129.287559808612,4,1,0,100,1,0
245410,-4.64037122969838,4,1,0,100,0,0
245411,129.137559808612,4,1,0,100,1,0
245411,-4.64684014869889,4,1,0,100,0,0
245412,128.987559808612,4,1,0,100,1,0
245412,-4.65116279069767,4,1,0,100,0,0
245413,128.837559808612,4,1,0,100,1,0
245413,-4.65766185374942,4,1,0,100,0,0
245414,128.687559808612,4,1,0,100,1,0
245414,-4.66200466200466,4,1,0,100,0,0
245415,128.537559808612,4,1,0,100,1,0
245415,-4.66853408029879,4,1,0,100,0,0
245416,128.387559808612,4,1,0,100,1,0
245416,-4.67289719626168,4,1,0,100,0,0
245417,128.237559808612,4,1,0,100,1,0
245417,-4.67945718296678,4,1,0,100,0,0
245418,128.087559808612,4,1,0,100,1,0
245418,-4.68384074941452,4,1,0,100,0,0
245419,127.937559808612,4,1,0,100,1,0
245419,-4.69043151969981,4,1,0,100,0,0
245420,127.787559808612,4,1,0,100,1,0
245420,-4.69483568075117,4,1,0,100,0,0
245421,127.637559808612,4,1,0,100,1,0
245421,-4.70145745181006,4,1,0,100,0,0
245422,127.487559808612,4,1,0,100,1,0
245422,-4.70588235294118,4,1,0,100,0,0
245423,127.337559808612,4,1,0,100,1,0
245423,-4.71253534401508,4,1,0,100,0,0
245424,127.187559808612,4,1,0,100,1,0
245424,-4.71698113207547,4,1,0,100,0,0
245425,127.037559808612,4,1,0,100,1,0
245425,-4.72366556447803,4,1,0,100,0,0
245426,126.887559808612,4,1,0,100,1,0
245426,-4.72813238770686,4,1,0,100,0,0
245427,126.737559808612,4,1,0,100,1,0
245427,-4.73484848484848,4,1,0,100,0,0
245428,126.587559808612,4,1,0,100,1,0
245428,-4.739336492891,4,1,0,100,0,0
245429,126.437559808612,4,1,0,100,1,0
245429,-4.74608448030375,4,1,0,100,0,0
245430,126.287559808612,4,1,0,100,1,0
245430,-4.75059382422803,4,1,0,100,0,0
245431,126.137559808612,4,1,0,100,1,0
245431,-4.75737392959087,4,1,0,100,0,0
245432,125.987559808612,4,1,0,100,1,0
245432,-4.76190476190476,4,1,0,100,0,0
245433,125.837559808612,4,1,0,100,1,0
245433,-4.76871721506915,4,1,0,100,0,0
245434,125.687559808612,4,1,0,100,1,0
245434,-4.77326968973747,4,1,0,100,0,0
245435,125.537559808612,4,1,0,100,1,0
245435,-4.78011472275335,4,1,0,100,0,0
245436,125.387559808612,4,1,0,100,1,0
245436,-4.78468899521531,4,1,0,100,0,0
245437,125.237559808612,4,1,0,100,1,0
245437,-4.79156684235745,4,1,0,100,0,0
245438,125.087559808612,4,1,0,100,1,0
245438,-4.79616306954436,4,1,0,100,0,0
245439,124.937559808612,4,1,0,100,1,0
245439,-4.8030739673391,4,1,0,100,0,0
245440,124.787559808612,4,1,0,100,1,0
245440,-4.80769230769231,4,1,0,100,0,0
245441,124.637559808612,4,1,0,100,1,0
245441,-4.81463649494463,4,1,0,100,0,0
245442,124.487559808612,4,1,0,100,1,0
245442,-4.81927710843374,4,1,0,100,0,0
245443,124.337559808612,4,1,0,100,1,0
245443,-4.82625482625483,4,1,0,100,0,0
245444,124.187559808612,4,1,0,100,1,0
245444,-4.83091787439614,4,1,0,100,0,0
245445,124.037559808612,4,1,0,100,1,0
245445,-4.83792936623125,4,1,0,100,0,0
245446,123.887559808612,4,1,0,100,1,0
245446,-4.84261501210654,4,1,0,100,0,0
245447,123.737559808612,4,1,0,100,1,0
245447,-4.84966052376334,4,1,0,100,0,0
245448,123.587559808612,4,1,0,100,1,0
245448,-4.85436893203883,4,1,0,100,0,0
245449,123.437559808612,4,1,0,100,1,0
245449,-4.86144871171609,4,1,0,100,0,0
245450,123.287559808612,4,1,0,100,1,0
245450,-4.8661800486618,4,1,0,100,0,0
245451,123.137559808612,4,1,0,100,1,0
245451,-4.87329434697856,4,1,0,100,0,0
245452,122.987559808612,4,1,0,100,1,0
245452,-4.8780487804878,4,1,0,100,0,0
245453,122.837559808612,4,1,0,100,1,0
245453,-4.88519785051295,4,1,0,100,0,0
245454,122.687559808612,4,1,0,100,1,0
245454,-4.88997555012225,4,1,0,100,0,0
245455,122.537559808612,4,1,0,100,1,0
245455,-4.89715964740451,4,1,0,100,0,0
245456,122.387559808612,4,1,0,100,1,0
245456,-4.90196078431373,4,1,0,100,0,0
245457,122.237559808612,4,1,0,100,1,0
245457,-4.90918016691213,4,1,0,100,0,0
245458,122.087559808612,4,1,0,100,1,0
245458,-4.91400491400491,4,1,0,100,0,0
245459,121.937559808612,4,1,0,100,1,0
245459,-4.92125984251969,4,1,0,100,0,0
245460,121.787559808612,4,1,0,100,1,0
245460,-4.92610837438424,4,1,0,100,0,0
245461,121.637559808612,4,1,0,100,1,0
245461,-4.93339911198816,4,1,0,100,0,0
245462,121.487559808612,4,1,0,100,1,0
245462,-4.93827160493827,4,1,0,100,0,0
245463,121.337559808612,4,1,0,100,1,0
245463,-4.94559841740851,4,1,0,100,0,0
245464,121.187559808612,4,1,0,100,1,0
245464,-4.95049504950495,4,1,0,100,0,0
245465,121.037559808612,4,1,0,100,1,0
245465,-4.95785820525533,4,1,0,100,0,0
245466,120.887559808612,4,1,0,100,1,0
245466,-4.96277915632754,4,1,0,100,0,0
245467,120.737559808612,4,1,0,100,1,0
245467,-4.97017892644135,4,1,0,100,0,0
245468,120.587559808612,4,1,0,100,1,0
245468,-4.97512437810945,4,1,0,100,0,0
245469,120.437559808612,4,1,0,100,1,0
245469,-4.9825610363727,4,1,0,100,0,0
245470,120.287559808612,4,1,0,100,1,0
245470,-4.98753117206983,4,1,0,100,0,0
245471,120.137559808612,4,1,0,100,1,0
245471,-4.995004995005,4,1,0,100,0,0
245472,119.987559808612,4,1,0,100,1,0
245472,-5,4,1,0,100,0,0
245473,119.837559808612,4,1,0,100,1,0
245473,-5.00751126690035,4,1,0,100,0,0
245474,119.687559808612,4,1,0,100,1,0
245474,-5.0125313283208,4,1,0,100,0,0
245475,119.537559808612,4,1,0,100,1,0
245475,-5.02008032128514,4,1,0,100,0,0
245476,119.387559808612,4,1,0,100,1,0
245476,-5.0251256281407,4,1,0,100,0,0
245477,119.237559808612,4,1,0,100,1,0
245477,-5.03271263210871,4,1,0,100,0,0
245478,119.087559808612,4,1,0,100,1,0
245478,-5.03778337531486,4,1,0,100,0,0
245479,118.937559808612,4,1,0,100,1,0
245479,-5.04540867810293,4,1,0,100,0,0
245480,118.787559808612,4,1,0,100,1,0
245480,-5.05050505050505,4,1,0,100,0,0
245481,118.637559808612,4,1,0,100,1,0
245481,-5.05816894284269,4,1,0,100,0,0
245482,118.487559808612,4,1,0,100,1,0
245482,-5.06329113924051,4,1,0,100,0,0
245483,118.337559808612,4,1,0,100,1,0
245483,-5.0709939148073,4,1,0,100,0,0
245484,118.187559808612,4,1,0,100,1,0
245484,-5.0761421319797,4,1,0,100,0,0
245485,118.037559808612,4,1,0,100,1,0
245485,-5.08388408744281,4,1,0,100,0,0
245486,117.887559808612,4,1,0,100,1,0
245486,-5.08905852417303,4,1,0,100,0,0
245487,117.737559808612,4,1,0,100,1,0
245487,-5.09683995922528,4,1,0,100,0,0
245488,117.587559808612,4,1,0,100,1,0
245488,-5.10204081632653,4,1,0,100,0,0
245489,117.437559808612,4,1,0,100,1,0
245489,-5.10986203372509,4,1,0,100,0,0
245490,117.287559808612,4,1,0,100,1,0
245490,-5.1150895140665,4,1,0,100,0,0
245491,117.137559808612,4,1,0,100,1,0
245491,-5.12295081967213,4,1,0,100,0,0
245492,116.987559808612,4,1,0,100,1,0
245492,-5.12820512820513,4,1,0,100,0,0
245493,116.837559808612,4,1,0,100,1,0
245493,-5.13610683102209,4,1,0,100,0,0
245494,116.687559808612,4,1,0,100,1,0
245494,-5.1413881748072,4,1,0,100,0,0
245495,116.537559808612,4,1,0,100,1,0
245495,-5.14933058702369,4,1,0,100,0,0
245496,116.387559808612,4,1,0,100,1,0
245496,-5.15463917525773,4,1,0,100,0,0
245497,116.237559808612,4,1,0,100,1,0
245497,-5.16262261228704,4,1,0,100,0,0
245498,116.087559808612,4,1,0,100,1,0
245498,-5.16795865633075,4,1,0,100,0,0
245499,115.937559808612,4,1,0,100,1,0
245499,-5.175983436853,4,1,0,100,0,0
245500,115.787559808612,4,1,0,100,1,0
245500,-5.18134715025907,4,1,0,100,0,0
245501,115.637559808612,4,1,0,100,1,0
245501,-5.18941359626362,4,1,0,100,0,0
245502,115.487559808612,4,1,0,100,1,0
245502,-5.19480519480519,4,1,0,100,0,0
245503,115.337559808612,4,1,0,100,1,0
245503,-5.20291363163371,4,1,0,100,0,0
245504,115.187559808612,4,1,0,100,1,0
245504,-5.20833333333333,4,1,0,100,0,0
245505,115.037559808612,4,1,0,100,1,0
245505,-5.21648408972353,4,1,0,100,0,0
245506,114.887559808612,4,1,0,100,1,0
245506,-5.22193211488251,4,1,0,100,0,0
245507,114.737559808612,4,1,0,100,1,0
245507,-5.23012552301255,4,1,0,100,0,0
245508,114.587559808612,4,1,0,100,1,0
245508,-5.23560209424084,4,1,0,100,0,0
245509,114.437559808612,4,1,0,100,1,0
245509,-5.24383848977451,4,1,0,100,0,0
245510,114.287559808612,4,1,0,100,1,0
245510,-5.249343832021,4,1,0,100,0,0
245511,114.137559808612,4,1,0,100,1,0
245511,-5.25762355415352,4,1,0,100,0,0
245512,113.987559808612,4,1,0,100,1,0
245512,-5.26315789473684,4,1,0,100,0,0
245513,113.837559808612,4,1,0,100,1,0
245513,-5.27148128624143,4,1,0,100,0,0
245514,113.687559808612,4,1,0,100,1,0
245514,-5.27704485488127,4,1,0,100,0,0
245515,113.537559808612,4,1,0,100,1,0
245515,-5.28541226215645,4,1,0,100,0,0
245516,113.387559808612,4,1,0,100,1,0
245516,-5.29100529100529,4,1,0,100,0,0
245517,113.237559808612,4,1,0,100,1,0
245517,-5.29941706412295,4,1,0,100,0,0
245518,113.087559808612,4,1,0,100,1,0
245518,-5.30503978779841,4,1,0,100,0,0
245519,112.937559808612,4,1,0,100,1,0
245519,-5.3134962805526,4,1,0,100,0,0
245520,112.787559808612,4,1,0,100,1,0
245520,-5.31914893617021,4,1,0,100,0,0
245521,112.637559808612,4,1,0,100,1,0
245521,-5.3276505061268,4,1,0,100,0,0
245522,112.487559808612,4,1,0,100,1,0
245522,-5.33333333333333,4,1,0,100,0,0
245523,112.337559808612,4,1,0,100,1,0
245523,-5.34188034188034,4,1,0,100,0,0
245524,112.187559808612,4,1,0,100,1,0
245524,-5.3475935828877,4,1,0,100,0,0
245525,112.037559808612,4,1,0,100,1,0
245525,-5.35618639528656,4,1,0,100,0,0
245526,111.887559808612,4,1,0,100,1,0
245526,-5.36193029490617,4,1,0,100,0,0
245527,111.737559808612,4,1,0,100,1,0
245527,-5.37056928034372,4,1,0,100,0,0
245528,111.587559808612,4,1,0,100,1,0
245528,-5.37634408602151,4,1,0,100,0,0
245529,111.437559808612,4,1,0,100,1,0
245529,-5.3850296176629,4,1,0,100,0,0
245530,111.287559808612,4,1,0,100,1,0
245530,-5.39083557951482,4,1,0,100,0,0
245531,111.137559808612,4,1,0,100,1,0
245531,-5.39956803455724,4,1,0,100,0,0
245532,110.987559808612,4,1,0,100,1,0
245532,-5.40540540540541,4,1,0,100,0,0
245533,110.837559808612,4,1,0,100,1,0
245533,-5.41418516513265,4,1,0,100,0,0
245534,110.687559808612,4,1,0,100,1,0
245534,-5.42005420054201,4,1,0,100,0,0
245535,110.537559808612,4,1,0,100,1,0
245535,-5.42888165038002,4,1,0,100,0,0
245536,110.387559808612,4,1,0,100,1,0
245536,-5.43478260869565,4,1,0,100,0,0
245537,110.237559808612,4,1,0,100,1,0
245537,-5.44365813826892,4,1,0,100,0,0
245538,110.087559808612,4,1,0,100,1,0
245538,-5.44959128065395,4,1,0,100,0,0
245539,109.937559808612,4,1,0,100,1,0
245539,-5.45851528384279,4,1,0,100,0,0
245541,272.727272727273,4,1,1,100,1,8
245658,-76.9230769230769,4,1,1,100,0,9
247450,272.727272727273,4,1,1,100,1,9
247450,-76.9230769230769,4,1,1,100,0,1
247451,-1E-15,4,1,1,100,0,1
247723,272.727272727273,4,1,1,100,1,9
247723,-76.9230769230769,4,1,1,100,0,1
254268,272.727272727273,4,1,1,100,1,9
254268,-76.9230769230769,4,1,1,100,0,1
254269,-1E-15,4,1,1,100,0,1
254541,272.727272727273,4,1,1,100,1,9
254541,-76.9230769230769,4,1,1,100,0,1
256177,272.727272727273,4,1,1,100,1,9
256177,-76.9230769230769,4,1,1,100,0,1
256178,-1E-15,4,1,1,100,0,1
256450,272.727272727273,4,1,1,100,1,9
256450,-76.9230769230769,4,1,1,100,0,1
257813,272.727272727273,4,1,1,100,1,9
257813,-58.8235294117647,4,1,1,100,0,1
257814,0.860881542699725,4,1,0,100,1,0
257814,-100000000000,4,1,0,100,0,0
257881,272.727272727273,4,1,1,100,1,9
257881,-62.5,4,1,1,100,0,1
257882,0.860881542699725,4,1,0,100,1,0
257882,-100000000000,4,1,0,100,0,0
257950,272.727272727273,4,1,1,100,1,9
257950,-66.6666666666667,4,1,1,100,0,1
257951,0.860881542699725,4,1,0,100,1,0
257951,-100000000000,4,1,0,100,0,0
258018,272.727272727273,4,1,1,100,1,9
258018,-71.4285714285714,4,1,1,100,0,1
258019,0.860881542699725,4,1,0,100,1,0
258019,-100000000000,4,1,0,100,0,0
258086,272.727272727273,4,1,1,100,1,9
258086,-76.9230769230769,4,1,1,100,0,1
258087,0.860881542699725,4,1,0,100,1,0
258087,-100000000000,4,1,0,100,0,0
258222,272.727272727273,4,1,1,100,1,9
258222,-83.3333333333333,4,1,1,100,0,1
258223,0.13085808005025,4,1,1,100,1,8
258223,-1000000000000,4,1,1,100,0,8
258427,272.727272727273,4,1,1,100,1,9
258427,-90.9090909090909,4,1,1,100,0,1
258428,0.13085808005025,4,1,1,100,1,8
258428,-1000000000000,4,1,1,100,0,8
258631,272.727272727273,4,1,1,100,1,9
258631,-83.3333333333333,4,1,1,100,0,1
258768,-76.9230769230769,4,1,1,100,0,1
258904,-71.4285714285714,4,1,1,100,0,1
258972,-66.6666666666667,4,1,1,100,0,1
259040,-62.5,4,1,1,100,0,1
259109,-58.8235294117647,4,1,1,100,0,1
259177,-55.5555555555556,4,1,1,100,0,1
259313,-76.9230769230769,4,1,1,100,0,1
259450,-71.4285714285714,4,1,1,100,0,1
259518,-66.6666666666667,4,1,1,100,0,1
259586,-62.5,4,1,1,100,0,1
259655,-58.8235294117647,4,1,1,100,0,1
259723,-55.5555555555556,4,1,1,100,0,1
259859,-76.9230769230769,4,1,1,100,0,1
259995,-71.4285714285714,4,1,1,100,0,1
260063,-66.6666666666667,4,1,1,100,0,1
260131,-62.5,4,1,1,100,0,1
260200,-58.8235294117647,4,1,1,100,0,1
260268,-55.5555555555556,4,1,1,100,0,1
260404,-76.9230769230769,4,1,1,100,0,1
260540,-71.4285714285714,4,1,1,100,0,1
260608,-66.6666666666667,4,1,1,100,0,1
260676,-62.5,4,1,1,100,0,1
260745,-58.8235294117647,4,1,1,100,0,1
260813,-55.5555555555556,4,1,1,100,0,1
260881,-54.9450549450549,4,1,1,100,0,1
260950,-54.3478260869565,4,1,1,100,0,1
261018,-53.763440860215,4,1,1,100,0,1
261086,-53.1914893617021,4,1,1,100,0,1
261154,-52.6315789473684,4,1,1,100,0,1
261222,-52.0833333333333,4,1,1,100,0,1
261290,-51.5463917525773,4,1,1,100,0,1
261359,-51.0204081632653,4,1,1,100,0,1
261427,-50.5050505050505,4,1,1,100,0,1
261495,-50,4,1,1,100,0,1
261563,-49.5049504950495,4,1,1,100,0,1
261631,-49.0196078431373,4,1,1,100,0,1
261700,-48.5436893203883,4,1,1,100,0,1
261768,-48.0769230769231,4,1,1,100,0,1
261836,-47.6190476190476,4,1,1,100,0,1
261904,-47.1698113207547,4,1,1,100,0,1
261972,-46.7289719626168,4,1,1,100,0,1
262040,-49.0196078431373,4,1,1,100,0,1
262109,-51.5463917525773,4,1,1,100,0,1
262177,-54.3478260869565,4,1,1,100,0,1
262245,-57.4712643678161,4,1,1,100,0,1
262313,-60.9756097560976,4,1,1,100,0,1
262381,-64.9350649350649,4,1,1,100,0,1
262450,-69.4444444444444,4,1,1,100,0,1
262451,60,4,1,1,100,1,8
262586,272.727272727273,4,1,1,100,1,8
262586,-74.6268656716418,4,1,1,100,0,1
262587,60,4,1,1,100,1,8
262722,272.727272727273,4,1,1,100,1,8
262722,-80.6451612903226,4,1,1,100,0,1
262723,1.80001800018,4,1,1,100,1,8
262723,-1000000000000,4,1,1,100,0,8
262858,2.70002700027,4,1,1,100,1,8
262858,-1000000000000,4,1,1,100,0,8
262995,272.727272727273,4,1,1,100,1,8
262995,-81.9672131147541,4,1,1,100,0,1
263404,-83.3333333333333,4,1,1,100,0,1
263540,-84.7457627118644,4,1,1,100,0,1
263813,-86.2068965517241,4,1,1,100,0,1
264359,-87.719298245614,4,1,1,100,0,1
264427,-89.2857142857143,4,1,1,100,0,1
264495,-90.9090909090909,4,1,1,100,0,1
264631,-92.5925925925926,4,1,1,100,0,1
264768,-94.3396226415094,4,1,1,100,0,1
265177,-96.1538461538461,4,1,1,100,0,1
265586,-98.0392156862745,4,1,1,100,0,1
265722,-100,4,1,1,100,0,1
265995,-102.040816326531,4,1,1,100,0,1
266268,-76.9230769230769,4,1,1,100,0,1
266313,-71.4285714285714,4,1,1,100,0,1
266359,-66.6666666666667,4,1,1,100,0,1
266404,-62.5,4,1,1,100,0,1
266450,-58.8235294117647,4,1,1,100,0,1
266495,-55.5555555555556,4,1,1,100,0,1
266540,-52.6315789473684,4,1,1,100,0,1
267495,-76.9230769230769,4,1,1,100,0,1
269540,-76.9230769230769,4,1,1,100,0,1
269541,-25,4,1,1,100,0,1
269542,-76.9230769230769,4,1,1,100,0,1
269677,-76.9230769230769,4,1,1,100,0,1
269678,-25,4,1,1,100,0,1
269679,-76.9230769230769,4,1,1,100,0,1
269813,-76.9230769230769,4,1,1,100,0,1
269814,-25,4,1,1,100,0,1
269815,-76.9230769230769,4,1,1,100,0,1
269950,-76.9230769230769,4,1,1,100,0,1
269951,-25,4,1,1,100,0,1
269952,-76.9230769230769,4,1,1,100,0,1
270018,-76.9230769230769,4,1,1,100,0,1
270019,-25,4,1,1,100,0,1
270020,-76.9230769230769,4,1,1,100,0,1
270086,-76.9230769230769,4,1,1,100,0,1
270087,-25,4,1,1,100,0,1
270088,-76.9230769230769,4,1,1,100,0,1
270154,-25,4,1,1,100,0,1
270155,-76.9230769230769,4,1,1,100,0,1
270222,-76.9230769230769,4,1,1,100,0,1
270223,-25,4,1,1,100,0,1
270224,-76.9230769230769,4,1,1,100,0,1
270290,-25,4,1,1,100,0,1
270291,-76.9230769230769,4,1,1,100,0,1
270359,-76.9230769230769,4,1,1,100,0,1
270360,-25,4,1,1,100,0,1
270361,-76.9230769230769,4,1,1,100,0,1
270495,-76.9230769230769,4,1,1,100,0,1
270496,-25,4,1,1,100,0,1
270497,-76.9230769230769,4,1,1,100,0,1
270631,-76.9230769230769,4,1,1,100,0,1
270632,-25,4,1,1,100,0,1
270633,-76.9230769230769,4,1,1,100,0,1
270768,-76.9230769230769,4,1,1,100,0,1
270769,-25,4,1,1,100,0,1
270770,-76.9230769230769,4,1,1,100,0,1
270904,-76.9230769230769,4,1,1,100,0,1
270905,-25,4,1,1,100,0,1
270906,-76.9230769230769,4,1,1,100,0,1
270972,-76.9230769230769,4,1,1,100,0,1
270973,-25,4,1,1,100,0,1
270974,-76.9230769230769,4,1,1,100,0,1
271040,-76.9230769230769,4,1,1,100,0,1
271041,-25,4,1,1,100,0,1
271042,-76.9230769230769,4,1,1,100,0,1
271177,-76.9230769230769,4,1,1,100,0,1
271178,-25,4,1,1,100,0,1
271179,-76.9230769230769,4,1,1,100,0,1
271211,-25,4,1,1,100,0,1
271212,-76.9230769230769,4,1,1,100,0,1
271245,-25,4,1,1,100,0,1
271246,-76.9230769230769,4,1,1,100,0,1
271279,-25,4,1,1,100,0,1
271280,-76.9230769230769,4,1,1,100,0,1
271313,-76.9230769230769,4,1,1,100,0,1
271314,-25,4,1,1,100,0,1
271315,-76.9230769230769,4,1,1,100,0,1
271347,-25,4,1,1,100,0,1
271348,-76.9230769230769,4,1,1,100,0,1
271381,-25,4,1,1,100,0,1
271382,-76.9230769230769,4,1,1,100,0,1
271415,-25,4,1,1,100,0,1
271416,-76.9230769230769,4,1,1,100,0,1
271450,-76.9230769230769,4,1,1,100,0,1
271451,-25,4,1,1,100,0,1
271452,-76.9230769230769,4,1,1,100,0,1
271484,-25,4,1,1,100,0,1
271485,-76.9230769230769,4,1,1,100,0,1
271518,-76.9230769230769,4,1,1,100,0,1
271519,-25,4,1,1,100,0,1
271520,-76.9230769230769,4,1,1,100,0,1
271552,-25,4,1,1,100,0,1
271553,-76.9230769230769,4,1,1,100,0,1
271586,-76.9230769230769,4,1,1,100,0,1
271587,-25,4,1,1,100,0,1
271588,-76.9230769230769,4,1,1,100,0,1
271620,-25,4,1,1,100,0,1
271621,-76.9230769230769,4,1,1,100,0,1
271654,-76.9230769230769,4,1,1,100,0,1
271655,-25,4,1,1,100,0,1
271656,-76.9230769230769,4,1,1,100,0,1
271688,-25,4,1,1,100,0,1
271689,-76.9230769230769,4,1,1,100,0,1
271723,0.860881542699725,4,1,0,100,1,0
271723,-100000000000,4,1,0,100,0,0
271995,0.279262003611789,4,1,0,100,1,0
271995,-1000000000000,4,1,0,100,0,0
272267,0.13085808005025,4,1,0,100,1,0
272267,-1000000000000,4,1,0,100,0,0
272400,272.727272727273,4,1,1,100,1,9
272540,272.727272727273,4,1,1,100,1,9
272540,-76.9230769230769,4,1,1,100,0,1
272677,272.727272727273,4,1,1,100,1,9
272677,-78.125,4,1,1,100,0,1
273086,-79.3650793650794,4,1,1,100,0,1
273154,-80.6451612903226,4,1,1,100,0,1
273222,-81.9672131147541,4,1,1,100,0,1
273359,-83.3333333333333,4,1,1,100,0,1
273495,-84.7457627118644,4,1,1,100,0,1
273904,-86.2068965517241,4,1,1,100,0,1
274313,-87.719298245614,4,1,1,100,0,1
274450,-89.2857142857143,4,1,1,100,0,1
274722,-90.9090909090909,4,1,1,100,0,1
274995,272.727272727273,4,1,1,100,1,9
274995,-76.9230769230769,4,1,1,100,0,1
274996,0.600006000060001,4,1,0,100,1,0
274996,-100000000000,4,1,0,100,0,0
275040,272.727272727273,4,1,1,100,1,9
275040,-71.4285714285714,4,1,1,100,0,1
275041,0.600006000060001,4,1,0,100,1,0
275041,-100000000000,4,1,0,100,0,0
275086,272.727272727273,4,1,1,100,1,9
275086,-66.6666666666667,4,1,1,100,0,1
275087,0.600006000060001,4,1,0,100,1,0
275087,-100000000000,4,1,0,100,0,0
275131,272.727272727273,4,1,1,100,1,9
275131,-62.5,4,1,1,100,0,1
275132,0.600006000060001,4,1,0,100,1,0
275132,-100000000000,4,1,0,100,0,0
275177,272.727272727273,4,1,1,100,1,9
275177,-58.8235294117647,4,1,1,100,0,1
275178,0.600006000060001,4,1,0,100,1,0
275178,-100000000000,4,1,0,100,0,0
275222,272.727272727273,4,1,1,100,1,9
275222,-55.5555555555556,4,1,1,100,0,1
275223,0.600006000060001,4,1,0,100,1,0
275223,-100000000000,4,1,0,100,0,0
275268,272.727272727273,4,1,1,100,1,9
275268,-52.6315789473684,4,1,1,100,0,1
275269,0.860881542699725,4,1,0,100,1,0
275269,-100000000000,4,1,0,100,0,0
275336,272.727272727273,4,1,1,100,1,9
275336,-52.6315789473684,4,1,1,100,0,1
275337,0.860881542699725,4,1,0,100,1,0
275337,-100000000000,4,1,0,100,0,0
275404,272.727272727273,4,1,1,100,1,9
275404,-52.6315789473684,4,1,1,100,0,1
275405,0.860881542699725,4,1,0,100,1,0
275405,-100000000000,4,1,0,100,0,0
275472,272.727272727273,4,1,1,100,1,9
275472,-52.6315789473684,4,1,1,100,0,1
275473,0.860881542699725,4,1,0,100,1,0
275473,-100000000000,4,1,0,100,0,0
275540,272.727272727273,4,1,1,100,1,9
275540,-52.6315789473684,4,1,1,100,0,1
275541,0.860881542699725,4,1,0,100,1,0
275541,-100000000000,4,1,0,100,0,0
275609,272.727272727273,4,1,1,100,1,9
275609,-52.6315789473684,4,1,1,100,0,1
275610,0.860881542699725,4,1,0,100,1,0
275610,-100000000000,4,1,0,100,0,0
275677,272.727272727273,4,1,1,100,1,9
275677,-52.6315789473684,4,1,1,100,0,1
275678,0.860881542699725,4,1,0,100,1,0
275678,-100000000000,4,1,0,100,0,0
275745,272.727272727273,4,1,1,100,1,9
275745,-52.6315789473684,4,1,1,100,0,9
275746,0.860881542699725,4,1,0,100,1,0
275746,-100000000000,4,1,0,100,0,0
275813,272.727272727273,4,1,1,100,1,9
275813,-52.6315789473684,4,1,1,100,0,9
275814,191.387559808612,4,1,0,100,1,0
275814,-3.13479623824451,4,1,0,100,0,0
275815,191.237559808612,4,1,0,100,1,0
275815,-3.13774709758393,4,1,0,100,0,0
275816,191.087559808612,4,1,0,100,1,0
275816,-3.13971742543171,4,1,0,100,0,0
275817,190.937559808612,4,1,0,100,1,0
275817,-3.14267756128221,4,1,0,100,0,0
275818,190.787559808612,4,1,0,100,1,0
275818,-3.14465408805031,4,1,0,100,0,0
275819,190.637559808612,4,1,0,100,1,0
275819,-3.14762354422411,4,1,0,100,0,0
275820,190.487559808612,4,1,0,100,1,0
275820,-3.1496062992126,4,1,0,100,0,0
275821,190.337559808612,4,1,0,100,1,0
275821,-3.15258511979823,4,1,0,100,0,0
275822,190.187559808612,4,1,0,100,1,0
275822,-3.15457413249211,4,1,0,100,0,0
275823,190.037559808612,4,1,0,100,1,0
275823,-3.15756236185665,4,1,0,100,0,0
275824,189.887559808612,4,1,0,100,1,0
275824,-3.15955766192733,4,1,0,100,0,0
275825,189.737559808612,4,1,0,100,1,0
275825,-3.16255534471853,4,1,0,100,0,0
275826,189.587559808612,4,1,0,100,1,0
275826,-3.16455696202532,4,1,0,100,0,0
275827,189.437559808612,4,1,0,100,1,0
275827,-3.1675641431739,4,1,0,100,0,0
275828,189.287559808612,4,1,0,100,1,0
275828,-3.16957210776545,4,1,0,100,0,0
275829,189.137559808612,4,1,0,100,1,0
275829,-3.17258883248731,4,1,0,100,0,0
275830,188.987559808612,4,1,0,100,1,0
275830,-3.17460317460317,4,1,0,100,0,0
275831,188.837559808612,4,1,0,100,1,0
275831,-3.17762948840165,4,1,0,100,0,0
275832,188.687559808612,4,1,0,100,1,0
275832,-3.17965023847377,4,1,0,100,0,0
275833,188.537559808612,4,1,0,100,1,0
275833,-3.18268618714195,4,1,0,100,0,0
275834,188.387559808612,4,1,0,100,1,0
275834,-3.18471337579618,4,1,0,100,0,0
275835,188.237559808612,4,1,0,100,1,0
275835,-3.18775900541919,4,1,0,100,0,0
275836,188.087559808612,4,1,0,100,1,0
275836,-3.18979266347687,4,1,0,100,0,0
275837,187.937559808612,4,1,0,100,1,0
275837,-3.19284802043423,4,1,0,100,0,0
275838,187.787559808612,4,1,0,100,1,0
275838,-3.19488817891374,4,1,0,100,0,0
275839,187.637559808612,4,1,0,100,1,0
275839,-3.19795330988168,4,1,0,100,0,0
275840,187.487559808612,4,1,0,100,1,0
275840,-3.2,4,1,0,100,0,0
275841,187.337559808612,4,1,0,100,1,0
275841,-3.20307495195388,4,1,0,100,0,0
275842,187.187559808612,4,1,0,100,1,0
275842,-3.20512820512821,4,1,0,100,0,0
275843,187.037559808612,4,1,0,100,1,0
275843,-3.20821302534488,4,1,0,100,0,0
275844,186.887559808612,4,1,0,100,1,0
275844,-3.21027287319422,4,1,0,100,0,0
275845,186.737559808612,4,1,0,100,1,0
275845,-3.2133676092545,4,1,0,100,0,0
275846,186.587559808612,4,1,0,100,1,0
275846,-3.21543408360129,4,1,0,100,0,0
275847,186.437559808612,4,1,0,100,1,0
275847,-3.21853878339234,4,1,0,100,0,0
275848,186.287559808612,4,1,0,100,1,0
275848,-3.22061191626409,4,1,0,100,0,0
275849,186.137559808612,4,1,0,100,1,0
275849,-3.22372662798195,4,1,0,100,0,0
275850,185.987559808612,4,1,0,100,1,0
275850,-3.2258064516129,4,1,0,100,0,0
275851,185.837559808612,4,1,0,100,1,0
275851,-3.22893122376493,4,1,0,100,0,0
275852,185.687559808612,4,1,0,100,1,0
275852,-3.23101777059774,4,1,0,100,0,0
275853,185.537559808612,4,1,0,100,1,0
275853,-3.23415265200517,4,1,0,100,0,0
275854,185.387559808612,4,1,0,100,1,0
275854,-3.23624595469256,4,1,0,100,0,0
275855,185.237559808612,4,1,0,100,1,0
275855,-3.23939099449304,4,1,0,100,0,0
275856,185.087559808612,4,1,0,100,1,0
275856,-3.24149108589951,4,1,0,100,0,0
275857,184.937559808612,4,1,0,100,1,0
275857,-3.24464633354964,4,1,0,100,0,0
275858,184.787559808612,4,1,0,100,1,0
275858,-3.24675324675325,4,1,0,100,0,0
275859,184.637559808612,4,1,0,100,1,0
275859,-3.2499187520312,4,1,0,100,0,0
275860,184.487559808612,4,1,0,100,1,0
275860,-3.2520325203252,4,1,0,100,0,0
275861,184.337559808612,4,1,0,100,1,0
275861,-3.25520833333333,4,1,0,100,0,0
275862,184.187559808612,4,1,0,100,1,0
275862,-3.25732899022801,4,1,0,100,0,0
275863,184.037559808612,4,1,0,100,1,0
275863,-3.2605151613955,4,1,0,100,0,0
275864,183.887559808612,4,1,0,100,1,0
275864,-3.2626427406199,4,1,0,100,0,0
275865,183.737559808612,4,1,0,100,1,0
275865,-3.26583932070542,4,1,0,100,0,0
275866,183.587559808612,4,1,0,100,1,0
275866,-3.26797385620915,4,1,0,100,0,0
275867,183.437559808612,4,1,0,100,1,0
275867,-3.27118089630357,4,1,0,100,0,0
275868,183.287559808612,4,1,0,100,1,0
275868,-3.27332242225859,4,1,0,100,0,0
275869,183.137559808612,4,1,0,100,1,0
275869,-3.27653997378768,4,1,0,100,0,0
275870,182.987559808612,4,1,0,100,1,0
275870,-3.27868852459016,4,1,0,100,0,0
275871,182.837559808612,4,1,0,100,1,0
275871,-3.28191663931736,4,1,0,100,0,0
275872,182.687559808612,4,1,0,100,1,0
275872,-3.28407224958949,4,1,0,100,0,0
275873,182.537559808612,4,1,0,100,1,0
275873,-3.28731097961867,4,1,0,100,0,0
275874,182.387559808612,4,1,0,100,1,0
275874,-3.28947368421053,4,1,0,100,0,0
275875,182.237559808612,4,1,0,100,1,0
275875,-3.2927230819888,4,1,0,100,0,0
275876,182.087559808612,4,1,0,100,1,0
275876,-3.29489291598023,4,1,0,100,0,0
275877,181.937559808612,4,1,0,100,1,0
275877,-3.29815303430079,4,1,0,100,0,0
275878,181.787559808612,4,1,0,100,1,0
275878,-3.3003300330033,4,1,0,100,0,0
275879,181.637559808612,4,1,0,100,1,0
275879,-3.30360092500826,4,1,0,100,0,0
275880,181.487559808612,4,1,0,100,1,0
275880,-3.30578512396694,4,1,0,100,0,0
275881,181.337559808612,4,1,0,100,1,0
275881,-3.30906684315023,4,1,0,100,0,0
275882,181.187559808612,4,1,0,100,1,0
275882,-3.3112582781457,4,1,0,100,0,0
275883,181.037559808612,4,1,0,100,1,0
275883,-3.31455087835598,4,1,0,100,0,0
275884,180.887559808612,4,1,0,100,1,0
275884,-3.3167495854063,4,1,0,100,0,0
275885,180.737559808612,4,1,0,100,1,0
275885,-3.32005312084993,4,1,0,100,0,0
275886,180.587559808612,4,1,0,100,1,0
275886,-3.32225913621262,4,1,0,100,0,0
275887,180.437559808612,4,1,0,100,1,0
275887,-3.3255736614566,4,1,0,100,0,0
275888,180.287559808612,4,1,0,100,1,0
275888,-3.32778702163062,4,1,0,100,0,0
275889,180.137559808612,4,1,0,100,1,0
275889,-3.3311125916056,4,1,0,100,0,0
275890,179.987559808612,4,1,0,100,1,0
275890,-3.33333333333333,4,1,0,100,0,0
275891,179.837559808612,4,1,0,100,1,0
275891,-3.33667000333667,4,1,0,100,0,0
275892,179.687559808612,4,1,0,100,1,0
275892,-3.33889816360601,4,1,0,100,0,0
275893,179.537559808612,4,1,0,100,1,0
275893,-3.34224598930481,4,1,0,100,0,0
275894,179.387559808612,4,1,0,100,1,0
275894,-3.34448160535117,4,1,0,100,0,0
275895,179.237559808612,4,1,0,100,1,0
275895,-3.3478406427854,4,1,0,100,0,0
275896,179.087559808612,4,1,0,100,1,0
275896,-3.3500837520938,4,1,0,100,0,0
275897,178.937559808612,4,1,0,100,1,0
275897,-3.35345405767941,4,1,0,100,0,0
275898,178.787559808612,4,1,0,100,1,0
275898,-3.35570469798658,4,1,0,100,0,0
275899,178.637559808612,4,1,0,100,1,0
275899,-3.35908632851864,4,1,0,100,0,0
275900,178.487559808612,4,1,0,100,1,0
275900,-3.36134453781513,4,1,0,100,0,0
275901,178.337559808612,4,1,0,100,1,0
275901,-3.36473755047106,4,1,0,100,0,0
275902,178.187559808612,4,1,0,100,1,0
275902,-3.36700336700337,4,1,0,100,0,0
275903,178.037559808612,4,1,0,100,1,0
275903,-3.37040781934614,4,1,0,100,0,0
275904,177.887559808612,4,1,0,100,1,0
275904,-3.37268128161889,4,1,0,100,0,0
275905,177.737559808612,4,1,0,100,1,0
275905,-3.37609723160027,4,1,0,100,0,0
275906,177.587559808612,4,1,0,100,1,0
275906,-3.37837837837838,4,1,0,100,0,0
275907,177.437559808612,4,1,0,100,1,0
275907,-3.38180588434224,4,1,0,100,0,0
275908,177.287559808612,4,1,0,100,1,0
275908,-3.38409475465313,4,1,0,100,0,0
275909,177.137559808612,4,1,0,100,1,0
275909,-3.38753387533875,4,1,0,100,0,0
275910,176.987559808612,4,1,0,100,1,0
275910,-3.38983050847458,4,1,0,100,0,0
275911,176.837559808612,4,1,0,100,1,0
275911,-3.39328130302002,4,1,0,100,0,0
275912,176.687559808612,4,1,0,100,1,0
275912,-3.3955857385399,4,1,0,100,0,0
275913,176.537559808612,4,1,0,100,1,0
275913,-3.39904826648538,4,1,0,100,0,0
275914,176.387559808612,4,1,0,100,1,0
275914,-3.40136054421769,4,1,0,100,0,0
275915,176.237559808612,4,1,0,100,1,0
275915,-3.40483486550902,4,1,0,100,0,0
275916,176.087559808612,4,1,0,100,1,0
275916,-3.40715502555366,4,1,0,100,0,0
275917,175.937559808612,4,1,0,100,1,0
275917,-3.4106412005457,4,1,0,100,0,0
275918,175.787559808612,4,1,0,100,1,0
275918,-3.41296928327645,4,1,0,100,0,0
275919,175.637559808612,4,1,0,100,1,0
275919,-3.41646737273659,4,1,0,100,0,0
275920,175.487559808612,4,1,0,100,1,0
275920,-3.41880341880342,4,1,0,100,0,0
275921,175.337559808612,4,1,0,100,1,0
275921,-3.42231348391513,4,1,0,100,0,0
275922,175.187559808612,4,1,0,100,1,0
275922,-3.42465753424658,4,1,0,100,0,0
275923,175.037559808612,4,1,0,100,1,0
275923,-3.42817963661296,4,1,0,100,0,0
275924,174.887559808612,4,1,0,100,1,0
275924,-3.43053173241853,4,1,0,100,0,0
275925,174.737559808612,4,1,0,100,1,0
275925,-3.43406593406593,4,1,0,100,0,0
275926,174.587559808612,4,1,0,100,1,0
275926,-3.43642611683849,4,1,0,100,0,0
275927,174.437559808612,4,1,0,100,1,0
275927,-3.43997248022016,4,1,0,100,0,0
275928,174.287559808612,4,1,0,100,1,0
275928,-3.44234079173838,4,1,0,100,0,0
275929,174.137559808612,4,1,0,100,1,0
275929,-3.44589937973811,4,1,0,100,0,0
275930,173.987559808612,4,1,0,100,1,0
275930,-3.44827586206897,4,1,0,100,0,0
275931,173.837559808612,4,1,0,100,1,0
275931,-3.45184673800483,4,1,0,100,0,0
275932,173.687559808612,4,1,0,100,1,0
275932,-3.45423143350604,4,1,0,100,0,0
275933,173.537559808612,4,1,0,100,1,0
275933,-3.45781466113416,4,1,0,100,0,0
275934,173.387559808612,4,1,0,100,1,0
275934,-3.46020761245675,4,1,0,100,0,0
275935,173.237559808612,4,1,0,100,1,0
275935,-3.46380325597506,4,1,0,100,0,0
275936,173.087559808612,4,1,0,100,1,0
275936,-3.46620450606586,4,1,0,100,0,0
275937,172.937559808612,4,1,0,100,1,0
275937,-3.46981263011797,4,1,0,100,0,0
275938,172.787559808612,4,1,0,100,1,0
275938,-3.47222222222222,4,1,0,100,0,0
275939,172.637559808612,4,1,0,100,1,0
275939,-3.47584289190129,4,1,0,100,0,0
275940,172.487559808612,4,1,0,100,1,0
275940,-3.47826086956522,4,1,0,100,0,0
275941,172.337559808612,4,1,0,100,1,0
275941,-3.48189415041783,4,1,0,100,0,0
275942,172.187559808612,4,1,0,100,1,0
275942,-3.48432055749129,4,1,0,100,0,0
275943,172.037559808612,4,1,0,100,1,0
275943,-3.48796651552145,4,1,0,100,0,0
275944,171.887559808612,4,1,0,100,1,0
275944,-3.49040139616056,4,1,0,100,0,0
275945,171.737559808612,4,1,0,100,1,0
275945,-3.49406009783368,4,1,0,100,0,0
275946,171.587559808612,4,1,0,100,1,0
275946,-3.4965034965035,4,1,0,100,0,0
275947,171.437559808612,4,1,0,100,1,0
275947,-3.50017500875044,4,1,0,100,0,0
275948,171.287559808612,4,1,0,100,1,0
275948,-3.50262697022767,4,1,0,100,0,0
275949,171.137559808612,4,1,0,100,1,0
275949,-3.50631136044881,4,1,0,100,0,0
275950,170.987559808612,4,1,0,100,1,0
275950,-3.50877192982456,4,1,0,100,0,0
275951,170.837559808612,4,1,0,100,1,0
275951,-3.51246926589392,4,1,0,100,0,0
275952,170.687559808612,4,1,0,100,1,0
275952,-3.51493848857645,4,1,0,100,0,0
275953,170.537559808612,4,1,0,100,1,0
275953,-3.51864883884588,4,1,0,100,0,0
275954,170.387559808612,4,1,0,100,1,0
275954,-3.52112676056338,4,1,0,100,0,0
275955,170.237559808612,4,1,0,100,1,0
275955,-3.52485019386676,4,1,0,100,0,0
275956,170.087559808612,4,1,0,100,1,0
275956,-3.52733686067019,4,1,0,100,0,0
275957,169.937559808612,4,1,0,100,1,0
275957,-3.53107344632768,4,1,0,100,0,0
275958,169.787559808612,4,1,0,100,1,0
275958,-3.53356890459364,4,1,0,100,0,0
275959,169.637559808612,4,1,0,100,1,0
275959,-3.53731871241599,4,1,0,100,0,0
275960,169.487559808612,4,1,0,100,1,0
275960,-3.53982300884956,4,1,0,100,0,0
275961,169.337559808612,4,1,0,100,1,0
275961,-3.54358610914245,4,1,0,100,0,0
275962,169.187559808612,4,1,0,100,1,0
275962,-3.54609929078014,4,1,0,100,0,0
275963,169.037559808612,4,1,0,100,1,0
275963,-3.5498757543486,4,1,0,100,0,0
275964,168.887559808612,4,1,0,100,1,0
275964,-3.55239786856128,4,1,0,100,0,0
275965,168.737559808612,4,1,0,100,1,0
275965,-3.55618776671408,4,1,0,100,0,0
275966,168.587559808612,4,1,0,100,1,0
275966,-3.55871886120996,4,1,0,100,0,0
275967,168.437559808612,4,1,0,100,1,0
275967,-3.56252226576416,4,1,0,100,0,0
275968,168.287559808612,4,1,0,100,1,0
275968,-3.5650623885918,4,1,0,100,0,0
275969,168.137559808612,4,1,0,100,1,0
275969,-3.56887937187723,4,1,0,100,0,0
275970,167.987559808612,4,1,0,100,1,0
275970,-3.57142857142857,4,1,0,100,0,0
275971,167.837559808612,4,1,0,100,1,0
275971,-3.57525920629246,4,1,0,100,0,0
275972,167.687559808612,4,1,0,100,1,0
275972,-3.5778175313059,4,1,0,100,0,0
275973,167.537559808612,4,1,0,100,1,0
275973,-3.58166189111748,4,1,0,100,0,0
275974,167.387559808612,4,1,0,100,1,0
275974,-3.584229390681,4,1,0,100,0,0
275975,167.237559808612,4,1,0,100,1,0
275975,-3.5880875493362,4,1,0,100,0,0
275976,167.087559808612,4,1,0,100,1,0
275976,-3.59066427289048,4,1,0,100,0,0
275977,166.937559808612,4,1,0,100,1,0
275977,-3.59453630481668,4,1,0,100,0,0
275978,166.787559808612,4,1,0,100,1,0
275978,-3.59712230215827,4,1,0,100,0,0
275979,166.637559808612,4,1,0,100,1,0
275979,-3.60100828231905,4,1,0,100,0,0
275980,166.487559808612,4,1,0,100,1,0
275980,-3.6036036036036,4,1,0,100,0,0
275981,166.337559808612,4,1,0,100,1,0
275981,-3.60750360750361,4,1,0,100,0,0
275982,166.187559808612,4,1,0,100,1,0
275982,-3.6101083032491,4,1,0,100,0,0
275983,166.037559808612,4,1,0,100,1,0
275983,-3.61402240693892,4,1,0,100,0,0
275984,165.887559808612,4,1,0,100,1,0
275984,-3.61663652802893,4,1,0,100,0,0
275985,165.737559808612,4,1,0,100,1,0
275985,-3.62056480811007,4,1,0,100,0,0
275986,165.587559808612,4,1,0,100,1,0
275986,-3.6231884057971,4,1,0,100,0,0
275987,165.437559808612,4,1,0,100,1,0
275987,-3.62713093942691,4,1,0,100,0,0
275988,165.287559808612,4,1,0,100,1,0
275988,-3.62976406533575,4,1,0,100,0,0
275989,165.137559808612,4,1,0,100,1,0
275989,-3.63372093023256,4,1,0,100,0,0
275990,164.987559808612,4,1,0,100,1,0
275990,-3.63636363636364,4,1,0,100,0,0
275991,164.837559808612,4,1,0,100,1,0
275991,-3.6403349108118,4,1,0,100,0,0
275992,164.687559808612,4,1,0,100,1,0
275992,-3.64298724954463,4,1,0,100,0,0
275993,164.537559808612,4,1,0,100,1,0
275993,-3.64697301239971,4,1,0,100,0,0
275994,164.387559808612,4,1,0,100,1,0
275994,-3.64963503649635,4,1,0,100,0,0
275995,164.237559808612,4,1,0,100,1,0
275995,-3.65363536719035,4,1,0,100,0,0
275996,164.087559808612,4,1,0,100,1,0
275996,-3.6563071297989,4,1,0,100,0,0
275997,163.937559808612,4,1,0,100,1,0
275997,-3.66032210834553,4,1,0,100,0,0
275998,163.787559808612,4,1,0,100,1,0
275998,-3.66300366300366,4,1,0,100,0,0
275999,163.637559808612,4,1,0,100,1,0
275999,-3.66703337000367,4,1,0,100,0,0
276000,163.487559808612,4,1,0,100,1,0
276000,-3.6697247706422,4,1,0,100,0,0
276001,163.337559808612,4,1,0,100,1,0
276001,-3.67376928728876,4,1,0,100,0,0
276002,163.187559808612,4,1,0,100,1,0
276002,-3.67647058823529,4,1,0,100,0,0
276003,163.037559808612,4,1,0,100,1,0
276003,-3.68052999631947,4,1,0,100,0,0
276004,162.887559808612,4,1,0,100,1,0
276004,-3.68324125230203,4,1,0,100,0,0
276005,162.737559808612,4,1,0,100,1,0
276005,-3.68731563421829,4,1,0,100,0,0
276006,162.587559808612,4,1,0,100,1,0
276006,-3.690036900369,4,1,0,100,0,0
276007,162.437559808612,4,1,0,100,1,0
276007,-3.6941263391208,4,1,0,100,0,0
276008,162.287559808612,4,1,0,100,1,0
276008,-3.69685767097967,4,1,0,100,0,0
276009,162.137559808612,4,1,0,100,1,0
276009,-3.70096225018505,4,1,0,100,0,0
276010,161.987559808612,4,1,0,100,1,0
276010,-3.7037037037037,4,1,0,100,0,0
276011,161.837559808612,4,1,0,100,1,0
276011,-3.70782350760104,4,1,0,100,0,0
276012,161.687559808612,4,1,0,100,1,0
276012,-37.1747211895911,4,1,0,100,0,0
276012,-3.71057513914657,4,1,0,100,0,0
276013,161.537559808612,4,1,0,100,1,0
276013,-3.7147102526003,4,1,0,100,0,0
276014,161.387559808612,4,1,0,100,1,0
276014,-3.71747211895911,4,1,0,100,0,0
276015,161.237559808612,4,1,0,100,1,0
276015,-3.72162262746558,4,1,0,100,0,0
276016,161.087559808612,4,1,0,100,1,0
276016,-3.7243947858473,4,1,0,100,0,0
276017,160.937559808612,4,1,0,100,1,0
276017,-3.72856077554064,4,1,0,100,0,0
276018,160.787559808612,4,1,0,100,1,0
276018,-3.73134328358209,4,1,0,100,0,0
276019,160.637559808612,4,1,0,100,1,0
276019,-3.73552484124019,4,1,0,100,0,0
276020,160.487559808612,4,1,0,100,1,0
276020,-3.73831775700935,4,1,0,100,0,0
276021,160.337559808612,4,1,0,100,1,0
276021,-3.74251497005988,4,1,0,100,0,0
276022,160.187559808612,4,1,0,100,1,0
276022,-3.74531835205993,4,1,0,100,0,0
276023,160.037559808612,4,1,0,100,1,0
276023,-3.74953130858643,4,1,0,100,0,0
276024,159.887559808612,4,1,0,100,1,0
276024,-3.75234521575985,4,1,0,100,0,0
276025,159.737559808612,4,1,0,100,1,0
276025,-3.75657400450789,4,1,0,100,0,0
276026,159.587559808612,4,1,0,100,1,0
276026,-3.7593984962406,4,1,0,100,0,0
276027,159.437559808612,4,1,0,100,1,0
276027,-3.76364320662401,4,1,0,100,0,0
276028,159.287559808612,4,1,0,100,1,0
276028,-3.76647834274953,4,1,0,100,0,0
276029,159.137559808612,4,1,0,100,1,0
276029,-3.77073906485671,4,1,0,100,0,0
276030,158.987559808612,4,1,0,100,1,0
276030,-3.77358490566038,4,1,0,100,0,0
276031,158.837559808612,4,1,0,100,1,0
276031,-3.77786173026067,4,1,0,100,0,0
276032,158.687559808612,4,1,0,100,1,0
276032,-3.78071833648393,4,1,0,100,0,0
276033,158.537559808612,4,1,0,100,1,0
276033,-3.78501135503406,4,1,0,100,0,0
276034,158.387559808612,4,1,0,100,1,0
276034,-3.78787878787879,4,1,0,100,0,0
276035,158.237559808612,4,1,0,100,1,0
276035,-3.79218809252939,4,1,0,100,0,0
276036,158.087559808612,4,1,0,100,1,0
276036,-3.79506641366224,4,1,0,100,0,0
276037,157.937559808612,4,1,0,100,1,0
276037,-3.79939209726444,4,1,0,100,0,0
276038,157.787559808612,4,1,0,100,1,0
276038,-3.80228136882129,4,1,0,100,0,0
276039,157.637559808612,4,1,0,100,1,0
276039,-3.80662352493338,4,1,0,100,0,0
276040,157.487559808612,4,1,0,100,1,0
276040,-3.80952380952381,4,1,0,100,0,0
276041,157.337559808612,4,1,0,100,1,0
276041,-3.813882532418,4,1,0,100,0,0
276042,157.187559808612,4,1,0,100,1,0
276042,-3.81679389312977,4,1,0,100,0,0
276043,157.037559808612,4,1,0,100,1,0
276043,-3.82116927779901,4,1,0,100,0,0
276044,156.887559808612,4,1,0,100,1,0
276044,-3.82409177820268,4,1,0,100,0,0
276045,156.737559808612,4,1,0,100,1,0
276045,-3.82848392036753,4,1,0,100,0,0
276046,156.587559808612,4,1,0,100,1,0
276046,-3.83141762452107,4,1,0,100,0,0
276047,156.437559808612,4,1,0,100,1,0
276047,-3.83582662063675,4,1,0,100,0,0
276048,156.287559808612,4,1,0,100,1,0
276048,-3.83877159309021,4,1,0,100,0,0
276049,156.137559808612,4,1,0,100,1,0
276049,-3.84319754035357,4,1,0,100,0,0
276050,155.987559808612,4,1,0,100,1,0
276050,-3.84615384615385,4,1,0,100,0,0
276051,155.837559808612,4,1,0,100,1,0
276051,-3.85059684251059,4,1,0,100,0,0
276052,155.687559808612,4,1,0,100,1,0
276052,-3.85356454720617,4,1,0,100,0,0
276053,155.537559808612,4,1,0,100,1,0
276053,-3.85802469135802,4,1,0,100,0,0
276054,155.387559808612,4,1,0,100,1,0
276054,-3.86100386100386,4,1,0,100,0,0
276055,155.237559808612,4,1,0,100,1,0
276055,-3.86548125241593,4,1,0,100,0,0
276056,155.087559808612,4,1,0,100,1,0
276056,-3.86847195357834,4,1,0,100,0,0
276057,154.937559808612,4,1,0,100,1,0
276057,-3.87296669248644,4,1,0,100,0,0
276058,154.787559808612,4,1,0,100,1,0
276058,-3.87596899224806,4,1,0,100,0,0
276059,154.637559808612,4,1,0,100,1,0
276059,-3.88048117966628,4,1,0,100,0,0
276060,154.487559808612,4,1,0,100,1,0
276060,-3.88349514563107,4,1,0,100,0,0
276061,154.337559808612,4,1,0,100,1,0
276061,-3.88802488335925,4,1,0,100,0,0
276062,154.187559808612,4,1,0,100,1,0
276062,-3.89105058365759,4,1,0,100,0,0
276063,154.037559808612,4,1,0,100,1,0
276063,-3.89559797428905,4,1,0,100,0,0
276064,153.887559808612,4,1,0,100,1,0
276064,-3.89863547758285,4,1,0,100,0,0
276065,153.737559808612,4,1,0,100,1,0
276065,-3.9032006245121,4,1,0,100,0,0
276066,153.587559808612,4,1,0,100,1,0
276066,-3.90625,4,1,0,100,0,0
276067,153.437559808612,4,1,0,100,1,0
276067,-3.91083300743058,4,1,0,100,0,0
276068,153.287559808612,4,1,0,100,1,0
276068,-3.91389432485323,4,1,0,100,0,0
276069,153.137559808612,4,1,0,100,1,0
276069,-3.91849529780564,4,1,0,100,0,0
276070,152.987559808612,4,1,0,100,1,0
276070,-3.92156862745098,4,1,0,100,0,0
276071,152.837559808612,4,1,0,100,1,0
276071,-3.92618767177071,4,1,0,100,0,0
276072,152.687559808612,4,1,0,100,1,0
276072,-3.92927308447937,4,1,0,100,0,0
276073,152.537559808612,4,1,0,100,1,0
276073,-3.933910306845,4,1,0,100,0,0
276074,152.387559808612,4,1,0,100,1,0
276074,-3.93700787401575,4,1,0,100,0,0
276075,152.237559808612,4,1,0,100,1,0
276075,-3.94166338194718,4,1,0,100,0,0
276076,152.087559808612,4,1,0,100,1,0
276076,-3.94477317554241,4,1,0,100,0,0
276077,151.937559808612,4,1,0,100,1,0
276077,-3.94944707740916,4,1,0,100,0,0
276078,151.787559808612,4,1,0,100,1,0
276078,-3.95256916996047,4,1,0,100,0,0
276079,151.637559808612,4,1,0,100,1,0
276079,-3.95726157499011,4,1,0,100,0,0
276080,151.487559808612,4,1,0,100,1,0
276080,-3.96039603960396,4,1,0,100,0,0
276081,151.337559808612,4,1,0,100,1,0
276081,-3.96510705789056,4,1,0,100,0,0
276082,151.187559808612,4,1,0,100,1,0
276082,-3.96825396825397,4,1,0,100,0,0
276083,151.037559808612,4,1,0,100,1,0
276083,-3.97298371076679,4,1,0,100,0,0
276084,150.887559808612,4,1,0,100,1,0
276084,-3.97614314115308,4,1,0,100,0,0
276085,150.737559808612,4,1,0,100,1,0
276085,-3.98089171974522,4,1,0,100,0,0
276086,272.727272727273,4,1,1,100,1,9
276086,-76.9230769230769,4,1,1,100,0,1
276290,-76.3358778625954,4,1,1,100,0,1
276358,272.727272727273,4,1,1,100,1,8
276359,272.727272727273,4,1,1,100,1,9
276359,-75.187969924812,4,1,1,100,0,1
276359,-75.7575757575758,4,1,1,100,0,1
276495,-74.6268656716418,4,1,1,100,0,1
276699,-74.0740740740741,4,1,1,100,0,1
276768,-73.5294117647059,4,1,1,100,0,1
276904,-72.992700729927,4,1,1,100,0,1
277040,-72.463768115942,4,1,1,100,0,1
277109,-71.9424460431655,4,1,1,100,0,1
277177,-71.4285714285714,4,1,1,100,0,1
277381,-70.9219858156028,4,1,1,100,0,1
277449,-70.4225352112676,4,1,1,100,0,1
277586,-69.9300699300699,4,1,1,100,0,1
277790,-69.4444444444444,4,1,1,100,0,1
277859,-68.9655172413793,4,1,1,100,0,1
277995,-68.4931506849315,4,1,1,100,0,1
278131,-68.0272108843537,4,1,1,100,0,1
278199,-67.5675675675676,4,1,1,100,0,1
278267,272.727272727273,4,1,1,100,1,9
278267,-67.1140939597315,4,1,1,100,0,1
278471,-66.6666666666667,4,1,1,100,0,1
278540,272.727272727273,4,1,1,100,1,9
278540,-66.2251655629139,4,1,1,100,0,1
278676,-65.7894736842105,4,1,1,100,0,1
278812,-65.359477124183,4,1,1,100,0,1
278949,-64.9350649350649,4,1,1,100,0,1
279017,-64.5161290322581,4,1,1,100,0,1
279085,-64.1025641025641,4,1,1,100,0,1
279221,-63.6942675159236,4,1,1,100,0,1
279358,-63.2911392405063,4,1,1,100,0,1
279426,-62.5,4,1,1,100,0,1
279494,-61.7283950617284,4,1,1,100,0,1
279562,-60.9756097560976,4,1,1,100,0,1
279630,-60.2409638554217,4,1,1,100,0,1
279699,-59.5238095238095,4,1,1,100,0,1
279767,-58.8235294117647,4,1,1,100,0,1
279835,-58.1395348837209,4,1,1,100,0,1
279903,272.727272727273,4,1,1,100,1,9
279903,-58.1395348837209,4,1,1,100,0,1
279904,0.860881542699725,4,1,0,100,1,0
279971,272.727272727273,4,1,1,100,1,9
279971,-58.1395348837209,4,1,1,100,0,1
279972,0.860881542699725,4,1,0,100,1,0
280040,272.727272727273,4,1,1,100,1,9
280040,-58.1395348837209,4,1,1,100,0,1
280041,0.860881542699725,4,1,0,100,1,0
280108,272.727272727273,4,1,1,100,1,9
280108,-58.1395348837209,4,1,1,100,0,1
280109,0.860881542699725,4,1,0,100,1,0
280177,272.727272727273,4,1,1,100,1,9
280177,-58.1395348837209,4,1,1,100,0,9
280178,150.287559808612,4,1,0,100,1,0
280178,-3.99201596806387,4,1,0,100,0,0
280179,150.137559808612,4,1,0,100,1,0
280179,-3.99680255795364,4,1,0,100,0,0
280180,149.987559808612,4,1,0,100,1,0
280180,-4,4,1,0,100,0,0
280181,149.837559808612,4,1,0,100,1,0
280181,-4.0048057669203,4,1,0,100,0,0
280182,149.687559808612,4,1,0,100,1,0
280182,-4.00801603206413,4,1,0,100,0,0
280183,149.537559808612,4,1,0,100,1,0
280183,-4.01284109149278,4,1,0,100,0,0
280184,149.387559808612,4,1,0,100,1,0
280184,-4.01606425702811,4,1,0,100,0,0
280185,149.237559808612,4,1,0,100,1,0
280185,-4.02090872537193,4,1,0,100,0,0
280186,149.087559808612,4,1,0,100,1,0
280186,-4.02414486921529,4,1,0,100,0,0
280187,148.937559808612,4,1,0,100,1,0
280187,-4.0290088638195,4,1,0,100,0,0
280188,148.787559808612,4,1,0,100,1,0
280188,-4.03225806451613,4,1,0,100,0,0
280189,148.637559808612,4,1,0,100,1,0
280189,-4.0371417036738,4,1,0,100,0,0
280190,148.487559808612,4,1,0,100,1,0
280190,-4.04040404040404,4,1,0,100,0,0
280191,148.337559808612,4,1,0,100,1,0
280191,-4.0453074433657,4,1,0,100,0,0
280192,148.187559808612,4,1,0,100,1,0
280192,-4.04858299595142,4,1,0,100,0,0
280193,148.037559808612,4,1,0,100,1,0
280193,-4.05350628293474,4,1,0,100,0,0
280194,147.887559808612,4,1,0,100,1,0
280194,-4.05679513184584,4,1,0,100,0,0
280195,147.737559808612,4,1,0,100,1,0
280195,-4.06173842404549,4,1,0,100,0,0
280196,147.587559808612,4,1,0,100,1,0
280196,-4.0650406504065,4,1,0,100,0,0
280197,147.437559808612,4,1,0,100,1,0
280197,-4.07000407000407,4,1,0,100,0,0
280198,147.287559808612,4,1,0,100,1,0
280198,-4.07331975560081,4,1,0,100,0,0
280199,147.137559808612,4,1,0,100,1,0
280199,-4.07830342577488,4,1,0,100,0,0
280200,146.987559808612,4,1,0,100,1,0
280200,-4.08163265306122,4,1,0,100,0,0
280201,146.837559808612,4,1,0,100,1,0
280201,-4.08663669799755,4,1,0,100,0,0
280202,146.687559808612,4,1,0,100,1,0
280202,-4.08997955010225,4,1,0,100,0,0
280203,146.537559808612,4,1,0,100,1,0
280203,-4.09500409500409,4,1,0,100,0,0
280204,146.387559808612,4,1,0,100,1,0
280204,-4.09836065573771,4,1,0,100,0,0
280205,146.237559808612,4,1,0,100,1,0
280205,-4.10340582683627,4,1,0,100,0,0
280206,146.087559808612,4,1,0,100,1,0
280206,-4.10677618069815,4,1,0,100,0,0
280207,145.937559808612,4,1,0,100,1,0
280207,-4.11184210526316,4,1,0,100,0,0
280208,145.787559808612,4,1,0,100,1,0
280208,-4.11522633744856,4,1,0,100,0,0
280209,145.637559808612,4,1,0,100,1,0
280209,-4.12031314379893,4,1,0,100,0,0
280210,145.487559808612,4,1,0,100,1,0
280210,-4.12371134020619,4,1,0,100,0,0
280211,145.337559808612,4,1,0,100,1,0
280211,-4.12881915772089,4,1,0,100,0,0
280212,145.187559808612,4,1,0,100,1,0
280212,-4.13223140495868,4,1,0,100,0,0
280213,145.037559808612,4,1,0,100,1,0
280213,-4.13736036408771,4,1,0,100,0,0
280214,144.887559808612,4,1,0,100,1,0
280214,-4.1407867494824,4,1,0,100,0,0
280215,144.737559808612,4,1,0,100,1,0
280215,-4.14593698175788,4,1,0,100,0,0
280216,144.587559808612,4,1,0,100,1,0
280216,-4.149377593361,4,1,0,100,0,0
280217,144.437559808612,4,1,0,100,1,0
280217,-4.15454923140839,4,1,0,100,0,0
280218,144.287559808612,4,1,0,100,1,0
280218,-4.15800415800416,4,1,0,100,0,0
280219,144.137559808612,4,1,0,100,1,0
280219,-4.16319733555371,4,1,0,100,0,0
280220,143.987559808612,4,1,0,100,1,0
280220,-4.16666666666667,4,1,0,100,0,0
280221,143.837559808612,4,1,0,100,1,0
280221,-4.17188151856487,4,1,0,100,0,0
280222,143.687559808612,4,1,0,100,1,0
280222,-4.17536534446764,4,1,0,100,0,0
280223,143.537559808612,4,1,0,100,1,0
280223,-4.18060200668896,4,1,0,100,0,0
280224,143.387559808612,4,1,0,100,1,0
280224,-4.18410041841004,4,1,0,100,0,0
280225,143.237559808612,4,1,0,100,1,0
280225,-4.18935902806871,4,1,0,100,0,0
280226,143.087559808612,4,1,0,100,1,0
280226,-4.19287211740042,4,1,0,100,0,0
280227,142.937559808612,4,1,0,100,1,0
280227,-4.19815281276238,4,1,0,100,0,0
280228,142.787559808612,4,1,0,100,1,0
280228,-4.20168067226891,4,1,0,100,0,0
280229,142.637559808612,4,1,0,100,1,0
280229,-4.20698359276399,4,1,0,100,0,0
280230,142.487559808612,4,1,0,100,1,0
280230,-4.21052631578947,4,1,0,100,0,0
280231,142.337559808612,4,1,0,100,1,0
280231,-4.21585160202361,4,1,0,100,0,0
280232,142.187559808612,4,1,0,100,1,0
280232,-4.21940928270042,4,1,0,100,0,0
280233,142.037559808612,4,1,0,100,1,0
280233,-4.2247570764681,4,1,0,100,0,0
280234,141.887559808612,4,1,0,100,1,0
280234,-4.22832980972516,4,1,0,100,0,0
280235,141.737559808612,4,1,0,100,1,0
280235,-4.23370025402201,4,1,0,100,0,0
280236,141.587559808612,4,1,0,100,1,0
280236,-4.23728813559322,4,1,0,100,0,0
280237,141.437559808612,4,1,0,100,1,0
280237,-4.24268137462877,4,1,0,100,0,0
280238,141.287559808612,4,1,0,100,1,0
280238,-4.24628450106157,4,1,0,100,0,0
280239,141.137559808612,4,1,0,100,1,0
280239,-4.25170068027211,4,1,0,100,0,0
280240,140.987559808612,4,1,0,100,1,0
280240,-4.25531914893617,4,1,0,100,0,0
280241,140.837559808612,4,1,0,100,1,0
280241,-4.26075841499787,4,1,0,100,0,0
280242,140.687559808612,4,1,0,100,1,0
280242,-4.26439232409382,4,1,0,100,0,0
280243,140.537559808612,4,1,0,100,1,0
280243,-4.26985482493595,4,1,0,100,0,0
280244,140.387559808612,4,1,0,100,1,0
280244,-4.27350427350427,4,1,0,100,0,0
280245,140.237559808612,4,1,0,100,1,0
280245,-4.27899015832264,4,1,0,100,0,0
280246,140.087559808612,4,1,0,100,1,0
280246,-4.28265524625268,4,1,0,100,0,0
280247,139.937559808612,4,1,0,100,1,0
280247,-4.28816466552316,4,1,0,100,0,0
280248,139.787559808612,4,1,0,100,1,0
280248,-4.29184549356223,4,1,0,100,0,0
280249,139.637559808612,4,1,0,100,1,0
280249,-4.29737859905458,4,1,0,100,0,0
280250,139.487559808612,4,1,0,100,1,0
280250,-4.3010752688172,4,1,0,100,0,0
280251,139.337559808612,4,1,0,100,1,0
280251,-4.30663221360896,4,1,0,100,0,0
280252,139.187559808612,4,1,0,100,1,0
280252,-4.31034482758621,4,1,0,100,0,0
280253,139.037559808612,4,1,0,100,1,0
280253,-4.31592576607682,4,1,0,100,0,0
280254,138.887559808612,4,1,0,100,1,0
280254,-4.31965442764579,4,1,0,100,0,0
280255,138.737559808612,4,1,0,100,1,0
280255,-4.32525951557093,4,1,0,100,0,0
280256,138.587559808612,4,1,0,100,1,0
280256,-4.32900432900433,4,1,0,100,0,0
280257,138.437559808612,4,1,0,100,1,0
280257,-4.33463372345037,4,1,0,100,0,0
280258,138.287559808612,4,1,0,100,1,0
280258,-4.33839479392625,4,1,0,100,0,0
280259,138.137559808612,4,1,0,100,1,0
280259,-4.34404865334492,4,1,0,100,0,0
280260,137.987559808612,4,1,0,100,1,0
280260,-4.34782608695652,4,1,0,100,0,0
280261,137.837559808612,4,1,0,100,1,0
280261,-4.3535045711798,4,1,0,100,0,0
280262,137.687559808612,4,1,0,100,1,0
280262,-4.35729847494553,4,1,0,100,0,0
280263,137.537559808612,4,1,0,100,1,0
280263,-4.3630017452007,4,1,0,100,0,0
280264,137.387559808612,4,1,0,100,1,0
280264,-4.36681222707424,4,1,0,100,0,0
280265,137.237559808612,4,1,0,100,1,0
280265,-4.37254044599913,4,1,0,100,0,0
280266,137.087559808612,4,1,0,100,1,0
280266,-4.37636761487965,4,1,0,100,0,0
280267,136.937559808612,4,1,0,100,1,0
280267,-4.38212094653812,4,1,0,100,0,0
280268,136.787559808612,4,1,0,100,1,0
280268,-4.3859649122807,4,1,0,100,0,0
280269,136.637559808612,4,1,0,100,1,0
280269,-4.39174352217831,4,1,0,100,0,0
280270,136.487559808612,4,1,0,100,1,0
280270,-4.3956043956044,4,1,0,100,0,0
280271,136.337559808612,4,1,0,100,1,0
280271,-4.40140845070423,4,1,0,100,0,0
280272,136.187559808612,4,1,0,100,1,0
280272,-4.40528634361234,4,1,0,100,0,0
280273,136.037559808612,4,1,0,100,1,0
280273,-4.41111601235112,4,1,0,100,0,0
280274,135.887559808612,4,1,0,100,1,0
280274,-4.41501103752759,4,1,0,100,0,0
280275,135.737559808612,4,1,0,100,1,0
280275,-4.42086648983201,4,1,0,100,0,0
280276,135.587559808612,4,1,0,100,1,0
280276,-4.42477876106195,4,1,0,100,0,0
280277,135.437559808612,4,1,0,100,1,0
280277,-4.43066016836509,4,1,0,100,0,0
280278,135.287559808612,4,1,0,100,1,0
280278,-4.43458980044346,4,1,0,100,0,0
280279,135.137559808612,4,1,0,100,1,0
280279,-4.4404973357016,4,1,0,100,0,0
280280,134.987559808612,4,1,0,100,1,0
280280,-4.44444444444444,4,1,0,100,0,0
280281,134.837559808612,4,1,0,100,1,0
280281,-4.45037828215398,4,1,0,100,0,0
280282,134.687559808612,4,1,0,100,1,0
280282,-4.4543429844098,4,1,0,100,0,0
280283,134.537559808612,4,1,0,100,1,0
280283,-4.46030330062444,4,1,0,100,0,0
280284,134.387559808612,4,1,0,100,1,0
280284,-4.46428571428571,4,1,0,100,0,0
280285,134.237559808612,4,1,0,100,1,0
280285,-4.47027268663388,4,1,0,100,0,0
280286,134.087559808612,4,1,0,100,1,0
280286,-4.47427293064877,4,1,0,100,0,0
280287,133.937559808612,4,1,0,100,1,0
280287,-4.48028673835125,4,1,0,100,0,0
280288,133.787559808612,4,1,0,100,1,0
280288,-4.48430493273543,4,1,0,100,0,0
280289,133.637559808612,4,1,0,100,1,0
280289,-4.49034575662326,4,1,0,100,0,0
280290,133.487559808612,4,1,0,100,1,0
280290,-4.49438202247191,4,1,0,100,0,0
280291,133.337559808612,4,1,0,100,1,0
280291,-4.5004500450045,4,1,0,100,0,0
280292,133.187559808612,4,1,0,100,1,0
280292,-4.5045045045045,4,1,0,100,0,0
280293,133.037559808612,4,1,0,100,1,0
280293,-4.510599909788,4,1,0,100,0,0
280294,132.887559808612,4,1,0,100,1,0
280294,-4.51467268623025,4,1,0,100,0,0
280295,132.737559808612,4,1,0,100,1,0
280295,-4.52079566003617,4,1,0,100,0,0
280296,132.587559808612,4,1,0,100,1,0
280296,-4.52488687782805,4,1,0,100,0,0
280297,132.437559808612,4,1,0,100,1,0
280297,-4.53103760761214,4,1,0,100,0,0
280298,132.287559808612,4,1,0,100,1,0
280298,-4.53514739229025,4,1,0,100,0,0
280299,132.137559808612,4,1,0,100,1,0
280299,-4.54132606721163,4,1,0,100,0,0
280300,131.987559808612,4,1,0,100,1,0
280300,-4.54545454545455,4,1,0,100,0,0
280301,131.837559808612,4,1,0,100,1,0
280301,-4.55166135639508,4,1,0,100,0,0
280302,131.687559808612,4,1,0,100,1,0
280302,-4.55580865603645,4,1,0,100,0,0
280303,131.537559808612,4,1,0,100,1,0
280303,-4.56204379562044,4,1,0,100,0,0
280304,131.387559808612,4,1,0,100,1,0
280304,-4.5662100456621,4,1,0,100,0,0
280305,131.237559808612,4,1,0,100,1,0
280305,-4.57247370827618,4,1,0,100,0,0
280306,131.087559808612,4,1,0,100,1,0
280306,-4.5766590389016,4,1,0,100,0,0
280307,130.937559808612,4,1,0,100,1,0
280307,-4.58295142071494,4,1,0,100,0,0
280308,130.787559808612,4,1,0,100,1,0
280308,-4.58715596330275,4,1,0,100,0,0
280309,130.637559808612,4,1,0,100,1,0
280309,-4.59347726228755,4,1,0,100,0,0
280310,130.487559808612,4,1,0,100,1,0
280310,-4.59770114942529,4,1,0,100,0,0
280311,130.337559808612,4,1,0,100,1,0
280311,-4.60405156537753,4,1,0,100,0,0
280312,130.187559808612,4,1,0,100,1,0
280312,-4.60829493087558,4,1,0,100,0,0
280313,130.037559808612,4,1,0,100,1,0
280313,-4.61467466543609,4,1,0,100,0,0
280314,129.887559808612,4,1,0,100,1,0
280314,-4.6189376443418,4,1,0,100,0,0
280315,129.737559808612,4,1,0,100,1,0
280315,-4.62534690101758,4,1,0,100,0,0
280316,129.587559808612,4,1,0,100,1,0
280316,-4.62962962962963,4,1,0,100,0,0
280317,129.437559808612,4,1,0,100,1,0
280317,-4.63606861381548,4,1,0,100,0,0
280318,129.287559808612,4,1,0,100,1,0
280318,-4.64037122969838,4,1,0,100,0,0
280319,129.137559808612,4,1,0,100,1,0
280319,-4.64684014869889,4,1,0,100,0,0
280320,128.987559808612,4,1,0,100,1,0
280320,-4.65116279069767,4,1,0,100,0,0
280321,128.837559808612,4,1,0,100,1,0
280321,-4.65766185374942,4,1,0,100,0,0
280322,128.687559808612,4,1,0,100,1,0
280322,-4.66200466200466,4,1,0,100,0,0
280323,128.537559808612,4,1,0,100,1,0
280323,-4.66853408029879,4,1,0,100,0,0
280324,128.387559808612,4,1,0,100,1,0
280324,-4.67289719626168,4,1,0,100,0,0
280325,128.237559808612,4,1,0,100,1,0
280325,-4.67945718296678,4,1,0,100,0,0
280326,128.087559808612,4,1,0,100,1,0
280326,-4.68384074941452,4,1,0,100,0,0
280327,127.937559808612,4,1,0,100,1,0
280327,-4.69043151969981,4,1,0,100,0,0
280328,127.787559808612,4,1,0,100,1,0
280328,-4.69483568075117,4,1,0,100,0,0
280329,127.637559808612,4,1,0,100,1,0
280329,-4.70145745181006,4,1,0,100,0,0
280330,127.487559808612,4,1,0,100,1,0
280330,-4.70588235294118,4,1,0,100,0,0
280331,127.337559808612,4,1,0,100,1,0
280331,-4.71253534401508,4,1,0,100,0,0
280332,127.187559808612,4,1,0,100,1,0
280332,-4.71698113207547,4,1,0,100,0,0
280333,127.037559808612,4,1,0,100,1,0
280333,-4.72366556447803,4,1,0,100,0,0
280334,126.887559808612,4,1,0,100,1,0
280334,-4.72813238770686,4,1,0,100,0,0
280335,126.737559808612,4,1,0,100,1,0
280335,-4.73484848484848,4,1,0,100,0,0
280336,126.587559808612,4,1,0,100,1,0
280336,-4.739336492891,4,1,0,100,0,0
280337,126.437559808612,4,1,0,100,1,0
280337,-4.74608448030375,4,1,0,100,0,0
280338,126.287559808612,4,1,0,100,1,0
280338,-4.75059382422803,4,1,0,100,0,0
280339,126.137559808612,4,1,0,100,1,0
280339,-4.75737392959087,4,1,0,100,0,0
280340,125.987559808612,4,1,0,100,1,0
280340,-4.76190476190476,4,1,0,100,0,0
280341,125.837559808612,4,1,0,100,1,0
280341,-4.76871721506915,4,1,0,100,0,0
280342,125.687559808612,4,1,0,100,1,0
280342,-4.77326968973747,4,1,0,100,0,0
280343,125.537559808612,4,1,0,100,1,0
280343,-4.78011472275335,4,1,0,100,0,0
280344,125.387559808612,4,1,0,100,1,0
280344,-4.78468899521531,4,1,0,100,0,0
280345,125.237559808612,4,1,0,100,1,0
280345,-4.79156684235745,4,1,0,100,0,0
280346,125.087559808612,4,1,0,100,1,0
280346,-4.79616306954436,4,1,0,100,0,0
280347,124.937559808612,4,1,0,100,1,0
280347,-4.8030739673391,4,1,0,100,0,0
280348,124.787559808612,4,1,0,100,1,0
280348,-4.80769230769231,4,1,0,100,0,0
280349,124.637559808612,4,1,0,100,1,0
280349,-4.81463649494463,4,1,0,100,0,0
280350,124.487559808612,4,1,0,100,1,0
280350,-4.81927710843374,4,1,0,100,0,0
280351,124.337559808612,4,1,0,100,1,0
280351,-4.82625482625483,4,1,0,100,0,0
280352,124.187559808612,4,1,0,100,1,0
280352,-4.83091787439614,4,1,0,100,0,0
280353,124.037559808612,4,1,0,100,1,0
280353,-4.83792936623125,4,1,0,100,0,0
280354,123.887559808612,4,1,0,100,1,0
280354,-4.84261501210654,4,1,0,100,0,0
280355,123.737559808612,4,1,0,100,1,0
280355,-4.84966052376334,4,1,0,100,0,0
280356,123.587559808612,4,1,0,100,1,0
280356,-4.85436893203883,4,1,0,100,0,0
280357,123.437559808612,4,1,0,100,1,0
280357,-4.86144871171609,4,1,0,100,0,0
280358,123.287559808612,4,1,0,100,1,0
280358,-4.8661800486618,4,1,0,100,0,0
280359,123.137559808612,4,1,0,100,1,0
280359,-4.87329434697856,4,1,0,100,0,0
280360,122.987559808612,4,1,0,100,1,0
280360,-4.8780487804878,4,1,0,100,0,0
280361,122.837559808612,4,1,0,100,1,0
280361,-4.88519785051295,4,1,0,100,0,0
280362,122.687559808612,4,1,0,100,1,0
280362,-4.88997555012225,4,1,0,100,0,0
280363,122.537559808612,4,1,0,100,1,0
280363,-4.89715964740451,4,1,0,100,0,0
280364,122.387559808612,4,1,0,100,1,0
280364,-4.90196078431373,4,1,0,100,0,0
280365,122.237559808612,4,1,0,100,1,0
280365,-4.90918016691213,4,1,0,100,0,0
280366,122.087559808612,4,1,0,100,1,0
280366,-4.91400491400491,4,1,0,100,0,0
280367,121.937559808612,4,1,0,100,1,0
280367,-4.92125984251969,4,1,0,100,0,0
280368,121.787559808612,4,1,0,100,1,0
280368,-4.92610837438424,4,1,0,100,0,0
280369,121.637559808612,4,1,0,100,1,0
280369,-4.93339911198816,4,1,0,100,0,0
280370,121.487559808612,4,1,0,100,1,0
280370,-4.93827160493827,4,1,0,100,0,0
280371,121.337559808612,4,1,0,100,1,0
280371,-4.94559841740851,4,1,0,100,0,0
280372,121.187559808612,4,1,0,100,1,0
280372,-4.95049504950495,4,1,0,100,0,0
280373,121.037559808612,4,1,0,100,1,0
280373,-4.95785820525533,4,1,0,100,0,0
280374,120.887559808612,4,1,0,100,1,0
280374,-4.96277915632754,4,1,0,100,0,0
280375,120.737559808612,4,1,0,100,1,0
280375,-4.97017892644135,4,1,0,100,0,0
280376,120.587559808612,4,1,0,100,1,0
280376,-4.97512437810945,4,1,0,100,0,0
280377,120.437559808612,4,1,0,100,1,0
280377,-4.9825610363727,4,1,0,100,0,0
280378,120.287559808612,4,1,0,100,1,0
280378,-4.98753117206983,4,1,0,100,0,0
280379,120.137559808612,4,1,0,100,1,0
280379,-4.995004995005,4,1,0,100,0,0
280380,119.987559808612,4,1,0,100,1,0
280380,-5,4,1,0,100,0,0
280381,119.837559808612,4,1,0,100,1,0
280381,-5.00751126690035,4,1,0,100,0,0
280382,119.687559808612,4,1,0,100,1,0
280382,-5.0125313283208,4,1,0,100,0,0
280383,119.537559808612,4,1,0,100,1,0
280383,-5.02008032128514,4,1,0,100,0,0
280384,119.387559808612,4,1,0,100,1,0
280384,-5.0251256281407,4,1,0,100,0,0
280385,119.237559808612,4,1,0,100,1,0
280385,-5.03271263210871,4,1,0,100,0,0
280386,119.087559808612,4,1,0,100,1,0
280386,-5.03778337531486,4,1,0,100,0,0
280387,118.937559808612,4,1,0,100,1,0
280387,-5.04540867810293,4,1,0,100,0,0
280388,118.787559808612,4,1,0,100,1,0
280388,-5.05050505050505,4,1,0,100,0,0
280389,118.637559808612,4,1,0,100,1,0
280389,-5.05816894284269,4,1,0,100,0,0
280390,118.487559808612,4,1,0,100,1,0
280390,-5.06329113924051,4,1,0,100,0,0
280391,118.337559808612,4,1,0,100,1,0
280391,-5.0709939148073,4,1,0,100,0,0
280392,118.187559808612,4,1,0,100,1,0
280392,-5.0761421319797,4,1,0,100,0,0
280393,118.037559808612,4,1,0,100,1,0
280393,-5.08388408744281,4,1,0,100,0,0
280394,117.887559808612,4,1,0,100,1,0
280394,-5.08905852417303,4,1,0,100,0,0
280395,117.737559808612,4,1,0,100,1,0
280395,-5.09683995922528,4,1,0,100,0,0
280396,117.587559808612,4,1,0,100,1,0
280396,-5.10204081632653,4,1,0,100,0,0
280397,117.437559808612,4,1,0,100,1,0
280397,-5.10986203372509,4,1,0,100,0,0
280398,117.287559808612,4,1,0,100,1,0
280398,-5.1150895140665,4,1,0,100,0,0
280399,117.137559808612,4,1,0,100,1,0
280399,-5.12295081967213,4,1,0,100,0,0
280400,116.987559808612,4,1,0,100,1,0
280400,-5.12820512820513,4,1,0,100,0,0
280401,116.837559808612,4,1,0,100,1,0
280401,-5.13610683102209,4,1,0,100,0,0
280402,116.687559808612,4,1,0,100,1,0
280402,-5.1413881748072,4,1,0,100,0,0
280403,116.537559808612,4,1,0,100,1,0
280403,-5.14933058702369,4,1,0,100,0,0
280404,116.387559808612,4,1,0,100,1,0
280404,-5.15463917525773,4,1,0,100,0,0
280405,116.237559808612,4,1,0,100,1,0
280405,-5.16262261228704,4,1,0,100,0,0
280406,116.087559808612,4,1,0,100,1,0
280406,-5.16795865633075,4,1,0,100,0,0
280407,115.937559808612,4,1,0,100,1,0
280407,-5.175983436853,4,1,0,100,0,0
280408,115.787559808612,4,1,0,100,1,0
280408,-5.18134715025907,4,1,0,100,0,0
280409,115.637559808612,4,1,0,100,1,0
280409,-5.18941359626362,4,1,0,100,0,0
280410,115.487559808612,4,1,0,100,1,0
280410,-5.19480519480519,4,1,0,100,0,0
280411,115.337559808612,4,1,0,100,1,0
280411,-5.20291363163371,4,1,0,100,0,0
280412,115.187559808612,4,1,0,100,1,0
280412,-5.20833333333333,4,1,0,100,0,0
280413,115.037559808612,4,1,0,100,1,0
280413,-5.21648408972353,4,1,0,100,0,0
280414,114.887559808612,4,1,0,100,1,0
280414,-5.22193211488251,4,1,0,100,0,0
280415,114.737559808612,4,1,0,100,1,0
280415,-5.23012552301255,4,1,0,100,0,0
280416,114.587559808612,4,1,0,100,1,0
280416,-5.23560209424084,4,1,0,100,0,0
280417,114.437559808612,4,1,0,100,1,0
280417,-5.24383848977451,4,1,0,100,0,0
280418,114.287559808612,4,1,0,100,1,0
280418,-5.249343832021,4,1,0,100,0,0
280419,114.137559808612,4,1,0,100,1,0
280419,-5.25762355415352,4,1,0,100,0,0
280420,113.987559808612,4,1,0,100,1,0
280420,-5.26315789473684,4,1,0,100,0,0
280421,113.837559808612,4,1,0,100,1,0
280421,-5.27148128624143,4,1,0,100,0,0
280422,113.687559808612,4,1,0,100,1,0
280422,-5.27704485488127,4,1,0,100,0,0
280423,113.537559808612,4,1,0,100,1,0
280423,-5.28541226215645,4,1,0,100,0,0
280424,113.387559808612,4,1,0,100,1,0
280424,-5.29100529100529,4,1,0,100,0,0
280425,113.237559808612,4,1,0,100,1,0
280425,-5.29941706412295,4,1,0,100,0,0
280426,113.087559808612,4,1,0,100,1,0
280426,-5.30503978779841,4,1,0,100,0,0
280427,112.937559808612,4,1,0,100,1,0
280427,-5.3134962805526,4,1,0,100,0,0
280428,112.787559808612,4,1,0,100,1,0
280428,-5.31914893617021,4,1,0,100,0,0
280429,112.637559808612,4,1,0,100,1,0
280429,-5.3276505061268,4,1,0,100,0,0
280430,112.487559808612,4,1,0,100,1,0
280430,-5.33333333333333,4,1,0,100,0,0
280431,112.337559808612,4,1,0,100,1,0
280431,-5.34188034188034,4,1,0,100,0,0
280432,112.187559808612,4,1,0,100,1,0
280432,-5.3475935828877,4,1,0,100,0,0
280433,112.037559808612,4,1,0,100,1,0
280433,-5.35618639528656,4,1,0,100,0,0
280434,111.887559808612,4,1,0,100,1,0
280434,-5.36193029490617,4,1,0,100,0,0
280435,111.737559808612,4,1,0,100,1,0
280435,-5.37056928034372,4,1,0,100,0,0
280436,111.587559808612,4,1,0,100,1,0
280436,-5.37634408602151,4,1,0,100,0,0
280437,111.437559808612,4,1,0,100,1,0
280437,-5.3850296176629,4,1,0,100,0,0
280438,111.287559808612,4,1,0,100,1,0
280438,-5.39083557951482,4,1,0,100,0,0
280439,111.137559808612,4,1,0,100,1,0
280439,-5.39956803455724,4,1,0,100,0,0
280440,110.987559808612,4,1,0,100,1,0
280440,-5.40540540540541,4,1,0,100,0,0
280441,110.837559808612,4,1,0,100,1,0
280441,-5.41418516513265,4,1,0,100,0,0
280442,110.687559808612,4,1,0,100,1,0
280442,-5.42005420054201,4,1,0,100,0,0
280443,110.537559808612,4,1,0,100,1,0
280443,-5.42888165038002,4,1,0,100,0,0
280444,110.387559808612,4,1,0,100,1,0
280444,-5.43478260869565,4,1,0,100,0,0
280445,110.237559808612,4,1,0,100,1,0
280445,-5.44365813826892,4,1,0,100,0,0
280446,110.087559808612,4,1,0,100,1,0
280446,-5.44959128065395,4,1,0,100,0,0
280447,109.937559808612,4,1,0,100,1,0
280447,-5.45851528384279,4,1,0,100,0,0
280452,272.727272727273,4,1,1,100,1,8
280452,-76.9230769230769,4,1,1,100,0,8
280724,-100,4,1,1,100,0,0
280861,-90.9090909090909,4,1,1,100,0,0
280997,-83.3333333333333,4,1,1,100,0,0
281270,-76.9230769230769,4,1,1,100,0,0
281542,-71.4285714285714,4,1,1,100,0,0
281679,-66.6666666666667,4,1,1,100,0,0
281815,-71.4285714285714,4,1,1,100,0,0
281883,-76.9230769230769,4,1,1,100,0,0
281952,-83.3333333333333,4,1,1,100,0,0
282088,-90.9090909090909,4,1,1,100,0,0
282224,-100,4,1,1,100,0,0
282361,-90.9090909090909,4,1,1,100,0,0
282633,-83.3333333333333,4,1,1,100,0,0
282906,-76.9230769230769,4,1,1,100,0,0
283043,-71.4285714285714,4,1,1,100,0,0
283179,-66.6666666666667,4,1,1,100,0,0
283452,-71.4285714285714,4,1,1,100,0,0
283588,-76.9230769230769,4,1,1,100,0,0
283724,-83.3333333333333,4,1,1,100,0,0
283861,-90.9090909090909,4,1,1,100,0,0
283997,-100,4,1,1,100,0,0
284065,-90.9090909090909,4,1,1,100,0,0
284133,-83.3333333333333,4,1,1,100,0,0
284270,-76.9230769230769,4,1,1,100,0,0
284406,-71.4285714285714,4,1,1,100,0,0
284611,-66.6666666666667,4,1,1,100,0,0
284815,-71.4285714285714,4,1,1,100,0,0
285088,-76.9230769230769,4,1,1,100,0,0
285224,-83.3333333333333,4,1,1,100,0,0
285361,-90.9090909090909,4,1,1,100,0,0
285633,-100,4,1,1,100,0,0
285906,-90.9090909090909,4,1,1,100,0,0
286043,-83.3333333333333,4,1,1,100,0,0
286179,-76.9230769230769,4,1,1,100,0,0
286247,-71.4285714285714,4,1,1,100,0,0
286315,-66.6666666666667,4,1,1,100,0,0
286452,-71.4285714285714,4,1,1,100,0,0
286588,-76.9230769230769,4,1,1,100,0,0
286724,-83.3333333333333,4,1,1,100,0,0
286997,-90.9090909090909,4,1,1,100,0,0
287270,-100,4,1,1,100,0,0
287406,-90.9090909090909,4,1,1,100,0,0
287543,-83.3333333333333,4,1,1,100,0,0
287815,-76.9230769230769,4,1,1,100,0,0
287952,-71.4285714285714,4,1,1,100,0,0
288088,-66.6666666666667,4,1,1,100,0,0
288224,-71.4285714285714,4,1,1,100,0,0
288361,-76.9230769230769,4,1,1,100,0,0
288429,-83.3333333333333,4,1,1,100,0,0
288497,-90.9090909090909,4,1,1,100,0,0
288633,-100,4,1,1,100,0,0
288770,-90.9090909090909,4,1,1,100,0,0
288974,-83.3333333333333,4,1,1,100,0,0
289179,-76.9230769230769,4,1,1,100,0,0
289452,-71.4285714285714,4,1,1,100,0,0
289588,-66.6666666666667,4,1,1,100,0,0
289724,-71.4285714285714,4,1,1,100,0,0
289997,-76.9230769230769,4,1,1,100,0,0
290133,-83.3333333333333,4,1,1,100,0,0
290270,-90.9090909090909,4,1,1,100,0,0
290406,-100,4,1,1,100,0,0
290543,-90.9090909090909,4,1,1,100,0,0
290611,-83.3333333333333,4,1,1,100,0,0
290679,-76.9230769230769,4,1,1,100,0,0
290815,-71.4285714285714,4,1,1,100,0,0
290952,-66.6666666666667,4,1,1,100,0,0
291361,-71.4285714285714,4,1,1,100,0,0
291633,-76.9230769230769,4,1,1,100,0,0
291770,-83.3333333333333,4,1,1,100,0,0
291906,-90.9090909090909,4,1,1,100,0,0
292179,-100,4,1,1,100,0,0
292452,-90.9090909090909,4,1,1,100,0,0
292588,-83.3333333333333,4,1,1,100,0,0
292724,-76.9230769230769,4,1,1,100,0,0
292793,-71.4285714285714,4,1,1,100,0,0
292861,-66.6666666666667,4,1,1,100,0,0
292997,-71.4285714285714,4,1,1,100,0,0
293133,-76.9230769230769,4,1,1,100,0,0
293338,-83.3333333333333,4,1,1,100,0,0
293543,-90.9090909090909,4,1,1,100,0,0
293815,-100,4,1,1,100,0,0
293952,-90.9090909090909,4,1,1,100,0,0
294088,-83.3333333333333,4,1,1,100,0,0
294361,-76.9230769230769,4,1,1,100,0,0
294497,-71.4285714285714,4,1,1,100,0,0
294633,-66.6666666666667,4,1,1,100,0,0
294770,-71.4285714285714,4,1,1,100,0,0
294906,-76.9230769230769,4,1,1,100,0,0
294974,-83.3333333333333,4,1,1,100,0,0
295043,-90.9090909090909,4,1,1,100,0,0
295179,-100,4,1,1,100,0,0
295315,-90.9090909090909,4,1,1,100,0,0
295452,-83.3333333333333,4,1,1,100,0,0
295724,-76.9230769230769,4,1,1,100,0,0
295793,-71.4285714285714,4,1,1,100,0,0
295861,-66.6666666666667,4,1,1,100,0,0
295929,-62.5,4,1,1,100,0,0
295997,-58.8235294117647,4,1,1,100,0,0
296133,-62.5,4,1,1,100,0,0
296202,-66.6666666666667,4,1,1,100,0,0
296270,-71.4285714285714,4,1,1,100,0,0
296338,-76.9230769230769,4,1,1,100,0,0
296406,-83.3333333333333,4,1,1,100,0,0
296543,-76.9230769230769,4,1,1,100,0,0
296611,-71.4285714285714,4,1,1,100,0,0
296679,-66.6666666666667,4,1,1,100,0,0
296747,-62.5,4,1,1,100,0,0
296815,-58.8235294117647,4,1,1,100,0,0
296952,-62.5,4,1,1,100,0,0
297020,-66.6666666666667,4,1,1,100,0,0
297088,-71.4285714285714,4,1,1,100,0,0
297156,-76.9230769230769,4,1,1,100,0,0
297224,-83.3333333333333,4,1,1,100,0,0
297361,-76.9230769230769,4,1,1,100,0,0
297429,-71.4285714285714,4,1,1,100,0,0
297497,-66.6666666666667,4,1,1,100,0,0
297565,-62.5,4,1,1,100,0,0
297633,-58.8235294117647,4,1,1,100,0,0
297702,-55.5555555555556,4,1,1,100,0,0
297906,-52.6315789473684,4,1,1,30,0,0
298315,-100,4,1,1,30,0,0
305542,-99.009900990099,4,1,1,30,0,0
305678,-98.0392156862745,4,1,1,30,0,0
305815,-97.0873786407767,4,1,1,30,0,0
305951,-96.1538461538461,4,1,1,30,0,0
306087,-95.2380952380952,4,1,1,30,0,0
306633,-94.3396226415094,4,1,1,30,0,0
307042,-93.4579439252336,4,1,1,30,0,0
307178,-92.5925925925926,4,1,1,30,0,0
307451,-91.743119266055,4,1,1,30,0,0
307724,-90.9090909090909,4,1,1,30,0,0
307860,-90.0900900900901,4,1,1,30,0,0
307996,-89.2857142857143,4,1,1,30,0,0
308269,-88.4955752212389,4,1,1,30,0,0
308542,-87.719298245614,4,1,1,30,0,0
308815,-86.9565217391304,4,1,1,30,0,0
309224,-86.2068965517241,4,1,1,30,0,0
309360,-85.4700854700855,4,1,1,30,0,0
309633,-84.7457627118644,4,1,1,30,0,0
309906,-84.0336134453781,4,1,1,30,0,0
310042,-83.3333333333333,4,1,1,30,0,0
310178,-82.6446280991736,4,1,1,30,0,0
310451,-81.9672131147541,4,1,1,30,0,0
310996,-81.3008130081301,4,1,1,30,0,0
311406,-80.6451612903226,4,1,1,30,0,0
311542,-80,4,1,1,30,0,0
311815,-79.3650793650794,4,1,1,30,0,0
312087,-78.7401574803149,4,1,1,30,0,0
312224,-78.125,4,1,1,30,0,0
312360,-77.5193798449612,4,1,1,30,0,0
312633,-76.9230769230769,4,1,1,30,0,0
312906,-76.9230769230769,4,1,1,30,0,0
313174,-76.9230769230769,4,1,1,30,0,0
313243,-71.4285714285714,4,1,1,30,0,0
313311,-66.6666666666667,4,1,1,30,0,0
313379,-62.5,4,1,1,30,0,0
313447,-58.8235294117647,4,1,1,30,0,0
313583,-62.5,4,1,1,30,0,0
313652,-66.6666666666667,4,1,1,30,0,0
313720,-71.4285714285714,4,1,1,30,0,0
313788,-76.9230769230769,4,1,1,30,0,0
313856,-83.3333333333333,4,1,1,30,0,0
313993,-76.9230769230769,4,1,1,30,0,0
314061,-71.4285714285714,4,1,1,30,0,0
314129,-66.6666666666667,4,1,1,30,0,0
314197,-62.5,4,1,1,30,0,0
314265,-58.8235294117647,4,1,1,30,0,0
314338,-62.5,4,1,1,30,0,0
314406,-66.6666666666667,4,1,1,30,0,0
314474,-71.4285714285714,4,1,1,30,0,0
314542,-76.9230769230769,4,1,1,30,0,0
314611,-83.3333333333333,4,1,1,30,0,0
314679,-90.9090909090909,4,1,1,30,0,0
314747,-100,4,1,1,30,0,0
314815,-90.9090909090909,4,1,1,30,0,0
314883,-83.3333333333333,4,1,1,30,0,0
314952,-76.9230769230769,4,1,1,30,0,0
315020,-71.4285714285714,4,1,1,30,0,0
315088,-66.6666666666667,4,1,1,30,0,0
315156,-62.5,4,1,1,30,0,0
315224,-58.8235294117647,4,1,1,30,0,0
315292,-55.5555555555556,4,1,1,30,0,0
315361,-52.6315789473684,4,1,1,30,0,0

[HitObjects]
256,192,1150,5,4,0:0:0:0:
256,192,1559,1,0,0:0:0:0:
256,192,1695,1,8,0:0:0:0:
256,192,1968,1,0,0:0:0:0:
256,192,2240,1,8,0:0:0:0:
256,192,2377,1,0,0:0:0:0:
256,192,2513,1,0,0:0:0:0:
256,192,2786,1,8,0:0:0:0:
256,192,3059,1,0,0:0:0:0:
256,192,3331,1,8,0:0:0:0:
256,192,3740,1,0,0:0:0:0:
256,192,3877,1,8,0:0:0:0:
256,192,4150,1,0,0:0:0:0:
256,192,4422,1,8,0:0:0:0:
256,192,4559,1,0,0:0:0:0:
256,192,4695,1,0,0:0:0:0:
256,192,4968,1,8,0:0:0:0:
256,192,5513,1,4,0:0:0:0:
256,192,5922,1,4,0:0:0:0:
256,192,6059,1,8,0:0:0:0:
256,192,6331,1,0,0:0:0:0:
256,192,6604,1,8,0:0:0:0:
256,192,6740,1,0,0:0:0:0:
256,192,6877,1,0,0:0:0:0:
256,192,7150,1,8,0:0:0:0:
256,192,7422,1,0,0:0:0:0:
256,192,7695,1,8,0:0:0:0:
256,192,8104,1,0,0:0:0:0:
256,192,8240,1,8,0:0:0:0:
160,192,8513,1,0,0:0:0:0:
160,192,8786,1,8,0:0:0:0:
160,192,8922,1,0,0:0:0:0:
160,192,9059,1,0,0:0:0:0:
160,192,9195,1,4,0:0:0:0:
160,192,9331,1,8,0:0:0:0:
160,192,9877,1,4,0:0:0:0:
160,192,10286,1,4,0:0:0:0:
160,192,10422,1,8,0:0:0:0:
160,192,10695,1,0,0:0:0:0:
160,192,10968,1,8,0:0:0:0:
160,192,11104,1,0,0:0:0:0:
160,192,11240,1,0,0:0:0:0:
160,192,11513,1,8,0:0:0:0:
160,192,11786,1,0,0:0:0:0:
160,192,12059,1,8,0:0:0:0:
160,192,12468,1,0,0:0:0:0:
160,192,12604,1,8,0:0:0:0:
160,192,12877,1,0,0:0:0:0:
160,192,13150,1,8,0:0:0:0:
160,192,13286,1,0,0:0:0:0:
160,192,13422,1,0,0:0:0:0:
160,192,13695,1,8,0:0:0:0:
160,192,14240,1,4,0:0:0:0:
160,192,14650,1,4,0:0:0:0:
160,192,14786,1,8,0:0:0:0:
224,352,15059,1,0,0:0:0:0:
224,352,15331,1,8,0:0:0:0:
224,352,15468,1,0,0:0:0:0:
224,352,15604,1,8,0:0:0:0:
224,352,15877,1,8,0:0:0:0:
224,352,16150,1,0,0:0:0:0:
224,352,16422,1,0,0:0:0:0:
128,128,16490,1,8,0:0:0:0:
224,352,16559,1,8,0:0:0:0:
192,96,16627,1,0,0:0:0:0:
224,352,16695,1,8,0:0:0:0:
384,96,16831,1,8,0:0:0:0:
160,96,16900,1,0,0:0:0:0:
224,352,16968,1,8,0:0:0:0:
384,96,17036,1,8,0:0:0:0:
224,352,17104,1,0,0:0:0:0:
224,352,17240,1,8,0:0:0:0:
128,96,17309,1,8,0:0:0:0:
160,96,17377,1,0,0:0:0:0:
320,96,17445,1,0,0:0:0:0:
256,96,17513,1,8,0:0:0:0:
192,96,17559,1,8,0:0:0:0:
192,96,17604,1,8,0:0:0:0:
192,96,17650,1,0,0:0:0:0:
416,128,17786,1,8,0:0:0:0:
416,160,17831,1,8,0:0:0:0:
416,160,17877,1,8,0:0:0:0:
416,160,17922,1,0,0:0:0:0:
384,96,18059,1,8,0:0:0:0:
320,96,18150,1,8,0:0:0:0:
320,96,18240,1,0,0:0:0:0:
320,96,18331,1,0,0:0:0:0:
320,96,18422,1,8,0:0:0:0:
320,96,18513,1,0,0:0:0:0:
160,160,18604,1,12,0:0:0:0:
32,160,18877,1,8,0:0:0:0:
160,160,19013,1,0,0:0:0:0:
32,160,19150,1,8,0:0:0:0:
32,160,19422,1,0,0:0:0:0:
32,160,19695,1,8,0:0:0:0:
32,160,19831,1,0,0:0:0:0:
480,32,19968,1,0,0:0:0:0:
32,160,20036,1,0,0:0:0:0:
480,32,20104,1,0,0:0:0:0:
480,32,20240,1,8,0:0:0:0:
480,32,20377,1,0,0:0:0:0:
480,32,20513,1,8,0:0:0:0:
480,32,20786,1,12,0:0:0:0:
480,32,21059,1,8,0:0:0:0:
192,160,21195,1,0,0:0:0:0:
192,160,21331,1,8,0:0:0:0:
192,160,21604,1,0,0:0:0:0:
192,160,21740,1,8,0:0:0:0:
192,160,21877,1,8,0:0:0:0:
192,160,22013,1,0,0:0:0:0:
192,160,22150,1,0,0:0:0:0:
192,160,22218,1,0,0:0:0:0:
192,160,22286,1,0,0:0:0:0:
192,160,22422,1,8,0:0:0:0:
192,160,22627,1,0,0:0:0:0:
192,160,22831,1,0,0:0:0:0:
192,160,22968,1,12,0:0:0:0:
192,160,23240,1,8,0:0:0:0:
192,160,23377,1,0,0:0:0:0:
192,160,23513,1,8,0:0:0:0:
192,160,23786,1,0,0:0:0:0:
192,128,24059,1,8,0:0:0:0:
192,128,24195,1,0,0:0:0:0:
192,128,24331,1,0,0:0:0:0:
192,128,24400,1,0,0:0:0:0:
256,128,24468,1,0,0:0:0:0:
192,128,24604,1,8,0:0:0:0:
192,128,24740,1,0,0:0:0:0:
192,128,24877,1,0,0:0:0:0:
192,128,25013,1,0,0:0:0:0:
192,128,25150,1,12,0:0:0:0:
192,128,25422,1,8,0:0:0:0:
192,128,25559,1,0,0:0:0:0:
192,128,25695,1,8,0:0:0:0:
192,128,25968,1,0,0:0:0:0:
192,128,26104,1,8,0:0:0:0:
192,128,26240,1,8,0:0:0:0:
192,128,26377,1,0,0:0:0:0:
192,128,26513,1,0,0:0:0:0:
192,128,26581,1,0,0:0:0:0:
192,128,26650,1,0,0:0:0:0:
192,128,26786,1,8,0:0:0:0:
384,128,26968,1,0,0:0:0:0:
384,128,27150,1,0,0:0:0:0:
384,128,27331,1,12,0:0:0:0:
384,128,27604,1,8,0:0:0:0:
192,128,27740,1,0,0:0:0:0:
192,128,27877,1,8,0:0:0:0:
192,128,28150,1,0,0:0:0:0:
192,128,28286,1,8,0:0:0:0:
192,128,28422,1,8,0:0:0:0:
192,128,28559,1,0,0:0:0:0:
192,128,28695,1,0,0:0:0:0:
480,128,28763,1,0,0:0:0:0:
192,128,28831,1,0,0:0:0:0:
480,128,28968,1,8,0:0:0:0:
480,128,29104,1,0,0:0:0:0:
480,128,29240,1,8,0:0:0:0:
480,128,29513,1,12,0:0:0:0:
480,128,29786,1,8,0:0:0:0:
480,128,29922,1,0,0:0:0:0:
480,128,30059,1,8,0:0:0:0:
480,128,30331,1,0,0:0:0:0:
480,128,30604,1,8,0:0:0:0:
480,128,30740,1,0,0:0:0:0:
192,128,30877,1,0,0:0:0:0:
480,128,30945,1,0,0:0:0:0:
480,128,31013,1,0,0:0:0:0:
480,128,31150,1,8,0:0:0:0:
480,128,31354,1,0,0:0:0:0:
192,96,31513,1,0,0:0:0:0:
160,160,31695,1,8,0:0:0:0:
160,160,31968,1,8,0:0:0:0:
160,160,32104,1,0,0:0:0:0:
160,160,32240,1,8,0:0:0:0:
160,160,32513,1,0,0:0:0:0:
160,160,32650,1,8,0:0:0:0:
160,160,32786,1,8,0:0:0:0:
160,160,32922,1,0,0:0:0:0:
160,160,33059,1,8,0:0:0:0:
160,160,33195,1,8,0:0:0:0:
160,160,33331,1,8,0:0:0:0:
160,160,33468,1,0,0:0:0:0:
160,160,33604,1,0,0:0:0:0:
160,160,33740,1,0,0:0:0:0:
160,160,33877,1,8,0:0:0:0:
96,160,33945,1,8,0:0:0:0:
96,160,34013,1,0,0:0:0:0:
512,96,34081,1,0,0:0:0:0:
512,96,34150,1,8,0:0:0:0:
512,96,34218,1,8,0:0:0:0:
512,96,34286,1,0,0:0:0:0:
512,96,34354,1,0,0:0:0:0:
512,96,34422,1,8,0:0:0:0:
512,96,34490,1,8,0:0:0:0:
512,96,34559,1,0,0:0:0:0:
512,96,34627,1,0,0:0:0:0:
512,96,34695,1,8,0:0:0:0:
512,96,34763,1,8,0:0:0:0:
512,96,34831,1,0,0:0:0:0:
512,96,34900,1,0,0:0:0:0:
512,96,34968,1,8,0:0:0:0:
512,96,35036,1,8,0:0:0:0:
512,96,35104,1,0,0:0:0:0:
512,96,35172,1,0,0:0:0:0:
512,96,35240,1,8,0:0:0:0:
512,96,35309,1,8,0:0:0:0:
288,192,35377,1,0,0:0:0:0:
288,192,35445,1,0,0:0:0:0:
288,192,35513,1,8,0:0:0:0:
288,192,35581,1,8,0:0:0:0:
288,192,35650,1,0,0:0:0:0:
288,192,35718,1,0,0:0:0:0:
288,192,35786,1,8,0:0:0:0:
288,192,35922,1,8,0:0:0:0:
288,192,36059,1,4,0:0:0:0:
224,128,36195,1,0,0:0:0:0:
160,128,36331,1,8,0:0:0:0:
224,128,36468,1,8,0:0:0:0:
288,192,36536,1,0,0:0:0:0:
288,192,36604,1,8,0:0:0:0:
224,128,36740,1,0,0:0:0:0:
224,128,36877,1,8,0:0:0:0:
224,128,37013,1,8,0:0:0:0:
288,192,37150,1,0,0:0:0:0:
288,192,37286,1,0,0:0:0:0:
224,128,37422,1,8,0:0:0:0:
224,128,37559,1,8,0:0:0:0:
224,128,37627,1,0,0:0:0:0:
224,128,37695,1,8,0:0:0:0:
224,128,37831,1,0,0:0:0:0:
224,128,37900,1,0,0:0:0:0:
224,128,37968,1,8,0:0:0:0:
224,128,38104,1,8,0:0:0:0:
224,128,38240,1,0,0:0:0:0:
224,128,38377,1,0,0:0:0:0:
224,128,38513,1,8,0:0:0:0:
224,128,38650,1,8,0:0:0:0:
224,128,38718,1,0,0:0:0:0:
224,128,38786,1,8,0:0:0:0:
224,128,38922,1,0,0:0:0:0:
224,128,39059,1,8,0:0:0:0:
224,128,39195,1,8,0:0:0:0:
224,128,39331,1,0,0:0:0:0:
224,128,39468,1,0,0:0:0:0:
224,128,39536,1,0,0:0:0:0:
224,128,39604,1,8,0:0:0:0:
224,128,39740,1,8,0:0:0:0:
224,128,39809,1,0,0:0:0:0:
224,128,39877,1,8,0:0:0:0:
224,128,40013,1,0,0:0:0:0:
224,128,40081,1,8,0:0:0:0:
224,128,40150,1,0,0:0:0:0:
224,128,40286,1,8,0:0:0:0:
224,128,40422,1,0,0:0:0:0:
224,192,40559,1,8,0:0:0:0:
224,192,40695,1,8,0:0:0:0:
224,192,40831,1,8,0:0:0:0:
224,192,40900,1,0,0:0:0:0:
224,192,40968,1,8,0:0:0:0:
224,192,41104,1,0,0:0:0:0:
224,192,41240,1,8,0:0:0:0:
224,192,41377,1,8,0:0:0:0:
224,192,41513,1,0,0:0:0:0:
224,192,41650,1,0,0:0:0:0:
224,192,41786,1,8,0:0:0:0:
224,192,41922,1,8,0:0:0:0:
224,192,41990,1,0,0:0:0:0:
224,192,42059,1,8,0:0:0:0:
224,192,42195,1,0,0:0:0:0:
224,192,42263,1,0,0:0:0:0:
224,192,42331,1,8,0:0:0:0:
224,192,42468,1,8,0:0:0:0:
224,192,42604,1,0,0:0:0:0:
224,192,42740,1,0,0:0:0:0:
224,192,42877,1,8,0:0:0:0:
224,192,43013,1,8,0:0:0:0:
224,192,43081,1,0,0:0:0:0:
224,192,43150,1,8,0:0:0:0:
224,192,43286,1,0,0:0:0:0:
224,192,43422,1,8,0:0:0:0:
224,192,43559,1,8,0:0:0:0:
224,192,43695,1,0,0:0:0:0:
224,192,43831,1,0,0:0:0:0:
224,192,43900,1,0,0:0:0:0:
224,192,43968,1,8,0:0:0:0:
224,192,44104,1,8,0:0:0:0:
224,192,44172,1,0,0:0:0:0:
224,192,44240,1,8,0:0:0:0:
224,192,44377,1,0,0:0:0:0:
224,192,44445,1,8,0:0:0:0:
224,192,44513,1,0,0:0:0:0:
224,192,44650,1,8,0:0:0:0:
224,192,44786,1,8,0:0:0:0:
224,192,44922,1,0,0:0:0:0:
224,192,45059,1,0,0:0:0:0:
224,192,45195,1,8,0:0:0:0:
224,192,45331,1,0,0:0:0:0:
224,192,45468,1,0,0:0:0:0:
224,192,45604,1,8,0:0:0:0:
224,192,45740,1,0,0:0:0:0:
224,192,45877,1,8,0:0:0:0:
224,192,46013,1,0,0:0:0:0:
224,192,46150,1,0,0:0:0:0:
256,192,46286,1,8,0:0:0:0:
256,192,46422,1,0,0:0:0:0:
256,192,46559,1,0,0:0:0:0:
256,192,46695,1,8,0:0:0:0:
256,192,46831,1,0,0:0:0:0:
256,192,46968,1,8,0:0:0:0:
256,192,47104,1,0,0:0:0:0:
256,192,47240,1,0,0:0:0:0:
256,192,47377,1,8,0:0:0:0:
256,192,47513,1,0,0:0:0:0:
256,192,47650,1,0,0:0:0:0:
256,192,47786,1,8,0:0:0:0:
256,192,47922,1,0,0:0:0:0:
256,160,48059,1,8,0:0:0:0:
256,160,48195,1,0,0:0:0:0:
256,192,48331,1,0,0:0:0:0:
256,192,48468,1,8,0:0:0:0:
256,192,48604,1,0,0:0:0:0:
256,192,48740,1,0,0:0:0:0:
256,192,48877,1,8,0:0:0:0:
256,192,49013,1,0,0:0:0:0:
256,192,49150,1,8,0:0:0:0:
96,160,49218,1,0,0:0:0:0:
96,160,49286,1,0,0:0:0:0:
96,160,49354,1,0,0:0:0:0:
96,160,49422,1,8,0:0:0:0:
96,160,49490,1,0,0:0:0:0:
96,160,49559,1,0,0:0:0:0:
96,160,49627,1,0,0:0:0:0:
96,160,49695,1,8,0:0:0:0:
256,160,49763,1,0,0:0:0:0:
96,160,49831,1,0,0:0:0:0:
96,160,49900,1,0,0:0:0:0:
96,160,49968,1,8,0:0:0:0:
96,160,50036,1,0,0:0:0:0:
96,160,50104,1,0,0:0:0:0:
256,160,50172,1,0,0:0:0:0:
256,160,50240,1,8,0:0:0:0:
96,160,50309,1,0,0:0:0:0:
256,160,50377,1,0,0:0:0:0:
96,160,50445,1,0,0:0:0:0:
256,160,50513,1,8,0:0:0:0:
256,160,50581,1,0,0:0:0:0:
96,160,50650,1,0,0:0:0:0:
96,160,50718,1,0,0:0:0:0:
96,160,50786,1,8,0:0:0:0:
96,160,50854,1,0,0:0:0:0:
96,160,50922,1,0,0:0:0:0:
256,160,50990,1,0,0:0:0:0:
256,160,51059,1,8,0:0:0:0:
96,160,51127,1,0,0:0:0:0:
256,160,51195,1,0,0:0:0:0:
96,160,51263,1,0,0:0:0:0:
96,160,51331,1,8,0:0:0:0:
160,128,51400,1,8,0:0:0:0:
160,128,51468,1,0,0:0:0:0:
160,128,51536,1,0,0:0:0:0:
160,128,51604,1,8,0:0:0:0:
160,128,51672,1,8,0:0:0:0:
160,128,51740,1,0,0:0:0:0:
160,128,51809,1,0,0:0:0:0:
160,128,51877,1,8,0:0:0:0:
160,128,51945,1,0,0:0:0:0:
160,128,52013,1,8,0:0:0:0:
160,128,52081,1,0,0:0:0:0:
256,160,52150,1,8,0:0:0:0:
480,96,52218,1,0,0:0:0:0:
480,96,52286,1,8,0:0:0:0:
160,128,52354,1,0,0:0:0:0:
160,128,52422,1,8,0:0:0:0:
0,160,53138,1,0,0:0:0:0:
0,160,53274,1,8,0:0:0:0:
0,160,53547,1,4,0:0:0:0:
320,160,53819,1,8,0:0:0:0:
224,160,53956,1,0,0:0:0:0:
224,160,54024,1,0,0:0:0:0:
224,160,54092,1,8,0:0:0:0:
224,160,54228,1,8,0:0:0:0:
192,96,54274,1,8,0:0:0:0:
192,96,54319,1,8,0:0:0:0:
224,96,54365,1,0,0:0:0:0:
192,96,54501,1,8,0:0:0:0:
224,192,54637,1,0,0:0:0:0:
215,127,54706,1,0,0:0:0:0:
288,224,54774,1,8,0:0:0:0:
215,127,54910,1,0,0:0:0:0:
96,96,54978,1,0,0:0:0:0:
288,96,55047,1,8,0:0:0:0:
192,96,55092,1,8,0:0:0:0:
192,96,55137,1,8,0:0:0:0:
320,224,55183,1,0,0:0:0:0:
160,128,55319,1,8,0:0:0:0:
160,128,55456,1,8,0:0:0:0:
128,192,55457,2,4,L|160:192,39,26.25
96,96,55728,1,0,0:0:0:0:
448,96,55796,1,8,0:0:0:0:
448,96,55864,1,0,0:0:0:0:
224,96,55932,1,0,0:0:0:0:
224,96,56000,1,8,0:0:0:0:
224,96,56137,1,0,0:0:0:0:
224,96,56205,1,0,0:0:0:0:
224,96,56273,1,8,0:0:0:0:
128,128,56409,1,8,0:0:0:0:
128,128,56455,1,8,0:0:0:0:
128,128,56500,1,8,0:0:0:0:
128,128,56546,1,0,0:0:0:0:
128,96,56682,1,8,0:0:0:0:
128,96,56818,1,0,0:0:0:0:
480,64,56887,1,0,0:0:0:0:
480,64,56955,1,8,0:0:0:0:
160,288,57091,1,0,0:0:0:0:
448,193,57159,1,0,0:0:0:0:
448,192,57228,1,0,0:0:0:0:
192,128,57364,1,8,0:0:0:0:
256,192,57546,1,0,0:0:0:0:
256,192,57728,1,0,0:0:0:0:
256,191,57909,1,8,0:0:0:0:
512,160,57955,1,8,0:0:0:0:
512,160,58000,1,8,0:0:0:0:
256,192,58046,1,0,0:0:0:0:
256,96,58114,1,0,0:0:0:0:
256,192,58182,1,8,0:0:0:0:
256,192,58318,1,0,0:0:0:0:
320,192,58387,1,0,0:0:0:0:
480,64,58455,1,8,0:0:0:0:
480,64,58591,1,8,0:0:0:0:
96,224,58637,1,8,0:0:0:0:
96,224,58682,1,8,0:0:0:0:
96,224,58728,1,0,0:0:0:0:
480,96,58864,1,8,0:0:0:0:
448,160,59000,1,0,0:0:0:0:
480,128,59068,1,0,0:0:0:0:
480,128,59137,1,8,0:0:0:0:
480,128,59273,1,0,0:0:0:0:
192,128,59341,1,0,0:0:0:0:
192,128,59409,1,0,0:0:0:0:
192,128,59546,1,8,0:0:0:0:
192,128,59682,1,0,0:0:0:0:
224,128,59818,1,8,0:0:0:0:
160,160,59887,1,8,0:0:0:0:
192,128,59955,1,0,0:0:0:0:
128,192,60023,1,0,0:0:0:0:
128,192,60091,1,8,0:0:0:0:
128,192,60228,1,8,0:0:0:0:
128,192,60364,1,0,0:0:0:0:
128,192,60500,1,8,0:0:0:0:
128,192,60637,1,8,0:0:0:0:
128,192,60773,1,0,0:0:0:0:
128,192,60909,1,8,0:0:0:0:
128,192,61046,1,0,0:0:0:0:
128,192,61182,1,8,0:0:0:0:
135,182,61318,1,0,0:0:0:0:
288,96,61455,1,0,0:0:0:0:
288,128,61523,1,0,0:0:0:0:
288,128,61591,1,0,0:0:0:0:
288,128,61728,1,8,0:0:0:0:
288,96,61864,1,0,0:0:0:0:
288,96,62000,1,0,0:0:0:0:
288,96,62273,1,4,0:0:0:0:
288,96,62546,1,8,0:0:0:0:
288,96,62682,1,0,0:0:0:0:
288,96,62818,1,8,0:0:0:0:
288,96,62886,1,8,0:0:0:0:
288,96,62955,1,0,0:0:0:0:
288,96,63091,1,12,0:0:0:0:
96,208,63364,1,0,0:0:0:0:
96,208,63432,1,0,0:0:0:0:
96,208,63500,1,8,0:0:0:0:
96,208,63636,1,0,0:0:0:0:
96,208,63705,1,0,0:0:0:0:
96,208,63773,1,0,0:0:0:0:
131,138,63909,1,8,0:0:0:0:
131,138,64046,1,0,0:0:0:0:
160,128,64181,1,8,0:0:0:0:
128,192,64182,2,4,L|160:192,39,26.25
416,96,64455,1,8,0:0:0:0:
256,160,64500,1,8,0:0:0:0:
256,160,64546,1,8,0:0:0:0:
256,160,64591,1,0,0:0:0:0:
352,192,64659,1,0,0:0:0:0:
352,192,64727,1,8,0:0:0:0:
192,128,64864,1,0,0:0:0:0:
352,193,64932,1,0,0:0:0:0:
192,128,65000,1,8,0:0:0:0:
352,192,65136,1,8,0:0:0:0:
192,128,65273,1,0,0:0:0:0:
192,128,65409,1,8,0:0:0:0:
192,128,65546,1,8,0:0:0:0:
192,128,65614,1,0,0:0:0:0:
192,128,65682,1,8,0:0:0:0:
224,192,65818,1,0,0:0:0:0:
192,128,65886,1,0,0:0:0:0:
192,128,65955,1,0,0:0:0:0:
224,192,66091,1,8,0:0:0:0:
224,192,66227,1,0,0:0:0:0:
192,128,66432,1,0,0:0:0:0:
288,224,66636,1,12,0:0:0:0:
128,160,66773,1,0,0:0:0:0:
128,160,66841,1,0,0:0:0:0:
128,160,66909,1,8,0:0:0:0:
128,160,67046,1,8,0:0:0:0:
128,160,67114,1,0,0:0:0:0:
128,160,67182,1,8,0:0:0:0:
128,160,67318,1,0,0:0:0:0:
128,160,67386,1,0,0:0:0:0:
128,160,67455,1,8,0:0:0:0:
128,160,67591,1,8,0:0:0:0:
128,160,67659,1,0,0:0:0:0:
128,160,67727,1,8,0:0:0:0:
128,160,67864,1,0,0:0:0:0:
128,160,67932,1,0,0:0:0:0:
128,160,68000,1,8,0:0:0:0:
128,160,68136,1,8,0:0:0:0:
128,160,68205,1,0,0:0:0:0:
128,160,68273,1,8,0:0:0:0:
128,160,68409,1,0,0:0:0:0:
128,160,68477,1,0,0:0:0:0:
128,160,68546,1,8,0:0:0:0:
128,160,68682,1,8,0:0:0:0:
128,160,68818,1,8,0:0:0:0:
128,160,68886,1,0,0:0:0:0:
128,160,68955,1,0,0:0:0:0:
128,160,69023,1,0,0:0:0:0:
128,160,69091,1,8,0:0:0:0:
128,160,69159,1,0,0:0:0:0:
128,160,69227,1,0,0:0:0:0:
128,160,69296,1,0,0:0:0:0:
128,160,69364,1,8,0:0:0:0:
128,160,69432,1,0,0:0:0:0:
128,160,69500,1,0,0:0:0:0:
128,160,69568,1,0,0:0:0:0:
128,160,69636,1,8,0:0:0:0:
128,160,69705,1,0,0:0:0:0:
128,160,69773,1,0,0:0:0:0:
128,160,69841,1,0,0:0:0:0:
128,160,69909,1,8,0:0:0:0:
96,128,69977,1,0,0:0:0:0:
96,128,70046,1,8,0:0:0:0:
128,128,70114,1,0,0:0:0:0:
128,128,70182,1,8,0:0:0:0:
96,128,70250,1,0,0:0:0:0:
96,128,70318,1,8,0:0:0:0:
128,128,70386,1,0,0:0:0:0:
128,128,70455,1,8,0:0:0:0:
128,128,70523,1,0,0:0:0:0:
128,128,70591,1,8,0:0:0:0:
128,128,70659,1,0,0:0:0:0:
128,160,70727,1,8,0:0:0:0:
49,155,70864,1,0,0:0:0:0:
128,128,71000,1,12,0:0:0:0:
384,160,71136,1,0,0:0:0:0:
384,160,71272,1,8,0:0:0:0:
160,128,71409,1,0,0:0:0:0:
160,128,71545,1,0,0:0:0:0:
96,128,71681,1,8,0:0:0:0:
160,128,71727,1,8,0:0:0:0:
224,96,71772,1,8,0:0:0:0:
160,128,71818,1,0,0:0:0:0:
96,128,71954,1,8,0:0:0:0:
96,128,72022,1,0,0:0:0:0:
160,128,72090,1,0,0:0:0:0:
96,128,72227,1,8,0:0:0:0:
160,128,72272,1,8,0:0:0:0:
192,96,72318,1,8,0:0:0:0:
96,128,72363,1,0,0:0:0:0:
96,128,72431,1,0,0:0:0:0:
128,192,72500,1,0,0:0:0:0:
128,192,72636,1,8,0:0:0:0:
128,192,72772,1,8,0:0:0:0:
448,128,72818,1,8,0:0:0:0:
448,128,72863,1,8,0:0:0:0:
448,128,72909,1,0,0:0:0:0:
224,96,73045,1,8,0:0:0:0:
224,96,73113,1,0,0:0:0:0:
224,96,73181,1,0,0:0:0:0:
224,96,73318,1,8,0:0:0:0:
416,224,73363,1,8,0:0:0:0:
416,224,73409,1,8,0:0:0:0:
416,224,73454,1,0,0:0:0:0:
416,128,73590,1,0,0:0:0:0:
416,128,73659,1,0,0:0:0:0:
416,128,73727,1,8,0:0:0:0:
96,96,73863,1,0,0:0:0:0:
96,96,73909,1,8,0:0:0:0:
96,96,73954,1,8,0:0:0:0:
96,96,74000,1,0,0:0:0:0:
96,96,74136,1,8,0:0:0:0:
416,128,74272,1,8,0:0:0:0:
96,96,74318,1,8,0:0:0:0:
416,128,74363,1,8,0:0:0:0:
416,128,74409,1,8,0:0:0:0:
384,160,74454,1,8,0:0:0:0:
96,96,74500,1,8,0:0:0:0:
384,160,74545,1,0,0:0:0:0:
384,160,74613,1,0,0:0:0:0:
384,160,74681,1,0,0:0:0:0:
384,160,74750,1,0,0:0:0:0:
96,192,74818,1,0,0:0:0:0:
96,192,74886,1,0,0:0:0:0:
384,160,74954,1,0,0:0:0:0:
384,160,75022,1,0,0:0:0:0:
384,160,75090,1,0,0:0:0:0:
384,160,75159,1,0,0:0:0:0:
64,192,75227,1,0,0:0:0:0:
64,192,75295,1,0,0:0:0:0:
384,160,75363,1,8,0:0:0:0:
448,96,75500,1,0,0:0:0:0:
448,128,75636,1,8,0:0:0:0:
448,128,75772,1,0,0:0:0:0:
448,128,75909,1,8,0:0:0:0:
448,128,76045,1,8,0:0:0:0:
192,96,76090,1,8,0:0:0:0:
192,96,76136,1,8,0:0:0:0:
192,96,76181,1,0,0:0:0:0:
224,160,76318,1,8,0:0:0:0:
192,96,76386,1,0,0:0:0:0:
224,160,76454,1,0,0:0:0:0:
384,192,76590,1,8,0:0:0:0:
384,192,76636,1,8,0:0:0:0:
384,192,76681,1,8,0:0:0:0:
384,192,76727,1,0,0:0:0:0:
384,192,76795,1,0,0:0:0:0:
224,160,76863,1,0,0:0:0:0:
224,160,77000,1,8,0:0:0:0:
224,160,77136,1,0,0:0:0:0:
480,160,77181,1,8,0:0:0:0:
480,160,77227,1,8,0:0:0:0:
480,160,77272,1,0,0:0:0:0:
416,96,77409,1,0,0:0:0:0:
160,128,77477,1,8,0:0:0:0:
192,96,77545,1,0,0:0:0:0:
128,160,77681,1,0,0:0:0:0:
128,160,77818,1,8,0:0:0:0:
128,160,77954,1,0,0:0:0:0:
128,160,78022,1,0,0:0:0:0:
128,160,78090,1,8,0:0:0:0:
128,160,78227,1,8,0:0:0:0:
128,160,78363,1,0,0:0:0:0:
128,160,78500,1,0,0:0:0:0:
128,160,78636,1,8,0:0:0:0:
128,160,78772,1,0,0:0:0:0:
128,160,78909,1,0,0:0:0:0:
128,160,78977,1,0,0:0:0:0:
128,160,79045,1,8,0:0:0:0:
128,160,79181,1,8,0:0:0:0:
128,160,79318,1,0,0:0:0:0:
128,160,79454,1,8,0:0:0:0:
128,160,79522,1,0,0:0:0:0:
160,160,79727,1,12,0:0:0:0:
256,160,79863,1,0,0:0:0:0:
256,160,80000,1,8,0:0:0:0:
256,160,80136,1,0,0:0:0:0:
256,128,80204,1,0,0:0:0:0:
256,128,80272,1,8,0:0:0:0:
128,96,80409,1,8,0:0:0:0:
256,128,80454,1,8,0:0:0:0:
256,128,80500,1,8,0:0:0:0:
256,128,80545,1,0,0:0:0:0:
256,128,80681,1,8,0:0:0:0:
256,128,80750,1,0,0:0:0:0:
256,128,80818,1,0,0:0:0:0:
256,128,80954,1,8,0:0:0:0:
256,128,81000,1,8,0:0:0:0:
256,128,81045,1,8,0:0:0:0:
256,128,81090,1,0,0:0:0:0:
256,128,81159,1,0,0:0:0:0:
256,128,81227,1,0,0:0:0:0:
256,128,81363,1,8,0:0:0:0:
224,160,81500,1,8,0:0:0:0:
224,160,81545,1,8,0:0:0:0:
224,160,81590,1,8,0:0:0:0:
224,160,81636,1,0,0:0:0:0:
256,128,81772,1,8,0:0:0:0:
256,96,81840,1,0,0:0:0:0:
256,96,81909,1,0,0:0:0:0:
256,160,82045,1,8,0:0:0:0:
256,160,82090,1,8,0:0:0:0:
256,160,82136,1,8,0:0:0:0:
256,160,82181,1,0,0:0:0:0:
256,160,82318,1,8,0:0:0:0:
224,160,82386,1,0,0:0:0:0:
256,160,82454,1,8,0:0:0:0:
224,160,82590,1,0,0:0:0:0:
224,128,82636,1,8,0:0:0:0:
96,128,82681,1,8,0:0:0:0:
224,160,82727,1,0,0:0:0:0:
224,128,82863,1,0,0:0:0:0:
256,128,83000,1,8,0:0:0:0:
256,128,83045,1,8,0:0:0:0:
64,160,83090,1,8,0:0:0:0:
256,128,83136,1,8,0:0:0:0:
256,128,83181,1,8,0:0:0:0:
256,128,83227,1,8,0:0:0:0:
224,128,83272,1,0,0:0:0:0:
256,128,83340,1,0,0:0:0:0:
256,128,83409,1,0,0:0:0:0:
256,160,83477,1,0,0:0:0:0:
256,128,83545,1,0,0:0:0:0:
256,128,83613,1,0,0:0:0:0:
256,128,83681,1,0,0:0:0:0:
192,160,83750,1,0,0:0:0:0:
192,160,83818,1,8,0:0:0:0:
192,32,84090,1,4,0:0:0:0:
96,96,84226,1,0,0:0:0:0:
96,96,84294,1,0,0:0:0:0:
192,128,84362,1,8,0:0:0:0:
192,128,84499,1,0,0:0:0:0:
192,128,84635,1,0,0:0:0:0:
128,160,84771,1,0,0:0:0:0:
128,160,84840,1,8,0:0:0:0:
128,128,84908,1,0,0:0:0:0:
192,96,85044,1,8,0:0:0:0:
192,96,85112,1,8,0:0:0:0:
192,96,85180,1,8,0:0:0:0:
192,96,85317,1,0,0:0:0:0:
128,128,85385,1,8,0:0:0:0:
192,96,85453,1,0,0:0:0:0:
128,128,85590,1,8,0:0:0:0:
128,128,85658,1,8,0:0:0:0:
192,64,85726,1,0,0:0:0:0:
288,160,85862,1,8,0:0:0:0:
288,160,85930,1,0,0:0:0:0:
192,128,85999,1,8,0:0:0:0:
288,160,86135,1,0,0:0:0:0:
288,160,86203,1,8,0:0:0:0:
288,160,86271,1,0,0:0:0:0:
256,160,86408,1,8,0:0:0:0:
288,160,86476,1,0,0:0:0:0:
288,160,86544,1,8,0:0:0:0:
256,160,86680,1,0,0:0:0:0:
256,160,86817,1,0,0:0:0:0:
256,160,86953,1,8,0:0:0:0:
256,160,87021,1,8,0:0:0:0:
256,160,87090,1,0,0:0:0:0:
256,160,87226,1,0,0:0:0:0:
256,160,87362,1,8,0:0:0:0:
256,160,87430,1,0,0:0:0:0:
256,160,87499,1,0,0:0:0:0:
256,160,87567,1,0,0:0:0:0:
256,160,87635,1,8,0:0:0:0:
256,160,87703,1,8,0:0:0:0:
256,160,87771,1,0,0:0:0:0:
256,160,87840,1,0,0:0:0:0:
352,96,87908,1,8,0:0:0:0:
288,192,88317,1,8,0:0:0:0:
288,192,88453,1,4,0:0:0:0:
224,128,88589,1,0,0:0:0:0:
160,128,88725,1,8,0:0:0:0:
224,128,88862,1,8,0:0:0:0:
288,192,88930,1,0,0:0:0:0:
288,192,88998,1,8,0:0:0:0:
224,128,89134,1,0,0:0:0:0:
224,128,89271,1,8,0:0:0:0:
224,128,89407,1,8,0:0:0:0:
288,192,89543,1,0,0:0:0:0:
288,192,89680,1,0,0:0:0:0:
224,128,89816,1,8,0:0:0:0:
224,128,89953,1,8,0:0:0:0:
224,128,90021,1,0,0:0:0:0:
224,128,90089,1,8,0:0:0:0:
224,128,90225,1,0,0:0:0:0:
224,128,90293,1,0,0:0:0:0:
224,128,90362,1,8,0:0:0:0:
224,128,90498,1,8,0:0:0:0:
224,128,90634,1,0,0:0:0:0:
224,128,90771,1,0,0:0:0:0:
224,128,90907,1,8,0:0:0:0:
224,128,91043,1,8,0:0:0:0:
224,128,91112,1,0,0:0:0:0:
224,128,91180,1,8,0:0:0:0:
224,128,91316,1,0,0:0:0:0:
224,128,91453,1,8,0:0:0:0:
224,128,91589,1,8,0:0:0:0:
224,128,91725,1,0,0:0:0:0:
224,128,91862,1,0,0:0:0:0:
224,128,91930,1,0,0:0:0:0:
224,128,91998,1,8,0:0:0:0:
224,128,92134,1,8,0:0:0:0:
224,128,92203,1,0,0:0:0:0:
224,128,92271,1,8,0:0:0:0:
224,128,92407,1,0,0:0:0:0:
224,128,92475,1,8,0:0:0:0:
224,128,92543,1,0,0:0:0:0:
224,128,92680,1,8,0:0:0:0:
224,128,92816,1,8,0:0:0:0:
224,128,92884,1,8,0:0:0:0:
224,128,92953,1,0,0:0:0:0:
224,128,93021,1,0,0:0:0:0:
224,128,93089,1,8,0:0:0:0:
224,128,93157,1,8,0:0:0:0:
224,128,93225,1,0,0:0:0:0:
224,96,93293,1,0,0:0:0:0:
224,96,93362,1,8,0:0:0:0:
224,96,93430,1,8,0:0:0:0:
224,96,93498,1,0,0:0:0:0:
224,96,93566,1,0,0:0:0:0:
224,96,93634,1,8,0:0:0:0:
224,96,93703,1,8,0:0:0:0:
224,96,93771,1,0,0:0:0:0:
224,96,93839,1,0,0:0:0:0:
224,96,93907,1,8,0:0:0:0:
224,96,93975,1,8,0:0:0:0:
224,96,94043,1,0,0:0:0:0:
224,96,94112,1,0,0:0:0:0:
224,96,94180,1,8,0:0:0:0:
224,96,94248,1,8,0:0:0:0:
224,96,94316,1,0,0:0:0:0:
224,96,94384,1,0,0:0:0:0:
224,96,94453,1,8,0:0:0:0:
224,96,94521,1,8,0:0:0:0:
224,96,94589,1,0,0:0:0:0:
224,96,94657,1,0,0:0:0:0:
224,96,94725,1,8,0:0:0:0:
224,96,94793,1,8,0:0:0:0:
224,96,94862,1,0,0:0:0:0:
224,96,94930,1,0,0:0:0:0:
224,96,94998,1,8,0:0:0:0:
224,96,95066,1,0,0:0:0:0:
224,96,95134,1,8,0:0:0:0:
224,96,95203,1,0,0:0:0:0:
224,96,95271,1,8,0:0:0:0:
224,96,95339,1,0,0:0:0:0:
224,96,95407,1,8,0:0:0:0:
224,96,95475,1,0,0:0:0:0:
224,96,95543,1,8,0:0:0:0:
224,96,95612,1,0,0:0:0:0:
224,96,95680,1,8,0:0:0:0:
224,96,95748,1,0,0:0:0:0:
224,96,95816,1,8,0:0:0:0:
224,96,95884,1,0,0:0:0:0:
224,96,95953,1,8,0:0:0:0:
224,96,96021,1,0,0:0:0:0:
224,96,96089,1,8,0:0:0:0:
256,160,96771,1,0,0:0:0:0:
256,160,96907,1,8,0:0:0:0:
256,160,97180,1,4,0:0:0:0:
256,160,97589,1,8,0:0:0:0:
224,160,97725,1,0,0:0:0:0:
224,160,97861,1,0,0:0:0:0:
224,160,97998,1,8,0:0:0:0:
224,160,98134,1,0,0:0:0:0:
224,160,98543,1,0,0:0:0:0:
224,160,98680,1,8,0:0:0:0:
224,160,98816,1,8,0:0:0:0:
224,160,98952,1,0,0:0:0:0:
128,160,99089,1,8,0:0:0:0:
320,192,99225,1,8,0:0:0:0:
96,160,99361,1,0,0:0:0:0:
96,160,99430,1,0,0:0:0:0:
96,160,99498,1,0,0:0:0:0:
96,160,99566,1,0,0:0:0:0:
192,288,99634,1,0,0:0:0:0:
192,128,99770,1,8,0:0:0:0:
192,128,99839,1,8,0:0:0:0:
203,291,99907,1,8,0:0:0:0:
119,158,99975,1,8,0:0:0:0:
192,128,100043,1,8,0:0:0:0:
251,218,100180,1,0,0:0:0:0:
119,158,100248,1,0,0:0:0:0:
251,218,100316,1,0,0:0:0:0:
251,218,100384,1,0,0:0:0:0:
251,218,100452,1,0,0:0:0:0:
251,218,100589,1,8,0:0:0:0:
251,218,100657,1,8,0:0:0:0:
119,158,100725,1,8,0:0:0:0:
128,128,100793,1,8,0:0:0:0:
224,128,100861,1,8,0:0:0:0:
119,158,100930,1,0,0:0:0:0:
121,168,100998,1,12,0:0:0:0:
160,192,101270,1,4,0:0:0:0:
128,96,101543,1,0,0:0:0:0:
128,160,101952,1,0,0:0:0:0:
128,96,102224,1,0,0:0:0:0:
128,160,102361,1,8,0:0:0:0:
128,160,102497,1,0,0:0:0:0:
128,96,102906,1,0,0:0:0:0:
128,160,103315,1,0,0:0:0:0:
128,160,103452,1,8,0:0:0:0:
128,96,103724,1,0,0:0:0:0:
128,160,103861,1,0,0:0:0:0:
128,160,103997,1,8,0:0:0:0:
128,160,104133,1,0,0:0:0:0:
128,96,104202,1,0,0:0:0:0:
128,160,104270,1,0,0:0:0:0:
128,96,104406,1,0,0:0:0:0:
128,160,104543,1,8,0:0:0:0:
128,160,104679,1,0,0:0:0:0:
128,160,104815,1,0,0:0:0:0:
128,160,104952,1,8,0:0:0:0:
128,96,105088,1,0,0:0:0:0:
128,160,105224,1,0,0:0:0:0:
128,128,105293,1,0,0:0:0:0:
128,160,105361,1,0,0:0:0:0:
128,160,105497,1,0,0:0:0:0:
128,160,105633,1,8,0:0:0:0:
256,160,105906,1,4,0:0:0:0:
256,160,106315,1,8,0:0:0:0:
224,160,106451,1,0,0:0:0:0:
224,160,106587,1,0,0:0:0:0:
224,160,106724,1,8,0:0:0:0:
224,160,106860,1,0,0:0:0:0:
224,160,107269,1,0,0:0:0:0:
224,160,107406,1,8,0:0:0:0:
224,160,107542,1,8,0:0:0:0:
224,160,107678,1,0,0:0:0:0:
128,160,107815,1,8,0:0:0:0:
320,192,107951,1,8,0:0:0:0:
96,160,108087,1,0,0:0:0:0:
96,160,108156,1,0,0:0:0:0:
96,160,108224,1,0,0:0:0:0:
96,160,108292,1,0,0:0:0:0:
192,288,108360,1,0,0:0:0:0:
192,128,108496,1,8,0:0:0:0:
192,128,108565,1,8,0:0:0:0:
203,291,108633,1,8,0:0:0:0:
119,158,108701,1,8,0:0:0:0:
192,128,108769,1,8,0:0:0:0:
251,218,108906,1,0,0:0:0:0:
119,158,108974,1,0,0:0:0:0:
251,218,109042,1,0,0:0:0:0:
251,218,109110,1,0,0:0:0:0:
251,218,109178,1,0,0:0:0:0:
251,218,109315,1,8,0:0:0:0:
251,218,109383,1,8,0:0:0:0:
119,158,109451,1,8,0:0:0:0:
128,128,109519,1,8,0:0:0:0:
224,128,109587,1,8,0:0:0:0:
119,158,109656,1,0,0:0:0:0:
121,168,109724,1,12,0:0:0:0:
160,192,109996,1,4,0:0:0:0:
320,64,110270,1,0,0:0:0:0:
320,64,110338,1,0,0:0:0:0:
320,64,110406,1,0,0:0:0:0:
320,64,110474,1,0,0:0:0:0:
320,64,110543,1,8,0:0:0:0:
320,64,110611,1,0,0:0:0:0:
320,64,110679,1,0,0:0:0:0:
320,64,110747,1,0,0:0:0:0:
320,64,110815,1,8,0:0:0:0:
320,64,110883,1,0,0:0:0:0:
320,64,110952,1,0,0:0:0:0:
320,64,111020,1,0,0:0:0:0:
320,64,111088,1,8,0:0:0:0:
320,64,111156,1,0,0:0:0:0:
320,64,111224,1,0,0:0:0:0:
320,64,111293,1,0,0:0:0:0:
320,64,111361,1,8,0:0:0:0:
320,64,111429,1,0,0:0:0:0:
320,64,111497,1,0,0:0:0:0:
320,64,111565,1,0,0:0:0:0:
320,64,111633,1,8,0:0:0:0:
320,64,111702,1,0,0:0:0:0:
320,64,111770,1,0,0:0:0:0:
320,64,111838,1,0,0:0:0:0:
320,64,111906,1,8,0:0:0:0:
320,64,111974,1,0,0:0:0:0:
320,64,112043,1,0,0:0:0:0:
320,64,112111,1,0,0:0:0:0:
320,64,112179,1,8,0:0:0:0:
320,64,112247,1,0,0:0:0:0:
320,64,112315,1,0,0:0:0:0:
320,64,112383,1,0,0:0:0:0:
320,64,112452,1,8,0:0:0:0:
320,64,112520,1,0,0:0:0:0:
320,64,112588,1,8,0:0:0:0:
320,64,112656,1,0,0:0:0:0:
320,64,112724,1,8,0:0:0:0:
320,64,112793,1,0,0:0:0:0:
320,64,112861,1,8,0:0:0:0:
320,64,112929,1,0,0:0:0:0:
320,64,112997,1,8,0:0:0:0:
320,64,113065,1,0,0:0:0:0:
320,64,113133,1,8,0:0:0:0:
320,64,113202,1,0,0:0:0:0:
320,64,113270,1,8,0:0:0:0:
320,64,113338,1,0,0:0:0:0:
320,64,113406,1,8,0:0:0:0:
320,64,113474,1,0,0:0:0:0:
320,64,113543,1,8,0:0:0:0:
320,64,113611,1,8,0:0:0:0:
320,64,113679,1,8,0:0:0:0:
320,64,113747,1,8,0:0:0:0:
320,64,113815,1,8,0:0:0:0:
320,64,113883,1,8,0:0:0:0:
320,64,113952,1,8,0:0:0:0:
320,64,114020,1,8,0:0:0:0:
320,64,114088,1,8,0:0:0:0:
320,64,114156,1,8,0:0:0:0:
320,64,114224,1,8,0:0:0:0:
320,64,114293,1,8,0:0:0:0:
320,64,114361,1,8,0:0:0:0:
320,64,114497,1,0,0:0:0:0:
256,160,114633,1,4,0:0:0:0:
256,160,115042,1,8,0:0:0:0:
224,160,115179,1,0,0:0:0:0:
224,160,115315,1,0,0:0:0:0:
224,160,115451,1,8,0:0:0:0:
224,160,115588,1,0,0:0:0:0:
224,160,115997,1,0,0:0:0:0:
224,160,116133,1,8,0:0:0:0:
224,160,116270,1,8,0:0:0:0:
224,160,116406,1,0,0:0:0:0:
128,160,116542,1,8,0:0:0:0:
320,192,116679,1,8,0:0:0:0:
96,160,116815,1,0,0:0:0:0:
96,160,116883,1,0,0:0:0:0:
96,160,116951,1,0,0:0:0:0:
96,160,117020,1,0,0:0:0:0:
192,288,117088,1,0,0:0:0:0:
192,128,117224,1,8,0:0:0:0:
192,128,117292,5,8,0:0:0:0:
203,291,117360,1,8,0:0:0:0:
119,158,117429,1,8,0:0:0:0:
192,128,117497,1,8,0:0:0:0:
251,218,117633,1,0,0:0:0:0:
119,158,117701,1,0,0:0:0:0:
251,218,117770,1,0,0:0:0:0:
251,218,117838,1,0,0:0:0:0:
251,218,117906,1,0,0:0:0:0:
251,218,118042,1,8,0:0:0:0:
251,218,118110,1,8,0:0:0:0:
119,158,118179,1,8,0:0:0:0:
128,128,118247,1,8,0:0:0:0:
224,128,118315,1,8,0:0:0:0:
119,158,118383,1,0,0:0:0:0:
224,160,118451,5,12,0:0:0:0:
256,128,118724,1,4,0:0:0:0:
416,128,118997,1,0,0:0:0:0:
128,160,119406,1,0,0:0:0:0:
128,96,119678,1,0,0:0:0:0:
128,160,119815,1,8,0:0:0:0:
128,160,119951,1,0,0:0:0:0:
128,96,120360,1,0,0:0:0:0:
128,160,120769,1,0,0:0:0:0:
128,160,120906,1,8,0:0:0:0:
128,96,121178,1,0,0:0:0:0:
128,160,121315,1,0,0:0:0:0:
128,160,121451,1,8,0:0:0:0:
128,160,121587,1,0,0:0:0:0:
128,96,121656,1,0,0:0:0:0:
128,160,121724,1,0,0:0:0:0:
128,96,121860,1,0,0:0:0:0:
128,160,121997,1,8,0:0:0:0:
128,160,122133,1,0,0:0:0:0:
128,160,122269,1,0,0:0:0:0:
128,160,122406,1,8,0:0:0:0:
128,96,122542,1,0,0:0:0:0:
128,160,122678,1,0,0:0:0:0:
128,128,122747,1,0,0:0:0:0:
128,160,122815,1,0,0:0:0:0:
128,160,122951,1,0,0:0:0:0:
128,160,123087,1,8,0:0:0:0:
288,192,123224,5,8,0:0:0:0:
288,192,123360,1,4,0:0:0:0:
224,128,123497,1,0,0:0:0:0:
160,128,123633,1,8,0:0:0:0:
224,128,123769,1,8,0:0:0:0:
288,192,123837,1,0,0:0:0:0:
288,192,123906,1,8,0:0:0:0:
224,128,124042,1,0,0:0:0:0:
224,128,124178,1,8,0:0:0:0:
224,128,124315,1,8,0:0:0:0:
288,192,124451,1,0,0:0:0:0:
288,192,124587,1,0,0:0:0:0:
224,128,124724,1,8,0:0:0:0:
224,128,124860,1,8,0:0:0:0:
224,128,124928,1,0,0:0:0:0:
224,128,124997,1,8,0:0:0:0:
224,128,125133,1,0,0:0:0:0:
224,128,125201,1,0,0:0:0:0:
224,128,125269,1,8,0:0:0:0:
224,128,125406,1,8,0:0:0:0:
224,128,125542,1,0,0:0:0:0:
224,128,125678,1,0,0:0:0:0:
224,128,125815,1,8,0:0:0:0:
224,128,125951,1,8,0:0:0:0:
224,128,126019,1,0,0:0:0:0:
224,128,126087,1,8,0:0:0:0:
224,128,126224,1,0,0:0:0:0:
224,128,126360,1,8,0:0:0:0:
224,128,126497,1,8,0:0:0:0:
224,128,126633,1,0,0:0:0:0:
224,128,126769,1,0,0:0:0:0:
224,128,126837,1,0,0:0:0:0:
224,128,126906,1,8,0:0:0:0:
224,128,127042,1,8,0:0:0:0:
224,128,127110,1,0,0:0:0:0:
224,128,127178,1,8,0:0:0:0:
224,128,127315,1,0,0:0:0:0:
224,128,127383,1,8,0:0:0:0:
224,128,127451,1,0,0:0:0:0:
224,128,127587,1,8,0:0:0:0:
224,128,127724,1,8,0:0:0:0:
160,64,127792,1,8,0:0:0:0:
160,64,127860,1,0,0:0:0:0:
160,64,127928,1,0,0:0:0:0:
160,64,127997,1,8,0:0:0:0:
160,64,128065,1,8,0:0:0:0:
160,64,128133,1,0,0:0:0:0:
160,64,128201,1,0,0:0:0:0:
160,64,128269,1,8,0:0:0:0:
160,64,128337,1,8,0:0:0:0:
96,160,128406,1,0,0:0:0:0:
128,160,128474,1,0,0:0:0:0:
224,128,128542,1,8,0:0:0:0:
160,64,128610,1,8,0:0:0:0:
160,64,128678,1,0,0:0:0:0:
160,64,128747,1,0,0:0:0:0:
160,64,128815,1,8,0:0:0:0:
160,64,128883,1,8,0:0:0:0:
160,64,128951,1,0,0:0:0:0:
160,64,129019,1,0,0:0:0:0:
160,64,129087,1,8,0:0:0:0:
160,64,129156,1,8,0:0:0:0:
224,96,129224,1,0,0:0:0:0:
224,96,129292,1,0,0:0:0:0:
192,128,129360,1,8,0:0:0:0:
192,128,129428,1,8,0:0:0:0:
160,160,129497,1,0,0:0:0:0:
160,160,129565,1,0,0:0:0:0:
128,160,129633,1,8,0:0:0:0:
384,128,129701,1,8,0:0:0:0:
128,160,129769,1,0,0:0:0:0:
128,160,129837,1,0,0:0:0:0:
128,160,129906,1,8,0:0:0:0:
128,160,129974,1,0,0:0:0:0:
128,160,130042,1,8,0:0:0:0:
128,160,130110,1,0,0:0:0:0:
128,160,130178,1,8,0:0:0:0:
128,160,130247,1,0,0:0:0:0:
128,160,130315,1,8,0:0:0:0:
128,160,130383,1,0,0:0:0:0:
128,160,130451,1,8,0:0:0:0:
128,160,130519,1,0,0:0:0:0:
128,160,130587,1,8,0:0:0:0:
128,160,130656,1,0,0:0:0:0:
128,160,130724,1,8,0:0:0:0:
128,160,130792,1,0,0:0:0:0:
128,160,130860,1,8,0:0:0:0:
128,160,130928,1,0,0:0:0:0:
128,160,130997,1,8,0:0:0:0:
128,160,131065,1,0,0:0:0:0:
128,160,131133,1,8,0:0:0:0:
128,160,131201,1,0,0:0:0:0:
128,160,131269,1,8,0:0:0:0:
128,160,131337,1,0,0:0:0:0:
192,96,131406,1,8,0:0:0:0:
192,96,131474,1,0,0:0:0:0:
192,96,131542,1,8,0:0:0:0:
352,128,132087,1,4,0:0:0:0:
256,192,132496,1,0,0:0:0:0:
256,192,132632,1,8,0:0:0:0:
256,192,132905,1,0,0:0:0:0:
256,192,133177,1,8,0:0:0:0:
256,192,133314,1,0,0:0:0:0:
256,192,133450,1,0,0:0:0:0:
256,192,133723,1,8,0:0:0:0:
256,192,133996,1,0,0:0:0:0:
256,192,134268,1,8,0:0:0:0:
256,192,134677,1,0,0:0:0:0:
256,192,134814,1,8,0:0:0:0:
256,192,135087,1,0,0:0:0:0:
256,192,135359,1,8,0:0:0:0:
256,192,135496,1,0,0:0:0:0:
256,192,135632,1,0,0:0:0:0:
256,192,135905,1,8,0:0:0:0:
256,192,136450,1,0,0:0:0:0:
256,192,136859,1,0,0:0:0:0:
256,192,136996,1,8,0:0:0:0:
256,192,137268,1,0,0:0:0:0:
256,192,137541,1,8,0:0:0:0:
256,192,137677,1,0,0:0:0:0:
256,192,137814,1,0,0:0:0:0:
256,192,138087,1,8,0:0:0:0:
256,192,138359,1,0,0:0:0:0:
256,192,138632,1,8,0:0:0:0:
256,192,139041,1,0,0:0:0:0:
256,192,139177,1,8,0:0:0:0:
160,192,139450,1,0,0:0:0:0:
160,192,139723,1,8,0:0:0:0:
160,192,139859,1,0,0:0:0:0:
160,192,139996,1,0,0:0:0:0:
160,192,140132,1,0,0:0:0:0:
160,192,140268,1,8,0:0:0:0:
160,192,140814,1,0,0:0:0:0:
160,192,141223,1,0,0:0:0:0:
160,192,141359,1,8,0:0:0:0:
160,192,141632,1,0,0:0:0:0:
160,192,141905,1,8,0:0:0:0:
160,192,142041,1,0,0:0:0:0:
160,192,142177,1,0,0:0:0:0:
160,192,142450,1,8,0:0:0:0:
160,192,142723,1,0,0:0:0:0:
160,192,142996,1,8,0:0:0:0:
160,192,143405,1,0,0:0:0:0:
160,192,143541,1,8,0:0:0:0:
160,192,143814,1,0,0:0:0:0:
160,192,144087,1,8,0:0:0:0:
160,192,144223,1,0,0:0:0:0:
160,192,144359,1,0,0:0:0:0:
160,192,144632,1,8,0:0:0:0:
160,192,145177,1,4,0:0:0:0:
160,192,145587,1,4,0:0:0:0:
160,192,145723,1,4,0:0:0:0:
224,352,145996,1,4,0:0:0:0:
224,352,146405,1,4,0:0:0:0:
224,352,146541,1,4,0:0:0:0:
224,352,146814,1,4,0:0:0:0:
224,352,147087,1,4,0:0:0:0:
352,192,147359,1,4,0:0:0:0:
288,160,147768,1,4,0:0:0:0:
288,160,147905,1,4,0:0:0:0:
288,128,148177,1,4,0:0:0:0:
256,96,148450,1,8,0:0:0:0:
192,96,148496,1,8,0:0:0:0:
192,96,148541,1,8,0:0:0:0:
192,96,148587,1,0,0:0:0:0:
416,160,148723,1,8,0:0:0:0:
416,128,148768,1,8,0:0:0:0:
416,160,148814,1,8,0:0:0:0:
416,160,148859,1,0,0:0:0:0:
384,96,148996,1,8,0:0:0:0:
320,96,149087,1,8,0:0:0:0:
320,96,149177,1,0,0:0:0:0:
320,96,149268,1,0,0:0:0:0:
192,128,149359,1,8,0:0:0:0:
288,192,149450,1,0,0:0:0:0:
288,192,149542,1,4,0:0:0:0:
224,128,149677,1,0,0:0:0:0:
160,128,149814,1,8,0:0:0:0:
224,128,149950,1,8,0:0:0:0:
288,192,150018,1,0,0:0:0:0:
288,192,150087,1,8,0:0:0:0:
224,128,150223,1,0,0:0:0:0:
224,128,150359,1,8,0:0:0:0:
224,128,150496,1,8,0:0:0:0:
288,192,150632,1,0,0:0:0:0:
288,192,150768,1,0,0:0:0:0:
224,128,150905,1,8,0:0:0:0:
224,128,151041,1,8,0:0:0:0:
224,128,151109,1,0,0:0:0:0:
224,128,151177,1,8,0:0:0:0:
224,128,151314,1,0,0:0:0:0:
224,128,151383,1,0,0:0:0:0:
224,128,151450,1,8,0:0:0:0:
224,128,151587,1,8,0:0:0:0:
224,128,151723,1,0,0:0:0:0:
224,128,151859,1,0,0:0:0:0:
224,128,151996,1,8,0:0:0:0:
224,128,152132,1,8,0:0:0:0:
224,128,152200,1,0,0:0:0:0:
224,128,152268,1,8,0:0:0:0:
224,128,152405,1,0,0:0:0:0:
224,128,152541,1,8,0:0:0:0:
224,128,152677,1,8,0:0:0:0:
224,128,152814,1,0,0:0:0:0:
224,128,152950,1,0,0:0:0:0:
224,128,153018,1,0,0:0:0:0:
224,128,153087,1,8,0:0:0:0:
224,128,153223,1,8,0:0:0:0:
224,128,153291,1,0,0:0:0:0:
224,128,153359,1,8,0:0:0:0:
224,128,153496,1,0,0:0:0:0:
224,128,153564,1,8,0:0:0:0:
224,128,153632,1,0,0:0:0:0:
224,128,153768,1,8,0:0:0:0:
224,128,153905,1,0,0:0:0:0:
224,192,154041,1,8,0:0:0:0:
224,192,154177,1,8,0:0:0:0:
224,192,154314,1,8,0:0:0:0:
224,192,154382,1,0,0:0:0:0:
224,192,154450,1,8,0:0:0:0:
224,192,154587,1,0,0:0:0:0:
224,192,154723,1,8,0:0:0:0:
224,192,154859,1,8,0:0:0:0:
224,192,154996,1,0,0:0:0:0:
224,192,155132,1,0,0:0:0:0:
224,192,155268,1,8,0:0:0:0:
224,192,155405,1,8,0:0:0:0:
224,192,155473,1,0,0:0:0:0:
224,192,155541,1,8,0:0:0:0:
224,192,155677,1,0,0:0:0:0:
224,192,155746,1,0,0:0:0:0:
224,192,155814,1,8,0:0:0:0:
224,192,155950,1,8,0:0:0:0:
224,192,156087,1,0,0:0:0:0:
224,192,156223,1,0,0:0:0:0:
224,192,156359,1,8,0:0:0:0:
224,192,156496,1,8,0:0:0:0:
224,192,156564,1,0,0:0:0:0:
224,192,156632,1,8,0:0:0:0:
224,192,156768,1,0,0:0:0:0:
224,192,156905,1,8,0:0:0:0:
224,192,157041,1,8,0:0:0:0:
224,192,157177,1,0,0:0:0:0:
224,192,157314,1,0,0:0:0:0:
224,192,157382,1,0,0:0:0:0:
224,192,157450,1,8,0:0:0:0:
224,192,157587,1,8,0:0:0:0:
224,192,157655,1,0,0:0:0:0:
224,192,157723,1,8,0:0:0:0:
224,192,157859,1,0,0:0:0:0:
224,192,157927,1,8,0:0:0:0:
224,192,157996,1,0,0:0:0:0:
224,192,158132,1,8,0:0:0:0:
224,192,158268,1,8,0:0:0:0:
224,192,158405,1,0,0:0:0:0:
224,192,158541,1,0,0:0:0:0:
224,192,158677,1,8,0:0:0:0:
224,192,158814,1,0,0:0:0:0:
224,192,158950,1,0,0:0:0:0:
224,192,159087,1,8,0:0:0:0:
224,192,159223,1,0,0:0:0:0:
224,192,159359,1,8,0:0:0:0:
224,192,159496,1,0,0:0:0:0:
224,192,159632,1,0,0:0:0:0:
256,192,159768,1,8,0:0:0:0:
256,192,159905,1,0,0:0:0:0:
256,192,160041,1,0,0:0:0:0:
256,192,160177,1,8,0:0:0:0:
256,192,160314,1,0,0:0:0:0:
256,192,160450,1,8,0:0:0:0:
256,192,160587,1,0,0:0:0:0:
256,192,160723,1,0,0:0:0:0:
256,192,160859,1,8,0:0:0:0:
256,192,160996,1,0,0:0:0:0:
256,192,161132,1,0,0:0:0:0:
256,192,161268,1,8,0:0:0:0:
256,192,161405,1,0,0:0:0:0:
256,160,161541,1,8,0:0:0:0:
256,160,161677,1,0,0:0:0:0:
256,192,161814,1,0,0:0:0:0:
256,192,161950,1,8,0:0:0:0:
256,192,162087,1,0,0:0:0:0:
256,192,162223,1,0,0:0:0:0:
256,192,162359,1,8,0:0:0:0:
256,192,162496,1,0,0:0:0:0:
256,192,162632,1,8,0:0:0:0:
96,160,162700,1,0,0:0:0:0:
96,160,162768,1,0,0:0:0:0:
96,160,162837,1,0,0:0:0:0:
96,160,162905,1,8,0:0:0:0:
96,160,162973,1,0,0:0:0:0:
96,160,163041,1,0,0:0:0:0:
96,160,163109,1,0,0:0:0:0:
96,160,163177,1,8,0:0:0:0:
256,160,163246,1,0,0:0:0:0:
96,160,163314,1,0,0:0:0:0:
96,160,163382,1,0,0:0:0:0:
96,160,163450,1,8,0:0:0:0:
96,160,163518,1,0,0:0:0:0:
96,160,163587,1,0,0:0:0:0:
256,160,163655,1,0,0:0:0:0:
256,160,163723,1,8,0:0:0:0:
96,160,163791,1,0,0:0:0:0:
256,160,163859,1,0,0:0:0:0:
96,160,163927,1,0,0:0:0:0:
256,160,163996,1,8,0:0:0:0:
256,160,164064,1,0,0:0:0:0:
96,160,164132,1,0,0:0:0:0:
96,160,164200,1,0,0:0:0:0:
96,160,164268,1,8,0:0:0:0:
96,160,164337,1,0,0:0:0:0:
96,160,164405,1,0,0:0:0:0:
256,160,164473,1,0,0:0:0:0:
256,160,164541,1,8,0:0:0:0:
96,160,164609,1,0,0:0:0:0:
256,160,164677,1,0,0:0:0:0:
96,160,164746,1,0,0:0:0:0:
96,160,164814,1,8,0:0:0:0:
160,128,164882,1,8,0:0:0:0:
160,128,164950,1,0,0:0:0:0:
160,128,165018,1,0,0:0:0:0:
160,128,165087,1,8,0:0:0:0:
160,128,165155,1,8,0:0:0:0:
160,128,165223,1,0,0:0:0:0:
160,128,165291,1,0,0:0:0:0:
160,128,165359,1,8,0:0:0:0:
160,128,165427,1,0,0:0:0:0:
160,128,165496,1,8,0:0:0:0:
160,128,165564,1,0,0:0:0:0:
256,160,165632,1,8,0:0:0:0:
480,96,165700,1,0,0:0:0:0:
480,96,165768,1,8,0:0:0:0:
160,128,165837,1,0,0:0:0:0:
160,128,165905,1,8,0:0:0:0:
0,160,166587,1,0,0:0:0:0:
0,160,166723,1,8,0:0:0:0:
0,160,166996,1,4,0:0:0:0:
320,160,167268,1,8,0:0:0:0:
224,160,167405,1,0,0:0:0:0:
224,160,167473,1,0,0:0:0:0:
224,160,167541,1,8,0:0:0:0:
224,160,167677,1,8,0:0:0:0:
192,96,167723,1,8,0:0:0:0:
192,96,167768,1,8,0:0:0:0:
224,96,167814,1,0,0:0:0:0:
192,96,167950,1,8,0:0:0:0:
224,192,168087,1,0,0:0:0:0:
215,127,168155,1,0,0:0:0:0:
288,224,168223,1,8,0:0:0:0:
215,127,168359,1,0,0:0:0:0:
96,96,168427,1,0,0:0:0:0:
288,96,168496,1,8,0:0:0:0:
192,96,168541,1,8,0:0:0:0:
192,96,168587,1,8,0:0:0:0:
320,224,168632,1,0,0:0:0:0:
160,128,168768,1,8,0:0:0:0:
160,128,168905,1,8,0:0:0:0:
128,192,168906,2,4,L|160:192,39,26.25
96,96,169177,1,0,0:0:0:0:
448,96,169246,1,8,0:0:0:0:
448,96,169314,1,0,0:0:0:0:
224,96,169382,1,0,0:0:0:0:
224,96,169450,1,8,0:0:0:0:
224,96,169587,1,0,0:0:0:0:
224,96,169655,1,0,0:0:0:0:
224,96,169723,1,8,0:0:0:0:
128,128,169859,1,8,0:0:0:0:
128,128,169905,1,8,0:0:0:0:
128,128,169950,1,8,0:0:0:0:
128,128,169996,1,0,0:0:0:0:
128,96,170132,1,0,0:0:0:0:
128,96,170268,1,8,0:0:0:0:
480,64,170337,1,0,0:0:0:0:
480,64,170405,1,8,0:0:0:0:
160,288,170541,1,0,0:0:0:0:
448,193,170609,1,0,0:0:0:0:
448,192,170677,1,0,0:0:0:0:
192,128,170814,1,8,0:0:0:0:
256,192,170996,1,0,0:0:0:0:
256,192,171177,1,0,0:0:0:0:
256,191,171359,1,8,0:0:0:0:
512,160,171405,1,8,0:0:0:0:
512,160,171450,1,8,0:0:0:0:
256,192,171496,1,0,0:0:0:0:
182,135,171563,1,0,0:0:0:0:
256,192,171632,1,8,0:0:0:0:
256,192,171768,1,0,0:0:0:0:
320,192,171837,1,0,0:0:0:0:
480,64,171905,1,8,0:0:0:0:
480,64,172041,1,8,0:0:0:0:
96,224,172087,1,8,0:0:0:0:
96,224,172132,1,8,0:0:0:0:
96,224,172177,1,0,0:0:0:0:
480,96,172314,1,8,0:0:0:0:
448,160,172450,1,0,0:0:0:0:
480,128,172518,5,0,0:0:0:0:
480,128,172587,1,8,0:0:0:0:
480,128,172723,1,0,0:0:0:0:
192,128,172791,1,0,0:0:0:0:
192,128,172859,1,0,0:0:0:0:
192,128,172996,1,8,0:0:0:0:
192,128,173132,1,0,0:0:0:0:
224,128,173268,1,8,0:0:0:0:
160,160,173337,1,8,0:0:0:0:
192,128,173405,1,0,0:0:0:0:
128,192,173473,1,0,0:0:0:0:
128,192,173541,1,8,0:0:0:0:
128,192,173677,1,8,0:0:0:0:
128,192,173814,1,0,0:0:0:0:
128,192,173950,1,8,0:0:0:0:
128,192,174087,1,8,0:0:0:0:
128,192,174223,1,0,0:0:0:0:
128,192,174359,1,8,0:0:0:0:
128,192,174496,1,0,0:0:0:0:
128,192,174632,1,8,0:0:0:0:
135,182,174768,1,0,0:0:0:0:
288,96,174905,1,0,0:0:0:0:
288,128,174973,1,0,0:0:0:0:
288,128,175041,1,0,0:0:0:0:
288,128,175177,1,8,0:0:0:0:
288,96,175314,1,0,0:0:0:0:
288,96,175450,1,0,0:0:0:0:
288,96,175723,1,4,0:0:0:0:
288,96,175996,1,8,0:0:0:0:
288,96,176132,1,0,0:0:0:0:
288,96,176268,1,8,0:0:0:0:
288,96,176337,1,8,0:0:0:0:
288,96,176405,1,0,0:0:0:0:
288,96,176541,1,12,0:0:0:0:
96,208,176814,1,0,0:0:0:0:
96,208,176882,1,0,0:0:0:0:
96,208,176950,1,8,0:0:0:0:
96,208,177087,1,0,0:0:0:0:
96,208,177155,1,0,0:0:0:0:
96,208,177223,1,0,0:0:0:0:
131,138,177359,1,8,0:0:0:0:
131,138,177496,1,0,0:0:0:0:
160,128,177632,1,8,0:0:0:0:
128,192,177633,2,4,L|160:192,39,26.25
416,96,177905,1,8,0:0:0:0:
256,160,177950,1,8,0:0:0:0:
259,137,177996,1,8,0:0:0:0:
256,160,178041,1,0,0:0:0:0:
352,192,178109,1,0,0:0:0:0:
352,192,178177,1,8,0:0:0:0:
192,128,178314,1,0,0:0:0:0:
352,193,178382,1,0,0:0:0:0:
192,128,178450,1,8,0:0:0:0:
352,192,178587,1,8,0:0:0:0:
192,128,178723,1,0,0:0:0:0:
192,128,178859,1,8,0:0:0:0:
192,128,178996,1,8,0:0:0:0:
192,128,179064,1,0,0:0:0:0:
192,128,179132,1,8,0:0:0:0:
224,192,179268,1,0,0:0:0:0:
192,128,179337,1,0,0:0:0:0:
192,128,179405,1,0,0:0:0:0:
224,192,179541,1,8,0:0:0:0:
224,192,179677,1,0,0:0:0:0:
192,128,179882,1,0,0:0:0:0:
288,224,180087,1,12,0:0:0:0:
128,160,180223,1,0,0:0:0:0:
128,160,180291,1,0,0:0:0:0:
128,160,180359,1,8,0:0:0:0:
128,160,180496,1,8,0:0:0:0:
128,160,180564,1,0,0:0:0:0:
128,160,180632,1,8,0:0:0:0:
128,160,180768,1,0,0:0:0:0:
128,160,180837,1,0,0:0:0:0:
128,160,180905,1,8,0:0:0:0:
128,160,181041,1,8,0:0:0:0:
128,160,181109,1,0,0:0:0:0:
128,160,181177,1,8,0:0:0:0:
128,160,181314,1,0,0:0:0:0:
128,160,181382,1,0,0:0:0:0:
128,160,181450,1,8,0:0:0:0:
128,160,181587,1,8,0:0:0:0:
128,160,181655,1,0,0:0:0:0:
128,160,181723,1,8,0:0:0:0:
128,160,181859,1,0,0:0:0:0:
128,160,181927,1,0,0:0:0:0:
128,160,181996,1,8,0:0:0:0:
128,160,182132,1,8,0:0:0:0:
128,160,182268,1,8,0:0:0:0:
128,160,182337,1,0,0:0:0:0:
128,160,182405,1,0,0:0:0:0:
128,160,182473,1,0,0:0:0:0:
128,160,182541,1,8,0:0:0:0:
128,160,182609,1,0,0:0:0:0:
128,160,182677,1,0,0:0:0:0:
128,160,182746,1,0,0:0:0:0:
128,160,182814,1,8,0:0:0:0:
128,160,182882,1,0,0:0:0:0:
128,160,182950,1,0,0:0:0:0:
128,160,183018,1,0,0:0:0:0:
128,160,183087,1,8,0:0:0:0:
128,160,183155,1,0,0:0:0:0:
128,160,183223,1,0,0:0:0:0:
128,160,183291,1,0,0:0:0:0:
128,160,183359,1,8,0:0:0:0:
96,128,183427,1,0,0:0:0:0:
96,128,183496,1,8,0:0:0:0:
128,128,183564,1,0,0:0:0:0:
128,128,183632,1,8,0:0:0:0:
96,128,183700,1,0,0:0:0:0:
96,128,183768,1,8,0:0:0:0:
128,128,183837,1,0,0:0:0:0:
128,128,183905,1,8,0:0:0:0:
128,128,183973,1,0,0:0:0:0:
128,128,184041,1,8,0:0:0:0:
128,128,184109,1,0,0:0:0:0:
128,160,184177,1,8,0:0:0:0:
382,136,184314,1,0,0:0:0:0:
128,128,184450,1,12,0:0:0:0:
384,160,184587,1,0,0:0:0:0:
384,160,184723,1,8,0:0:0:0:
160,128,184859,1,0,0:0:0:0:
160,128,184996,1,8,0:0:0:0:
96,128,185132,1,8,0:0:0:0:
160,128,185177,1,8,0:0:0:0:
224,96,185223,1,8,0:0:0:0:
160,128,185268,1,0,0:0:0:0:
96,128,185405,1,8,0:0:0:0:
96,128,185473,1,0,0:0:0:0:
160,128,185541,1,0,0:0:0:0:
96,128,185677,1,8,0:0:0:0:
160,128,185723,1,8,0:0:0:0:
192,96,185768,1,8,0:0:0:0:
96,128,185814,1,0,0:0:0:0:
96,128,185882,1,0,0:0:0:0:
128,192,185950,1,0,0:0:0:0:
128,192,186087,1,8,0:0:0:0:
128,192,186223,1,8,0:0:0:0:
448,128,186268,1,8,0:0:0:0:
448,128,186314,1,8,0:0:0:0:
448,128,186359,1,0,0:0:0:0:
224,96,186496,1,8,0:0:0:0:
224,96,186564,1,0,0:0:0:0:
224,96,186632,1,0,0:0:0:0:
224,96,186768,1,8,0:0:0:0:
416,224,186814,1,8,0:0:0:0:
416,224,186859,1,8,0:0:0:0:
416,224,186905,1,0,0:0:0:0:
416,128,187041,1,0,0:0:0:0:
416,128,187109,1,0,0:0:0:0:
416,128,187177,1,8,0:0:0:0:
96,96,187314,1,0,0:0:0:0:
96,96,187359,1,8,0:0:0:0:
96,96,187405,1,8,0:0:0:0:
96,96,187450,1,0,0:0:0:0:
96,96,187587,1,8,0:0:0:0:
416,128,187723,1,8,0:0:0:0:
96,96,187768,1,8,0:0:0:0:
416,128,187814,1,8,0:0:0:0:
416,128,187859,1,8,0:0:0:0:
384,160,187905,1,8,0:0:0:0:
96,96,187950,1,8,0:0:0:0:
384,160,187996,1,0,0:0:0:0:
384,160,188064,1,0,0:0:0:0:
384,160,188132,1,0,0:0:0:0:
384,160,188200,1,0,0:0:0:0:
96,192,188268,1,0,0:0:0:0:
96,192,188337,1,0,0:0:0:0:
384,160,188405,1,0,0:0:0:0:
384,160,188473,1,0,0:0:0:0:
384,160,188541,1,0,0:0:0:0:
384,160,188609,1,0,0:0:0:0:
64,192,188677,1,0,0:0:0:0:
64,192,188746,1,0,0:0:0:0:
384,160,188814,1,8,0:0:0:0:
448,96,188950,1,0,0:0:0:0:
448,128,189087,1,8,0:0:0:0:
448,128,189223,1,0,0:0:0:0:
448,128,189359,1,8,0:0:0:0:
448,128,189496,1,8,0:0:0:0:
192,96,189541,1,8,0:0:0:0:
192,96,189587,1,8,0:0:0:0:
192,96,189632,1,0,0:0:0:0:
224,160,189768,1,8,0:0:0:0:
192,96,189837,1,0,0:0:0:0:
224,160,189905,1,0,0:0:0:0:
384,192,190041,1,8,0:0:0:0:
384,192,190087,1,8,0:0:0:0:
384,192,190132,1,8,0:0:0:0:
384,192,190177,1,0,0:0:0:0:
384,192,190246,1,0,0:0:0:0:
224,160,190314,1,0,0:0:0:0:
224,160,190450,1,8,0:0:0:0:
224,160,190587,1,0,0:0:0:0:
480,160,190632,1,8,0:0:0:0:
480,160,190677,1,8,0:0:0:0:
480,160,190722,1,0,0:0:0:0:
416,96,190859,1,0,0:0:0:0:
160,128,190927,1,8,0:0:0:0:
128,160,190996,1,0,0:0:0:0:
128,160,191132,1,0,0:0:0:0:
128,160,191268,1,8,0:0:0:0:
128,160,191405,1,0,0:0:0:0:
128,160,191473,1,0,0:0:0:0:
128,160,191541,1,8,0:0:0:0:
128,160,191677,1,8,0:0:0:0:
128,160,191814,1,0,0:0:0:0:
128,160,191950,1,0,0:0:0:0:
128,160,192087,1,8,0:0:0:0:
128,160,192223,1,0,0:0:0:0:
128,160,192359,1,0,0:0:0:0:
128,160,192427,1,0,0:0:0:0:
128,160,192496,1,8,0:0:0:0:
128,160,192632,1,8,0:0:0:0:
128,160,192768,1,0,0:0:0:0:
128,160,192905,1,8,0:0:0:0:
128,160,192973,1,0,0:0:0:0:
160,160,193177,1,12,0:0:0:0:
256,160,193314,1,0,0:0:0:0:
256,160,193450,1,8,0:0:0:0:
256,160,193587,1,0,0:0:0:0:
256,128,193655,1,0,0:0:0:0:
256,128,193723,1,8,0:0:0:0:
128,96,193859,1,8,0:0:0:0:
256,128,193905,1,8,0:0:0:0:
256,128,193950,1,8,0:0:0:0:
256,128,193996,1,0,0:0:0:0:
256,128,194132,1,8,0:0:0:0:
256,128,194200,1,0,0:0:0:0:
256,128,194268,1,0,0:0:0:0:
256,128,194405,1,8,0:0:0:0:
256,128,194450,1,8,0:0:0:0:
256,128,194496,1,8,0:0:0:0:
256,128,194541,1,0,0:0:0:0:
256,128,194609,1,0,0:0:0:0:
256,128,194677,1,0,0:0:0:0:
256,128,194814,1,8,0:0:0:0:
224,160,194950,1,8,0:0:0:0:
224,160,194996,1,8,0:0:0:0:
224,160,195041,1,8,0:0:0:0:
224,160,195087,1,0,0:0:0:0:
256,128,195223,1,8,0:0:0:0:
256,96,195291,1,0,0:0:0:0:
256,96,195359,1,0,0:0:0:0:
256,160,195496,1,8,0:0:0:0:
256,160,195541,1,8,0:0:0:0:
256,160,195587,1,8,0:0:0:0:
256,160,195632,1,0,0:0:0:0:
256,160,195768,1,8,0:0:0:0:
224,160,195837,1,0,0:0:0:0:
256,160,195905,1,8,0:0:0:0:
224,160,196041,1,0,0:0:0:0:
224,128,196087,1,8,0:0:0:0:
96,128,196132,1,8,0:0:0:0:
224,160,196177,1,0,0:0:0:0:
224,128,196314,1,0,0:0:0:0:
256,128,196450,1,8,0:0:0:0:
256,128,196496,1,8,0:0:0:0:
64,160,196541,1,8,0:0:0:0:
256,128,196587,1,8,0:0:0:0:
256,128,196632,1,8,0:0:0:0:
256,128,196677,1,8,0:0:0:0:
224,128,196723,1,0,0:0:0:0:
256,128,196791,1,0,0:0:0:0:
256,128,196859,1,0,0:0:0:0:
256,160,196927,1,0,0:0:0:0:
256,128,196996,1,0,0:0:0:0:
256,128,197064,1,0,0:0:0:0:
256,128,197132,1,0,0:0:0:0:
192,160,197200,1,0,0:0:0:0:
192,160,197268,1,8,0:0:0:0:
192,32,197541,1,4,0:0:0:0:
96,96,197677,1,0,0:0:0:0:
96,96,197746,1,0,0:0:0:0:
192,128,197814,1,8,0:0:0:0:
192,128,197950,1,0,0:0:0:0:
192,128,198087,1,0,0:0:0:0:
128,160,198223,1,0,0:0:0:0:
128,160,198291,1,8,0:0:0:0:
128,128,198359,1,0,0:0:0:0:
192,96,198496,1,8,0:0:0:0:
192,96,198564,1,8,0:0:0:0:
192,96,198632,1,8,0:0:0:0:
192,96,198768,1,0,0:0:0:0:
128,128,198837,1,8,0:0:0:0:
192,96,198905,1,0,0:0:0:0:
128,128,199041,1,8,0:0:0:0:
128,128,199109,1,8,0:0:0:0:
192,64,199177,1,0,0:0:0:0:
288,160,199314,1,0,0:0:0:0:
288,160,199382,1,8,0:0:0:0:
192,128,199450,1,0,0:0:0:0:
288,160,199587,1,8,0:0:0:0:
288,160,199655,1,0,0:0:0:0:
288,160,199723,1,8,0:0:0:0:
256,160,199859,1,0,0:0:0:0:
288,160,199927,1,8,0:0:0:0:
288,160,199996,1,0,0:0:0:0:
256,160,200132,1,0,0:0:0:0:
256,160,200268,1,0,0:0:0:0:
256,160,200405,1,8,0:0:0:0:
256,160,200473,1,8,0:0:0:0:
256,160,200541,1,0,0:0:0:0:
256,160,200677,1,0,0:0:0:0:
256,160,200814,1,8,0:0:0:0:
256,160,200882,1,0,0:0:0:0:
256,160,200950,1,0,0:0:0:0:
256,160,201018,1,0,0:0:0:0:
256,160,201087,1,8,0:0:0:0:
256,160,201155,1,8,0:0:0:0:
256,160,201223,1,0,0:0:0:0:
256,160,201291,1,0,0:0:0:0:
352,96,201359,1,8,0:0:0:0:
288,192,201768,1,8,0:0:0:0:
288,192,201905,1,4,0:0:0:0:
224,128,202041,1,0,0:0:0:0:
160,128,202177,1,8,0:0:0:0:
224,128,202314,1,8,0:0:0:0:
288,192,202382,1,0,0:0:0:0:
288,192,202450,1,8,0:0:0:0:
224,128,202587,1,0,0:0:0:0:
224,128,202723,1,8,0:0:0:0:
224,128,202859,1,8,0:0:0:0:
288,192,202996,1,0,0:0:0:0:
288,192,203132,1,0,0:0:0:0:
224,128,203268,1,8,0:0:0:0:
224,128,203405,1,8,0:0:0:0:
224,128,203473,1,0,0:0:0:0:
224,128,203541,1,8,0:0:0:0:
224,128,203677,1,0,0:0:0:0:
224,128,203746,1,0,0:0:0:0:
224,128,203814,1,8,0:0:0:0:
224,128,203950,1,8,0:0:0:0:
224,128,204087,1,0,0:0:0:0:
224,128,204223,1,0,0:0:0:0:
224,128,204359,1,8,0:0:0:0:
224,128,204496,1,8,0:0:0:0:
224,128,204564,1,0,0:0:0:0:
224,128,204632,1,8,0:0:0:0:
224,128,204768,1,0,0:0:0:0:
224,128,204905,1,8,0:0:0:0:
224,128,205041,1,8,0:0:0:0:
224,128,205177,1,0,0:0:0:0:
224,128,205314,1,0,0:0:0:0:
224,128,205382,1,0,0:0:0:0:
224,128,205450,1,8,0:0:0:0:
224,128,205587,1,8,0:0:0:0:
224,128,205655,1,0,0:0:0:0:
224,128,205723,1,8,0:0:0:0:
224,128,205859,1,0,0:0:0:0:
224,128,205927,1,8,0:0:0:0:
224,128,205996,1,0,0:0:0:0:
224,128,206130,1,8,0:0:0:0:
224,128,206268,1,8,0:0:0:0:
224,128,206337,1,8,0:0:0:0:
224,128,206405,1,0,0:0:0:0:
224,128,206473,1,0,0:0:0:0:
224,128,206541,1,8,0:0:0:0:
224,128,206609,1,8,0:0:0:0:
224,128,206677,1,0,0:0:0:0:
224,96,206746,1,0,0:0:0:0:
224,96,206814,1,8,0:0:0:0:
224,96,206882,1,8,0:0:0:0:
224,96,206950,1,0,0:0:0:0:
224,96,207018,1,0,0:0:0:0:
224,96,207087,1,8,0:0:0:0:
224,96,207155,1,8,0:0:0:0:
224,96,207223,1,0,0:0:0:0:
224,96,207291,1,0,0:0:0:0:
224,96,207359,1,8,0:0:0:0:
224,96,207427,1,8,0:0:0:0:
224,96,207496,1,0,0:0:0:0:
224,96,207564,1,0,0:0:0:0:
224,96,207632,1,8,0:0:0:0:
224,96,207700,1,8,0:0:0:0:
224,96,207768,1,0,0:0:0:0:
224,96,207837,1,0,0:0:0:0:
224,96,207905,1,8,0:0:0:0:
224,96,207973,1,8,0:0:0:0:
224,96,208041,1,0,0:0:0:0:
224,96,208109,1,0,0:0:0:0:
224,96,208177,1,8,0:0:0:0:
224,96,208246,1,8,0:0:0:0:
224,96,208314,1,0,0:0:0:0:
224,96,208382,1,0,0:0:0:0:
224,96,208450,1,8,0:0:0:0:
224,96,208518,1,0,0:0:0:0:
224,96,208587,1,8,0:0:0:0:
224,96,208655,1,0,0:0:0:0:
224,96,208723,1,8,0:0:0:0:
224,96,208791,1,0,0:0:0:0:
224,96,208859,1,8,0:0:0:0:
224,96,208927,1,0,0:0:0:0:
224,96,208996,1,8,0:0:0:0:
224,96,209064,1,0,0:0:0:0:
224,96,209132,1,8,0:0:0:0:
224,96,209200,1,0,0:0:0:0:
224,96,209268,1,8,0:0:0:0:
224,96,209337,1,0,0:0:0:0:
224,96,209405,1,8,0:0:0:0:
224,96,209473,1,0,0:0:0:0:
224,96,209541,1,8,0:0:0:0:
256,160,210223,1,0,0:0:0:0:
256,160,210359,1,8,0:0:0:0:
256,160,210632,1,4,0:0:0:0:
256,160,211041,1,8,0:0:0:0:
224,160,211177,1,0,0:0:0:0:
224,160,211314,1,0,0:0:0:0:
224,160,211450,1,8,0:0:0:0:
224,160,211587,1,0,0:0:0:0:
224,160,211996,1,0,0:0:0:0:
224,160,212132,1,8,0:0:0:0:
224,160,212268,1,8,0:0:0:0:
224,160,212405,1,0,0:0:0:0:
128,160,212541,1,8,0:0:0:0:
320,192,212677,1,8,0:0:0:0:
96,160,212814,1,0,0:0:0:0:
96,160,212882,1,0,0:0:0:0:
96,160,212950,1,0,0:0:0:0:
96,160,213018,1,0,0:0:0:0:
192,288,213087,1,0,0:0:0:0:
192,128,213223,1,8,0:0:0:0:
192,128,213291,1,8,0:0:0:0:
203,291,213359,1,8,0:0:0:0:
119,158,213427,1,8,0:0:0:0:
192,128,213496,1,8,0:0:0:0:
251,218,213632,1,0,0:0:0:0:
119,158,213700,1,0,0:0:0:0:
251,218,213768,1,0,0:0:0:0:
251,218,213837,1,0,0:0:0:0:
251,218,213905,1,0,0:0:0:0:
251,218,214041,1,8,0:0:0:0:
251,218,214109,1,8,0:0:0:0:
119,158,214177,1,8,0:0:0:0:
128,128,214246,1,8,0:0:0:0:
224,128,214314,1,8,0:0:0:0:
119,158,214382,1,0,0:0:0:0:
121,168,214450,1,12,0:0:0:0:
160,192,214723,1,4,0:0:0:0:
128,96,214996,1,0,0:0:0:0:
128,160,215405,1,0,0:0:0:0:
128,96,215677,1,0,0:0:0:0:
128,160,215814,1,8,0:0:0:0:
128,160,215950,1,0,0:0:0:0:
128,96,216359,1,0,0:0:0:0:
128,160,216768,1,0,0:0:0:0:
128,160,216905,1,8,0:0:0:0:
128,96,217177,1,0,0:0:0:0:
128,160,217314,1,0,0:0:0:0:
128,160,217450,1,8,0:0:0:0:
128,160,217586,1,0,0:0:0:0:
128,96,217655,1,0,0:0:0:0:
128,160,217723,1,0,0:0:0:0:
128,96,217859,1,0,0:0:0:0:
128,160,217996,1,8,0:0:0:0:
128,160,218132,1,0,0:0:0:0:
128,160,218268,1,0,0:0:0:0:
128,160,218405,1,8,0:0:0:0:
128,96,218541,1,0,0:0:0:0:
128,160,218677,1,0,0:0:0:0:
128,128,218746,1,0,0:0:0:0:
128,160,218814,1,0,0:0:0:0:
128,160,218950,1,0,0:0:0:0:
128,160,219086,1,8,0:0:0:0:
256,160,219359,1,4,0:0:0:0:
256,160,219768,1,8,0:0:0:0:
224,160,219905,1,0,0:0:0:0:
224,160,220041,1,0,0:0:0:0:
224,160,220177,1,8,0:0:0:0:
224,160,220314,1,0,0:0:0:0:
224,160,220723,1,0,0:0:0:0:
224,160,220859,1,8,0:0:0:0:
224,160,220996,1,8,0:0:0:0:
224,160,221132,1,0,0:0:0:0:
128,160,221268,1,8,0:0:0:0:
320,192,221405,1,8,0:0:0:0:
96,160,221541,1,0,0:0:0:0:
96,160,221609,1,0,0:0:0:0:
96,160,221677,1,0,0:0:0:0:
96,160,221746,1,0,0:0:0:0:
192,288,221814,1,0,0:0:0:0:
192,128,221950,1,8,0:0:0:0:
192,128,222018,1,8,0:0:0:0:
203,291,222087,1,8,0:0:0:0:
119,158,222155,1,8,0:0:0:0:
192,128,222223,1,8,0:0:0:0:
251,218,222359,1,0,0:0:0:0:
119,158,222427,1,0,0:0:0:0:
251,218,222496,1,0,0:0:0:0:
251,218,222564,1,0,0:0:0:0:
251,218,222632,1,0,0:0:0:0:
251,218,222768,1,8,0:0:0:0:
251,218,222837,1,8,0:0:0:0:
119,158,222905,1,8,0:0:0:0:
128,128,222973,1,8,0:0:0:0:
224,128,223041,1,8,0:0:0:0:
119,158,223109,1,0,0:0:0:0:
121,168,223177,1,12,0:0:0:0:
160,192,223450,1,4,0:0:0:0:
320,64,223723,1,0,0:0:0:0:
320,64,223791,1,0,0:0:0:0:
320,64,223859,1,0,0:0:0:0:
320,64,223927,1,0,0:0:0:0:
320,64,223996,1,8,0:0:0:0:
320,64,224064,1,0,0:0:0:0:
320,64,224132,1,0,0:0:0:0:
320,64,224200,1,0,0:0:0:0:
320,64,224268,1,8,0:0:0:0:
320,64,224337,1,0,0:0:0:0:
320,64,224405,1,0,0:0:0:0:
320,64,224473,1,0,0:0:0:0:
320,64,224541,1,8,0:0:0:0:
320,64,224609,1,0,0:0:0:0:
320,64,224677,1,0,0:0:0:0:
320,64,224746,1,0,0:0:0:0:
320,64,224814,1,8,0:0:0:0:
320,64,224882,1,0,0:0:0:0:
320,64,224950,1,0,0:0:0:0:
320,64,225018,1,0,0:0:0:0:
320,64,225087,1,8,0:0:0:0:
320,64,225155,1,0,0:0:0:0:
320,64,225223,1,0,0:0:0:0:
320,64,225291,1,0,0:0:0:0:
320,64,225359,1,8,0:0:0:0:
320,64,225427,1,0,0:0:0:0:
320,64,225496,1,0,0:0:0:0:
320,64,225564,1,0,0:0:0:0:
320,64,225632,1,8,0:0:0:0:
320,64,225700,1,0,0:0:0:0:
320,64,225768,1,0,0:0:0:0:
320,64,225837,1,0,0:0:0:0:
320,64,225905,1,8,0:0:0:0:
320,64,225973,1,0,0:0:0:0:
320,64,226041,1,8,0:0:0:0:
320,64,226109,1,0,0:0:0:0:
320,64,226177,1,8,0:0:0:0:
320,64,226246,1,0,0:0:0:0:
320,64,226314,1,8,0:0:0:0:
320,64,226382,1,0,0:0:0:0:
320,64,226450,1,8,0:0:0:0:
320,64,226518,1,0,0:0:0:0:
320,64,226587,1,8,0:0:0:0:
320,64,226655,1,0,0:0:0:0:
320,64,226723,1,8,0:0:0:0:
320,64,226791,1,0,0:0:0:0:
320,64,226859,1,8,0:0:0:0:
320,64,226927,1,0,0:0:0:0:
320,64,226996,1,8,0:0:0:0:
320,64,227064,1,8,0:0:0:0:
320,64,227132,1,8,0:0:0:0:
320,64,227200,1,8,0:0:0:0:
320,64,227268,1,8,0:0:0:0:
320,64,227337,1,8,0:0:0:0:
320,64,227405,1,8,0:0:0:0:
320,64,227473,1,8,0:0:0:0:
320,64,227541,1,8,0:0:0:0:
320,64,227609,1,8,0:0:0:0:
320,64,227677,1,8,0:0:0:0:
320,64,227746,1,8,0:0:0:0:
320,64,227814,1,8,0:0:0:0:
320,64,227950,1,0,0:0:0:0:
256,160,228087,1,4,0:0:0:0:
256,160,228496,1,8,0:0:0:0:
224,160,228632,1,0,0:0:0:0:
224,160,228768,1,0,0:0:0:0:
224,160,228905,1,8,0:0:0:0:
224,160,229041,1,0,0:0:0:0:
224,160,229450,1,0,0:0:0:0:
224,160,229587,1,8,0:0:0:0:
224,160,229723,1,8,0:0:0:0:
224,160,229859,1,0,0:0:0:0:
128,160,229996,1,8,0:0:0:0:
320,192,230132,1,8,0:0:0:0:
96,160,230268,1,0,0:0:0:0:
96,160,230337,1,0,0:0:0:0:
96,160,230405,1,0,0:0:0:0:
96,160,230473,1,0,0:0:0:0:
192,288,230541,1,0,0:0:0:0:
192,128,230677,1,8,0:0:0:0:
192,128,230746,5,8,0:0:0:0:
203,291,230814,1,8,0:0:0:0:
119,158,230882,1,8,0:0:0:0:
192,128,230950,1,8,0:0:0:0:
251,218,231087,1,0,0:0:0:0:
119,158,231155,1,0,0:0:0:0:
251,218,231223,1,0,0:0:0:0:
251,218,231291,1,0,0:0:0:0:
251,218,231359,1,0,0:0:0:0:
251,218,231496,1,8,0:0:0:0:
251,218,231564,1,8,0:0:0:0:
119,158,231632,1,8,0:0:0:0:
128,128,231700,1,8,0:0:0:0:
224,128,231768,1,8,0:0:0:0:
119,158,231837,1,0,0:0:0:0:
224,160,231905,5,12,0:0:0:0:
256,128,232177,1,4,0:0:0:0:
416,128,232450,1,0,0:0:0:0:
128,160,232859,1,0,0:0:0:0:
128,96,233132,1,0,0:0:0:0:
128,160,233268,1,8,0:0:0:0:
128,160,233405,1,0,0:0:0:0:
128,96,233814,1,0,0:0:0:0:
128,160,234223,1,0,0:0:0:0:
128,160,234359,1,8,0:0:0:0:
128,96,234632,1,0,0:0:0:0:
128,160,234768,1,0,0:0:0:0:
128,160,234905,1,8,0:0:0:0:
128,160,235041,1,0,0:0:0:0:
128,96,235109,1,0,0:0:0:0:
128,160,235177,1,0,0:0:0:0:
128,96,235314,1,0,0:0:0:0:
128,160,235450,1,8,0:0:0:0:
128,160,235586,1,0,0:0:0:0:
128,160,235723,1,0,0:0:0:0:
128,160,235859,1,8,0:0:0:0:
128,96,235996,1,0,0:0:0:0:
128,160,236132,1,0,0:0:0:0:
128,128,236200,1,0,0:0:0:0:
128,160,236268,1,0,0:0:0:0:
128,160,236405,1,0,0:0:0:0:
128,160,236541,1,8,0:0:0:0:
288,192,236677,5,8,0:0:0:0:
288,192,236814,1,4,0:0:0:0:
224,128,236950,1,0,0:0:0:0:
160,128,237087,1,8,0:0:0:0:
224,128,237223,1,8,0:0:0:0:
288,192,237291,1,0,0:0:0:0:
288,192,237359,1,8,0:0:0:0:
224,128,237496,1,0,0:0:0:0:
224,128,237632,1,8,0:0:0:0:
224,128,237768,1,8,0:0:0:0:
288,192,237905,1,0,0:0:0:0:
288,192,238041,1,0,0:0:0:0:
224,128,238177,1,8,0:0:0:0:
224,128,238314,1,8,0:0:0:0:
224,128,238382,1,0,0:0:0:0:
224,128,238450,1,8,0:0:0:0:
224,128,238587,1,0,0:0:0:0:
224,128,238655,1,0,0:0:0:0:
224,128,238722,1,8,0:0:0:0:
224,128,238859,1,8,0:0:0:0:
224,128,238996,1,0,0:0:0:0:
224,128,239132,1,0,0:0:0:0:
224,128,239268,1,8,0:0:0:0:
224,128,239405,1,8,0:0:0:0:
224,128,239473,1,0,0:0:0:0:
224,128,239541,1,8,0:0:0:0:
224,128,239677,1,0,0:0:0:0:
224,128,239814,1,8,0:0:0:0:
224,128,239950,1,8,0:0:0:0:
224,128,240087,1,0,0:0:0:0:
224,128,240223,1,0,0:0:0:0:
224,128,240291,1,0,0:0:0:0:
224,128,240359,1,8,0:0:0:0:
224,128,240496,1,8,0:0:0:0:
224,128,240564,1,0,0:0:0:0:
224,128,240632,1,8,0:0:0:0:
224,128,240768,1,0,0:0:0:0:
224,128,240837,1,8,0:0:0:0:
224,128,240905,1,0,0:0:0:0:
224,128,241041,1,8,0:0:0:0:
224,128,241177,1,8,0:0:0:0:
160,64,241246,1,8,0:0:0:0:
160,64,241314,1,0,0:0:0:0:
160,64,241382,1,0,0:0:0:0:
160,64,241450,1,8,0:0:0:0:
160,64,241518,1,8,0:0:0:0:
160,64,241587,1,0,0:0:0:0:
160,64,241655,1,0,0:0:0:0:
160,64,241723,1,8,0:0:0:0:
160,64,241791,1,8,0:0:0:0:
96,160,241859,1,0,0:0:0:0:
128,160,241927,1,0,0:0:0:0:
224,128,241996,1,8,0:0:0:0:
160,64,242064,1,8,0:0:0:0:
160,64,242132,1,0,0:0:0:0:
160,64,242200,1,0,0:0:0:0:
160,64,242268,1,8,0:0:0:0:
160,64,242337,1,8,0:0:0:0:
160,64,242405,1,0,0:0:0:0:
160,64,242473,1,0,0:0:0:0:
160,64,242541,1,8,0:0:0:0:
160,64,242609,1,8,0:0:0:0:
224,96,242677,1,0,0:0:0:0:
224,96,242746,1,0,0:0:0:0:
192,128,242814,1,8,0:0:0:0:
192,128,242882,1,8,0:0:0:0:
160,160,242950,1,0,0:0:0:0:
160,160,243018,1,0,0:0:0:0:
128,160,243087,1,8,0:0:0:0:
384,128,243155,1,8,0:0:0:0:
128,160,243223,1,0,0:0:0:0:
128,160,243291,1,0,0:0:0:0:
128,160,243359,1,8,0:0:0:0:
128,160,243427,1,0,0:0:0:0:
128,160,243496,1,8,0:0:0:0:
128,160,243564,1,0,0:0:0:0:
128,160,243632,1,8,0:0:0:0:
128,160,243700,1,0,0:0:0:0:
128,160,243768,1,8,0:0:0:0:
128,160,243837,1,0,0:0:0:0:
128,160,243905,1,8,0:0:0:0:
128,160,243973,1,0,0:0:0:0:
128,160,244041,1,8,0:0:0:0:
128,160,244109,1,0,0:0:0:0:
128,160,244177,1,8,0:0:0:0:
128,160,244246,1,0,0:0:0:0:
128,160,244314,1,8,0:0:0:0:
128,160,244382,5,0,0:0:0:0:
128,160,244450,1,8,0:0:0:0:
128,160,244518,1,0,0:0:0:0:
128,160,244587,1,8,0:0:0:0:
128,160,244655,1,0,0:0:0:0:
128,160,244723,1,8,0:0:0:0:
128,160,244791,1,0,0:0:0:0:
192,96,244859,1,8,0:0:0:0:
192,96,244927,1,0,0:0:0:0:
192,96,244995,1,8,0:0:0:0:
352,128,245541,1,4,0:0:0:0:
320,160,245813,1,8,0:0:0:0:
224,160,245950,1,0,0:0:0:0:
224,160,246018,1,0,0:0:0:0:
224,160,246087,1,8,0:0:0:0:
224,160,246223,1,8,0:0:0:0:
192,96,246268,1,8,0:0:0:0:
192,96,246314,1,8,0:0:0:0:
224,96,246359,1,0,0:0:0:0:
192,96,246496,1,8,0:0:0:0:
224,192,246632,1,0,0:0:0:0:
215,127,246700,1,0,0:0:0:0:
288,224,246768,1,8,0:0:0:0:
215,127,246905,1,0,0:0:0:0:
96,96,246973,1,0,0:0:0:0:
288,96,247041,1,8,0:0:0:0:
192,96,247087,1,8,0:0:0:0:
192,96,247132,1,8,0:0:0:0:
320,224,247177,1,0,0:0:0:0:
160,128,247314,1,8,0:0:0:0:
160,128,247450,1,8,0:0:0:0:
128,192,247451,2,4,L|160:192,39,26.25
96,96,247723,1,0,0:0:0:0:
448,96,247791,1,8,0:0:0:0:
448,96,247859,1,0,0:0:0:0:
224,96,247927,1,0,0:0:0:0:
224,96,247996,1,8,0:0:0:0:
224,96,248132,1,0,0:0:0:0:
224,96,248200,1,0,0:0:0:0:
224,96,248268,1,8,0:0:0:0:
128,128,248405,1,8,0:0:0:0:
128,128,248450,1,8,0:0:0:0:
128,128,248496,1,8,0:0:0:0:
128,128,248541,1,0,0:0:0:0:
128,96,248677,1,0,0:0:0:0:
128,96,248814,1,8,0:0:0:0:
480,64,248882,1,0,0:0:0:0:
480,64,248950,1,8,0:0:0:0:
160,288,249087,1,0,0:0:0:0:
448,193,249155,1,0,0:0:0:0:
448,192,249223,1,0,0:0:0:0:
192,128,249359,1,8,0:0:0:0:
256,192,249541,1,0,0:0:0:0:
256,192,249723,1,0,0:0:0:0:
256,191,249905,1,8,0:0:0:0:
512,160,249950,1,8,0:0:0:0:
488,153,249995,1,8,0:0:0:0:
512,160,250041,1,0,0:0:0:0:
256,192,250109,1,0,0:0:0:0:
256,192,250177,1,8,0:0:0:0:
256,192,250314,1,0,0:0:0:0:
320,192,250382,1,0,0:0:0:0:
480,64,250450,1,8,0:0:0:0:
480,64,250587,1,8,0:0:0:0:
96,224,250632,1,8,0:0:0:0:
96,224,250677,1,8,0:0:0:0:
96,224,250723,1,0,0:0:0:0:
480,96,250859,1,8,0:0:0:0:
448,160,250996,1,0,0:0:0:0:
480,128,251064,1,0,0:0:0:0:
480,128,251132,1,8,0:0:0:0:
480,128,251268,1,0,0:0:0:0:
192,128,251337,1,0,0:0:0:0:
192,128,251405,1,0,0:0:0:0:
192,128,251541,1,8,0:0:0:0:
192,128,251677,1,0,0:0:0:0:
224,128,251814,1,8,0:0:0:0:
160,160,251882,1,8,0:0:0:0:
192,128,251950,1,0,0:0:0:0:
128,192,252018,1,0,0:0:0:0:
128,192,252087,1,8,0:0:0:0:
128,192,252223,1,8,0:0:0:0:
128,192,252359,1,0,0:0:0:0:
128,192,252496,1,8,0:0:0:0:
128,192,252632,1,8,0:0:0:0:
128,192,252768,1,0,0:0:0:0:
128,192,252905,1,8,0:0:0:0:
128,192,253041,1,0,0:0:0:0:
128,192,253177,1,8,0:0:0:0:
135,182,253314,1,0,0:0:0:0:
288,96,253450,1,0,0:0:0:0:
288,128,253518,1,0,0:0:0:0:
288,128,253587,1,0,0:0:0:0:
288,128,253723,1,8,0:0:0:0:
288,96,253859,1,0,0:0:0:0:
288,96,253996,1,0,0:0:0:0:
256,128,254132,1,8,0:0:0:0:
160,128,254268,1,4,0:0:0:0:
128,192,254269,2,4,L|160:192,39,26.25
320,160,254541,1,8,0:0:0:0:
224,160,254677,1,0,0:0:0:0:
224,160,254745,1,0,0:0:0:0:
224,160,254813,1,8,0:0:0:0:
224,160,254950,1,8,0:0:0:0:
192,96,254995,1,8,0:0:0:0:
192,96,255041,1,8,0:0:0:0:
224,96,255086,1,0,0:0:0:0:
192,96,255222,1,8,0:0:0:0:
224,192,255359,1,0,0:0:0:0:
215,127,255427,1,0,0:0:0:0:
288,224,255495,1,8,0:0:0:0:
215,127,255631,1,0,0:0:0:0:
96,96,255699,1,0,0:0:0:0:
288,96,255767,1,8,0:0:0:0:
192,96,255813,1,8,0:0:0:0:
192,96,255858,1,8,0:0:0:0:
320,224,255903,1,0,0:0:0:0:
160,128,256040,1,8,0:0:0:0:
160,128,256177,1,8,0:0:0:0:
128,192,256178,2,4,L|160:192,39,26.25
96,96,256450,1,0,0:0:0:0:
448,96,256518,1,8,0:0:0:0:
448,96,256586,1,0,0:0:0:0:
224,96,256654,1,0,0:0:0:0:
224,96,256722,1,8,0:0:0:0:
192,128,256859,1,0,0:0:0:0:
352,193,256927,1,0,0:0:0:0:
192,128,256995,1,8,0:0:0:0:
352,192,257131,1,8,0:0:0:0:
192,128,257177,1,8,0:0:0:0:
192,96,257222,1,8,0:0:0:0:
192,128,257268,1,0,0:0:0:0:
192,128,257404,1,8,0:0:0:0:
192,128,257540,1,8,0:0:0:0:
192,128,257609,1,0,0:0:0:0:
192,128,257677,1,8,0:0:0:0:
224,192,257813,1,0,0:0:0:0:
192,128,257881,1,0,0:0:0:0:
192,128,257950,1,0,0:0:0:0:
384,224,258018,1,0,0:0:0:0:
224,192,258086,1,8,0:0:0:0:
224,192,258222,1,0,0:0:0:0:
192,128,258427,1,0,0:0:0:0:
256,128,258631,1,12,0:0:0:0:
288,128,258768,1,0,0:0:0:0:
160,224,258904,1,0,0:0:0:0:
160,224,258972,1,0,0:0:0:0:
160,224,259040,1,0,0:0:0:0:
160,192,259109,1,0,0:0:0:0:
256,160,259177,1,12,0:0:0:0:
256,128,259313,1,0,0:0:0:0:
160,224,259450,1,0,0:0:0:0:
160,224,259518,1,0,0:0:0:0:
160,224,259586,1,0,0:0:0:0:
160,192,259655,1,0,0:0:0:0:
256,160,259723,1,12,0:0:0:0:
256,128,259859,1,0,0:0:0:0:
160,224,259995,1,0,0:0:0:0:
160,224,260063,1,0,0:0:0:0:
160,224,260131,1,0,0:0:0:0:
160,192,260200,1,0,0:0:0:0:
256,160,260268,1,12,0:0:0:0:
256,128,260404,1,0,0:0:0:0:
160,224,260540,1,0,0:0:0:0:
160,224,260608,1,0,0:0:0:0:
160,224,260676,1,0,0:0:0:0:
160,192,260745,1,0,0:0:0:0:
256,160,260813,1,8,0:0:0:0:
224,64,260881,1,8,0:0:0:0:
256,128,260950,1,0,0:0:0:0:
192,128,261018,1,0,0:0:0:0:
160,128,261086,1,8,0:0:0:0:
160,128,261154,1,8,0:0:0:0:
256,128,261222,1,0,0:0:0:0:
192,128,261290,1,0,0:0:0:0:
160,128,261359,1,8,0:0:0:0:
160,128,261427,1,8,0:0:0:0:
256,128,261495,1,0,0:0:0:0:
192,128,261563,1,0,0:0:0:0:
160,128,261631,1,8,0:0:0:0:
160,128,261700,1,8,0:0:0:0:
256,128,261768,1,0,0:0:0:0:
192,128,261836,1,0,0:0:0:0:
160,128,261904,1,8,0:0:0:0:
160,128,261972,1,8,0:0:0:0:
96,224,262040,1,0,0:0:0:0:
192,128,262109,1,0,0:0:0:0:
192,128,262177,1,0,0:0:0:0:
192,256,262245,1,0,0:0:0:0:
128,224,262313,1,0,0:0:0:0:
128,224,262381,1,0,0:0:0:0:
128,160,262450,1,8,0:0:0:0:
224,160,262451,2,0,L|288:160,2,46.3750019459725
256,128,262586,1,0,0:0:0:0:
128,224,262587,2,4,L|256:224,2,92.7500038919451
288,224,262722,1,12,0:0:0:0:
384,160,262995,1,4,0:0:0:0:
224,160,263404,1,0,0:0:0:0:
256,160,263540,1,8,0:0:0:0:
160,192,263813,1,0,0:0:0:0:
160,192,264359,1,0,0:0:0:0:
160,192,264427,1,0,0:0:0:0:
160,192,264495,1,0,0:0:0:0:
320,288,264631,1,8,0:0:0:0:
256,288,264768,1,0,0:0:0:0:
256,288,265177,1,0,0:0:0:0:
256,288,265586,1,0,0:0:0:0:
160,224,265722,1,8,0:0:0:0:
160,224,265995,1,0,0:0:0:0:
256,160,266268,1,8,0:0:0:0:
288,160,266313,1,8,0:0:0:0:
288,160,266359,1,8,0:0:0:0:
288,160,266404,1,8,0:0:0:0:
288,160,266450,1,8,0:0:0:0:
288,160,266495,1,8,0:0:0:0:
160,160,266540,1,0,0:0:0:0:
160,160,266609,1,0,0:0:0:0:
160,160,266677,1,0,0:0:0:0:
160,160,266745,1,0,0:0:0:0:
160,160,266813,1,0,0:0:0:0:
160,160,266881,1,0,0:0:0:0:
160,160,266950,1,0,0:0:0:0:
160,160,267018,1,0,0:0:0:0:
160,160,267086,1,0,0:0:0:0:
160,160,267154,1,0,0:0:0:0:
160,160,267222,1,0,0:0:0:0:
288,128,267290,1,0,0:0:0:0:
288,128,267359,1,6,0:0:0:0:
288,224,267495,1,8,0:0:0:0:
288,224,267631,1,0,0:0:0:0:
160,160,267768,1,0,0:0:0:0:
160,160,267836,1,8,0:0:0:0:
160,160,267904,1,0,0:0:0:0:
224,160,268040,1,8,0:0:0:0:
224,160,268086,1,8,0:0:0:0:
224,160,268131,1,8,0:0:0:0:
224,160,268177,1,0,0:0:0:0:
224,160,268313,1,0,0:0:0:0:
224,160,268381,1,8,0:0:0:0:
224,160,268450,1,0,0:0:0:0:
192,64,268586,1,8,0:0:0:0:
192,64,268631,1,8,0:0:0:0:
192,64,268677,1,8,0:0:0:0:
192,64,268722,1,0,0:0:0:0:
256,64,268859,1,0,0:0:0:0:
256,64,268927,1,8,0:0:0:0:
256,64,268995,1,0,0:0:0:0:
256,64,269131,1,0,0:0:0:0:
256,64,269177,1,8,0:0:0:0:
384,160,269222,1,8,0:0:0:0:
384,160,269268,1,0,0:0:0:0:
160,128,269404,1,8,0:0:0:0:
160,128,269472,1,8,0:0:0:0:
128,160,269540,1,0,0:0:0:0:
128,160,269677,1,0,0:0:0:0:
128,160,269813,1,8,0:0:0:0:
128,160,269950,1,0,0:0:0:0:
128,160,270018,1,0,0:0:0:0:
128,160,270086,1,8,0:0:0:0:
128,160,270222,1,8,0:0:0:0:
128,160,270359,1,0,0:0:0:0:
128,160,270495,1,0,0:0:0:0:
128,160,270631,1,8,0:0:0:0:
128,160,270768,1,0,0:0:0:0:
128,160,270904,1,0,0:0:0:0:
128,160,270972,1,0,0:0:0:0:
128,160,271040,1,8,0:0:0:0:
128,160,271177,1,8,0:0:0:0:
128,160,271313,1,0,0:0:0:0:
128,160,271450,1,8,0:0:0:0:
128,160,271518,1,0,0:0:0:0:
128,160,271586,1,0,0:0:0:0:
128,160,271654,1,0,0:0:0:0:
160,160,271722,1,8,0:0:0:0:
256,160,272540,1,6,0:0:0:0:
160,192,272677,1,0,0:0:0:0:
160,192,273086,1,0,0:0:0:0:
160,192,273154,1,0,0:0:0:0:
160,192,273222,1,0,0:0:0:0:
256,192,273359,1,8,0:0:0:0:
288,224,273495,1,0,0:0:0:0:
288,224,273904,1,0,0:0:0:0:
288,224,274313,1,0,0:0:0:0:
352,224,274450,1,8,0:0:0:0:
160,160,274722,1,0,0:0:0:0:
192,128,274995,5,8,0:0:0:0:
192,128,275040,1,8,0:0:0:0:
192,128,275086,1,8,0:0:0:0:
192,128,275131,1,8,0:0:0:0:
192,128,275177,1,8,0:0:0:0:
192,128,275222,1,8,0:0:0:0:
320,160,275268,1,0,0:0:0:0:
224,192,275336,1,0,0:0:0:0:
224,192,275404,1,0,0:0:0:0:
224,192,275472,1,0,0:0:0:0:
224,192,275540,1,0,0:0:0:0:
224,192,275609,1,0,0:0:0:0:
224,192,275677,1,0,0:0:0:0:
224,192,275745,1,0,0:0:0:0:
224,192,275813,1,8,0:0:0:0:
320,192,276086,1,12,0:0:0:0:
160,160,276290,1,0,0:0:0:0:
160,160,276359,1,0,0:0:0:0:
192,96,276495,1,8,0:0:0:0:
192,96,276699,1,0,0:0:0:0:
192,96,276768,1,0,0:0:0:0:
192,96,276904,1,8,0:0:0:0:
192,96,277040,1,8,0:0:0:0:
192,96,277109,1,0,0:0:0:0:
192,96,277177,1,8,0:0:0:0:
160,192,277381,1,0,0:0:0:0:
192,96,277449,1,0,0:0:0:0:
64,96,277586,1,8,0:0:0:0:
64,96,277790,1,8,0:0:0:0:
64,96,277859,1,0,0:0:0:0:
128,96,277995,1,8,0:0:0:0:
160,128,278131,1,8,0:0:0:0:
288,192,278199,1,0,0:0:0:0:
288,192,278267,1,8,0:0:0:0:
288,192,278471,1,0,0:0:0:0:
288,192,278540,1,8,0:0:0:0:
128,128,278676,1,0,0:0:0:0:
160,128,278812,1,8,0:0:0:0:
160,128,278949,1,0,0:0:0:0:
160,128,279017,1,0,0:0:0:0:
160,128,279085,1,8,0:0:0:0:
160,128,279221,1,0,0:0:0:0:
160,128,279358,5,8,0:0:0:0:
160,128,279426,1,8,0:0:0:0:
160,128,279494,1,0,0:0:0:0:
160,128,279562,1,0,0:0:0:0:
160,128,279630,1,8,0:0:0:0:
160,128,279699,1,8,0:0:0:0:
224,160,279767,1,8,0:0:0:0:
224,160,279835,1,8,0:0:0:0:
192,224,279903,1,0,0:0:0:0:
288,192,279971,1,0,0:0:0:0:
352,160,280040,1,0,0:0:0:0:
256,96,280108,1,0,0:0:0:0:
256,96,280177,1,8,0:0:0:0:
160,160,280452,5,12,0:0:0:0:
32,160,280724,1,8,0:0:0:0:
160,160,280861,1,0,0:0:0:0:
32,160,280997,1,8,0:0:0:0:
32,160,281270,1,0,0:0:0:0:
32,160,281542,1,8,0:0:0:0:
32,160,281679,1,0,0:0:0:0:
480,32,281815,1,0,0:0:0:0:
32,160,281883,1,0,0:0:0:0:
480,32,281952,1,0,0:0:0:0:
480,32,282088,1,8,0:0:0:0:
480,32,282224,1,0,0:0:0:0:
480,32,282361,1,8,0:0:0:0:
480,32,282633,1,12,0:0:0:0:
480,32,282906,1,8,0:0:0:0:
192,160,283043,1,0,0:0:0:0:
192,160,283179,1,8,0:0:0:0:
192,160,283452,1,0,0:0:0:0:
192,160,283588,1,8,0:0:0:0:
192,160,283724,1,8,0:0:0:0:
192,160,283861,1,0,0:0:0:0:
192,160,283997,1,0,0:0:0:0:
192,160,284065,1,0,0:0:0:0:
192,160,284133,1,0,0:0:0:0:
192,160,284270,1,8,0:0:0:0:
192,160,284406,1,0,0:0:0:0:
192,160,284611,1,0,0:0:0:0:
192,160,284815,1,12,0:0:0:0:
192,160,285088,1,8,0:0:0:0:
192,160,285224,1,0,0:0:0:0:
192,160,285361,1,8,0:0:0:0:
192,160,285633,1,0,0:0:0:0:
192,128,285906,1,8,0:0:0:0:
192,128,286043,1,0,0:0:0:0:
192,128,286179,1,0,0:0:0:0:
192,128,286247,1,0,0:0:0:0:
256,128,286315,1,0,0:0:0:0:
192,128,286452,1,8,0:0:0:0:
192,128,286588,1,0,0:0:0:0:
192,128,286724,1,8,0:0:0:0:
192,128,286997,1,12,0:0:0:0:
192,128,287270,1,8,0:0:0:0:
192,128,287406,1,0,0:0:0:0:
192,128,287543,1,8,0:0:0:0:
192,128,287815,1,0,0:0:0:0:
192,128,287952,1,8,0:0:0:0:
192,128,288088,1,8,0:0:0:0:
192,128,288224,1,0,0:0:0:0:
192,128,288361,1,0,0:0:0:0:
192,128,288429,1,0,0:0:0:0:
192,128,288497,1,0,0:0:0:0:
192,128,288633,1,8,0:0:0:0:
384,128,288770,1,0,0:0:0:0:
384,128,288974,1,0,0:0:0:0:
384,128,289179,1,12,0:0:0:0:
384,128,289452,1,8,0:0:0:0:
192,128,289588,1,0,0:0:0:0:
192,128,289724,1,8,0:0:0:0:
192,128,289997,1,0,0:0:0:0:
192,128,290133,1,8,0:0:0:0:
192,128,290270,1,8,0:0:0:0:
192,128,290406,1,0,0:0:0:0:
192,128,290543,1,0,0:0:0:0:
480,128,290611,1,0,0:0:0:0:
192,128,290679,1,0,0:0:0:0:
480,128,290815,1,8,0:0:0:0:
480,128,290952,1,0,0:0:0:0:
224,64,291088,1,8,0:0:0:0:
480,128,291361,1,12,0:0:0:0:
480,128,291633,1,8,0:0:0:0:
480,128,291770,1,0,0:0:0:0:
480,128,291906,1,8,0:0:0:0:
480,128,292179,1,0,0:0:0:0:
480,128,292452,1,8,0:0:0:0:
480,128,292588,1,0,0:0:0:0:
192,128,292724,1,0,0:0:0:0:
480,128,292793,1,0,0:0:0:0:
480,128,292861,1,0,0:0:0:0:
480,128,292997,1,8,0:0:0:0:
480,128,293133,1,0,0:0:0:0:
192,96,293338,1,0,0:0:0:0:
160,160,293543,1,8,0:0:0:0:
160,160,293815,1,8,0:0:0:0:
160,160,293952,1,0,0:0:0:0:
160,160,294088,1,8,0:0:0:0:
160,160,294361,1,0,0:0:0:0:
160,160,294497,1,8,0:0:0:0:
160,160,294633,1,8,0:0:0:0:
160,160,294770,1,0,0:0:0:0:
160,160,294906,1,0,0:0:0:0:
160,160,294974,1,0,0:0:0:0:
160,160,295043,1,0,0:0:0:0:
256,160,295179,1,8,0:0:0:0:
160,160,295315,1,0,0:0:0:0:
160,160,295452,1,8,0:0:0:0:
320,96,295724,1,8,0:0:0:0:
320,96,295793,1,8,0:0:0:0:
320,96,295861,1,8,0:0:0:0:
192,96,295929,1,0,0:0:0:0:
192,96,295997,1,8,0:0:0:0:
224,96,296133,1,0,0:0:0:0:
288,160,296202,1,0,0:0:0:0:
320,64,296270,1,8,0:0:0:0:
224,192,296338,1,8,0:0:0:0:
224,192,296406,1,0,0:0:0:0:
192,96,296543,1,0,0:0:0:0:
128,160,296611,1,0,0:0:0:0:
128,160,296679,1,0,0:0:0:0:
128,160,296747,1,0,0:0:0:0:
128,160,296815,1,8,0:0:0:0:
160,128,296952,1,8,0:0:0:0:
160,128,297020,1,8,0:0:0:0:
160,128,297088,1,0,0:0:0:0:
160,128,297156,1,0,0:0:0:0:
128,160,297224,1,0,0:0:0:0:
160,128,297361,1,8,0:0:0:0:
224,128,297429,1,8,0:0:0:0:
160,128,297497,1,0,0:0:0:0:
384,96,297565,1,0,0:0:0:0:
160,128,297633,1,8,0:0:0:0:
192,96,297702,1,0,0:0:0:0:
256,192,297906,5,4,0:0:0:0:
256,192,298315,1,0,0:0:0:0:
256,192,298451,1,8,0:0:0:0:
256,192,298724,1,0,0:0:0:0:
256,192,298996,1,8,0:0:0:0:
256,192,299133,1,0,0:0:0:0:
256,192,299269,1,0,0:0:0:0:
256,192,299542,1,8,0:0:0:0:
256,192,299815,1,0,0:0:0:0:
256,192,300087,1,8,0:0:0:0:
256,192,300496,1,0,0:0:0:0:
256,192,300633,1,8,0:0:0:0:
256,192,300906,1,0,0:0:0:0:
256,192,301178,1,8,0:0:0:0:
256,192,301315,1,0,0:0:0:0:
256,192,301451,1,0,0:0:0:0:
256,192,301724,1,8,0:0:0:0:
256,192,302269,1,4,0:0:0:0:
256,192,302678,1,4,0:0:0:0:
256,192,302815,1,8,0:0:0:0:
256,192,303087,1,0,0:0:0:0:
256,192,303360,1,8,0:0:0:0:
256,192,303496,1,0,0:0:0:0:
256,192,303633,1,0,0:0:0:0:
256,192,303906,1,8,0:0:0:0:
256,192,304178,1,0,0:0:0:0:
256,192,304451,1,8,0:0:0:0:
256,192,304860,1,0,0:0:0:0:
256,192,304996,1,8,0:0:0:0:
160,192,305269,1,0,0:0:0:0:
160,192,305542,1,8,0:0:0:0:
160,192,305678,1,0,0:0:0:0:
160,192,305815,1,0,0:0:0:0:
160,192,305951,1,4,0:0:0:0:
160,192,306087,1,8,0:0:0:0:
160,192,306633,1,4,0:0:0:0:
160,192,307042,1,4,0:0:0:0:
160,192,307178,1,8,0:0:0:0:
160,192,307451,1,0,0:0:0:0:
160,192,307724,1,8,0:0:0:0:
160,192,307860,1,0,0:0:0:0:
160,192,307996,1,0,0:0:0:0:
160,192,308269,1,8,0:0:0:0:
160,192,308542,1,0,0:0:0:0:
160,192,308815,1,8,0:0:0:0:
160,192,309224,1,0,0:0:0:0:
160,192,309360,1,8,0:0:0:0:
160,192,309633,1,0,0:0:0:0:
160,192,309906,1,8,0:0:0:0:
160,192,310042,1,0,0:0:0:0:
160,192,310178,1,0,0:0:0:0:
160,192,310451,1,8,0:0:0:0:
160,192,310996,1,4,0:0:0:0:
160,192,311406,1,4,0:0:0:0:
160,192,311542,1,8,0:0:0:0:
224,352,311815,1,0,0:0:0:0:
224,352,312087,1,8,0:0:0:0:
224,352,312224,1,0,0:0:0:0:
224,352,312360,1,8,0:0:0:0:
224,352,312633,1,8,0:0:0:0:
224,352,312906,1,0,0:0:0:0:
224,352,313178,1,0,0:0:0:0:
128,128,313246,1,8,0:0:0:0:
224,352,313315,1,8,0:0:0:0:
192,96,313383,1,0,0:0:0:0:
224,352,313451,1,8,0:0:0:0:
384,96,313587,1,8,0:0:0:0:
160,96,313656,1,0,0:0:0:0:
224,352,313724,1,8,0:0:0:0:
384,96,313792,1,8,0:0:0:0:
224,352,313860,1,0,0:0:0:0:
96,224,313997,1,0,0:0:0:0:
96,224,314065,1,0,0:0:0:0:
160,96,314133,1,0,0:0:0:0:
320,96,314201,1,0,0:0:0:0:
256,96,314269,1,8,0:0:0:0:
192,96,314338,1,8,0:0:0:0:
192,96,314406,1,0,0:0:0:0:
128,224,314474,1,8,0:0:0:0:
128,224,314542,1,0,0:0:0:0:
64,224,314611,1,0,0:0:0:0:
64,224,314679,1,0,0:0:0:0:
64,224,314747,1,0,0:0:0:0:
64,224,314815,1,8,0:0:0:0:
64,224,314883,1,8,0:0:0:0:
128,224,314952,1,8,0:0:0:0:
128,224,315020,1,8,0:0:0:0:
128,224,315088,1,8,0:0:0:0:
128,224,315156,1,8,0:0:0:0:
128,224,315224,1,8,0:0:0:0:
128,224,315292,1,8,0:0:0:0:
128,224,315361,1,8,0:0:0:0:
