osu file format v14

[General]
AudioFilename: Camellia-K.Y.A.F.A. (Kill You All Fucking Asshole).mp3
AudioLeadIn: 0
PreviewTime: 53363
Countdown: 0
SampleSet: Soft
StackLeniency: 0.7
Mode: 0
LetterboxInBreaks: 0
WidescreenStoryboard: 0

[Editor]
Bookmarks: 166818
DistanceSpacing: 1.1
BeatDivisor: 4
GridSize: 4
TimelineZoom: 5.000003

[Metadata]
Title:K.Y.A.F.A. (Kill You All Fucking Asshole)
TitleUnicode:K.Y.A.F.A. (Kill You All Fucking Asshole)
Artist:Camellia
ArtistUnicode:Camellia
Creator:DeRandom Otaku
Version:Standard
Source:
Tags:Drill cametek Binzokomegane Girls Union kyafa snownino C89 shmiklak ren
BeatmapID:1147081
BeatmapSetID:414034

[Difficulty]
HPDrainRate:4
CircleSize:3.2
OverallDifficulty:5.5
ApproachRate:6.5
SliderMultiplier:1.15
SliderTickRate:1

[Events]
//Background and Video events
0,0,"drill_tip.jpg",0,0
//Break Periods
2,132109,144025
//Storyboard Layer 0 (Background)
//Storyboard Layer 1 (Fail)
//Storyboard Layer 2 (Pass)
//Storyboard Layer 3 (Foreground)
//Storyboard Sound Samples

[TimingPoints]
1000,272.727272727273,4,2,0,40,1,0
17363,-100,4,2,0,50,0,0
18454,-100,4,2,0,65,0,0
53363,-100,4,2,0,75,0,1
66454,-100,4,2,0,75,0,0
70818,-100,4,2,0,75,0,1
87181,-100,4,2,0,75,0,0
97000,-100,4,2,0,75,0,1
97136,-100,4,2,0,75,0,0
110090,-100,4,2,0,75,0,0
114454,-100,4,2,0,75,0,1
115272,-100,4,2,0,75,0,0
131909,-100,4,2,0,75,0,0
145000,-100,4,2,0,40,0,0
148272,-100,4,2,0,50,0,0
149363,-100,4,2,0,65,0,0
166818,-100,4,2,0,85,0,1
179909,-100,4,2,0,75,0,0
184272,-100,4,2,0,75,0,1
188636,-100,4,2,0,85,0,1
193000,-100,4,2,0,75,0,1
197363,-100,4,2,0,85,0,1
201727,-100,4,2,0,65,0,0
219181,-100,4,2,0,45,0,0

[Colours]
Combo1 : 228,80,117
Combo2 : 255,255,51
Combo3 : 255,128,64
Combo4 : 255,70,70

[HitObjects]
256,192,15454,12,2,17363,0:0:0:0:
256,78,18454,6,0,L|387:91,1,115,4|0,1:2|0:0,0:0:0:0:
427,146,18863,1,0,1:0:0:0:
364,197,19000,2,0,P|364:252|400:309,2,115,8|0|0,0:0|1:0|0:0,0:0:0:0:
256,78,19818,2,0,B|225:74|225:74|180:79,1,57.5,0|0,1:0|1:0,0:0:0:0:
124,107,20090,2,0,L|135:177,1,57.5,8|0,0:0|1:0,0:0:0:0:
75,220,20363,2,0,L|86:290,1,57.5,0|0,0:0|0:0,0:0:0:0:
42,346,20636,6,0,P|92:324|164:324,1,115,0|0,1:0|0:0,0:0:0:0:
231,335,21045,1,0,1:0:0:0:
310,347,21181,2,0,P|367:345|419:322,2,115,8|0|0,0:0|1:0|0:0,0:0:0:0:
332,186,22000,2,0,B|332:160|332:160|315:107,1,57.5,0|0,1:0|1:0,0:0:0:0:
272,66,22272,2,0,P|232:72|194:85,2,76.6666666666667,8|0|0,0:0|1:0|1:0,0:0:0:0:
377,40,22818,6,0,P|435:22|493:51,1,115,0|0,1:0|0:0,0:0:0:0:
430,103,23227,1,0,1:0:0:0:
375,163,23363,2,0,P|428:183|482:165,2,115,8|0|0,0:0|1:0|0:0,0:0:0:0:
287,28,24181,2,0,B|257:24|257:24|223:31,1,57.5,0|0,1:0|1:0,0:0:0:0:
149,29,24454,2,0,P|146:62|149:90,1,57.5,8|0,0:0|1:0,0:0:0:0:
191,154,24727,2,0,P|194:187|191:215,1,57.5,0|0,0:0|0:0,0:0:0:0:
257,257,25000,6,0,L|145:279,1,115,0|0,1:0|0:0,0:0:0:0:
71,312,25409,1,0,1:0:0:0:
134,360,25545,2,0,L|246:338,2,115,8|0|0,0:0|1:0|0:0,0:0:0:0:
257,257,26363,2,0,B|287:253|287:253|320:260,1,57.5,0|0,1:0|1:0,0:0:0:0:
393,271,26636,2,0,P|432:283|476:275,2,76.6666666666667,8|0|0,0:0|1:0|1:0,0:0:0:0:
443,176,27181,6,0,B|438:119|438:119|451:48,1,115,4|0,1:2|0:0,0:0:0:0:
376,24,27590,1,0,1:0:0:0:
325,88,27727,2,0,B|268:93|268:93|197:80,2,115,8|0|0,0:0|1:0|0:0,0:0:0:0:
435,203,28545,2,0,B|439:238|439:238|434:264,1,57.5,0|0,1:0|1:0,0:0:0:0:
422,339,28818,2,0,P|389:347|361:346,1,57.5,8|0,0:0|1:0,0:0:0:0:
293,312,29090,2,0,P|264:312|236:319,1,57.5,0|0,0:0|0:0,0:0:0:0:
168,363,29363,6,0,P|180:302|174:244,1,115,0|0,1:0|0:0,0:0:0:0:
162,169,29772,1,0,1:0:0:0:
139,91,29909,2,0,P|195:79|252:83,2,115,8|0|0,0:0|1:0|0:0,0:0:0:0:
49,225,30727,2,0,B|47:260|47:260|49:288,1,57.5,0|0,1:0|1:0,0:0:0:0:
80,356,31000,2,0,P|41:369|-1:368,2,76.6666666666667,8|0|0,0:0|1:0|1:0,0:0:0:0:
175,313,31545,6,0,P|235:301|300:311,1,115,0|0,1:0|0:0,0:0:0:0:
366,326,31954,1,0,1:0:0:0:
443,345,32090,2,0,P|454:288|448:232,2,115,2|0|0,0:0|1:0|0:0,0:0:0:0:
443,345,33727,6,0,L|324:356,1,115,2|2,0:0|0:0,0:0:0:0:
182,287,34272,2,0,L|296:276,1,115,2|2,0:0|0:0,0:0:0:0:
424,177,34818,2,0,L|309:187,1,115,2|2,0:0|0:0,0:0:0:0:
168,110,35363,2,0,L|282:99,1,115,2|2,0:0|0:0,0:0:0:0:
424,177,35909,6,0,B|434:233|434:233|425:293,2,115,4|0|0,1:2|1:0|1:0,0:0:0:0:
391,19,36727,1,0,1:0:0:0:
269,125,37000,2,0,B|213:135|213:135|153:126,2,115,0|0|0,1:0|1:0|1:0,0:0:0:0:
391,19,37818,1,0,1:0:0:0:
424,177,38090,6,0,P|419:230|428:297,1,115,0|0,1:0|1:0,0:0:0:0:
272,240,38636,2,0,P|277:187|268:120,1,115,0|0,1:0|1:0,0:0:0:0:
120,188,39181,1,0,1:0:0:0:
152,345,39454,1,0,1:0:0:0:
272,240,39727,2,0,P|328:232|386:237,1,115,0|0,1:0|1:0,0:0:0:0:
356,79,40272,6,0,B|304:79|304:79|230:94,2,115,0|0|0,1:0|1:0|1:0,0:0:0:0:
469,192,41090,1,0,1:0:0:0:
356,305,41363,2,0,B|304:305|304:305|230:290,2,115,0|0|0,1:0|1:0|1:0,0:0:0:0:
469,192,42181,1,0,1:0:0:0:
307,192,42454,6,0,L|179:192,1,115,0|0,1:0|1:0,0:0:0:0:
306,77,43000,2,0,L|434:77,1,115,0|0,1:0|1:0,0:0:0:0:
307,192,43545,1,0,1:0:0:0:
194,77,43818,1,0,1:0:0:0:
82,192,44090,2,0,L|89:313,1,115,0|0,1:0|1:0,0:0:0:0:
237,243,44636,6,0,L|304:239,2,57.5,0|0|0,1:0|1:0|1:0,0:0:0:0:
82,192,45181,2,0,L|15:196,2,57.5,0|0|0,1:0|1:0|1:0,0:0:0:0:
232,132,45727,2,0,L|299:128,2,57.5,0|0|0,1:0|1:0|1:0,0:0:0:0:
77,81,46272,2,0,L|10:85,2,57.5,0|0|0,1:0|1:0|1:0,0:0:0:0:
158,220,46818,6,0,P|155:253|146:282,2,57.5,0|0|0,1:0|1:0|1:0,0:0:0:0:
289,128,47363,2,0,P|292:95|301:66,2,57.5,0|0|0,1:0|1:0|1:0,0:0:0:0:
330,284,47909,2,0,P|327:317|318:346,2,57.5,0|0|0,1:0|1:0|1:0,0:0:0:0:
461,192,48454,2,0,P|464:159|473:130,2,57.5,0|0|0,1:0|1:0|1:0,0:0:0:0:
256,192,49000,12,2,52272,0:3:0:0:
294,153,53363,6,0,P|294:95|260:25,1,115,4|0,1:2|0:0,0:0:0:0:
137,127,53909,2,0,P|137:185|171:255,1,115,8|0,0:0|1:0,0:0:0:0:
274,348,54454,2,0,L|351:344,1,57.5,0|0,0:0|0:0,0:0:0:0:
411,337,54727,2,0,P|411:302|404:262,1,57.5,0|0,1:0|1:0,0:0:0:0:
402,199,55000,2,0,L|325:203,1,57.5,8|0,0:0|1:0,0:0:0:0:
264,208,55272,1,0,0:0:0:0:
112,261,55545,6,0,B|117:237|109:215|109:215|110:193|110:193|102:164|103:129,1,115,0|0,1:0|0:0,0:0:0:0:
224,40,56090,2,0,P|279:35|353:43,1,115,8|0,0:0|1:0,0:0:0:0:
490,94,56636,2,0,L|487:157,1,57.5,0|0,0:0|0:0,0:0:0:0:
430,208,56909,2,0,L|427:271,1,57.5,0|0,1:0|1:0,0:0:0:0:
376,327,57181,2,0,P|417:345|464:336,2,86.25,8|0|0,0:0|0:0|0:0,0:0:0:0:
300,298,57727,6,0,B|243:285|243:285|180:304,1,115,0|0,1:0|0:0,0:0:0:0:
33,345,58272,2,0,L|36:209,1,115,8|0,0:0|1:0,0:0:0:0:
74,72,58818,2,0,P|104:69|133:72,1,57.5,0|0,0:0|0:0,0:0:0:0:
209,95,59090,2,0,B|234:99|234:99|271:96,1,57.5,0|0,1:0|1:0,0:0:0:0:
347,84,59363,2,0,P|377:81|406:84,1,57.5,8|0,0:0|1:0,0:0:0:0:
484,98,59636,1,0,0:0:0:0:
484,259,59909,6,0,L|361:266,1,115,0|0,1:0|1:0,0:0:0:0:
208,277,60454,1,8,0:0:0:0:
217,116,60727,2,0,P|319:164|369:265,1,230,0|0,1:0|1:0,0:0:0:0:
207,276,61545,2,0,P|142:287|83:281,1,115,0|0,0:0|0:0,0:0:0:0:
51,126,62090,6,0,B|80:93|89:64|89:64|130:79|168:60|168:60|175:89|223:119,1,230,0|8,1:0|0:0,0:0:0:0:
291,258,62909,1,4,1:2:0:0:
356,111,63181,2,0,P|393:112|429:118,1,57.5,0|0,0:0|0:0,0:0:0:0:
478,162,63454,2,0,B|473:193|473:193|473:226,1,57.5,0|0,1:0|1:0,0:0:0:0:
426,285,63727,2,0,P|389:284|353:272,1,57.5,8|0,0:0|1:0,0:0:0:0:
291,258,64000,1,0,0:0:0:0:
356,111,64272,6,0,B|328:116|301:104|301:104|277:117|233:112,1,115,0|0,1:0|0:0,0:0:0:0:
82,95,64818,2,0,P|68:159|79:224,1,115,8|0,0:0|1:0,0:0:0:0:
172,334,65363,2,0,P|206:331|242:336,1,57.5,0|0,0:0|0:0,0:0:0:0:
309,343,65636,2,0,B|316:312|316:312|317:279,1,57.5,0|0,1:0|1:0,0:0:0:0:
327,206,65909,2,0,P|361:203|397:208,1,57.5,8|0,0:0|0:0,0:0:0:0:
463,214,66181,1,0,0:0:0:0:
403,64,66454,6,0,L|287:73,1,115,6|2,1:2|0:0,0:0:0:0:
212,214,67000,2,0,L|327:206,1,115,2|2,0:0|0:0,0:0:0:0:
188,123,67545,2,0,L|72:132,1,115,2|2,0:0|0:0,0:0:0:0:
51,292,68091,2,0,L|165:283,1,115,2|2,0:0|0:0,0:0:0:0:
256,192,68636,12,2,70545,0:0:0:0:
297,170,70818,6,0,P|281:228|300:291,1,115,4|0,1:2|0:0,0:0:0:0:
350,337,71227,1,0,1:0:0:0:
406,280,71363,2,0,P|418:224|402:169,1,115,8|0,0:0|1:0,0:0:0:0:
288,55,71909,2,0,B|208:55|208:55|160:72,1,115,0|0,0:0|1:0,0:0:0:0:
117,123,72318,1,0,1:0:0:0:
173,179,72454,2,0,B|205:190|205:190|285:190,1,115,8|0,0:0|0:0,0:0:0:0:
397,74,73000,6,0,P|344:52|288:55,1,115,0|0,1:0|0:0,0:0:0:0:
210,79,73409,1,0,1:0:0:0:
132,55,73545,2,0,P|75:52|23:75,1,115,8|0,0:0|1:0,0:0:0:0:
108,211,74090,2,0,B|150:203|150:203|170:208|170:208|193:200|227:204,1,115,2|0,0:0|1:0,0:0:0:0:
301,214,74500,1,0,1:0:0:0:
360,159,74636,2,0,P|381:208|310:294,1,172.5,8|0,0:0|0:0,0:0:0:0:
234,299,75181,6,0,B|159:303|159:303|116:323,1,115,0|0,1:0|0:0,0:0:0:0:
47,347,75590,1,0,1:0:0:0:
22,269,75727,2,0,B|26:194|26:194|46:151,1,115,8|0,0:0|1:0,0:0:0:0:
156,43,76272,2,0,B|215:31|215:31|280:31,1,115,0|0,0:0|1:0,0:0:0:0:
336,76,76681,1,0,1:0:0:0:
395,128,76818,2,0,B|395:182|395:182|383:241,1,115,8|0,0:0|0:0,0:0:0:0:
234,299,77363,5,0,1:0:0:0:
174,147,77636,2,0,P|283:112|396:129,1,230,0|0,0:0|1:0,0:0:0:0:
476,140,78318,1,0,0:0:0:0:
427,204,78454,2,0,L|449:272,1,57.5,0|0,0:0|0:0,0:0:0:0:
363,258,78727,2,0,L|341:326,1,57.5,0|0,1:0|1:0,0:0:0:0:
272,348,79000,2,0,P|211:348|99:309,1,172.5,8|0,0:0|0:0,0:0:0:0:
33,278,79545,6,0,P|47:218|44:155,1,115,4|0,1:2|0:0,0:0:0:0:
45,84,79954,1,0,1:0:0:0:
113,125,80090,2,0,P|170:125|226:112,1,115,8|0,0:0|1:0,0:0:0:0:
386,91,80636,2,0,P|372:151|375:214,1,115,0|0,0:0|1:0,0:0:0:0:
374,285,81045,1,0,1:0:0:0:
306,244,81181,2,0,P|249:244|193:257,1,115,8|0,0:0|0:0,0:0:0:0:
33,278,81727,6,0,B|28:226|28:226|32:211|32:211|26:144,1,115,0|0,1:0|0:0,0:0:0:0:
84,106,82136,1,0,1:0:0:0:
140,162,82272,2,0,B|187:157|187:157|202:161|202:161|254:156,1,115,8|0,0:0|1:0,0:0:0:0:
415,142,82818,2,0,B|407:176|418:198|418:198|411:233|423:279,1,115,2|0,0:0|1:0,0:0:0:0:
435,334,83227,1,0,1:0:0:0:
357,314,83363,2,0,B|265:314|265:314|233:347|174:348,1,172.5,8|0,0:0|0:0,0:0:0:0:
115,326,83909,6,0,B|109:275|109:275|116:193,1,115,4|0,1:2|0:0,0:0:0:0:
122,131,84318,1,0,1:0:0:0:
126,50,84454,2,0,B|189:44|189:44|240:50,1,115,0|0,1:0|1:0,0:0:0:0:
400,74,85000,2,0,B|406:125|406:125|399:207,1,115,0|0,0:0|1:0,0:0:0:0:
393,269,85409,1,0,0:0:0:0:
389,350,85545,2,0,B|325:355|325:355|274:349,1,115,0|0,1:0|1:0,0:0:0:0:
114,333,86090,2,0,B|132:275|109:221|109:221|122:147,1,172.5,0|0,1:0|1:0,0:0:0:0:
62,107,86636,6,0,P|118:117|174:104,1,115,0|0,1:0|1:0,0:0:0:0:
248,73,87045,1,0,1:0:0:0:
324,47,87181,2,0,B|379:64|438:46|438:46|428:70|437:113,1,172.5,0|0,1:0|1:0,0:0:0:0:
451,181,87727,1,2,0:0:0:0:
131,221,88272,6,0,P|216:221|323:130,1,230,4|2,1:2|0:0,0:0:0:0:
175,65,89090,1,2,0:0:0:0:
131,221,89363,2,0,L|141:344,1,115,2|2,0:0|0:0,0:0:0:0:
301,343,89909,2,0,L|291:220,1,115,2|2,0:0|0:0,0:0:0:0:
355,80,90454,6,0,P|435:159|444:271,1,230,2|2,0:0|0:0,0:0:0:0:
291,228,91272,1,2,0:0:0:0:
138,175,91545,2,0,P|76:170|21:178,2,115,2|2|2,0:0|0:0|0:0,0:0:0:0:
291,228,92363,1,2,0:0:0:0:
163,326,92636,5,6,0:0:0:0:
256,192,92772,12,2,95909,0:3:0:0:
100,140,97000,6,0,P|69:189|83:257,1,115,4|0,1:2|0:0,0:0:0:0:
148,207,97409,1,0,1:0:0:0:
227,199,97545,2,0,P|284:195|348:203,1,115,0|8,0:0|0:0,0:0:0:0:
420,218,97954,1,0,1:0:0:0:
368,279,98090,2,0,P|366:315|372:343,2,57.5,0|0|0,0:0|0:0|1:0,0:0:0:0:
458,145,98636,2,0,P|460:109|454:81,2,57.5,0|0|8,0:0|1:0|0:0,0:0:0:0:
380,121,99045,1,0,0:0:0:0:
299,115,99181,6,0,P|240:107|164:123,1,115,0|0,1:0|0:0,0:0:0:0:
126,60,99590,2,0,P|134:116|126:173,1,115,0|0,1:0|1:0,0:0:0:0:
69,232,100000,2,0,P|125:223|182:231,2,115,8|0|0,0:0|0:0|1:0,0:0:0:0:
12,288,100681,1,0,0:0:0:0:
69,345,100818,2,0,P|125:354|182:346,1,115,0|8,1:0|0:0,0:0:0:0:
333,291,101363,5,0,1:0:0:0:
333,291,101500,2,0,P|333:204|355:103,1,172.5,2|2,0:0|0:0,0:0:0:0:
188,120,102181,2,0,P|204:204|204:290,1,172.5,10|2,0:0|0:0,0:0:0:0:
98,171,102863,2,0,P|106:61|219:22,1,230,2|2,0:0|0:0,0:0:0:0:
283,40,103545,5,0,1:0:0:0:
357,69,103681,2,0,B|421:89|473:66|473:66|474:105|499:138,1,172.5,2|2,0:0|1:2,0:0:0:0:
428,174,104227,1,0,1:0:0:0:
484,230,104363,2,0,B|471:242|470:281|470:281|418:258|354:278,1,172.5,10|2,0:0|0:0,0:0:0:0:
194,282,105045,1,2,0:0:0:0:
194,282,105181,2,0,P|152:281|122:285,1,57.5,2|0,1:2|1:0,0:0:0:0:
56,288,105454,1,8,0:0:0:0:
114,137,105727,6,0,B|166:111|166:111|233:119,1,115,4|0,1:2|0:0,0:0:0:0:
301,132,106136,1,0,1:0:0:0:
380,140,106272,2,0,B|406:192|406:192|398:259,1,115,0|8,0:0|0:0,0:0:0:0:
389,328,106681,1,0,1:0:0:0:
318,289,106818,2,0,L|253:295,2,57.5,0|0|0,0:0|0:0|1:0,0:0:0:0:
380,140,107363,2,0,L|445:134,2,57.5,0|0|8,0:0|1:0|0:0,0:0:0:0:
299,129,107772,1,0,0:0:0:0:
231,173,107909,6,0,P|174:190|110:183,1,115,0|0,1:0|0:0,0:0:0:0:
54,136,108318,2,0,P|71:193|64:257,1,115,0|0,1:0|1:0,0:0:0:0:
126,301,108727,2,0,P|68:296|14:313,2,115,8|0|0,0:0|0:0|1:0,0:0:0:0:
205,315,109409,1,0,0:0:0:0:
284,323,109545,2,0,P|341:327|395:310,1,115,0|8,1:0|0:0,0:0:0:0:
321,166,110090,5,4,1:2:0:0:
256,192,110227,12,2,114181,0:0:0:0:
412,244,114454,6,0,P|443:195|429:127,1,115,0|0,1:0|0:0,0:0:0:0:
364,177,114863,1,0,1:0:0:0:
285,185,114999,2,0,P|228:189|164:181,1,115,0|12,0:0|0:0,0:0:0:0:
92,166,115408,1,0,1:0:0:0:
144,105,115545,2,0,P|146:69|140:41,2,57.5,0|0|0,0:0|0:0|1:0,0:0:0:0:
54,239,116090,2,0,P|52:275|58:303,2,57.5,0|0|8,0:0|1:0|0:0,0:0:0:0:
132,263,116499,1,0,0:0:0:0:
213,269,116636,6,0,P|272:277|348:261,1,115,0|0,1:0|0:0,0:0:0:0:
386,324,117045,2,0,P|378:268|386:211,1,115,0|0,1:0|1:0,0:0:0:0:
443,152,117454,2,0,P|387:161|330:153,2,115,8|0|0,0:0|0:0|1:0,0:0:0:0:
500,96,118135,1,0,0:0:0:0:
443,39,118272,2,0,P|387:30|330:38,1,115,0|8,1:0|0:0,0:0:0:0:
179,93,118817,5,0,1:0:0:0:
179,93,118954,2,0,P|179:180|157:281,1,172.5,2|2,0:0|0:0,0:0:0:0:
324,264,119636,2,0,P|308:180|308:94,1,172.5,10|2,0:0|0:0,0:0:0:0:
413,214,120318,2,0,P|405:324|292:363,1,230,2|2,0:0|0:0,0:0:0:0:
229,344,120999,5,0,1:0:0:0:
155,315,121135,2,0,B|91:295|39:318|39:318|38:279|13:246,1,172.5,2|2,0:0|1:2,0:0:0:0:
84,210,121681,1,0,1:0:0:0:
28,154,121817,2,0,B|41:142|42:103|42:103|94:126|158:106,1,172.5,10|2,0:0|0:0,0:0:0:0:
318,102,122499,1,2,0:0:0:0:
318,102,122635,2,0,P|360:101|390:105,1,57.5,2|0,1:2|1:0,0:0:0:0:
455,115,122908,1,8,0:0:0:0:
398,265,123181,6,0,B|346:291|346:291|279:283,1,115,4|0,1:2|0:0,0:0:0:0:
211,270,123590,1,0,1:0:0:0:
132,262,123727,2,0,B|106:210|106:210|114:143,1,115,0|0,1:0|1:0,0:0:0:0:
123,74,124135,1,0,0:0:0:0:
194,113,124272,2,0,L|259:107,2,57.5,0|0|0,0:0|1:0|1:0,0:0:0:0:
132,262,124817,2,0,L|67:268,2,57.5,0|0|0,1:0|0:0|1:0,0:0:0:0:
213,273,125226,1,0,0:0:0:0:
281,229,125363,6,0,P|338:212|402:219,1,115,0|0,1:0|0:0,0:0:0:0:
458,266,125772,2,0,P|441:209|448:145,1,115,0|0,1:0|0:0,0:0:0:0:
386,101,126181,2,0,P|444:106|498:89,2,115,0|0|0,1:0|0:0|1:0,0:0:0:0:
307,87,126863,1,0,0:0:0:0:
228,79,126999,2,0,P|171:75|117:92,1,115,0|0,1:0|1:0,0:0:0:0:
191,236,127545,6,0,P|248:240|354:177,1,172.5,0|0,1:0|1:0,0:0:0:0:
393,121,128090,2,0,L|508:141,1,115,0|0,1:0|1:0,0:0:0:0:
281,50,128772,1,0,1:0:0:0:
281,50,128909,2,0,L|159:64,2,115,0|0|0,1:0|1:0|1:0,0:0:0:0:
441,32,129727,6,0,B|450:148|450:148|436:212,1,172.5,0|0,1:0|1:0,0:0:0:0:
414,279,130272,2,0,P|359:291|297:278,1,115,0|0,1:0|1:0,0:0:0:0:
224,256,130681,1,0,1:0:0:0:
173,192,130818,2,0,P|142:251|196:333,1,172.5,0|0,1:0|1:0,0:0:0:0:
269,362,131363,1,2,0:0:0:0:
269,39,131909,5,4,1:2:0:0:
163,96,145000,6,0,P|140:171|166:268,1,172.5,2|2,0:0|0:0,0:0:0:0:
233,296,145545,2,0,L|115:338,1,115,2|2,0:0|0:0,0:0:0:0:
163,96,146227,1,2,0:0:0:0:
239,70,146363,2,0,P|298:59|366:70,2,115,2|2|2,0:0|0:0|0:0,0:0:0:0:
300,219,147181,6,0,P|387:205|451:139,1,172.5,2|2,0:0|0:0,0:0:0:0:
465,70,147727,2,0,P|408:59|351:65,1,115,2|2,0:0|0:0,0:0:0:0:
192,86,148272,2,0,L|177:142,1,57.5,2|2,0:0|0:0,0:0:0:0:
119,198,148545,2,0,L|134:254,1,57.5,2|2,0:0|0:0,0:0:0:0:
169,326,148818,1,2,0:0:0:0:
256,192,149090,1,0,1:0:0:0:
343,326,149363,6,0,P|404:318|456:282,2,115,4|0|0,1:2|1:0|1:0,0:0:0:0:
256,192,150181,1,0,1:0:0:0:
169,326,150454,2,0,P|108:318|56:282,2,115,0|0|0,1:0|1:0|1:0,0:0:0:0:
256,192,151272,1,0,1:0:0:0:
343,58,151545,6,0,P|404:66|456:102,1,115,0|0,1:0|1:0,0:0:0:0:
448,255,152090,2,0,P|387:247|335:211,1,115,0|0,1:0|1:0,0:0:0:0:
256,81,152636,1,0,1:0:0:0:
169,218,152909,1,0,1:0:0:0:
83,81,153181,2,0,P|53:138|53:199,1,115,0|0,1:0|1:0,0:0:0:0:
149,316,153727,6,0,P|205:309|256:282,2,115,0|0|0,1:0|1:0|1:0,0:0:0:0:
256,192,154545,1,0,1:0:0:0:
363,69,154818,2,0,P|306:75|255:102,2,115,0|0|0,1:0|1:0|1:0,0:0:0:0:
256,192,155636,1,0,1:0:0:0:
105,135,155909,6,0,P|92:189|107:257,1,115,0|0,1:0|1:0,0:0:0:0:
253,303,156454,2,0,P|266:248|256:192,1,115,0|0,1:0|1:0,0:0:0:0:
227,32,157000,1,0,1:0:0:0:
105,135,157272,1,0,1:0:0:0:
256,192,157545,2,0,P|311:205|367:194,1,115,0|0,1:0|1:0,0:0:0:0:
484,82,158090,6,0,L|480:18,2,57.5,0|0|0,1:0|1:0|1:0,0:0:0:0:
368,194,158636,2,0,L|372:258,2,57.5,0|0|0,1:0|1:0|1:0,0:0:0:0:
252,82,159181,2,0,L|248:18,2,57.5,0|0|0,1:0|1:0|1:0,0:0:0:0:
136,194,159727,2,0,L|140:258,2,57.5,0|0|0,1:0|1:0|1:0,0:0:0:0:
98,37,160272,6,0,P|65:35|40:39,2,57.5,0|0|0,1:0|1:0|1:0,0:0:0:0:
252,82,160818,2,0,P|285:84|310:80,2,57.5,0|0|0,1:0|1:0|1:0,0:0:0:0:
136,194,161363,2,0,P|103:192|78:196,2,57.5,0|0|0,1:0|1:0|1:0,0:0:0:0:
290,239,161909,2,0,P|323:241|348:237,2,57.5,0|0|0,1:0|1:0|1:0,0:0:0:0:
256,192,162454,12,2,165727,0:3:0:0:
359,92,166818,6,0,P|308:72|243:82,1,115,4|8,1:2|1:0,0:0:0:0:
98,139,167363,2,0,P|100:171|107:203,1,57.5,0|0,1:0|0:0,0:0:0:0:
126,273,167636,2,0,P|158:271|190:264,1,57.5,8|0,1:0|0:0,0:0:0:0:
263,259,167909,2,0,L|258:318,2,57.5,0|0|8,1:0|0:0|1:0,0:0:0:0:
320,201,168318,1,0,0:0:0:0:
376,257,168454,2,0,L|381:316,1,57.5,0|0,1:0|0:0,0:0:0:0:
438,371,168727,1,8,1:0:0:0:
468,212,169000,6,0,B|461:178|465:155|465:155|455:132|458:81,1,115,0|8,1:0|1:0,0:0:0:0:
307,38,169545,1,0,1:0:0:0:
307,38,169681,2,0,L|237:36,2,57.5,0|8|0,0:0|1:0|0:0,0:0:0:0:
367,91,170090,2,0,P|370:123|362:157,1,57.5,0|0,1:0|0:0,0:0:0:0:
350,227,170363,2,0,P|347:259|355:293,1,57.5,8|0,1:0|0:0,0:0:0:0:
405,343,170636,2,0,P|373:359|308:351,2,86.25,0|0|0,1:0|0:0|0:0,0:0:0:0:
456,280,171181,6,0,P|403:261|351:283,1,115,0|8,1:0|1:0,0:0:0:0:
194,322,171727,2,0,P|191:293|193:250,1,57.5,0|0,1:0|0:0,0:0:0:0:
248,207,172000,2,0,P|251:178|245:134,1,57.5,8|0,1:0|0:0,0:0:0:0:
226,72,172272,2,0,L|146:79,2,57.5,0|0|8,1:0|0:0|1:0,0:0:0:0:
283,14,172681,1,0,0:0:0:0:
340,71,172818,2,0,L|420:78,1,57.5,0|0,1:0|0:0,0:0:0:0:
476,86,173090,1,8,1:0:0:0:
435,241,173363,6,0,L|366:244,1,57.5,0|0,1:0|0:0,0:0:0:0:
320,300,173636,2,0,L|251:303,1,57.5,8|0,1:0|0:0,0:0:0:0:
205,359,173909,2,0,P|216:305|200:247,1,115,0|8,1:0|1:0,0:0:0:0:
174,171,174318,1,0,0:0:0:0:
145,95,174454,2,0,L|216:80,1,57.5,0|0,1:0|0:0,0:0:0:0:
282,83,174727,2,0,L|338:94,1,57.5,8|0,1:0|0:0,0:0:0:0:
385,160,175000,2,0,P|384:110|426:61,1,115,0|8,1:0|1:0,0:0:0:0:
461,133,175409,1,0,0:0:0:0:
452,212,175545,6,0,B|448:251|461:269|461:269|450:300|451:329,1,115,4|8,1:2|1:0,0:0:0:0:
290,339,176090,2,0,L|226:344,1,57.5,0|0,1:0|0:0,0:0:0:0:
151,343,176363,2,0,L|155:285,1,57.5,8|0,1:0|0:0,0:0:0:0:
98,228,176636,2,0,P|64:238|22:240,2,57.5,0|0|8,1:0|0:0|1:0,0:0:0:0:
155,170,177045,1,0,0:0:0:0:
211,226,177181,2,0,P|245:236|287:238,1,57.5,0|0,1:0|0:0,0:0:0:0:
347,248,177454,1,8,1:0:0:0:
255,117,177727,6,0,B|202:134|202:134|149:175,1,115,0|8,1:0|1:0,0:0:0:0:
131,329,178272,1,0,1:0:0:0:
131,329,178409,2,0,P|101:335|59:335,2,57.5,0|8|0,0:0|1:0|0:0,0:0:0:0:
210,313,178818,2,0,P|247:307|280:307,1,57.5,0|0,1:0|0:0,0:0:0:0:
347,311,179090,2,0,P|403:320|455:283,1,115,8|0,1:0|1:0,0:0:0:0:
387,240,179500,1,0,1:0:0:0:
217,67,179909,6,0,L|153:74,1,57.5,4|0,1:2|1:0,0:0:0:0:
91,31,180181,2,0,P|113:88|99:148,1,115,0|4,1:0|1:2,0:0:0:0:
92,219,180590,1,0,1:0:0:0:
170,198,180727,2,0,P|237:198|287:211,1,115,0|4,1:0|1:2,0:0:0:0:
358,239,181136,1,0,1:0:0:0:
371,318,181272,2,0,P|423:287|438:231,1,115,0|4,1:0|1:2,0:0:0:0:
422,158,181681,1,0,1:0:0:0:
364,102,181817,2,0,P|414:77|468:92,1,115,0|0,1:0|1:0,0:0:0:0:
256,192,182227,12,0,184000,0:0:0:0:
215,214,184272,6,0,P|231:156|212:93,1,115,4|0,1:2|0:0,0:0:0:0:
162,47,184681,1,0,1:0:0:0:
106,104,184817,2,0,P|94:160|110:215,1,115,8|0,0:0|1:0,0:0:0:0:
224,329,185363,2,0,B|304:329|304:329|352:312,1,115,0|0,0:0|0:0,0:0:0:0:
395,261,185772,1,0,1:0:0:0:
339,205,185908,2,0,B|307:194|307:194|227:194,1,115,8|0,0:0|0:0,0:0:0:0:
115,310,186454,6,0,P|168:332|224:329,1,115,0|0,1:0|0:0,0:0:0:0:
302,305,186863,1,0,1:0:0:0:
380,329,186999,2,0,P|437:332|489:309,1,115,8|0,0:0|1:0,0:0:0:0:
404,173,187545,2,0,B|362:181|362:181|342:176|342:176|319:184|285:180,1,115,0|0,0:0|1:0,0:0:0:0:
211,170,187954,1,0,1:0:0:0:
152,225,188090,2,0,P|131:176|202:90,1,172.5,8|0,0:0|1:0,0:0:0:0:
278,85,188636,6,0,B|353:81|353:81|396:61,1,115,4|8,1:2|1:0,0:0:0:0:
465,37,189045,1,0,0:0:0:0:
490,115,189182,2,0,B|486:190|486:190|466:233,1,115,0|8,1:0|1:0,0:0:0:0:
356,341,189727,2,0,B|297:353|297:353|232:353,1,115,0|8,1:0|1:0,0:0:0:0:
176,308,190136,1,0,0:0:0:0:
117,256,190273,2,0,B|117:202|117:202|129:143,1,115,0|8,1:0|1:0,0:0:0:0:
278,85,190818,5,0,1:0:0:0:
338,237,191091,2,0,P|229:272|116:255,1,230,8|8,1:0|1:0,0:0:0:0:
36,244,191773,1,0,0:0:0:0:
85,180,191909,2,0,L|63:112,1,57.5,0|0,1:0|0:0,0:0:0:0:
149,126,192182,2,0,L|171:58,1,57.5,8|0,1:0|0:0,0:0:0:0:
240,36,192455,2,0,P|301:36|413:75,1,172.5,0|0,1:0|0:0,0:0:0:0:
475,111,193000,6,0,B|493:166|478:197|478:197|492:237|476:291,1,172.5,0|0,1:0|1:0,0:0:0:0:
419,332,193545,1,0,0:0:0:0:
261,298,193818,2,0,P|225:309|190:307,1,57.5,4|0,1:2|0:0,0:0:0:0:
126,293,194091,2,0,P|140:233|137:170,1,115,0|0,0:0|1:0,0:0:0:0:
138,99,194500,1,0,1:0:0:0:
206,140,194636,2,0,P|263:140|319:127,1,115,8|0,0:0|0:0,0:0:0:0:
479,106,195182,6,0,B|484:158|484:158|480:173|480:173|486:240,1,115,0|0,1:0|0:0,0:0:0:0:
428,278,195591,1,0,1:0:0:0:
372,222,195727,2,0,B|325:227|325:227|310:223|310:223|258:228,1,115,8|0,0:0|1:0,0:0:0:0:
97,242,196273,2,0,B|105:208|94:186|94:186|101:151|89:105,1,115,2|0,0:0|1:0,0:0:0:0:
77,50,196682,1,0,1:0:0:0:
155,70,196818,2,0,B|247:70|247:70|279:37|338:36,1,172.5,8|0,0:0|0:0,0:0:0:0:
397,58,197364,6,0,B|416:114|416:114|399:185,1,115,4|0,1:2|1:0,0:0:0:0:
383,246,197772,1,0,1:0:0:0:
256,346,198045,1,0,1:0:0:0:
256,346,198181,2,0,P|219:346|184:348,1,57.5,0|0,1:0|0:0,0:0:0:0:
117,349,198454,2,0,B|112:288|112:288|127:225,1,115,0|0,1:0|1:0,0:0:0:0:
152,159,198863,1,0,1:0:0:0:
256,36,199136,1,0,1:0:0:0:
256,36,199272,2,0,L|320:44,1,57.5,0|0,1:0|0:0,0:0:0:0:
392,56,199545,6,0,P|378:109|386:170,1,115,0|0,1:0|1:0,0:0:0:0:
403,246,199954,1,0,1:0:0:0:
424,323,200090,2,0,P|371:337|310:329,1,115,0|0,1:0|1:0,0:0:0:0:
230,331,200500,1,0,1:0:0:0:
234,251,200636,2,0,B|289:141|187:141|253:5,1,230,0|2,1:0|0:0,0:0:0:0:
393,86,201454,1,8,0:0:0:0:
243,29,201727,6,0,P|182:36|118:79,1,115,4|0,1:2|0:0,0:0:0:0:
99,133,202136,1,0,1:0:0:0:
148,197,202273,2,0,P|148:252|112:309,2,115,8|0|0,0:0|1:0|0:0,0:0:0:0:
281,105,203091,2,0,B|312:101|312:101|357:106,1,57.5,0|0,1:0|1:0,0:0:0:0:
417,121,203363,2,0,L|406:191,1,57.5,8|0,0:0|1:0,0:0:0:0:
454,245,203636,2,0,L|443:315,1,57.5,0|0,0:0|0:0,0:0:0:0:
490,369,203909,6,0,P|440:347|368:347,1,115,0|0,1:0|0:0,0:0:0:0:
300,349,204318,1,0,1:0:0:0:
220,351,204454,2,0,P|163:349|111:326,2,115,8|0|0,0:0|1:0|0:0,0:0:0:0:
197,191,205273,2,0,B|197:165|197:165|214:112,1,57.5,0|0,1:0|1:0,0:0:0:0:
242,63,205545,2,0,P|282:69|324:84,2,76.6666666666667,8|0|0,0:0|1:0|1:0,0:0:0:0:
135,40,206091,6,0,P|77:22|19:51,1,115,0|0,1:0|0:0,0:0:0:0:
82,103,206500,1,0,1:0:0:0:
137,163,206636,2,0,P|84:183|30:165,2,115,8|0|0,0:0|1:0|0:0,0:0:0:0:
225,28,207454,2,0,B|255:24|255:24|289:31,1,57.5,0|0,1:0|1:0,0:0:0:0:
363,29,207727,2,0,P|366:62|363:90,1,57.5,8|0,0:0|1:0,0:0:0:0:
321,154,208000,2,0,P|318:187|321:215,1,57.5,0|0,0:0|0:0,0:0:0:0:
255,257,208273,6,0,L|367:279,1,115,0|0,1:0|0:0,0:0:0:0:
441,312,208682,1,0,1:0:0:0:
378,360,208818,2,0,L|266:338,2,115,8|0|0,0:0|1:0|0:0,0:0:0:0:
255,257,209636,2,0,B|225:253|225:253|192:260,1,57.5,0|0,1:0|1:0,0:0:0:0:
119,271,209909,2,0,P|80:283|39:281,2,76.6666666666667,8|0|0,0:0|1:0|1:0,0:0:0:0:
66,176,210454,6,0,B|71:119|71:119|58:48,1,115,4|0,1:2|0:0,0:0:0:0:
134,28,210863,1,0,1:0:0:0:
187,88,211000,2,0,B|244:93|244:93|315:80,2,115,8|0|0,0:0|1:0|0:0,0:0:0:0:
77,203,211818,2,0,B|73:238|73:238|78:264,1,57.5,0|0,1:0|1:0,0:0:0:0:
90,339,212091,2,0,P|123:347|151:346,1,57.5,8|0,0:0|1:0,0:0:0:0:
219,312,212363,2,0,P|248:312|276:319,1,57.5,0|0,0:0|0:0,0:0:0:0:
344,363,212636,6,0,P|332:302|338:244,1,115,0|0,1:0|0:0,0:0:0:0:
348,169,213045,1,0,1:0:0:0:
359,88,213182,2,0,P|303:76|246:80,2,115,8|0|0,0:0|1:0|0:0,0:0:0:0:
452,219,214000,2,0,B|454:254|454:254|452:282,1,57.5,0|0,1:0|1:0,0:0:0:0:
435,354,214272,2,0,P|474:367|514:361,2,76.6666666666667,8|0|0,0:0|1:0|1:0,0:0:0:0:
337,313,214818,6,0,P|277:301|212:311,1,115,0|0,1:0|0:0,0:0:0:0:
146,326,215227,1,0,1:0:0:0:
69,345,215363,2,0,P|58:288|64:232,2,115,8|0|0,0:0|1:0|0:0,0:0:0:0:
224,307,216181,2,0,B|227:277|227:277|221:243,1,57.5,0|0,1:0|1:0,0:0:0:0:
202,171,216454,2,0,L|259:160,1,57.5,8|0,0:0|1:0,0:0:0:0:
335,184,216727,2,0,L|392:195,1,57.5,0|0,0:0|0:0,0:0:0:0:
445,255,217000,6,0,P|441:189|460:140,1,115,0|0,1:0|0:0,0:0:0:0:
504,78,217409,1,0,1:0:0:0:
428,53,217545,2,0,P|371:47|316:65,2,115,8|0|0,0:0|1:0|0:0,0:0:0:0:
335,184,218363,2,0,P|295:194|277:196,1,57.5,0|0,1:0|1:0,0:0:0:0:
203,166,218636,2,0,P|186:198|191:254,2,76.6666666666667,8|0|0,0:0|0:0|0:0,0:0:0:0:
260,74,219181,6,0,B|205:45|161:82|161:82|175:47|170:9,1,172.5,4|0,1:2|1:0,0:0:0:0:
171,18,221363,6,0,P|88:38|50:127,1,172.5,0|0,0:0|0:0,0:0:0:0:
49,110,223545,6,0,B|67:169|67:169|51:219|51:219|69:285,1,172.5,0|0,1:0|1:0,0:0:0:0:
66,275,225727,6,0,P|154:264|247:269,1,172.5,0|0,0:0|0:0,0:0:0:0:
237,267,227227,6,0,L|248:199,1,57.5,0|0,1:0|1:0,0:0:0:0:
268,50,227909,5,0,1:0:0:0:
256,192,228045,12,0,236636,0:0:0:0:
