osu file format v14

[General]
AudioFilename: Camellia-K.Y.A.F.A. (Kill You All Fucking Asshole).mp3
AudioLeadIn: 0
PreviewTime: 53363
Countdown: 0
SampleSet: Soft
StackLeniency: 0.3
Mode: 0
LetterboxInBreaks: 0
WidescreenStoryboard: 1

[Editor]
Bookmarks: 166818
DistanceSpacing: 1.1
BeatDivisor: 3
GridSize: 4
TimelineZoom: 5.000003

[Metadata]
Title:K.Y.A.F.A. (Kill You All Fucking Asshole)
TitleUnicode:K.Y.A.F.A. (Kill You All Fucking Asshole)
Artist:Camellia
ArtistUnicode:Camellia
Creator:DeRandom Otaku
Version:Hyper
Source:
Tags:Drill cametek Binzokomegane Girls Union kyafa snownino C89 shmiklak ren
BeatmapID:1147080
BeatmapSetID:414034

[Difficulty]
HPDrainRate:5
CircleSize:3.6
OverallDifficulty:6.8
ApproachRate:9
SliderMultiplier:1.4
SliderTickRate:1

[Events]
//Background and Video events
0,0,"drill_tip.jpg",0,0
//Break Periods
2,132109,144400
//Storyboard Layer 0 (Background)
//Storyboard Layer 1 (Fail)
//Storyboard Layer 2 (Pass)
//Storyboard Layer 3 (Foreground)
//Storyboard Sound Samples

[TimingPoints]
1000,272.727272727273,4,2,0,40,1,0
15454,-133.333333333333,4,2,0,40,0,0
17363,-100,4,2,0,50,0,0
18454,-100,4,2,0,65,0,0
35840,-100,4,2,0,5,0,0
35909,-100,4,2,0,65,0,0
53363,-90.9090909090909,4,2,0,75,0,1
59840,-90.9090909090909,4,2,0,5,0,1
59909,-90.9090909090909,4,2,0,75,0,1
66454,-100,4,2,0,75,0,0
70818,-90.9090909090909,4,2,0,75,0,1
87181,-100,4,2,0,75,0,0
97000,-90.9090909090909,4,2,0,75,0,1
97136,-90.9090909090909,4,2,0,75,0,0
105181,-68.9655172413793,4,2,0,75,0,0
105454,-90.9090909090909,4,2,0,75,0,0
110090,-100,4,2,0,75,0,0
114454,-90.9090909090909,4,2,0,75,0,1
115272,-90.9090909090909,4,2,0,75,0,0
122636,-68.9655172413793,4,2,0,75,0,0
122909,-90.9090909090909,4,2,0,75,0,0
131909,-100,4,2,0,75,0,0
145000,-100,4,2,0,40,0,0
148272,-100,4,2,0,50,0,0
149363,-100,4,2,0,65,0,0
166818,-80,4,2,0,85,0,1
179909,-100,4,2,0,75,0,0
184204,-100,4,2,0,5,0,0
184272,-90.9090909090909,4,2,0,75,0,1
188636,-83.3333333333333,4,2,0,85,0,1
193000,-100,4,2,0,75,0,1
193818,-90.9090909090909,4,2,0,75,0,1
197363,-83.3333333333333,4,2,0,85,0,1
201454,-76.9230769230769,4,2,0,85,0,1
201727,-100,4,2,0,65,0,0
219181,-133.333333333333,4,2,0,45,0,0

[Colours]
Combo1 : 228,80,117
Combo2 : 255,255,51
Combo3 : 255,128,64
Combo4 : 255,70,70

[HitObjects]
145,125,15454,6,0,L|154:246,2,105.000004005432,2|2|2,0:0|0:0|0:0,0:0:0:0:
145,125,16272,6,0,P|221:106|301:114,1,157.500006008148,2|2,0:0|0:0,0:0:0:0:
344,178,16818,2,0,P|347:127|369:77,1,105.000004005432,2|2,0:0|0:0,0:0:0:0:
441,275,17363,6,0,P|407:286|359:286,1,70,2|2,0:0|0:0,0:0:0:0:
294,256,17636,2,0,P|259:257|225:268,1,70,2|2,0:0|0:0,0:0:0:0:
147,298,17909,2,0,L|153:351,2,46.6666666666667,2|2|2,0:0|0:0|0:0,0:0:0:0:
78,267,18181,2,0,L|44:308,2,46.6666666666667,0|0|0,1:0|1:0|1:0,0:0:0:0:
141,197,18454,6,0,P|178:144|165:56,1,140,4|0,1:2|0:0,0:0:0:0:
84,114,18863,1,0,1:0:0:0:
141,197,19000,2,0,L|292:219,2,140,8|0|0,0:0|1:0|0:0,0:0:0:0:
71,266,19681,1,0,0:0:0:0:
46,170,19818,2,0,L|38:120,2,35,0|0|0,1:0|1:0|1:0,0:0:0:0:
141,197,20090,2,0,P|180:180|219:146,1,70,8|0,0:0|1:0,0:0:0:0:
274,97,20363,2,0,P|313:114|352:148,1,70,0|0,0:0|0:0,0:0:0:0:
357,226,20636,6,0,P|382:156|454:124,1,140,0|0,1:0|0:0,0:0:0:0:
456,222,21045,1,0,1:0:0:0:
357,226,21181,2,0,P|287:232|210:227,2,140,8|0|0,0:0|1:0|0:0,0:0:0:0:
456,222,21863,1,0,0:0:0:0:
436,125,22000,2,0,L|401:119,2,35,0|0|0,1:0|1:0|1:0,0:0:0:0:
381,42,22272,2,0,P|332:80|320:118,2,93.3333333333333,8|0|0,0:0|1:0|1:0,0:0:0:0:
436,125,22818,6,0,P|448:190|431:261,1,140,0|0,1:0|0:0,0:0:0:0:
399,354,23227,1,0,1:0:0:0:
335,279,23363,2,0,L|178:296,2,140,8|0|0,0:0|1:0|0:0,0:0:0:0:
431,260,24045,1,0,0:0:0:0:
367,187,24181,2,0,L|358:140,2,35,0|0|0,1:0|1:0|1:0,0:0:0:0:
335,279,24454,2,0,P|298:283|245:273,1,70,8|0,0:0|1:0,0:0:0:0:
212,196,24727,2,0,P|175:192|122:202,1,70,0|0,0:0|0:0,0:0:0:0:
74,266,25000,6,0,P|94:193|94:117,1,140,0|0,1:0|0:0,0:0:0:0:
79,31,25409,1,0,1:0:0:0:
170,65,25545,2,0,P|239:62|306:43,2,140,8|0|0,0:0|1:0|0:0,0:0:0:0:
95,129,26227,1,0,0:0:0:0:
164,198,26363,2,0,L|199:204,2,35,0|0|0,1:0|1:0|1:0,0:0:0:0:
219,281,26635,2,0,P|268:243|280:210,2,93.3333333333333,8|0|0,0:0|1:0|1:0,0:0:0:0:
315,351,27181,6,0,B|386:351|386:351|461:323,1,140,4|0,1:2|0:0,0:0:0:0:
381,257,27590,1,0,1:0:0:0:
450,187,27727,2,0,B|385:162|385:162|314:162,2,140,8|0|0,0:0|1:0|0:0,0:0:0:0:
447,87,28409,1,0,0:0:0:0:
349,87,28545,2,0,L|314:87,2,35,0|0|0,1:0|1:0|1:0,0:0:0:0:
268,28,28818,2,0,P|247:56|240:90,1,70,8|0,0:0|1:0,0:0:0:0:
240,188,29090,2,0,P|232:222|212:249,1,70,0|0,0:0|0:0,0:0:0:0:
126,300,29363,6,0,P|196:300|275:329,1,140,0|0,1:0|0:0,0:0:0:0:
349,366,29772,1,0,1:0:0:0:
442,333,29909,2,0,P|463:266|463:197,2,140,8|0|0,0:0|1:0|0:0,0:0:0:0:
350,366,30590,1,0,0:0:0:0:
261,321,30727,2,0,L|218:324,2,35,0|0|0,1:0|1:0|1:0,0:0:0:0:
340,260,31000,2,0,B|349:216|323:216|336:169,2,93.3333333333333,8|0|0,0:0|1:0|1:0,0:0:0:0:
243,244,31545,6,0,P|174:234|101:206,1,140,0|0,1:0|0:0,0:0:0:0:
48,150,31954,1,0,1:0:0:0:
107,90,32090,2,0,P|172:65|241:55,2,140,2|0|0,0:0|1:0|0:0,0:0:0:0:
107,90,33727,6,0,L|99:164,1,70,2|2,0:0|0:0,0:0:0:0:
175,222,34000,2,0,L|182:152,1,70,2|2,0:0|0:0,0:0:0:0:
271,111,34272,2,0,L|263:185,1,70,2|2,0:0|0:0,0:0:0:0:
344,237,34545,2,0,L|351:167,1,70,2|2,0:0|0:0,0:0:0:0:
439,211,34818,2,0,P|441:257|426:297,1,70,2|2,0:0|0:0,0:0:0:0:
340,306,35090,2,0,P|338:260|353:220,1,70,2|2,0:0|0:0,0:0:0:0:
435,280,35363,2,0,P|437:326|422:366,1,70,2|2,0:0|0:0,0:0:0:0:
340,306,35636,2,0,L|218:301,1,105,2|0,0:0|0:0,0:0:0:0:
185,302,35909,6,0,P|181:262|186:225,1,70,4|0,1:2|0:0,0:0:0:0:
253,163,36181,2,0,P|257:123|252:86,1,70,0|0,1:0|0:0,0:0:0:0:
352,93,36454,2,0,P|348:133|353:170,1,70,0|0,1:0|0:0,0:0:0:0:
411,240,36727,1,0,1:0:0:0:
340,306,36863,1,0,0:0:0:0:
251,263,37000,6,0,P|241:300|251:352,1,70,0|0,1:0|0:0,0:0:0:0:
146,317,37272,2,0,P|156:280|146:228,1,70,0|0,1:0|0:0,0:0:0:0:
79,183,37545,2,0,L|188:157,1,105,0|0,1:0|0:0,0:0:0:0:
230,151,37818,2,0,P|214:114|214:74,1,70,0|0,1:0|0:0,0:0:0:0:
310,93,38090,6,0,L|407:92,1,70,0|0,1:0|0:0,0:0:0:0:
428,178,38363,2,0,L|331:179,1,70,0|0,1:0|0:0,0:0:0:0:
283,243,38636,2,0,P|286:283|278:320,1,70,0|0,1:0|0:0,0:0:0:0:
188,276,38909,2,0,P|185:236|193:199,1,70,0|0,1:0|0:0,0:0:0:0:
201,109,39181,6,0,L|150:107,2,35,0|0|0,1:0|0:0|0:0,0:0:0:0:
288,153,39454,2,0,P|298:113|288:63,1,70,0|0,1:0|0:0,0:0:0:0:
208,40,39727,2,0,P|198:80|208:130,1,70,0|0,1:0|0:0,0:0:0:0:
191,207,40000,1,0,1:0:0:0:
191,207,40272,6,0,P|191:244|174:288,1,70,0|0,1:0|0:0,0:0:0:0:
82,275,40545,2,0,P|71:241|72:206,1,70,0|0,1:0|0:0,0:0:0:0:
132,129,40818,2,0,P|132:94|122:60,1,70,0|0,1:0|0:0,0:0:0:0:
24,60,41090,2,0,P|13:93|14:128,1,70,0|0,1:0|0:0,0:0:0:0:
72,206,41363,5,0,1:0:0:0:
132,129,41500,1,0,0:0:0:0:
191,207,41636,2,0,P|225:207|276:191,1,70,0|0,1:0|0:0,0:0:0:0:
340,142,41909,2,0,P|395:142|447:156,1,105,0|0,1:0|0:0,0:0:0:0:
488,172,42181,2,0,L|473:245,1,70,0|0,1:0|0:0,0:0:0:0:
453,336,42454,6,0,P|421:331|375:337,1,70,0|0,1:0|0:0,0:0:0:0:
286,348,42727,2,0,P|251:351|216:346,1,70,0|0,1:0|0:0,0:0:0:0:
119,333,43000,1,0,1:0:0:0:
119,333,43136,1,0,0:0:0:0:
188,263,43272,2,0,P|192:232|181:180,1,70,0|0,1:0|0:0,0:0:0:0:
175,96,43545,6,0,L|127:100,2,35,0|0|0,1:0|0:0|0:0,0:0:0:0:
273,88,43818,2,0,P|307:85|352:91,1,70,0|0,1:0|0:0,0:0:0:0:
439,102,44090,2,0,P|442:136|436:181,1,70,0|0,1:0|0:0,0:0:0:0:
421,268,44363,1,0,1:0:0:0:
421,268,44636,6,0,L|346:276,1,70,0|0,1:0|1:0,0:0:0:0:
369,179,44909,2,0,L|444:171,1,70,0|0,1:0|1:0,0:0:0:0:
391,85,45181,2,0,L|316:93,1,70,0|0,1:0|1:0,0:0:0:0:
251,22,45454,1,0,1:0:0:0:
251,22,45590,1,0,1:0:0:0:
181,91,45727,6,0,P|184:131|196:169,1,70,0|0,1:0|1:0,0:0:0:0:
213,255,46000,2,0,P|246:245|281:243,1,70,0|0,1:0|1:0,0:0:0:0:
292,340,46272,2,0,P|258:349|223:351,1,70,0|0,1:0|1:0,0:0:0:0:
130,319,46545,1,0,1:0:0:0:
130,319,46681,1,0,1:0:0:0:
44,269,46818,6,0,B|42:232|42:232|49:181,1,70,0|0,1:0|1:0,0:0:0:0:
59,102,47090,2,0,B|96:100|96:100|147:107,1,70,0|0,1:0|1:0,0:0:0:0:
225,123,47363,2,0,B|257:127|257:127|294:125,1,70,0|0,1:0|1:0,0:0:0:0:
392,121,47636,1,0,1:0:0:0:
392,121,47772,1,0,1:0:0:0:
472,178,47909,6,0,B|472:216|472:216|455:257,1,70,0|0,1:0|1:0,0:0:0:0:
402,324,48181,2,0,B|372:336|372:336|334:336,1,70,0|0,1:0|1:0,0:0:0:0:
235,336,48454,2,0,B|197:336|197:336|167:323,1,70,0|0,1:0|1:0,0:0:0:0:
97,254,48727,1,0,1:0:0:0:
97,254,48863,1,0,1:0:0:0:
166,184,49000,5,2,0:0:0:0:
166,184,49136,2,0,L|152:104,1,70,0|2,0:0|0:0,0:0:0:0:
223,45,49408,2,0,L|235:113,1,70,0|2,0:0|0:0,0:0:0:0:
323,157,49681,2,0,L|309:77,1,70,0|2,0:0|0:0,0:0:0:0:
380,18,49953,2,0,L|392:86,1,70,0|2,0:0|0:0,0:0:0:0:
323,157,50227,6,0,P|320:191|326:234,1,70,0|2,0:0|0:0,0:0:0:0:
254,296,50500,2,0,P|219:291|184:294,1,70,0|2,0:0|0:0,0:0:0:0:
115,225,50772,2,0,P|119:190|116:155,1,70,0|2,0:0|0:0,0:0:0:0:
93,59,51045,1,0,0:0:0:0:
183,96,51181,6,0,L|236:81,7,35,2|0|0|0|2|0|0|0,1:2|1:0|1:0|1:0|1:2|1:0|1:0|1:0,0:0:0:0:
266,86,51727,2,0,L|319:71,7,35,2|0|0|0|2|0|0|0,1:2|1:0|1:0|1:0|0:0|0:0|0:0|0:0,0:0:0:0:
348,76,52272,5,2,0:3:0:0:
348,76,53363,6,0,P|343:133|352:236,1,154.000004699707,4|0,1:2|0:0,0:0:0:0:
369,335,53772,1,0,1:0:0:0:
369,335,53840,1,0,0:0:0:0:
369,335,53909,2,0,L|287:342,1,77.0000023498536,8|0,0:0|0:0,0:0:0:0:
274,236,54181,2,0,L|356:229,1,77.0000023498536,0|0,1:0|0:0,0:0:0:0:
433,159,54454,6,0,B|439:127|439:127|425:60,1,77.0000023498536,0|0,0:0|0:0,0:0:0:0:
348,154,54727,2,0,B|342:186|342:186|356:253,1,77.0000023498536,0|0,1:0|1:0,0:0:0:0:
452,268,55000,1,8,0:0:0:0:
452,268,55136,1,0,1:0:0:0:
370,335,55272,2,0,B|347:343|319:338|319:338|306:344|306:344|285:337|254:346,1,115.50000352478,0|0,0:0|0:0,0:0:0:0:
203,352,55545,6,0,B|196:304|196:304|201:281|201:281|184:250|198:180,1,154.000004699707,0|0,1:0|0:0,0:0:0:0:
212,93,55954,1,0,1:0:0:0:
212,93,56022,1,0,0:0:0:0:
212,93,56090,2,0,P|165:93|117:101,1,77.0000023498536,8|0,0:0|0:0,0:0:0:0:
41,150,56363,2,0,P|41:197|49:245,1,77.0000023498536,0|0,1:0|0:0,0:0:0:0:
71,331,56636,6,0,B|110:331|110:331|162:309,1,77.0000023498536
221,239,56909,2,0,B|260:239|260:239|294:253,1,77.0000023498536,0|0,1:0|1:0,0:0:0:0:
382,315,57181,2,0,P|383:258|392:201,2,115.50000352478,8|0|0,0:0|0:0|0:0,0:0:0:0:
464,244,57727,6,0,P|468:168|408:118,1,154.000004699707,0|0,1:0|0:0,0:0:0:0:
309,146,58136,1,0,1:0:0:0:
309,146,58204,1,0,0:0:0:0:
309,146,58272,2,0,P|265:156|228:155,1,77.0000023498536,8|0,0:0|0:0,0:0:0:0:
128,130,58545,2,0,P|128:168|137:205,1,77.0000023498536,0|0,1:0|0:0,0:0:0:0:
164,310,58818,6,0,B|201:312|201:312|238:297,1,77.0000023498536
332,245,59090,2,0,B|369:230|369:230|406:232,1,77.0000023498536,0|0,1:0|1:0,0:0:0:0:
389,337,59363,1,8,0:0:0:0:
389,337,59500,1,0,1:0:0:0:
332,245,59636,2,0,P|316:190|316:105,1,115.50000352478,0|0,0:0|0:0,0:0:0:0:
276,91,59909,6,0,L|176:108,1,77.0000023498536,0|0,1:0|0:0,0:0:0:0:
198,211,60181,2,0,L|298:194,1,77.0000023498536,0|0,1:0|0:0,0:0:0:0:
381,184,60454,1,8,0:0:0:0:
381,184,60590,1,0,0:0:0:0:
352,288,60727,2,0,P|352:329|371:369,1,77.0000023498536,0|0,1:0|0:0,0:0:0:0:
470,335,61000,6,0,P|470:294|451:254,1,77.0000023498536,0|0,0:0|0:0,0:0:0:0:
381,184,61272,2,0,P|379:161|382:135,2,38.5000011749268,0|0|0,1:0|1:0|1:0,0:0:0:0:
352,288,61545,2,0,L|272:310,1,77.0000023498536,0|0,0:0|0:0,0:0:0:0:
184,308,61818,2,0,L|109:287,1,77.0000023498536,0|0,0:0|0:0,0:0:0:0:
49,198,62090,6,0,B|66:156|47:124|47:124|94:138|123:128|123:128|159:139|211:123,1,231.000007049561,0|0,1:0|1:0,0:0:0:0:
268,77,62636,2,0,P|250:136|268:199,1,115.50000352478,8|0,0:0|0:0,0:0:0:0:
285,235,62909,6,0,P|296:272|295:320,1,77.0000023498536,4|0,1:2|0:0,0:0:0:0:
190,291,63181,2,0,B|149:291|149:291|102:277,1,77.0000023498536,0|0,0:0|0:0,0:0:0:0:
37,204,63454,2,0,B|47:168|47:168|47:128,1,77.0000023498536,0|0,1:0|1:0,0:0:0:0:
96,31,63727,2,0,P|135:32|174:42,1,77.0000023498536,8|0,0:0|1:0,0:0:0:0:
238,126,64000,2,0,B|287:119|287:119|304:125|304:125|373:115,1,115.50000352478,0|0,0:0|0:0,0:0:0:0:
405,115,64272,6,0,B|387:192|387:192|414:271,1,154.000004699707,0|0,1:0|0:0,0:0:0:0:
439,367,64681,1,0,1:0:0:0:
439,367,64750,1,0,0:0:0:0:
439,367,64818,2,0,L|345:362,1,77.0000023498536,8|0,0:0|0:0,0:0:0:0:
286,286,65090,2,0,L|209:281,1,77.0000023498536,0|0,1:0|0:0,0:0:0:0:
101,272,65363,6,0,B|95:233|95:233|101:196,1,77.0000023498536,0|0,0:0|0:0,0:0:0:0:
116,88,65636,2,0,B|155:82|155:82|192:88,1,77.0000023498536,0|0,1:0|1:0,0:0:0:0:
299,99,65909,2,0,L|294:175,1,77.0000023498536,8|0,0:0|0:0,0:0:0:0:
241,269,66181,2,0,P|299:281|355:262,1,115.50000352478,0|0,0:0|0:0,0:0:0:0:
398,248,66454,6,0,L|478:243,1,70,6|0,1:2|0:0,0:0:0:0:
460,145,66727,2,0,L|380:150,1,70,2|0,0:0|0:0,0:0:0:0:
294,175,67000,2,0,L|298:105,1,70,2|0,0:0|0:0,0:0:0:0:
205,76,67272,2,0,L|200:145,1,70,2|0,0:0|0:0,0:0:0:0:
190,243,67545,6,0,L|111:246,1,70,2|0,0:0|0:0,0:0:0:0:
160,335,67818,2,0,L|239:332,1,70,2|0,0:0|0:0,0:0:0:0:
324,356,68090,2,0,L|317:280,1,70,2|0,0:0|0:0,0:0:0:0:
412,260,68363,2,0,L|405:184,1,70,2|0,0:0|0:0,0:0:0:0:
349,109,68636,5,2,0:0:0:0:
349,109,68772,2,0,P|301:117|269:117,1,70,2|2,0:0|0:0,0:0:0:0:
198,173,69045,2,0,P|196:207|189:242,1,70,2|2,0:0|0:0,0:0:0:0:
100,200,69318,2,0,P|101:165|108:130,1,70,2|2,0:0|0:0,0:0:0:0:
191,79,69590,1,2,0:0:0:0:
280,117,69727,6,0,L|327:112,11,35,2|0|0|0|2|0|0|0|2|0|0|0,1:2|1:0|1:0|1:0|1:2|1:0|1:0|1:0|1:2|1:0|1:0|1:0,0:0:0:0:
363,112,70545,2,0,P|360:151|371:194,1,70,2|0,0:0|0:0,0:0:0:0:
272,262,70818,6,0,L|177:272,1,77.0000023498536,4|0,1:2|0:0,0:0:0:0:
145,174,71090,2,0,L|240:164,1,77.0000023498536,0|0,0:0|1:0,0:0:0:0:
245,279,71363,2,0,L|150:289,1,77.0000023498536,8|0,0:0|0:0,0:0:0:0:
118,191,71635,2,0,L|213:181,1,77.0000023498536,0|0,1:0|0:0,0:0:0:0:
218,296,71909,6,0,L|123:306,1,77.0000023498536,0|0,0:0|0:0,0:0:0:0:
91,208,72181,2,0,L|186:198,1,77.0000023498536,0|0,1:0|1:0,0:0:0:0:
191,313,72454,2,0,L|96:323,1,77.0000023498536,8|0,0:0|1:0,0:0:0:0:
64,225,72726,2,0,L|159:215,1,77.0000023498536,0|0,0:0|0:0,0:0:0:0:
164,330,73000,6,0,L|69:340,1,77.0000023498536,0|0,1:0|0:0,0:0:0:0:
37,242,73272,2,0,L|132:232,1,77.0000023498536,0|0,0:0|1:0,0:0:0:0:
137,347,73545,2,0,L|42:357,1,77.0000023498536,8|0,0:0|0:0,0:0:0:0:
10,259,73817,2,0,L|105:249,1,77.0000023498536,0|0,1:0|0:0,0:0:0:0:
180,197,74090,6,0,P|180:140|184:70,1,115.50000352478,2|0,0:0|0:0,0:0:0:0:
196,28,74363,2,0,L|235:31,3,38.5000011749268,0|0|0|0,1:0|1:0|1:0|1:0,0:0:0:0:
272,69,74636,2,0,L|311:72,3,38.5000011749268,8|0|0|0,0:0|0:0|1:0|0:0,0:0:0:0:
348,110,74909,2,0,L|387:113,3,38.5000011749268,0|0|0|0,0:0|1:0|0:0|0:0,0:0:0:0:
419,155,75181,6,0,L|429:250,1,77.0000023498536,0|0,1:0|0:0,0:0:0:0:
331,282,75453,2,0,L|321:187,1,77.0000023498536,0|0,0:0|1:0,0:0:0:0:
436,182,75726,2,0,L|446:277,1,77.0000023498536,8|0,0:0|0:0,0:0:0:0:
348,309,76000,2,0,L|338:214,1,77.0000023498536,0|0,1:0|0:0,0:0:0:0:
453,209,76272,6,0,L|463:304,1,77.0000023498536,0|0,0:0|0:0,0:0:0:0:
365,336,76544,2,0,L|355:241,1,77.0000023498536,0|0,1:0|1:0,0:0:0:0:
470,236,76817,2,0,L|480:331,1,77.0000023498536,8|0,0:0|1:0,0:0:0:0:
382,363,77090,2,0,L|372:268,1,77.0000023498536,0|0,0:0|0:0,0:0:0:0:
355,178,77363,6,0,L|235:191,1,115.50000352478,0|0,1:0|0:0,0:0:0:0:
185,190,77636,2,0,L|180:146,3,38.5000011749268,0|0|0|0,0:0|0:0|1:0|0:0,0:0:0:0:
126,151,77909,2,0,L|121:107,3,38.5000011749268,8|0|0|0,0:0|0:0|0:0|0:0,0:0:0:0:
105,61,78181,2,0,P|146:47|180:47,1,77.0000023498536,0|0,1:0|0:0,0:0:0:0:
278,90,78454,6,0,P|316:89|352:75,1,77.0000023498536,0|0,0:0|0:0,0:0:0:0:
457,48,78727,2,0,L|451:8,2,38.5000011749268,0|0|0,1:0|1:0|1:0,0:0:0:0:
471,155,79000,2,0,P|469:196|458:238,1,77.0000023498536,8|0,0:0|1:0,0:0:0:0:
440,336,79272,2,0,B|382:325|382:325|308:345,1,115.50000352478,0|0,0:0|0:0,0:0:0:0:
272,339,79545,6,0,L|252:245,1,77.0000023498536,4|0,1:2|0:0,0:0:0:0:
149,245,79817,2,0,L|168:338,1,77.0000023498536,0|0,0:0|1:0,0:0:0:0:
280,308,80090,2,0,L|260:214,1,77.0000023498536,8|0,0:0|0:0,0:0:0:0:
157,214,80363,2,0,L|176:307,1,77.0000023498536,0|0,1:0|0:0,0:0:0:0:
287,277,80636,6,0,L|267:183,1,77.0000023498536,0|0,0:0|0:0,0:0:0:0:
165,183,80908,2,0,L|184:276,1,77.0000023498536,0|0,1:0|1:0,0:0:0:0:
295,246,81181,2,0,L|275:152,1,77.0000023498536,8|0,0:0|1:0,0:0:0:0:
172,152,81453,2,0,L|191:245,1,77.0000023498536,0|0,0:0|0:0,0:0:0:0:
303,215,81727,6,0,L|283:121,1,77.0000023498536,0|0,1:0|0:0,0:0:0:0:
180,121,81999,2,0,L|199:214,1,77.0000023498536,0|0,0:0|1:0,0:0:0:0:
311,184,82272,2,0,L|291:90,1,77.0000023498536,8|0,0:0|0:0,0:0:0:0:
188,90,82544,2,0,L|207:183,1,77.0000023498536,0|0,1:0|0:0,0:0:0:0:
230,271,82818,6,0,B|202:284|173:271|173:271|153:300|103:308,1,115.50000352478,2|0,0:0|0:0,0:0:0:0:
87,316,83090,2,0,L|96:353,7,38.5000011749268,0|0|0|0|8|0|0|0,1:0|1:0|1:0|0:0|0:0|0:0|1:0|0:0,0:0:0:0:
59,269,83636,2,0,B|51:230|51:230|58:206|58:206|52:180|52:180|65:137,1,115.50000352478,0|0,0:0|0:0,0:0:0:0:
25,114,83909,6,0,L|111:118,1,77.0000023498536,4|0,1:2|0:0,0:0:0:0:
202,150,84181,2,0,L|288:154,1,77.0000023498536,0|0,0:0|1:0,0:0:0:0:
375,201,84454,2,0,L|370:298,1,77.0000023498536,0|0,1:0|0:0,0:0:0:0:
275,231,84727,2,0,L|280:134,1,77.0000023498536,0|0,1:0|0:0,0:0:0:0:
251,49,85000,6,0,L|343:55,1,77.0000023498536,0|0,0:0|1:0,0:0:0:0:
279,155,85272,2,0,L|187:149,1,77.0000023498536,0|0,1:0|0:0,0:0:0:0:
100,187,85545,2,0,L|91:276,1,77.0000023498536,0|0,1:0|0:0,0:0:0:0:
195,227,85818,2,0,L|204:138,1,77.0000023498536,0|0,1:0|0:0,0:0:0:0:
107,110,86090,6,0,L|100:187,1,77.0000023498536,0|0,1:0|0:0,0:0:0:0:
203,150,86363,2,0,L|212:61,1,77.0000023498536,0|0,0:0|1:0,0:0:0:0:
310,33,86636,2,0,L|408:39,1,77.0000023498536,0|0,1:0|0:0,0:0:0:0:
377,145,86909,2,0,L|279:139,1,77.0000023498536,0|0,1:0|1:0,0:0:0:0:
203,151,87181,6,0,P|201:175|204:202,7,35,0|0|0|0|0|0|0|0,1:0|1:0|1:0|1:0|1:0|1:0|1:0|1:0,0:0:0:0:
207,235,87727,1,2,0:0:0:0:
207,235,88272,6,0,P|204:285|193:327,1,70,4|0,1:2|0:0,0:0:0:0:
110,262,88545,2,0,P|113:212|124:170,1,70,2|0,0:0|0:0,0:0:0:0:
133,95,88818,2,0,P|167:101|202:102,1,70,2|0,0:0|0:0,0:0:0:0:
300,104,89090,1,2,0:0:0:0:
300,104,89227,1,0,0:0:0:0:
379,160,89363,6,0,B|387:198|387:198|377:231,1,70,2|0,0:0|0:0,0:0:0:0:
298,172,89636,2,0,B|291:138|291:138|300:101,1,70,2|0,0:0|0:0,0:0:0:0:
202,102,89909,2,0,P|154:122|93:123,1,105,2|0,0:0|0:0,0:0:0:0:
104,127,90181,2,0,L|86:215,1,70,2|0,0:0|0:0,0:0:0:0:
77,293,90454,6,0,B|114:293|114:293|158:298,1,70,2|0,0:0|0:0,0:0:0:0:
244,305,90727,2,0,B|281:305|281:305|313:301,1,70,2|0,0:0|0:0,0:0:0:0:
410,285,91000,2,0,B|410:248|410:248|406:215,1,70,2|0,0:0|0:0,0:0:0:0:
388,119,91272,2,0,B|351:119|351:119|318:122,1,70,2|0,0:0|0:0,0:0:0:0:
256,44,91545,5,2,0:0:0:0:
256,44,91681,1,0,0:0:0:0:
193,122,91818,2,0,P|187:158|189:200,1,70,2|0,0:0|0:0,0:0:0:0:
200,288,92090,2,0,P|164:281|122:283,2,70,2|0|2,0:0|0:0|0:0,0:0:0:0:
395,311,92636,5,6,0:0:0:0:
395,311,92772,2,0,L|408:236,1,70,2|2,0:0|0:0,0:0:0:0:
310,231,93045,2,0,L|297:306,1,70,2|2,0:0|0:0,0:0:0:0:
201,289,93318,2,0,L|212:220,1,70,2|2,0:0|0:0,0:0:0:0:
114,209,93590,2,0,L|103:278,1,70,2|2,0:0|0:0,0:0:0:0:
154,362,93863,6,0,P|191:374|241:369,1,70,2|2,0:0|0:0,0:0:0:0:
313,338,94136,2,0,P|345:326|380:326,1,70,2|2,0:0|0:0,0:0:0:0:
479,329,94409,2,0,P|478:294|467:261,1,70,2|2,0:0|0:0,0:0:0:0:
397,192,94681,1,2,0:0:0:0:
467,122,94818,6,0,L|460:78,7,35,2|0|0|0|2|0|0|0,1:2|1:0|1:0|1:0|1:2|1:0|1:0|1:0,1:1:0:0:
412,88,95363,2,0,L|404:43,7,35,2|0|0|0|2|0|0|0,1:2|1:0|1:0|1:0|1:2|1:0|1:0|1:0,0:0:0:0:
356,53,95909,5,2,0:3:0:0:
356,53,97000,6,0,P|289:54|227:117,1,154.000004699707,4|0,1:2|0:0,0:0:0:0:
327,156,97409,1,0,1:0:0:0:
403,231,97545,2,0,P|372:254|327:264,2,77.0000023498536,0|0|8,0:0|1:0|0:0,0:0:0:0:
424,124,97954,1,0,1:0:0:0:
409,123,98022,1,0,0:0:0:0:
394,123,98090,6,0,P|357:132|326:155,1,77.0000023498536,0|0,0:0|0:0,0:0:0:0:
241,223,98363,2,0,P|210:245|173:255,1,77.0000023498536,0|0,1:0|0:0,0:0:0:0:
70,221,98636,2,0,P|63:183|71:145,1,77.0000023498536,0|0,0:0|1:0,0:0:0:0:
111,45,98909,2,0,B|168:57|168:57|230:48,1,115.50000352478,8|0,0:0|0:0,0:0:0:0:
278,46,99181,6,0,L|284:96,4,38.5000011749268,0|0|0|0|0,1:0|0:0|0:0|0:0|0:0,0:0:0:0:
382,73,99590,2,0,L|377:34,4,38.5000011749268,0|0|0|0|0,1:0|1:0|1:0|0:0|1:0,0:0:0:0:
482,115,100000,1,8,0:0:0:0:
407,192,100136,1,0,1:0:0:0:
407,192,100204,1,0,0:0:0:0:
407,192,100272,6,0,P|349:203|275:208,1,115.50000352478,0|0,0:0|0:0,0:0:0:0:
239,198,100545,2,0,B|199:191|199:191|145:198,1,77.0000023498536,0|0,1:0|0:0,0:0:0:0:
58,224,100818,2,0,L|51:137,1,77.0000023498536,0|0,1:0|1:0,0:0:0:0:
157,119,101090,2,0,L|164:206,1,77.0000023498536,8|0,0:0|0:0,0:0:0:0:
177,303,101363,5,0,1:0:0:0:
281,274,101500,2,0,B|317:274|318:291|359:289,2,77.0000023498536,2|2|2,0:0|0:0|1:2,0:0:0:0:
177,303,101909,2,0,B|139:304|138:287|102:287,1,77.0000023498536,2|0,0:0|1:0,0:0:0:0:
27,211,102181,6,0,B|25:173|42:172|42:136,1,77.0000023498536,10|2,0:0|1:2,0:0:0:0:
104,47,102454,2,0,B|141:45|142:62|178:62,1,77.0000023498536,2|2,0:0|0:0,0:0:0:0:
256,138,102727,5,0,1:0:0:0:
333,62,102863,2,0,B|369:62|370:45|408:47,2,77.0000023498536,2|2|2,0:0|0:0|1:2,0:0:0:0:
408,140,103272,2,0,B|445:141|446:124|482:124,1,77.0000023498536,10|2,0:0|0:0,0:0:0:0:
489,232,103545,5,0,1:0:0:0:
482,340,103681,2,0,B|446:340|445:323|408:324,1,77.0000023498536,2|2,0:0|0:0,0:0:0:0:
299,324,103954,1,2,1:2:0:0:
299,324,104022,1,0,1:0:0:0:
299,324,104090,2,0,B|263:324|262:341|221:339,1,77.0000023498536,2|0,1:2|1:0,0:0:0:0:
246,233,104363,6,0,B|282:233|283:216|320:217,1,77.0000023498536,10|2,0:0|1:2,0:0:0:0:
240,144,104636,2,0,B|204:144|203:127|165:128,1,77.0000023498536,2|2,0:0|0:0,0:0:0:0:
71,73,104909,6,0,L|82:203,1,115.50000352478,0|2,1:0|1:2,0:0:0:0:
46,251,105181,2,0,P|87:222|125:249,1,101.500003097534,2|0,1:2|1:0,0:0:0:0:
91,350,105454,1,8,0:0:0:0:
91,350,105590,1,0,0:0:0:0:
213,292,105727,6,0,B|290:292|290:292|320:320|380:320,1,154.000004699707,4|0,1:2|0:0,0:0:0:0:
439,245,106136,1,0,1:0:0:0:
369,162,106272,2,0,P|355:197|353:236,1,77.0000023498536,0|0,0:0|1:0,0:0:0:0:
256,192,106545,2,0,P|269:156|271:117,1,77.0000023498536,8|0,0:0|1:0,0:0:0:0:
266,63,106750,1,0,0:0:0:0:
266,63,106818,6,0,L|188:78,1,77.0000023498536,0|0,0:0|0:0,0:0:0:0:
84,58,107090,2,0,L|99:136,1,77.0000023498536,0|0,1:0|0:0,0:0:0:0:
175,210,107363,2,0,L|160:288,1,77.0000023498536,0|0,0:0|1:0,0:0:0:0:
237,362,107636,2,0,B|311:362|311:362|377:347,1,115.50000352478,8|0,0:0|0:0,0:0:0:0:
398,324,107909,6,0,L|439:336,4,38.5000011749268,0|0|0|0|0,1:0|0:0|0:0|0:0|0:0,0:0:0:0:
474,247,108318,2,0,L|437:236,4,38.5000011749268,0|0|0|0|0,1:0|1:0|1:0|0:0|1:0,0:0:0:0:
474,138,108727,1,8,0:0:0:0:
368,160,108863,1,0,1:0:0:0:
368,160,108931,1,0,0:0:0:0:
368,160,109000,6,0,P|311:160|264:197,1,115.50000352478,0|0,0:0|0:0,0:0:0:0:
256,246,109272,2,0,P|219:244|174:249,1,77.0000023498536,0|0,1:0|0:0,0:0:0:0:
73,273,109545,2,0,L|64:186,1,77.0000023498536,0|0,1:0|1:0,0:0:0:0:
172,172,109818,2,0,L|181:259,1,77.0000023498536,8|0,0:0|0:0,0:0:0:0:
218,368,110090,6,0,L|275:359,7,35,4|0|0|0|0|0|0|0,1:2|0:0|0:0|0:0|1:0|0:0|0:0|0:0,0:0:0:0:
287,327,110636,2,0,L|344:318,7,35,0|0|0|0|0|0|0|0,1:0|0:0|0:0|0:0|1:0|0:0|0:0|0:0,0:0:0:0:
356,286,111181,6,0,L|344:226,3,35,0|0|0|0,1:0|0:0|0:0|0:0,0:0:0:0:
314,216,111454,2,0,L|302:156,3,35,0|0|0|0,1:0|0:0|0:0|0:0,0:0:0:0:
272,146,111727,2,0,L|260:86,3,35,0|0|0|0,1:0|0:0|0:0|0:0,0:0:0:0:
230,76,112000,2,0,L|218:16,3,35,0|0|0|0,1:0|0:0|0:0|0:0,0:0:0:0:
188,7,112272,6,0,P|157:24|101:24,1,70,2|0,1:2|1:0,0:0:0:0:
53,97,112545,2,0,P|70:128|70:184,1,70,2|0,1:2|1:0,0:0:0:0:
143,231,112818,2,0,P|174:214|230:214,1,70,2|0,1:2|1:0,0:0:0:0:
278,141,113091,2,0,P|261:110|261:54,1,70,2|0,1:2|1:0,0:0:0:0:
354,80,113363,6,0,L|353:52,22,17.5,2|0|2|0|2|0|2|0|2|0|2|0|2|0|2|0|2|0|2|0|2|0|2,0:0|0:0|0:0|0:0|0:0|0:0|0:0|0:0|0:0|0:0|0:0|0:0|0:0|0:0|0:0|0:0|0:0|0:0|0:0|0:0|0:0|0:0|0:0,0:0:0:0:
387,115,114181,2,0,P|394:155|390:202,1,70,2|0,0:0|0:0,0:0:0:0:
422,287,114454,6,0,P|355:286|293:223,1,154.000004699707,0|0,1:0|0:0,0:0:0:0:
393,184,114863,1,0,1:0:0:0:
422,287,114999,2,0,P|412:323|389:354,1,77.0000023498536,0|0,0:0|1:0,0:0:0:0:
295,228,115272,1,12,0:0:0:0:
285,335,115409,1,0,1:0:0:0:
285,335,115477,1,0,0:0:0:0:
285,335,115545,6,0,P|247:325|216:302,1,77.0000023498536,0|0,0:0|0:0,0:0:0:0:
110,322,115818,2,0,P|102:284|109:246,1,77.0000023498536,0|0,1:0|0:0,0:0:0:0:
149,147,116090,1,0,0:0:0:0:
149,147,116227,1,0,1:0:0:0:
111,45,116363,2,0,B|168:57|168:57|230:48,1,115.50000352478,8|0,0:0|0:0,0:0:0:0:
278,46,116636,6,0,L|284:96,4,38.5000011749268,0|0|0|0|0,1:0|0:0|0:0|0:0|0:0,0:0:0:0:
382,73,117045,2,0,L|377:34,4,38.5000011749268,0|0|0|0|0,1:0|1:0|1:0|0:0|1:0,0:0:0:0:
482,115,117454,1,8,0:0:0:0:
407,192,117590,1,0,1:0:0:0:
407,192,117658,1,0,0:0:0:0:
407,192,117726,6,0,P|349:203|275:208,1,115.50000352478,0|0,0:0|0:0,0:0:0:0:
239,198,117999,2,0,B|199:191|199:191|145:198,1,77.0000023498536,0|0,1:0|0:0,0:0:0:0:
58,224,118272,2,0,L|51:137,1,77.0000023498536,0|0,1:0|1:0,0:0:0:0:
157,119,118544,2,0,L|164:206,1,77.0000023498536,8|0,0:0|0:0,0:0:0:0:
177,303,118817,5,0,1:0:0:0:
281,274,118954,2,0,B|313:275|313:275|321:279|321:279|362:280,2,77.0000023498536,2|2|2,0:0|0:0|1:2,0:0:0:0:
177,303,119363,2,0,B|145:302|145:302|137:298|137:298|96:297,1,77.0000023498536,2|0,0:0|1:0,0:0:0:0:
34,211,119636,6,0,B|35:179|35:179|39:171|39:171|40:130,1,77.0000023498536,10|2,0:0|1:2,0:0:0:0:
108,51,119909,2,0,B|140:52|140:52|148:56|148:56|189:57,1,77.0000023498536,2|2,0:0|0:0,0:0:0:0:
256,138,120181,5,0,1:0:0:0:
327,56,120318,2,0,B|364:56|364:56|372:52|372:52|404:51,2,77.0000023498536,2|2|2,0:0|0:0|1:2,0:0:0:0:
407,130,120727,2,0,B|443:129|443:129|451:125|451:125|483:124,1,77.0000023498536,10|2,0:0|0:0,0:0:0:0:
489,232,120999,5,0,1:0:0:0:
483,339,121136,2,0,B|451:338|451:338|443:334|443:334|406:333,1,77.0000023498536,2|2,0:0|0:0,0:0:0:0:
299,324,121409,1,2,1:2:0:0:
299,324,121476,1,0,1:0:0:0:
299,324,121545,2,0,B|262:324|262:324|254:328|254:328|222:329,1,77.0000023498536,2|0,1:2|1:0,0:0:0:0:
214,220,121818,6,0,B|251:220|251:220|259:216|259:216|291:215,1,77.0000023498536,10|2,0:0|1:2,0:0:0:0:
246,116,122090,2,0,B|209:116|209:116|201:120|201:120|169:121,1,77.0000023498536,2|2,0:0|0:0,0:0:0:0:
71,73,122363,6,0,L|82:203,1,115.50000352478,0|2,1:0|1:2,0:0:0:0:
46,251,122636,2,0,P|87:222|125:249,1,101.500003097534,2|0,1:2|1:0,0:0:0:0:
91,350,122908,1,8,0:0:0:0:
91,350,123044,1,0,0:0:0:0:
213,292,123181,6,0,B|290:292,1,77.0000023498536,4|0,1:2|0:0,0:0:0:0:
387,338,123454,1,0,0:0:0:0:
387,338,123590,1,0,1:0:0:0:
485,292,123727,2,0,P|485:250|468:211,2,77.0000023498536,0|0|0,1:0|0:0|1:0,0:0:0:0:
387,338,124136,1,0,0:0:0:0:
290,292,124272,6,0,P|289:253|302:217,1,77.0000023498536,0|0,0:0|1:0,0:0:0:0:
358,124,124545,2,0,P|322:110|283:111,1,77.0000023498536,0|0,1:0|0:0,0:0:0:0:
184,68,124818,2,0,P|180:115|183:191,1,115.50000352478,0|0,1:0|0:0,0:0:0:0:
186,187,125090,2,0,L|97:207,1,77.0000023498536,0|0,1:0|0:0,0:0:0:0:
85,309,125363,6,0,L|173:288,1,77.0000023498536,0|0,1:0|0:0,0:0:0:0:
261,254,125636,2,0,L|335:271,1,77.0000023498536,0|0,0:0|1:0,0:0:0:0:
437,308,125909,1,0,1:0:0:0:
437,308,126045,1,0,0:0:0:0:
413,202,126181,2,0,P|412:160|418:110,1,77.0000023498536,0|0,1:0|0:0,0:0:0:0:
378,23,126454,6,0,L|293:69,1,77.0000023498536,0|0,0:0|1:0,0:0:0:0:
201,59,126727,2,0,L|134:23,1,77.0000023498536,0|0,1:0|0:0,0:0:0:0:
57,99,127000,2,0,P|73:143|72:181,1,77.0000023498536,0|0,1:0|0:0,0:0:0:0:
47,277,127272,2,0,P|48:315|63:350,1,77.0000023498536,0|0,1:0|0:0,0:0:0:0:
155,293,127545,5,0,1:0:0:0:
244,352,127681,2,0,P|287:352|328:335,1,77.0000023498536,0|0,0:0|0:0,0:0:0:0:
413,288,127954,2,0,P|400:251|401:213,1,77.0000023498536,0|0,1:0|1:0,0:0:0:0:
437,111,128227,2,0,P|400:123|362:122,1,77.0000023498536,0|0,0:0|1:0,0:0:0:0:
280,51,128500,2,0,P|241:50|205:62,1,77.0000023498536,0|0,0:0|0:0,0:0:0:0:
99,45,128772,6,0,L|114:150,1,77.0000023498536,0|0,1:0|1:0,0:0:0:0:
71,222,129045,2,0,L|86:327,1,77.0000023498536,0|0,0:0|1:0,0:0:0:0:
188,279,129318,2,0,L|173:174,1,77.0000023498536,0|0,0:0|1:0,0:0:0:0:
110,122,129590,1,0,0:0:0:0:
71,222,129727,6,0,L|62:269,7,38.5000011749268,0|0|0|0|0|0|0|0,1:0|0:0|0:0|0:0|0:0|0:0|1:0|0:0,0:0:0:0:
101,297,130272,2,0,L|92:344,7,38.5000011749268,0|0|0|0|0|0|0|0,1:0|0:0|0:0|0:0|1:0|0:0|1:0|0:0,0:0:0:0:
132,373,130818,6,0,L|179:370,3,38.5000011749268,0|0|0|0,1:0|1:0|1:0|1:0,0:0:0:0:
208,332,131090,2,0,L|255:329,3,38.5000011749268,0|0|0|0,1:0|1:0|1:0|1:0,0:0:0:0:
284,290,131363,1,2,0:0:0:0:
284,290,131909,5,4,1:2:0:0:
187,252,145000,6,0,P|176:188|287:104,1,210,2|2,0:0|0:0,0:0:0:0:
274,203,145545,2,0,P|286:250|246:333,1,140,2|2,0:0|0:0,0:0:0:0:
249,330,146227,5,2,0:0:0:0:
187,252,146363,2,0,P|118:258|73:309,2,140,2|2|2,0:0|0:0|0:0,0:0:0:0:
372,314,147181,6,0,P|372:236|298:122,1,210,2|2,0:0|0:0,0:0:0:0:
223,70,147727,2,0,P|294:82|368:50,1,140,2|2,0:0|0:0,0:0:0:0:
164,19,148272,6,0,P|147:55|148:92,1,70,2|2,0:0|0:0,0:0:0:0:
203,164,148545,2,0,P|201:198|185:229,1,70,2|2,0:0|0:0,0:0:0:0:
188,327,148818,2,0,L|194:380,2,46.6666666666667,2|2|2,0:0|0:0|0:0,0:0:0:0:
119,296,149090,2,0,L|85:337,2,46.6666666666667,0|0|0,1:0|1:0|1:0,0:0:0:0:
186,230,149363,6,0,P|226:226|263:231,1,70,4|0,1:2|0:0,0:0:0:0:
340,278,149635,2,0,P|380:282|417:277,1,70,0|0,1:0|0:0,0:0:0:0:
409,180,149908,2,0,P|369:176|332:181,1,70,0|0,1:0|0:0,0:0:0:0:
255,229,150181,1,0,1:0:0:0:
255,229,150317,1,0,0:0:0:0:
168,181,150454,6,0,P|133:177|98:181,1,70,0|0,1:0|0:0,0:0:0:0:
128,87,150727,2,0,P|162:91|197:87,1,70,0|0,1:0|0:0,0:0:0:0:
265,15,150999,2,0,L|291:124,1,105,0|0,1:0|0:0,0:0:0:0:
297,166,151272,2,0,P|334:150|374:150,1,70,0|0,1:0|0:0,0:0:0:0:
355,246,151544,6,0,L|356:343,1,70,0|0,1:0|0:0,0:0:0:0:
270,364,151817,2,0,L|269:267,1,70,0|0,1:0|0:0,0:0:0:0:
205,219,152090,2,0,P|165:222|128:214,1,70,0|0,1:0|0:0,0:0:0:0:
172,124,152363,2,0,P|212:121|249:129,1,70,0|0,1:0|0:0,0:0:0:0:
339,137,152635,6,0,L|341:86,2,35,0|0|0,1:0|0:0|0:0,0:0:0:0:
295,224,152908,2,0,P|335:234|385:224,1,70,0|0,1:0|0:0,0:0:0:0:
408,144,153181,2,0,P|368:134|318:144,1,70,0|0,1:0|0:0,0:0:0:0:
241,127,153454,1,0,1:0:0:0:
241,127,153726,6,0,P|204:127|160:110,1,70,0|0,1:0|0:0,0:0:0:0:
219,30,153999,2,0,P|253:19|288:20,1,70,0|0,1:0|0:0,0:0:0:0:
384,28,154272,2,0,P|393:61|393:96,1,70,0|0,1:0|0:0,0:0:0:0:
363,190,154545,2,0,P|362:224|372:258,1,70,0|0,1:0|0:0,0:0:0:0:
408,349,154817,5,0,1:0:0:0:
408,349,154954,1,0,0:0:0:0:
310,359,155090,2,0,P|275:358|241:350,1,70,0|0,1:0|0:0,0:0:0:0:
146,325,155363,2,0,P|146:270|160:218,1,105,0|0,1:0|0:0,0:0:0:0:
161,225,155635,2,0,L|234:240,1,70,0|0,1:0|0:0,0:0:0:0:
279,154,155908,6,0,P|284:122|278:76,1,70,0|0,1:0|0:0,0:0:0:0:
189,47,156181,2,0,P|154:42|119:45,1,70,0|0,1:0|0:0,0:0:0:0:
112,143,156454,1,0,1:0:0:0:
112,143,156590,1,0,0:0:0:0:
210,156,156726,2,0,P|241:160|293:149,1,70,0|0,1:0|0:0,0:0:0:0:
367,110,156999,6,0,L|363:62,2,35,0|0|0,1:0|0:0|0:0,0:0:0:0:
360,209,157272,2,0,P|363:243|357:288,1,70,0|0,1:0|0:0,0:0:0:0:
346,375,157544,2,0,P|312:378|267:372,1,70,0|0,1:0|0:0,0:0:0:0:
180,357,157817,1,0,1:0:0:0:
180,357,158090,6,0,L|172:282,1,70,0|0,1:0|1:0,0:0:0:0:
269,305,158363,2,0,L|277:380,1,70,0|0,1:0|1:0,0:0:0:0:
363,327,158635,2,0,L|355:252,1,70,0|0,1:0|1:0,0:0:0:0:
426,187,158908,1,0,1:0:0:0:
426,187,159044,1,0,1:0:0:0:
357,117,159181,6,0,P|317:120|279:132,1,70,0|0,1:0|1:0,0:0:0:0:
193,149,159454,2,0,P|203:182|205:217,1,70,0|0,1:0|1:0,0:0:0:0:
108,228,159726,2,0,P|99:194|97:159,1,70,0|0,1:0|1:0,0:0:0:0:
129,66,159999,1,0,1:0:0:0:
129,66,160135,1,0,1:0:0:0:
218,25,160272,6,0,B|255:23|255:23|306:30,1,70,0|0,1:0|1:0,0:0:0:0:
384,39,160544,2,0,B|386:76|386:76|379:127,1,70,0|0,1:0|1:0,0:0:0:0:
324,188,160817,2,0,B|320:220|320:220|322:257,1,70,0|0,1:0|1:0,0:0:0:0:
354,350,161090,1,0,1:0:0:0:
354,350,161226,1,0,1:0:0:0:
260,319,161363,6,0,B|222:319|222:319|181:336,1,70,0|0,1:0|1:0,0:0:0:0:
98,359,161635,2,0,B|86:329|86:329|86:291,1,70,0|0,1:0|1:0,0:0:0:0:
86,192,161908,2,0,B|86:154|86:154|99:124,1,70,0|0,1:0|1:0,0:0:0:0:
164,51,162181,1,0,1:0:0:0:
164,51,162317,1,0,1:0:0:0:
234,120,162454,5,2,0:0:0:0:
234,120,162590,2,0,L|314:106,1,70,0|2,0:0|0:0,0:0:0:0:
373,177,162863,2,0,L|305:189,1,70,0|2,0:0|0:0,0:0:0:0:
261,277,163135,2,0,L|341:263,1,70,0|2,0:0|0:0,0:0:0:0:
400,334,163409,2,0,L|332:346,1,70,0|2,0:0|0:0,0:0:0:0:
261,277,163681,6,0,P|227:274|184:280,1,70,0|2,0:0|0:0,0:0:0:0:
122,208,163954,2,0,P|127:173|124:138,1,70,0|2,0:0|0:0,0:0:0:0:
193,69,164226,2,0,P|228:73|263:70,1,70,0|2,0:0|0:0,0:0:0:0:
359,47,164499,1,0,0:0:0:0:
322,137,164635,6,0,L|337:190,7,35,2|0|0|0|2|0|0|0,1:2|1:0|1:0|1:0|1:2|1:0|1:0|1:0,0:0:0:0:
332,220,165181,2,0,L|347:273,7,35,2|0|0|0|2|0|0|0,1:2|1:0|1:0|1:0|0:0|0:0|0:0|0:0,0:0:0:0:
342,302,165727,5,2,0:3:0:0:
342,302,166818,6,0,P|277:324|168:311,1,175,4|8,1:2|1:0,0:0:0:0:
56,272,167227,1,0,0:0:0:0:
56,272,167295,1,0,0:0:0:0:
56,272,167363,2,0,L|57:375,1,87.5,0|0,1:0|0:0,0:0:0:0:
173,313,167636,2,0,L|172:210,1,87.5,8|0,1:0|0:0,0:0:0:0:
165,102,167909,5,0,1:0:0:0:
165,102,168045,1,0,0:0:0:0:
278,147,168181,2,0,P|287:97|276:55,1,87.5,8|0,1:0|0:0,0:0:0:0:
165,102,168454,1,0,1:0:0:0:
165,102,168590,1,0,0:0:0:0:
278,147,168727,2,0,P|328:156|414:148,1,131.25,8|0,1:0|0:0,0:0:0:0:
451,140,169000,6,0,B|444:207|444:207|472:254|450:321,1,175,0|8,1:0|1:0,0:0:0:0:
337,269,169409,1,0,0:0:0:0:
325,270,169477,1,0,0:0:0:0:
313,271,169545,2,0,P|262:279|204:298,1,87.5,0|0,1:0|0:0,0:0:0:0:
126,359,169818,2,0,P|119:315|108:273,1,87.5,8|0,1:0|0:0,0:0:0:0:
179,174,170090,5,0,1:0:0:0:
228,289,170227,1,0,0:0:0:0:
108,273,170363,2,0,P|76:250|54:192,1,87.5,8|0,1:0|0:0,0:0:0:0:
179,174,170636,2,0,B|226:187|268:171|268:171|265:193|280:216,2,131.25,0|0|0,1:0|0:0|0:0,0:0:0:0:
221,59,171181,6,0,P|283:49|376:115,1,175,0|8,1:0|1:0,0:0:0:0:
409,225,171590,1,0,0:0:0:0:
409,225,171659,1,0,0:0:0:0:
409,225,171727,2,0,P|459:226|509:206,1,87.5,0|0,1:0|0:0,0:0:0:0:
458,98,172000,2,0,P|408:97|358:117,1,87.5,8|0,1:0|0:0,0:0:0:0:
290,198,172272,5,0,1:0:0:0:
409,225,172409,1,0,0:0:0:0:
373,109,172545,2,0,P|331:96|287:98,1,87.5,8|0,1:0|0:0,0:0:0:0:
169,132,172818,2,0,P|125:133|83:121,1,87.5,0|0,1:0|0:0,0:0:0:0:
184,54,173090,2,0,P|234:87|244:163,1,131.25,8|0,1:0|0:0,0:0:0:0:
247,198,173363,5,0,1:0:0:0:
363,237,173500,1,0,0:0:0:0:
247,276,173636,1,8,1:0:0:0:
363,315,173772,1,0,0:0:0:0:
247,354,173909,2,0,L|153:347,1,87.5,0|0,1:0|0:0,0:0:0:0:
363,315,174181,2,0,L|457:322,1,87.5,8|0,1:0|0:0,0:0:0:0:
414,203,174454,5,0,1:0:0:0:
363,315,174590,1,0,0:0:0:0:
251,264,174727,1,8,1:0:0:0:
302,152,174863,1,0,0:0:0:0:
363,315,175000,2,0,P|322:341|284:354,1,87.5,0|0,1:0|0:0,0:0:0:0:
302,152,175272,2,0,P|343:126|381:113,1,87.5,8|0,1:0|0:0,0:0:0:0:
251,263,175545,6,0,B|208:266|177:287|177:287|151:280|151:280|121:300|86:298,1,175,4|8,1:2|1:0,0:0:0:0:
85,175,175954,1,0,0:0:0:0:
111,167,176022,1,0,0:0:0:0:
137,159,176090,2,0,P|126:114|90:65,1,87.5,0|0,1:0|0:0,0:0:0:0:
215,27,176363,2,0,L|304:35,1,87.5,8|0,1:0|0:0,0:0:0:0:
423,52,176636,5,0,1:0:0:0:
302,34,176772,1,0,0:0:0:0:
346,148,176909,2,0,P|343:199|324:247,1,87.5,8|0,1:0|0:0,0:0:0:0:
238,312,177181,1,0,1:0:0:0:
353,353,177318,1,0,0:0:0:0:
331,233,177454,2,0,B|278:228|278:228|263:216|263:216|202:210,1,131.25,8|0,1:0|0:0,0:0:0:0:
160,208,177727,6,0,B|171:162|171:162|162:135|162:135|189:91|173:24,1,175,0|8,1:0|1:0,0:0:0:0:
57,73,178136,1,0,0:0:0:0:
57,93,178204,1,0,0:0:0:0:
57,113,178272,2,0,L|39:208,1,87.5,0|0,1:0|0:0,0:0:0:0:
107,302,178545,2,0,P|147:317|197:307,1,87.5,8|0,1:0|0:0,0:0:0:0:
281,227,178818,5,0,1:0:0:0:
160,208,178954,1,0,0:0:0:0:
258,135,179090,2,0,L|308:128,3,43.75,8|0|0|0,1:0|0:0|0:0|0:0,0:0:0:0:
346,125,179363,1,0,1:0:0:0:
346,125,179500,1,0,1:0:0:0:
95,275,179909,6,0,L|15:270,1,70,4|0,1:2|1:0,0:0:0:0:
33,172,180182,2,0,L|113:177,1,70,0|0,1:0|1:0,0:0:0:0:
199,202,180455,2,0,L|195:132,1,70,4|0,1:2|1:0,0:0:0:0:
288,103,180727,2,0,L|293:172,1,70,0|0,1:0|1:0,0:0:0:0:
303,270,181000,6,0,L|382:273,1,70,4|0,1:2|1:0,0:0:0:0:
333,362,181273,2,0,L|254:359,1,70,0|0,1:0|1:0,0:0:0:0:
169,383,181545,2,0,L|176:307,1,70,4|0,1:2|1:0,0:0:0:0:
81,287,181818,2,0,L|88:211,1,70,0|0,1:0|1:0,0:0:0:0:
144,136,182091,5,0,1:0:0:0:
144,136,182227,2,0,P|192:144|224:144,1,70,0|0,1:0|1:0,0:0:0:0:
295,200,182500,2,0,P|297:234|304:269,1,70,0|0,1:0|1:0,0:0:0:0:
393,227,182773,2,0,P|392:192|385:157,1,70,0|0,1:0|1:0,0:0:0:0:
302,106,183045,1,0,1:0:0:0:
213,144,183182,6,0,L|166:139,11,35,0|0|0|0|0|0|0|0|0|0|0|0,1:0|1:0|1:0|1:0|1:0|1:0|1:0|1:0|1:0|1:0|1:0|1:0,0:0:0:0:
140,138,184000,2,0,P|96:142|50:179,1,105,0|0,0:0|0:0,0:0:0:0:
134,233,184272,6,0,L|229:223,1,77.0000023498536,4|0,1:2|0:0,0:0:0:0:
261,321,184544,2,0,L|166:331,1,77.0000023498536,0|0,0:0|1:0,0:0:0:0:
161,216,184817,2,0,L|256:206,1,77.0000023498536,8|0,0:0|0:0,0:0:0:0:
288,304,185090,2,0,L|193:314,1,77.0000023498536,0|0,1:0|0:0,0:0:0:0:
188,199,185363,6,0,L|283:189,1,77.0000023498536,0|0,0:0|0:0,0:0:0:0:
315,287,185635,2,0,L|220:297,1,77.0000023498536,0|0,0:0|1:0,0:0:0:0:
215,182,185908,2,0,L|310:172,1,77.0000023498536,8|0,0:0|1:0,0:0:0:0:
342,270,186181,2,0,L|247:280,1,77.0000023498536,0|0,0:0|0:0,0:0:0:0:
242,165,186454,6,0,L|337:155,1,77.0000023498536,0|0,1:0|0:0,0:0:0:0:
369,253,186726,2,0,L|274:263,1,77.0000023498536,0|0,0:0|1:0,0:0:0:0:
269,148,186999,2,0,L|364:138,1,77.0000023498536,8|0,0:0|0:0,0:0:0:0:
396,236,187272,2,0,L|301:246,1,77.0000023498536,0|0,1:0|0:0,0:0:0:0:
212,258,187545,6,0,B|174:271|160:308|116:325,1,115.50000352478,0|0,0:0|0:0,0:0:0:0:
64,329,187817,2,0,L|59:290,3,38.5000011749268,0|0|0|0,1:0|1:0|1:0|0:0,0:0:0:0:
90,246,188090,2,0,L|85:207,3,38.5000011749268,8|0|0|0,0:0|0:0|1:0|0:0,0:0:0:0:
115,164,188363,2,0,L|110:125,3,38.5000011749268,8|0|0|0,0:0|1:0|1:0|0:0,0:0:0:0:
141,84,188636,6,0,P|185:72|237:72,1,83.9999974365235,4|0,1:2|0:0,0:0:0:0:
341,77,188909,1,8,1:0:0:0:
341,77,189045,1,0,0:0:0:0:
275,174,189181,2,0,P|277:215|288:256,1,83.9999974365235,0|0,1:0|0:0,0:0:0:0:
390,197,189454,1,8,1:0:0:0:
390,197,189590,1,0,0:0:0:0:
275,174,189727,6,0,L|179:191,1,83.9999974365235,0|0,1:0|0:0,0:0:0:0:
141,84,190000,2,0,L|237:67,1,83.9999974365235,8|0,1:0|0:0,0:0:0:0:
339,88,190272,1,0,1:0:0:0:
224,70,190409,1,0,0:0:0:0:
275,175,190545,2,0,P|285:215|288:257,1,83.9999974365235,8|0,1:0|0:0,0:0:0:0:
203,338,190818,6,0,B|220:308|220:308|263:354|337:337,1,125.999996154785,0|0,1:0|0:0,0:0:0:0:
345,338,191090,2,0,L|400:333,3,41.9999987182618,8|0|0|0,1:0|0:0|0:0|0:0,0:0:0:0:
429,327,191363,2,0,L|424:272,3,41.9999987182618,0|0|0|0,1:0|0:0|0:0|0:0,0:0:0:0:
420,244,191636,2,0,P|421:202|430:161,1,83.9999974365235,8|0,1:0|0:0,0:0:0:0:
397,48,191909,6,0,P|356:56|314:58,1,83.9999974365235,0|0,1:0|0:0,0:0:0:0:
197,58,192181,2,0,P|155:56|114:47,1,83.9999974365235,8|0,1:0|0:0,0:0:0:0:
82,161,192454,2,0,L|104:224,3,41.9999987182618,0|0|0|0,1:0|0:0|0:0|0:0,0:0:0:0:
116,240,192727,2,0,P|78:250|39:283,1,83.9999974365235,8|0,1:0|0:0,0:0:0:0:
118,341,193000,6,0,B|170:335|200:296|200:296|226:323|226:323|255:298|309:304,1,210,0|0,1:0|1:0,0:0:0:0:
395,311,193545,2,0,L|400:266,3,35,0|0|0|0,0:0|0:0|0:0|0:0,0:0:0:0:
403,240,193818,2,0,P|410:203|403:152,1,77.0000023498536,4|0,1:2|0:0,0:0:0:0:
304,128,194091,6,0,L|227:129,1,77.0000023498536,0|0,0:0|0:0,0:0:0:0:
185,30,194363,2,0,L|261:28,1,77.0000023498536,0|0,1:0|1:0,0:0:0:0:
275,143,194636,2,0,L|198:144,1,77.0000023498536,8|0,0:0|1:0,0:0:0:0:
156,44,194910,2,0,L|232:42,1,77.0000023498536,0|0,0:0|0:0,0:0:0:0:
247,157,195181,6,0,L|170:158,1,77.0000023498536,0|0,1:0|0:0,0:0:0:0:
128,59,195454,2,0,L|204:57,1,77.0000023498536,0|0,0:0|1:0,0:0:0:0:
218,172,195726,2,0,L|141:173,1,77.0000023498536,8|0,0:0|0:0,0:0:0:0:
100,73,196000,2,0,L|176:71,1,77.0000023498536,0|0,1:0|0:0,0:0:0:0:
284,77,196272,6,0,B|317:79|344:69|344:69|370:86|412:87,1,115.50000352478,2|0,0:0|0:0,0:0:0:0:
440,98,196545,2,0,L|426:156,3,38.5000011749268,0|0|0|0,1:0|1:0|1:0|0:0,0:0:0:0:
461,171,196818,2,0,L|447:229,3,38.5000011749268,8|0|0|0,0:0|0:0|1:0|0:0,0:0:0:0:
438,252,197090,2,0,B|407:252|407:252|393:247|393:247|378:254|378:254|353:243|316:254,1,115.50000352478,8|0,0:0|0:0,0:0:0:0:
284,250,197363,6,0,B|272:204|281:166|281:166|267:111,1,125.999996154785,4|0,1:2|1:0,0:0:0:0:
252,78,197636,1,0,1:0:0:0:
175,142,197772,2,0,P|154:95|177:11,1,125.999996154785,0|0,1:0|0:0,0:0:0:0:
169,26,198045,2,0,L|64:39,2,83.9999974365235,0|0|0,1:0|1:0|0:0,0:0:0:0:
252,78,198454,6,0,P|308:78|379:60,1,125.999996154785,0|0,1:0|0:0,0:0:0:0:
421,39,198727,1,0,1:0:0:0:
473,143,198863,2,0,B|479:196|479:196|476:216|476:216|480:277,1,125.999996154785,0|0,1:0|0:0,0:0:0:0:
483,272,199136,2,0,L|369:279,1,83.9999974365235,0|0,1:0|1:0,0:0:0:0:
318,192,199409,1,0,0:0:0:0:
225,263,199545,6,0,P|199:205|215:137,1,125.999996154785,0|0,1:0|1:0,0:0:0:0:
214,148,199818,2,0,P|173:158|131:158,1,83.9999974365235,0|0,1:0|1:0,0:0:0:0:
39,87,200090,2,0,P|15:149|29:212,1,125.999996154785,0|0,1:0|1:0,0:0:0:0:
29,210,200363,2,0,P|38:258|31:297,1,83.9999974365235,0|0,1:0|1:0,0:0:0:0:
94,372,200636,6,0,L|164:367,3,41.9999987182618,0|0|0|0,1:0|1:0|1:0|1:0,0:0:0:0:
171,332,200909,2,0,L|241:327,3,41.9999987182618,0|0|0|0,1:0|1:0|1:0|1:0,0:0:0:0:
248,293,201181,2,0,L|318:288,3,41.9999987182618,2|2|2|2,0:0|0:0|0:0|0:0,0:0:0:0:
340,279,201454,2,0,B|372:297|372:297|364:248|375:174,1,136.499993751526,8|0,0:0|0:0,0:0:0:0:
371,197,201727,6,0,P|334:144|347:56,1,140,4|0,1:2|0:0,0:0:0:0:
428,114,202136,1,0,1:0:0:0:
371,197,202273,2,0,L|220:219,2,140,8|0|0,0:0|1:0|0:0,0:0:0:0:
441,266,202954,1,0,0:0:0:0:
466,170,203091,2,0,L|474:120,2,35,0|0|0,1:0|1:0|1:0,0:0:0:0:
371,197,203363,2,0,P|332:180|293:146,1,70,8|0,0:0|1:0,0:0:0:0:
238,97,203636,2,0,P|199:114|160:148,1,70,0|0,0:0|0:0,0:0:0:0:
155,226,203909,6,0,P|130:156|58:124,1,140,0|0,1:0|0:0,0:0:0:0:
56,222,204318,1,0,1:0:0:0:
155,226,204454,2,0,P|225:232|302:227,2,140,8|0|0,0:0|1:0|0:0,0:0:0:0:
56,222,205136,1,0,0:0:0:0:
76,125,205273,2,0,L|111:119,2,35,0|0|0,1:0|1:0|1:0,0:0:0:0:
131,42,205545,2,0,P|180:80|189:121,2,93.3333333333333,8|0|0,0:0|1:0|1:0,0:0:0:0:
76,125,206091,6,0,P|64:190|81:261,1,140,0|0,1:0|0:0,0:0:0:0:
113,354,206500,1,0,1:0:0:0:
177,279,206636,2,0,L|334:296,2,140,8|0|0,0:0|1:0|0:0,0:0:0:0:
81,260,207318,1,0,0:0:0:0:
145,187,207454,2,0,L|154:140,2,35,0|0|0,1:0|1:0|1:0,0:0:0:0:
177,279,207727,2,0,P|214:283|267:273,1,70,8|0,0:0|1:0,0:0:0:0:
300,196,208000,2,0,P|337:192|390:202,1,70,0|0,0:0|0:0,0:0:0:0:
438,266,208273,6,0,P|418:193|418:117,1,140,0|0,1:0|0:0,0:0:0:0:
433,31,208682,1,0,1:0:0:0:
342,65,208818,2,0,P|273:62|206:43,2,140,8|0|0,0:0|1:0|0:0,0:0:0:0:
417,129,209500,1,0,0:0:0:0:
348,198,209636,2,0,L|313:204,2,35,0|0|0,1:0|1:0|1:0,0:0:0:0:
293,281,209908,2,0,P|244:243|235:206,2,93.3333333333333,8|0|0,0:0|1:0|1:0,0:0:0:0:
197,351,210454,6,0,B|126:351|126:351|51:323,1,140,4|0,1:2|0:0,0:0:0:0:
131,257,210863,1,0,1:0:0:0:
62,187,211000,2,0,B|127:162|127:162|198:162,2,140,8|0|0,0:0|1:0|0:0,0:0:0:0:
65,87,211682,1,0,0:0:0:0:
163,87,211818,2,0,L|198:87,2,35,0|0|0,1:0|1:0|1:0,0:0:0:0:
244,28,212091,2,0,P|265:56|272:90,1,70,8|0,0:0|1:0,0:0:0:0:
272,188,212363,2,0,P|280:222|300:249,1,70,0|0,0:0|0:0,0:0:0:0:
386,300,212636,6,0,P|316:300|237:329,1,140,0|0,1:0|0:0,0:0:0:0:
163,366,213045,1,0,1:0:0:0:
70,333,213182,2,0,P|49:266|49:197,2,140,8|0|0,0:0|1:0|0:0,0:0:0:0:
162,366,213863,1,0,0:0:0:0:
251,321,214000,2,0,L|294:324,2,35,0|0|0,1:0|1:0|1:0,0:0:0:0:
172,262,214273,2,0,B|161:217|189:217|168:158,2,93.3333333333333,8|0|0,0:0|1:0|1:0,0:0:0:0:
269,244,214818,6,0,P|338:234|411:206,1,140,0|0,1:0|0:0,0:0:0:0:
473,140,215227,1,0,1:0:0:0:
403,70,215363,2,0,P|338:45|269:35,2,140,8|0|0,0:0|1:0|0:0,0:0:0:0:
473,140,216045,1,0,0:0:0:0:
403,209,216181,2,0,L|358:206,2,35,0|0|0,1:0|1:0|1:0,0:0:0:0:
473,278,216454,2,0,B|479:315|479:315|472:355,1,70,8|0,0:0|1:0,0:0:0:0:
380,313,216727,1,0,0:0:0:0:
473,278,216863,1,0,0:0:0:0:
403,209,217000,6,0,P|405:139|424:72,1,140,0|0,1:0|0:0,0:0:0:0:
340,20,217409,1,0,1:0:0:0:
270,89,217545,2,0,P|201:86|134:67,2,140,8|0|0,0:0|1:0|0:0,0:0:0:0:
340,20,218227,1,0,0:0:0:0:
424,72,218363,2,0,L|430:107,2,35,0|0|0,1:0|1:0|1:0,0:0:0:0:
506,127,218635,2,0,P|478:169|432:186,2,93.3333333333333,8|0|0,0:0|0:0|0:0,0:0:0:0:
353,135,219181,6,0,P|339:188|367:252,1,105,4|0,1:2|0:0,0:0:0:0:
372,316,219590,1,0,1:0:0:0:
291,290,219727,2,0,P|239:281|191:300,1,105,0|0,0:0|0:0,0:0:0:0:
191,300,221363,6,0,P|181:236|193:130,1,157.500006008148,0|0,0:0|0:0,0:0:0:0:
209,62,221909,1,0,0:0:0:0:
209,62,223545,6,0,B|282:62|282:62|317:77,1,105.000004005432,0|0,1:0|0:0,0:0:0:0:
371,134,223954,1,0,1:0:0:0:
311,193,224090,2,0,B|281:205|281:205|208:205,1,105.000004005432,0|0,1:0|0:0,0:0:0:0:
208,205,225727,6,0,B|284:206|284:236|376:238,1,157.500006008148,0|0,0:0|0:0,0:0:0:0:
444,242,226272,1,0,0:0:0:0:
444,242,227227,5,0,1:0:0:0:
424,323,227363,1,0,1:0:0:0:
424,323,227909,6,0,B|360:323|360:323|357:298|369:269,1,105.000004005432,0|0,1:0|0:0,0:0:0:0:
382,200,228318,1,0,1:0:0:0:
405,119,228454,2,0,B|412:103|409:78|409:78|345:78,1,105.000004005432,0|0,1:0|0:0,0:0:0:0:
345,78,230090,6,0,B|264:62|264:106|174:84,1,157.500006008148,0|0,0:0|0:0,0:0:0:0:
105,82,230636,1,0,0:0:0:0:
105,82,232272,6,0,B|111:135|111:135|102:195,1,105.000004005432,0|0,1:0|0:0,0:0:0:0:
92,269,232681,1,0,1:0:0:0:
171,239,232818,2,0,B|222:231|222:231|275:237,1,105.000004005432,0|0,1:0|0:0,0:0:0:0:
256,192,233227,12,0,236636,0:0:0:0:
