osu file format v14

[General]
AudioFilename: audio.mp3
AudioLeadIn: 0
PreviewTime: 245513
Countdown: 0
SampleSet: Soft
StackLeniency: 0.7
Mode: 3
LetterboxInBreaks: 0
SpecialStyle: 0
WidescreenStoryboard: 1

[Editor]
DistanceSpacing: 0.8
BeatDivisor: 8
GridSize: 32
TimelineZoom: 1.3

[Metadata]
Title:K.Y.A.F.A.
TitleUnicode:K.Y.A.F.A.
Artist:Camellia
ArtistUnicode:かめりあ
Creator:Evening
Version:ETERNAL HAVOC +
Source:
Tags:kyafa complextro electronic drill BINZOKOMEGANE GIRLS UNION
BeatmapID:1114574
BeatmapSetID:477233

[Difficulty]
HPDrainRate:8.5
CircleSize:7
OverallDifficulty:8.5
ApproachRate:5
SliderMultiplier:1.4
SliderTickRate:1

[Events]
//Background and Video events
0,0,"EtHa.jpg",0,0
//Break Periods
//Storyboard Layer 0 (Background)
//Storyboard Layer 1 (Fail)
//Storyboard Layer 2 (Pass)
//Storyboard Layer 3 (Foreground)
//Storyboard Sound Samples

[TimingPoints]
1150,272.727272727273,4,2,1,25,1,0
17513,-52.6315789473684,4,2,1,25,0,0
17530,-1000,4,2,1,25,0,0
17547,-52.6315789473684,4,2,1,25,0,0
17564,-1000,4,2,1,25,0,0
17581,-52.6315789473684,4,2,1,25,0,0
17598,-1000,4,2,1,25,0,0
17615,-52.6315789473684,4,2,1,25,0,0
17632,-1000,4,2,1,25,0,0
17650,-100,4,2,1,25,0,0
17786,-52.6315789473684,4,2,1,25,0,0
17803,-1000,4,2,1,25,0,0
17820,-52.6315789473684,4,2,1,25,0,0
17837,-1000,4,2,1,25,0,0
17854,-52.6315789473684,4,2,1,25,0,0
17871,-1000,4,2,1,25,0,0
17888,-52.6315789473684,4,2,1,25,0,0
17905,-1000,4,2,1,25,0,0
17922,-100,4,2,1,25,0,0
18059,-66.6666666666667,4,2,1,25,0,0
18104,-200,4,2,1,25,0,0
18150,-66.6666666666667,4,2,1,25,0,0
18195,-200,4,2,1,25,0,0
18240,-66.6666666666667,4,2,1,25,0,0
18286,-200,4,2,1,25,0,0
18331,-66.6666666666667,4,2,1,25,0,0
18377,-200,4,2,1,25,0,0
18422,-66.6666666666667,4,2,1,25,0,0
18468,-200,4,2,1,25,0,0
18513,-66.6666666666667,4,2,1,25,0,0
18559,-200,4,2,1,25,0,0
18604,-100,4,2,1,25,0,0
36059,-100,4,2,1,25,0,1
36127,-100,4,2,1,25,0,0
53240,-83.3333333333333,4,2,1,25,0,0
53513,-100,4,2,1,25,0,1
61695,-100,4,2,1,25,0,0
62240,-52.6315789473684,4,2,1,25,0,0
62275,-1000,4,2,1,25,0,0
62309,-52.6315789473684,4,2,1,25,0,0
62343,-1000,4,2,1,25,0,0
62377,-52.6315789473684,4,2,1,25,0,0
62411,-1000,4,2,1,25,0,0
62445,-52.6315789473684,4,2,1,25,0,0
62479,-1000,4,2,1,25,0,0
62513,-100,4,2,1,25,0,0
62786,-200,4,2,1,25,0,0
62990,-40,4,2,1,25,0,0
63059,-100,4,2,1,25,0,1
70695,-40,4,2,1,25,0,0
70729,-200,4,2,1,25,0,0
70831,-40,4,2,1,25,0,0
70865,-200,4,2,1,25,0,0
70968,-100,4,2,1,25,0,1
79150,-100,4,2,1,25,0,0
79695,-100,4,2,1,25,0,1
84059,-100,4,2,1,25,0,1
87877,-100,4,2,1,25,0,0
88286,-200,4,2,1,25,0,0
88388,-40,4,2,1,25,0,0
88422,-100,4,2,1,25,0,0
96877,-83.3333333333333,4,2,1,25,0,0
97150,-100,4,2,1,25,0,1
105331,-100,4,2,1,25,0,0
105877,-100,4,2,1,25,0,1
114331,-40,4,2,1,25,0,0
114365,-200,4,2,1,25,0,0
114468,-40,4,2,1,25,0,0
114502,-200,4,2,1,25,0,0
114604,-100,4,2,1,25,0,0
115422,-100,4,2,1,25,0,1
131513,-10,4,2,1,25,0,0
131547,-125,4,2,1,25,0,0
132059,-100,4,2,1,25,0,1
132127,-100,4,2,1,25,0,0
148422,-52.6315789473684,4,2,1,25,0,0
148439,-1000,4,2,1,25,0,0
148456,-52.6315789473684,4,2,1,25,0,0
148473,-1000,4,2,1,25,0,0
148490,-52.6315789473684,4,2,1,25,0,0
148507,-1000,4,2,1,25,0,0
148525,-52.6315789473684,4,2,1,25,0,0
148542,-1000,4,2,1,25,0,0
148559,-100,4,2,1,25,0,0
148695,-52.6315789473684,4,2,1,25,0,0
148712,-1000,4,2,1,25,0,0
148729,-52.6315789473684,4,2,1,25,0,0
148746,-1000,4,2,1,25,0,0
148763,-52.6315789473684,4,2,1,25,0,0
148780,-1000,4,2,1,25,0,0
148797,-52.6315789473684,4,2,1,25,0,0
148814,-1000,4,2,1,25,0,0
148831,-100,4,2,1,25,0,0
148968,-66.6666666666667,4,2,1,25,0,0
149013,-200,4,2,1,25,0,0
149059,-66.6666666666667,4,2,1,25,0,0
149104,-200,4,2,1,25,0,0
149150,-66.6666666666667,4,2,1,25,0,0
149195,-200,4,2,1,25,0,0
149240,-66.6666666666667,4,2,1,25,0,0
149286,-200,4,2,1,25,0,0
149331,-66.6666666666667,4,2,1,25,0,0
149377,-200,4,2,1,25,0,0
149422,-66.6666666666667,4,2,1,25,0,0
149468,-200,4,2,1,25,0,0
149513,-100,4,2,1,25,0,0
166695,-83.3333333333333,4,2,1,25,0,0
166968,-100,4,2,1,25,0,1
175422,-100,4,2,1,25,0,0
175695,-52.6315789473684,4,2,1,25,0,0
175729,-1000,4,2,1,25,0,0
175763,-52.6315789473684,4,2,1,25,0,0
175797,-1000,4,2,1,25,0,0
175831,-52.6315789473684,4,2,1,25,0,0
175865,-1000,4,2,1,25,0,0
175900,-52.6315789473684,4,2,1,25,0,0
175934,-1000,4,2,1,25,0,0
175968,-100,4,2,1,25,0,0
176240,-200,4,2,1,25,0,0
176445,-40,4,2,1,25,0,0
176513,-100,4,2,1,25,0,1
184150,-40,4,2,1,25,0,0
184184,-200,4,2,1,25,0,0
184286,-40,4,2,1,25,0,0
184320,-200,4,2,1,25,0,0
184422,-100,4,2,1,25,0,1
192604,-100,4,2,1,25,0,0
193150,-100,4,2,1,25,0,1
201331,-100,4,2,1,25,0,0
201740,-200,4,2,1,25,0,0
201843,-40,4,2,1,25,0,0
201877,-100,4,2,1,25,0,1
201945,-100,4,2,1,25,0,0
210331,-83.3333333333333,4,2,1,25,0,0
210604,-100,4,2,1,25,0,1
218786,-100,4,2,1,25,0,0
219331,-100,4,2,1,25,0,1
227786,-50,4,2,1,25,0,0
227820,-149.253731343284,4,2,1,25,0,0
227922,-50,4,2,1,25,0,0
227956,-149.253731343284,4,2,1,25,0,0
228059,-100,4,2,1,25,0,0
228877,-100,4,2,1,25,0,1
244968,-10,4,2,1,25,0,0
244985,-125,4,2,1,25,0,0
245377,-200,4,2,1,25,0,0
245479,-40,4,2,1,25,0,0
245513,-100,4,2,1,25,0,1
254172,-100,4,2,1,25,0,0
254240,-100,4,2,1,25,0,1
262695,-200,4,2,1,25,0,0
262900,-40,4,2,1,25,0,0
262968,-100,4,2,1,25,0,1
271422,-100,4,2,1,25,0,0
272240,-200,4,2,1,25,0,0
272445,-40,4,2,1,25,0,0
272513,-100,4,2,1,25,0,1
280150,-200,4,2,1,25,0,0
280354,-40,4,2,1,25,0,0
280422,-100,4,2,1,25,0,0

[HitObjects]
475,192,1150,5,0,0:0:0:0:
402,192,1150,1,0,0:0:0:0:
256,192,1150,1,0,0:0:0:0:
36,192,1150,1,0,0:0:0:0:
182,192,1150,1,0,0:0:0:0:
329,192,1150,1,0,0:0:0:0:
109,192,1422,1,0,0:0:0:0:
402,192,1559,1,0,0:0:0:0:
475,192,1559,1,0,0:0:0:0:
182,192,1559,1,0,0:0:0:0:
256,192,1559,1,0,0:0:0:0:
329,192,1559,1,0,0:0:0:0:
109,192,1695,1,0,0:0:0:0:
475,192,1695,1,0,0:0:0:0:
329,192,1695,1,0,0:0:0:0:
36,192,1695,1,0,0:0:0:0:
475,192,1968,1,0,0:0:0:0:
329,192,1968,1,0,0:0:0:0:
109,192,1968,1,0,0:0:0:0:
182,192,2240,1,0,0:0:0:0:
36,192,2240,1,0,0:0:0:0:
475,192,2377,1,0,0:0:0:0:
329,192,2377,1,0,0:0:0:0:
475,192,2513,1,0,0:0:0:0:
329,192,2513,1,0,0:0:0:0:
109,192,2513,1,0,0:0:0:0:
109,192,2786,1,0,0:0:0:0:
36,192,2786,1,0,0:0:0:0:
329,192,2786,1,0,0:0:0:0:
475,192,2786,1,0,0:0:0:0:
109,192,3059,1,0,0:0:0:0:
475,192,3059,1,0,0:0:0:0:
329,192,3059,1,0,0:0:0:0:
36,192,3331,1,0,0:0:0:0:
182,192,3331,1,0,0:0:0:0:
256,192,3331,128,0,3604:0:0:0:0:
402,192,3331,128,0,3604:0:0:0:0:
475,192,3331,128,0,3604:0:0:0:0:
109,192,3604,1,0,0:0:0:0:
402,192,3740,1,0,0:0:0:0:
256,192,3740,1,0,0:0:0:0:
475,192,3740,1,0,0:0:0:0:
109,192,3877,1,0,0:0:0:0:
36,192,3877,1,0,0:0:0:0:
475,192,3877,1,0,0:0:0:0:
329,192,3877,1,0,0:0:0:0:
109,192,4150,1,0,0:0:0:0:
475,192,4150,1,0,0:0:0:0:
329,192,4150,1,0,0:0:0:0:
182,192,4422,1,0,0:0:0:0:
36,192,4422,1,0,0:0:0:0:
475,192,4559,1,0,0:0:0:0:
329,192,4559,1,0,0:0:0:0:
109,192,4695,1,0,0:0:0:0:
475,192,4695,1,0,0:0:0:0:
329,192,4695,1,0,0:0:0:0:
109,192,4968,1,0,0:0:0:0:
36,192,4968,1,0,0:0:0:0:
475,192,4968,1,0,0:0:0:0:
329,192,4968,1,0,0:0:0:0:
109,192,5240,1,0,0:0:0:0:
475,192,5513,1,0,0:0:0:0:
402,192,5513,1,0,0:0:0:0:
256,192,5513,1,0,0:0:0:0:
36,192,5513,1,0,0:0:0:0:
182,192,5513,1,0,0:0:0:0:
329,192,5513,1,0,0:0:0:0:
109,192,5786,1,0,0:0:0:0:
402,192,5922,1,0,0:0:0:0:
475,192,5922,1,0,0:0:0:0:
182,192,5922,1,0,0:0:0:0:
256,192,5922,1,0,0:0:0:0:
329,192,5922,1,0,0:0:0:0:
109,192,6059,1,0,0:0:0:0:
475,192,6059,1,0,0:0:0:0:
329,192,6059,1,0,0:0:0:0:
36,192,6059,1,0,0:0:0:0:
475,192,6331,1,0,0:0:0:0:
329,192,6331,1,0,0:0:0:0:
109,192,6331,1,0,0:0:0:0:
182,192,6604,1,0,0:0:0:0:
36,192,6604,1,0,0:0:0:0:
475,192,6740,1,0,0:0:0:0:
329,192,6740,1,0,0:0:0:0:
475,192,6877,1,0,0:0:0:0:
329,192,6877,1,0,0:0:0:0:
109,192,6877,1,0,0:0:0:0:
109,192,7150,1,0,0:0:0:0:
36,192,7150,1,0,0:0:0:0:
329,192,7150,1,0,0:0:0:0:
475,192,7150,1,0,0:0:0:0:
109,192,7422,1,0,0:0:0:0:
475,192,7422,1,0,0:0:0:0:
329,192,7422,1,0,0:0:0:0:
36,192,7695,1,0,0:0:0:0:
182,192,7695,1,0,0:0:0:0:
256,192,7695,128,0,7968:0:0:0:0:
402,192,7695,128,0,7968:0:0:0:0:
475,192,7695,128,0,7968:0:0:0:0:
109,192,7968,1,0,0:0:0:0:
402,192,8104,1,0,0:0:0:0:
256,192,8104,1,0,0:0:0:0:
475,192,8104,1,0,0:0:0:0:
109,192,8240,1,0,0:0:0:0:
36,192,8240,1,0,0:0:0:0:
475,192,8240,1,0,0:0:0:0:
329,192,8240,1,0,0:0:0:0:
109,192,8513,1,0,0:0:0:0:
475,192,8513,1,0,0:0:0:0:
329,192,8513,1,0,0:0:0:0:
182,192,8786,1,0,0:0:0:0:
36,192,8786,1,0,0:0:0:0:
475,192,8922,1,0,0:0:0:0:
329,192,8922,1,0,0:0:0:0:
109,192,9059,1,0,0:0:0:0:
475,192,9059,1,0,0:0:0:0:
329,192,9059,1,0,0:0:0:0:
402,192,9195,1,0,0:0:0:0:
329,192,9195,1,0,0:0:0:0:
256,192,9195,1,0,0:0:0:0:
182,192,9195,1,0,0:0:0:0:
475,192,9195,1,0,0:0:0:0:
109,192,9331,1,0,0:0:0:0:
36,192,9331,1,0,0:0:0:0:
109,192,9604,1,0,0:0:0:0:
36,192,9877,1,0,0:0:0:0:
182,192,9877,1,0,0:0:0:0:
329,192,9877,1,0,0:0:0:0:
475,192,9877,1,0,0:0:0:0:
402,192,9877,1,0,0:0:0:0:
256,192,9877,1,0,0:0:0:0:
109,192,10150,1,0,0:0:0:0:
256,192,10286,1,0,0:0:0:0:
329,192,10286,1,0,0:0:0:0:
182,192,10286,1,0,0:0:0:0:
402,192,10286,1,0,0:0:0:0:
475,192,10286,1,0,0:0:0:0:
329,192,10422,1,0,0:0:0:0:
36,192,10422,1,0,0:0:0:0:
109,192,10422,1,0,0:0:0:0:
475,192,10422,1,0,0:0:0:0:
109,192,10695,1,0,0:0:0:0:
329,192,10695,1,0,0:0:0:0:
475,192,10695,1,0,0:0:0:0:
36,192,10968,1,0,0:0:0:0:
182,192,10968,1,0,0:0:0:0:
329,192,11104,1,0,0:0:0:0:
475,192,11104,1,0,0:0:0:0:
109,192,11240,1,0,0:0:0:0:
329,192,11240,1,0,0:0:0:0:
475,192,11240,1,0,0:0:0:0:
329,192,11513,1,0,0:0:0:0:
475,192,11513,1,0,0:0:0:0:
109,192,11513,1,0,0:0:0:0:
36,192,11513,1,0,0:0:0:0:
329,192,11786,1,0,0:0:0:0:
475,192,11786,1,0,0:0:0:0:
109,192,11786,1,0,0:0:0:0:
402,192,12059,128,0,12331:0:0:0:0:
475,192,12059,128,0,12331:0:0:0:0:
256,192,12059,128,0,12331:0:0:0:0:
36,192,12059,1,0,0:0:0:0:
182,192,12059,1,0,0:0:0:0:
109,192,12331,1,0,0:0:0:0:
475,192,12468,1,0,0:0:0:0:
256,192,12468,1,0,0:0:0:0:
402,192,12468,1,0,0:0:0:0:
475,192,12604,1,0,0:0:0:0:
329,192,12604,1,0,0:0:0:0:
109,192,12604,1,0,0:0:0:0:
36,192,12604,1,0,0:0:0:0:
329,192,12877,1,0,0:0:0:0:
475,192,12877,1,0,0:0:0:0:
109,192,12877,1,0,0:0:0:0:
36,192,13150,1,0,0:0:0:0:
182,192,13150,1,0,0:0:0:0:
329,192,13286,1,0,0:0:0:0:
475,192,13286,1,0,0:0:0:0:
329,192,13422,1,0,0:0:0:0:
475,192,13422,1,0,0:0:0:0:
109,192,13422,1,0,0:0:0:0:
475,192,13695,1,0,0:0:0:0:
329,192,13695,1,0,0:0:0:0:
109,192,13695,1,0,0:0:0:0:
36,192,13695,1,0,0:0:0:0:
109,192,13968,1,0,0:0:0:0:
36,192,14240,1,0,0:0:0:0:
182,192,14240,1,0,0:0:0:0:
329,192,14240,1,0,0:0:0:0:
475,192,14240,1,0,0:0:0:0:
402,192,14240,1,0,0:0:0:0:
256,192,14240,1,0,0:0:0:0:
109,192,14513,1,0,0:0:0:0:
256,192,14650,1,0,0:0:0:0:
329,192,14650,1,0,0:0:0:0:
182,192,14650,1,0,0:0:0:0:
402,192,14650,1,0,0:0:0:0:
475,192,14650,1,0,0:0:0:0:
329,192,14786,1,0,0:0:0:0:
36,192,14786,1,0,0:0:0:0:
109,192,14786,1,0,0:0:0:0:
475,192,14786,1,0,0:0:0:0:
109,192,15059,1,0,0:0:0:0:
329,192,15059,1,0,0:0:0:0:
475,192,15059,1,0,0:0:0:0:
36,192,15331,1,0,0:0:0:0:
182,192,15331,1,0,0:0:0:0:
329,192,15468,1,0,0:0:0:0:
475,192,15468,1,0,0:0:0:0:
109,192,15604,1,0,0:0:0:0:
329,192,15604,1,0,0:0:0:0:
475,192,15604,128,0,15740:0:0:0:0:
329,192,15877,1,0,0:0:0:0:
109,192,15877,1,0,0:0:0:0:
36,192,15877,1,0,0:0:0:0:
475,192,15877,128,0,15945:0:0:0:0:
329,192,16150,1,0,0:0:0:0:
109,192,16150,1,0,0:0:0:0:
475,192,16150,128,0,16218:0:0:0:0:
475,192,16422,1,0,0:0:0:0:
402,192,16422,1,0,0:0:0:0:
256,192,16422,1,0,0:0:0:0:
36,192,16422,1,0,0:0:0:0:
109,192,16490,1,0,0:0:0:0:
329,192,16490,1,0,0:0:0:0:
182,192,16559,1,0,0:0:0:0:
402,192,16559,1,0,0:0:0:0:
256,192,16627,1,0,0:0:0:0:
36,192,16627,1,0,0:0:0:0:
329,192,16695,1,0,0:0:0:0:
109,192,16695,1,0,0:0:0:0:
475,192,16831,1,0,0:0:0:0:
182,192,16831,1,0,0:0:0:0:
402,192,16865,1,0,0:0:0:0:
329,192,16900,1,0,0:0:0:0:
36,192,16968,1,0,0:0:0:0:
475,192,16968,1,0,0:0:0:0:
109,192,17002,1,0,0:0:0:0:
182,192,17036,1,0,0:0:0:0:
402,192,17104,1,0,0:0:0:0:
256,192,17104,1,0,0:0:0:0:
475,192,17240,1,0,0:0:0:0:
329,192,17240,1,0,0:0:0:0:
36,192,17240,1,0,0:0:0:0:
109,192,17275,1,0,0:0:0:0:
182,192,17309,1,0,0:0:0:0:
402,192,17377,1,0,0:0:0:0:
256,192,17377,1,0,0:0:0:0:
109,192,17445,1,0,0:0:0:0:
36,192,17445,1,0,0:0:0:0:
475,192,17513,1,0,0:0:0:0:
402,192,17513,1,0,0:0:0:0:
182,192,17513,1,0,0:0:0:0:
329,192,17547,1,0,0:0:0:0:
256,192,17581,1,0,0:0:0:0:
36,192,17581,1,0,0:0:0:0:
109,192,17615,1,0,0:0:0:0:
182,192,17650,1,0,0:0:0:0:
475,192,17650,1,0,0:0:0:0:
402,192,17650,1,0,0:0:0:0:
109,192,17786,1,0,0:0:0:0:
329,192,17786,1,0,0:0:0:0:
36,192,17786,1,0,0:0:0:0:
182,192,17820,1,0,0:0:0:0:
475,192,17854,1,0,0:0:0:0:
256,192,17854,1,0,0:0:0:0:
402,192,17888,1,0,0:0:0:0:
36,192,17922,1,0,0:0:0:0:
329,192,17922,1,0,0:0:0:0:
109,192,17922,1,0,0:0:0:0:
475,192,18059,1,0,0:0:0:0:
402,192,18059,1,0,0:0:0:0:
256,192,18059,1,0,0:0:0:0:
109,192,18059,1,0,0:0:0:0:
36,192,18059,1,0,0:0:0:0:
329,192,18150,1,0,0:0:0:0:
182,192,18150,1,0,0:0:0:0:
402,192,18240,1,0,0:0:0:0:
256,192,18240,1,0,0:0:0:0:
109,192,18240,1,0,0:0:0:0:
475,192,18331,1,0,0:0:0:0:
329,192,18331,1,0,0:0:0:0:
182,192,18331,1,0,0:0:0:0:
36,192,18331,1,0,0:0:0:0:
402,192,18422,1,0,0:0:0:0:
109,192,18422,1,0,0:0:0:0:
329,192,18513,1,0,0:0:0:0:
182,192,18513,1,0,0:0:0:0:
475,192,18604,1,0,0:0:0:0:
402,192,18604,1,0,0:0:0:0:
256,192,18604,1,0,0:0:0:0:
109,192,18604,1,0,0:0:0:0:
36,192,18604,1,0,0:0:0:0:
36,192,18740,1,0,0:0:0:0:
36,192,18877,1,0,0:0:0:0:
36,192,19013,1,0,0:0:0:0:
402,192,19013,1,0,0:0:0:0:
329,192,19013,1,0,0:0:0:0:
182,192,19013,1,0,0:0:0:0:
36,192,19150,1,0,0:0:0:0:
475,192,19150,1,0,0:0:0:0:
402,192,19150,1,0,0:0:0:0:
256,192,19150,1,0,0:0:0:0:
109,192,19150,1,0,0:0:0:0:
36,192,19286,1,0,0:0:0:0:
36,192,19422,1,0,0:0:0:0:
402,192,19422,1,0,0:0:0:0:
329,192,19422,1,0,0:0:0:0:
182,192,19422,1,0,0:0:0:0:
36,192,19559,1,0,0:0:0:0:
36,192,19695,1,0,0:0:0:0:
36,192,19831,1,0,0:0:0:0:
36,192,19968,1,0,0:0:0:0:
402,192,19968,1,0,0:0:0:0:
475,192,19968,1,0,0:0:0:0:
182,192,19968,1,0,0:0:0:0:
329,192,20036,1,0,0:0:0:0:
256,192,20036,1,0,0:0:0:0:
36,192,20104,1,0,0:0:0:0:
475,192,20104,1,0,0:0:0:0:
402,192,20104,1,0,0:0:0:0:
36,192,20240,1,0,0:0:0:0:
329,192,20240,1,0,0:0:0:0:
256,192,20240,1,0,0:0:0:0:
182,192,20240,1,0,0:0:0:0:
475,192,20240,1,0,0:0:0:0:
36,192,20377,1,0,0:0:0:0:
402,192,20377,1,0,0:0:0:0:
329,192,20377,1,0,0:0:0:0:
182,192,20377,1,0,0:0:0:0:
36,192,20513,1,0,0:0:0:0:
36,192,20650,1,0,0:0:0:0:
36,192,20786,1,0,0:0:0:0:
475,192,20786,1,0,0:0:0:0:
402,192,20786,1,0,0:0:0:0:
256,192,20786,1,0,0:0:0:0:
109,192,20786,1,0,0:0:0:0:
475,192,20922,1,0,0:0:0:0:
475,192,21059,1,0,0:0:0:0:
475,192,21195,1,0,0:0:0:0:
109,192,21195,1,0,0:0:0:0:
329,192,21195,1,0,0:0:0:0:
182,192,21195,1,0,0:0:0:0:
475,192,21331,1,0,0:0:0:0:
402,192,21331,1,0,0:0:0:0:
256,192,21331,1,0,0:0:0:0:
36,192,21331,1,0,0:0:0:0:
109,192,21331,1,0,0:0:0:0:
475,192,21468,1,0,0:0:0:0:
475,192,21604,1,0,0:0:0:0:
182,192,21604,1,0,0:0:0:0:
109,192,21604,1,0,0:0:0:0:
329,192,21604,1,0,0:0:0:0:
475,192,21740,1,0,0:0:0:0:
475,192,21877,1,0,0:0:0:0:
475,192,22013,1,0,0:0:0:0:
475,192,22150,1,0,0:0:0:0:
36,192,22150,1,0,0:0:0:0:
329,192,22150,1,0,0:0:0:0:
182,192,22150,1,0,0:0:0:0:
256,192,22218,1,0,0:0:0:0:
109,192,22218,1,0,0:0:0:0:
475,192,22286,1,0,0:0:0:0:
36,192,22286,1,0,0:0:0:0:
182,192,22286,1,0,0:0:0:0:
475,192,22422,1,0,0:0:0:0:
36,192,22422,1,0,0:0:0:0:
256,192,22422,1,0,0:0:0:0:
329,192,22422,1,0,0:0:0:0:
109,192,22422,1,0,0:0:0:0:
475,192,22559,1,0,0:0:0:0:
109,192,22604,1,0,0:0:0:0:
182,192,22604,1,0,0:0:0:0:
36,192,22604,1,0,0:0:0:0:
475,192,22695,1,0,0:0:0:0:
182,192,22786,1,0,0:0:0:0:
109,192,22786,1,0,0:0:0:0:
36,192,22786,1,0,0:0:0:0:
475,192,22831,1,0,0:0:0:0:
475,192,22968,1,0,0:0:0:0:
402,192,22968,1,0,0:0:0:0:
256,192,22968,1,0,0:0:0:0:
109,192,22968,1,0,0:0:0:0:
36,192,22968,1,0,0:0:0:0:
36,192,23104,1,0,0:0:0:0:
36,192,23240,1,0,0:0:0:0:
36,192,23377,1,0,0:0:0:0:
402,192,23377,1,0,0:0:0:0:
329,192,23377,1,0,0:0:0:0:
182,192,23377,1,0,0:0:0:0:
36,192,23513,1,0,0:0:0:0:
475,192,23513,1,0,0:0:0:0:
402,192,23513,1,0,0:0:0:0:
256,192,23513,1,0,0:0:0:0:
109,192,23513,1,0,0:0:0:0:
36,192,23650,1,0,0:0:0:0:
36,192,23786,1,0,0:0:0:0:
402,192,23786,1,0,0:0:0:0:
329,192,23786,1,0,0:0:0:0:
182,192,23786,1,0,0:0:0:0:
36,192,23922,1,0,0:0:0:0:
36,192,24059,1,0,0:0:0:0:
36,192,24195,1,0,0:0:0:0:
36,192,24331,1,0,0:0:0:0:
182,192,24331,1,0,0:0:0:0:
256,192,24331,1,0,0:0:0:0:
329,192,24331,1,0,0:0:0:0:
402,192,24400,1,0,0:0:0:0:
475,192,24400,1,0,0:0:0:0:
36,192,24468,1,0,0:0:0:0:
329,192,24468,1,0,0:0:0:0:
256,192,24468,1,0,0:0:0:0:
36,192,24604,1,0,0:0:0:0:
256,192,24604,1,0,0:0:0:0:
182,192,24604,1,0,0:0:0:0:
475,192,24604,1,0,0:0:0:0:
402,192,24604,1,0,0:0:0:0:
36,192,24740,1,0,0:0:0:0:
402,192,24740,1,0,0:0:0:0:
329,192,24740,1,0,0:0:0:0:
182,192,24740,1,0,0:0:0:0:
36,192,24877,1,0,0:0:0:0:
36,192,25013,1,0,0:0:0:0:
36,192,25150,1,0,0:0:0:0:
475,192,25150,1,0,0:0:0:0:
402,192,25150,1,0,0:0:0:0:
256,192,25150,1,0,0:0:0:0:
109,192,25150,1,0,0:0:0:0:
475,192,25286,1,0,0:0:0:0:
475,192,25422,1,0,0:0:0:0:
475,192,25559,1,0,0:0:0:0:
109,192,25559,1,0,0:0:0:0:
329,192,25559,1,0,0:0:0:0:
182,192,25559,1,0,0:0:0:0:
475,192,25695,1,0,0:0:0:0:
402,192,25695,1,0,0:0:0:0:
256,192,25695,1,0,0:0:0:0:
36,192,25695,1,0,0:0:0:0:
109,192,25695,1,0,0:0:0:0:
475,192,25831,1,0,0:0:0:0:
475,192,25968,1,0,0:0:0:0:
182,192,25968,1,0,0:0:0:0:
109,192,25968,1,0,0:0:0:0:
329,192,25968,1,0,0:0:0:0:
475,192,26104,1,0,0:0:0:0:
475,192,26240,1,0,0:0:0:0:
475,192,26377,1,0,0:0:0:0:
475,192,26513,1,0,0:0:0:0:
36,192,26513,1,0,0:0:0:0:
329,192,26513,1,0,0:0:0:0:
182,192,26513,1,0,0:0:0:0:
256,192,26581,1,0,0:0:0:0:
109,192,26581,1,0,0:0:0:0:
475,192,26650,1,0,0:0:0:0:
36,192,26650,1,0,0:0:0:0:
182,192,26650,1,0,0:0:0:0:
475,192,26786,1,0,0:0:0:0:
36,192,26786,1,0,0:0:0:0:
256,192,26786,1,0,0:0:0:0:
329,192,26786,1,0,0:0:0:0:
109,192,26786,1,0,0:0:0:0:
475,192,26922,1,0,0:0:0:0:
109,192,26968,1,0,0:0:0:0:
182,192,26968,1,0,0:0:0:0:
36,192,26968,1,0,0:0:0:0:
475,192,27059,1,0,0:0:0:0:
182,192,27150,1,0,0:0:0:0:
109,192,27150,1,0,0:0:0:0:
36,192,27150,1,0,0:0:0:0:
475,192,27195,1,0,0:0:0:0:
475,192,27331,1,0,0:0:0:0:
402,192,27331,1,0,0:0:0:0:
256,192,27331,1,0,0:0:0:0:
109,192,27331,1,0,0:0:0:0:
36,192,27331,1,0,0:0:0:0:
36,192,27468,1,0,0:0:0:0:
36,192,27604,1,0,0:0:0:0:
36,192,27740,1,0,0:0:0:0:
402,192,27740,1,0,0:0:0:0:
329,192,27740,1,0,0:0:0:0:
182,192,27740,1,0,0:0:0:0:
36,192,27877,1,0,0:0:0:0:
475,192,27877,1,0,0:0:0:0:
402,192,27877,1,0,0:0:0:0:
256,192,27877,1,0,0:0:0:0:
109,192,27877,1,0,0:0:0:0:
36,192,28013,1,0,0:0:0:0:
36,192,28150,1,0,0:0:0:0:
402,192,28150,1,0,0:0:0:0:
329,192,28150,1,0,0:0:0:0:
182,192,28150,1,0,0:0:0:0:
36,192,28286,1,0,0:0:0:0:
36,192,28422,1,0,0:0:0:0:
36,192,28559,1,0,0:0:0:0:
36,192,28695,1,0,0:0:0:0:
402,192,28695,1,0,0:0:0:0:
475,192,28695,1,0,0:0:0:0:
182,192,28695,1,0,0:0:0:0:
329,192,28763,1,0,0:0:0:0:
256,192,28763,1,0,0:0:0:0:
36,192,28831,1,0,0:0:0:0:
475,192,28831,1,0,0:0:0:0:
402,192,28831,1,0,0:0:0:0:
36,192,28968,1,0,0:0:0:0:
329,192,28968,1,0,0:0:0:0:
256,192,28968,1,0,0:0:0:0:
182,192,28968,1,0,0:0:0:0:
475,192,28968,1,0,0:0:0:0:
36,192,29104,1,0,0:0:0:0:
402,192,29104,1,0,0:0:0:0:
329,192,29104,1,0,0:0:0:0:
182,192,29104,1,0,0:0:0:0:
36,192,29240,1,0,0:0:0:0:
36,192,29377,1,0,0:0:0:0:
36,192,29513,1,0,0:0:0:0:
475,192,29513,1,0,0:0:0:0:
402,192,29513,1,0,0:0:0:0:
256,192,29513,1,0,0:0:0:0:
109,192,29513,1,0,0:0:0:0:
475,192,29650,1,0,0:0:0:0:
475,192,29786,1,0,0:0:0:0:
475,192,29922,1,0,0:0:0:0:
109,192,29922,1,0,0:0:0:0:
329,192,29922,1,0,0:0:0:0:
182,192,29922,1,0,0:0:0:0:
475,192,30059,1,0,0:0:0:0:
402,192,30059,1,0,0:0:0:0:
256,192,30059,1,0,0:0:0:0:
36,192,30059,1,0,0:0:0:0:
109,192,30059,1,0,0:0:0:0:
475,192,30195,1,0,0:0:0:0:
475,192,30331,1,0,0:0:0:0:
182,192,30331,1,0,0:0:0:0:
109,192,30331,1,0,0:0:0:0:
329,192,30331,1,0,0:0:0:0:
475,192,30468,1,0,0:0:0:0:
475,192,30604,1,0,0:0:0:0:
475,192,30740,1,0,0:0:0:0:
475,192,30877,1,0,0:0:0:0:
36,192,30877,1,0,0:0:0:0:
329,192,30877,1,0,0:0:0:0:
182,192,30877,1,0,0:0:0:0:
256,192,30945,1,0,0:0:0:0:
109,192,30945,1,0,0:0:0:0:
475,192,31013,1,0,0:0:0:0:
36,192,31013,1,0,0:0:0:0:
182,192,31013,1,0,0:0:0:0:
475,192,31150,1,0,0:0:0:0:
36,192,31150,1,0,0:0:0:0:
256,192,31150,1,0,0:0:0:0:
329,192,31150,1,0,0:0:0:0:
109,192,31150,1,0,0:0:0:0:
475,192,31286,1,0,0:0:0:0:
109,192,31331,1,0,0:0:0:0:
182,192,31331,1,0,0:0:0:0:
36,192,31331,1,0,0:0:0:0:
475,192,31422,1,0,0:0:0:0:
182,192,31513,1,0,0:0:0:0:
109,192,31513,1,0,0:0:0:0:
36,192,31513,1,0,0:0:0:0:
475,192,31559,1,0,0:0:0:0:
475,192,31695,1,0,0:0:0:0:
402,192,31695,1,0,0:0:0:0:
256,192,31695,1,0,0:0:0:0:
109,192,31695,1,0,0:0:0:0:
36,192,31695,1,0,0:0:0:0:
36,192,31831,1,0,0:0:0:0:
36,192,31968,1,0,0:0:0:0:
256,192,31968,1,0,0:0:0:0:
36,192,32104,1,0,0:0:0:0:
329,192,32104,1,0,0:0:0:0:
182,192,32104,1,0,0:0:0:0:
475,192,32104,1,0,0:0:0:0:
475,192,32240,1,0,0:0:0:0:
475,192,32377,1,0,0:0:0:0:
475,192,32513,1,0,0:0:0:0:
402,192,32513,1,0,0:0:0:0:
256,192,32513,1,0,0:0:0:0:
36,192,32513,1,0,0:0:0:0:
36,192,32650,1,0,0:0:0:0:
36,192,32786,1,0,0:0:0:0:
36,192,32922,1,0,0:0:0:0:
256,192,33059,1,0,0:0:0:0:
36,192,33059,1,0,0:0:0:0:
36,192,33195,1,0,0:0:0:0:
36,192,33331,1,0,0:0:0:0:
36,192,33468,1,0,0:0:0:0:
36,192,33604,1,0,0:0:0:0:
256,192,33604,1,0,0:0:0:0:
36,192,33740,1,0,0:0:0:0:
475,192,33877,1,0,0:0:0:0:
402,192,33877,1,0,0:0:0:0:
329,192,33877,1,0,0:0:0:0:
182,192,33877,1,0,0:0:0:0:
256,192,33945,1,0,0:0:0:0:
109,192,33945,1,0,0:0:0:0:
36,192,33945,1,0,0:0:0:0:
402,192,34013,1,0,0:0:0:0:
329,192,34013,1,0,0:0:0:0:
182,192,34081,1,0,0:0:0:0:
109,192,34081,1,0,0:0:0:0:
475,192,34150,1,0,0:0:0:0:
256,192,34150,1,0,0:0:0:0:
402,192,34150,1,0,0:0:0:0:
109,192,34218,1,0,0:0:0:0:
36,192,34218,1,0,0:0:0:0:
329,192,34218,1,0,0:0:0:0:
182,192,34286,1,0,0:0:0:0:
256,192,34286,1,0,0:0:0:0:
475,192,34354,1,0,0:0:0:0:
402,192,34354,1,0,0:0:0:0:
182,192,34422,1,0,0:0:0:0:
109,192,34422,1,0,0:0:0:0:
36,192,34422,1,0,0:0:0:0:
402,192,34490,1,0,0:0:0:0:
256,192,34490,1,0,0:0:0:0:
329,192,34490,1,0,0:0:0:0:
475,192,34559,1,0,0:0:0:0:
109,192,34559,1,0,0:0:0:0:
36,192,34559,1,0,0:0:0:0:
182,192,34627,1,0,0:0:0:0:
256,192,34627,1,0,0:0:0:0:
402,192,34695,1,0,0:0:0:0:
329,192,34695,1,0,0:0:0:0:
36,192,34695,1,0,0:0:0:0:
475,192,34763,1,0,0:0:0:0:
182,192,34763,1,0,0:0:0:0:
109,192,34763,1,0,0:0:0:0:
256,192,34831,1,0,0:0:0:0:
329,192,34831,1,0,0:0:0:0:
36,192,34900,1,0,0:0:0:0:
109,192,34900,1,0,0:0:0:0:
475,192,34968,1,0,0:0:0:0:
329,192,34968,1,0,0:0:0:0:
402,192,34968,1,0,0:0:0:0:
182,192,35036,1,0,0:0:0:0:
109,192,35036,1,0,0:0:0:0:
36,192,35036,1,0,0:0:0:0:
329,192,35104,1,0,0:0:0:0:
256,192,35104,1,0,0:0:0:0:
36,192,35172,1,0,0:0:0:0:
109,192,35172,1,0,0:0:0:0:
475,192,35240,1,0,0:0:0:0:
402,192,35240,1,0,0:0:0:0:
182,192,35240,1,0,0:0:0:0:
256,192,35309,1,0,0:0:0:0:
36,192,35309,1,0,0:0:0:0:
109,192,35309,1,0,0:0:0:0:
329,192,35377,1,0,0:0:0:0:
402,192,35377,1,0,0:0:0:0:
182,192,35445,1,0,0:0:0:0:
109,192,35445,1,0,0:0:0:0:
402,192,35513,1,0,0:0:0:0:
329,192,35513,1,0,0:0:0:0:
256,192,35513,1,0,0:0:0:0:
109,192,35581,1,0,0:0:0:0:
36,192,35581,1,0,0:0:0:0:
475,192,35581,1,0,0:0:0:0:
256,192,35650,1,0,0:0:0:0:
182,192,35650,1,0,0:0:0:0:
329,192,35718,1,0,0:0:0:0:
402,192,35718,1,0,0:0:0:0:
109,192,35786,1,0,0:0:0:0:
36,192,35786,1,0,0:0:0:0:
475,192,35786,1,0,0:0:0:0:
182,192,35786,1,0,0:0:0:0:
402,192,35922,1,0,0:0:0:0:
256,192,35922,1,0,0:0:0:0:
475,192,36059,1,0,0:0:0:0:
329,192,36059,1,0,0:0:0:0:
182,192,36059,1,0,0:0:0:0:
109,192,36059,1,0,0:0:0:0:
36,192,36059,1,0,0:0:0:0:
402,192,36195,1,0,0:0:0:0:
256,192,36195,1,0,0:0:0:0:
109,192,36195,1,0,0:0:0:0:
256,192,36331,1,0,0:0:0:0:
329,192,36331,1,0,0:0:0:0:
182,192,36331,1,0,0:0:0:0:
36,192,36331,1,0,0:0:0:0:
475,192,36468,1,0,0:0:0:0:
329,192,36468,1,0,0:0:0:0:
109,192,36468,1,0,0:0:0:0:
475,192,36604,1,0,0:0:0:0:
402,192,36604,1,0,0:0:0:0:
256,192,36604,1,0,0:0:0:0:
36,192,36604,1,0,0:0:0:0:
475,192,36740,1,0,0:0:0:0:
329,192,36740,1,0,0:0:0:0:
182,192,36740,1,0,0:0:0:0:
402,192,36877,1,0,0:0:0:0:
256,192,36877,1,0,0:0:0:0:
109,192,36877,1,0,0:0:0:0:
182,192,36877,1,0,0:0:0:0:
475,192,37013,1,0,0:0:0:0:
329,192,37013,1,0,0:0:0:0:
36,192,37013,1,0,0:0:0:0:
475,192,37150,1,0,0:0:0:0:
402,192,37150,1,0,0:0:0:0:
256,192,37150,1,0,0:0:0:0:
109,192,37150,1,0,0:0:0:0:
329,192,37286,1,0,0:0:0:0:
182,192,37286,1,0,0:0:0:0:
109,192,37286,1,0,0:0:0:0:
475,192,37422,1,0,0:0:0:0:
402,192,37422,1,0,0:0:0:0:
256,192,37422,1,0,0:0:0:0:
36,192,37422,1,0,0:0:0:0:
182,192,37559,1,0,0:0:0:0:
109,192,37559,1,0,0:0:0:0:
329,192,37559,1,0,0:0:0:0:
329,192,37627,1,0,0:0:0:0:
475,192,37695,1,0,0:0:0:0:
402,192,37695,1,0,0:0:0:0:
256,192,37695,1,0,0:0:0:0:
109,192,37695,1,0,0:0:0:0:
182,192,37831,1,0,0:0:0:0:
36,192,37831,1,0,0:0:0:0:
329,192,37831,1,0,0:0:0:0:
182,192,37900,1,0,0:0:0:0:
475,192,37968,1,0,0:0:0:0:
402,192,37968,1,0,0:0:0:0:
256,192,37968,1,0,0:0:0:0:
109,192,37968,1,0,0:0:0:0:
475,192,38104,1,0,0:0:0:0:
256,192,38104,1,0,0:0:0:0:
109,192,38104,1,0,0:0:0:0:
402,192,38240,1,0,0:0:0:0:
182,192,38240,1,0,0:0:0:0:
36,192,38240,1,0,0:0:0:0:
329,192,38240,1,0,0:0:0:0:
475,192,38377,1,0,0:0:0:0:
256,192,38377,1,0,0:0:0:0:
36,192,38377,1,0,0:0:0:0:
475,192,38513,1,0,0:0:0:0:
402,192,38513,1,0,0:0:0:0:
182,192,38513,1,0,0:0:0:0:
109,192,38513,1,0,0:0:0:0:
402,192,38650,1,0,0:0:0:0:
256,192,38650,1,0,0:0:0:0:
36,192,38650,1,0,0:0:0:0:
475,192,38786,1,0,0:0:0:0:
109,192,38786,1,0,0:0:0:0:
36,192,38786,1,0,0:0:0:0:
329,192,38786,1,0,0:0:0:0:
402,192,38922,1,0,0:0:0:0:
256,192,38922,1,0,0:0:0:0:
182,192,38922,1,0,0:0:0:0:
402,192,39059,1,0,0:0:0:0:
329,192,39059,1,0,0:0:0:0:
256,192,39059,1,0,0:0:0:0:
36,192,39059,1,0,0:0:0:0:
475,192,39195,1,0,0:0:0:0:
182,192,39195,1,0,0:0:0:0:
109,192,39195,1,0,0:0:0:0:
475,192,39331,1,0,0:0:0:0:
402,192,39331,1,0,0:0:0:0:
256,192,39331,1,0,0:0:0:0:
36,192,39331,1,0,0:0:0:0:
329,192,39468,1,0,0:0:0:0:
182,192,39468,1,0,0:0:0:0:
36,192,39468,1,0,0:0:0:0:
402,192,39604,1,0,0:0:0:0:
475,192,39604,1,0,0:0:0:0:
256,192,39604,1,0,0:0:0:0:
182,192,39604,1,0,0:0:0:0:
109,192,39740,1,0,0:0:0:0:
36,192,39740,1,0,0:0:0:0:
329,192,39740,1,0,0:0:0:0:
182,192,39809,1,0,0:0:0:0:
402,192,39809,1,0,0:0:0:0:
475,192,39877,1,0,0:0:0:0:
256,192,39877,1,0,0:0:0:0:
36,192,39877,1,0,0:0:0:0:
109,192,39877,1,0,0:0:0:0:
402,192,39945,1,0,0:0:0:0:
182,192,39945,1,0,0:0:0:0:
329,192,40013,1,0,0:0:0:0:
36,192,40013,1,0,0:0:0:0:
109,192,40081,1,0,0:0:0:0:
256,192,40081,1,0,0:0:0:0:
475,192,40150,1,0,0:0:0:0:
402,192,40150,1,0,0:0:0:0:
329,192,40150,1,0,0:0:0:0:
182,192,40150,1,0,0:0:0:0:
475,192,40286,1,0,0:0:0:0:
256,192,40286,1,0,0:0:0:0:
109,192,40286,1,0,0:0:0:0:
402,192,40422,1,0,0:0:0:0:
329,192,40422,1,0,0:0:0:0:
182,192,40422,1,0,0:0:0:0:
109,192,40422,1,0,0:0:0:0:
329,192,40559,1,0,0:0:0:0:
256,192,40559,1,0,0:0:0:0:
36,192,40559,1,0,0:0:0:0:
475,192,40695,1,0,0:0:0:0:
402,192,40695,1,0,0:0:0:0:
182,192,40695,1,0,0:0:0:0:
36,192,40695,1,0,0:0:0:0:
475,192,40831,1,0,0:0:0:0:
256,192,40831,1,0,0:0:0:0:
109,192,40831,1,0,0:0:0:0:
402,192,40968,1,0,0:0:0:0:
329,192,40968,1,0,0:0:0:0:
36,192,40968,1,0,0:0:0:0:
109,192,40968,1,0,0:0:0:0:
475,192,41104,1,0,0:0:0:0:
256,192,41104,1,0,0:0:0:0:
182,192,41104,1,0,0:0:0:0:
329,192,41240,1,0,0:0:0:0:
182,192,41240,1,0,0:0:0:0:
109,192,41240,1,0,0:0:0:0:
36,192,41240,1,0,0:0:0:0:
256,192,41377,1,0,0:0:0:0:
109,192,41377,1,0,0:0:0:0:
402,192,41377,1,0,0:0:0:0:
475,192,41513,1,0,0:0:0:0:
402,192,41513,1,0,0:0:0:0:
256,192,41513,1,0,0:0:0:0:
182,192,41513,1,0,0:0:0:0:
402,192,41650,1,0,0:0:0:0:
182,192,41650,1,0,0:0:0:0:
36,192,41650,1,0,0:0:0:0:
475,192,41786,1,0,0:0:0:0:
329,192,41786,1,0,0:0:0:0:
109,192,41786,1,0,0:0:0:0:
36,192,41786,1,0,0:0:0:0:
402,192,41922,1,0,0:0:0:0:
256,192,41922,1,0,0:0:0:0:
36,192,41922,1,0,0:0:0:0:
402,192,41990,1,0,0:0:0:0:
182,192,42059,1,0,0:0:0:0:
109,192,42059,1,0,0:0:0:0:
329,192,42059,1,0,0:0:0:0:
36,192,42059,1,0,0:0:0:0:
109,192,42195,1,0,0:0:0:0:
256,192,42195,1,0,0:0:0:0:
475,192,42195,1,0,0:0:0:0:
109,192,42263,1,0,0:0:0:0:
475,192,42331,1,0,0:0:0:0:
329,192,42331,1,0,0:0:0:0:
182,192,42331,1,0,0:0:0:0:
402,192,42331,1,0,0:0:0:0:
475,192,42468,1,0,0:0:0:0:
256,192,42468,1,0,0:0:0:0:
36,192,42468,1,0,0:0:0:0:
402,192,42604,1,0,0:0:0:0:
329,192,42604,1,0,0:0:0:0:
182,192,42604,1,0,0:0:0:0:
36,192,42604,1,0,0:0:0:0:
475,192,42740,1,0,0:0:0:0:
256,192,42740,1,0,0:0:0:0:
36,192,42740,1,0,0:0:0:0:
475,192,42877,1,0,0:0:0:0:
329,192,42877,1,0,0:0:0:0:
182,192,42877,1,0,0:0:0:0:
109,192,42877,1,0,0:0:0:0:
256,192,43013,1,0,0:0:0:0:
329,192,43013,1,0,0:0:0:0:
36,192,43013,1,0,0:0:0:0:
475,192,43150,1,0,0:0:0:0:
402,192,43150,1,0,0:0:0:0:
182,192,43150,1,0,0:0:0:0:
36,192,43150,1,0,0:0:0:0:
475,192,43286,1,0,0:0:0:0:
256,192,43286,1,0,0:0:0:0:
109,192,43286,1,0,0:0:0:0:
182,192,43354,1,0,0:0:0:0:
402,192,43422,1,0,0:0:0:0:
36,192,43422,1,0,0:0:0:0:
109,192,43422,1,0,0:0:0:0:
329,192,43422,1,0,0:0:0:0:
475,192,43559,1,0,0:0:0:0:
36,192,43559,1,0,0:0:0:0:
256,192,43559,1,0,0:0:0:0:
475,192,43695,1,0,0:0:0:0:
402,192,43695,1,0,0:0:0:0:
256,192,43695,1,0,0:0:0:0:
109,192,43695,1,0,0:0:0:0:
329,192,43831,1,0,0:0:0:0:
182,192,43831,1,0,0:0:0:0:
36,192,43831,1,0,0:0:0:0:
402,192,43968,1,0,0:0:0:0:
256,192,43968,1,0,0:0:0:0:
109,192,43968,1,0,0:0:0:0:
36,192,43968,1,0,0:0:0:0:
475,192,44104,1,0,0:0:0:0:
329,192,44104,1,0,0:0:0:0:
182,192,44104,1,0,0:0:0:0:
402,192,44172,1,0,0:0:0:0:
256,192,44172,1,0,0:0:0:0:
109,192,44240,1,0,0:0:0:0:
36,192,44240,1,0,0:0:0:0:
329,192,44240,1,0,0:0:0:0:
182,192,44240,1,0,0:0:0:0:
475,192,44309,1,0,0:0:0:0:
402,192,44309,1,0,0:0:0:0:
256,192,44377,1,0,0:0:0:0:
109,192,44377,1,0,0:0:0:0:
36,192,44377,1,0,0:0:0:0:
329,192,44445,1,0,0:0:0:0:
182,192,44445,1,0,0:0:0:0:
475,192,44513,1,0,0:0:0:0:
402,192,44513,1,0,0:0:0:0:
256,192,44513,1,0,0:0:0:0:
36,192,44513,1,0,0:0:0:0:
475,192,44650,1,0,0:0:0:0:
329,192,44650,1,0,0:0:0:0:
109,192,44650,1,0,0:0:0:0:
475,192,44786,1,0,0:0:0:0:
402,192,44786,1,0,0:0:0:0:
182,192,44786,1,0,0:0:0:0:
36,192,44786,1,0,0:0:0:0:
256,192,44831,1,0,0:0:0:0:
329,192,44877,1,0,0:0:0:0:
109,192,44922,1,0,0:0:0:0:
36,192,44922,1,0,0:0:0:0:
402,192,44922,1,0,0:0:0:0:
182,192,44990,1,0,0:0:0:0:
475,192,45059,1,0,0:0:0:0:
329,192,45059,1,0,0:0:0:0:
256,192,45059,1,0,0:0:0:0:
36,192,45127,1,0,0:0:0:0:
402,192,45195,1,0,0:0:0:0:
182,192,45195,1,0,0:0:0:0:
109,192,45195,1,0,0:0:0:0:
256,192,45263,1,0,0:0:0:0:
36,192,45331,1,0,0:0:0:0:
475,192,45331,1,0,0:0:0:0:
329,192,45331,1,0,0:0:0:0:
109,192,45377,1,0,0:0:0:0:
182,192,45422,1,0,0:0:0:0:
256,192,45468,1,0,0:0:0:0:
36,192,45468,1,0,0:0:0:0:
402,192,45468,1,0,0:0:0:0:
329,192,45536,1,0,0:0:0:0:
182,192,45604,1,0,0:0:0:0:
109,192,45604,1,0,0:0:0:0:
475,192,45604,1,0,0:0:0:0:
256,192,45672,1,0,0:0:0:0:
36,192,45740,1,0,0:0:0:0:
329,192,45740,1,0,0:0:0:0:
402,192,45740,1,0,0:0:0:0:
109,192,45809,1,0,0:0:0:0:
182,192,45877,1,0,0:0:0:0:
402,192,45877,1,0,0:0:0:0:
475,192,45877,1,0,0:0:0:0:
256,192,45922,1,0,0:0:0:0:
329,192,45968,1,0,0:0:0:0:
475,192,46013,1,0,0:0:0:0:
109,192,46013,1,0,0:0:0:0:
36,192,46013,1,0,0:0:0:0:
182,192,46081,1,0,0:0:0:0:
402,192,46150,1,0,0:0:0:0:
256,192,46150,1,0,0:0:0:0:
329,192,46150,1,0,0:0:0:0:
36,192,46218,1,0,0:0:0:0:
182,192,46286,1,0,0:0:0:0:
475,192,46286,1,0,0:0:0:0:
109,192,46286,1,0,0:0:0:0:
329,192,46354,1,0,0:0:0:0:
256,192,46422,1,0,0:0:0:0:
36,192,46422,1,0,0:0:0:0:
402,192,46422,1,0,0:0:0:0:
109,192,46468,1,0,0:0:0:0:
182,192,46513,1,0,0:0:0:0:
329,192,46559,1,0,0:0:0:0:
475,192,46559,1,0,0:0:0:0:
36,192,46559,1,0,0:0:0:0:
256,192,46627,1,0,0:0:0:0:
182,192,46695,1,0,0:0:0:0:
109,192,46695,1,0,0:0:0:0:
402,192,46695,1,0,0:0:0:0:
329,192,46763,1,0,0:0:0:0:
36,192,46831,1,0,0:0:0:0:
475,192,46831,1,0,0:0:0:0:
256,192,46831,1,0,0:0:0:0:
109,192,46900,1,0,0:0:0:0:
402,192,46968,1,0,0:0:0:0:
329,192,46968,1,0,0:0:0:0:
182,192,46968,1,0,0:0:0:0:
36,192,47013,1,0,0:0:0:0:
109,192,47059,1,0,0:0:0:0:
256,192,47104,1,0,0:0:0:0:
475,192,47104,1,0,0:0:0:0:
402,192,47104,1,0,0:0:0:0:
182,192,47172,1,0,0:0:0:0:
109,192,47240,1,0,0:0:0:0:
36,192,47240,1,0,0:0:0:0:
329,192,47240,1,0,0:0:0:0:
475,192,47309,1,0,0:0:0:0:
402,192,47377,1,0,0:0:0:0:
256,192,47377,1,0,0:0:0:0:
182,192,47377,1,0,0:0:0:0:
36,192,47445,1,0,0:0:0:0:
109,192,47513,1,0,0:0:0:0:
475,192,47513,1,0,0:0:0:0:
329,192,47513,1,0,0:0:0:0:
182,192,47559,1,0,0:0:0:0:
256,192,47604,1,0,0:0:0:0:
109,192,47650,1,0,0:0:0:0:
36,192,47650,1,0,0:0:0:0:
402,192,47650,1,0,0:0:0:0:
329,192,47718,1,0,0:0:0:0:
256,192,47786,1,0,0:0:0:0:
182,192,47786,1,0,0:0:0:0:
475,192,47786,1,0,0:0:0:0:
36,192,47854,1,0,0:0:0:0:
109,192,47922,1,0,0:0:0:0:
402,192,47922,1,0,0:0:0:0:
329,192,47922,1,0,0:0:0:0:
256,192,47990,1,0,0:0:0:0:
182,192,48059,1,0,0:0:0:0:
36,192,48059,1,0,0:0:0:0:
475,192,48059,1,0,0:0:0:0:
402,192,48104,1,0,0:0:0:0:
329,192,48150,1,0,0:0:0:0:
256,192,48195,1,0,0:0:0:0:
109,192,48195,1,0,0:0:0:0:
36,192,48195,1,0,0:0:0:0:
475,192,48263,1,0,0:0:0:0:
402,192,48331,1,0,0:0:0:0:
329,192,48331,1,0,0:0:0:0:
182,192,48331,1,0,0:0:0:0:
36,192,48400,1,0,0:0:0:0:
109,192,48468,1,0,0:0:0:0:
256,192,48468,1,0,0:0:0:0:
475,192,48468,1,0,0:0:0:0:
329,192,48536,1,0,0:0:0:0:
182,192,48604,1,0,0:0:0:0:
36,192,48604,1,0,0:0:0:0:
402,192,48604,1,0,0:0:0:0:
256,192,48650,1,0,0:0:0:0:
329,192,48695,1,0,0:0:0:0:
109,192,48740,1,0,0:0:0:0:
475,192,48740,1,0,0:0:0:0:
36,192,48740,1,0,0:0:0:0:
182,192,48809,1,0,0:0:0:0:
402,192,48877,1,0,0:0:0:0:
256,192,48877,1,0,0:0:0:0:
329,192,48877,1,0,0:0:0:0:
36,192,48945,1,0,0:0:0:0:
109,192,49013,1,0,0:0:0:0:
182,192,49013,1,0,0:0:0:0:
475,192,49013,1,0,0:0:0:0:
329,192,49081,1,0,0:0:0:0:
402,192,49150,1,0,0:0:0:0:
256,192,49150,1,0,0:0:0:0:
36,192,49150,1,0,0:0:0:0:
475,192,49150,1,0,0:0:0:0:
109,192,49218,1,0,0:0:0:0:
182,192,49218,1,0,0:0:0:0:
402,192,49286,1,0,0:0:0:0:
329,192,49286,1,0,0:0:0:0:
109,192,49354,1,0,0:0:0:0:
36,192,49354,1,0,0:0:0:0:
475,192,49422,1,0,0:0:0:0:
402,192,49422,1,0,0:0:0:0:
256,192,49422,1,0,0:0:0:0:
182,192,49422,1,0,0:0:0:0:
109,192,49490,1,0,0:0:0:0:
36,192,49490,1,0,0:0:0:0:
329,192,49559,1,0,0:0:0:0:
182,192,49559,1,0,0:0:0:0:
475,192,49627,1,0,0:0:0:0:
402,192,49627,1,0,0:0:0:0:
329,192,49695,1,0,0:0:0:0:
256,192,49695,1,0,0:0:0:0:
109,192,49695,1,0,0:0:0:0:
36,192,49695,1,0,0:0:0:0:
475,192,49763,1,0,0:0:0:0:
402,192,49763,1,0,0:0:0:0:
329,192,49831,1,0,0:0:0:0:
36,192,49831,1,0,0:0:0:0:
182,192,49900,1,0,0:0:0:0:
109,192,49900,1,0,0:0:0:0:
475,192,49968,1,0,0:0:0:0:
402,192,49968,1,0,0:0:0:0:
256,192,49968,1,0,0:0:0:0:
329,192,49968,1,0,0:0:0:0:
36,192,50036,1,0,0:0:0:0:
109,192,50036,1,0,0:0:0:0:
182,192,50104,1,0,0:0:0:0:
475,192,50104,1,0,0:0:0:0:
402,192,50104,1,0,0:0:0:0:
329,192,50172,1,0,0:0:0:0:
475,192,50240,1,0,0:0:0:0:
402,192,50240,1,0,0:0:0:0:
256,192,50240,1,0,0:0:0:0:
36,192,50240,1,0,0:0:0:0:
182,192,50309,1,0,0:0:0:0:
109,192,50309,1,0,0:0:0:0:
256,192,50377,1,0,0:0:0:0:
329,192,50377,1,0,0:0:0:0:
109,192,50445,1,0,0:0:0:0:
36,192,50445,1,0,0:0:0:0:
475,192,50513,1,0,0:0:0:0:
402,192,50513,1,0,0:0:0:0:
329,192,50513,1,0,0:0:0:0:
182,192,50513,1,0,0:0:0:0:
109,192,50581,1,0,0:0:0:0:
36,192,50581,1,0,0:0:0:0:
256,192,50650,1,0,0:0:0:0:
329,192,50650,1,0,0:0:0:0:
475,192,50718,1,0,0:0:0:0:
402,192,50718,1,0,0:0:0:0:
182,192,50786,1,0,0:0:0:0:
256,192,50786,1,0,0:0:0:0:
109,192,50786,1,0,0:0:0:0:
36,192,50786,1,0,0:0:0:0:
329,192,50854,1,0,0:0:0:0:
402,192,50854,1,0,0:0:0:0:
182,192,50922,1,0,0:0:0:0:
109,192,50922,1,0,0:0:0:0:
402,192,50990,1,0,0:0:0:0:
475,192,50990,1,0,0:0:0:0:
256,192,51059,1,0,0:0:0:0:
109,192,51059,1,0,0:0:0:0:
36,192,51059,1,0,0:0:0:0:
329,192,51059,1,0,0:0:0:0:
402,192,51127,1,0,0:0:0:0:
475,192,51127,1,0,0:0:0:0:
182,192,51195,1,0,0:0:0:0:
109,192,51195,1,0,0:0:0:0:
329,192,51263,1,0,0:0:0:0:
402,192,51263,1,0,0:0:0:0:
475,192,51331,1,0,0:0:0:0:
182,192,51331,1,0,0:0:0:0:
109,192,51331,1,0,0:0:0:0:
36,192,51331,1,0,0:0:0:0:
402,192,51400,1,0,0:0:0:0:
329,192,51400,1,0,0:0:0:0:
256,192,51400,1,0,0:0:0:0:
182,192,51468,1,0,0:0:0:0:
109,192,51468,1,0,0:0:0:0:
36,192,51468,1,0,0:0:0:0:
402,192,51536,1,0,0:0:0:0:
329,192,51536,1,0,0:0:0:0:
256,192,51536,1,0,0:0:0:0:
182,192,51604,1,0,0:0:0:0:
109,192,51604,1,0,0:0:0:0:
36,192,51604,1,0,0:0:0:0:
475,192,51672,1,0,0:0:0:0:
402,192,51672,1,0,0:0:0:0:
329,192,51672,1,0,0:0:0:0:
182,192,51740,1,0,0:0:0:0:
109,192,51740,1,0,0:0:0:0:
36,192,51740,1,0,0:0:0:0:
475,192,51809,1,0,0:0:0:0:
402,192,51809,1,0,0:0:0:0:
329,192,51809,1,0,0:0:0:0:
109,192,51877,1,0,0:0:0:0:
36,192,51877,1,0,0:0:0:0:
182,192,51911,1,0,0:0:0:0:
256,192,51945,1,0,0:0:0:0:
475,192,51945,1,0,0:0:0:0:
402,192,51979,1,0,0:0:0:0:
329,192,52013,1,0,0:0:0:0:
36,192,52013,1,0,0:0:0:0:
109,192,52047,1,0,0:0:0:0:
182,192,52081,1,0,0:0:0:0:
475,192,52081,1,0,0:0:0:0:
402,192,52115,1,0,0:0:0:0:
329,192,52150,1,0,0:0:0:0:
36,192,52150,1,0,0:0:0:0:
109,192,52184,1,0,0:0:0:0:
182,192,52218,1,0,0:0:0:0:
256,192,52252,1,0,0:0:0:0:
329,192,52286,1,0,0:0:0:0:
402,192,52320,1,0,0:0:0:0:
475,192,52354,1,0,0:0:0:0:
109,192,52354,1,0,0:0:0:0:
182,192,52388,1,0,0:0:0:0:
256,192,52422,1,0,0:0:0:0:
329,192,52422,1,0,0:0:0:0:
475,192,53104,1,0,0:0:0:0:
36,192,53104,1,0,0:0:0:0:
36,192,53240,1,0,0:0:0:0:
475,192,53240,1,0,0:0:0:0:
475,192,53513,1,0,0:0:0:0:
402,192,53513,1,0,0:0:0:0:
256,192,53513,1,0,0:0:0:0:
36,192,53513,1,0,0:0:0:0:
109,192,53513,1,0,0:0:0:0:
329,192,53581,1,0,0:0:0:0:
182,192,53581,1,0,0:0:0:0:
402,192,53650,1,0,0:0:0:0:
36,192,53650,1,0,0:0:0:0:
256,192,53718,1,0,0:0:0:0:
109,192,53718,1,0,0:0:0:0:
475,192,53786,1,0,0:0:0:0:
329,192,53786,1,0,0:0:0:0:
182,192,53786,1,0,0:0:0:0:
109,192,53854,1,0,0:0:0:0:
36,192,53854,1,0,0:0:0:0:
256,192,53922,1,0,0:0:0:0:
475,192,53922,1,0,0:0:0:0:
402,192,53922,1,0,0:0:0:0:
329,192,53990,1,0,0:0:0:0:
182,192,53990,1,0,0:0:0:0:
36,192,53990,1,0,0:0:0:0:
402,192,54059,1,0,0:0:0:0:
109,192,54059,1,0,0:0:0:0:
256,192,54059,1,0,0:0:0:0:
182,192,54127,1,0,0:0:0:0:
329,192,54127,1,0,0:0:0:0:
475,192,54195,1,0,0:0:0:0:
36,192,54195,1,0,0:0:0:0:
402,192,54195,1,0,0:0:0:0:
256,192,54263,1,0,0:0:0:0:
109,192,54263,1,0,0:0:0:0:
329,192,54331,1,0,0:0:0:0:
182,192,54331,1,0,0:0:0:0:
109,192,54400,1,0,0:0:0:0:
36,192,54400,1,0,0:0:0:0:
475,192,54468,1,0,0:0:0:0:
402,192,54468,1,0,0:0:0:0:
256,192,54468,1,0,0:0:0:0:
329,192,54536,1,0,0:0:0:0:
182,192,54536,1,0,0:0:0:0:
402,192,54604,1,0,0:0:0:0:
109,192,54604,1,0,0:0:0:0:
36,192,54604,1,0,0:0:0:0:
329,192,54672,1,0,0:0:0:0:
256,192,54672,1,0,0:0:0:0:
182,192,54672,1,0,0:0:0:0:
475,192,54740,1,0,0:0:0:0:
402,192,54740,1,0,0:0:0:0:
36,192,54740,1,0,0:0:0:0:
182,192,54809,1,0,0:0:0:0:
109,192,54809,1,0,0:0:0:0:
329,192,54877,1,0,0:0:0:0:
475,192,54877,1,0,0:0:0:0:
256,192,54877,1,0,0:0:0:0:
109,192,54945,1,0,0:0:0:0:
36,192,54945,1,0,0:0:0:0:
402,192,54945,1,0,0:0:0:0:
256,192,55013,1,0,0:0:0:0:
182,192,55013,1,0,0:0:0:0:
475,192,55013,1,0,0:0:0:0:
36,192,55081,1,0,0:0:0:0:
329,192,55081,1,0,0:0:0:0:
182,192,55150,1,0,0:0:0:0:
109,192,55150,1,0,0:0:0:0:
475,192,55218,1,0,0:0:0:0:
402,192,55218,1,0,0:0:0:0:
182,192,55286,1,0,0:0:0:0:
36,192,55286,1,0,0:0:0:0:
329,192,55286,1,0,0:0:0:0:
475,192,55354,1,0,0:0:0:0:
402,192,55354,1,0,0:0:0:0:
256,192,55422,1,0,0:0:0:0:
109,192,55422,1,0,0:0:0:0:
36,192,55422,1,0,0:0:0:0:
329,192,55490,1,0,0:0:0:0:
182,192,55490,1,0,0:0:0:0:
402,192,55559,1,0,0:0:0:0:
256,192,55559,1,0,0:0:0:0:
475,192,55627,1,0,0:0:0:0:
329,192,55627,1,0,0:0:0:0:
182,192,55695,1,0,0:0:0:0:
109,192,55695,1,0,0:0:0:0:
36,192,55695,1,0,0:0:0:0:
256,192,55695,1,0,0:0:0:0:
475,192,55763,1,0,0:0:0:0:
402,192,55763,1,0,0:0:0:0:
182,192,55831,1,0,0:0:0:0:
36,192,55831,1,0,0:0:0:0:
329,192,55900,1,0,0:0:0:0:
256,192,55900,1,0,0:0:0:0:
475,192,55968,1,0,0:0:0:0:
402,192,55968,1,0,0:0:0:0:
182,192,55968,1,0,0:0:0:0:
109,192,56036,1,0,0:0:0:0:
36,192,56036,1,0,0:0:0:0:
475,192,56104,1,0,0:0:0:0:
402,192,56104,1,0,0:0:0:0:
182,192,56104,1,0,0:0:0:0:
329,192,56172,1,0,0:0:0:0:
256,192,56172,1,0,0:0:0:0:
109,192,56172,1,0,0:0:0:0:
475,192,56240,1,0,0:0:0:0:
402,192,56240,1,0,0:0:0:0:
36,192,56240,1,0,0:0:0:0:
256,192,56309,1,0,0:0:0:0:
182,192,56309,1,0,0:0:0:0:
475,192,56377,1,0,0:0:0:0:
109,192,56377,1,0,0:0:0:0:
36,192,56377,1,0,0:0:0:0:
402,192,56445,1,0,0:0:0:0:
182,192,56445,1,0,0:0:0:0:
329,192,56513,1,0,0:0:0:0:
256,192,56513,1,0,0:0:0:0:
475,192,56581,1,0,0:0:0:0:
182,192,56581,1,0,0:0:0:0:
109,192,56650,1,0,0:0:0:0:
36,192,56650,1,0,0:0:0:0:
402,192,56650,1,0,0:0:0:0:
329,192,56718,1,0,0:0:0:0:
256,192,56718,1,0,0:0:0:0:
475,192,56786,1,0,0:0:0:0:
109,192,56786,1,0,0:0:0:0:
36,192,56786,1,0,0:0:0:0:
329,192,56854,1,0,0:0:0:0:
256,192,56854,1,0,0:0:0:0:
182,192,56854,1,0,0:0:0:0:
475,192,56922,1,0,0:0:0:0:
402,192,56922,1,0,0:0:0:0:
36,192,56922,1,0,0:0:0:0:
182,192,56990,1,0,0:0:0:0:
109,192,56990,1,0,0:0:0:0:
402,192,57059,1,0,0:0:0:0:
329,192,57059,1,0,0:0:0:0:
256,192,57059,1,0,0:0:0:0:
109,192,57127,1,0,0:0:0:0:
36,192,57127,1,0,0:0:0:0:
182,192,57127,1,0,0:0:0:0:
475,192,57195,1,0,0:0:0:0:
402,192,57195,1,0,0:0:0:0:
329,192,57195,1,0,0:0:0:0:
109,192,57263,1,0,0:0:0:0:
36,192,57263,1,0,0:0:0:0:
475,192,57331,1,0,0:0:0:0:
402,192,57331,1,0,0:0:0:0:
256,192,57331,1,0,0:0:0:0:
329,192,57331,1,0,0:0:0:0:
182,192,57331,1,0,0:0:0:0:
36,192,57400,1,0,0:0:0:0:
182,192,57468,1,0,0:0:0:0:
475,192,57513,1,0,0:0:0:0:
402,192,57513,1,0,0:0:0:0:
329,192,57513,1,0,0:0:0:0:
36,192,57536,1,0,0:0:0:0:
182,192,57604,1,0,0:0:0:0:
36,192,57672,1,0,0:0:0:0:
475,192,57695,1,0,0:0:0:0:
402,192,57695,1,0,0:0:0:0:
329,192,57695,1,0,0:0:0:0:
182,192,57740,1,0,0:0:0:0:
36,192,57809,1,0,0:0:0:0:
475,192,57877,1,0,0:0:0:0:
402,192,57877,1,0,0:0:0:0:
256,192,57877,1,0,0:0:0:0:
182,192,57877,1,0,0:0:0:0:
109,192,57877,1,0,0:0:0:0:
329,192,57945,1,0,0:0:0:0:
36,192,57945,1,0,0:0:0:0:
402,192,58013,1,0,0:0:0:0:
109,192,58013,1,0,0:0:0:0:
182,192,58081,1,0,0:0:0:0:
256,192,58081,1,0,0:0:0:0:
475,192,58150,1,0,0:0:0:0:
329,192,58150,1,0,0:0:0:0:
36,192,58150,1,0,0:0:0:0:
182,192,58218,1,0,0:0:0:0:
109,192,58218,1,0,0:0:0:0:
402,192,58286,1,0,0:0:0:0:
475,192,58286,1,0,0:0:0:0:
256,192,58286,1,0,0:0:0:0:
109,192,58354,1,0,0:0:0:0:
36,192,58354,1,0,0:0:0:0:
329,192,58354,1,0,0:0:0:0:
475,192,58422,1,0,0:0:0:0:
402,192,58422,1,0,0:0:0:0:
182,192,58422,1,0,0:0:0:0:
256,192,58490,1,0,0:0:0:0:
36,192,58490,1,0,0:0:0:0:
402,192,58559,1,0,0:0:0:0:
329,192,58559,1,0,0:0:0:0:
109,192,58559,1,0,0:0:0:0:
182,192,58627,1,0,0:0:0:0:
475,192,58627,1,0,0:0:0:0:
36,192,58695,1,0,0:0:0:0:
329,192,58695,1,0,0:0:0:0:
109,192,58763,1,0,0:0:0:0:
256,192,58763,1,0,0:0:0:0:
475,192,58831,1,0,0:0:0:0:
402,192,58831,1,0,0:0:0:0:
182,192,58831,1,0,0:0:0:0:
329,192,58900,1,0,0:0:0:0:
36,192,58900,1,0,0:0:0:0:
256,192,58968,1,0,0:0:0:0:
109,192,58968,1,0,0:0:0:0:
475,192,58968,1,0,0:0:0:0:
402,192,59036,1,0,0:0:0:0:
329,192,59036,1,0,0:0:0:0:
182,192,59036,1,0,0:0:0:0:
109,192,59104,1,0,0:0:0:0:
36,192,59104,1,0,0:0:0:0:
475,192,59104,1,0,0:0:0:0:
256,192,59172,1,0,0:0:0:0:
182,192,59172,1,0,0:0:0:0:
36,192,59240,1,0,0:0:0:0:
402,192,59240,1,0,0:0:0:0:
329,192,59240,1,0,0:0:0:0:
182,192,59309,1,0,0:0:0:0:
109,192,59309,1,0,0:0:0:0:
256,192,59309,1,0,0:0:0:0:
475,192,59377,1,0,0:0:0:0:
402,192,59377,1,0,0:0:0:0:
329,192,59377,1,0,0:0:0:0:
36,192,59445,1,0,0:0:0:0:
109,192,59445,1,0,0:0:0:0:
402,192,59513,1,0,0:0:0:0:
256,192,59513,1,0,0:0:0:0:
329,192,59581,1,0,0:0:0:0:
182,192,59581,1,0,0:0:0:0:
109,192,59650,1,0,0:0:0:0:
475,192,59650,1,0,0:0:0:0:
36,192,59650,1,0,0:0:0:0:
402,192,59718,1,0,0:0:0:0:
256,192,59718,1,0,0:0:0:0:
329,192,59786,1,0,0:0:0:0:
182,192,59786,1,0,0:0:0:0:
36,192,59786,128,0,60059:0:0:0:0:
256,192,59854,1,0,0:0:0:0:
402,192,59854,1,0,0:0:0:0:
475,192,59922,1,0,0:0:0:0:
329,192,59922,1,0,0:0:0:0:
182,192,59990,1,0,0:0:0:0:
402,192,60059,1,0,0:0:0:0:
475,192,60059,1,0,0:0:0:0:
256,192,60059,1,0,0:0:0:0:
109,192,60059,1,0,0:0:0:0:
182,192,60127,1,0,0:0:0:0:
109,192,60195,1,0,0:0:0:0:
475,192,60195,1,0,0:0:0:0:
329,192,60195,1,0,0:0:0:0:
182,192,60263,1,0,0:0:0:0:
109,192,60331,1,0,0:0:0:0:
36,192,60331,1,0,0:0:0:0:
475,192,60331,1,0,0:0:0:0:
329,192,60331,1,0,0:0:0:0:
182,192,60400,1,0,0:0:0:0:
109,192,60468,1,0,0:0:0:0:
182,192,60536,1,0,0:0:0:0:
109,192,60604,1,0,0:0:0:0:
475,192,60604,1,0,0:0:0:0:
402,192,60604,1,0,0:0:0:0:
256,192,60604,1,0,0:0:0:0:
182,192,60672,1,0,0:0:0:0:
109,192,60740,1,0,0:0:0:0:
402,192,60740,1,0,0:0:0:0:
329,192,60740,1,0,0:0:0:0:
182,192,60809,1,0,0:0:0:0:
109,192,60877,1,0,0:0:0:0:
475,192,60877,1,0,0:0:0:0:
402,192,60877,1,0,0:0:0:0:
36,192,60877,1,0,0:0:0:0:
182,192,60945,1,0,0:0:0:0:
109,192,61013,1,0,0:0:0:0:
475,192,61013,1,0,0:0:0:0:
329,192,61013,1,0,0:0:0:0:
182,192,61081,1,0,0:0:0:0:
109,192,61150,1,0,0:0:0:0:
402,192,61150,1,0,0:0:0:0:
329,192,61150,1,0,0:0:0:0:
182,192,61218,1,0,0:0:0:0:
109,192,61286,1,0,0:0:0:0:
329,192,61286,1,0,0:0:0:0:
475,192,61286,1,0,0:0:0:0:
182,192,61354,1,0,0:0:0:0:
109,192,61422,1,0,0:0:0:0:
475,192,61422,1,0,0:0:0:0:
329,192,61422,1,0,0:0:0:0:
36,192,61422,1,0,0:0:0:0:
182,192,61490,1,0,0:0:0:0:
256,192,61490,1,0,0:0:0:0:
109,192,61559,1,0,0:0:0:0:
402,192,61559,1,0,0:0:0:0:
329,192,61559,1,0,0:0:0:0:
36,192,61559,1,0,0:0:0:0:
475,192,61695,1,0,0:0:0:0:
402,192,61695,1,0,0:0:0:0:
256,192,61695,1,0,0:0:0:0:
402,192,61831,1,0,0:0:0:0:
329,192,61831,1,0,0:0:0:0:
182,192,61831,1,0,0:0:0:0:
329,192,61968,1,0,0:0:0:0:
256,192,61968,1,0,0:0:0:0:
109,192,61968,128,0,62240:0:0:0:0:
329,192,62104,1,0,0:0:0:0:
402,192,62104,1,0,0:0:0:0:
475,192,62240,1,0,0:0:0:0:
402,192,62240,1,0,0:0:0:0:
182,192,62240,1,0,0:0:0:0:
36,192,62240,1,0,0:0:0:0:
256,192,62240,128,0,62513:0:0:0:0:
475,192,62513,1,0,0:0:0:0:
402,192,62513,1,0,0:0:0:0:
36,192,62513,1,0,0:0:0:0:
402,192,62650,1,0,0:0:0:0:
329,192,62650,1,0,0:0:0:0:
182,192,62650,1,0,0:0:0:0:
109,192,62650,1,0,0:0:0:0:
329,192,62786,1,0,0:0:0:0:
256,192,62786,1,0,0:0:0:0:
109,192,62786,1,0,0:0:0:0:
182,192,62786,128,0,63059:0:0:0:0:
475,192,63059,1,0,0:0:0:0:
402,192,63059,1,0,0:0:0:0:
256,192,63059,1,0,0:0:0:0:
36,192,63059,1,0,0:0:0:0:
109,192,63059,1,0,0:0:0:0:
329,192,63127,1,0,0:0:0:0:
182,192,63127,1,0,0:0:0:0:
256,192,63195,1,0,0:0:0:0:
36,192,63195,1,0,0:0:0:0:
109,192,63263,1,0,0:0:0:0:
329,192,63263,1,0,0:0:0:0:
475,192,63331,1,0,0:0:0:0:
402,192,63331,1,0,0:0:0:0:
182,192,63331,1,0,0:0:0:0:
329,192,63400,1,0,0:0:0:0:
256,192,63400,1,0,0:0:0:0:
109,192,63400,1,0,0:0:0:0:
475,192,63468,1,0,0:0:0:0:
402,192,63468,1,0,0:0:0:0:
182,192,63468,1,0,0:0:0:0:
36,192,63536,1,0,0:0:0:0:
329,192,63536,1,0,0:0:0:0:
182,192,63604,1,0,0:0:0:0:
109,192,63604,1,0,0:0:0:0:
256,192,63604,1,0,0:0:0:0:
475,192,63672,1,0,0:0:0:0:
402,192,63672,1,0,0:0:0:0:
36,192,63672,1,0,0:0:0:0:
329,192,63740,1,0,0:0:0:0:
256,192,63740,1,0,0:0:0:0:
182,192,63740,1,0,0:0:0:0:
109,192,63809,1,0,0:0:0:0:
36,192,63809,1,0,0:0:0:0:
402,192,63877,1,0,0:0:0:0:
475,192,63877,1,0,0:0:0:0:
329,192,63945,1,0,0:0:0:0:
182,192,63945,1,0,0:0:0:0:
109,192,64013,1,0,0:0:0:0:
256,192,64013,1,0,0:0:0:0:
475,192,64013,1,0,0:0:0:0:
329,192,64081,1,0,0:0:0:0:
402,192,64150,1,0,0:0:0:0:
182,192,64150,1,0,0:0:0:0:
36,192,64150,1,0,0:0:0:0:
256,192,64218,1,0,0:0:0:0:
109,192,64218,1,0,0:0:0:0:
329,192,64286,1,0,0:0:0:0:
182,192,64286,1,0,0:0:0:0:
402,192,64354,1,0,0:0:0:0:
256,192,64354,1,0,0:0:0:0:
329,192,64422,1,0,0:0:0:0:
475,192,64422,1,0,0:0:0:0:
109,192,64422,1,0,0:0:0:0:
36,192,64422,1,0,0:0:0:0:
182,192,64490,1,0,0:0:0:0:
256,192,64490,1,0,0:0:0:0:
475,192,64559,1,0,0:0:0:0:
36,192,64559,1,0,0:0:0:0:
329,192,64627,1,0,0:0:0:0:
402,192,64627,1,0,0:0:0:0:
182,192,64695,1,0,0:0:0:0:
109,192,64695,1,0,0:0:0:0:
256,192,64695,1,0,0:0:0:0:
402,192,64763,1,0,0:0:0:0:
475,192,64763,1,0,0:0:0:0:
329,192,64831,1,0,0:0:0:0:
109,192,64831,1,0,0:0:0:0:
36,192,64831,1,0,0:0:0:0:
182,192,64900,1,0,0:0:0:0:
402,192,64900,1,0,0:0:0:0:
475,192,64900,1,0,0:0:0:0:
36,192,64968,1,0,0:0:0:0:
256,192,64968,1,0,0:0:0:0:
109,192,64968,1,0,0:0:0:0:
475,192,65036,1,0,0:0:0:0:
402,192,65036,1,0,0:0:0:0:
329,192,65104,1,0,0:0:0:0:
182,192,65104,1,0,0:0:0:0:
36,192,65104,1,0,0:0:0:0:
256,192,65172,1,0,0:0:0:0:
109,192,65172,1,0,0:0:0:0:
475,192,65240,1,0,0:0:0:0:
329,192,65240,1,0,0:0:0:0:
182,192,65309,1,0,0:0:0:0:
36,192,65309,1,0,0:0:0:0:
402,192,65377,1,0,0:0:0:0:
256,192,65377,1,0,0:0:0:0:
475,192,65377,1,0,0:0:0:0:
109,192,65445,1,0,0:0:0:0:
36,192,65445,1,0,0:0:0:0:
329,192,65513,1,0,0:0:0:0:
182,192,65513,1,0,0:0:0:0:
256,192,65513,1,0,0:0:0:0:
402,192,65581,1,0,0:0:0:0:
475,192,65581,1,0,0:0:0:0:
36,192,65581,1,0,0:0:0:0:
109,192,65650,1,0,0:0:0:0:
329,192,65650,1,0,0:0:0:0:
182,192,65650,1,0,0:0:0:0:
256,192,65718,1,0,0:0:0:0:
402,192,65718,1,0,0:0:0:0:
109,192,65786,1,0,0:0:0:0:
36,192,65786,1,0,0:0:0:0:
475,192,65786,1,0,0:0:0:0:
182,192,65854,1,0,0:0:0:0:
402,192,65854,1,0,0:0:0:0:
329,192,65854,1,0,0:0:0:0:
256,192,65922,1,0,0:0:0:0:
475,192,65922,1,0,0:0:0:0:
36,192,65922,1,0,0:0:0:0:
182,192,65990,1,0,0:0:0:0:
109,192,65990,1,0,0:0:0:0:
402,192,66059,1,0,0:0:0:0:
329,192,66059,1,0,0:0:0:0:
256,192,66059,1,0,0:0:0:0:
36,192,66059,1,0,0:0:0:0:
475,192,66059,1,0,0:0:0:0:
402,192,66240,1,0,0:0:0:0:
329,192,66240,1,0,0:0:0:0:
256,192,66240,1,0,0:0:0:0:
109,192,66240,1,0,0:0:0:0:
402,192,66422,1,0,0:0:0:0:
329,192,66422,1,0,0:0:0:0:
256,192,66422,1,0,0:0:0:0:
109,192,66422,1,0,0:0:0:0:
475,192,66604,1,0,0:0:0:0:
402,192,66604,1,0,0:0:0:0:
36,192,66604,1,0,0:0:0:0:
109,192,66604,1,0,0:0:0:0:
256,192,66604,1,0,0:0:0:0:
329,192,66672,1,0,0:0:0:0:
182,192,66672,1,0,0:0:0:0:
475,192,66740,1,0,0:0:0:0:
402,192,66740,1,0,0:0:0:0:
36,192,66740,1,0,0:0:0:0:
182,192,66809,1,0,0:0:0:0:
329,192,66809,1,0,0:0:0:0:
475,192,66877,1,0,0:0:0:0:
402,192,66877,1,0,0:0:0:0:
109,192,66877,1,0,0:0:0:0:
182,192,66945,1,0,0:0:0:0:
329,192,66945,1,0,0:0:0:0:
36,192,67013,1,0,0:0:0:0:
475,192,67013,1,0,0:0:0:0:
402,192,67013,1,0,0:0:0:0:
329,192,67081,1,0,0:0:0:0:
109,192,67081,1,0,0:0:0:0:
256,192,67150,1,0,0:0:0:0:
182,192,67150,1,0,0:0:0:0:
475,192,67150,1,0,0:0:0:0:
109,192,67218,1,0,0:0:0:0:
402,192,67218,1,0,0:0:0:0:
256,192,67286,1,0,0:0:0:0:
182,192,67286,1,0,0:0:0:0:
109,192,67354,1,0,0:0:0:0:
402,192,67354,1,0,0:0:0:0:
182,192,67422,1,0,0:0:0:0:
329,192,67422,1,0,0:0:0:0:
109,192,67490,1,0,0:0:0:0:
402,192,67490,1,0,0:0:0:0:
256,192,67559,1,0,0:0:0:0:
182,192,67559,1,0,0:0:0:0:
109,192,67627,1,0,0:0:0:0:
329,192,67627,1,0,0:0:0:0:
36,192,67695,1,0,0:0:0:0:
475,192,67695,1,0,0:0:0:0:
402,192,67695,1,0,0:0:0:0:
182,192,67763,1,0,0:0:0:0:
329,192,67763,1,0,0:0:0:0:
36,192,67831,1,0,0:0:0:0:
475,192,67831,1,0,0:0:0:0:
402,192,67831,1,0,0:0:0:0:
182,192,67900,1,0,0:0:0:0:
329,192,67900,1,0,0:0:0:0:
475,192,67968,1,0,0:0:0:0:
402,192,67968,1,0,0:0:0:0:
109,192,67968,1,0,0:0:0:0:
182,192,68036,1,0,0:0:0:0:
329,192,68036,1,0,0:0:0:0:
36,192,68104,1,0,0:0:0:0:
475,192,68104,1,0,0:0:0:0:
402,192,68104,1,0,0:0:0:0:
109,192,68172,1,0,0:0:0:0:
329,192,68172,1,0,0:0:0:0:
182,192,68240,1,0,0:0:0:0:
256,192,68240,1,0,0:0:0:0:
109,192,68309,1,0,0:0:0:0:
402,192,68309,1,0,0:0:0:0:
182,192,68377,1,0,0:0:0:0:
256,192,68377,1,0,0:0:0:0:
109,192,68445,1,0,0:0:0:0:
402,192,68445,1,0,0:0:0:0:
329,192,68513,1,0,0:0:0:0:
182,192,68513,1,0,0:0:0:0:
109,192,68581,1,0,0:0:0:0:
402,192,68581,1,0,0:0:0:0:
182,192,68650,1,0,0:0:0:0:
256,192,68650,1,0,0:0:0:0:
109,192,68718,1,0,0:0:0:0:
329,192,68718,1,0,0:0:0:0:
402,192,68786,1,0,0:0:0:0:
36,192,68786,1,0,0:0:0:0:
475,192,68786,1,0,0:0:0:0:
182,192,68854,1,0,0:0:0:0:
109,192,68854,1,0,0:0:0:0:
329,192,68922,1,0,0:0:0:0:
256,192,68922,1,0,0:0:0:0:
109,192,68990,1,0,0:0:0:0:
36,192,68990,1,0,0:0:0:0:
475,192,69059,1,0,0:0:0:0:
402,192,69059,1,0,0:0:0:0:
256,192,69059,1,0,0:0:0:0:
182,192,69059,1,0,0:0:0:0:
109,192,69127,1,0,0:0:0:0:
36,192,69127,1,0,0:0:0:0:
402,192,69195,1,0,0:0:0:0:
329,192,69195,1,0,0:0:0:0:
182,192,69263,1,0,0:0:0:0:
109,192,69263,1,0,0:0:0:0:
475,192,69331,1,0,0:0:0:0:
36,192,69331,1,0,0:0:0:0:
402,192,69331,1,0,0:0:0:0:
256,192,69331,1,0,0:0:0:0:
329,192,69400,1,0,0:0:0:0:
182,192,69400,1,0,0:0:0:0:
109,192,69468,1,0,0:0:0:0:
36,192,69468,1,0,0:0:0:0:
329,192,69536,1,0,0:0:0:0:
256,192,69536,1,0,0:0:0:0:
475,192,69604,1,0,0:0:0:0:
109,192,69604,1,0,0:0:0:0:
36,192,69604,1,0,0:0:0:0:
402,192,69604,1,0,0:0:0:0:
256,192,69672,1,0,0:0:0:0:
182,192,69672,1,0,0:0:0:0:
475,192,69740,1,0,0:0:0:0:
402,192,69740,1,0,0:0:0:0:
182,192,69809,1,0,0:0:0:0:
109,192,69809,1,0,0:0:0:0:
475,192,69877,1,0,0:0:0:0:
402,192,69877,1,0,0:0:0:0:
256,192,69877,1,0,0:0:0:0:
329,192,69877,1,0,0:0:0:0:
182,192,69945,1,0,0:0:0:0:
109,192,69945,1,0,0:0:0:0:
36,192,69945,1,0,0:0:0:0:
475,192,70013,1,0,0:0:0:0:
329,192,70013,1,0,0:0:0:0:
402,192,70013,1,0,0:0:0:0:
182,192,70081,1,0,0:0:0:0:
109,192,70081,1,0,0:0:0:0:
36,192,70081,1,0,0:0:0:0:
475,192,70150,1,0,0:0:0:0:
402,192,70150,1,0,0:0:0:0:
329,192,70150,1,0,0:0:0:0:
182,192,70218,1,0,0:0:0:0:
109,192,70218,1,0,0:0:0:0:
36,192,70218,1,0,0:0:0:0:
402,192,70286,1,0,0:0:0:0:
329,192,70286,1,0,0:0:0:0:
475,192,70286,1,0,0:0:0:0:
182,192,70354,1,0,0:0:0:0:
109,192,70354,1,0,0:0:0:0:
36,192,70354,1,0,0:0:0:0:
475,192,70422,1,0,0:0:0:0:
402,192,70422,1,0,0:0:0:0:
329,192,70422,1,0,0:0:0:0:
182,192,70490,1,0,0:0:0:0:
109,192,70490,1,0,0:0:0:0:
36,192,70490,1,0,0:0:0:0:
402,192,70559,1,0,0:0:0:0:
329,192,70559,1,0,0:0:0:0:
475,192,70559,1,0,0:0:0:0:
182,192,70627,1,0,0:0:0:0:
109,192,70627,1,0,0:0:0:0:
36,192,70627,1,0,0:0:0:0:
402,192,70695,1,0,0:0:0:0:
329,192,70695,1,0,0:0:0:0:
256,192,70695,1,0,0:0:0:0:
475,192,70968,1,0,0:0:0:0:
402,192,70968,1,0,0:0:0:0:
256,192,70968,1,0,0:0:0:0:
36,192,70968,1,0,0:0:0:0:
109,192,71002,1,0,0:0:0:0:
182,192,71036,1,0,0:0:0:0:
329,192,71070,1,0,0:0:0:0:
475,192,71104,1,0,0:0:0:0:
36,192,71104,1,0,0:0:0:0:
256,192,71138,1,0,0:0:0:0:
109,192,71172,1,0,0:0:0:0:
402,192,71206,1,0,0:0:0:0:
329,192,71240,1,0,0:0:0:0:
182,192,71240,1,0,0:0:0:0:
36,192,71275,1,0,0:0:0:0:
475,192,71309,1,0,0:0:0:0:
109,192,71343,1,0,0:0:0:0:
402,192,71377,1,0,0:0:0:0:
256,192,71377,1,0,0:0:0:0:
182,192,71411,1,0,0:0:0:0:
36,192,71445,1,0,0:0:0:0:
329,192,71479,1,0,0:0:0:0:
475,192,71513,1,0,0:0:0:0:
109,192,71513,1,0,0:0:0:0:
256,192,71547,1,0,0:0:0:0:
402,192,71581,1,0,0:0:0:0:
182,192,71615,1,0,0:0:0:0:
329,192,71650,1,0,0:0:0:0:
36,192,71650,1,0,0:0:0:0:
109,192,71684,1,0,0:0:0:0:
256,192,71718,1,0,0:0:0:0:
402,192,71752,1,0,0:0:0:0:
182,192,71786,1,0,0:0:0:0:
475,192,71820,1,0,0:0:0:0:
329,192,71854,1,0,0:0:0:0:
109,192,71888,1,0,0:0:0:0:
256,192,71922,1,0,0:0:0:0:
402,192,71922,1,0,0:0:0:0:
182,192,71956,1,0,0:0:0:0:
329,192,71990,1,0,0:0:0:0:
475,192,72025,1,0,0:0:0:0:
36,192,72059,1,0,0:0:0:0:
256,192,72059,1,0,0:0:0:0:
109,192,72093,1,0,0:0:0:0:
402,192,72127,1,0,0:0:0:0:
182,192,72161,1,0,0:0:0:0:
36,192,72195,1,0,0:0:0:0:
329,192,72195,1,0,0:0:0:0:
109,192,72229,1,0,0:0:0:0:
475,192,72263,1,0,0:0:0:0:
256,192,72297,1,0,0:0:0:0:
402,192,72331,1,0,0:0:0:0:
36,192,72365,1,0,0:0:0:0:
329,192,72400,1,0,0:0:0:0:
182,192,72434,1,0,0:0:0:0:
109,192,72468,1,0,0:0:0:0:
475,192,72468,1,0,0:0:0:0:
256,192,72502,1,0,0:0:0:0:
36,192,72536,1,0,0:0:0:0:
402,192,72570,1,0,0:0:0:0:
329,192,72604,1,0,0:0:0:0:
182,192,72604,1,0,0:0:0:0:
109,192,72638,1,0,0:0:0:0:
475,192,72672,1,0,0:0:0:0:
36,192,72706,1,0,0:0:0:0:
402,192,72740,1,0,0:0:0:0:
256,192,72740,1,0,0:0:0:0:
109,192,72775,1,0,0:0:0:0:
329,192,72809,1,0,0:0:0:0:
475,192,72843,1,0,0:0:0:0:
182,192,72877,1,0,0:0:0:0:
402,192,72911,1,0,0:0:0:0:
256,192,72945,1,0,0:0:0:0:
36,192,72979,1,0,0:0:0:0:
182,192,73013,1,0,0:0:0:0:
329,192,73013,1,0,0:0:0:0:
475,192,73047,1,0,0:0:0:0:
109,192,73081,1,0,0:0:0:0:
256,192,73115,1,0,0:0:0:0:
36,192,73150,1,0,0:0:0:0:
402,192,73150,1,0,0:0:0:0:
182,192,73184,1,0,0:0:0:0:
329,192,73218,1,0,0:0:0:0:
109,192,73252,1,0,0:0:0:0:
475,192,73286,1,0,0:0:0:0:
256,192,73286,1,0,0:0:0:0:
36,192,73320,1,0,0:0:0:0:
182,192,73354,1,0,0:0:0:0:
329,192,73388,1,0,0:0:0:0:
402,192,73422,1,0,0:0:0:0:
109,192,73456,1,0,0:0:0:0:
256,192,73490,1,0,0:0:0:0:
36,192,73525,1,0,0:0:0:0:
182,192,73559,1,0,0:0:0:0:
475,192,73559,1,0,0:0:0:0:
402,192,73593,1,0,0:0:0:0:
109,192,73627,1,0,0:0:0:0:
256,192,73661,1,0,0:0:0:0:
36,192,73695,1,0,0:0:0:0:
475,192,73695,1,0,0:0:0:0:
182,192,73729,1,0,0:0:0:0:
329,192,73763,1,0,0:0:0:0:
109,192,73797,1,0,0:0:0:0:
402,192,73831,1,0,0:0:0:0:
256,192,73831,1,0,0:0:0:0:
36,192,73865,1,0,0:0:0:0:
182,192,73900,1,0,0:0:0:0:
475,192,73934,1,0,0:0:0:0:
109,192,73968,1,0,0:0:0:0:
256,192,74002,1,0,0:0:0:0:
402,192,74036,1,0,0:0:0:0:
36,192,74070,1,0,0:0:0:0:
329,192,74104,1,0,0:0:0:0:
182,192,74138,1,0,0:0:0:0:
256,192,74172,1,0,0:0:0:0:
36,192,74206,1,0,0:0:0:0:
402,192,74240,1,0,0:0:0:0:
329,192,74240,1,0,0:0:0:0:
475,192,74240,1,0,0:0:0:0:
109,192,74240,1,0,0:0:0:0:
182,192,74275,1,0,0:0:0:0:
256,192,74309,1,0,0:0:0:0:
36,192,74343,1,0,0:0:0:0:
109,192,74377,1,0,0:0:0:0:
182,192,74411,1,0,0:0:0:0:
256,192,74445,1,0,0:0:0:0:
329,192,74479,1,0,0:0:0:0:
402,192,74513,1,0,0:0:0:0:
475,192,74513,1,0,0:0:0:0:
36,192,74513,1,0,0:0:0:0:
109,192,74513,1,0,0:0:0:0:
256,192,74547,1,0,0:0:0:0:
182,192,74581,1,0,0:0:0:0:
329,192,74581,1,0,0:0:0:0:
475,192,74615,1,0,0:0:0:0:
109,192,74650,1,0,0:0:0:0:
36,192,74650,1,0,0:0:0:0:
402,192,74650,1,0,0:0:0:0:
329,192,74684,1,0,0:0:0:0:
256,192,74718,1,0,0:0:0:0:
182,192,74752,1,0,0:0:0:0:
109,192,74786,1,0,0:0:0:0:
36,192,74786,1,0,0:0:0:0:
402,192,74786,1,0,0:0:0:0:
475,192,74786,1,0,0:0:0:0:
256,192,74820,1,0,0:0:0:0:
329,192,74854,1,0,0:0:0:0:
182,192,74854,1,0,0:0:0:0:
36,192,74888,1,0,0:0:0:0:
475,192,74922,1,0,0:0:0:0:
402,192,74922,1,0,0:0:0:0:
109,192,74922,1,0,0:0:0:0:
182,192,74956,1,0,0:0:0:0:
256,192,74990,1,0,0:0:0:0:
329,192,75025,1,0,0:0:0:0:
109,192,75059,1,0,0:0:0:0:
36,192,75059,1,0,0:0:0:0:
475,192,75059,1,0,0:0:0:0:
402,192,75059,1,0,0:0:0:0:
256,192,75093,1,0,0:0:0:0:
182,192,75127,1,0,0:0:0:0:
329,192,75127,1,0,0:0:0:0:
475,192,75161,1,0,0:0:0:0:
109,192,75195,1,0,0:0:0:0:
36,192,75195,1,0,0:0:0:0:
402,192,75195,1,0,0:0:0:0:
329,192,75229,1,0,0:0:0:0:
256,192,75263,1,0,0:0:0:0:
182,192,75297,1,0,0:0:0:0:
109,192,75331,1,0,0:0:0:0:
36,192,75331,1,0,0:0:0:0:
475,192,75331,1,0,0:0:0:0:
402,192,75331,1,0,0:0:0:0:
329,192,75365,1,0,0:0:0:0:
256,192,75400,1,0,0:0:0:0:
182,192,75434,1,0,0:0:0:0:
36,192,75468,1,0,0:0:0:0:
475,192,75468,1,0,0:0:0:0:
329,192,75502,1,0,0:0:0:0:
109,192,75536,1,0,0:0:0:0:
402,192,75570,1,0,0:0:0:0:
256,192,75604,1,0,0:0:0:0:
36,192,75604,1,0,0:0:0:0:
182,192,75638,1,0,0:0:0:0:
329,192,75672,1,0,0:0:0:0:
109,192,75706,1,0,0:0:0:0:
256,192,75740,1,0,0:0:0:0:
475,192,75740,1,0,0:0:0:0:
402,192,75775,1,0,0:0:0:0:
182,192,75809,1,0,0:0:0:0:
329,192,75843,1,0,0:0:0:0:
109,192,75877,1,0,0:0:0:0:
36,192,75877,1,0,0:0:0:0:
475,192,75911,1,0,0:0:0:0:
256,192,75945,1,0,0:0:0:0:
402,192,75979,1,0,0:0:0:0:
182,192,76013,1,0,0:0:0:0:
36,192,76013,1,0,0:0:0:0:
329,192,76047,1,0,0:0:0:0:
109,192,76081,1,0,0:0:0:0:
256,192,76115,1,0,0:0:0:0:
475,192,76150,1,0,0:0:0:0:
329,192,76184,1,0,0:0:0:0:
182,192,76218,1,0,0:0:0:0:
36,192,76252,1,0,0:0:0:0:
256,192,76286,1,0,0:0:0:0:
402,192,76286,1,0,0:0:0:0:
109,192,76320,1,0,0:0:0:0:
329,192,76354,1,0,0:0:0:0:
182,192,76388,1,0,0:0:0:0:
475,192,76422,1,0,0:0:0:0:
36,192,76422,1,0,0:0:0:0:
402,192,76456,1,0,0:0:0:0:
109,192,76490,1,0,0:0:0:0:
256,192,76525,1,0,0:0:0:0:
36,192,76559,1,0,0:0:0:0:
329,192,76559,1,0,0:0:0:0:
475,192,76593,1,0,0:0:0:0:
182,192,76627,1,0,0:0:0:0:
402,192,76661,1,0,0:0:0:0:
256,192,76695,1,0,0:0:0:0:
109,192,76729,1,0,0:0:0:0:
329,192,76763,1,0,0:0:0:0:
182,192,76797,1,0,0:0:0:0:
36,192,76831,1,0,0:0:0:0:
475,192,76865,1,0,0:0:0:0:
256,192,76900,1,0,0:0:0:0:
109,192,76934,1,0,0:0:0:0:
402,192,76968,1,0,0:0:0:0:
36,192,76968,1,0,0:0:0:0:
182,192,77002,1,0,0:0:0:0:
329,192,77036,1,0,0:0:0:0:
109,192,77070,1,0,0:0:0:0:
475,192,77104,1,0,0:0:0:0:
256,192,77104,1,0,0:0:0:0:
402,192,77138,1,0,0:0:0:0:
36,192,77172,1,0,0:0:0:0:
182,192,77206,1,0,0:0:0:0:
475,192,77240,1,0,0:0:0:0:
329,192,77275,1,0,0:0:0:0:
109,192,77309,1,0,0:0:0:0:
256,192,77343,1,0,0:0:0:0:
402,192,77377,1,0,0:0:0:0:
36,192,77377,1,0,0:0:0:0:
182,192,77411,1,0,0:0:0:0:
329,192,77445,1,0,0:0:0:0:
109,192,77479,1,0,0:0:0:0:
475,192,77513,1,0,0:0:0:0:
256,192,77513,1,0,0:0:0:0:
402,192,77513,1,0,0:0:0:0:
36,192,77547,1,0,0:0:0:0:
109,192,77581,1,0,0:0:0:0:
182,192,77615,1,0,0:0:0:0:
256,192,77650,1,0,0:0:0:0:
329,192,77684,1,0,0:0:0:0:
475,192,77718,1,0,0:0:0:0:
402,192,77752,1,0,0:0:0:0:
109,192,77786,1,0,0:0:0:0:
36,192,77786,1,0,0:0:0:0:
329,192,77786,1,0,0:0:0:0:
256,192,77820,1,0,0:0:0:0:
182,192,77854,1,0,0:0:0:0:
475,192,77854,1,0,0:0:0:0:
402,192,77888,1,0,0:0:0:0:
109,192,77922,1,0,0:0:0:0:
36,192,77922,1,0,0:0:0:0:
329,192,77922,1,0,0:0:0:0:
256,192,77956,1,0,0:0:0:0:
182,192,77990,1,0,0:0:0:0:
109,192,78025,1,0,0:0:0:0:
36,192,78059,1,0,0:0:0:0:
475,192,78059,1,0,0:0:0:0:
402,192,78059,1,0,0:0:0:0:
256,192,78093,1,0,0:0:0:0:
329,192,78127,1,0,0:0:0:0:
182,192,78127,1,0,0:0:0:0:
109,192,78161,1,0,0:0:0:0:
475,192,78195,1,0,0:0:0:0:
402,192,78195,1,0,0:0:0:0:
36,192,78195,1,0,0:0:0:0:
256,192,78229,1,0,0:0:0:0:
329,192,78263,1,0,0:0:0:0:
402,192,78297,1,0,0:0:0:0:
475,192,78331,1,0,0:0:0:0:
109,192,78331,1,0,0:0:0:0:
36,192,78331,1,0,0:0:0:0:
182,192,78365,1,0,0:0:0:0:
256,192,78400,1,0,0:0:0:0:
329,192,78434,1,0,0:0:0:0:
109,192,78468,1,0,0:0:0:0:
36,192,78468,1,0,0:0:0:0:
402,192,78468,1,0,0:0:0:0:
182,192,78502,1,0,0:0:0:0:
256,192,78536,1,0,0:0:0:0:
329,192,78570,1,0,0:0:0:0:
475,192,78604,1,0,0:0:0:0:
402,192,78604,1,0,0:0:0:0:
36,192,78604,1,0,0:0:0:0:
109,192,78638,1,0,0:0:0:0:
182,192,78672,1,0,0:0:0:0:
256,192,78706,1,0,0:0:0:0:
402,192,78740,1,0,0:0:0:0:
475,192,78740,1,0,0:0:0:0:
36,192,78775,1,0,0:0:0:0:
329,192,78775,1,0,0:0:0:0:
109,192,78809,1,0,0:0:0:0:
182,192,78843,1,0,0:0:0:0:
475,192,78877,1,0,0:0:0:0:
402,192,78877,1,0,0:0:0:0:
329,192,78911,1,0,0:0:0:0:
256,192,78945,1,0,0:0:0:0:
36,192,78945,1,0,0:0:0:0:
109,192,78979,1,0,0:0:0:0:
475,192,79013,1,0,0:0:0:0:
402,192,79013,1,0,0:0:0:0:
329,192,79047,1,0,0:0:0:0:
256,192,79081,1,0,0:0:0:0:
182,192,79115,1,0,0:0:0:0:
36,192,79115,1,0,0:0:0:0:
475,192,79150,1,0,0:0:0:0:
402,192,79150,1,0,0:0:0:0:
329,192,79184,1,0,0:0:0:0:
256,192,79218,1,0,0:0:0:0:
182,192,79252,1,0,0:0:0:0:
109,192,79286,1,0,0:0:0:0:
329,192,79320,1,0,0:0:0:0:
256,192,79354,1,0,0:0:0:0:
402,192,79388,1,0,0:0:0:0:
475,192,79422,1,0,0:0:0:0:
36,192,79422,128,0,79695:0:0:0:0:
182,192,79456,1,0,0:0:0:0:
329,192,79490,1,0,0:0:0:0:
109,192,79525,1,0,0:0:0:0:
402,192,79559,1,0,0:0:0:0:
256,192,79593,1,0,0:0:0:0:
475,192,79627,1,0,0:0:0:0:
329,192,79661,1,0,0:0:0:0:
109,192,79695,1,0,0:0:0:0:
182,192,79695,1,0,0:0:0:0:
402,192,79729,1,0,0:0:0:0:
256,192,79763,1,0,0:0:0:0:
36,192,79797,1,0,0:0:0:0:
329,192,79831,1,0,0:0:0:0:
475,192,79831,1,0,0:0:0:0:
109,192,79865,1,0,0:0:0:0:
256,192,79900,1,0,0:0:0:0:
402,192,79934,1,0,0:0:0:0:
182,192,79968,1,0,0:0:0:0:
36,192,79968,1,0,0:0:0:0:
475,192,80002,1,0,0:0:0:0:
329,192,80036,1,0,0:0:0:0:
109,192,80070,1,0,0:0:0:0:
402,192,80104,1,0,0:0:0:0:
256,192,80104,1,0,0:0:0:0:
36,192,80138,1,0,0:0:0:0:
329,192,80172,1,0,0:0:0:0:
182,192,80206,1,0,0:0:0:0:
109,192,80240,1,0,0:0:0:0:
475,192,80240,1,0,0:0:0:0:
256,192,80275,1,0,0:0:0:0:
402,192,80309,1,0,0:0:0:0:
36,192,80343,1,0,0:0:0:0:
182,192,80377,1,0,0:0:0:0:
329,192,80377,1,0,0:0:0:0:
475,192,80411,1,0,0:0:0:0:
109,192,80445,1,0,0:0:0:0:
256,192,80479,1,0,0:0:0:0:
36,192,80513,1,0,0:0:0:0:
182,192,80547,1,0,0:0:0:0:
402,192,80581,1,0,0:0:0:0:
256,192,80615,1,0,0:0:0:0:
109,192,80650,1,0,0:0:0:0:
475,192,80650,1,0,0:0:0:0:
329,192,80684,1,0,0:0:0:0:
36,192,80718,1,0,0:0:0:0:
256,192,80752,1,0,0:0:0:0:
402,192,80786,1,0,0:0:0:0:
109,192,80786,1,0,0:0:0:0:
182,192,80820,1,0,0:0:0:0:
475,192,80854,1,0,0:0:0:0:
36,192,80888,1,0,0:0:0:0:
256,192,80922,1,0,0:0:0:0:
402,192,80922,1,0,0:0:0:0:
109,192,80956,1,0,0:0:0:0:
182,192,80990,1,0,0:0:0:0:
329,192,81025,1,0,0:0:0:0:
36,192,81059,1,0,0:0:0:0:
475,192,81059,1,0,0:0:0:0:
256,192,81093,1,0,0:0:0:0:
402,192,81127,1,0,0:0:0:0:
109,192,81161,1,0,0:0:0:0:
329,192,81195,1,0,0:0:0:0:
182,192,81195,1,0,0:0:0:0:
36,192,81229,1,0,0:0:0:0:
475,192,81263,1,0,0:0:0:0:
256,192,81297,1,0,0:0:0:0:
109,192,81331,1,0,0:0:0:0:
402,192,81331,1,0,0:0:0:0:
182,192,81365,1,0,0:0:0:0:
329,192,81400,1,0,0:0:0:0:
36,192,81434,1,0,0:0:0:0:
475,192,81468,1,0,0:0:0:0:
256,192,81468,1,0,0:0:0:0:
109,192,81502,1,0,0:0:0:0:
402,192,81536,1,0,0:0:0:0:
182,192,81570,1,0,0:0:0:0:
329,192,81604,1,0,0:0:0:0:
36,192,81638,1,0,0:0:0:0:
475,192,81672,1,0,0:0:0:0:
256,192,81706,1,0,0:0:0:0:
402,192,81740,1,0,0:0:0:0:
109,192,81740,1,0,0:0:0:0:
182,192,81775,1,0,0:0:0:0:
329,192,81809,1,0,0:0:0:0:
36,192,81843,1,0,0:0:0:0:
256,192,81877,1,0,0:0:0:0:
475,192,81877,1,0,0:0:0:0:
402,192,81911,1,0,0:0:0:0:
109,192,81945,1,0,0:0:0:0:
329,192,81979,1,0,0:0:0:0:
182,192,82013,1,0,0:0:0:0:
36,192,82013,1,0,0:0:0:0:
475,192,82047,1,0,0:0:0:0:
256,192,82081,1,0,0:0:0:0:
109,192,82115,1,0,0:0:0:0:
402,192,82150,1,0,0:0:0:0:
182,192,82184,1,0,0:0:0:0:
329,192,82218,1,0,0:0:0:0:
36,192,82252,1,0,0:0:0:0:
475,192,82286,1,0,0:0:0:0:
256,192,82286,1,0,0:0:0:0:
109,192,82320,1,0,0:0:0:0:
329,192,82354,1,0,0:0:0:0:
182,192,82388,1,0,0:0:0:0:
36,192,82422,1,0,0:0:0:0:
402,192,82422,1,0,0:0:0:0:
256,192,82456,1,0,0:0:0:0:
109,192,82490,1,0,0:0:0:0:
475,192,82525,1,0,0:0:0:0:
329,192,82559,1,0,0:0:0:0:
182,192,82559,1,0,0:0:0:0:
36,192,82593,1,0,0:0:0:0:
402,192,82627,1,0,0:0:0:0:
109,192,82661,1,0,0:0:0:0:
256,192,82695,1,0,0:0:0:0:
475,192,82729,1,0,0:0:0:0:
182,192,82763,1,0,0:0:0:0:
402,192,82797,1,0,0:0:0:0:
36,192,82831,1,0,0:0:0:0:
329,192,82865,1,0,0:0:0:0:
256,192,82900,1,0,0:0:0:0:
475,192,82934,1,0,0:0:0:0:
36,192,82968,1,0,0:0:0:0:
402,192,82968,1,0,0:0:0:0:
109,192,82968,1,0,0:0:0:0:
182,192,82968,1,0,0:0:0:0:
329,192,83002,1,0,0:0:0:0:
256,192,83036,1,0,0:0:0:0:
475,192,83070,1,0,0:0:0:0:
402,192,83104,1,0,0:0:0:0:
329,192,83138,1,0,0:0:0:0:
256,192,83172,1,0,0:0:0:0:
182,192,83206,1,0,0:0:0:0:
475,192,83240,1,0,0:0:0:0:
402,192,83240,1,0,0:0:0:0:
109,192,83240,1,0,0:0:0:0:
36,192,83240,1,0,0:0:0:0:
256,192,83275,1,0,0:0:0:0:
182,192,83309,1,0,0:0:0:0:
329,192,83309,1,0,0:0:0:0:
36,192,83343,1,0,0:0:0:0:
109,192,83377,1,0,0:0:0:0:
475,192,83377,1,0,0:0:0:0:
402,192,83377,1,0,0:0:0:0:
182,192,83411,1,0,0:0:0:0:
256,192,83445,1,0,0:0:0:0:
329,192,83479,1,0,0:0:0:0:
109,192,83513,1,0,0:0:0:0:
36,192,83513,1,0,0:0:0:0:
402,192,83513,1,0,0:0:0:0:
475,192,83513,1,0,0:0:0:0:
256,192,83547,1,0,0:0:0:0:
329,192,83581,1,0,0:0:0:0:
182,192,83581,1,0,0:0:0:0:
475,192,83615,1,0,0:0:0:0:
402,192,83650,1,0,0:0:0:0:
109,192,83650,1,0,0:0:0:0:
36,192,83650,1,0,0:0:0:0:
329,192,83684,1,0,0:0:0:0:
256,192,83718,1,0,0:0:0:0:
182,192,83752,1,0,0:0:0:0:
36,192,83786,1,0,0:0:0:0:
109,192,83786,1,0,0:0:0:0:
402,192,83786,1,0,0:0:0:0:
475,192,83786,1,0,0:0:0:0:
256,192,83820,1,0,0:0:0:0:
329,192,83854,1,0,0:0:0:0:
402,192,83888,1,0,0:0:0:0:
109,192,83922,1,0,0:0:0:0:
182,192,83956,1,0,0:0:0:0:
256,192,83990,1,0,0:0:0:0:
329,192,84025,1,0,0:0:0:0:
36,192,84059,1,0,0:0:0:0:
109,192,84059,1,0,0:0:0:0:
402,192,84059,1,0,0:0:0:0:
475,192,84059,1,0,0:0:0:0:
182,192,84093,1,0,0:0:0:0:
256,192,84127,1,0,0:0:0:0:
329,192,84161,1,0,0:0:0:0:
109,192,84195,1,0,0:0:0:0:
36,192,84195,1,0,0:0:0:0:
182,192,84229,1,0,0:0:0:0:
256,192,84263,1,0,0:0:0:0:
475,192,84297,1,0,0:0:0:0:
109,192,84331,1,0,0:0:0:0:
36,192,84331,1,0,0:0:0:0:
182,192,84365,1,0,0:0:0:0:
402,192,84400,1,0,0:0:0:0:
475,192,84434,1,0,0:0:0:0:
36,192,84468,1,0,0:0:0:0:
109,192,84468,1,0,0:0:0:0:
256,192,84468,1,0,0:0:0:0:
329,192,84502,1,0,0:0:0:0:
402,192,84536,1,0,0:0:0:0:
475,192,84570,1,0,0:0:0:0:
36,192,84604,1,0,0:0:0:0:
109,192,84604,1,0,0:0:0:0:
182,192,84604,1,0,0:0:0:0:
256,192,84638,1,0,0:0:0:0:
329,192,84672,1,0,0:0:0:0:
402,192,84706,1,0,0:0:0:0:
109,192,84740,1,0,0:0:0:0:
475,192,84740,1,0,0:0:0:0:
182,192,84775,1,0,0:0:0:0:
256,192,84809,1,0,0:0:0:0:
329,192,84843,1,0,0:0:0:0:
402,192,84877,1,0,0:0:0:0:
475,192,84877,1,0,0:0:0:0:
36,192,84877,1,0,0:0:0:0:
109,192,84911,1,0,0:0:0:0:
182,192,84945,1,0,0:0:0:0:
256,192,84979,1,0,0:0:0:0:
475,192,85013,1,0,0:0:0:0:
402,192,85047,1,0,0:0:0:0:
329,192,85081,1,0,0:0:0:0:
36,192,85115,1,0,0:0:0:0:
109,192,85150,1,0,0:0:0:0:
182,192,85184,1,0,0:0:0:0:
256,192,85218,1,0,0:0:0:0:
36,192,85252,1,0,0:0:0:0:
109,192,85286,1,0,0:0:0:0:
475,192,85286,1,0,0:0:0:0:
402,192,85286,1,0,0:0:0:0:
329,192,85320,1,0,0:0:0:0:
256,192,85354,1,0,0:0:0:0:
182,192,85388,1,0,0:0:0:0:
109,192,85422,1,0,0:0:0:0:
475,192,85422,1,0,0:0:0:0:
402,192,85422,1,0,0:0:0:0:
329,192,85456,1,0,0:0:0:0:
256,192,85490,1,0,0:0:0:0:
182,192,85525,1,0,0:0:0:0:
36,192,85559,1,0,0:0:0:0:
475,192,85559,1,0,0:0:0:0:
402,192,85593,1,0,0:0:0:0:
109,192,85627,1,0,0:0:0:0:
182,192,85661,1,0,0:0:0:0:
329,192,85695,1,0,0:0:0:0:
256,192,85695,1,0,0:0:0:0:
475,192,85695,1,0,0:0:0:0:
36,192,85729,1,0,0:0:0:0:
109,192,85763,1,0,0:0:0:0:
182,192,85797,1,0,0:0:0:0:
475,192,85831,1,0,0:0:0:0:
402,192,85831,1,0,0:0:0:0:
329,192,85865,1,0,0:0:0:0:
256,192,85900,1,0,0:0:0:0:
182,192,85934,1,0,0:0:0:0:
109,192,85968,1,0,0:0:0:0:
36,192,85968,1,0,0:0:0:0:
475,192,85968,1,0,0:0:0:0:
402,192,86002,1,0,0:0:0:0:
329,192,86036,1,0,0:0:0:0:
256,192,86070,1,0,0:0:0:0:
182,192,86104,1,0,0:0:0:0:
109,192,86104,1,0,0:0:0:0:
402,192,86138,1,0,0:0:0:0:
329,192,86172,1,0,0:0:0:0:
256,192,86206,1,0,0:0:0:0:
109,192,86240,1,0,0:0:0:0:
36,192,86240,1,0,0:0:0:0:
475,192,86240,1,0,0:0:0:0:
182,192,86275,1,0,0:0:0:0:
329,192,86309,1,0,0:0:0:0:
402,192,86343,1,0,0:0:0:0:
475,192,86377,1,0,0:0:0:0:
36,192,86377,1,0,0:0:0:0:
109,192,86411,1,0,0:0:0:0:
182,192,86445,1,0,0:0:0:0:
256,192,86479,1,0,0:0:0:0:
402,192,86513,1,0,0:0:0:0:
329,192,86513,1,0,0:0:0:0:
36,192,86547,1,0,0:0:0:0:
109,192,86581,1,0,0:0:0:0:
182,192,86615,1,0,0:0:0:0:
475,192,86650,1,0,0:0:0:0:
402,192,86650,1,0,0:0:0:0:
256,192,86650,1,0,0:0:0:0:
36,192,86684,1,0,0:0:0:0:
109,192,86718,1,0,0:0:0:0:
182,192,86752,1,0,0:0:0:0:
475,192,86786,1,0,0:0:0:0:
402,192,86786,1,0,0:0:0:0:
329,192,86786,1,0,0:0:0:0:
36,192,86820,1,0,0:0:0:0:
109,192,86854,1,0,0:0:0:0:
256,192,86888,1,0,0:0:0:0:
329,192,86922,1,0,0:0:0:0:
402,192,86922,1,0,0:0:0:0:
182,192,86956,1,0,0:0:0:0:
109,192,86990,1,0,0:0:0:0:
36,192,87025,1,0,0:0:0:0:
475,192,87059,1,0,0:0:0:0:
402,192,87059,1,0,0:0:0:0:
256,192,87059,1,0,0:0:0:0:
182,192,87093,1,0,0:0:0:0:
109,192,87127,1,0,0:0:0:0:
36,192,87161,1,0,0:0:0:0:
475,192,87195,1,0,0:0:0:0:
402,192,87195,1,0,0:0:0:0:
256,192,87195,1,0,0:0:0:0:
182,192,87229,1,0,0:0:0:0:
109,192,87263,1,0,0:0:0:0:
36,192,87297,1,0,0:0:0:0:
475,192,87331,1,0,0:0:0:0:
402,192,87331,1,0,0:0:0:0:
329,192,87331,1,0,0:0:0:0:
182,192,87400,1,0,0:0:0:0:
109,192,87400,1,0,0:0:0:0:
402,192,87468,1,0,0:0:0:0:
329,192,87468,1,0,0:0:0:0:
182,192,87536,1,0,0:0:0:0:
109,192,87536,1,0,0:0:0:0:
402,192,87604,1,0,0:0:0:0:
329,192,87604,1,0,0:0:0:0:
182,192,87672,1,0,0:0:0:0:
109,192,87672,1,0,0:0:0:0:
402,192,87740,1,0,0:0:0:0:
329,192,87740,1,0,0:0:0:0:
182,192,87809,1,0,0:0:0:0:
109,192,87809,1,0,0:0:0:0:
256,192,87877,128,0,88422:0:0:0:0:
475,192,88286,128,0,88422:0:0:0:0:
36,192,88286,128,0,88422:0:0:0:0:
182,192,88422,1,0,0:0:0:0:
109,192,88422,1,0,0:0:0:0:
402,192,88422,1,0,0:0:0:0:
329,192,88422,1,0,0:0:0:0:
256,192,88468,1,0,0:0:0:0:
36,192,88513,1,0,0:0:0:0:
109,192,88559,1,0,0:0:0:0:
475,192,88559,1,0,0:0:0:0:
329,192,88559,1,0,0:0:0:0:
256,192,88627,1,0,0:0:0:0:
182,192,88627,1,0,0:0:0:0:
475,192,88695,1,0,0:0:0:0:
402,192,88695,1,0,0:0:0:0:
36,192,88695,1,0,0:0:0:0:
182,192,88763,1,0,0:0:0:0:
109,192,88763,1,0,0:0:0:0:
329,192,88831,1,0,0:0:0:0:
256,192,88831,1,0,0:0:0:0:
36,192,88831,1,0,0:0:0:0:
402,192,88900,1,0,0:0:0:0:
182,192,88900,1,0,0:0:0:0:
475,192,88968,1,0,0:0:0:0:
109,192,88968,1,0,0:0:0:0:
36,192,88968,1,0,0:0:0:0:
402,192,89036,1,0,0:0:0:0:
256,192,89036,1,0,0:0:0:0:
329,192,89104,1,0,0:0:0:0:
182,192,89104,1,0,0:0:0:0:
109,192,89104,1,0,0:0:0:0:
475,192,89172,1,0,0:0:0:0:
402,192,89172,1,0,0:0:0:0:
256,192,89172,1,0,0:0:0:0:
329,192,89240,1,0,0:0:0:0:
109,192,89240,1,0,0:0:0:0:
36,192,89240,1,0,0:0:0:0:
182,192,89309,1,0,0:0:0:0:
475,192,89309,1,0,0:0:0:0:
402,192,89377,1,0,0:0:0:0:
256,192,89377,1,0,0:0:0:0:
36,192,89377,1,0,0:0:0:0:
182,192,89445,1,0,0:0:0:0:
329,192,89445,1,0,0:0:0:0:
109,192,89513,1,0,0:0:0:0:
475,192,89513,1,0,0:0:0:0:
256,192,89513,1,0,0:0:0:0:
402,192,89559,1,0,0:0:0:0:
182,192,89604,1,0,0:0:0:0:
36,192,89650,1,0,0:0:0:0:
475,192,89650,1,0,0:0:0:0:
329,192,89650,1,0,0:0:0:0:
256,192,89718,1,0,0:0:0:0:
109,192,89718,1,0,0:0:0:0:
402,192,89786,1,0,0:0:0:0:
36,192,89786,1,0,0:0:0:0:
475,192,89786,1,0,0:0:0:0:
329,192,89854,1,0,0:0:0:0:
182,192,89854,1,0,0:0:0:0:
109,192,89922,1,0,0:0:0:0:
402,192,89922,1,0,0:0:0:0:
256,192,89922,1,0,0:0:0:0:
182,192,89990,1,0,0:0:0:0:
329,192,89990,1,0,0:0:0:0:
109,192,90059,1,0,0:0:0:0:
36,192,90059,1,0,0:0:0:0:
475,192,90059,1,0,0:0:0:0:
402,192,90127,1,0,0:0:0:0:
256,192,90127,1,0,0:0:0:0:
329,192,90195,1,0,0:0:0:0:
109,192,90195,1,0,0:0:0:0:
36,192,90195,1,0,0:0:0:0:
402,192,90263,1,0,0:0:0:0:
256,192,90263,1,0,0:0:0:0:
182,192,90263,1,0,0:0:0:0:
475,192,90331,1,0,0:0:0:0:
109,192,90331,1,0,0:0:0:0:
36,192,90331,1,0,0:0:0:0:
256,192,90400,1,0,0:0:0:0:
329,192,90400,1,0,0:0:0:0:
475,192,90468,1,0,0:0:0:0:
402,192,90468,1,0,0:0:0:0:
182,192,90468,1,0,0:0:0:0:
36,192,90536,1,0,0:0:0:0:
329,192,90536,1,0,0:0:0:0:
256,192,90604,1,0,0:0:0:0:
109,192,90604,1,0,0:0:0:0:
475,192,90604,1,0,0:0:0:0:
402,192,90650,1,0,0:0:0:0:
182,192,90695,1,0,0:0:0:0:
329,192,90740,1,0,0:0:0:0:
36,192,90740,1,0,0:0:0:0:
256,192,90740,1,0,0:0:0:0:
475,192,90809,1,0,0:0:0:0:
109,192,90809,1,0,0:0:0:0:
402,192,90877,1,0,0:0:0:0:
329,192,90877,1,0,0:0:0:0:
182,192,90877,1,0,0:0:0:0:
36,192,90945,1,0,0:0:0:0:
256,192,90945,1,0,0:0:0:0:
109,192,91013,1,0,0:0:0:0:
475,192,91013,1,0,0:0:0:0:
402,192,91013,1,0,0:0:0:0:
329,192,91081,1,0,0:0:0:0:
182,192,91081,1,0,0:0:0:0:
109,192,91150,1,0,0:0:0:0:
36,192,91150,1,0,0:0:0:0:
256,192,91150,1,0,0:0:0:0:
475,192,91218,1,0,0:0:0:0:
182,192,91218,1,0,0:0:0:0:
402,192,91286,1,0,0:0:0:0:
329,192,91286,1,0,0:0:0:0:
36,192,91286,1,0,0:0:0:0:
182,192,91354,1,0,0:0:0:0:
109,192,91354,1,0,0:0:0:0:
475,192,91354,1,0,0:0:0:0:
402,192,91422,1,0,0:0:0:0:
329,192,91422,1,0,0:0:0:0:
256,192,91422,1,0,0:0:0:0:
36,192,91490,1,0,0:0:0:0:
109,192,91490,1,0,0:0:0:0:
475,192,91559,1,0,0:0:0:0:
329,192,91559,1,0,0:0:0:0:
182,192,91559,1,0,0:0:0:0:
256,192,91627,1,0,0:0:0:0:
402,192,91627,1,0,0:0:0:0:
475,192,91695,1,0,0:0:0:0:
36,192,91695,1,0,0:0:0:0:
109,192,91695,1,0,0:0:0:0:
182,192,91763,1,0,0:0:0:0:
329,192,91763,1,0,0:0:0:0:
475,192,91831,1,0,0:0:0:0:
36,192,91831,1,0,0:0:0:0:
402,192,91831,1,0,0:0:0:0:
182,192,91900,1,0,0:0:0:0:
329,192,91900,1,0,0:0:0:0:
36,192,91968,1,0,0:0:0:0:
109,192,91968,1,0,0:0:0:0:
402,192,91968,1,0,0:0:0:0:
182,192,92036,1,0,0:0:0:0:
329,192,92036,1,0,0:0:0:0:
475,192,92104,1,0,0:0:0:0:
256,192,92104,1,0,0:0:0:0:
109,192,92104,1,0,0:0:0:0:
329,192,92172,1,0,0:0:0:0:
36,192,92172,1,0,0:0:0:0:
402,192,92172,1,0,0:0:0:0:
475,192,92240,1,0,0:0:0:0:
182,192,92240,1,0,0:0:0:0:
109,192,92240,1,0,0:0:0:0:
36,192,92309,1,0,0:0:0:0:
256,192,92309,1,0,0:0:0:0:
329,192,92309,1,0,0:0:0:0:
475,192,92377,1,0,0:0:0:0:
402,192,92377,1,0,0:0:0:0:
182,192,92377,1,0,0:0:0:0:
109,192,92445,1,0,0:0:0:0:
36,192,92445,1,0,0:0:0:0:
329,192,92445,1,0,0:0:0:0:
475,192,92513,1,0,0:0:0:0:
402,192,92513,1,0,0:0:0:0:
182,192,92513,1,0,0:0:0:0:
36,192,92581,1,0,0:0:0:0:
109,192,92581,1,0,0:0:0:0:
329,192,92650,1,0,0:0:0:0:
256,192,92650,1,0,0:0:0:0:
475,192,92718,1,0,0:0:0:0:
402,192,92786,1,0,0:0:0:0:
256,192,92786,1,0,0:0:0:0:
109,192,92786,1,0,0:0:0:0:
36,192,92786,1,0,0:0:0:0:
329,192,92854,1,0,0:0:0:0:
182,192,92854,1,0,0:0:0:0:
475,192,92922,1,0,0:0:0:0:
402,192,92922,1,0,0:0:0:0:
256,192,92990,1,0,0:0:0:0:
109,192,92990,1,0,0:0:0:0:
329,192,93059,1,0,0:0:0:0:
402,192,93059,1,0,0:0:0:0:
36,192,93059,1,0,0:0:0:0:
475,192,93059,1,0,0:0:0:0:
182,192,93127,1,0,0:0:0:0:
256,192,93127,1,0,0:0:0:0:
109,192,93195,1,0,0:0:0:0:
36,192,93195,1,0,0:0:0:0:
329,192,93263,1,0,0:0:0:0:
475,192,93263,1,0,0:0:0:0:
256,192,93331,1,0,0:0:0:0:
36,192,93331,1,0,0:0:0:0:
402,192,93331,1,0,0:0:0:0:
109,192,93331,1,0,0:0:0:0:
329,192,93400,1,0,0:0:0:0:
182,192,93400,1,0,0:0:0:0:
475,192,93468,1,0,0:0:0:0:
402,192,93468,1,0,0:0:0:0:
256,192,93536,1,0,0:0:0:0:
36,192,93536,1,0,0:0:0:0:
402,192,93604,1,0,0:0:0:0:
329,192,93604,1,0,0:0:0:0:
182,192,93604,1,0,0:0:0:0:
475,192,93604,1,0,0:0:0:0:
36,192,93672,1,0,0:0:0:0:
109,192,93672,1,0,0:0:0:0:
329,192,93740,1,0,0:0:0:0:
256,192,93740,1,0,0:0:0:0:
109,192,93809,1,0,0:0:0:0:
182,192,93809,1,0,0:0:0:0:
475,192,93877,1,0,0:0:0:0:
402,192,93877,1,0,0:0:0:0:
256,192,93877,1,0,0:0:0:0:
36,192,93877,1,0,0:0:0:0:
329,192,93945,1,0,0:0:0:0:
182,192,93945,1,0,0:0:0:0:
109,192,94013,1,0,0:0:0:0:
475,192,94013,1,0,0:0:0:0:
402,192,94081,1,0,0:0:0:0:
256,192,94081,1,0,0:0:0:0:
329,192,94150,1,0,0:0:0:0:
182,192,94150,1,0,0:0:0:0:
109,192,94150,1,0,0:0:0:0:
36,192,94150,1,0,0:0:0:0:
475,192,94218,1,0,0:0:0:0:
402,192,94218,1,0,0:0:0:0:
256,192,94286,1,0,0:0:0:0:
36,192,94286,1,0,0:0:0:0:
329,192,94354,1,0,0:0:0:0:
182,192,94354,1,0,0:0:0:0:
475,192,94422,1,0,0:0:0:0:
402,192,94422,1,0,0:0:0:0:
109,192,94422,1,0,0:0:0:0:
256,192,94422,1,0,0:0:0:0:
36,192,94490,1,0,0:0:0:0:
182,192,94490,1,0,0:0:0:0:
475,192,94559,1,0,0:0:0:0:
329,192,94559,1,0,0:0:0:0:
109,192,94627,1,0,0:0:0:0:
36,192,94627,1,0,0:0:0:0:
402,192,94695,1,0,0:0:0:0:
256,192,94695,1,0,0:0:0:0:
182,192,94695,1,0,0:0:0:0:
329,192,94695,1,0,0:0:0:0:
109,192,94763,1,0,0:0:0:0:
36,192,94763,1,0,0:0:0:0:
475,192,94831,1,0,0:0:0:0:
402,192,94831,1,0,0:0:0:0:
182,192,94900,1,0,0:0:0:0:
109,192,94900,1,0,0:0:0:0:
402,192,94968,1,0,0:0:0:0:
256,192,94968,1,0,0:0:0:0:
329,192,94968,1,0,0:0:0:0:
475,192,94968,1,0,0:0:0:0:
182,192,95036,1,0,0:0:0:0:
109,192,95036,1,0,0:0:0:0:
36,192,95036,1,0,0:0:0:0:
402,192,95104,1,0,0:0:0:0:
475,192,95104,1,0,0:0:0:0:
329,192,95104,1,0,0:0:0:0:
182,192,95172,1,0,0:0:0:0:
109,192,95172,1,0,0:0:0:0:
36,192,95172,1,0,0:0:0:0:
475,192,95240,1,0,0:0:0:0:
402,192,95240,1,0,0:0:0:0:
256,192,95240,1,0,0:0:0:0:
329,192,95309,1,0,0:0:0:0:
109,192,95309,1,0,0:0:0:0:
36,192,95309,1,0,0:0:0:0:
475,192,95377,1,0,0:0:0:0:
402,192,95377,1,0,0:0:0:0:
182,192,95377,1,0,0:0:0:0:
109,192,95445,1,0,0:0:0:0:
36,192,95445,1,0,0:0:0:0:
256,192,95445,1,0,0:0:0:0:
329,192,95513,1,0,0:0:0:0:
182,192,95513,1,0,0:0:0:0:
402,192,95513,1,0,0:0:0:0:
475,192,95581,1,0,0:0:0:0:
256,192,95581,1,0,0:0:0:0:
36,192,95581,1,0,0:0:0:0:
109,192,95650,1,0,0:0:0:0:
182,192,95650,1,0,0:0:0:0:
329,192,95650,1,0,0:0:0:0:
475,192,95718,1,0,0:0:0:0:
36,192,95718,1,0,0:0:0:0:
402,192,95718,1,0,0:0:0:0:
256,192,95786,1,0,0:0:0:0:
182,192,95786,1,0,0:0:0:0:
109,192,95786,1,0,0:0:0:0:
402,192,95854,1,0,0:0:0:0:
329,192,95854,1,0,0:0:0:0:
475,192,95854,1,0,0:0:0:0:
109,192,95922,1,0,0:0:0:0:
36,192,95922,1,0,0:0:0:0:
182,192,95922,1,0,0:0:0:0:
329,192,95990,1,0,0:0:0:0:
256,192,95990,1,0,0:0:0:0:
402,192,95990,1,0,0:0:0:0:
475,192,96059,1,0,0:0:0:0:
109,192,96059,1,0,0:0:0:0:
36,192,96059,1,0,0:0:0:0:
182,192,96059,1,0,0:0:0:0:
475,192,97150,1,0,0:0:0:0:
402,192,97150,1,0,0:0:0:0:
256,192,97150,1,0,0:0:0:0:
36,192,97150,1,0,0:0:0:0:
109,192,97218,1,0,0:0:0:0:
329,192,97286,1,0,0:0:0:0:
182,192,97286,1,0,0:0:0:0:
475,192,97286,1,0,0:0:0:0:
109,192,97354,1,0,0:0:0:0:
36,192,97422,1,0,0:0:0:0:
402,192,97422,1,0,0:0:0:0:
329,192,97422,1,0,0:0:0:0:
109,192,97490,1,0,0:0:0:0:
182,192,97559,1,0,0:0:0:0:
475,192,97559,1,0,0:0:0:0:
402,192,97559,1,0,0:0:0:0:
256,192,97559,1,0,0:0:0:0:
109,192,97627,1,0,0:0:0:0:
475,192,97695,1,0,0:0:0:0:
402,192,97695,1,0,0:0:0:0:
182,192,97695,1,0,0:0:0:0:
109,192,97763,1,0,0:0:0:0:
402,192,97831,1,0,0:0:0:0:
475,192,97831,1,0,0:0:0:0:
182,192,97831,1,0,0:0:0:0:
256,192,97831,1,0,0:0:0:0:
109,192,97900,1,0,0:0:0:0:
475,192,97968,1,0,0:0:0:0:
402,192,97968,1,0,0:0:0:0:
182,192,97968,1,0,0:0:0:0:
329,192,97968,1,0,0:0:0:0:
109,192,98036,1,0,0:0:0:0:
475,192,98104,1,0,0:0:0:0:
402,192,98104,1,0,0:0:0:0:
256,192,98104,1,0,0:0:0:0:
182,192,98104,1,0,0:0:0:0:
109,192,98172,1,0,0:0:0:0:
36,192,98172,1,0,0:0:0:0:
475,192,98240,1,0,0:0:0:0:
329,192,98240,1,0,0:0:0:0:
182,192,98275,1,0,0:0:0:0:
402,192,98309,1,0,0:0:0:0:
36,192,98343,1,0,0:0:0:0:
256,192,98377,1,0,0:0:0:0:
109,192,98377,1,0,0:0:0:0:
475,192,98411,1,0,0:0:0:0:
329,192,98445,1,0,0:0:0:0:
182,192,98479,1,0,0:0:0:0:
36,192,98513,1,0,0:0:0:0:
402,192,98513,1,0,0:0:0:0:
256,192,98547,1,0,0:0:0:0:
109,192,98581,1,0,0:0:0:0:
329,192,98615,1,0,0:0:0:0:
475,192,98650,1,0,0:0:0:0:
182,192,98650,1,0,0:0:0:0:
36,192,98684,1,0,0:0:0:0:
256,192,98718,1,0,0:0:0:0:
109,192,98752,1,0,0:0:0:0:
475,192,98786,1,0,0:0:0:0:
329,192,98786,1,0,0:0:0:0:
182,192,98820,1,0,0:0:0:0:
402,192,98854,1,0,0:0:0:0:
256,192,98888,1,0,0:0:0:0:
36,192,98922,1,0,0:0:0:0:
475,192,98922,1,0,0:0:0:0:
109,192,98956,1,0,0:0:0:0:
329,192,98990,1,0,0:0:0:0:
182,192,99025,1,0,0:0:0:0:
475,192,99059,1,0,0:0:0:0:
36,192,99059,1,0,0:0:0:0:
256,192,99093,1,0,0:0:0:0:
402,192,99127,1,0,0:0:0:0:
109,192,99127,1,0,0:0:0:0:
182,192,99161,1,0,0:0:0:0:
329,192,99195,1,0,0:0:0:0:
36,192,99195,1,0,0:0:0:0:
475,192,99229,1,0,0:0:0:0:
109,192,99263,1,0,0:0:0:0:
256,192,99263,1,0,0:0:0:0:
402,192,99297,1,0,0:0:0:0:
36,192,99331,1,0,0:0:0:0:
329,192,99331,1,0,0:0:0:0:
182,192,99331,1,0,0:0:0:0:
256,192,99400,1,0,0:0:0:0:
109,192,99400,1,0,0:0:0:0:
402,192,99468,1,0,0:0:0:0:
475,192,99468,1,0,0:0:0:0:
256,192,99536,1,0,0:0:0:0:
109,192,99536,1,0,0:0:0:0:
182,192,99604,1,0,0:0:0:0:
36,192,99604,1,0,0:0:0:0:
475,192,99604,1,0,0:0:0:0:
329,192,99672,1,0,0:0:0:0:
402,192,99672,1,0,0:0:0:0:
256,192,99740,1,0,0:0:0:0:
109,192,99740,1,0,0:0:0:0:
36,192,99740,1,0,0:0:0:0:
329,192,99809,1,0,0:0:0:0:
182,192,99809,1,0,0:0:0:0:
402,192,99877,1,0,0:0:0:0:
36,192,99877,1,0,0:0:0:0:
256,192,99945,1,0,0:0:0:0:
109,192,99945,1,0,0:0:0:0:
329,192,100013,1,0,0:0:0:0:
182,192,100013,1,0,0:0:0:0:
475,192,100013,1,0,0:0:0:0:
36,192,100081,1,0,0:0:0:0:
109,192,100081,1,0,0:0:0:0:
402,192,100150,1,0,0:0:0:0:
256,192,100150,1,0,0:0:0:0:
475,192,100150,1,0,0:0:0:0:
182,192,100218,1,0,0:0:0:0:
329,192,100218,1,0,0:0:0:0:
36,192,100286,1,0,0:0:0:0:
402,192,100286,1,0,0:0:0:0:
256,192,100354,1,0,0:0:0:0:
109,192,100354,1,0,0:0:0:0:
329,192,100422,1,0,0:0:0:0:
182,192,100422,1,0,0:0:0:0:
475,192,100422,1,0,0:0:0:0:
36,192,100490,1,0,0:0:0:0:
109,192,100490,1,0,0:0:0:0:
402,192,100559,1,0,0:0:0:0:
256,192,100559,1,0,0:0:0:0:
475,192,100559,1,0,0:0:0:0:
182,192,100627,1,0,0:0:0:0:
329,192,100627,1,0,0:0:0:0:
475,192,100695,1,0,0:0:0:0:
109,192,100695,1,0,0:0:0:0:
402,192,100763,1,0,0:0:0:0:
256,192,100763,1,0,0:0:0:0:
182,192,100831,1,0,0:0:0:0:
109,192,100831,1,0,0:0:0:0:
36,192,100831,1,0,0:0:0:0:
402,192,100900,1,0,0:0:0:0:
475,192,100900,1,0,0:0:0:0:
256,192,100900,1,0,0:0:0:0:
109,192,100968,1,0,0:0:0:0:
36,192,100968,1,0,0:0:0:0:
329,192,100968,1,0,0:0:0:0:
182,192,100968,1,0,0:0:0:0:
402,192,101036,1,0,0:0:0:0:
475,192,101036,1,0,0:0:0:0:
329,192,101104,1,0,0:0:0:0:
256,192,101104,1,0,0:0:0:0:
182,192,101104,1,0,0:0:0:0:
36,192,101104,1,0,0:0:0:0:
475,192,101172,1,0,0:0:0:0:
402,192,101172,1,0,0:0:0:0:
182,192,101240,1,0,0:0:0:0:
109,192,101240,1,0,0:0:0:0:
36,192,101240,1,0,0:0:0:0:
256,192,101240,1,0,0:0:0:0:
402,192,101309,1,0,0:0:0:0:
329,192,101309,1,0,0:0:0:0:
182,192,101377,1,0,0:0:0:0:
109,192,101377,1,0,0:0:0:0:
256,192,101445,1,0,0:0:0:0:
329,192,101445,1,0,0:0:0:0:
475,192,101513,1,0,0:0:0:0:
402,192,101513,1,0,0:0:0:0:
109,192,101513,1,0,0:0:0:0:
36,192,101513,1,0,0:0:0:0:
256,192,101581,1,0,0:0:0:0:
182,192,101581,1,0,0:0:0:0:
475,192,101650,1,0,0:0:0:0:
402,192,101650,1,0,0:0:0:0:
329,192,101650,1,0,0:0:0:0:
36,192,101650,1,0,0:0:0:0:
182,192,101718,1,0,0:0:0:0:
109,192,101718,1,0,0:0:0:0:
402,192,101786,1,0,0:0:0:0:
329,192,101786,1,0,0:0:0:0:
256,192,101786,1,0,0:0:0:0:
109,192,101854,1,0,0:0:0:0:
36,192,101854,1,0,0:0:0:0:
475,192,101922,1,0,0:0:0:0:
402,192,101922,1,0,0:0:0:0:
256,192,101922,1,0,0:0:0:0:
182,192,101922,1,0,0:0:0:0:
329,192,101990,1,0,0:0:0:0:
109,192,101990,1,0,0:0:0:0:
256,192,102059,1,0,0:0:0:0:
36,192,102059,1,0,0:0:0:0:
475,192,102059,1,0,0:0:0:0:
329,192,102127,1,0,0:0:0:0:
182,192,102127,1,0,0:0:0:0:
109,192,102195,1,0,0:0:0:0:
402,192,102195,1,0,0:0:0:0:
256,192,102263,1,0,0:0:0:0:
182,192,102263,1,0,0:0:0:0:
329,192,102331,1,0,0:0:0:0:
402,192,102331,1,0,0:0:0:0:
475,192,102331,1,0,0:0:0:0:
36,192,102331,1,0,0:0:0:0:
182,192,102400,1,0,0:0:0:0:
109,192,102400,1,0,0:0:0:0:
475,192,102468,1,0,0:0:0:0:
402,192,102468,1,0,0:0:0:0:
256,192,102468,1,0,0:0:0:0:
109,192,102536,1,0,0:0:0:0:
36,192,102536,1,0,0:0:0:0:
475,192,102604,1,0,0:0:0:0:
182,192,102604,1,0,0:0:0:0:
256,192,102604,1,0,0:0:0:0:
402,192,102604,1,0,0:0:0:0:
329,192,102638,1,0,0:0:0:0:
36,192,102672,1,0,0:0:0:0:
109,192,102706,1,0,0:0:0:0:
182,192,102740,1,0,0:0:0:0:
475,192,102740,1,0,0:0:0:0:
256,192,102775,1,0,0:0:0:0:
402,192,102809,1,0,0:0:0:0:
109,192,102843,1,0,0:0:0:0:
182,192,102877,1,0,0:0:0:0:
329,192,102911,1,0,0:0:0:0:
36,192,102945,1,0,0:0:0:0:
256,192,102979,1,0,0:0:0:0:
475,192,103013,1,0,0:0:0:0:
109,192,103013,1,0,0:0:0:0:
329,192,103047,1,0,0:0:0:0:
182,192,103081,1,0,0:0:0:0:
402,192,103115,1,0,0:0:0:0:
36,192,103150,1,0,0:0:0:0:
256,192,103150,1,0,0:0:0:0:
475,192,103184,1,0,0:0:0:0:
109,192,103218,1,0,0:0:0:0:
329,192,103252,1,0,0:0:0:0:
36,192,103286,1,0,0:0:0:0:
182,192,103286,1,0,0:0:0:0:
402,192,103320,1,0,0:0:0:0:
256,192,103354,1,0,0:0:0:0:
109,192,103388,1,0,0:0:0:0:
475,192,103422,1,0,0:0:0:0:
329,192,103422,1,0,0:0:0:0:
36,192,103456,1,0,0:0:0:0:
182,192,103490,1,0,0:0:0:0:
402,192,103525,1,0,0:0:0:0:
256,192,103559,1,0,0:0:0:0:
109,192,103559,1,0,0:0:0:0:
475,192,103593,1,0,0:0:0:0:
36,192,103627,1,0,0:0:0:0:
182,192,103661,1,0,0:0:0:0:
329,192,103695,1,0,0:0:0:0:
109,192,103729,1,0,0:0:0:0:
402,192,103763,1,0,0:0:0:0:
256,192,103797,1,0,0:0:0:0:
475,192,103831,1,0,0:0:0:0:
36,192,103831,1,0,0:0:0:0:
182,192,103865,1,0,0:0:0:0:
329,192,103900,1,0,0:0:0:0:
109,192,103934,1,0,0:0:0:0:
402,192,103968,1,0,0:0:0:0:
256,192,103968,1,0,0:0:0:0:
36,192,104002,1,0,0:0:0:0:
329,192,104036,1,0,0:0:0:0:
109,192,104070,1,0,0:0:0:0:
475,192,104104,1,0,0:0:0:0:
256,192,104104,1,0,0:0:0:0:
402,192,104138,1,0,0:0:0:0:
182,192,104172,1,0,0:0:0:0:
36,192,104206,1,0,0:0:0:0:
329,192,104240,1,0,0:0:0:0:
475,192,104240,1,0,0:0:0:0:
109,192,104275,1,0,0:0:0:0:
256,192,104309,1,0,0:0:0:0:
402,192,104343,1,0,0:0:0:0:
182,192,104377,1,0,0:0:0:0:
36,192,104411,1,0,0:0:0:0:
329,192,104445,1,0,0:0:0:0:
109,192,104479,1,0,0:0:0:0:
475,192,104513,1,0,0:0:0:0:
256,192,104513,1,0,0:0:0:0:
402,192,104547,1,0,0:0:0:0:
36,192,104581,1,0,0:0:0:0:
182,192,104615,1,0,0:0:0:0:
329,192,104650,1,0,0:0:0:0:
109,192,104650,1,0,0:0:0:0:
475,192,104684,1,0,0:0:0:0:
256,192,104718,1,0,0:0:0:0:
36,192,104752,1,0,0:0:0:0:
182,192,104786,1,0,0:0:0:0:
402,192,104786,1,0,0:0:0:0:
329,192,104820,1,0,0:0:0:0:
109,192,104854,1,0,0:0:0:0:
256,192,104888,1,0,0:0:0:0:
475,192,104922,1,0,0:0:0:0:
36,192,104922,1,0,0:0:0:0:
182,192,104956,1,0,0:0:0:0:
329,192,104990,1,0,0:0:0:0:
109,192,105025,1,0,0:0:0:0:
256,192,105059,1,0,0:0:0:0:
402,192,105093,1,0,0:0:0:0:
36,192,105127,1,0,0:0:0:0:
329,192,105161,1,0,0:0:0:0:
182,192,105195,1,0,0:0:0:0:
475,192,105195,1,0,0:0:0:0:
109,192,105229,1,0,0:0:0:0:
256,192,105263,1,0,0:0:0:0:
402,192,105297,1,0,0:0:0:0:
329,192,105331,1,0,0:0:0:0:
182,192,105331,1,0,0:0:0:0:
36,192,105331,1,0,0:0:0:0:
475,192,105365,1,0,0:0:0:0:
402,192,105400,1,0,0:0:0:0:
329,192,105434,1,0,0:0:0:0:
256,192,105468,1,0,0:0:0:0:
182,192,105502,1,0,0:0:0:0:
109,192,105536,1,0,0:0:0:0:
36,192,105570,1,0,0:0:0:0:
182,192,105604,1,0,0:0:0:0:
256,192,105638,1,0,0:0:0:0:
329,192,105672,1,0,0:0:0:0:
402,192,105706,1,0,0:0:0:0:
109,192,105740,1,0,0:0:0:0:
475,192,105740,1,0,0:0:0:0:
182,192,105775,1,0,0:0:0:0:
256,192,105809,1,0,0:0:0:0:
329,192,105843,1,0,0:0:0:0:
475,192,105877,1,0,0:0:0:0:
36,192,105877,1,0,0:0:0:0:
402,192,105877,1,0,0:0:0:0:
109,192,105945,1,0,0:0:0:0:
329,192,106013,1,0,0:0:0:0:
475,192,106013,1,0,0:0:0:0:
182,192,106013,1,0,0:0:0:0:
109,192,106081,1,0,0:0:0:0:
402,192,106150,1,0,0:0:0:0:
329,192,106150,1,0,0:0:0:0:
36,192,106150,1,0,0:0:0:0:
109,192,106218,1,0,0:0:0:0:
256,192,106286,1,0,0:0:0:0:
402,192,106286,1,0,0:0:0:0:
182,192,106286,1,0,0:0:0:0:
329,192,106286,1,0,0:0:0:0:
36,192,106354,1,0,0:0:0:0:
329,192,106422,1,0,0:0:0:0:
402,192,106422,1,0,0:0:0:0:
182,192,106422,1,0,0:0:0:0:
36,192,106490,1,0,0:0:0:0:
256,192,106559,1,0,0:0:0:0:
329,192,106559,1,0,0:0:0:0:
182,192,106559,1,0,0:0:0:0:
402,192,106559,1,0,0:0:0:0:
36,192,106627,1,0,0:0:0:0:
402,192,106695,1,0,0:0:0:0:
329,192,106695,1,0,0:0:0:0:
182,192,106695,1,0,0:0:0:0:
475,192,106695,1,0,0:0:0:0:
36,192,106763,1,0,0:0:0:0:
329,192,106831,1,0,0:0:0:0:
256,192,106831,1,0,0:0:0:0:
402,192,106831,1,0,0:0:0:0:
182,192,106831,1,0,0:0:0:0:
36,192,106900,1,0,0:0:0:0:
109,192,106900,1,0,0:0:0:0:
475,192,106968,1,0,0:0:0:0:
329,192,106968,1,0,0:0:0:0:
256,192,107002,1,0,0:0:0:0:
36,192,107036,1,0,0:0:0:0:
109,192,107070,1,0,0:0:0:0:
402,192,107104,1,0,0:0:0:0:
182,192,107104,1,0,0:0:0:0:
329,192,107138,1,0,0:0:0:0:
36,192,107172,1,0,0:0:0:0:
256,192,107206,1,0,0:0:0:0:
475,192,107240,1,0,0:0:0:0:
109,192,107240,1,0,0:0:0:0:
329,192,107275,1,0,0:0:0:0:
182,192,107309,1,0,0:0:0:0:
402,192,107343,1,0,0:0:0:0:
256,192,107377,1,0,0:0:0:0:
36,192,107377,1,0,0:0:0:0:
109,192,107411,1,0,0:0:0:0:
329,192,107445,1,0,0:0:0:0:
475,192,107479,1,0,0:0:0:0:
182,192,107513,1,0,0:0:0:0:
36,192,107513,1,0,0:0:0:0:
402,192,107547,1,0,0:0:0:0:
256,192,107581,1,0,0:0:0:0:
109,192,107615,1,0,0:0:0:0:
329,192,107650,1,0,0:0:0:0:
475,192,107650,1,0,0:0:0:0:
182,192,107684,1,0,0:0:0:0:
36,192,107718,1,0,0:0:0:0:
256,192,107752,1,0,0:0:0:0:
402,192,107786,1,0,0:0:0:0:
109,192,107786,1,0,0:0:0:0:
329,192,107820,1,0,0:0:0:0:
182,192,107854,1,0,0:0:0:0:
475,192,107888,1,0,0:0:0:0:
256,192,107922,1,0,0:0:0:0:
36,192,107922,1,0,0:0:0:0:
109,192,107956,1,0,0:0:0:0:
329,192,107990,1,0,0:0:0:0:
182,192,108025,1,0,0:0:0:0:
36,192,108059,1,0,0:0:0:0:
475,192,108059,1,0,0:0:0:0:
402,192,108059,1,0,0:0:0:0:
256,192,108127,1,0,0:0:0:0:
109,192,108127,1,0,0:0:0:0:
329,192,108195,1,0,0:0:0:0:
182,192,108195,1,0,0:0:0:0:
402,192,108263,1,0,0:0:0:0:
36,192,108263,1,0,0:0:0:0:
475,192,108331,1,0,0:0:0:0:
256,192,108331,1,0,0:0:0:0:
109,192,108331,1,0,0:0:0:0:
329,192,108400,1,0,0:0:0:0:
182,192,108400,1,0,0:0:0:0:
475,192,108468,1,0,0:0:0:0:
402,192,108468,1,0,0:0:0:0:
256,192,108468,1,0,0:0:0:0:
109,192,108536,1,0,0:0:0:0:
36,192,108536,1,0,0:0:0:0:
182,192,108604,1,0,0:0:0:0:
329,192,108604,1,0,0:0:0:0:
256,192,108672,1,0,0:0:0:0:
36,192,108672,1,0,0:0:0:0:
475,192,108740,1,0,0:0:0:0:
402,192,108740,1,0,0:0:0:0:
109,192,108740,1,0,0:0:0:0:
182,192,108809,1,0,0:0:0:0:
256,192,108809,1,0,0:0:0:0:
475,192,108877,1,0,0:0:0:0:
329,192,108877,1,0,0:0:0:0:
36,192,108877,1,0,0:0:0:0:
182,192,108945,1,0,0:0:0:0:
109,192,108945,1,0,0:0:0:0:
402,192,109013,1,0,0:0:0:0:
256,192,109013,1,0,0:0:0:0:
109,192,109081,1,0,0:0:0:0:
36,192,109081,1,0,0:0:0:0:
402,192,109150,1,0,0:0:0:0:
329,192,109150,1,0,0:0:0:0:
182,192,109150,1,0,0:0:0:0:
256,192,109218,1,0,0:0:0:0:
109,192,109218,1,0,0:0:0:0:
475,192,109286,1,0,0:0:0:0:
36,192,109286,1,0,0:0:0:0:
402,192,109286,1,0,0:0:0:0:
329,192,109354,1,0,0:0:0:0:
182,192,109354,1,0,0:0:0:0:
256,192,109422,1,0,0:0:0:0:
109,192,109422,1,0,0:0:0:0:
475,192,109490,1,0,0:0:0:0:
402,192,109559,1,0,0:0:0:0:
182,192,109559,1,0,0:0:0:0:
36,192,109559,1,0,0:0:0:0:
329,192,109627,1,0,0:0:0:0:
256,192,109627,1,0,0:0:0:0:
475,192,109695,1,0,0:0:0:0:
402,192,109695,1,0,0:0:0:0:
109,192,109695,1,0,0:0:0:0:
36,192,109695,1,0,0:0:0:0:
256,192,109763,1,0,0:0:0:0:
182,192,109763,1,0,0:0:0:0:
475,192,109831,1,0,0:0:0:0:
402,192,109831,1,0,0:0:0:0:
329,192,109831,1,0,0:0:0:0:
36,192,109831,1,0,0:0:0:0:
182,192,109900,1,0,0:0:0:0:
109,192,109900,1,0,0:0:0:0:
475,192,109968,1,0,0:0:0:0:
402,192,109968,1,0,0:0:0:0:
329,192,109968,1,0,0:0:0:0:
256,192,109968,1,0,0:0:0:0:
109,192,110036,1,0,0:0:0:0:
36,192,110036,1,0,0:0:0:0:
402,192,110104,1,0,0:0:0:0:
182,192,110104,1,0,0:0:0:0:
329,192,110172,1,0,0:0:0:0:
256,192,110172,1,0,0:0:0:0:
109,192,110240,1,0,0:0:0:0:
36,192,110240,1,0,0:0:0:0:
475,192,110240,1,0,0:0:0:0:
402,192,110240,1,0,0:0:0:0:
256,192,110309,1,0,0:0:0:0:
182,192,110309,1,0,0:0:0:0:
329,192,110309,1,0,0:0:0:0:
109,192,110377,1,0,0:0:0:0:
36,192,110377,1,0,0:0:0:0:
475,192,110377,1,0,0:0:0:0:
402,192,110445,1,0,0:0:0:0:
329,192,110445,1,0,0:0:0:0:
256,192,110445,1,0,0:0:0:0:
182,192,110513,1,0,0:0:0:0:
109,192,110513,1,0,0:0:0:0:
36,192,110513,1,0,0:0:0:0:
475,192,110581,1,0,0:0:0:0:
402,192,110581,1,0,0:0:0:0:
329,192,110581,1,0,0:0:0:0:
256,192,110650,1,0,0:0:0:0:
109,192,110650,1,0,0:0:0:0:
36,192,110650,1,0,0:0:0:0:
329,192,110718,1,0,0:0:0:0:
182,192,110718,1,0,0:0:0:0:
402,192,110718,1,0,0:0:0:0:
475,192,110786,1,0,0:0:0:0:
256,192,110786,1,0,0:0:0:0:
36,192,110786,1,0,0:0:0:0:
182,192,110854,1,0,0:0:0:0:
109,192,110854,1,0,0:0:0:0:
475,192,110922,1,0,0:0:0:0:
402,192,110922,1,0,0:0:0:0:
36,192,110922,1,0,0:0:0:0:
329,192,110990,1,0,0:0:0:0:
256,192,110990,1,0,0:0:0:0:
109,192,110990,1,0,0:0:0:0:
475,192,111059,1,0,0:0:0:0:
402,192,111059,1,0,0:0:0:0:
182,192,111059,1,0,0:0:0:0:
109,192,111127,1,0,0:0:0:0:
36,192,111127,1,0,0:0:0:0:
256,192,111127,1,0,0:0:0:0:
475,192,111195,1,0,0:0:0:0:
402,192,111195,1,0,0:0:0:0:
329,192,111195,1,0,0:0:0:0:
256,192,111263,1,0,0:0:0:0:
182,192,111263,1,0,0:0:0:0:
109,192,111263,1,0,0:0:0:0:
36,192,111331,1,0,0:0:0:0:
475,192,111331,1,0,0:0:0:0:
402,192,111331,1,0,0:0:0:0:
329,192,111400,1,0,0:0:0:0:
256,192,111400,1,0,0:0:0:0:
182,192,111400,1,0,0:0:0:0:
109,192,111468,1,0,0:0:0:0:
36,192,111468,1,0,0:0:0:0:
475,192,111468,1,0,0:0:0:0:
182,192,111536,1,0,0:0:0:0:
329,192,111536,1,0,0:0:0:0:
402,192,111536,1,0,0:0:0:0:
256,192,111604,1,0,0:0:0:0:
109,192,111604,1,0,0:0:0:0:
36,192,111604,1,0,0:0:0:0:
475,192,111672,1,0,0:0:0:0:
402,192,111672,1,0,0:0:0:0:
182,192,111672,1,0,0:0:0:0:
329,192,111740,1,0,0:0:0:0:
256,192,111740,1,0,0:0:0:0:
36,192,111740,1,0,0:0:0:0:
109,192,111809,1,0,0:0:0:0:
182,192,111809,1,0,0:0:0:0:
402,192,111809,1,0,0:0:0:0:
475,192,111877,1,0,0:0:0:0:
329,192,111877,1,0,0:0:0:0:
256,192,111877,1,0,0:0:0:0:
109,192,111945,1,0,0:0:0:0:
36,192,111945,1,0,0:0:0:0:
402,192,111945,1,0,0:0:0:0:
182,192,112013,1,0,0:0:0:0:
256,192,112013,1,0,0:0:0:0:
475,192,112013,1,0,0:0:0:0:
329,192,112081,1,0,0:0:0:0:
36,192,112081,1,0,0:0:0:0:
109,192,112081,1,0,0:0:0:0:
475,192,112150,1,0,0:0:0:0:
402,192,112150,1,0,0:0:0:0:
182,192,112150,1,0,0:0:0:0:
256,192,112218,1,0,0:0:0:0:
109,192,112218,1,0,0:0:0:0:
36,192,112218,1,0,0:0:0:0:
329,192,112286,1,0,0:0:0:0:
475,192,112286,1,0,0:0:0:0:
182,192,112286,1,0,0:0:0:0:
402,192,112354,1,0,0:0:0:0:
256,192,112354,1,0,0:0:0:0:
36,192,112354,1,0,0:0:0:0:
182,192,112422,1,0,0:0:0:0:
475,192,112422,1,0,0:0:0:0:
109,192,112422,1,0,0:0:0:0:
402,192,112490,1,0,0:0:0:0:
329,192,112490,1,0,0:0:0:0:
256,192,112490,1,0,0:0:0:0:
182,192,112559,1,0,0:0:0:0:
109,192,112559,1,0,0:0:0:0:
36,192,112559,1,0,0:0:0:0:
475,192,112627,1,0,0:0:0:0:
402,192,112627,1,0,0:0:0:0:
329,192,112627,1,0,0:0:0:0:
182,192,112695,1,0,0:0:0:0:
109,192,112695,1,0,0:0:0:0:
256,192,112695,1,0,0:0:0:0:
475,192,112763,1,0,0:0:0:0:
402,192,112763,1,0,0:0:0:0:
329,192,112763,1,0,0:0:0:0:
182,192,112831,1,0,0:0:0:0:
109,192,112831,1,0,0:0:0:0:
36,192,112831,1,0,0:0:0:0:
329,192,112900,1,0,0:0:0:0:
256,192,112900,1,0,0:0:0:0:
402,192,112900,1,0,0:0:0:0:
182,192,112968,1,0,0:0:0:0:
109,192,112968,1,0,0:0:0:0:
36,192,112968,1,0,0:0:0:0:
475,192,113036,1,0,0:0:0:0:
402,192,113036,1,0,0:0:0:0:
329,192,113036,1,0,0:0:0:0:
256,192,113104,1,0,0:0:0:0:
182,192,113104,1,0,0:0:0:0:
109,192,113104,1,0,0:0:0:0:
475,192,113172,1,0,0:0:0:0:
402,192,113172,1,0,0:0:0:0:
329,192,113172,1,0,0:0:0:0:
109,192,113240,1,0,0:0:0:0:
36,192,113240,1,0,0:0:0:0:
182,192,113240,1,0,0:0:0:0:
402,192,113309,1,0,0:0:0:0:
256,192,113309,1,0,0:0:0:0:
329,192,113309,1,0,0:0:0:0:
182,192,113377,1,0,0:0:0:0:
36,192,113377,1,0,0:0:0:0:
109,192,113377,1,0,0:0:0:0:
475,192,113445,1,0,0:0:0:0:
329,192,113445,1,0,0:0:0:0:
402,192,113445,1,0,0:0:0:0:
256,192,113513,1,0,0:0:0:0:
109,192,113513,1,0,0:0:0:0:
182,192,113513,1,0,0:0:0:0:
402,192,113581,1,0,0:0:0:0:
475,192,113581,1,0,0:0:0:0:
329,192,113581,1,0,0:0:0:0:
182,192,113650,1,0,0:0:0:0:
109,192,113650,1,0,0:0:0:0:
36,192,113650,1,0,0:0:0:0:
402,192,113718,1,0,0:0:0:0:
329,192,113718,1,0,0:0:0:0:
256,192,113718,1,0,0:0:0:0:
475,192,113786,1,0,0:0:0:0:
36,192,113786,1,0,0:0:0:0:
182,192,113854,1,0,0:0:0:0:
109,192,113854,1,0,0:0:0:0:
256,192,113854,1,0,0:0:0:0:
475,192,113922,1,0,0:0:0:0:
402,192,113922,1,0,0:0:0:0:
329,192,113922,1,0,0:0:0:0:
109,192,113990,1,0,0:0:0:0:
36,192,113990,1,0,0:0:0:0:
329,192,114059,1,0,0:0:0:0:
256,192,114059,1,0,0:0:0:0:
182,192,114059,1,0,0:0:0:0:
475,192,114127,1,0,0:0:0:0:
402,192,114127,1,0,0:0:0:0:
36,192,114127,1,0,0:0:0:0:
109,192,114195,1,0,0:0:0:0:
182,192,114195,1,0,0:0:0:0:
256,192,114195,1,0,0:0:0:0:
475,192,114263,1,0,0:0:0:0:
402,192,114263,1,0,0:0:0:0:
329,192,114263,1,0,0:0:0:0:
256,192,114331,1,0,0:0:0:0:
182,192,114331,1,0,0:0:0:0:
36,192,114331,1,0,0:0:0:0:
109,192,114331,1,0,0:0:0:0:
475,192,114468,1,0,0:0:0:0:
402,192,114468,1,0,0:0:0:0:
109,192,114468,1,0,0:0:0:0:
36,192,114468,1,0,0:0:0:0:
402,192,114604,1,0,0:0:0:0:
329,192,114604,1,0,0:0:0:0:
256,192,114604,1,0,0:0:0:0:
109,192,114604,1,0,0:0:0:0:
329,192,114740,1,0,0:0:0:0:
182,192,114740,1,0,0:0:0:0:
402,192,114877,1,0,0:0:0:0:
256,192,114877,1,0,0:0:0:0:
475,192,115013,1,0,0:0:0:0:
329,192,115013,1,0,0:0:0:0:
109,192,115013,1,0,0:0:0:0:
182,192,115013,1,0,0:0:0:0:
329,192,115150,1,0,0:0:0:0:
475,192,115150,1,0,0:0:0:0:
182,192,115218,1,0,0:0:0:0:
36,192,115218,1,0,0:0:0:0:
475,192,115286,1,0,0:0:0:0:
402,192,115286,1,0,0:0:0:0:
256,192,115286,1,0,0:0:0:0:
329,192,115422,1,0,0:0:0:0:
36,192,115422,1,0,0:0:0:0:
402,192,115422,1,0,0:0:0:0:
109,192,115456,1,0,0:0:0:0:
182,192,115490,1,0,0:0:0:0:
475,192,115525,1,0,0:0:0:0:
402,192,115559,1,0,0:0:0:0:
36,192,115559,1,0,0:0:0:0:
109,192,115593,1,0,0:0:0:0:
182,192,115627,1,0,0:0:0:0:
329,192,115627,1,0,0:0:0:0:
256,192,115661,1,0,0:0:0:0:
402,192,115695,1,0,0:0:0:0:
475,192,115695,1,0,0:0:0:0:
36,192,115695,1,0,0:0:0:0:
182,192,115729,1,0,0:0:0:0:
329,192,115763,1,0,0:0:0:0:
109,192,115797,1,0,0:0:0:0:
256,192,115831,1,0,0:0:0:0:
36,192,115831,1,0,0:0:0:0:
475,192,115865,1,0,0:0:0:0:
329,192,115900,1,0,0:0:0:0:
182,192,115934,1,0,0:0:0:0:
402,192,115968,1,0,0:0:0:0:
36,192,115968,1,0,0:0:0:0:
256,192,116002,1,0,0:0:0:0:
109,192,116036,1,0,0:0:0:0:
329,192,116070,1,0,0:0:0:0:
182,192,116104,1,0,0:0:0:0:
475,192,116104,1,0,0:0:0:0:
36,192,116138,1,0,0:0:0:0:
256,192,116172,1,0,0:0:0:0:
109,192,116206,1,0,0:0:0:0:
329,192,116240,1,0,0:0:0:0:
475,192,116240,1,0,0:0:0:0:
182,192,116275,1,0,0:0:0:0:
402,192,116309,1,0,0:0:0:0:
256,192,116343,1,0,0:0:0:0:
475,192,116377,1,0,0:0:0:0:
36,192,116377,1,0,0:0:0:0:
109,192,116411,1,0,0:0:0:0:
329,192,116445,1,0,0:0:0:0:
182,192,116479,1,0,0:0:0:0:
36,192,116513,1,0,0:0:0:0:
475,192,116513,1,0,0:0:0:0:
256,192,116547,1,0,0:0:0:0:
109,192,116581,1,0,0:0:0:0:
402,192,116581,1,0,0:0:0:0:
182,192,116615,1,0,0:0:0:0:
36,192,116650,1,0,0:0:0:0:
329,192,116650,1,0,0:0:0:0:
475,192,116684,1,0,0:0:0:0:
256,192,116718,1,0,0:0:0:0:
109,192,116718,1,0,0:0:0:0:
402,192,116752,1,0,0:0:0:0:
182,192,116786,1,0,0:0:0:0:
329,192,116786,1,0,0:0:0:0:
36,192,116786,1,0,0:0:0:0:
109,192,116854,1,0,0:0:0:0:
256,192,116854,1,0,0:0:0:0:
475,192,116922,1,0,0:0:0:0:
402,192,116922,1,0,0:0:0:0:
109,192,116990,1,0,0:0:0:0:
256,192,116990,1,0,0:0:0:0:
475,192,117059,1,0,0:0:0:0:
36,192,117059,1,0,0:0:0:0:
182,192,117059,1,0,0:0:0:0:
402,192,117127,1,0,0:0:0:0:
329,192,117127,1,0,0:0:0:0:
36,192,117195,1,0,0:0:0:0:
109,192,117195,1,0,0:0:0:0:
256,192,117195,1,0,0:0:0:0:
182,192,117263,1,0,0:0:0:0:
329,192,117263,1,0,0:0:0:0:
36,192,117331,1,0,0:0:0:0:
402,192,117331,1,0,0:0:0:0:
109,192,117400,1,0,0:0:0:0:
256,192,117400,1,0,0:0:0:0:
475,192,117468,1,0,0:0:0:0:
182,192,117468,1,0,0:0:0:0:
329,192,117468,1,0,0:0:0:0:
109,192,117536,1,0,0:0:0:0:
36,192,117536,1,0,0:0:0:0:
475,192,117604,1,0,0:0:0:0:
256,192,117604,1,0,0:0:0:0:
402,192,117604,1,0,0:0:0:0:
329,192,117672,1,0,0:0:0:0:
182,192,117672,1,0,0:0:0:0:
402,192,117740,1,0,0:0:0:0:
36,192,117740,1,0,0:0:0:0:
109,192,117809,1,0,0:0:0:0:
256,192,117809,1,0,0:0:0:0:
475,192,117877,1,0,0:0:0:0:
182,192,117877,1,0,0:0:0:0:
329,192,117877,1,0,0:0:0:0:
109,192,117945,1,0,0:0:0:0:
36,192,117945,1,0,0:0:0:0:
475,192,118013,1,0,0:0:0:0:
256,192,118013,1,0,0:0:0:0:
402,192,118013,1,0,0:0:0:0:
329,192,118081,1,0,0:0:0:0:
182,192,118081,1,0,0:0:0:0:
109,192,118150,1,0,0:0:0:0:
475,192,118150,1,0,0:0:0:0:
256,192,118218,1,0,0:0:0:0:
402,192,118218,1,0,0:0:0:0:
36,192,118286,1,0,0:0:0:0:
109,192,118286,1,0,0:0:0:0:
182,192,118286,1,0,0:0:0:0:
256,192,118354,1,0,0:0:0:0:
475,192,118354,1,0,0:0:0:0:
402,192,118354,1,0,0:0:0:0:
329,192,118422,1,0,0:0:0:0:
182,192,118422,1,0,0:0:0:0:
109,192,118422,1,0,0:0:0:0:
36,192,118422,1,0,0:0:0:0:
475,192,118490,1,0,0:0:0:0:
402,192,118490,1,0,0:0:0:0:
182,192,118559,1,0,0:0:0:0:
36,192,118559,1,0,0:0:0:0:
329,192,118559,1,0,0:0:0:0:
256,192,118559,1,0,0:0:0:0:
402,192,118627,1,0,0:0:0:0:
475,192,118627,1,0,0:0:0:0:
36,192,118695,1,0,0:0:0:0:
256,192,118695,1,0,0:0:0:0:
182,192,118695,1,0,0:0:0:0:
109,192,118695,1,0,0:0:0:0:
329,192,118763,1,0,0:0:0:0:
402,192,118763,1,0,0:0:0:0:
109,192,118831,1,0,0:0:0:0:
182,192,118831,1,0,0:0:0:0:
329,192,118900,1,0,0:0:0:0:
256,192,118900,1,0,0:0:0:0:
109,192,118968,1,0,0:0:0:0:
36,192,118968,1,0,0:0:0:0:
475,192,118968,1,0,0:0:0:0:
402,192,118968,1,0,0:0:0:0:
182,192,119036,1,0,0:0:0:0:
256,192,119036,1,0,0:0:0:0:
329,192,119104,1,0,0:0:0:0:
36,192,119104,1,0,0:0:0:0:
475,192,119104,1,0,0:0:0:0:
402,192,119104,1,0,0:0:0:0:
109,192,119172,1,0,0:0:0:0:
182,192,119172,1,0,0:0:0:0:
256,192,119240,1,0,0:0:0:0:
329,192,119240,1,0,0:0:0:0:
402,192,119240,1,0,0:0:0:0:
36,192,119309,1,0,0:0:0:0:
109,192,119309,1,0,0:0:0:0:
256,192,119377,1,0,0:0:0:0:
182,192,119377,1,0,0:0:0:0:
475,192,119377,1,0,0:0:0:0:
402,192,119377,1,0,0:0:0:0:
109,192,119445,1,0,0:0:0:0:
329,192,119445,1,0,0:0:0:0:
475,192,119513,1,0,0:0:0:0:
36,192,119513,1,0,0:0:0:0:
256,192,119513,1,0,0:0:0:0:
182,192,119581,1,0,0:0:0:0:
329,192,119581,1,0,0:0:0:0:
402,192,119650,1,0,0:0:0:0:
109,192,119650,1,0,0:0:0:0:
182,192,119718,1,0,0:0:0:0:
256,192,119718,1,0,0:0:0:0:
475,192,119786,1,0,0:0:0:0:
36,192,119786,1,0,0:0:0:0:
329,192,119786,1,0,0:0:0:0:
402,192,119786,1,0,0:0:0:0:
109,192,119854,1,0,0:0:0:0:
182,192,119854,1,0,0:0:0:0:
256,192,119922,1,0,0:0:0:0:
402,192,119922,1,0,0:0:0:0:
475,192,119922,1,0,0:0:0:0:
36,192,119990,1,0,0:0:0:0:
109,192,119990,1,0,0:0:0:0:
256,192,120059,1,0,0:0:0:0:
402,192,120059,1,0,0:0:0:0:
475,192,120059,1,0,0:0:0:0:
182,192,120059,1,0,0:0:0:0:
329,192,120093,1,0,0:0:0:0:
36,192,120127,1,0,0:0:0:0:
109,192,120161,1,0,0:0:0:0:
475,192,120195,1,0,0:0:0:0:
182,192,120195,1,0,0:0:0:0:
256,192,120229,1,0,0:0:0:0:
402,192,120263,1,0,0:0:0:0:
109,192,120297,1,0,0:0:0:0:
182,192,120331,1,0,0:0:0:0:
329,192,120365,1,0,0:0:0:0:
36,192,120400,1,0,0:0:0:0:
256,192,120434,1,0,0:0:0:0:
109,192,120468,1,0,0:0:0:0:
475,192,120468,1,0,0:0:0:0:
329,192,120502,1,0,0:0:0:0:
182,192,120536,1,0,0:0:0:0:
402,192,120570,1,0,0:0:0:0:
256,192,120604,1,0,0:0:0:0:
36,192,120604,1,0,0:0:0:0:
475,192,120638,1,0,0:0:0:0:
109,192,120672,1,0,0:0:0:0:
329,192,120706,1,0,0:0:0:0:
182,192,120740,1,0,0:0:0:0:
36,192,120740,1,0,0:0:0:0:
402,192,120775,1,0,0:0:0:0:
256,192,120809,1,0,0:0:0:0:
109,192,120843,1,0,0:0:0:0:
329,192,120877,1,0,0:0:0:0:
475,192,120877,1,0,0:0:0:0:
36,192,120911,1,0,0:0:0:0:
182,192,120945,1,0,0:0:0:0:
402,192,120979,1,0,0:0:0:0:
109,192,121013,1,0,0:0:0:0:
256,192,121013,1,0,0:0:0:0:
475,192,121047,1,0,0:0:0:0:
36,192,121081,1,0,0:0:0:0:
182,192,121115,1,0,0:0:0:0:
329,192,121150,1,0,0:0:0:0:
109,192,121184,1,0,0:0:0:0:
402,192,121218,1,0,0:0:0:0:
256,192,121252,1,0,0:0:0:0:
36,192,121286,1,0,0:0:0:0:
475,192,121286,1,0,0:0:0:0:
182,192,121320,1,0,0:0:0:0:
329,192,121354,1,0,0:0:0:0:
109,192,121388,1,0,0:0:0:0:
256,192,121422,1,0,0:0:0:0:
402,192,121422,1,0,0:0:0:0:
36,192,121456,1,0,0:0:0:0:
329,192,121490,1,0,0:0:0:0:
109,192,121525,1,0,0:0:0:0:
256,192,121559,1,0,0:0:0:0:
475,192,121559,1,0,0:0:0:0:
402,192,121593,1,0,0:0:0:0:
182,192,121627,1,0,0:0:0:0:
36,192,121661,1,0,0:0:0:0:
475,192,121695,1,0,0:0:0:0:
329,192,121695,1,0,0:0:0:0:
109,192,121729,1,0,0:0:0:0:
256,192,121763,1,0,0:0:0:0:
402,192,121797,1,0,0:0:0:0:
182,192,121831,1,0,0:0:0:0:
36,192,121865,1,0,0:0:0:0:
329,192,121900,1,0,0:0:0:0:
109,192,121934,1,0,0:0:0:0:
256,192,121968,1,0,0:0:0:0:
475,192,121968,1,0,0:0:0:0:
402,192,122002,1,0,0:0:0:0:
36,192,122036,1,0,0:0:0:0:
182,192,122070,1,0,0:0:0:0:
109,192,122104,1,0,0:0:0:0:
329,192,122104,1,0,0:0:0:0:
475,192,122138,1,0,0:0:0:0:
256,192,122172,1,0,0:0:0:0:
36,192,122206,1,0,0:0:0:0:
402,192,122240,1,0,0:0:0:0:
182,192,122240,1,0,0:0:0:0:
329,192,122275,1,0,0:0:0:0:
109,192,122309,1,0,0:0:0:0:
256,192,122343,1,0,0:0:0:0:
36,192,122377,1,0,0:0:0:0:
475,192,122377,1,0,0:0:0:0:
182,192,122411,1,0,0:0:0:0:
329,192,122445,1,0,0:0:0:0:
109,192,122479,1,0,0:0:0:0:
256,192,122513,1,0,0:0:0:0:
402,192,122547,1,0,0:0:0:0:
36,192,122581,1,0,0:0:0:0:
329,192,122615,1,0,0:0:0:0:
475,192,122650,1,0,0:0:0:0:
182,192,122650,1,0,0:0:0:0:
109,192,122684,1,0,0:0:0:0:
256,192,122718,1,0,0:0:0:0:
402,192,122752,1,0,0:0:0:0:
36,192,122786,1,0,0:0:0:0:
182,192,122786,1,0,0:0:0:0:
329,192,122786,1,0,0:0:0:0:
475,192,122820,1,0,0:0:0:0:
402,192,122854,1,0,0:0:0:0:
329,192,122888,1,0,0:0:0:0:
256,192,122922,1,0,0:0:0:0:
182,192,122956,1,0,0:0:0:0:
109,192,122990,1,0,0:0:0:0:
36,192,123025,1,0,0:0:0:0:
182,192,123059,1,0,0:0:0:0:
256,192,123093,1,0,0:0:0:0:
329,192,123127,1,0,0:0:0:0:
402,192,123161,1,0,0:0:0:0:
475,192,123195,1,0,0:0:0:0:
109,192,123195,1,0,0:0:0:0:
182,192,123229,1,0,0:0:0:0:
256,192,123263,1,0,0:0:0:0:
329,192,123297,1,0,0:0:0:0:
402,192,123331,1,0,0:0:0:0:
36,192,123331,1,0,0:0:0:0:
475,192,123331,1,0,0:0:0:0:
182,192,123365,1,0,0:0:0:0:
329,192,123400,1,0,0:0:0:0:
109,192,123434,1,0,0:0:0:0:
256,192,123468,1,0,0:0:0:0:
475,192,123468,1,0,0:0:0:0:
402,192,123502,1,0,0:0:0:0:
36,192,123536,1,0,0:0:0:0:
329,192,123570,1,0,0:0:0:0:
182,192,123604,1,0,0:0:0:0:
475,192,123604,1,0,0:0:0:0:
109,192,123638,1,0,0:0:0:0:
256,192,123672,1,0,0:0:0:0:
402,192,123706,1,0,0:0:0:0:
182,192,123740,1,0,0:0:0:0:
36,192,123740,1,0,0:0:0:0:
329,192,123775,1,0,0:0:0:0:
256,192,123809,1,0,0:0:0:0:
402,192,123843,1,0,0:0:0:0:
475,192,123877,1,0,0:0:0:0:
109,192,123877,1,0,0:0:0:0:
329,192,123911,1,0,0:0:0:0:
256,192,123945,1,0,0:0:0:0:
36,192,123979,1,0,0:0:0:0:
402,192,124013,1,0,0:0:0:0:
182,192,124013,1,0,0:0:0:0:
329,192,124047,1,0,0:0:0:0:
109,192,124081,1,0,0:0:0:0:
256,192,124115,1,0,0:0:0:0:
475,192,124150,1,0,0:0:0:0:
36,192,124150,1,0,0:0:0:0:
402,192,124184,1,0,0:0:0:0:
182,192,124218,1,0,0:0:0:0:
329,192,124252,1,0,0:0:0:0:
109,192,124286,1,0,0:0:0:0:
475,192,124286,1,0,0:0:0:0:
256,192,124320,1,0,0:0:0:0:
402,192,124354,1,0,0:0:0:0:
36,192,124388,1,0,0:0:0:0:
329,192,124422,1,0,0:0:0:0:
182,192,124422,1,0,0:0:0:0:
475,192,124456,1,0,0:0:0:0:
109,192,124490,1,0,0:0:0:0:
402,192,124525,1,0,0:0:0:0:
256,192,124559,1,0,0:0:0:0:
36,192,124559,1,0,0:0:0:0:
182,192,124593,1,0,0:0:0:0:
329,192,124627,1,0,0:0:0:0:
109,192,124661,1,0,0:0:0:0:
475,192,124695,1,0,0:0:0:0:
256,192,124695,1,0,0:0:0:0:
402,192,124729,1,0,0:0:0:0:
36,192,124763,1,0,0:0:0:0:
182,192,124797,1,0,0:0:0:0:
329,192,124831,1,0,0:0:0:0:
109,192,124831,1,0,0:0:0:0:
475,192,124865,1,0,0:0:0:0:
256,192,124900,1,0,0:0:0:0:
36,192,124934,1,0,0:0:0:0:
182,192,124968,1,0,0:0:0:0:
402,192,124968,1,0,0:0:0:0:
329,192,125002,1,0,0:0:0:0:
109,192,125036,1,0,0:0:0:0:
475,192,125070,1,0,0:0:0:0:
36,192,125104,1,0,0:0:0:0:
256,192,125104,1,0,0:0:0:0:
402,192,125138,1,0,0:0:0:0:
109,192,125172,1,0,0:0:0:0:
329,192,125172,1,0,0:0:0:0:
182,192,125206,1,0,0:0:0:0:
475,192,125240,1,0,0:0:0:0:
36,192,125240,1,0,0:0:0:0:
256,192,125275,1,0,0:0:0:0:
402,192,125309,1,0,0:0:0:0:
109,192,125343,1,0,0:0:0:0:
182,192,125377,1,0,0:0:0:0:
329,192,125377,1,0,0:0:0:0:
475,192,125411,1,0,0:0:0:0:
36,192,125445,1,0,0:0:0:0:
256,192,125479,1,0,0:0:0:0:
109,192,125513,1,0,0:0:0:0:
402,192,125513,1,0,0:0:0:0:
182,192,125547,1,0,0:0:0:0:
329,192,125581,1,0,0:0:0:0:
36,192,125615,1,0,0:0:0:0:
475,192,125650,1,0,0:0:0:0:
256,192,125650,1,0,0:0:0:0:
109,192,125684,1,0,0:0:0:0:
329,192,125718,1,0,0:0:0:0:
182,192,125752,1,0,0:0:0:0:
402,192,125786,1,0,0:0:0:0:
36,192,125786,1,0,0:0:0:0:
256,192,125820,1,0,0:0:0:0:
109,192,125854,1,0,0:0:0:0:
475,192,125888,1,0,0:0:0:0:
329,192,125922,1,0,0:0:0:0:
182,192,125922,1,0,0:0:0:0:
36,192,125956,1,0,0:0:0:0:
256,192,125990,1,0,0:0:0:0:
475,192,126025,1,0,0:0:0:0:
109,192,126059,1,0,0:0:0:0:
402,192,126059,1,0,0:0:0:0:
182,192,126093,1,0,0:0:0:0:
329,192,126127,1,0,0:0:0:0:
36,192,126161,1,0,0:0:0:0:
256,192,126195,1,0,0:0:0:0:
475,192,126195,1,0,0:0:0:0:
109,192,126229,1,0,0:0:0:0:
402,192,126263,1,0,0:0:0:0:
182,192,126297,1,0,0:0:0:0:
329,192,126331,1,0,0:0:0:0:
36,192,126331,1,0,0:0:0:0:
475,192,126365,1,0,0:0:0:0:
109,192,126400,1,0,0:0:0:0:
256,192,126434,1,0,0:0:0:0:
402,192,126468,1,0,0:0:0:0:
36,192,126468,1,0,0:0:0:0:
182,192,126502,1,0,0:0:0:0:
329,192,126536,1,0,0:0:0:0:
109,192,126570,1,0,0:0:0:0:
475,192,126604,1,0,0:0:0:0:
402,192,126604,1,0,0:0:0:0:
256,192,126638,1,0,0:0:0:0:
36,192,126672,1,0,0:0:0:0:
182,192,126706,1,0,0:0:0:0:
329,192,126740,1,0,0:0:0:0:
475,192,126740,1,0,0:0:0:0:
109,192,126775,1,0,0:0:0:0:
256,192,126809,1,0,0:0:0:0:
36,192,126843,1,0,0:0:0:0:
182,192,126877,1,0,0:0:0:0:
402,192,126877,1,0,0:0:0:0:
329,192,126911,1,0,0:0:0:0:
109,192,126945,1,0,0:0:0:0:
256,192,126979,1,0,0:0:0:0:
475,192,127013,1,0,0:0:0:0:
36,192,127013,1,0,0:0:0:0:
182,192,127047,1,0,0:0:0:0:
109,192,127081,1,0,0:0:0:0:
329,192,127081,1,0,0:0:0:0:
402,192,127115,1,0,0:0:0:0:
256,192,127150,1,0,0:0:0:0:
36,192,127150,1,0,0:0:0:0:
182,192,127184,1,0,0:0:0:0:
475,192,127218,1,0,0:0:0:0:
329,192,127218,1,0,0:0:0:0:
109,192,127252,1,0,0:0:0:0:
402,192,127286,1,0,0:0:0:0:
36,192,127286,1,0,0:0:0:0:
256,192,127320,1,0,0:0:0:0:
182,192,127354,1,0,0:0:0:0:
329,192,127354,1,0,0:0:0:0:
475,192,127388,1,0,0:0:0:0:
402,192,127422,1,0,0:0:0:0:
109,192,127422,1,0,0:0:0:0:
36,192,127456,1,0,0:0:0:0:
329,192,127490,1,0,0:0:0:0:
182,192,127525,1,0,0:0:0:0:
256,192,127559,1,0,0:0:0:0:
475,192,127559,1,0,0:0:0:0:
402,192,127593,1,0,0:0:0:0:
36,192,127627,1,0,0:0:0:0:
329,192,127661,1,0,0:0:0:0:
109,192,127695,1,0,0:0:0:0:
475,192,127695,1,0,0:0:0:0:
182,192,127695,1,0,0:0:0:0:
256,192,127729,1,0,0:0:0:0:
402,192,127763,1,0,0:0:0:0:
36,192,127797,1,0,0:0:0:0:
329,192,127831,1,0,0:0:0:0:
109,192,127865,1,0,0:0:0:0:
256,192,127900,1,0,0:0:0:0:
475,192,127934,1,0,0:0:0:0:
402,192,127968,1,0,0:0:0:0:
182,192,127968,1,0,0:0:0:0:
36,192,127968,1,0,0:0:0:0:
329,192,128002,1,0,0:0:0:0:
109,192,128036,1,0,0:0:0:0:
256,192,128070,1,0,0:0:0:0:
475,192,128104,1,0,0:0:0:0:
36,192,128138,1,0,0:0:0:0:
329,192,128172,1,0,0:0:0:0:
182,192,128206,1,0,0:0:0:0:
475,192,128240,1,0,0:0:0:0:
256,192,128240,1,0,0:0:0:0:
109,192,128240,1,0,0:0:0:0:
402,192,128275,1,0,0:0:0:0:
36,192,128309,1,0,0:0:0:0:
182,192,128343,1,0,0:0:0:0:
475,192,128377,1,0,0:0:0:0:
329,192,128411,1,0,0:0:0:0:
109,192,128445,1,0,0:0:0:0:
256,192,128479,1,0,0:0:0:0:
475,192,128513,1,0,0:0:0:0:
36,192,128513,1,0,0:0:0:0:
402,192,128513,1,0,0:0:0:0:
182,192,128547,1,0,0:0:0:0:
329,192,128581,1,0,0:0:0:0:
109,192,128615,1,0,0:0:0:0:
256,192,128650,1,0,0:0:0:0:
402,192,128684,1,0,0:0:0:0:
36,192,128718,1,0,0:0:0:0:
182,192,128752,1,0,0:0:0:0:
109,192,128786,1,0,0:0:0:0:
329,192,128786,1,0,0:0:0:0:
475,192,128786,1,0,0:0:0:0:
256,192,128820,1,0,0:0:0:0:
402,192,128854,1,0,0:0:0:0:
182,192,128888,1,0,0:0:0:0:
329,192,128922,1,0,0:0:0:0:
36,192,128956,1,0,0:0:0:0:
475,192,128990,1,0,0:0:0:0:
256,192,129025,1,0,0:0:0:0:
402,192,129059,1,0,0:0:0:0:
182,192,129059,1,0,0:0:0:0:
109,192,129059,1,0,0:0:0:0:
329,192,129093,1,0,0:0:0:0:
36,192,129127,1,0,0:0:0:0:
256,192,129161,1,0,0:0:0:0:
475,192,129195,1,0,0:0:0:0:
109,192,129229,1,0,0:0:0:0:
329,192,129263,1,0,0:0:0:0:
182,192,129297,1,0,0:0:0:0:
36,192,129331,1,0,0:0:0:0:
402,192,129331,1,0,0:0:0:0:
256,192,129331,1,0,0:0:0:0:
109,192,129365,1,0,0:0:0:0:
475,192,129400,1,0,0:0:0:0:
182,192,129434,1,0,0:0:0:0:
329,192,129468,1,0,0:0:0:0:
36,192,129502,1,0,0:0:0:0:
256,192,129536,1,0,0:0:0:0:
109,192,129570,1,0,0:0:0:0:
475,192,129604,1,0,0:0:0:0:
402,192,129604,1,0,0:0:0:0:
182,192,129604,1,0,0:0:0:0:
329,192,129638,1,0,0:0:0:0:
36,192,129672,1,0,0:0:0:0:
256,192,129706,1,0,0:0:0:0:
475,192,129740,1,0,0:0:0:0:
109,192,129775,1,0,0:0:0:0:
329,192,129809,1,0,0:0:0:0:
182,192,129843,1,0,0:0:0:0:
36,192,129877,1,0,0:0:0:0:
475,192,129877,1,0,0:0:0:0:
256,192,129877,1,0,0:0:0:0:
402,192,129911,1,0,0:0:0:0:
109,192,129945,1,0,0:0:0:0:
182,192,129945,1,0,0:0:0:0:
329,192,129979,1,0,0:0:0:0:
36,192,130013,1,0,0:0:0:0:
475,192,130013,1,0,0:0:0:0:
256,192,130047,1,0,0:0:0:0:
109,192,130081,1,0,0:0:0:0:
402,192,130081,1,0,0:0:0:0:
182,192,130115,1,0,0:0:0:0:
329,192,130150,1,0,0:0:0:0:
36,192,130150,1,0,0:0:0:0:
256,192,130184,1,0,0:0:0:0:
109,192,130218,1,0,0:0:0:0:
475,192,130218,1,0,0:0:0:0:
182,192,130252,1,0,0:0:0:0:
329,192,130286,1,0,0:0:0:0:
36,192,130286,1,0,0:0:0:0:
402,192,130286,1,0,0:0:0:0:
109,192,130320,1,0,0:0:0:0:
256,192,130354,1,0,0:0:0:0:
475,192,130354,1,0,0:0:0:0:
402,192,130388,1,0,0:0:0:0:
329,192,130422,1,0,0:0:0:0:
182,192,130422,1,0,0:0:0:0:
36,192,130422,1,0,0:0:0:0:
475,192,130456,1,0,0:0:0:0:
109,192,130490,1,0,0:0:0:0:
256,192,130490,1,0,0:0:0:0:
402,192,130525,1,0,0:0:0:0:
182,192,130559,1,0,0:0:0:0:
329,192,130559,1,0,0:0:0:0:
36,192,130593,1,0,0:0:0:0:
109,192,130627,1,0,0:0:0:0:
475,192,130627,1,0,0:0:0:0:
256,192,130661,1,0,0:0:0:0:
402,192,130695,1,0,0:0:0:0:
329,192,130695,1,0,0:0:0:0:
36,192,130695,1,0,0:0:0:0:
182,192,130729,1,0,0:0:0:0:
475,192,130763,1,0,0:0:0:0:
109,192,130763,1,0,0:0:0:0:
256,192,130797,1,0,0:0:0:0:
402,192,130831,1,0,0:0:0:0:
36,192,130831,1,0,0:0:0:0:
329,192,130831,1,0,0:0:0:0:
182,192,130865,1,0,0:0:0:0:
109,192,130900,1,0,0:0:0:0:
256,192,130934,1,0,0:0:0:0:
475,192,130968,1,0,0:0:0:0:
402,192,130968,1,0,0:0:0:0:
36,192,130968,1,0,0:0:0:0:
109,192,131002,1,0,0:0:0:0:
182,192,131036,1,0,0:0:0:0:
329,192,131036,1,0,0:0:0:0:
256,192,131070,1,0,0:0:0:0:
475,192,131104,1,0,0:0:0:0:
402,192,131104,1,0,0:0:0:0:
36,192,131104,1,0,0:0:0:0:
109,192,131138,1,0,0:0:0:0:
182,192,131172,1,0,0:0:0:0:
329,192,131172,1,0,0:0:0:0:
256,192,131206,1,0,0:0:0:0:
475,192,131240,1,0,0:0:0:0:
402,192,131240,1,0,0:0:0:0:
36,192,131240,1,0,0:0:0:0:
109,192,131275,1,0,0:0:0:0:
182,192,131309,1,0,0:0:0:0:
329,192,131309,1,0,0:0:0:0:
256,192,131343,1,0,0:0:0:0:
475,192,131377,1,0,0:0:0:0:
402,192,131377,1,0,0:0:0:0:
36,192,131377,1,0,0:0:0:0:
109,192,131411,1,0,0:0:0:0:
182,192,131445,1,0,0:0:0:0:
329,192,131445,1,0,0:0:0:0:
256,192,131479,1,0,0:0:0:0:
402,192,131513,1,0,0:0:0:0:
475,192,131513,1,0,0:0:0:0:
109,192,131513,1,0,0:0:0:0:
36,192,131513,128,0,132059:0:0:0:0:
475,192,132059,1,0,0:0:0:0:
402,192,132059,1,0,0:0:0:0:
329,192,132059,1,0,0:0:0:0:
109,192,132059,1,0,0:0:0:0:
182,192,132059,1,0,0:0:0:0:
256,192,132059,128,0,132195:0:0:0:0:
36,192,132331,1,0,0:0:0:0:
402,192,132331,128,0,132422:0:0:0:0:
182,192,132468,1,0,0:0:0:0:
256,192,132468,128,0,132604:0:0:0:0:
182,192,132604,1,0,0:0:0:0:
36,192,132604,1,0,0:0:0:0:
402,192,132604,128,0,132695:0:0:0:0:
402,192,132877,128,0,132968:0:0:0:0:
182,192,132877,1,0,0:0:0:0:
36,192,132877,1,0,0:0:0:0:
36,192,133150,1,0,0:0:0:0:
475,192,133240,128,0,133331:0:0:0:0:
182,192,133286,1,0,0:0:0:0:
182,192,133422,1,0,0:0:0:0:
36,192,133422,1,0,0:0:0:0:
475,192,133604,128,0,133695:0:0:0:0:
182,192,133695,1,0,0:0:0:0:
36,192,133695,1,0,0:0:0:0:
475,192,133968,128,0,134059:0:0:0:0:
182,192,133968,1,0,0:0:0:0:
36,192,133968,1,0,0:0:0:0:
182,192,134240,1,0,0:0:0:0:
36,192,134240,1,0,0:0:0:0:
256,192,134240,128,0,134377:0:0:0:0:
36,192,134513,1,0,0:0:0:0:
182,192,134650,1,0,0:0:0:0:
256,192,134650,128,0,134786:0:0:0:0:
182,192,134786,1,0,0:0:0:0:
36,192,134786,1,0,0:0:0:0:
182,192,135059,1,0,0:0:0:0:
36,192,135059,1,0,0:0:0:0:
36,192,135331,1,0,0:0:0:0:
182,192,135468,1,0,0:0:0:0:
475,192,135604,128,0,135877:0:0:0:0:
402,192,135604,128,0,135877:0:0:0:0:
329,192,135604,128,0,135877:0:0:0:0:
182,192,135604,1,0,0:0:0:0:
36,192,135604,1,0,0:0:0:0:
182,192,135877,1,0,0:0:0:0:
36,192,135877,1,0,0:0:0:0:
36,192,136150,1,0,0:0:0:0:
182,192,136422,1,0,0:0:0:0:
36,192,136422,1,0,0:0:0:0:
256,192,136422,128,0,136559:0:0:0:0:
36,192,136695,1,0,0:0:0:0:
256,192,136831,128,0,136968:0:0:0:0:
182,192,136831,1,0,0:0:0:0:
182,192,136968,1,0,0:0:0:0:
36,192,136968,1,0,0:0:0:0:
182,192,137240,1,0,0:0:0:0:
36,192,137240,1,0,0:0:0:0:
36,192,137513,1,0,0:0:0:0:
182,192,137650,1,0,0:0:0:0:
182,192,137786,1,0,0:0:0:0:
36,192,137786,1,0,0:0:0:0:
182,192,138059,1,0,0:0:0:0:
36,192,138059,1,0,0:0:0:0:
182,192,138331,1,0,0:0:0:0:
36,192,138331,1,0,0:0:0:0:
256,192,138604,128,0,138740:0:0:0:0:
182,192,138604,1,0,0:0:0:0:
36,192,138604,1,0,0:0:0:0:
36,192,138877,1,0,0:0:0:0:
256,192,139013,128,0,139150:0:0:0:0:
182,192,139013,1,0,0:0:0:0:
182,192,139150,1,0,0:0:0:0:
36,192,139150,1,0,0:0:0:0:
182,192,139422,1,0,0:0:0:0:
36,192,139422,1,0,0:0:0:0:
36,192,139695,1,0,0:0:0:0:
182,192,139831,1,0,0:0:0:0:
182,192,139968,1,0,0:0:0:0:
36,192,139968,1,0,0:0:0:0:
182,192,140240,1,0,0:0:0:0:
36,192,140240,1,0,0:0:0:0:
36,192,140513,1,0,0:0:0:0:
256,192,140786,128,0,140922:0:0:0:0:
182,192,140786,1,0,0:0:0:0:
36,192,140786,1,0,0:0:0:0:
36,192,141059,1,0,0:0:0:0:
256,192,141195,128,0,141331:0:0:0:0:
182,192,141195,1,0,0:0:0:0:
36,192,141331,1,0,0:0:0:0:
182,192,141331,1,0,0:0:0:0:
36,192,141604,1,0,0:0:0:0:
182,192,141604,1,0,0:0:0:0:
36,192,141877,1,0,0:0:0:0:
182,192,142013,1,0,0:0:0:0:
36,192,142150,1,0,0:0:0:0:
182,192,142150,1,0,0:0:0:0:
36,192,142422,1,0,0:0:0:0:
182,192,142422,1,0,0:0:0:0:
36,192,142695,1,0,0:0:0:0:
182,192,142695,1,0,0:0:0:0:
256,192,142968,128,0,143104:0:0:0:0:
36,192,142968,1,0,0:0:0:0:
182,192,142968,1,0,0:0:0:0:
36,192,143240,1,0,0:0:0:0:
256,192,143377,128,0,143513:0:0:0:0:
182,192,143377,1,0,0:0:0:0:
36,192,143513,1,0,0:0:0:0:
182,192,143513,1,0,0:0:0:0:
36,192,143786,1,0,0:0:0:0:
182,192,143786,1,0,0:0:0:0:
36,192,144059,1,0,0:0:0:0:
182,192,144195,1,0,0:0:0:0:
36,192,144331,1,0,0:0:0:0:
182,192,144331,1,0,0:0:0:0:
36,192,144604,1,0,0:0:0:0:
182,192,144604,1,0,0:0:0:0:
36,192,144877,1,0,0:0:0:0:
36,192,145150,1,0,0:0:0:0:
182,192,145150,1,0,0:0:0:0:
475,192,145150,128,0,145218:0:0:0:0:
402,192,145150,128,0,145218:0:0:0:0:
256,192,145150,128,0,145218:0:0:0:0:
36,192,145422,1,0,0:0:0:0:
256,192,145559,128,0,145627:0:0:0:0:
402,192,145559,128,0,145627:0:0:0:0:
475,192,145559,128,0,145627:0:0:0:0:
36,192,145695,1,0,0:0:0:0:
475,192,145695,128,0,145763:0:0:0:0:
402,192,145695,128,0,145763:0:0:0:0:
256,192,145695,128,0,145763:0:0:0:0:
36,192,145968,1,0,0:0:0:0:
475,192,145968,128,0,146036:0:0:0:0:
402,192,145968,128,0,146036:0:0:0:0:
256,192,145968,128,0,146036:0:0:0:0:
36,192,146240,1,0,0:0:0:0:
475,192,146377,128,0,146445:0:0:0:0:
402,192,146377,128,0,146445:0:0:0:0:
256,192,146377,128,0,146445:0:0:0:0:
36,192,146513,1,0,0:0:0:0:
256,192,146513,128,0,146581:0:0:0:0:
402,192,146513,128,0,146581:0:0:0:0:
475,192,146513,128,0,146581:0:0:0:0:
36,192,146786,1,0,0:0:0:0:
256,192,146786,128,0,146854:0:0:0:0:
402,192,146786,128,0,146854:0:0:0:0:
475,192,146786,128,0,146854:0:0:0:0:
36,192,147059,1,0,0:0:0:0:
475,192,147059,128,0,147127:0:0:0:0:
402,192,147059,128,0,147127:0:0:0:0:
256,192,147059,128,0,147127:0:0:0:0:
36,192,147331,1,0,0:0:0:0:
256,192,147331,128,0,147400:0:0:0:0:
402,192,147331,128,0,147400:0:0:0:0:
475,192,147331,128,0,147400:0:0:0:0:
36,192,147604,1,0,0:0:0:0:
475,192,147740,128,0,147809:0:0:0:0:
402,192,147740,128,0,147809:0:0:0:0:
256,192,147740,128,0,147809:0:0:0:0:
36,192,147877,1,0,0:0:0:0:
475,192,147877,128,0,147945:0:0:0:0:
402,192,147877,128,0,147945:0:0:0:0:
256,192,147877,128,0,147945:0:0:0:0:
36,192,148150,1,0,0:0:0:0:
256,192,148150,128,0,148218:0:0:0:0:
402,192,148150,128,0,148218:0:0:0:0:
475,192,148150,128,0,148218:0:0:0:0:
475,192,148422,1,0,0:0:0:0:
36,192,148422,1,0,0:0:0:0:
109,192,148422,1,0,0:0:0:0:
329,192,148422,1,0,0:0:0:0:
182,192,148456,1,0,0:0:0:0:
256,192,148490,1,0,0:0:0:0:
402,192,148490,1,0,0:0:0:0:
329,192,148525,1,0,0:0:0:0:
475,192,148559,1,0,0:0:0:0:
36,192,148559,1,0,0:0:0:0:
109,192,148559,1,0,0:0:0:0:
402,192,148695,1,0,0:0:0:0:
475,192,148695,1,0,0:0:0:0:
36,192,148695,1,0,0:0:0:0:
182,192,148695,1,0,0:0:0:0:
329,192,148729,1,0,0:0:0:0:
256,192,148763,1,0,0:0:0:0:
109,192,148763,1,0,0:0:0:0:
182,192,148797,1,0,0:0:0:0:
402,192,148831,1,0,0:0:0:0:
475,192,148831,1,0,0:0:0:0:
36,192,148831,1,0,0:0:0:0:
256,192,148922,1,0,0:0:0:0:
329,192,148922,1,0,0:0:0:0:
36,192,148968,1,0,0:0:0:0:
109,192,148968,1,0,0:0:0:0:
182,192,148968,1,0,0:0:0:0:
329,192,149059,1,0,0:0:0:0:
475,192,149059,1,0,0:0:0:0:
109,192,149150,1,0,0:0:0:0:
256,192,149150,1,0,0:0:0:0:
402,192,149150,1,0,0:0:0:0:
36,192,149240,1,0,0:0:0:0:
182,192,149240,1,0,0:0:0:0:
475,192,149331,1,0,0:0:0:0:
256,192,149331,1,0,0:0:0:0:
329,192,149331,1,0,0:0:0:0:
109,192,149422,1,0,0:0:0:0:
36,192,149422,1,0,0:0:0:0:
182,192,149513,1,0,0:0:0:0:
329,192,149513,1,0,0:0:0:0:
402,192,149513,1,0,0:0:0:0:
475,192,149513,1,0,0:0:0:0:
256,192,149513,1,0,0:0:0:0:
109,192,149650,1,0,0:0:0:0:
256,192,149650,1,0,0:0:0:0:
402,192,149650,1,0,0:0:0:0:
256,192,149786,1,0,0:0:0:0:
182,192,149786,1,0,0:0:0:0:
329,192,149786,1,0,0:0:0:0:
475,192,149786,1,0,0:0:0:0:
36,192,149922,1,0,0:0:0:0:
182,192,149922,1,0,0:0:0:0:
402,192,149922,1,0,0:0:0:0:
36,192,150059,1,0,0:0:0:0:
109,192,150059,1,0,0:0:0:0:
256,192,150059,1,0,0:0:0:0:
475,192,150059,1,0,0:0:0:0:
36,192,150195,1,0,0:0:0:0:
182,192,150195,1,0,0:0:0:0:
329,192,150195,1,0,0:0:0:0:
109,192,150331,1,0,0:0:0:0:
256,192,150331,1,0,0:0:0:0:
402,192,150331,1,0,0:0:0:0:
329,192,150331,1,0,0:0:0:0:
36,192,150468,1,0,0:0:0:0:
182,192,150468,1,0,0:0:0:0:
475,192,150468,1,0,0:0:0:0:
36,192,150604,1,0,0:0:0:0:
109,192,150604,1,0,0:0:0:0:
256,192,150604,1,0,0:0:0:0:
402,192,150604,1,0,0:0:0:0:
182,192,150740,1,0,0:0:0:0:
329,192,150740,1,0,0:0:0:0:
402,192,150740,1,0,0:0:0:0:
36,192,150877,1,0,0:0:0:0:
109,192,150877,1,0,0:0:0:0:
256,192,150877,1,0,0:0:0:0:
475,192,150877,1,0,0:0:0:0:
329,192,151013,1,0,0:0:0:0:
402,192,151013,1,0,0:0:0:0:
182,192,151013,1,0,0:0:0:0:
182,192,151081,1,0,0:0:0:0:
36,192,151150,1,0,0:0:0:0:
109,192,151150,1,0,0:0:0:0:
256,192,151150,1,0,0:0:0:0:
402,192,151150,1,0,0:0:0:0:
329,192,151286,1,0,0:0:0:0:
475,192,151286,1,0,0:0:0:0:
182,192,151286,1,0,0:0:0:0:
329,192,151354,1,0,0:0:0:0:
36,192,151422,1,0,0:0:0:0:
109,192,151422,1,0,0:0:0:0:
256,192,151422,1,0,0:0:0:0:
402,192,151422,1,0,0:0:0:0:
36,192,151559,1,0,0:0:0:0:
256,192,151559,1,0,0:0:0:0:
402,192,151559,1,0,0:0:0:0:
109,192,151695,1,0,0:0:0:0:
329,192,151695,1,0,0:0:0:0:
475,192,151695,1,0,0:0:0:0:
182,192,151695,1,0,0:0:0:0:
36,192,151831,1,0,0:0:0:0:
256,192,151831,1,0,0:0:0:0:
475,192,151831,1,0,0:0:0:0:
36,192,151968,1,0,0:0:0:0:
109,192,151968,1,0,0:0:0:0:
329,192,151968,1,0,0:0:0:0:
402,192,151968,1,0,0:0:0:0:
109,192,152104,1,0,0:0:0:0:
256,192,152104,1,0,0:0:0:0:
475,192,152104,1,0,0:0:0:0:
36,192,152240,1,0,0:0:0:0:
402,192,152240,1,0,0:0:0:0:
475,192,152240,1,0,0:0:0:0:
182,192,152240,1,0,0:0:0:0:
109,192,152377,1,0,0:0:0:0:
256,192,152377,1,0,0:0:0:0:
329,192,152377,1,0,0:0:0:0:
109,192,152513,1,0,0:0:0:0:
182,192,152513,1,0,0:0:0:0:
256,192,152513,1,0,0:0:0:0:
475,192,152513,1,0,0:0:0:0:
36,192,152650,1,0,0:0:0:0:
329,192,152650,1,0,0:0:0:0:
402,192,152650,1,0,0:0:0:0:
36,192,152786,1,0,0:0:0:0:
109,192,152786,1,0,0:0:0:0:
256,192,152786,1,0,0:0:0:0:
475,192,152786,1,0,0:0:0:0:
182,192,152922,1,0,0:0:0:0:
329,192,152922,1,0,0:0:0:0:
475,192,152922,1,0,0:0:0:0:
109,192,153059,1,0,0:0:0:0:
36,192,153059,1,0,0:0:0:0:
256,192,153059,1,0,0:0:0:0:
329,192,153059,1,0,0:0:0:0:
402,192,153195,1,0,0:0:0:0:
475,192,153195,1,0,0:0:0:0:
182,192,153195,1,0,0:0:0:0:
329,192,153263,1,0,0:0:0:0:
109,192,153263,1,0,0:0:0:0:
36,192,153331,1,0,0:0:0:0:
256,192,153331,1,0,0:0:0:0:
475,192,153331,1,0,0:0:0:0:
402,192,153331,1,0,0:0:0:0:
109,192,153400,1,0,0:0:0:0:
329,192,153400,1,0,0:0:0:0:
182,192,153468,1,0,0:0:0:0:
475,192,153468,1,0,0:0:0:0:
402,192,153536,1,0,0:0:0:0:
256,192,153536,1,0,0:0:0:0:
36,192,153604,1,0,0:0:0:0:
109,192,153604,1,0,0:0:0:0:
182,192,153604,1,0,0:0:0:0:
329,192,153604,1,0,0:0:0:0:
36,192,153740,1,0,0:0:0:0:
256,192,153740,1,0,0:0:0:0:
402,192,153740,1,0,0:0:0:0:
109,192,153877,1,0,0:0:0:0:
182,192,153877,1,0,0:0:0:0:
329,192,153877,1,0,0:0:0:0:
402,192,153877,1,0,0:0:0:0:
182,192,154013,1,0,0:0:0:0:
256,192,154013,1,0,0:0:0:0:
475,192,154013,1,0,0:0:0:0:
36,192,154150,1,0,0:0:0:0:
109,192,154150,1,0,0:0:0:0:
329,192,154150,1,0,0:0:0:0:
475,192,154150,1,0,0:0:0:0:
36,192,154286,1,0,0:0:0:0:
256,192,154286,1,0,0:0:0:0:
402,192,154286,1,0,0:0:0:0:
109,192,154422,1,0,0:0:0:0:
182,192,154422,1,0,0:0:0:0:
475,192,154422,1,0,0:0:0:0:
402,192,154422,1,0,0:0:0:0:
36,192,154559,1,0,0:0:0:0:
256,192,154559,1,0,0:0:0:0:
329,192,154559,1,0,0:0:0:0:
182,192,154695,1,0,0:0:0:0:
329,192,154695,1,0,0:0:0:0:
402,192,154695,1,0,0:0:0:0:
475,192,154695,1,0,0:0:0:0:
256,192,154831,1,0,0:0:0:0:
402,192,154831,1,0,0:0:0:0:
109,192,154831,1,0,0:0:0:0:
36,192,154968,1,0,0:0:0:0:
109,192,154968,1,0,0:0:0:0:
256,192,154968,1,0,0:0:0:0:
329,192,154968,1,0,0:0:0:0:
109,192,155104,1,0,0:0:0:0:
329,192,155104,1,0,0:0:0:0:
475,192,155104,1,0,0:0:0:0:
36,192,155240,1,0,0:0:0:0:
182,192,155240,1,0,0:0:0:0:
402,192,155240,1,0,0:0:0:0:
475,192,155240,1,0,0:0:0:0:
109,192,155377,1,0,0:0:0:0:
256,192,155377,1,0,0:0:0:0:
475,192,155377,1,0,0:0:0:0:
109,192,155445,1,0,0:0:0:0:
329,192,155513,1,0,0:0:0:0:
402,192,155513,1,0,0:0:0:0:
182,192,155513,1,0,0:0:0:0:
475,192,155513,1,0,0:0:0:0:
402,192,155650,1,0,0:0:0:0:
256,192,155650,1,0,0:0:0:0:
36,192,155650,1,0,0:0:0:0:
402,192,155718,1,0,0:0:0:0:
36,192,155786,1,0,0:0:0:0:
182,192,155786,1,0,0:0:0:0:
329,192,155786,1,0,0:0:0:0:
109,192,155786,1,0,0:0:0:0:
36,192,155922,1,0,0:0:0:0:
256,192,155922,1,0,0:0:0:0:
475,192,155922,1,0,0:0:0:0:
109,192,156059,1,0,0:0:0:0:
182,192,156059,1,0,0:0:0:0:
329,192,156059,1,0,0:0:0:0:
475,192,156059,1,0,0:0:0:0:
36,192,156195,1,0,0:0:0:0:
256,192,156195,1,0,0:0:0:0:
475,192,156195,1,0,0:0:0:0:
36,192,156331,1,0,0:0:0:0:
182,192,156331,1,0,0:0:0:0:
329,192,156331,1,0,0:0:0:0:
402,192,156331,1,0,0:0:0:0:
256,192,156468,1,0,0:0:0:0:
182,192,156468,1,0,0:0:0:0:
475,192,156468,1,0,0:0:0:0:
36,192,156604,1,0,0:0:0:0:
109,192,156604,1,0,0:0:0:0:
329,192,156604,1,0,0:0:0:0:
475,192,156604,1,0,0:0:0:0:
36,192,156740,1,0,0:0:0:0:
256,192,156740,1,0,0:0:0:0:
402,192,156740,1,0,0:0:0:0:
329,192,156809,1,0,0:0:0:0:
109,192,156877,1,0,0:0:0:0:
475,192,156877,1,0,0:0:0:0:
402,192,156877,1,0,0:0:0:0:
182,192,156877,1,0,0:0:0:0:
36,192,157013,1,0,0:0:0:0:
475,192,157013,1,0,0:0:0:0:
256,192,157013,1,0,0:0:0:0:
36,192,157150,1,0,0:0:0:0:
109,192,157150,1,0,0:0:0:0:
256,192,157150,1,0,0:0:0:0:
402,192,157150,1,0,0:0:0:0:
182,192,157286,1,0,0:0:0:0:
329,192,157286,1,0,0:0:0:0:
475,192,157286,1,0,0:0:0:0:
109,192,157422,1,0,0:0:0:0:
256,192,157422,1,0,0:0:0:0:
402,192,157422,1,0,0:0:0:0:
475,192,157422,1,0,0:0:0:0:
36,192,157559,1,0,0:0:0:0:
182,192,157559,1,0,0:0:0:0:
329,192,157559,1,0,0:0:0:0:
109,192,157627,1,0,0:0:0:0:
256,192,157627,1,0,0:0:0:0:
402,192,157695,1,0,0:0:0:0:
475,192,157695,1,0,0:0:0:0:
182,192,157695,1,0,0:0:0:0:
329,192,157695,1,0,0:0:0:0:
36,192,157763,1,0,0:0:0:0:
109,192,157763,1,0,0:0:0:0:
256,192,157831,1,0,0:0:0:0:
402,192,157831,1,0,0:0:0:0:
475,192,157831,1,0,0:0:0:0:
182,192,157900,1,0,0:0:0:0:
329,192,157900,1,0,0:0:0:0:
36,192,157968,1,0,0:0:0:0:
109,192,157968,1,0,0:0:0:0:
256,192,157968,1,0,0:0:0:0:
475,192,157968,1,0,0:0:0:0:
36,192,158104,1,0,0:0:0:0:
182,192,158104,1,0,0:0:0:0:
402,192,158104,1,0,0:0:0:0:
36,192,158240,1,0,0:0:0:0:
109,192,158240,1,0,0:0:0:0:
329,192,158240,1,0,0:0:0:0:
475,192,158240,1,0,0:0:0:0:
256,192,158286,1,0,0:0:0:0:
182,192,158331,1,0,0:0:0:0:
402,192,158377,1,0,0:0:0:0:
475,192,158377,1,0,0:0:0:0:
109,192,158377,1,0,0:0:0:0:
329,192,158445,1,0,0:0:0:0:
36,192,158513,1,0,0:0:0:0:
182,192,158513,1,0,0:0:0:0:
256,192,158513,1,0,0:0:0:0:
475,192,158581,1,0,0:0:0:0:
109,192,158650,1,0,0:0:0:0:
329,192,158650,1,0,0:0:0:0:
402,192,158650,1,0,0:0:0:0:
256,192,158718,1,0,0:0:0:0:
475,192,158786,1,0,0:0:0:0:
36,192,158786,1,0,0:0:0:0:
182,192,158786,1,0,0:0:0:0:
402,192,158831,1,0,0:0:0:0:
329,192,158877,1,0,0:0:0:0:
256,192,158922,1,0,0:0:0:0:
475,192,158922,1,0,0:0:0:0:
109,192,158922,1,0,0:0:0:0:
182,192,158990,1,0,0:0:0:0:
329,192,159059,1,0,0:0:0:0:
402,192,159059,1,0,0:0:0:0:
36,192,159059,1,0,0:0:0:0:
256,192,159127,1,0,0:0:0:0:
475,192,159195,1,0,0:0:0:0:
182,192,159195,1,0,0:0:0:0:
109,192,159195,1,0,0:0:0:0:
402,192,159263,1,0,0:0:0:0:
329,192,159331,1,0,0:0:0:0:
109,192,159331,1,0,0:0:0:0:
36,192,159331,1,0,0:0:0:0:
256,192,159377,1,0,0:0:0:0:
182,192,159422,1,0,0:0:0:0:
36,192,159468,1,0,0:0:0:0:
402,192,159468,1,0,0:0:0:0:
475,192,159468,1,0,0:0:0:0:
329,192,159536,1,0,0:0:0:0:
109,192,159604,1,0,0:0:0:0:
256,192,159604,1,0,0:0:0:0:
182,192,159604,1,0,0:0:0:0:
475,192,159672,1,0,0:0:0:0:
329,192,159740,1,0,0:0:0:0:
36,192,159740,1,0,0:0:0:0:
402,192,159740,1,0,0:0:0:0:
182,192,159809,1,0,0:0:0:0:
256,192,159877,1,0,0:0:0:0:
475,192,159877,1,0,0:0:0:0:
109,192,159877,1,0,0:0:0:0:
402,192,159922,1,0,0:0:0:0:
329,192,159968,1,0,0:0:0:0:
182,192,160013,1,0,0:0:0:0:
36,192,160013,1,0,0:0:0:0:
475,192,160013,1,0,0:0:0:0:
256,192,160081,1,0,0:0:0:0:
329,192,160150,1,0,0:0:0:0:
402,192,160150,1,0,0:0:0:0:
109,192,160150,1,0,0:0:0:0:
182,192,160218,1,0,0:0:0:0:
475,192,160286,1,0,0:0:0:0:
36,192,160286,1,0,0:0:0:0:
256,192,160286,1,0,0:0:0:0:
402,192,160354,1,0,0:0:0:0:
109,192,160422,1,0,0:0:0:0:
182,192,160422,1,0,0:0:0:0:
329,192,160422,1,0,0:0:0:0:
475,192,160468,1,0,0:0:0:0:
402,192,160513,1,0,0:0:0:0:
256,192,160559,1,0,0:0:0:0:
36,192,160559,1,0,0:0:0:0:
109,192,160559,1,0,0:0:0:0:
329,192,160627,1,0,0:0:0:0:
402,192,160695,1,0,0:0:0:0:
475,192,160695,1,0,0:0:0:0:
182,192,160695,1,0,0:0:0:0:
36,192,160763,1,0,0:0:0:0:
109,192,160831,1,0,0:0:0:0:
256,192,160831,1,0,0:0:0:0:
329,192,160831,1,0,0:0:0:0:
475,192,160900,1,0,0:0:0:0:
402,192,160968,1,0,0:0:0:0:
36,192,160968,1,0,0:0:0:0:
182,192,160968,1,0,0:0:0:0:
329,192,161013,1,0,0:0:0:0:
256,192,161059,1,0,0:0:0:0:
402,192,161104,1,0,0:0:0:0:
475,192,161104,1,0,0:0:0:0:
109,192,161104,1,0,0:0:0:0:
182,192,161172,1,0,0:0:0:0:
256,192,161240,1,0,0:0:0:0:
329,192,161240,1,0,0:0:0:0:
36,192,161240,1,0,0:0:0:0:
475,192,161309,1,0,0:0:0:0:
402,192,161377,1,0,0:0:0:0:
109,192,161377,1,0,0:0:0:0:
182,192,161377,1,0,0:0:0:0:
256,192,161445,1,0,0:0:0:0:
329,192,161513,1,0,0:0:0:0:
475,192,161513,1,0,0:0:0:0:
36,192,161513,1,0,0:0:0:0:
109,192,161559,1,0,0:0:0:0:
182,192,161604,1,0,0:0:0:0:
256,192,161650,1,0,0:0:0:0:
402,192,161650,1,0,0:0:0:0:
475,192,161650,1,0,0:0:0:0:
36,192,161718,1,0,0:0:0:0:
109,192,161786,1,0,0:0:0:0:
182,192,161786,1,0,0:0:0:0:
329,192,161786,1,0,0:0:0:0:
475,192,161854,1,0,0:0:0:0:
402,192,161922,1,0,0:0:0:0:
256,192,161922,1,0,0:0:0:0:
36,192,161922,1,0,0:0:0:0:
182,192,161990,1,0,0:0:0:0:
329,192,162059,1,0,0:0:0:0:
475,192,162059,1,0,0:0:0:0:
109,192,162059,1,0,0:0:0:0:
256,192,162104,1,0,0:0:0:0:
182,192,162150,1,0,0:0:0:0:
402,192,162195,1,0,0:0:0:0:
36,192,162195,1,0,0:0:0:0:
475,192,162195,1,0,0:0:0:0:
329,192,162263,1,0,0:0:0:0:
109,192,162331,1,0,0:0:0:0:
256,192,162331,1,0,0:0:0:0:
182,192,162331,1,0,0:0:0:0:
475,192,162400,1,0,0:0:0:0:
402,192,162468,1,0,0:0:0:0:
329,192,162468,1,0,0:0:0:0:
36,192,162468,1,0,0:0:0:0:
182,192,162536,1,0,0:0:0:0:
109,192,162604,1,0,0:0:0:0:
256,192,162604,1,0,0:0:0:0:
475,192,162604,1,0,0:0:0:0:
36,192,162604,1,0,0:0:0:0:
402,192,162672,1,0,0:0:0:0:
329,192,162672,1,0,0:0:0:0:
109,192,162740,1,0,0:0:0:0:
182,192,162740,1,0,0:0:0:0:
402,192,162809,1,0,0:0:0:0:
475,192,162809,1,0,0:0:0:0:
36,192,162877,1,0,0:0:0:0:
109,192,162877,1,0,0:0:0:0:
256,192,162877,1,0,0:0:0:0:
329,192,162877,1,0,0:0:0:0:
402,192,162945,1,0,0:0:0:0:
475,192,162945,1,0,0:0:0:0:
182,192,163013,1,0,0:0:0:0:
329,192,163013,1,0,0:0:0:0:
36,192,163081,1,0,0:0:0:0:
109,192,163081,1,0,0:0:0:0:
182,192,163150,1,0,0:0:0:0:
256,192,163150,1,0,0:0:0:0:
402,192,163150,1,0,0:0:0:0:
475,192,163150,1,0,0:0:0:0:
36,192,163218,1,0,0:0:0:0:
109,192,163218,1,0,0:0:0:0:
182,192,163286,1,0,0:0:0:0:
475,192,163286,1,0,0:0:0:0:
329,192,163354,1,0,0:0:0:0:
402,192,163354,1,0,0:0:0:0:
36,192,163422,1,0,0:0:0:0:
109,192,163422,1,0,0:0:0:0:
256,192,163422,1,0,0:0:0:0:
182,192,163422,1,0,0:0:0:0:
475,192,163490,1,0,0:0:0:0:
402,192,163490,1,0,0:0:0:0:
329,192,163559,1,0,0:0:0:0:
36,192,163559,1,0,0:0:0:0:
109,192,163559,1,0,0:0:0:0:
182,192,163627,1,0,0:0:0:0:
36,192,163695,1,0,0:0:0:0:
109,192,163695,1,0,0:0:0:0:
256,192,163695,1,0,0:0:0:0:
475,192,163695,1,0,0:0:0:0:
329,192,163763,1,0,0:0:0:0:
402,192,163763,1,0,0:0:0:0:
256,192,163831,1,0,0:0:0:0:
182,192,163831,1,0,0:0:0:0:
402,192,163900,1,0,0:0:0:0:
475,192,163900,1,0,0:0:0:0:
36,192,163968,1,0,0:0:0:0:
109,192,163968,1,0,0:0:0:0:
182,192,163968,1,0,0:0:0:0:
329,192,163968,1,0,0:0:0:0:
402,192,164036,1,0,0:0:0:0:
475,192,164036,1,0,0:0:0:0:
256,192,164104,1,0,0:0:0:0:
182,192,164104,1,0,0:0:0:0:
36,192,164172,1,0,0:0:0:0:
109,192,164172,1,0,0:0:0:0:
329,192,164240,1,0,0:0:0:0:
256,192,164240,1,0,0:0:0:0:
402,192,164240,1,0,0:0:0:0:
475,192,164240,1,0,0:0:0:0:
182,192,164309,1,0,0:0:0:0:
109,192,164309,1,0,0:0:0:0:
329,192,164377,1,0,0:0:0:0:
402,192,164377,1,0,0:0:0:0:
109,192,164445,1,0,0:0:0:0:
36,192,164445,1,0,0:0:0:0:
256,192,164513,1,0,0:0:0:0:
402,192,164513,1,0,0:0:0:0:
475,192,164513,1,0,0:0:0:0:
182,192,164513,1,0,0:0:0:0:
109,192,164581,1,0,0:0:0:0:
36,192,164581,1,0,0:0:0:0:
329,192,164650,1,0,0:0:0:0:
402,192,164650,1,0,0:0:0:0:
182,192,164718,1,0,0:0:0:0:
109,192,164718,1,0,0:0:0:0:
36,192,164786,1,0,0:0:0:0:
329,192,164786,1,0,0:0:0:0:
402,192,164786,1,0,0:0:0:0:
475,192,164786,1,0,0:0:0:0:
109,192,164854,1,0,0:0:0:0:
182,192,164854,1,0,0:0:0:0:
256,192,164854,1,0,0:0:0:0:
329,192,164922,1,0,0:0:0:0:
402,192,164922,1,0,0:0:0:0:
475,192,164922,1,0,0:0:0:0:
109,192,164990,1,0,0:0:0:0:
182,192,164990,1,0,0:0:0:0:
256,192,164990,1,0,0:0:0:0:
329,192,165059,1,0,0:0:0:0:
402,192,165059,1,0,0:0:0:0:
475,192,165059,1,0,0:0:0:0:
36,192,165127,1,0,0:0:0:0:
109,192,165127,1,0,0:0:0:0:
182,192,165127,1,0,0:0:0:0:
329,192,165195,1,0,0:0:0:0:
402,192,165195,1,0,0:0:0:0:
475,192,165195,1,0,0:0:0:0:
36,192,165263,1,0,0:0:0:0:
109,192,165263,1,0,0:0:0:0:
182,192,165263,1,0,0:0:0:0:
402,192,165331,1,0,0:0:0:0:
475,192,165331,1,0,0:0:0:0:
329,192,165365,1,0,0:0:0:0:
256,192,165400,1,0,0:0:0:0:
36,192,165400,1,0,0:0:0:0:
109,192,165434,1,0,0:0:0:0:
182,192,165468,1,0,0:0:0:0:
475,192,165468,1,0,0:0:0:0:
402,192,165502,1,0,0:0:0:0:
329,192,165536,1,0,0:0:0:0:
36,192,165536,1,0,0:0:0:0:
109,192,165570,1,0,0:0:0:0:
182,192,165604,1,0,0:0:0:0:
475,192,165604,1,0,0:0:0:0:
402,192,165638,1,0,0:0:0:0:
329,192,165672,1,0,0:0:0:0:
256,192,165706,1,0,0:0:0:0:
182,192,165740,1,0,0:0:0:0:
109,192,165775,1,0,0:0:0:0:
36,192,165809,1,0,0:0:0:0:
402,192,165809,1,0,0:0:0:0:
329,192,165843,1,0,0:0:0:0:
256,192,165877,1,0,0:0:0:0:
182,192,165877,1,0,0:0:0:0:
36,192,166559,1,0,0:0:0:0:
475,192,166559,1,0,0:0:0:0:
475,192,166695,1,0,0:0:0:0:
36,192,166695,1,0,0:0:0:0:
36,192,166968,1,0,0:0:0:0:
109,192,166968,1,0,0:0:0:0:
256,192,166968,1,0,0:0:0:0:
475,192,166968,1,0,0:0:0:0:
402,192,166968,1,0,0:0:0:0:
182,192,167036,1,0,0:0:0:0:
329,192,167036,1,0,0:0:0:0:
109,192,167104,1,0,0:0:0:0:
475,192,167104,1,0,0:0:0:0:
256,192,167172,1,0,0:0:0:0:
402,192,167172,1,0,0:0:0:0:
36,192,167240,1,0,0:0:0:0:
182,192,167240,1,0,0:0:0:0:
329,192,167240,1,0,0:0:0:0:
402,192,167309,1,0,0:0:0:0:
475,192,167309,1,0,0:0:0:0:
256,192,167377,1,0,0:0:0:0:
36,192,167377,1,0,0:0:0:0:
109,192,167377,1,0,0:0:0:0:
182,192,167445,1,0,0:0:0:0:
329,192,167445,1,0,0:0:0:0:
475,192,167445,1,0,0:0:0:0:
109,192,167513,1,0,0:0:0:0:
402,192,167513,1,0,0:0:0:0:
256,192,167513,1,0,0:0:0:0:
329,192,167581,1,0,0:0:0:0:
182,192,167581,1,0,0:0:0:0:
36,192,167650,1,0,0:0:0:0:
475,192,167650,1,0,0:0:0:0:
109,192,167650,1,0,0:0:0:0:
256,192,167718,1,0,0:0:0:0:
402,192,167718,1,0,0:0:0:0:
182,192,167786,1,0,0:0:0:0:
329,192,167786,1,0,0:0:0:0:
402,192,167854,1,0,0:0:0:0:
475,192,167854,1,0,0:0:0:0:
36,192,167922,1,0,0:0:0:0:
109,192,167922,1,0,0:0:0:0:
256,192,167922,1,0,0:0:0:0:
182,192,167990,1,0,0:0:0:0:
329,192,167990,1,0,0:0:0:0:
109,192,168059,1,0,0:0:0:0:
402,192,168059,1,0,0:0:0:0:
475,192,168059,1,0,0:0:0:0:
182,192,168127,1,0,0:0:0:0:
256,192,168127,1,0,0:0:0:0:
329,192,168127,1,0,0:0:0:0:
36,192,168195,1,0,0:0:0:0:
109,192,168195,1,0,0:0:0:0:
475,192,168195,1,0,0:0:0:0:
329,192,168263,1,0,0:0:0:0:
402,192,168263,1,0,0:0:0:0:
182,192,168331,1,0,0:0:0:0:
36,192,168331,1,0,0:0:0:0:
256,192,168331,1,0,0:0:0:0:
402,192,168400,1,0,0:0:0:0:
475,192,168400,1,0,0:0:0:0:
109,192,168400,1,0,0:0:0:0:
256,192,168468,1,0,0:0:0:0:
329,192,168468,1,0,0:0:0:0:
36,192,168468,1,0,0:0:0:0:
475,192,168536,1,0,0:0:0:0:
182,192,168536,1,0,0:0:0:0:
329,192,168604,1,0,0:0:0:0:
402,192,168604,1,0,0:0:0:0:
36,192,168672,1,0,0:0:0:0:
109,192,168672,1,0,0:0:0:0:
329,192,168740,1,0,0:0:0:0:
475,192,168740,1,0,0:0:0:0:
182,192,168740,1,0,0:0:0:0:
36,192,168809,1,0,0:0:0:0:
109,192,168809,1,0,0:0:0:0:
256,192,168877,1,0,0:0:0:0:
402,192,168877,1,0,0:0:0:0:
475,192,168877,1,0,0:0:0:0:
182,192,168945,1,0,0:0:0:0:
329,192,168945,1,0,0:0:0:0:
109,192,169013,1,0,0:0:0:0:
256,192,169013,1,0,0:0:0:0:
36,192,169081,1,0,0:0:0:0:
182,192,169081,1,0,0:0:0:0:
329,192,169150,1,0,0:0:0:0:
402,192,169150,1,0,0:0:0:0:
475,192,169150,1,0,0:0:0:0:
256,192,169150,1,0,0:0:0:0:
36,192,169218,1,0,0:0:0:0:
109,192,169218,1,0,0:0:0:0:
329,192,169286,1,0,0:0:0:0:
475,192,169286,1,0,0:0:0:0:
182,192,169354,1,0,0:0:0:0:
256,192,169354,1,0,0:0:0:0:
36,192,169422,1,0,0:0:0:0:
109,192,169422,1,0,0:0:0:0:
329,192,169422,1,0,0:0:0:0:
402,192,169490,1,0,0:0:0:0:
475,192,169490,1,0,0:0:0:0:
36,192,169559,1,0,0:0:0:0:
109,192,169559,1,0,0:0:0:0:
329,192,169559,1,0,0:0:0:0:
182,192,169627,1,0,0:0:0:0:
256,192,169627,1,0,0:0:0:0:
402,192,169627,1,0,0:0:0:0:
36,192,169695,1,0,0:0:0:0:
109,192,169695,1,0,0:0:0:0:
475,192,169695,1,0,0:0:0:0:
256,192,169763,1,0,0:0:0:0:
329,192,169763,1,0,0:0:0:0:
36,192,169831,1,0,0:0:0:0:
402,192,169831,1,0,0:0:0:0:
475,192,169831,1,0,0:0:0:0:
109,192,169900,1,0,0:0:0:0:
329,192,169900,1,0,0:0:0:0:
182,192,169968,1,0,0:0:0:0:
256,192,169968,1,0,0:0:0:0:
36,192,170036,1,0,0:0:0:0:
329,192,170036,1,0,0:0:0:0:
402,192,170104,1,0,0:0:0:0:
475,192,170104,1,0,0:0:0:0:
109,192,170104,1,0,0:0:0:0:
182,192,170172,1,0,0:0:0:0:
256,192,170172,1,0,0:0:0:0:
36,192,170240,1,0,0:0:0:0:
402,192,170240,1,0,0:0:0:0:
475,192,170240,1,0,0:0:0:0:
182,192,170309,1,0,0:0:0:0:
256,192,170309,1,0,0:0:0:0:
329,192,170309,1,0,0:0:0:0:
36,192,170377,1,0,0:0:0:0:
109,192,170377,1,0,0:0:0:0:
475,192,170377,1,0,0:0:0:0:
329,192,170445,1,0,0:0:0:0:
402,192,170445,1,0,0:0:0:0:
475,192,170513,1,0,0:0:0:0:
182,192,170513,1,0,0:0:0:0:
256,192,170513,1,0,0:0:0:0:
402,192,170581,1,0,0:0:0:0:
109,192,170581,1,0,0:0:0:0:
36,192,170581,1,0,0:0:0:0:
329,192,170650,1,0,0:0:0:0:
256,192,170650,1,0,0:0:0:0:
182,192,170650,1,0,0:0:0:0:
475,192,170718,1,0,0:0:0:0:
402,192,170718,1,0,0:0:0:0:
36,192,170786,1,0,0:0:0:0:
109,192,170786,1,0,0:0:0:0:
182,192,170786,1,0,0:0:0:0:
329,192,170786,1,0,0:0:0:0:
256,192,170786,1,0,0:0:0:0:
475,192,170854,1,0,0:0:0:0:
329,192,170922,1,0,0:0:0:0:
36,192,170968,1,0,0:0:0:0:
109,192,170968,1,0,0:0:0:0:
182,192,170968,1,0,0:0:0:0:
475,192,170990,1,0,0:0:0:0:
329,192,171059,1,0,0:0:0:0:
475,192,171127,1,0,0:0:0:0:
36,192,171150,1,0,0:0:0:0:
109,192,171150,1,0,0:0:0:0:
182,192,171150,1,0,0:0:0:0:
329,192,171195,1,0,0:0:0:0:
475,192,171263,1,0,0:0:0:0:
36,192,171331,1,0,0:0:0:0:
109,192,171331,1,0,0:0:0:0:
256,192,171331,1,0,0:0:0:0:
329,192,171331,1,0,0:0:0:0:
402,192,171331,1,0,0:0:0:0:
182,192,171400,1,0,0:0:0:0:
475,192,171400,1,0,0:0:0:0:
109,192,171468,1,0,0:0:0:0:
402,192,171468,1,0,0:0:0:0:
329,192,171536,1,0,0:0:0:0:
256,192,171536,1,0,0:0:0:0:
36,192,171604,1,0,0:0:0:0:
182,192,171604,1,0,0:0:0:0:
475,192,171604,1,0,0:0:0:0:
329,192,171672,1,0,0:0:0:0:
402,192,171672,1,0,0:0:0:0:
109,192,171740,1,0,0:0:0:0:
36,192,171740,1,0,0:0:0:0:
256,192,171740,1,0,0:0:0:0:
402,192,171809,1,0,0:0:0:0:
475,192,171809,1,0,0:0:0:0:
182,192,171809,1,0,0:0:0:0:
36,192,171877,1,0,0:0:0:0:
109,192,171877,1,0,0:0:0:0:
329,192,171877,1,0,0:0:0:0:
256,192,171945,1,0,0:0:0:0:
475,192,171945,1,0,0:0:0:0:
109,192,172013,1,0,0:0:0:0:
182,192,172013,1,0,0:0:0:0:
402,192,172013,1,0,0:0:0:0:
329,192,172081,1,0,0:0:0:0:
36,192,172081,1,0,0:0:0:0:
475,192,172150,1,0,0:0:0:0:
182,192,172150,1,0,0:0:0:0:
402,192,172218,1,0,0:0:0:0:
256,192,172218,1,0,0:0:0:0:
36,192,172286,1,0,0:0:0:0:
109,192,172286,1,0,0:0:0:0:
329,192,172286,1,0,0:0:0:0:
182,192,172354,1,0,0:0:0:0:
475,192,172354,1,0,0:0:0:0:
256,192,172422,1,0,0:0:0:0:
402,192,172422,1,0,0:0:0:0:
36,192,172422,1,0,0:0:0:0:
109,192,172490,1,0,0:0:0:0:
182,192,172490,1,0,0:0:0:0:
329,192,172490,1,0,0:0:0:0:
402,192,172559,1,0,0:0:0:0:
475,192,172559,1,0,0:0:0:0:
36,192,172559,1,0,0:0:0:0:
256,192,172627,1,0,0:0:0:0:
329,192,172627,1,0,0:0:0:0:
475,192,172695,1,0,0:0:0:0:
109,192,172695,1,0,0:0:0:0:
182,192,172695,1,0,0:0:0:0:
329,192,172763,1,0,0:0:0:0:
402,192,172763,1,0,0:0:0:0:
256,192,172763,1,0,0:0:0:0:
36,192,172831,1,0,0:0:0:0:
109,192,172831,1,0,0:0:0:0:
182,192,172831,1,0,0:0:0:0:
475,192,172900,1,0,0:0:0:0:
402,192,172900,1,0,0:0:0:0:
109,192,172968,1,0,0:0:0:0:
256,192,172968,1,0,0:0:0:0:
182,192,173036,1,0,0:0:0:0:
329,192,173036,1,0,0:0:0:0:
402,192,173104,1,0,0:0:0:0:
36,192,173104,1,0,0:0:0:0:
475,192,173104,1,0,0:0:0:0:
109,192,173172,1,0,0:0:0:0:
256,192,173172,1,0,0:0:0:0:
182,192,173240,1,0,0:0:0:0:
329,192,173240,1,0,0:0:0:0:
475,192,173240,128,0,173513:0:0:0:0:
256,192,173309,1,0,0:0:0:0:
109,192,173309,1,0,0:0:0:0:
36,192,173377,1,0,0:0:0:0:
182,192,173377,1,0,0:0:0:0:
329,192,173445,1,0,0:0:0:0:
109,192,173513,1,0,0:0:0:0:
36,192,173513,1,0,0:0:0:0:
256,192,173513,1,0,0:0:0:0:
402,192,173513,1,0,0:0:0:0:
329,192,173581,1,0,0:0:0:0:
402,192,173650,1,0,0:0:0:0:
36,192,173650,1,0,0:0:0:0:
182,192,173650,1,0,0:0:0:0:
329,192,173718,1,0,0:0:0:0:
402,192,173786,1,0,0:0:0:0:
475,192,173786,1,0,0:0:0:0:
36,192,173786,1,0,0:0:0:0:
182,192,173786,1,0,0:0:0:0:
329,192,173854,1,0,0:0:0:0:
402,192,173922,1,0,0:0:0:0:
329,192,173990,1,0,0:0:0:0:
402,192,174059,1,0,0:0:0:0:
36,192,174059,1,0,0:0:0:0:
109,192,174059,1,0,0:0:0:0:
256,192,174059,1,0,0:0:0:0:
329,192,174127,1,0,0:0:0:0:
402,192,174195,1,0,0:0:0:0:
109,192,174195,1,0,0:0:0:0:
182,192,174195,1,0,0:0:0:0:
329,192,174263,1,0,0:0:0:0:
402,192,174331,1,0,0:0:0:0:
36,192,174331,1,0,0:0:0:0:
109,192,174331,1,0,0:0:0:0:
475,192,174331,1,0,0:0:0:0:
329,192,174400,1,0,0:0:0:0:
402,192,174468,1,0,0:0:0:0:
36,192,174468,1,0,0:0:0:0:
182,192,174468,1,0,0:0:0:0:
329,192,174536,1,0,0:0:0:0:
402,192,174604,1,0,0:0:0:0:
109,192,174604,1,0,0:0:0:0:
182,192,174604,1,0,0:0:0:0:
329,192,174672,1,0,0:0:0:0:
402,192,174740,1,0,0:0:0:0:
182,192,174740,1,0,0:0:0:0:
36,192,174740,1,0,0:0:0:0:
329,192,174809,1,0,0:0:0:0:
402,192,174877,1,0,0:0:0:0:
36,192,174877,1,0,0:0:0:0:
182,192,174877,1,0,0:0:0:0:
475,192,174877,1,0,0:0:0:0:
329,192,174945,1,0,0:0:0:0:
256,192,174945,1,0,0:0:0:0:
402,192,175013,1,0,0:0:0:0:
109,192,175013,1,0,0:0:0:0:
182,192,175013,1,0,0:0:0:0:
475,192,175013,1,0,0:0:0:0:
36,192,175150,1,0,0:0:0:0:
109,192,175150,1,0,0:0:0:0:
256,192,175150,1,0,0:0:0:0:
109,192,175286,1,0,0:0:0:0:
182,192,175286,1,0,0:0:0:0:
329,192,175286,1,0,0:0:0:0:
182,192,175422,1,0,0:0:0:0:
256,192,175422,1,0,0:0:0:0:
402,192,175422,128,0,175695:0:0:0:0:
182,192,175559,1,0,0:0:0:0:
109,192,175559,1,0,0:0:0:0:
36,192,175695,1,0,0:0:0:0:
109,192,175695,1,0,0:0:0:0:
329,192,175695,1,0,0:0:0:0:
475,192,175695,1,0,0:0:0:0:
256,192,175695,128,0,175968:0:0:0:0:
36,192,175968,1,0,0:0:0:0:
109,192,175968,1,0,0:0:0:0:
475,192,175968,1,0,0:0:0:0:
109,192,176104,1,0,0:0:0:0:
182,192,176104,1,0,0:0:0:0:
329,192,176104,1,0,0:0:0:0:
402,192,176104,1,0,0:0:0:0:
182,192,176240,1,0,0:0:0:0:
256,192,176240,1,0,0:0:0:0:
402,192,176240,1,0,0:0:0:0:
329,192,176240,128,0,176513:0:0:0:0:
36,192,176513,1,0,0:0:0:0:
109,192,176513,1,0,0:0:0:0:
256,192,176513,1,0,0:0:0:0:
475,192,176513,1,0,0:0:0:0:
402,192,176513,1,0,0:0:0:0:
182,192,176581,1,0,0:0:0:0:
329,192,176581,1,0,0:0:0:0:
256,192,176650,1,0,0:0:0:0:
475,192,176650,1,0,0:0:0:0:
402,192,176718,1,0,0:0:0:0:
182,192,176718,1,0,0:0:0:0:
36,192,176786,1,0,0:0:0:0:
109,192,176786,1,0,0:0:0:0:
329,192,176786,1,0,0:0:0:0:
182,192,176854,1,0,0:0:0:0:
256,192,176854,1,0,0:0:0:0:
402,192,176854,1,0,0:0:0:0:
36,192,176922,1,0,0:0:0:0:
109,192,176922,1,0,0:0:0:0:
329,192,176922,1,0,0:0:0:0:
475,192,176990,1,0,0:0:0:0:
182,192,176990,1,0,0:0:0:0:
329,192,177059,1,0,0:0:0:0:
402,192,177059,1,0,0:0:0:0:
256,192,177059,1,0,0:0:0:0:
36,192,177127,1,0,0:0:0:0:
109,192,177127,1,0,0:0:0:0:
475,192,177127,1,0,0:0:0:0:
182,192,177195,1,0,0:0:0:0:
256,192,177195,1,0,0:0:0:0:
329,192,177195,1,0,0:0:0:0:
402,192,177263,1,0,0:0:0:0:
475,192,177263,1,0,0:0:0:0:
109,192,177331,1,0,0:0:0:0:
36,192,177331,1,0,0:0:0:0:
182,192,177400,1,0,0:0:0:0:
329,192,177400,1,0,0:0:0:0:
402,192,177468,1,0,0:0:0:0:
256,192,177468,1,0,0:0:0:0:
36,192,177468,1,0,0:0:0:0:
182,192,177536,1,0,0:0:0:0:
109,192,177604,1,0,0:0:0:0:
329,192,177604,1,0,0:0:0:0:
475,192,177604,1,0,0:0:0:0:
256,192,177672,1,0,0:0:0:0:
402,192,177672,1,0,0:0:0:0:
182,192,177740,1,0,0:0:0:0:
329,192,177740,1,0,0:0:0:0:
109,192,177809,1,0,0:0:0:0:
256,192,177809,1,0,0:0:0:0:
182,192,177877,1,0,0:0:0:0:
36,192,177877,1,0,0:0:0:0:
402,192,177877,1,0,0:0:0:0:
475,192,177877,1,0,0:0:0:0:
329,192,177945,1,0,0:0:0:0:
256,192,177945,1,0,0:0:0:0:
36,192,178013,1,0,0:0:0:0:
475,192,178013,1,0,0:0:0:0:
182,192,178081,1,0,0:0:0:0:
109,192,178081,1,0,0:0:0:0:
329,192,178150,1,0,0:0:0:0:
402,192,178150,1,0,0:0:0:0:
256,192,178150,1,0,0:0:0:0:
109,192,178218,1,0,0:0:0:0:
36,192,178218,1,0,0:0:0:0:
182,192,178286,1,0,0:0:0:0:
402,192,178286,1,0,0:0:0:0:
475,192,178286,1,0,0:0:0:0:
329,192,178354,1,0,0:0:0:0:
109,192,178354,1,0,0:0:0:0:
36,192,178354,1,0,0:0:0:0:
475,192,178422,1,0,0:0:0:0:
256,192,178422,1,0,0:0:0:0:
402,192,178422,1,0,0:0:0:0:
36,192,178490,1,0,0:0:0:0:
109,192,178490,1,0,0:0:0:0:
182,192,178559,1,0,0:0:0:0:
329,192,178559,1,0,0:0:0:0:
475,192,178559,1,0,0:0:0:0:
256,192,178627,1,0,0:0:0:0:
402,192,178627,1,0,0:0:0:0:
36,192,178695,1,0,0:0:0:0:
182,192,178695,1,0,0:0:0:0:
329,192,178763,1,0,0:0:0:0:
475,192,178763,1,0,0:0:0:0:
109,192,178831,1,0,0:0:0:0:
256,192,178831,1,0,0:0:0:0:
36,192,178831,1,0,0:0:0:0:
402,192,178900,1,0,0:0:0:0:
475,192,178900,1,0,0:0:0:0:
182,192,178968,1,0,0:0:0:0:
329,192,178968,1,0,0:0:0:0:
256,192,178968,1,0,0:0:0:0:
109,192,179036,1,0,0:0:0:0:
36,192,179036,1,0,0:0:0:0:
475,192,179036,1,0,0:0:0:0:
402,192,179104,1,0,0:0:0:0:
182,192,179104,1,0,0:0:0:0:
329,192,179104,1,0,0:0:0:0:
256,192,179172,1,0,0:0:0:0:
109,192,179172,1,0,0:0:0:0:
402,192,179240,1,0,0:0:0:0:
475,192,179240,1,0,0:0:0:0:
36,192,179240,1,0,0:0:0:0:
329,192,179309,1,0,0:0:0:0:
109,192,179309,1,0,0:0:0:0:
182,192,179309,1,0,0:0:0:0:
256,192,179377,1,0,0:0:0:0:
36,192,179377,1,0,0:0:0:0:
475,192,179377,1,0,0:0:0:0:
329,192,179445,1,0,0:0:0:0:
402,192,179445,1,0,0:0:0:0:
109,192,179513,1,0,0:0:0:0:
182,192,179513,1,0,0:0:0:0:
256,192,179513,1,0,0:0:0:0:
475,192,179513,1,0,0:0:0:0:
36,192,179513,1,0,0:0:0:0:
109,192,179695,1,0,0:0:0:0:
182,192,179695,1,0,0:0:0:0:
256,192,179695,1,0,0:0:0:0:
402,192,179695,1,0,0:0:0:0:
109,192,179877,1,0,0:0:0:0:
182,192,179877,1,0,0:0:0:0:
256,192,179877,1,0,0:0:0:0:
402,192,179877,1,0,0:0:0:0:
36,192,180059,1,0,0:0:0:0:
109,192,180059,1,0,0:0:0:0:
475,192,180059,1,0,0:0:0:0:
402,192,180059,1,0,0:0:0:0:
256,192,180059,1,0,0:0:0:0:
182,192,180127,1,0,0:0:0:0:
329,192,180127,1,0,0:0:0:0:
36,192,180195,1,0,0:0:0:0:
109,192,180195,1,0,0:0:0:0:
475,192,180195,1,0,0:0:0:0:
329,192,180263,1,0,0:0:0:0:
182,192,180263,1,0,0:0:0:0:
36,192,180331,1,0,0:0:0:0:
109,192,180331,1,0,0:0:0:0:
402,192,180331,1,0,0:0:0:0:
329,192,180400,1,0,0:0:0:0:
182,192,180400,1,0,0:0:0:0:
475,192,180468,1,0,0:0:0:0:
36,192,180468,1,0,0:0:0:0:
109,192,180468,1,0,0:0:0:0:
182,192,180536,1,0,0:0:0:0:
402,192,180536,1,0,0:0:0:0:
256,192,180604,1,0,0:0:0:0:
329,192,180604,1,0,0:0:0:0:
36,192,180604,1,0,0:0:0:0:
402,192,180672,1,0,0:0:0:0:
109,192,180672,1,0,0:0:0:0:
256,192,180740,1,0,0:0:0:0:
329,192,180740,1,0,0:0:0:0:
402,192,180809,1,0,0:0:0:0:
109,192,180809,1,0,0:0:0:0:
329,192,180877,1,0,0:0:0:0:
182,192,180877,1,0,0:0:0:0:
402,192,180945,1,0,0:0:0:0:
109,192,180945,1,0,0:0:0:0:
256,192,181013,1,0,0:0:0:0:
329,192,181013,1,0,0:0:0:0:
402,192,181081,1,0,0:0:0:0:
182,192,181081,1,0,0:0:0:0:
475,192,181150,1,0,0:0:0:0:
36,192,181150,1,0,0:0:0:0:
109,192,181150,1,0,0:0:0:0:
329,192,181218,1,0,0:0:0:0:
182,192,181218,1,0,0:0:0:0:
475,192,181286,1,0,0:0:0:0:
36,192,181286,1,0,0:0:0:0:
109,192,181286,1,0,0:0:0:0:
329,192,181354,1,0,0:0:0:0:
182,192,181354,1,0,0:0:0:0:
36,192,181422,1,0,0:0:0:0:
109,192,181422,1,0,0:0:0:0:
402,192,181422,1,0,0:0:0:0:
329,192,181490,1,0,0:0:0:0:
182,192,181490,1,0,0:0:0:0:
475,192,181559,1,0,0:0:0:0:
36,192,181559,1,0,0:0:0:0:
109,192,181559,1,0,0:0:0:0:
402,192,181627,1,0,0:0:0:0:
182,192,181627,1,0,0:0:0:0:
329,192,181695,1,0,0:0:0:0:
256,192,181695,1,0,0:0:0:0:
402,192,181763,1,0,0:0:0:0:
109,192,181763,1,0,0:0:0:0:
329,192,181831,1,0,0:0:0:0:
256,192,181831,1,0,0:0:0:0:
402,192,181900,1,0,0:0:0:0:
109,192,181900,1,0,0:0:0:0:
182,192,181968,1,0,0:0:0:0:
329,192,181968,1,0,0:0:0:0:
402,192,182036,1,0,0:0:0:0:
109,192,182036,1,0,0:0:0:0:
329,192,182104,1,0,0:0:0:0:
256,192,182104,1,0,0:0:0:0:
402,192,182172,1,0,0:0:0:0:
182,192,182172,1,0,0:0:0:0:
109,192,182240,1,0,0:0:0:0:
475,192,182240,1,0,0:0:0:0:
36,192,182240,1,0,0:0:0:0:
329,192,182309,1,0,0:0:0:0:
402,192,182309,1,0,0:0:0:0:
182,192,182377,1,0,0:0:0:0:
256,192,182377,1,0,0:0:0:0:
402,192,182445,1,0,0:0:0:0:
475,192,182445,1,0,0:0:0:0:
36,192,182513,1,0,0:0:0:0:
109,192,182513,1,0,0:0:0:0:
256,192,182513,1,0,0:0:0:0:
329,192,182513,1,0,0:0:0:0:
402,192,182581,1,0,0:0:0:0:
475,192,182581,1,0,0:0:0:0:
109,192,182650,1,0,0:0:0:0:
182,192,182650,1,0,0:0:0:0:
329,192,182718,1,0,0:0:0:0:
402,192,182718,1,0,0:0:0:0:
36,192,182786,1,0,0:0:0:0:
475,192,182786,1,0,0:0:0:0:
109,192,182786,1,0,0:0:0:0:
256,192,182786,1,0,0:0:0:0:
182,192,182854,1,0,0:0:0:0:
329,192,182854,1,0,0:0:0:0:
402,192,182922,1,0,0:0:0:0:
475,192,182922,1,0,0:0:0:0:
182,192,182990,1,0,0:0:0:0:
256,192,182990,1,0,0:0:0:0:
36,192,183059,1,0,0:0:0:0:
402,192,183059,1,0,0:0:0:0:
475,192,183059,1,0,0:0:0:0:
109,192,183059,1,0,0:0:0:0:
256,192,183127,1,0,0:0:0:0:
329,192,183127,1,0,0:0:0:0:
36,192,183195,1,0,0:0:0:0:
109,192,183195,1,0,0:0:0:0:
329,192,183263,1,0,0:0:0:0:
402,192,183263,1,0,0:0:0:0:
36,192,183331,1,0,0:0:0:0:
109,192,183331,1,0,0:0:0:0:
256,192,183331,1,0,0:0:0:0:
182,192,183331,1,0,0:0:0:0:
329,192,183400,1,0,0:0:0:0:
402,192,183400,1,0,0:0:0:0:
475,192,183400,1,0,0:0:0:0:
36,192,183468,1,0,0:0:0:0:
182,192,183468,1,0,0:0:0:0:
109,192,183468,1,0,0:0:0:0:
329,192,183536,1,0,0:0:0:0:
402,192,183536,1,0,0:0:0:0:
475,192,183536,1,0,0:0:0:0:
36,192,183604,1,0,0:0:0:0:
109,192,183604,1,0,0:0:0:0:
182,192,183604,1,0,0:0:0:0:
329,192,183672,1,0,0:0:0:0:
402,192,183672,1,0,0:0:0:0:
475,192,183672,1,0,0:0:0:0:
109,192,183740,1,0,0:0:0:0:
182,192,183740,1,0,0:0:0:0:
36,192,183740,1,0,0:0:0:0:
329,192,183809,1,0,0:0:0:0:
402,192,183809,1,0,0:0:0:0:
475,192,183809,1,0,0:0:0:0:
36,192,183877,1,0,0:0:0:0:
109,192,183877,1,0,0:0:0:0:
182,192,183877,1,0,0:0:0:0:
329,192,183945,1,0,0:0:0:0:
402,192,183945,1,0,0:0:0:0:
475,192,183945,1,0,0:0:0:0:
109,192,184013,1,0,0:0:0:0:
182,192,184013,1,0,0:0:0:0:
36,192,184013,1,0,0:0:0:0:
329,192,184081,1,0,0:0:0:0:
402,192,184081,1,0,0:0:0:0:
475,192,184081,1,0,0:0:0:0:
109,192,184150,1,0,0:0:0:0:
182,192,184150,1,0,0:0:0:0:
256,192,184150,1,0,0:0:0:0:
36,192,184422,1,0,0:0:0:0:
109,192,184422,1,0,0:0:0:0:
256,192,184422,1,0,0:0:0:0:
475,192,184422,1,0,0:0:0:0:
402,192,184456,1,0,0:0:0:0:
329,192,184490,1,0,0:0:0:0:
182,192,184525,1,0,0:0:0:0:
36,192,184559,1,0,0:0:0:0:
475,192,184559,1,0,0:0:0:0:
256,192,184593,1,0,0:0:0:0:
402,192,184627,1,0,0:0:0:0:
109,192,184661,1,0,0:0:0:0:
182,192,184695,1,0,0:0:0:0:
329,192,184695,1,0,0:0:0:0:
475,192,184729,1,0,0:0:0:0:
36,192,184763,1,0,0:0:0:0:
402,192,184797,1,0,0:0:0:0:
109,192,184831,1,0,0:0:0:0:
256,192,184831,1,0,0:0:0:0:
329,192,184865,1,0,0:0:0:0:
475,192,184900,1,0,0:0:0:0:
182,192,184934,1,0,0:0:0:0:
36,192,184968,1,0,0:0:0:0:
402,192,184968,1,0,0:0:0:0:
256,192,185002,1,0,0:0:0:0:
109,192,185036,1,0,0:0:0:0:
329,192,185070,1,0,0:0:0:0:
182,192,185104,1,0,0:0:0:0:
475,192,185104,1,0,0:0:0:0:
402,192,185138,1,0,0:0:0:0:
256,192,185172,1,0,0:0:0:0:
109,192,185206,1,0,0:0:0:0:
329,192,185240,1,0,0:0:0:0:
36,192,185275,1,0,0:0:0:0:
182,192,185309,1,0,0:0:0:0:
402,192,185343,1,0,0:0:0:0:
256,192,185377,1,0,0:0:0:0:
109,192,185377,1,0,0:0:0:0:
329,192,185411,1,0,0:0:0:0:
182,192,185445,1,0,0:0:0:0:
36,192,185479,1,0,0:0:0:0:
475,192,185513,1,0,0:0:0:0:
256,192,185513,1,0,0:0:0:0:
402,192,185547,1,0,0:0:0:0:
109,192,185581,1,0,0:0:0:0:
329,192,185615,1,0,0:0:0:0:
475,192,185650,1,0,0:0:0:0:
182,192,185650,1,0,0:0:0:0:
402,192,185684,1,0,0:0:0:0:
36,192,185718,1,0,0:0:0:0:
256,192,185752,1,0,0:0:0:0:
109,192,185786,1,0,0:0:0:0:
475,192,185820,1,0,0:0:0:0:
182,192,185854,1,0,0:0:0:0:
329,192,185888,1,0,0:0:0:0:
402,192,185922,1,0,0:0:0:0:
36,192,185922,1,0,0:0:0:0:
256,192,185956,1,0,0:0:0:0:
475,192,185990,1,0,0:0:0:0:
109,192,186025,1,0,0:0:0:0:
182,192,186059,1,0,0:0:0:0:
329,192,186059,1,0,0:0:0:0:
402,192,186093,1,0,0:0:0:0:
36,192,186127,1,0,0:0:0:0:
475,192,186161,1,0,0:0:0:0:
109,192,186195,1,0,0:0:0:0:
256,192,186195,1,0,0:0:0:0:
402,192,186229,1,0,0:0:0:0:
182,192,186263,1,0,0:0:0:0:
36,192,186297,1,0,0:0:0:0:
329,192,186331,1,0,0:0:0:0:
109,192,186365,1,0,0:0:0:0:
256,192,186400,1,0,0:0:0:0:
475,192,186434,1,0,0:0:0:0:
329,192,186468,1,0,0:0:0:0:
182,192,186468,1,0,0:0:0:0:
36,192,186502,1,0,0:0:0:0:
402,192,186536,1,0,0:0:0:0:
256,192,186570,1,0,0:0:0:0:
475,192,186604,1,0,0:0:0:0:
109,192,186604,1,0,0:0:0:0:
329,192,186638,1,0,0:0:0:0:
182,192,186672,1,0,0:0:0:0:
402,192,186706,1,0,0:0:0:0:
36,192,186740,1,0,0:0:0:0:
256,192,186740,1,0,0:0:0:0:
475,192,186775,1,0,0:0:0:0:
329,192,186809,1,0,0:0:0:0:
182,192,186843,1,0,0:0:0:0:
109,192,186877,1,0,0:0:0:0:
402,192,186911,1,0,0:0:0:0:
256,192,186945,1,0,0:0:0:0:
475,192,186979,1,0,0:0:0:0:
329,192,187013,1,0,0:0:0:0:
36,192,187013,1,0,0:0:0:0:
109,192,187047,1,0,0:0:0:0:
402,192,187081,1,0,0:0:0:0:
256,192,187115,1,0,0:0:0:0:
475,192,187150,1,0,0:0:0:0:
36,192,187150,1,0,0:0:0:0:
329,192,187184,1,0,0:0:0:0:
182,192,187218,1,0,0:0:0:0:
402,192,187252,1,0,0:0:0:0:
109,192,187286,1,0,0:0:0:0:
256,192,187286,1,0,0:0:0:0:
475,192,187320,1,0,0:0:0:0:
329,192,187354,1,0,0:0:0:0:
36,192,187388,1,0,0:0:0:0:
402,192,187422,1,0,0:0:0:0:
256,192,187456,1,0,0:0:0:0:
109,192,187490,1,0,0:0:0:0:
475,192,187525,1,0,0:0:0:0:
182,192,187559,1,0,0:0:0:0:
329,192,187593,1,0,0:0:0:0:
256,192,187627,1,0,0:0:0:0:
475,192,187661,1,0,0:0:0:0:
109,192,187695,1,0,0:0:0:0:
182,192,187695,1,0,0:0:0:0:
36,192,187695,1,0,0:0:0:0:
402,192,187695,1,0,0:0:0:0:
329,192,187729,1,0,0:0:0:0:
256,192,187763,1,0,0:0:0:0:
475,192,187797,1,0,0:0:0:0:
402,192,187831,1,0,0:0:0:0:
329,192,187865,1,0,0:0:0:0:
256,192,187900,1,0,0:0:0:0:
182,192,187934,1,0,0:0:0:0:
109,192,187968,1,0,0:0:0:0:
36,192,187968,1,0,0:0:0:0:
475,192,187968,1,0,0:0:0:0:
402,192,187968,1,0,0:0:0:0:
256,192,188002,1,0,0:0:0:0:
329,192,188036,1,0,0:0:0:0:
182,192,188036,1,0,0:0:0:0:
36,192,188070,1,0,0:0:0:0:
402,192,188104,1,0,0:0:0:0:
475,192,188104,1,0,0:0:0:0:
109,192,188104,1,0,0:0:0:0:
182,192,188138,1,0,0:0:0:0:
256,192,188172,1,0,0:0:0:0:
329,192,188206,1,0,0:0:0:0:
402,192,188240,1,0,0:0:0:0:
475,192,188240,1,0,0:0:0:0:
109,192,188240,1,0,0:0:0:0:
36,192,188240,1,0,0:0:0:0:
256,192,188275,1,0,0:0:0:0:
182,192,188309,1,0,0:0:0:0:
329,192,188309,1,0,0:0:0:0:
475,192,188343,1,0,0:0:0:0:
36,192,188377,1,0,0:0:0:0:
109,192,188377,1,0,0:0:0:0:
402,192,188377,1,0,0:0:0:0:
329,192,188411,1,0,0:0:0:0:
256,192,188445,1,0,0:0:0:0:
182,192,188479,1,0,0:0:0:0:
402,192,188513,1,0,0:0:0:0:
475,192,188513,1,0,0:0:0:0:
36,192,188513,1,0,0:0:0:0:
109,192,188513,1,0,0:0:0:0:
256,192,188547,1,0,0:0:0:0:
329,192,188581,1,0,0:0:0:0:
182,192,188581,1,0,0:0:0:0:
36,192,188615,1,0,0:0:0:0:
402,192,188650,1,0,0:0:0:0:
475,192,188650,1,0,0:0:0:0:
109,192,188650,1,0,0:0:0:0:
182,192,188684,1,0,0:0:0:0:
256,192,188718,1,0,0:0:0:0:
329,192,188752,1,0,0:0:0:0:
402,192,188786,1,0,0:0:0:0:
475,192,188786,1,0,0:0:0:0:
36,192,188786,1,0,0:0:0:0:
109,192,188786,1,0,0:0:0:0:
182,192,188820,1,0,0:0:0:0:
256,192,188854,1,0,0:0:0:0:
329,192,188888,1,0,0:0:0:0:
475,192,188922,1,0,0:0:0:0:
36,192,188922,1,0,0:0:0:0:
182,192,188956,1,0,0:0:0:0:
402,192,188990,1,0,0:0:0:0:
109,192,189025,1,0,0:0:0:0:
256,192,189059,1,0,0:0:0:0:
475,192,189059,1,0,0:0:0:0:
329,192,189093,1,0,0:0:0:0:
182,192,189127,1,0,0:0:0:0:
402,192,189161,1,0,0:0:0:0:
256,192,189195,1,0,0:0:0:0:
36,192,189195,1,0,0:0:0:0:
109,192,189229,1,0,0:0:0:0:
329,192,189263,1,0,0:0:0:0:
182,192,189297,1,0,0:0:0:0:
402,192,189331,1,0,0:0:0:0:
475,192,189331,1,0,0:0:0:0:
36,192,189365,1,0,0:0:0:0:
256,192,189400,1,0,0:0:0:0:
109,192,189434,1,0,0:0:0:0:
329,192,189468,1,0,0:0:0:0:
475,192,189468,1,0,0:0:0:0:
182,192,189502,1,0,0:0:0:0:
402,192,189536,1,0,0:0:0:0:
256,192,189570,1,0,0:0:0:0:
36,192,189604,1,0,0:0:0:0:
182,192,189638,1,0,0:0:0:0:
329,192,189672,1,0,0:0:0:0:
475,192,189706,1,0,0:0:0:0:
256,192,189740,1,0,0:0:0:0:
109,192,189740,1,0,0:0:0:0:
402,192,189775,1,0,0:0:0:0:
182,192,189809,1,0,0:0:0:0:
329,192,189843,1,0,0:0:0:0:
36,192,189877,1,0,0:0:0:0:
475,192,189877,1,0,0:0:0:0:
109,192,189911,1,0,0:0:0:0:
402,192,189945,1,0,0:0:0:0:
256,192,189979,1,0,0:0:0:0:
475,192,190013,1,0,0:0:0:0:
182,192,190013,1,0,0:0:0:0:
36,192,190047,1,0,0:0:0:0:
329,192,190081,1,0,0:0:0:0:
109,192,190115,1,0,0:0:0:0:
256,192,190150,1,0,0:0:0:0:
402,192,190184,1,0,0:0:0:0:
182,192,190218,1,0,0:0:0:0:
329,192,190252,1,0,0:0:0:0:
475,192,190286,1,0,0:0:0:0:
36,192,190320,1,0,0:0:0:0:
256,192,190354,1,0,0:0:0:0:
402,192,190388,1,0,0:0:0:0:
109,192,190422,1,0,0:0:0:0:
475,192,190422,1,0,0:0:0:0:
329,192,190456,1,0,0:0:0:0:
182,192,190490,1,0,0:0:0:0:
402,192,190525,1,0,0:0:0:0:
36,192,190559,1,0,0:0:0:0:
256,192,190559,1,0,0:0:0:0:
109,192,190593,1,0,0:0:0:0:
475,192,190627,1,0,0:0:0:0:
329,192,190661,1,0,0:0:0:0:
36,192,190695,1,0,0:0:0:0:
182,192,190729,1,0,0:0:0:0:
402,192,190763,1,0,0:0:0:0:
256,192,190797,1,0,0:0:0:0:
109,192,190831,1,0,0:0:0:0:
475,192,190831,1,0,0:0:0:0:
329,192,190865,1,0,0:0:0:0:
182,192,190900,1,0,0:0:0:0:
402,192,190934,1,0,0:0:0:0:
36,192,190968,1,0,0:0:0:0:
256,192,190968,1,0,0:0:0:0:
109,192,190968,1,0,0:0:0:0:
475,192,191002,1,0,0:0:0:0:
402,192,191036,1,0,0:0:0:0:
329,192,191070,1,0,0:0:0:0:
256,192,191104,1,0,0:0:0:0:
182,192,191138,1,0,0:0:0:0:
36,192,191172,1,0,0:0:0:0:
109,192,191206,1,0,0:0:0:0:
402,192,191240,1,0,0:0:0:0:
475,192,191240,1,0,0:0:0:0:
182,192,191240,1,0,0:0:0:0:
256,192,191275,1,0,0:0:0:0:
329,192,191309,1,0,0:0:0:0:
36,192,191309,1,0,0:0:0:0:
109,192,191343,1,0,0:0:0:0:
402,192,191377,1,0,0:0:0:0:
475,192,191377,1,0,0:0:0:0:
182,192,191377,1,0,0:0:0:0:
256,192,191411,1,0,0:0:0:0:
329,192,191445,1,0,0:0:0:0:
402,192,191479,1,0,0:0:0:0:
475,192,191513,1,0,0:0:0:0:
36,192,191513,1,0,0:0:0:0:
109,192,191513,1,0,0:0:0:0:
256,192,191547,1,0,0:0:0:0:
182,192,191581,1,0,0:0:0:0:
329,192,191581,1,0,0:0:0:0:
402,192,191615,1,0,0:0:0:0:
36,192,191650,1,0,0:0:0:0:
109,192,191650,1,0,0:0:0:0:
475,192,191650,1,0,0:0:0:0:
256,192,191684,1,0,0:0:0:0:
182,192,191718,1,0,0:0:0:0:
109,192,191752,1,0,0:0:0:0:
36,192,191786,1,0,0:0:0:0:
402,192,191786,1,0,0:0:0:0:
475,192,191786,1,0,0:0:0:0:
329,192,191820,1,0,0:0:0:0:
256,192,191854,1,0,0:0:0:0:
182,192,191888,1,0,0:0:0:0:
402,192,191922,1,0,0:0:0:0:
475,192,191922,1,0,0:0:0:0:
109,192,191922,1,0,0:0:0:0:
329,192,191956,1,0,0:0:0:0:
256,192,191990,1,0,0:0:0:0:
182,192,192025,1,0,0:0:0:0:
36,192,192059,1,0,0:0:0:0:
109,192,192059,1,0,0:0:0:0:
475,192,192059,1,0,0:0:0:0:
402,192,192093,1,0,0:0:0:0:
329,192,192127,1,0,0:0:0:0:
256,192,192161,1,0,0:0:0:0:
109,192,192195,1,0,0:0:0:0:
36,192,192195,1,0,0:0:0:0:
475,192,192229,1,0,0:0:0:0:
182,192,192229,1,0,0:0:0:0:
402,192,192263,1,0,0:0:0:0:
329,192,192297,1,0,0:0:0:0:
36,192,192331,1,0,0:0:0:0:
109,192,192331,1,0,0:0:0:0:
182,192,192365,1,0,0:0:0:0:
256,192,192400,1,0,0:0:0:0:
475,192,192400,1,0,0:0:0:0:
402,192,192434,1,0,0:0:0:0:
36,192,192468,1,0,0:0:0:0:
109,192,192468,1,0,0:0:0:0:
182,192,192502,1,0,0:0:0:0:
256,192,192536,1,0,0:0:0:0:
329,192,192570,1,0,0:0:0:0:
475,192,192570,1,0,0:0:0:0:
36,192,192604,1,0,0:0:0:0:
109,192,192604,1,0,0:0:0:0:
182,192,192638,1,0,0:0:0:0:
256,192,192672,1,0,0:0:0:0:
329,192,192706,1,0,0:0:0:0:
402,192,192740,1,0,0:0:0:0:
182,192,192775,1,0,0:0:0:0:
256,192,192809,1,0,0:0:0:0:
109,192,192843,1,0,0:0:0:0:
36,192,192877,1,0,0:0:0:0:
475,192,192877,128,0,193150:0:0:0:0:
329,192,192911,1,0,0:0:0:0:
182,192,192945,1,0,0:0:0:0:
402,192,192979,1,0,0:0:0:0:
109,192,193013,1,0,0:0:0:0:
256,192,193047,1,0,0:0:0:0:
36,192,193081,1,0,0:0:0:0:
182,192,193115,1,0,0:0:0:0:
402,192,193150,1,0,0:0:0:0:
329,192,193150,1,0,0:0:0:0:
109,192,193184,1,0,0:0:0:0:
256,192,193218,1,0,0:0:0:0:
475,192,193252,1,0,0:0:0:0:
182,192,193286,1,0,0:0:0:0:
36,192,193286,1,0,0:0:0:0:
402,192,193320,1,0,0:0:0:0:
256,192,193354,1,0,0:0:0:0:
109,192,193388,1,0,0:0:0:0:
329,192,193422,1,0,0:0:0:0:
475,192,193422,1,0,0:0:0:0:
36,192,193456,1,0,0:0:0:0:
182,192,193490,1,0,0:0:0:0:
402,192,193525,1,0,0:0:0:0:
109,192,193559,1,0,0:0:0:0:
256,192,193559,1,0,0:0:0:0:
475,192,193593,1,0,0:0:0:0:
182,192,193627,1,0,0:0:0:0:
329,192,193661,1,0,0:0:0:0:
402,192,193695,1,0,0:0:0:0:
36,192,193695,1,0,0:0:0:0:
256,192,193729,1,0,0:0:0:0:
109,192,193763,1,0,0:0:0:0:
475,192,193797,1,0,0:0:0:0:
329,192,193831,1,0,0:0:0:0:
182,192,193831,1,0,0:0:0:0:
36,192,193865,1,0,0:0:0:0:
402,192,193900,1,0,0:0:0:0:
256,192,193934,1,0,0:0:0:0:
475,192,193968,1,0,0:0:0:0:
329,192,194002,1,0,0:0:0:0:
109,192,194036,1,0,0:0:0:0:
256,192,194070,1,0,0:0:0:0:
402,192,194104,1,0,0:0:0:0:
36,192,194104,1,0,0:0:0:0:
182,192,194138,1,0,0:0:0:0:
475,192,194172,1,0,0:0:0:0:
256,192,194206,1,0,0:0:0:0:
109,192,194240,1,0,0:0:0:0:
402,192,194240,1,0,0:0:0:0:
329,192,194275,1,0,0:0:0:0:
36,192,194309,1,0,0:0:0:0:
475,192,194343,1,0,0:0:0:0:
256,192,194377,1,0,0:0:0:0:
109,192,194377,1,0,0:0:0:0:
402,192,194411,1,0,0:0:0:0:
329,192,194445,1,0,0:0:0:0:
182,192,194479,1,0,0:0:0:0:
475,192,194513,1,0,0:0:0:0:
36,192,194513,1,0,0:0:0:0:
256,192,194547,1,0,0:0:0:0:
109,192,194581,1,0,0:0:0:0:
402,192,194615,1,0,0:0:0:0:
182,192,194650,1,0,0:0:0:0:
329,192,194650,1,0,0:0:0:0:
475,192,194684,1,0,0:0:0:0:
36,192,194718,1,0,0:0:0:0:
256,192,194752,1,0,0:0:0:0:
402,192,194786,1,0,0:0:0:0:
109,192,194786,1,0,0:0:0:0:
329,192,194820,1,0,0:0:0:0:
182,192,194854,1,0,0:0:0:0:
475,192,194888,1,0,0:0:0:0:
36,192,194922,1,0,0:0:0:0:
256,192,194922,1,0,0:0:0:0:
402,192,194956,1,0,0:0:0:0:
109,192,194990,1,0,0:0:0:0:
329,192,195025,1,0,0:0:0:0:
182,192,195059,1,0,0:0:0:0:
475,192,195093,1,0,0:0:0:0:
36,192,195127,1,0,0:0:0:0:
256,192,195161,1,0,0:0:0:0:
109,192,195195,1,0,0:0:0:0:
402,192,195195,1,0,0:0:0:0:
329,192,195229,1,0,0:0:0:0:
182,192,195263,1,0,0:0:0:0:
475,192,195297,1,0,0:0:0:0:
256,192,195331,1,0,0:0:0:0:
36,192,195331,1,0,0:0:0:0:
109,192,195365,1,0,0:0:0:0:
402,192,195400,1,0,0:0:0:0:
182,192,195434,1,0,0:0:0:0:
329,192,195468,1,0,0:0:0:0:
475,192,195468,1,0,0:0:0:0:
36,192,195502,1,0,0:0:0:0:
256,192,195536,1,0,0:0:0:0:
402,192,195570,1,0,0:0:0:0:
109,192,195604,1,0,0:0:0:0:
329,192,195638,1,0,0:0:0:0:
182,192,195672,1,0,0:0:0:0:
475,192,195706,1,0,0:0:0:0:
36,192,195740,1,0,0:0:0:0:
256,192,195740,1,0,0:0:0:0:
402,192,195775,1,0,0:0:0:0:
182,192,195809,1,0,0:0:0:0:
329,192,195843,1,0,0:0:0:0:
475,192,195877,1,0,0:0:0:0:
109,192,195877,1,0,0:0:0:0:
256,192,195911,1,0,0:0:0:0:
402,192,195945,1,0,0:0:0:0:
36,192,195979,1,0,0:0:0:0:
182,192,196013,1,0,0:0:0:0:
329,192,196013,1,0,0:0:0:0:
475,192,196047,1,0,0:0:0:0:
109,192,196081,1,0,0:0:0:0:
402,192,196115,1,0,0:0:0:0:
256,192,196150,1,0,0:0:0:0:
36,192,196184,1,0,0:0:0:0:
329,192,196218,1,0,0:0:0:0:
109,192,196252,1,0,0:0:0:0:
475,192,196286,1,0,0:0:0:0:
182,192,196320,1,0,0:0:0:0:
256,192,196354,1,0,0:0:0:0:
36,192,196388,1,0,0:0:0:0:
475,192,196422,1,0,0:0:0:0:
109,192,196422,1,0,0:0:0:0:
402,192,196422,1,0,0:0:0:0:
329,192,196422,1,0,0:0:0:0:
182,192,196456,1,0,0:0:0:0:
256,192,196490,1,0,0:0:0:0:
36,192,196525,1,0,0:0:0:0:
109,192,196559,1,0,0:0:0:0:
182,192,196593,1,0,0:0:0:0:
256,192,196627,1,0,0:0:0:0:
329,192,196661,1,0,0:0:0:0:
36,192,196695,1,0,0:0:0:0:
109,192,196695,1,0,0:0:0:0:
402,192,196695,1,0,0:0:0:0:
475,192,196695,1,0,0:0:0:0:
256,192,196729,1,0,0:0:0:0:
329,192,196763,1,0,0:0:0:0:
182,192,196763,1,0,0:0:0:0:
475,192,196797,1,0,0:0:0:0:
402,192,196831,1,0,0:0:0:0:
36,192,196831,1,0,0:0:0:0:
109,192,196831,1,0,0:0:0:0:
329,192,196865,1,0,0:0:0:0:
256,192,196900,1,0,0:0:0:0:
182,192,196934,1,0,0:0:0:0:
402,192,196968,1,0,0:0:0:0:
475,192,196968,1,0,0:0:0:0:
109,192,196968,1,0,0:0:0:0:
36,192,196968,1,0,0:0:0:0:
256,192,197002,1,0,0:0:0:0:
182,192,197036,1,0,0:0:0:0:
329,192,197036,1,0,0:0:0:0:
36,192,197070,1,0,0:0:0:0:
109,192,197104,1,0,0:0:0:0:
402,192,197104,1,0,0:0:0:0:
475,192,197104,1,0,0:0:0:0:
182,192,197138,1,0,0:0:0:0:
256,192,197172,1,0,0:0:0:0:
329,192,197206,1,0,0:0:0:0:
475,192,197240,1,0,0:0:0:0:
402,192,197240,1,0,0:0:0:0:
109,192,197240,1,0,0:0:0:0:
36,192,197240,1,0,0:0:0:0:
256,192,197275,1,0,0:0:0:0:
182,192,197309,1,0,0:0:0:0:
109,192,197343,1,0,0:0:0:0:
402,192,197377,1,0,0:0:0:0:
329,192,197411,1,0,0:0:0:0:
256,192,197445,1,0,0:0:0:0:
182,192,197479,1,0,0:0:0:0:
475,192,197513,1,0,0:0:0:0:
402,192,197513,1,0,0:0:0:0:
109,192,197513,1,0,0:0:0:0:
36,192,197513,1,0,0:0:0:0:
329,192,197547,1,0,0:0:0:0:
256,192,197581,1,0,0:0:0:0:
182,192,197615,1,0,0:0:0:0:
402,192,197650,1,0,0:0:0:0:
475,192,197650,1,0,0:0:0:0:
329,192,197684,1,0,0:0:0:0:
256,192,197718,1,0,0:0:0:0:
36,192,197752,1,0,0:0:0:0:
402,192,197786,1,0,0:0:0:0:
475,192,197786,1,0,0:0:0:0:
329,192,197820,1,0,0:0:0:0:
109,192,197854,1,0,0:0:0:0:
36,192,197888,1,0,0:0:0:0:
475,192,197922,1,0,0:0:0:0:
402,192,197922,1,0,0:0:0:0:
256,192,197922,1,0,0:0:0:0:
182,192,197956,1,0,0:0:0:0:
109,192,197990,1,0,0:0:0:0:
36,192,198025,1,0,0:0:0:0:
475,192,198059,1,0,0:0:0:0:
402,192,198059,1,0,0:0:0:0:
329,192,198059,1,0,0:0:0:0:
256,192,198093,1,0,0:0:0:0:
182,192,198127,1,0,0:0:0:0:
109,192,198161,1,0,0:0:0:0:
402,192,198195,1,0,0:0:0:0:
36,192,198195,1,0,0:0:0:0:
329,192,198229,1,0,0:0:0:0:
256,192,198263,1,0,0:0:0:0:
182,192,198297,1,0,0:0:0:0:
109,192,198331,1,0,0:0:0:0:
36,192,198331,1,0,0:0:0:0:
475,192,198331,1,0,0:0:0:0:
402,192,198365,1,0,0:0:0:0:
329,192,198400,1,0,0:0:0:0:
256,192,198434,1,0,0:0:0:0:
36,192,198468,1,0,0:0:0:0:
109,192,198502,1,0,0:0:0:0:
182,192,198536,1,0,0:0:0:0:
475,192,198570,1,0,0:0:0:0:
402,192,198604,1,0,0:0:0:0:
329,192,198638,1,0,0:0:0:0:
256,192,198672,1,0,0:0:0:0:
475,192,198706,1,0,0:0:0:0:
402,192,198740,1,0,0:0:0:0:
36,192,198740,1,0,0:0:0:0:
109,192,198740,1,0,0:0:0:0:
182,192,198775,1,0,0:0:0:0:
256,192,198809,1,0,0:0:0:0:
329,192,198843,1,0,0:0:0:0:
402,192,198877,1,0,0:0:0:0:
36,192,198877,1,0,0:0:0:0:
109,192,198877,1,0,0:0:0:0:
182,192,198911,1,0,0:0:0:0:
256,192,198945,1,0,0:0:0:0:
329,192,198979,1,0,0:0:0:0:
475,192,199013,1,0,0:0:0:0:
36,192,199013,1,0,0:0:0:0:
109,192,199047,1,0,0:0:0:0:
402,192,199081,1,0,0:0:0:0:
329,192,199115,1,0,0:0:0:0:
182,192,199150,1,0,0:0:0:0:
256,192,199150,1,0,0:0:0:0:
36,192,199150,1,0,0:0:0:0:
475,192,199184,1,0,0:0:0:0:
402,192,199218,1,0,0:0:0:0:
329,192,199252,1,0,0:0:0:0:
36,192,199286,1,0,0:0:0:0:
109,192,199286,1,0,0:0:0:0:
182,192,199320,1,0,0:0:0:0:
256,192,199354,1,0,0:0:0:0:
329,192,199388,1,0,0:0:0:0:
402,192,199422,1,0,0:0:0:0:
475,192,199422,1,0,0:0:0:0:
36,192,199422,1,0,0:0:0:0:
109,192,199456,1,0,0:0:0:0:
182,192,199490,1,0,0:0:0:0:
256,192,199525,1,0,0:0:0:0:
329,192,199559,1,0,0:0:0:0:
402,192,199559,1,0,0:0:0:0:
109,192,199593,1,0,0:0:0:0:
182,192,199627,1,0,0:0:0:0:
256,192,199661,1,0,0:0:0:0:
402,192,199695,1,0,0:0:0:0:
475,192,199695,1,0,0:0:0:0:
36,192,199695,1,0,0:0:0:0:
329,192,199729,1,0,0:0:0:0:
182,192,199763,1,0,0:0:0:0:
109,192,199797,1,0,0:0:0:0:
36,192,199831,1,0,0:0:0:0:
475,192,199831,1,0,0:0:0:0:
402,192,199865,1,0,0:0:0:0:
329,192,199900,1,0,0:0:0:0:
256,192,199934,1,0,0:0:0:0:
109,192,199968,1,0,0:0:0:0:
182,192,199968,1,0,0:0:0:0:
475,192,200002,1,0,0:0:0:0:
402,192,200036,1,0,0:0:0:0:
329,192,200070,1,0,0:0:0:0:
36,192,200104,1,0,0:0:0:0:
109,192,200104,1,0,0:0:0:0:
256,192,200104,1,0,0:0:0:0:
475,192,200138,1,0,0:0:0:0:
402,192,200172,1,0,0:0:0:0:
329,192,200206,1,0,0:0:0:0:
36,192,200240,1,0,0:0:0:0:
109,192,200240,1,0,0:0:0:0:
182,192,200240,1,0,0:0:0:0:
475,192,200275,1,0,0:0:0:0:
402,192,200309,1,0,0:0:0:0:
256,192,200343,1,0,0:0:0:0:
182,192,200377,1,0,0:0:0:0:
109,192,200377,1,0,0:0:0:0:
329,192,200411,1,0,0:0:0:0:
402,192,200445,1,0,0:0:0:0:
475,192,200479,1,0,0:0:0:0:
36,192,200513,1,0,0:0:0:0:
109,192,200513,1,0,0:0:0:0:
256,192,200513,1,0,0:0:0:0:
329,192,200547,1,0,0:0:0:0:
402,192,200581,1,0,0:0:0:0:
475,192,200615,1,0,0:0:0:0:
36,192,200650,1,0,0:0:0:0:
109,192,200650,1,0,0:0:0:0:
256,192,200650,1,0,0:0:0:0:
329,192,200684,1,0,0:0:0:0:
402,192,200718,1,0,0:0:0:0:
475,192,200752,1,0,0:0:0:0:
36,192,200786,1,0,0:0:0:0:
109,192,200786,1,0,0:0:0:0:
182,192,200786,1,0,0:0:0:0:
329,192,200854,1,0,0:0:0:0:
402,192,200854,1,0,0:0:0:0:
109,192,200922,1,0,0:0:0:0:
182,192,200922,1,0,0:0:0:0:
329,192,200990,1,0,0:0:0:0:
402,192,200990,1,0,0:0:0:0:
109,192,201059,1,0,0:0:0:0:
182,192,201059,1,0,0:0:0:0:
329,192,201127,1,0,0:0:0:0:
402,192,201127,1,0,0:0:0:0:
109,192,201195,1,0,0:0:0:0:
182,192,201195,1,0,0:0:0:0:
329,192,201263,1,0,0:0:0:0:
402,192,201263,1,0,0:0:0:0:
256,192,201331,128,0,201877:0:0:0:0:
36,192,201740,128,0,201877:0:0:0:0:
475,192,201740,128,0,201877:0:0:0:0:
329,192,201877,1,0,0:0:0:0:
402,192,201877,1,0,0:0:0:0:
109,192,201877,1,0,0:0:0:0:
182,192,201877,1,0,0:0:0:0:
256,192,201922,1,0,0:0:0:0:
475,192,201968,1,0,0:0:0:0:
402,192,202013,1,0,0:0:0:0:
36,192,202013,1,0,0:0:0:0:
182,192,202013,1,0,0:0:0:0:
256,192,202081,1,0,0:0:0:0:
329,192,202081,1,0,0:0:0:0:
36,192,202150,1,0,0:0:0:0:
109,192,202150,1,0,0:0:0:0:
475,192,202150,1,0,0:0:0:0:
329,192,202218,1,0,0:0:0:0:
402,192,202218,1,0,0:0:0:0:
182,192,202286,1,0,0:0:0:0:
256,192,202286,1,0,0:0:0:0:
475,192,202286,1,0,0:0:0:0:
109,192,202354,1,0,0:0:0:0:
329,192,202354,1,0,0:0:0:0:
36,192,202422,1,0,0:0:0:0:
402,192,202422,1,0,0:0:0:0:
475,192,202422,1,0,0:0:0:0:
109,192,202490,1,0,0:0:0:0:
256,192,202490,1,0,0:0:0:0:
182,192,202559,1,0,0:0:0:0:
329,192,202559,1,0,0:0:0:0:
402,192,202559,1,0,0:0:0:0:
36,192,202627,1,0,0:0:0:0:
109,192,202627,1,0,0:0:0:0:
256,192,202627,1,0,0:0:0:0:
182,192,202695,1,0,0:0:0:0:
402,192,202695,1,0,0:0:0:0:
475,192,202695,1,0,0:0:0:0:
329,192,202763,1,0,0:0:0:0:
36,192,202763,1,0,0:0:0:0:
109,192,202831,1,0,0:0:0:0:
256,192,202831,1,0,0:0:0:0:
475,192,202831,1,0,0:0:0:0:
329,192,202900,1,0,0:0:0:0:
182,192,202900,1,0,0:0:0:0:
402,192,202968,1,0,0:0:0:0:
36,192,202968,1,0,0:0:0:0:
256,192,202968,1,0,0:0:0:0:
109,192,203013,1,0,0:0:0:0:
329,192,203059,1,0,0:0:0:0:
475,192,203104,1,0,0:0:0:0:
36,192,203104,1,0,0:0:0:0:
182,192,203104,1,0,0:0:0:0:
256,192,203172,1,0,0:0:0:0:
402,192,203172,1,0,0:0:0:0:
109,192,203240,1,0,0:0:0:0:
475,192,203240,1,0,0:0:0:0:
36,192,203240,1,0,0:0:0:0:
182,192,203309,1,0,0:0:0:0:
329,192,203309,1,0,0:0:0:0:
402,192,203377,1,0,0:0:0:0:
109,192,203377,1,0,0:0:0:0:
256,192,203377,1,0,0:0:0:0:
329,192,203445,1,0,0:0:0:0:
182,192,203445,1,0,0:0:0:0:
402,192,203513,1,0,0:0:0:0:
475,192,203513,1,0,0:0:0:0:
36,192,203513,1,0,0:0:0:0:
109,192,203581,1,0,0:0:0:0:
256,192,203581,1,0,0:0:0:0:
182,192,203650,1,0,0:0:0:0:
402,192,203650,1,0,0:0:0:0:
475,192,203650,1,0,0:0:0:0:
109,192,203718,1,0,0:0:0:0:
256,192,203718,1,0,0:0:0:0:
329,192,203718,1,0,0:0:0:0:
36,192,203786,1,0,0:0:0:0:
402,192,203786,1,0,0:0:0:0:
475,192,203786,1,0,0:0:0:0:
256,192,203854,1,0,0:0:0:0:
182,192,203854,1,0,0:0:0:0:
36,192,203922,1,0,0:0:0:0:
109,192,203922,1,0,0:0:0:0:
329,192,203922,1,0,0:0:0:0:
475,192,203990,1,0,0:0:0:0:
182,192,203990,1,0,0:0:0:0:
256,192,204059,1,0,0:0:0:0:
402,192,204059,1,0,0:0:0:0:
36,192,204059,1,0,0:0:0:0:
109,192,204104,1,0,0:0:0:0:
329,192,204150,1,0,0:0:0:0:
182,192,204195,1,0,0:0:0:0:
475,192,204195,1,0,0:0:0:0:
256,192,204195,1,0,0:0:0:0:
36,192,204263,1,0,0:0:0:0:
402,192,204263,1,0,0:0:0:0:
109,192,204331,1,0,0:0:0:0:
182,192,204331,1,0,0:0:0:0:
329,192,204331,1,0,0:0:0:0:
475,192,204400,1,0,0:0:0:0:
256,192,204400,1,0,0:0:0:0:
402,192,204468,1,0,0:0:0:0:
36,192,204468,1,0,0:0:0:0:
109,192,204468,1,0,0:0:0:0:
182,192,204536,1,0,0:0:0:0:
329,192,204536,1,0,0:0:0:0:
402,192,204604,1,0,0:0:0:0:
475,192,204604,1,0,0:0:0:0:
256,192,204604,1,0,0:0:0:0:
36,192,204672,1,0,0:0:0:0:
329,192,204672,1,0,0:0:0:0:
109,192,204740,1,0,0:0:0:0:
182,192,204740,1,0,0:0:0:0:
475,192,204740,1,0,0:0:0:0:
329,192,204809,1,0,0:0:0:0:
402,192,204809,1,0,0:0:0:0:
36,192,204809,1,0,0:0:0:0:
109,192,204877,1,0,0:0:0:0:
182,192,204877,1,0,0:0:0:0:
256,192,204877,1,0,0:0:0:0:
475,192,204945,1,0,0:0:0:0:
402,192,204945,1,0,0:0:0:0:
36,192,205013,1,0,0:0:0:0:
182,192,205013,1,0,0:0:0:0:
329,192,205013,1,0,0:0:0:0:
256,192,205081,1,0,0:0:0:0:
109,192,205081,1,0,0:0:0:0:
36,192,205150,1,0,0:0:0:0:
475,192,205150,1,0,0:0:0:0:
402,192,205150,1,0,0:0:0:0:
329,192,205218,1,0,0:0:0:0:
182,192,205218,1,0,0:0:0:0:
36,192,205286,1,0,0:0:0:0:
475,192,205286,1,0,0:0:0:0:
109,192,205286,1,0,0:0:0:0:
329,192,205354,1,0,0:0:0:0:
182,192,205354,1,0,0:0:0:0:
475,192,205422,1,0,0:0:0:0:
402,192,205422,1,0,0:0:0:0:
109,192,205422,1,0,0:0:0:0:
329,192,205490,1,0,0:0:0:0:
182,192,205490,1,0,0:0:0:0:
36,192,205559,1,0,0:0:0:0:
256,192,205559,1,0,0:0:0:0:
402,192,205559,1,0,0:0:0:0:
182,192,205627,1,0,0:0:0:0:
475,192,205627,1,0,0:0:0:0:
109,192,205627,1,0,0:0:0:0:
36,192,205695,1,0,0:0:0:0:
329,192,205695,1,0,0:0:0:0:
402,192,205695,1,0,0:0:0:0:
475,192,205763,1,0,0:0:0:0:
256,192,205763,1,0,0:0:0:0:
182,192,205763,1,0,0:0:0:0:
36,192,205831,1,0,0:0:0:0:
109,192,205831,1,0,0:0:0:0:
329,192,205831,1,0,0:0:0:0:
402,192,205900,1,0,0:0:0:0:
475,192,205900,1,0,0:0:0:0:
182,192,205900,1,0,0:0:0:0:
36,192,205968,1,0,0:0:0:0:
109,192,205968,1,0,0:0:0:0:
329,192,205968,1,0,0:0:0:0:
475,192,206036,1,0,0:0:0:0:
402,192,206036,1,0,0:0:0:0:
182,192,206104,1,0,0:0:0:0:
256,192,206104,1,0,0:0:0:0:
36,192,206172,1,0,0:0:0:0:
109,192,206240,1,0,0:0:0:0:
256,192,206240,1,0,0:0:0:0:
402,192,206240,1,0,0:0:0:0:
475,192,206240,1,0,0:0:0:0:
182,192,206309,1,0,0:0:0:0:
329,192,206309,1,0,0:0:0:0:
36,192,206377,1,0,0:0:0:0:
109,192,206377,1,0,0:0:0:0:
256,192,206445,1,0,0:0:0:0:
402,192,206445,1,0,0:0:0:0:
182,192,206513,1,0,0:0:0:0:
109,192,206513,1,0,0:0:0:0:
475,192,206513,1,0,0:0:0:0:
36,192,206513,1,0,0:0:0:0:
329,192,206581,1,0,0:0:0:0:
256,192,206581,1,0,0:0:0:0:
402,192,206650,1,0,0:0:0:0:
475,192,206650,1,0,0:0:0:0:
182,192,206718,1,0,0:0:0:0:
36,192,206718,1,0,0:0:0:0:
256,192,206786,1,0,0:0:0:0:
475,192,206786,1,0,0:0:0:0:
109,192,206786,1,0,0:0:0:0:
402,192,206786,1,0,0:0:0:0:
182,192,206854,1,0,0:0:0:0:
329,192,206854,1,0,0:0:0:0:
36,192,206922,1,0,0:0:0:0:
109,192,206922,1,0,0:0:0:0:
256,192,206990,1,0,0:0:0:0:
475,192,206990,1,0,0:0:0:0:
109,192,207059,1,0,0:0:0:0:
182,192,207059,1,0,0:0:0:0:
329,192,207059,1,0,0:0:0:0:
36,192,207059,1,0,0:0:0:0:
475,192,207127,1,0,0:0:0:0:
402,192,207127,1,0,0:0:0:0:
182,192,207195,1,0,0:0:0:0:
256,192,207195,1,0,0:0:0:0:
402,192,207263,1,0,0:0:0:0:
329,192,207263,1,0,0:0:0:0:
36,192,207331,1,0,0:0:0:0:
109,192,207331,1,0,0:0:0:0:
256,192,207331,1,0,0:0:0:0:
475,192,207331,1,0,0:0:0:0:
182,192,207400,1,0,0:0:0:0:
329,192,207400,1,0,0:0:0:0:
402,192,207468,1,0,0:0:0:0:
36,192,207468,1,0,0:0:0:0:
109,192,207536,1,0,0:0:0:0:
256,192,207536,1,0,0:0:0:0:
182,192,207604,1,0,0:0:0:0:
329,192,207604,1,0,0:0:0:0:
402,192,207604,1,0,0:0:0:0:
475,192,207604,1,0,0:0:0:0:
36,192,207672,1,0,0:0:0:0:
109,192,207672,1,0,0:0:0:0:
256,192,207740,1,0,0:0:0:0:
475,192,207740,1,0,0:0:0:0:
182,192,207809,1,0,0:0:0:0:
329,192,207809,1,0,0:0:0:0:
36,192,207877,1,0,0:0:0:0:
109,192,207877,1,0,0:0:0:0:
402,192,207877,1,0,0:0:0:0:
256,192,207877,1,0,0:0:0:0:
475,192,207945,1,0,0:0:0:0:
329,192,207945,1,0,0:0:0:0:
36,192,208013,1,0,0:0:0:0:
182,192,208013,1,0,0:0:0:0:
402,192,208081,1,0,0:0:0:0:
475,192,208081,1,0,0:0:0:0:
109,192,208150,1,0,0:0:0:0:
256,192,208150,1,0,0:0:0:0:
329,192,208150,1,0,0:0:0:0:
182,192,208150,1,0,0:0:0:0:
402,192,208218,1,0,0:0:0:0:
475,192,208218,1,0,0:0:0:0:
36,192,208286,1,0,0:0:0:0:
109,192,208286,1,0,0:0:0:0:
329,192,208354,1,0,0:0:0:0:
402,192,208354,1,0,0:0:0:0:
109,192,208422,1,0,0:0:0:0:
256,192,208422,1,0,0:0:0:0:
182,192,208422,1,0,0:0:0:0:
36,192,208422,1,0,0:0:0:0:
329,192,208490,1,0,0:0:0:0:
402,192,208490,1,0,0:0:0:0:
475,192,208490,1,0,0:0:0:0:
109,192,208559,1,0,0:0:0:0:
36,192,208559,1,0,0:0:0:0:
182,192,208559,1,0,0:0:0:0:
329,192,208627,1,0,0:0:0:0:
402,192,208627,1,0,0:0:0:0:
475,192,208627,1,0,0:0:0:0:
36,192,208695,1,0,0:0:0:0:
109,192,208695,1,0,0:0:0:0:
256,192,208695,1,0,0:0:0:0:
182,192,208763,1,0,0:0:0:0:
402,192,208763,1,0,0:0:0:0:
475,192,208763,1,0,0:0:0:0:
36,192,208831,1,0,0:0:0:0:
109,192,208831,1,0,0:0:0:0:
329,192,208831,1,0,0:0:0:0:
402,192,208900,1,0,0:0:0:0:
475,192,208900,1,0,0:0:0:0:
256,192,208900,1,0,0:0:0:0:
182,192,208968,1,0,0:0:0:0:
329,192,208968,1,0,0:0:0:0:
109,192,208968,1,0,0:0:0:0:
36,192,209036,1,0,0:0:0:0:
256,192,209036,1,0,0:0:0:0:
475,192,209036,1,0,0:0:0:0:
402,192,209104,1,0,0:0:0:0:
329,192,209104,1,0,0:0:0:0:
182,192,209104,1,0,0:0:0:0:
36,192,209172,1,0,0:0:0:0:
475,192,209172,1,0,0:0:0:0:
109,192,209172,1,0,0:0:0:0:
256,192,209240,1,0,0:0:0:0:
329,192,209240,1,0,0:0:0:0:
402,192,209240,1,0,0:0:0:0:
109,192,209309,1,0,0:0:0:0:
182,192,209309,1,0,0:0:0:0:
36,192,209309,1,0,0:0:0:0:
402,192,209377,1,0,0:0:0:0:
475,192,209377,1,0,0:0:0:0:
329,192,209377,1,0,0:0:0:0:
182,192,209445,1,0,0:0:0:0:
256,192,209445,1,0,0:0:0:0:
109,192,209445,1,0,0:0:0:0:
36,192,209513,1,0,0:0:0:0:
402,192,209513,1,0,0:0:0:0:
475,192,209513,1,0,0:0:0:0:
329,192,209513,1,0,0:0:0:0:
36,192,210604,1,0,0:0:0:0:
109,192,210604,1,0,0:0:0:0:
256,192,210604,1,0,0:0:0:0:
475,192,210604,1,0,0:0:0:0:
402,192,210672,1,0,0:0:0:0:
182,192,210740,1,0,0:0:0:0:
329,192,210740,1,0,0:0:0:0:
36,192,210740,1,0,0:0:0:0:
402,192,210809,1,0,0:0:0:0:
475,192,210877,1,0,0:0:0:0:
109,192,210877,1,0,0:0:0:0:
182,192,210877,1,0,0:0:0:0:
402,192,210945,1,0,0:0:0:0:
329,192,211013,1,0,0:0:0:0:
36,192,211013,1,0,0:0:0:0:
109,192,211013,1,0,0:0:0:0:
256,192,211013,1,0,0:0:0:0:
402,192,211081,1,0,0:0:0:0:
36,192,211150,1,0,0:0:0:0:
109,192,211150,1,0,0:0:0:0:
329,192,211150,1,0,0:0:0:0:
402,192,211218,1,0,0:0:0:0:
109,192,211286,1,0,0:0:0:0:
36,192,211286,1,0,0:0:0:0:
329,192,211286,1,0,0:0:0:0:
256,192,211286,1,0,0:0:0:0:
402,192,211354,1,0,0:0:0:0:
36,192,211422,1,0,0:0:0:0:
109,192,211422,1,0,0:0:0:0:
329,192,211422,1,0,0:0:0:0:
182,192,211422,1,0,0:0:0:0:
402,192,211490,1,0,0:0:0:0:
36,192,211559,1,0,0:0:0:0:
109,192,211559,1,0,0:0:0:0:
256,192,211559,1,0,0:0:0:0:
329,192,211559,1,0,0:0:0:0:
402,192,211627,1,0,0:0:0:0:
475,192,211627,1,0,0:0:0:0:
36,192,211695,1,0,0:0:0:0:
182,192,211695,1,0,0:0:0:0:
329,192,211729,1,0,0:0:0:0:
109,192,211763,1,0,0:0:0:0:
475,192,211797,1,0,0:0:0:0:
256,192,211831,1,0,0:0:0:0:
402,192,211831,1,0,0:0:0:0:
36,192,211865,1,0,0:0:0:0:
182,192,211900,1,0,0:0:0:0:
329,192,211934,1,0,0:0:0:0:
475,192,211968,1,0,0:0:0:0:
109,192,211968,1,0,0:0:0:0:
256,192,212002,1,0,0:0:0:0:
402,192,212036,1,0,0:0:0:0:
182,192,212070,1,0,0:0:0:0:
36,192,212104,1,0,0:0:0:0:
329,192,212104,1,0,0:0:0:0:
475,192,212138,1,0,0:0:0:0:
256,192,212172,1,0,0:0:0:0:
402,192,212206,1,0,0:0:0:0:
36,192,212240,1,0,0:0:0:0:
182,192,212240,1,0,0:0:0:0:
329,192,212275,1,0,0:0:0:0:
109,192,212309,1,0,0:0:0:0:
256,192,212343,1,0,0:0:0:0:
475,192,212377,1,0,0:0:0:0:
36,192,212377,1,0,0:0:0:0:
402,192,212411,1,0,0:0:0:0:
182,192,212445,1,0,0:0:0:0:
329,192,212479,1,0,0:0:0:0:
36,192,212513,1,0,0:0:0:0:
475,192,212513,1,0,0:0:0:0:
256,192,212547,1,0,0:0:0:0:
109,192,212581,1,0,0:0:0:0:
402,192,212581,1,0,0:0:0:0:
329,192,212615,1,0,0:0:0:0:
182,192,212650,1,0,0:0:0:0:
475,192,212650,1,0,0:0:0:0:
36,192,212684,1,0,0:0:0:0:
402,192,212718,1,0,0:0:0:0:
256,192,212718,1,0,0:0:0:0:
109,192,212752,1,0,0:0:0:0:
475,192,212786,1,0,0:0:0:0:
182,192,212786,1,0,0:0:0:0:
329,192,212786,1,0,0:0:0:0:
256,192,212854,1,0,0:0:0:0:
402,192,212854,1,0,0:0:0:0:
109,192,212922,1,0,0:0:0:0:
36,192,212922,1,0,0:0:0:0:
256,192,212990,1,0,0:0:0:0:
402,192,212990,1,0,0:0:0:0:
329,192,213059,1,0,0:0:0:0:
475,192,213059,1,0,0:0:0:0:
36,192,213059,1,0,0:0:0:0:
182,192,213127,1,0,0:0:0:0:
109,192,213127,1,0,0:0:0:0:
256,192,213195,1,0,0:0:0:0:
402,192,213195,1,0,0:0:0:0:
475,192,213195,1,0,0:0:0:0:
182,192,213263,1,0,0:0:0:0:
329,192,213263,1,0,0:0:0:0:
109,192,213331,1,0,0:0:0:0:
475,192,213331,1,0,0:0:0:0:
256,192,213400,1,0,0:0:0:0:
402,192,213400,1,0,0:0:0:0:
182,192,213468,1,0,0:0:0:0:
329,192,213468,1,0,0:0:0:0:
36,192,213468,1,0,0:0:0:0:
475,192,213536,1,0,0:0:0:0:
402,192,213536,1,0,0:0:0:0:
109,192,213604,1,0,0:0:0:0:
256,192,213604,1,0,0:0:0:0:
36,192,213604,1,0,0:0:0:0:
329,192,213672,1,0,0:0:0:0:
182,192,213672,1,0,0:0:0:0:
475,192,213740,1,0,0:0:0:0:
109,192,213740,1,0,0:0:0:0:
256,192,213809,1,0,0:0:0:0:
402,192,213809,1,0,0:0:0:0:
182,192,213877,1,0,0:0:0:0:
329,192,213877,1,0,0:0:0:0:
36,192,213877,1,0,0:0:0:0:
475,192,213945,1,0,0:0:0:0:
402,192,213945,1,0,0:0:0:0:
109,192,214013,1,0,0:0:0:0:
256,192,214013,1,0,0:0:0:0:
36,192,214013,1,0,0:0:0:0:
329,192,214081,1,0,0:0:0:0:
182,192,214081,1,0,0:0:0:0:
36,192,214150,1,0,0:0:0:0:
402,192,214150,1,0,0:0:0:0:
109,192,214218,1,0,0:0:0:0:
256,192,214218,1,0,0:0:0:0:
329,192,214286,1,0,0:0:0:0:
402,192,214286,1,0,0:0:0:0:
475,192,214286,1,0,0:0:0:0:
109,192,214354,1,0,0:0:0:0:
36,192,214354,1,0,0:0:0:0:
256,192,214354,1,0,0:0:0:0:
402,192,214422,1,0,0:0:0:0:
475,192,214422,1,0,0:0:0:0:
182,192,214422,1,0,0:0:0:0:
329,192,214422,1,0,0:0:0:0:
109,192,214490,1,0,0:0:0:0:
36,192,214490,1,0,0:0:0:0:
182,192,214559,1,0,0:0:0:0:
256,192,214559,1,0,0:0:0:0:
329,192,214559,1,0,0:0:0:0:
475,192,214559,1,0,0:0:0:0:
36,192,214627,1,0,0:0:0:0:
109,192,214627,1,0,0:0:0:0:
329,192,214695,1,0,0:0:0:0:
402,192,214695,1,0,0:0:0:0:
475,192,214695,1,0,0:0:0:0:
256,192,214695,1,0,0:0:0:0:
109,192,214763,1,0,0:0:0:0:
182,192,214763,1,0,0:0:0:0:
329,192,214831,1,0,0:0:0:0:
402,192,214831,1,0,0:0:0:0:
256,192,214900,1,0,0:0:0:0:
182,192,214900,1,0,0:0:0:0:
36,192,214968,1,0,0:0:0:0:
109,192,214968,1,0,0:0:0:0:
402,192,214968,1,0,0:0:0:0:
475,192,214968,1,0,0:0:0:0:
256,192,215036,1,0,0:0:0:0:
329,192,215036,1,0,0:0:0:0:
36,192,215104,1,0,0:0:0:0:
109,192,215104,1,0,0:0:0:0:
182,192,215104,1,0,0:0:0:0:
475,192,215104,1,0,0:0:0:0:
329,192,215172,1,0,0:0:0:0:
402,192,215172,1,0,0:0:0:0:
109,192,215240,1,0,0:0:0:0:
182,192,215240,1,0,0:0:0:0:
256,192,215240,1,0,0:0:0:0:
402,192,215309,1,0,0:0:0:0:
475,192,215309,1,0,0:0:0:0:
36,192,215377,1,0,0:0:0:0:
109,192,215377,1,0,0:0:0:0:
256,192,215377,1,0,0:0:0:0:
329,192,215377,1,0,0:0:0:0:
182,192,215445,1,0,0:0:0:0:
402,192,215445,1,0,0:0:0:0:
256,192,215513,1,0,0:0:0:0:
475,192,215513,1,0,0:0:0:0:
36,192,215513,1,0,0:0:0:0:
182,192,215581,1,0,0:0:0:0:
329,192,215581,1,0,0:0:0:0:
402,192,215650,1,0,0:0:0:0:
109,192,215650,1,0,0:0:0:0:
256,192,215718,1,0,0:0:0:0:
329,192,215718,1,0,0:0:0:0:
182,192,215786,1,0,0:0:0:0:
109,192,215786,1,0,0:0:0:0:
36,192,215786,1,0,0:0:0:0:
475,192,215786,1,0,0:0:0:0:
329,192,215854,1,0,0:0:0:0:
402,192,215854,1,0,0:0:0:0:
36,192,215922,1,0,0:0:0:0:
109,192,215922,1,0,0:0:0:0:
256,192,215922,1,0,0:0:0:0:
402,192,215990,1,0,0:0:0:0:
475,192,215990,1,0,0:0:0:0:
36,192,216059,1,0,0:0:0:0:
329,192,216059,1,0,0:0:0:0:
256,192,216059,1,0,0:0:0:0:
109,192,216059,1,0,0:0:0:0:
182,192,216093,1,0,0:0:0:0:
475,192,216127,1,0,0:0:0:0:
402,192,216161,1,0,0:0:0:0:
329,192,216195,1,0,0:0:0:0:
36,192,216195,1,0,0:0:0:0:
256,192,216229,1,0,0:0:0:0:
109,192,216263,1,0,0:0:0:0:
402,192,216297,1,0,0:0:0:0:
329,192,216331,1,0,0:0:0:0:
182,192,216365,1,0,0:0:0:0:
475,192,216400,1,0,0:0:0:0:
256,192,216434,1,0,0:0:0:0:
36,192,216468,1,0,0:0:0:0:
402,192,216468,1,0,0:0:0:0:
182,192,216502,1,0,0:0:0:0:
329,192,216536,1,0,0:0:0:0:
109,192,216570,1,0,0:0:0:0:
475,192,216604,1,0,0:0:0:0:
256,192,216604,1,0,0:0:0:0:
36,192,216638,1,0,0:0:0:0:
402,192,216672,1,0,0:0:0:0:
182,192,216706,1,0,0:0:0:0:
475,192,216740,1,0,0:0:0:0:
329,192,216740,1,0,0:0:0:0:
109,192,216775,1,0,0:0:0:0:
256,192,216809,1,0,0:0:0:0:
402,192,216843,1,0,0:0:0:0:
36,192,216877,1,0,0:0:0:0:
182,192,216877,1,0,0:0:0:0:
475,192,216911,1,0,0:0:0:0:
329,192,216945,1,0,0:0:0:0:
109,192,216979,1,0,0:0:0:0:
256,192,217013,1,0,0:0:0:0:
402,192,217013,1,0,0:0:0:0:
36,192,217047,1,0,0:0:0:0:
475,192,217081,1,0,0:0:0:0:
329,192,217115,1,0,0:0:0:0:
182,192,217150,1,0,0:0:0:0:
402,192,217184,1,0,0:0:0:0:
109,192,217218,1,0,0:0:0:0:
256,192,217252,1,0,0:0:0:0:
36,192,217286,1,0,0:0:0:0:
475,192,217286,1,0,0:0:0:0:
329,192,217320,1,0,0:0:0:0:
182,192,217354,1,0,0:0:0:0:
402,192,217388,1,0,0:0:0:0:
109,192,217422,1,0,0:0:0:0:
256,192,217422,1,0,0:0:0:0:
475,192,217456,1,0,0:0:0:0:
182,192,217490,1,0,0:0:0:0:
402,192,217525,1,0,0:0:0:0:
36,192,217559,1,0,0:0:0:0:
256,192,217559,1,0,0:0:0:0:
109,192,217593,1,0,0:0:0:0:
329,192,217627,1,0,0:0:0:0:
475,192,217661,1,0,0:0:0:0:
182,192,217695,1,0,0:0:0:0:
36,192,217695,1,0,0:0:0:0:
402,192,217729,1,0,0:0:0:0:
256,192,217763,1,0,0:0:0:0:
109,192,217797,1,0,0:0:0:0:
329,192,217831,1,0,0:0:0:0:
475,192,217865,1,0,0:0:0:0:
182,192,217900,1,0,0:0:0:0:
402,192,217934,1,0,0:0:0:0:
36,192,217968,1,0,0:0:0:0:
256,192,217968,1,0,0:0:0:0:
109,192,218002,1,0,0:0:0:0:
475,192,218036,1,0,0:0:0:0:
329,192,218070,1,0,0:0:0:0:
182,192,218104,1,0,0:0:0:0:
402,192,218104,1,0,0:0:0:0:
36,192,218138,1,0,0:0:0:0:
256,192,218172,1,0,0:0:0:0:
475,192,218206,1,0,0:0:0:0:
329,192,218240,1,0,0:0:0:0:
109,192,218240,1,0,0:0:0:0:
182,192,218275,1,0,0:0:0:0:
402,192,218309,1,0,0:0:0:0:
256,192,218343,1,0,0:0:0:0:
36,192,218377,1,0,0:0:0:0:
475,192,218377,1,0,0:0:0:0:
329,192,218411,1,0,0:0:0:0:
182,192,218445,1,0,0:0:0:0:
402,192,218479,1,0,0:0:0:0:
256,192,218513,1,0,0:0:0:0:
109,192,218547,1,0,0:0:0:0:
475,192,218581,1,0,0:0:0:0:
182,192,218615,1,0,0:0:0:0:
329,192,218650,1,0,0:0:0:0:
36,192,218650,1,0,0:0:0:0:
402,192,218684,1,0,0:0:0:0:
256,192,218718,1,0,0:0:0:0:
109,192,218752,1,0,0:0:0:0:
182,192,218786,1,0,0:0:0:0:
329,192,218786,1,0,0:0:0:0:
475,192,218786,1,0,0:0:0:0:
36,192,218820,1,0,0:0:0:0:
109,192,218854,1,0,0:0:0:0:
182,192,218888,1,0,0:0:0:0:
256,192,218922,1,0,0:0:0:0:
329,192,218956,1,0,0:0:0:0:
402,192,218990,1,0,0:0:0:0:
475,192,219025,1,0,0:0:0:0:
329,192,219059,1,0,0:0:0:0:
256,192,219093,1,0,0:0:0:0:
182,192,219127,1,0,0:0:0:0:
109,192,219161,1,0,0:0:0:0:
402,192,219195,1,0,0:0:0:0:
36,192,219195,1,0,0:0:0:0:
329,192,219229,1,0,0:0:0:0:
256,192,219263,1,0,0:0:0:0:
182,192,219297,1,0,0:0:0:0:
36,192,219331,1,0,0:0:0:0:
475,192,219331,1,0,0:0:0:0:
109,192,219331,1,0,0:0:0:0:
402,192,219400,1,0,0:0:0:0:
182,192,219468,1,0,0:0:0:0:
36,192,219468,1,0,0:0:0:0:
329,192,219468,1,0,0:0:0:0:
402,192,219536,1,0,0:0:0:0:
109,192,219604,1,0,0:0:0:0:
182,192,219604,1,0,0:0:0:0:
475,192,219604,1,0,0:0:0:0:
402,192,219672,1,0,0:0:0:0:
256,192,219740,1,0,0:0:0:0:
109,192,219740,1,0,0:0:0:0:
329,192,219740,1,0,0:0:0:0:
182,192,219740,1,0,0:0:0:0:
475,192,219809,1,0,0:0:0:0:
182,192,219877,1,0,0:0:0:0:
109,192,219877,1,0,0:0:0:0:
329,192,219877,1,0,0:0:0:0:
475,192,219945,1,0,0:0:0:0:
256,192,220013,1,0,0:0:0:0:
182,192,220013,1,0,0:0:0:0:
329,192,220013,1,0,0:0:0:0:
109,192,220013,1,0,0:0:0:0:
475,192,220081,1,0,0:0:0:0:
109,192,220150,1,0,0:0:0:0:
182,192,220150,1,0,0:0:0:0:
329,192,220150,1,0,0:0:0:0:
36,192,220150,1,0,0:0:0:0:
475,192,220218,1,0,0:0:0:0:
182,192,220286,1,0,0:0:0:0:
256,192,220286,1,0,0:0:0:0:
109,192,220286,1,0,0:0:0:0:
329,192,220286,1,0,0:0:0:0:
475,192,220354,1,0,0:0:0:0:
402,192,220354,1,0,0:0:0:0:
36,192,220422,1,0,0:0:0:0:
182,192,220422,1,0,0:0:0:0:
256,192,220456,1,0,0:0:0:0:
475,192,220490,1,0,0:0:0:0:
402,192,220525,1,0,0:0:0:0:
109,192,220559,1,0,0:0:0:0:
329,192,220559,1,0,0:0:0:0:
182,192,220593,1,0,0:0:0:0:
475,192,220627,1,0,0:0:0:0:
256,192,220661,1,0,0:0:0:0:
36,192,220695,1,0,0:0:0:0:
402,192,220695,1,0,0:0:0:0:
182,192,220729,1,0,0:0:0:0:
329,192,220763,1,0,0:0:0:0:
109,192,220797,1,0,0:0:0:0:
256,192,220831,1,0,0:0:0:0:
475,192,220831,1,0,0:0:0:0:
402,192,220865,1,0,0:0:0:0:
182,192,220900,1,0,0:0:0:0:
36,192,220934,1,0,0:0:0:0:
329,192,220968,1,0,0:0:0:0:
475,192,220968,1,0,0:0:0:0:
109,192,221002,1,0,0:0:0:0:
256,192,221036,1,0,0:0:0:0:
402,192,221070,1,0,0:0:0:0:
182,192,221104,1,0,0:0:0:0:
36,192,221104,1,0,0:0:0:0:
329,192,221138,1,0,0:0:0:0:
475,192,221172,1,0,0:0:0:0:
256,192,221206,1,0,0:0:0:0:
109,192,221240,1,0,0:0:0:0:
402,192,221240,1,0,0:0:0:0:
182,192,221275,1,0,0:0:0:0:
329,192,221309,1,0,0:0:0:0:
36,192,221343,1,0,0:0:0:0:
256,192,221377,1,0,0:0:0:0:
475,192,221377,1,0,0:0:0:0:
402,192,221411,1,0,0:0:0:0:
182,192,221445,1,0,0:0:0:0:
329,192,221479,1,0,0:0:0:0:
475,192,221513,1,0,0:0:0:0:
36,192,221513,1,0,0:0:0:0:
109,192,221513,1,0,0:0:0:0:
256,192,221581,1,0,0:0:0:0:
402,192,221581,1,0,0:0:0:0:
182,192,221650,1,0,0:0:0:0:
329,192,221650,1,0,0:0:0:0:
109,192,221718,1,0,0:0:0:0:
475,192,221718,1,0,0:0:0:0:
36,192,221786,1,0,0:0:0:0:
256,192,221786,1,0,0:0:0:0:
402,192,221786,1,0,0:0:0:0:
182,192,221854,1,0,0:0:0:0:
329,192,221854,1,0,0:0:0:0:
36,192,221922,1,0,0:0:0:0:
109,192,221922,1,0,0:0:0:0:
256,192,221922,1,0,0:0:0:0:
402,192,221990,1,0,0:0:0:0:
475,192,221990,1,0,0:0:0:0:
329,192,222059,1,0,0:0:0:0:
182,192,222059,1,0,0:0:0:0:
256,192,222127,1,0,0:0:0:0:
475,192,222127,1,0,0:0:0:0:
36,192,222195,1,0,0:0:0:0:
109,192,222195,1,0,0:0:0:0:
402,192,222195,1,0,0:0:0:0:
329,192,222263,1,0,0:0:0:0:
256,192,222263,1,0,0:0:0:0:
36,192,222331,1,0,0:0:0:0:
182,192,222331,1,0,0:0:0:0:
475,192,222331,1,0,0:0:0:0:
329,192,222400,1,0,0:0:0:0:
402,192,222400,1,0,0:0:0:0:
109,192,222468,1,0,0:0:0:0:
256,192,222468,1,0,0:0:0:0:
402,192,222536,1,0,0:0:0:0:
475,192,222536,1,0,0:0:0:0:
109,192,222604,1,0,0:0:0:0:
182,192,222604,1,0,0:0:0:0:
329,192,222604,1,0,0:0:0:0:
256,192,222672,1,0,0:0:0:0:
402,192,222672,1,0,0:0:0:0:
36,192,222740,1,0,0:0:0:0:
475,192,222740,1,0,0:0:0:0:
109,192,222740,1,0,0:0:0:0:
182,192,222809,1,0,0:0:0:0:
329,192,222809,1,0,0:0:0:0:
256,192,222877,1,0,0:0:0:0:
402,192,222877,1,0,0:0:0:0:
36,192,222945,1,0,0:0:0:0:
109,192,223013,1,0,0:0:0:0:
329,192,223013,1,0,0:0:0:0:
475,192,223013,1,0,0:0:0:0:
182,192,223081,1,0,0:0:0:0:
256,192,223081,1,0,0:0:0:0:
36,192,223150,1,0,0:0:0:0:
109,192,223150,1,0,0:0:0:0:
402,192,223150,1,0,0:0:0:0:
475,192,223150,1,0,0:0:0:0:
256,192,223218,1,0,0:0:0:0:
329,192,223218,1,0,0:0:0:0:
36,192,223286,1,0,0:0:0:0:
109,192,223286,1,0,0:0:0:0:
182,192,223286,1,0,0:0:0:0:
475,192,223286,1,0,0:0:0:0:
329,192,223354,1,0,0:0:0:0:
402,192,223354,1,0,0:0:0:0:
36,192,223422,1,0,0:0:0:0:
109,192,223422,1,0,0:0:0:0:
182,192,223422,1,0,0:0:0:0:
256,192,223422,1,0,0:0:0:0:
402,192,223490,1,0,0:0:0:0:
475,192,223490,1,0,0:0:0:0:
109,192,223559,1,0,0:0:0:0:
329,192,223559,1,0,0:0:0:0:
182,192,223627,1,0,0:0:0:0:
256,192,223627,1,0,0:0:0:0:
402,192,223695,1,0,0:0:0:0:
475,192,223695,1,0,0:0:0:0:
36,192,223695,1,0,0:0:0:0:
109,192,223695,1,0,0:0:0:0:
256,192,223763,1,0,0:0:0:0:
329,192,223763,1,0,0:0:0:0:
182,192,223763,1,0,0:0:0:0:
402,192,223831,1,0,0:0:0:0:
475,192,223831,1,0,0:0:0:0:
36,192,223831,1,0,0:0:0:0:
109,192,223900,1,0,0:0:0:0:
182,192,223900,1,0,0:0:0:0:
256,192,223900,1,0,0:0:0:0:
329,192,223968,1,0,0:0:0:0:
402,192,223968,1,0,0:0:0:0:
475,192,223968,1,0,0:0:0:0:
36,192,224036,1,0,0:0:0:0:
109,192,224036,1,0,0:0:0:0:
182,192,224036,1,0,0:0:0:0:
256,192,224104,1,0,0:0:0:0:
402,192,224104,1,0,0:0:0:0:
475,192,224104,1,0,0:0:0:0:
182,192,224172,1,0,0:0:0:0:
329,192,224172,1,0,0:0:0:0:
109,192,224172,1,0,0:0:0:0:
36,192,224240,1,0,0:0:0:0:
256,192,224240,1,0,0:0:0:0:
475,192,224240,1,0,0:0:0:0:
329,192,224309,1,0,0:0:0:0:
402,192,224309,1,0,0:0:0:0:
36,192,224377,1,0,0:0:0:0:
109,192,224377,1,0,0:0:0:0:
475,192,224377,1,0,0:0:0:0:
182,192,224445,1,0,0:0:0:0:
256,192,224445,1,0,0:0:0:0:
402,192,224445,1,0,0:0:0:0:
36,192,224513,1,0,0:0:0:0:
109,192,224513,1,0,0:0:0:0:
329,192,224513,1,0,0:0:0:0:
402,192,224581,1,0,0:0:0:0:
475,192,224581,1,0,0:0:0:0:
256,192,224581,1,0,0:0:0:0:
36,192,224650,1,0,0:0:0:0:
109,192,224650,1,0,0:0:0:0:
182,192,224650,1,0,0:0:0:0:
256,192,224718,1,0,0:0:0:0:
329,192,224718,1,0,0:0:0:0:
402,192,224718,1,0,0:0:0:0:
475,192,224786,1,0,0:0:0:0:
36,192,224786,1,0,0:0:0:0:
109,192,224786,1,0,0:0:0:0:
182,192,224854,1,0,0:0:0:0:
256,192,224854,1,0,0:0:0:0:
329,192,224854,1,0,0:0:0:0:
402,192,224922,1,0,0:0:0:0:
475,192,224922,1,0,0:0:0:0:
36,192,224922,1,0,0:0:0:0:
329,192,224990,1,0,0:0:0:0:
182,192,224990,1,0,0:0:0:0:
109,192,224990,1,0,0:0:0:0:
256,192,225059,1,0,0:0:0:0:
402,192,225059,1,0,0:0:0:0:
475,192,225059,1,0,0:0:0:0:
36,192,225127,1,0,0:0:0:0:
109,192,225127,1,0,0:0:0:0:
329,192,225127,1,0,0:0:0:0:
182,192,225195,1,0,0:0:0:0:
256,192,225195,1,0,0:0:0:0:
475,192,225195,1,0,0:0:0:0:
402,192,225263,1,0,0:0:0:0:
329,192,225263,1,0,0:0:0:0:
109,192,225263,1,0,0:0:0:0:
36,192,225331,1,0,0:0:0:0:
182,192,225331,1,0,0:0:0:0:
256,192,225331,1,0,0:0:0:0:
402,192,225400,1,0,0:0:0:0:
475,192,225400,1,0,0:0:0:0:
109,192,225400,1,0,0:0:0:0:
329,192,225468,1,0,0:0:0:0:
256,192,225468,1,0,0:0:0:0:
36,192,225468,1,0,0:0:0:0:
182,192,225536,1,0,0:0:0:0:
475,192,225536,1,0,0:0:0:0:
402,192,225536,1,0,0:0:0:0:
36,192,225604,1,0,0:0:0:0:
109,192,225604,1,0,0:0:0:0:
329,192,225604,1,0,0:0:0:0:
256,192,225672,1,0,0:0:0:0:
402,192,225672,1,0,0:0:0:0:
475,192,225672,1,0,0:0:0:0:
182,192,225740,1,0,0:0:0:0:
36,192,225740,1,0,0:0:0:0:
329,192,225740,1,0,0:0:0:0:
109,192,225809,1,0,0:0:0:0:
256,192,225809,1,0,0:0:0:0:
475,192,225809,1,0,0:0:0:0:
329,192,225877,1,0,0:0:0:0:
36,192,225877,1,0,0:0:0:0:
402,192,225877,1,0,0:0:0:0:
109,192,225945,1,0,0:0:0:0:
182,192,225945,1,0,0:0:0:0:
256,192,225945,1,0,0:0:0:0:
329,192,226013,1,0,0:0:0:0:
402,192,226013,1,0,0:0:0:0:
475,192,226013,1,0,0:0:0:0:
36,192,226081,1,0,0:0:0:0:
109,192,226081,1,0,0:0:0:0:
182,192,226081,1,0,0:0:0:0:
329,192,226150,1,0,0:0:0:0:
402,192,226150,1,0,0:0:0:0:
256,192,226150,1,0,0:0:0:0:
36,192,226218,1,0,0:0:0:0:
109,192,226218,1,0,0:0:0:0:
182,192,226218,1,0,0:0:0:0:
329,192,226286,1,0,0:0:0:0:
402,192,226286,1,0,0:0:0:0:
475,192,226286,1,0,0:0:0:0:
182,192,226354,1,0,0:0:0:0:
256,192,226354,1,0,0:0:0:0:
109,192,226354,1,0,0:0:0:0:
329,192,226422,1,0,0:0:0:0:
402,192,226422,1,0,0:0:0:0:
475,192,226422,1,0,0:0:0:0:
36,192,226490,1,0,0:0:0:0:
109,192,226490,1,0,0:0:0:0:
182,192,226490,1,0,0:0:0:0:
256,192,226559,1,0,0:0:0:0:
329,192,226559,1,0,0:0:0:0:
402,192,226559,1,0,0:0:0:0:
36,192,226627,1,0,0:0:0:0:
109,192,226627,1,0,0:0:0:0:
182,192,226627,1,0,0:0:0:0:
402,192,226695,1,0,0:0:0:0:
475,192,226695,1,0,0:0:0:0:
329,192,226695,1,0,0:0:0:0:
109,192,226763,1,0,0:0:0:0:
256,192,226763,1,0,0:0:0:0:
182,192,226763,1,0,0:0:0:0:
329,192,226831,1,0,0:0:0:0:
475,192,226831,1,0,0:0:0:0:
402,192,226831,1,0,0:0:0:0:
36,192,226900,1,0,0:0:0:0:
182,192,226900,1,0,0:0:0:0:
109,192,226900,1,0,0:0:0:0:
256,192,226968,1,0,0:0:0:0:
402,192,226968,1,0,0:0:0:0:
329,192,226968,1,0,0:0:0:0:
109,192,227036,1,0,0:0:0:0:
36,192,227036,1,0,0:0:0:0:
182,192,227036,1,0,0:0:0:0:
329,192,227104,1,0,0:0:0:0:
402,192,227104,1,0,0:0:0:0:
475,192,227104,1,0,0:0:0:0:
109,192,227172,1,0,0:0:0:0:
182,192,227172,1,0,0:0:0:0:
256,192,227172,1,0,0:0:0:0:
36,192,227240,1,0,0:0:0:0:
475,192,227240,1,0,0:0:0:0:
329,192,227309,1,0,0:0:0:0:
402,192,227309,1,0,0:0:0:0:
256,192,227309,1,0,0:0:0:0:
36,192,227377,1,0,0:0:0:0:
109,192,227377,1,0,0:0:0:0:
182,192,227377,1,0,0:0:0:0:
402,192,227445,1,0,0:0:0:0:
475,192,227445,1,0,0:0:0:0:
182,192,227513,1,0,0:0:0:0:
256,192,227513,1,0,0:0:0:0:
329,192,227513,1,0,0:0:0:0:
36,192,227581,1,0,0:0:0:0:
109,192,227581,1,0,0:0:0:0:
475,192,227581,1,0,0:0:0:0:
402,192,227650,1,0,0:0:0:0:
329,192,227650,1,0,0:0:0:0:
256,192,227650,1,0,0:0:0:0:
36,192,227718,1,0,0:0:0:0:
109,192,227718,1,0,0:0:0:0:
182,192,227718,1,0,0:0:0:0:
256,192,227786,1,0,0:0:0:0:
329,192,227786,1,0,0:0:0:0:
475,192,227786,1,0,0:0:0:0:
402,192,227786,1,0,0:0:0:0:
36,192,227922,1,0,0:0:0:0:
109,192,227922,1,0,0:0:0:0:
402,192,227922,1,0,0:0:0:0:
475,192,227922,1,0,0:0:0:0:
109,192,228059,1,0,0:0:0:0:
182,192,228059,1,0,0:0:0:0:
256,192,228059,1,0,0:0:0:0:
402,192,228059,1,0,0:0:0:0:
182,192,228195,1,0,0:0:0:0:
329,192,228195,1,0,0:0:0:0:
109,192,228331,1,0,0:0:0:0:
256,192,228331,1,0,0:0:0:0:
36,192,228468,1,0,0:0:0:0:
182,192,228468,1,0,0:0:0:0:
402,192,228468,1,0,0:0:0:0:
329,192,228468,1,0,0:0:0:0:
182,192,228604,1,0,0:0:0:0:
36,192,228604,1,0,0:0:0:0:
329,192,228672,1,0,0:0:0:0:
475,192,228672,1,0,0:0:0:0:
36,192,228740,1,0,0:0:0:0:
109,192,228740,1,0,0:0:0:0:
256,192,228740,1,0,0:0:0:0:
182,192,228877,1,0,0:0:0:0:
475,192,228877,1,0,0:0:0:0:
109,192,228877,1,0,0:0:0:0:
402,192,228911,1,0,0:0:0:0:
329,192,228945,1,0,0:0:0:0:
36,192,228979,1,0,0:0:0:0:
109,192,229013,1,0,0:0:0:0:
475,192,229013,1,0,0:0:0:0:
402,192,229047,1,0,0:0:0:0:
329,192,229081,1,0,0:0:0:0:
182,192,229081,1,0,0:0:0:0:
256,192,229115,1,0,0:0:0:0:
109,192,229150,1,0,0:0:0:0:
36,192,229150,1,0,0:0:0:0:
475,192,229150,1,0,0:0:0:0:
329,192,229184,1,0,0:0:0:0:
182,192,229218,1,0,0:0:0:0:
402,192,229252,1,0,0:0:0:0:
256,192,229286,1,0,0:0:0:0:
475,192,229286,1,0,0:0:0:0:
36,192,229320,1,0,0:0:0:0:
182,192,229354,1,0,0:0:0:0:
329,192,229388,1,0,0:0:0:0:
109,192,229422,1,0,0:0:0:0:
475,192,229422,1,0,0:0:0:0:
256,192,229456,1,0,0:0:0:0:
402,192,229490,1,0,0:0:0:0:
182,192,229525,1,0,0:0:0:0:
329,192,229559,1,0,0:0:0:0:
36,192,229559,1,0,0:0:0:0:
475,192,229593,1,0,0:0:0:0:
256,192,229627,1,0,0:0:0:0:
402,192,229661,1,0,0:0:0:0:
182,192,229695,1,0,0:0:0:0:
36,192,229695,1,0,0:0:0:0:
329,192,229729,1,0,0:0:0:0:
109,192,229763,1,0,0:0:0:0:
256,192,229797,1,0,0:0:0:0:
36,192,229831,1,0,0:0:0:0:
475,192,229831,1,0,0:0:0:0:
402,192,229865,1,0,0:0:0:0:
182,192,229900,1,0,0:0:0:0:
329,192,229934,1,0,0:0:0:0:
475,192,229968,1,0,0:0:0:0:
36,192,229968,1,0,0:0:0:0:
256,192,230002,1,0,0:0:0:0:
402,192,230036,1,0,0:0:0:0:
109,192,230036,1,0,0:0:0:0:
329,192,230070,1,0,0:0:0:0:
475,192,230104,1,0,0:0:0:0:
182,192,230104,1,0,0:0:0:0:
36,192,230138,1,0,0:0:0:0:
256,192,230172,1,0,0:0:0:0:
402,192,230172,1,0,0:0:0:0:
109,192,230206,1,0,0:0:0:0:
329,192,230240,1,0,0:0:0:0:
182,192,230240,1,0,0:0:0:0:
475,192,230240,1,0,0:0:0:0:
402,192,230309,1,0,0:0:0:0:
256,192,230309,1,0,0:0:0:0:
36,192,230377,1,0,0:0:0:0:
109,192,230377,1,0,0:0:0:0:
402,192,230445,1,0,0:0:0:0:
256,192,230445,1,0,0:0:0:0:
36,192,230513,1,0,0:0:0:0:
475,192,230513,1,0,0:0:0:0:
329,192,230513,1,0,0:0:0:0:
109,192,230581,1,0,0:0:0:0:
182,192,230581,1,0,0:0:0:0:
475,192,230650,1,0,0:0:0:0:
402,192,230650,1,0,0:0:0:0:
256,192,230650,1,0,0:0:0:0:
329,192,230718,1,0,0:0:0:0:
182,192,230718,1,0,0:0:0:0:
475,192,230786,1,0,0:0:0:0:
109,192,230786,1,0,0:0:0:0:
402,192,230854,1,0,0:0:0:0:
256,192,230854,1,0,0:0:0:0:
36,192,230922,1,0,0:0:0:0:
329,192,230922,1,0,0:0:0:0:
182,192,230922,1,0,0:0:0:0:
402,192,230990,1,0,0:0:0:0:
475,192,230990,1,0,0:0:0:0:
36,192,231059,1,0,0:0:0:0:
256,192,231059,1,0,0:0:0:0:
109,192,231059,1,0,0:0:0:0:
182,192,231127,1,0,0:0:0:0:
329,192,231127,1,0,0:0:0:0:
109,192,231195,1,0,0:0:0:0:
475,192,231195,1,0,0:0:0:0:
402,192,231263,1,0,0:0:0:0:
256,192,231263,1,0,0:0:0:0:
36,192,231331,1,0,0:0:0:0:
329,192,231331,1,0,0:0:0:0:
182,192,231331,1,0,0:0:0:0:
402,192,231400,1,0,0:0:0:0:
475,192,231400,1,0,0:0:0:0:
36,192,231468,1,0,0:0:0:0:
256,192,231468,1,0,0:0:0:0:
109,192,231468,1,0,0:0:0:0:
182,192,231536,1,0,0:0:0:0:
329,192,231536,1,0,0:0:0:0:
402,192,231604,1,0,0:0:0:0:
36,192,231604,1,0,0:0:0:0:
256,192,231672,1,0,0:0:0:0:
109,192,231672,1,0,0:0:0:0:
475,192,231740,1,0,0:0:0:0:
402,192,231740,1,0,0:0:0:0:
329,192,231740,1,0,0:0:0:0:
256,192,231809,1,0,0:0:0:0:
36,192,231809,1,0,0:0:0:0:
109,192,231809,1,0,0:0:0:0:
182,192,231877,1,0,0:0:0:0:
329,192,231877,1,0,0:0:0:0:
402,192,231877,1,0,0:0:0:0:
475,192,231877,1,0,0:0:0:0:
36,192,231945,1,0,0:0:0:0:
109,192,231945,1,0,0:0:0:0:
329,192,232013,1,0,0:0:0:0:
475,192,232013,1,0,0:0:0:0:
182,192,232013,1,0,0:0:0:0:
256,192,232013,1,0,0:0:0:0:
109,192,232081,1,0,0:0:0:0:
36,192,232081,1,0,0:0:0:0:
475,192,232150,1,0,0:0:0:0:
256,192,232150,1,0,0:0:0:0:
329,192,232150,1,0,0:0:0:0:
402,192,232150,1,0,0:0:0:0:
182,192,232218,1,0,0:0:0:0:
109,192,232218,1,0,0:0:0:0:
402,192,232286,1,0,0:0:0:0:
329,192,232286,1,0,0:0:0:0:
182,192,232354,1,0,0:0:0:0:
256,192,232354,1,0,0:0:0:0:
402,192,232422,1,0,0:0:0:0:
475,192,232422,1,0,0:0:0:0:
36,192,232422,1,0,0:0:0:0:
109,192,232422,1,0,0:0:0:0:
329,192,232490,1,0,0:0:0:0:
256,192,232490,1,0,0:0:0:0:
182,192,232559,1,0,0:0:0:0:
475,192,232559,1,0,0:0:0:0:
36,192,232559,1,0,0:0:0:0:
109,192,232559,1,0,0:0:0:0:
402,192,232627,1,0,0:0:0:0:
329,192,232627,1,0,0:0:0:0:
256,192,232695,1,0,0:0:0:0:
182,192,232695,1,0,0:0:0:0:
109,192,232695,1,0,0:0:0:0:
475,192,232763,1,0,0:0:0:0:
402,192,232763,1,0,0:0:0:0:
256,192,232831,1,0,0:0:0:0:
329,192,232831,1,0,0:0:0:0:
36,192,232831,1,0,0:0:0:0:
109,192,232831,1,0,0:0:0:0:
402,192,232900,1,0,0:0:0:0:
182,192,232900,1,0,0:0:0:0:
36,192,232968,1,0,0:0:0:0:
475,192,232968,1,0,0:0:0:0:
256,192,232968,1,0,0:0:0:0:
329,192,233036,1,0,0:0:0:0:
182,192,233036,1,0,0:0:0:0:
109,192,233104,1,0,0:0:0:0:
402,192,233104,1,0,0:0:0:0:
329,192,233172,1,0,0:0:0:0:
256,192,233172,1,0,0:0:0:0:
36,192,233240,1,0,0:0:0:0:
475,192,233240,1,0,0:0:0:0:
182,192,233240,1,0,0:0:0:0:
109,192,233240,1,0,0:0:0:0:
402,192,233309,1,0,0:0:0:0:
329,192,233309,1,0,0:0:0:0:
256,192,233377,1,0,0:0:0:0:
109,192,233377,1,0,0:0:0:0:
36,192,233377,1,0,0:0:0:0:
475,192,233445,1,0,0:0:0:0:
402,192,233445,1,0,0:0:0:0:
256,192,233513,1,0,0:0:0:0:
109,192,233513,1,0,0:0:0:0:
36,192,233513,1,0,0:0:0:0:
329,192,233513,1,0,0:0:0:0:
182,192,233547,1,0,0:0:0:0:
475,192,233581,1,0,0:0:0:0:
402,192,233615,1,0,0:0:0:0:
36,192,233650,1,0,0:0:0:0:
329,192,233650,1,0,0:0:0:0:
256,192,233684,1,0,0:0:0:0:
109,192,233718,1,0,0:0:0:0:
402,192,233752,1,0,0:0:0:0:
329,192,233786,1,0,0:0:0:0:
182,192,233820,1,0,0:0:0:0:
475,192,233854,1,0,0:0:0:0:
256,192,233888,1,0,0:0:0:0:
402,192,233922,1,0,0:0:0:0:
36,192,233922,1,0,0:0:0:0:
182,192,233956,1,0,0:0:0:0:
329,192,233990,1,0,0:0:0:0:
109,192,234025,1,0,0:0:0:0:
256,192,234059,1,0,0:0:0:0:
475,192,234059,1,0,0:0:0:0:
36,192,234093,1,0,0:0:0:0:
402,192,234127,1,0,0:0:0:0:
182,192,234161,1,0,0:0:0:0:
329,192,234195,1,0,0:0:0:0:
475,192,234195,1,0,0:0:0:0:
109,192,234229,1,0,0:0:0:0:
256,192,234263,1,0,0:0:0:0:
402,192,234297,1,0,0:0:0:0:
182,192,234331,1,0,0:0:0:0:
36,192,234331,1,0,0:0:0:0:
475,192,234365,1,0,0:0:0:0:
329,192,234400,1,0,0:0:0:0:
109,192,234434,1,0,0:0:0:0:
402,192,234468,1,0,0:0:0:0:
256,192,234468,1,0,0:0:0:0:
36,192,234502,1,0,0:0:0:0:
475,192,234536,1,0,0:0:0:0:
329,192,234570,1,0,0:0:0:0:
182,192,234604,1,0,0:0:0:0:
402,192,234638,1,0,0:0:0:0:
109,192,234672,1,0,0:0:0:0:
256,192,234706,1,0,0:0:0:0:
475,192,234740,1,0,0:0:0:0:
36,192,234740,1,0,0:0:0:0:
329,192,234775,1,0,0:0:0:0:
182,192,234809,1,0,0:0:0:0:
402,192,234843,1,0,0:0:0:0:
256,192,234877,1,0,0:0:0:0:
109,192,234877,1,0,0:0:0:0:
475,192,234911,1,0,0:0:0:0:
182,192,234945,1,0,0:0:0:0:
402,192,234979,1,0,0:0:0:0:
256,192,235013,1,0,0:0:0:0:
36,192,235013,1,0,0:0:0:0:
109,192,235047,1,0,0:0:0:0:
329,192,235081,1,0,0:0:0:0:
475,192,235115,1,0,0:0:0:0:
36,192,235150,1,0,0:0:0:0:
182,192,235150,1,0,0:0:0:0:
402,192,235184,1,0,0:0:0:0:
256,192,235218,1,0,0:0:0:0:
109,192,235252,1,0,0:0:0:0:
329,192,235286,1,0,0:0:0:0:
475,192,235320,1,0,0:0:0:0:
182,192,235354,1,0,0:0:0:0:
402,192,235388,1,0,0:0:0:0:
256,192,235422,1,0,0:0:0:0:
36,192,235422,1,0,0:0:0:0:
109,192,235456,1,0,0:0:0:0:
475,192,235490,1,0,0:0:0:0:
329,192,235525,1,0,0:0:0:0:
402,192,235559,1,0,0:0:0:0:
182,192,235559,1,0,0:0:0:0:
36,192,235593,1,0,0:0:0:0:
256,192,235627,1,0,0:0:0:0:
475,192,235661,1,0,0:0:0:0:
109,192,235695,1,0,0:0:0:0:
329,192,235695,1,0,0:0:0:0:
182,192,235729,1,0,0:0:0:0:
402,192,235763,1,0,0:0:0:0:
256,192,235797,1,0,0:0:0:0:
475,192,235831,1,0,0:0:0:0:
36,192,235831,1,0,0:0:0:0:
329,192,235865,1,0,0:0:0:0:
182,192,235900,1,0,0:0:0:0:
402,192,235934,1,0,0:0:0:0:
256,192,235968,1,0,0:0:0:0:
109,192,236002,1,0,0:0:0:0:
475,192,236036,1,0,0:0:0:0:
182,192,236070,1,0,0:0:0:0:
36,192,236104,1,0,0:0:0:0:
329,192,236104,1,0,0:0:0:0:
402,192,236138,1,0,0:0:0:0:
256,192,236172,1,0,0:0:0:0:
109,192,236206,1,0,0:0:0:0:
475,192,236240,1,0,0:0:0:0:
329,192,236240,1,0,0:0:0:0:
182,192,236240,1,0,0:0:0:0:
36,192,236275,1,0,0:0:0:0:
109,192,236309,1,0,0:0:0:0:
182,192,236343,1,0,0:0:0:0:
256,192,236377,1,0,0:0:0:0:
329,192,236411,1,0,0:0:0:0:
402,192,236445,1,0,0:0:0:0:
475,192,236479,1,0,0:0:0:0:
329,192,236513,1,0,0:0:0:0:
256,192,236547,1,0,0:0:0:0:
182,192,236581,1,0,0:0:0:0:
109,192,236615,1,0,0:0:0:0:
36,192,236650,1,0,0:0:0:0:
402,192,236650,1,0,0:0:0:0:
329,192,236684,1,0,0:0:0:0:
256,192,236718,1,0,0:0:0:0:
182,192,236752,1,0,0:0:0:0:
109,192,236786,1,0,0:0:0:0:
475,192,236786,1,0,0:0:0:0:
36,192,236786,1,0,0:0:0:0:
329,192,236820,1,0,0:0:0:0:
182,192,236854,1,0,0:0:0:0:
402,192,236888,1,0,0:0:0:0:
256,192,236922,1,0,0:0:0:0:
36,192,236922,1,0,0:0:0:0:
109,192,236956,1,0,0:0:0:0:
475,192,236990,1,0,0:0:0:0:
182,192,237025,1,0,0:0:0:0:
329,192,237059,1,0,0:0:0:0:
36,192,237059,1,0,0:0:0:0:
402,192,237093,1,0,0:0:0:0:
256,192,237127,1,0,0:0:0:0:
109,192,237161,1,0,0:0:0:0:
329,192,237195,1,0,0:0:0:0:
475,192,237195,1,0,0:0:0:0:
182,192,237229,1,0,0:0:0:0:
256,192,237263,1,0,0:0:0:0:
109,192,237297,1,0,0:0:0:0:
36,192,237331,1,0,0:0:0:0:
402,192,237331,1,0,0:0:0:0:
182,192,237365,1,0,0:0:0:0:
256,192,237400,1,0,0:0:0:0:
475,192,237434,1,0,0:0:0:0:
109,192,237468,1,0,0:0:0:0:
329,192,237468,1,0,0:0:0:0:
182,192,237502,1,0,0:0:0:0:
402,192,237536,1,0,0:0:0:0:
256,192,237570,1,0,0:0:0:0:
36,192,237604,1,0,0:0:0:0:
475,192,237604,1,0,0:0:0:0:
109,192,237638,1,0,0:0:0:0:
329,192,237672,1,0,0:0:0:0:
182,192,237706,1,0,0:0:0:0:
402,192,237740,1,0,0:0:0:0:
36,192,237740,1,0,0:0:0:0:
256,192,237775,1,0,0:0:0:0:
109,192,237809,1,0,0:0:0:0:
475,192,237843,1,0,0:0:0:0:
182,192,237877,1,0,0:0:0:0:
329,192,237877,1,0,0:0:0:0:
36,192,237911,1,0,0:0:0:0:
402,192,237945,1,0,0:0:0:0:
109,192,237979,1,0,0:0:0:0:
256,192,238013,1,0,0:0:0:0:
475,192,238013,1,0,0:0:0:0:
329,192,238047,1,0,0:0:0:0:
182,192,238081,1,0,0:0:0:0:
402,192,238115,1,0,0:0:0:0:
36,192,238150,1,0,0:0:0:0:
256,192,238150,1,0,0:0:0:0:
109,192,238184,1,0,0:0:0:0:
475,192,238218,1,0,0:0:0:0:
329,192,238252,1,0,0:0:0:0:
182,192,238286,1,0,0:0:0:0:
402,192,238286,1,0,0:0:0:0:
36,192,238320,1,0,0:0:0:0:
256,192,238354,1,0,0:0:0:0:
475,192,238388,1,0,0:0:0:0:
329,192,238422,1,0,0:0:0:0:
109,192,238422,1,0,0:0:0:0:
182,192,238456,1,0,0:0:0:0:
402,192,238490,1,0,0:0:0:0:
36,192,238525,1,0,0:0:0:0:
475,192,238559,1,0,0:0:0:0:
256,192,238559,1,0,0:0:0:0:
109,192,238593,1,0,0:0:0:0:
402,192,238627,1,0,0:0:0:0:
182,192,238627,1,0,0:0:0:0:
329,192,238661,1,0,0:0:0:0:
36,192,238695,1,0,0:0:0:0:
475,192,238695,1,0,0:0:0:0:
256,192,238729,1,0,0:0:0:0:
109,192,238763,1,0,0:0:0:0:
402,192,238797,1,0,0:0:0:0:
329,192,238831,1,0,0:0:0:0:
182,192,238831,1,0,0:0:0:0:
36,192,238865,1,0,0:0:0:0:
475,192,238900,1,0,0:0:0:0:
256,192,238934,1,0,0:0:0:0:
402,192,238968,1,0,0:0:0:0:
109,192,238968,1,0,0:0:0:0:
329,192,239002,1,0,0:0:0:0:
182,192,239036,1,0,0:0:0:0:
475,192,239070,1,0,0:0:0:0:
36,192,239104,1,0,0:0:0:0:
256,192,239104,1,0,0:0:0:0:
402,192,239138,1,0,0:0:0:0:
182,192,239172,1,0,0:0:0:0:
329,192,239206,1,0,0:0:0:0:
109,192,239240,1,0,0:0:0:0:
475,192,239240,1,0,0:0:0:0:
256,192,239275,1,0,0:0:0:0:
402,192,239309,1,0,0:0:0:0:
36,192,239343,1,0,0:0:0:0:
182,192,239377,1,0,0:0:0:0:
329,192,239377,1,0,0:0:0:0:
475,192,239411,1,0,0:0:0:0:
256,192,239445,1,0,0:0:0:0:
36,192,239479,1,0,0:0:0:0:
402,192,239513,1,0,0:0:0:0:
109,192,239513,1,0,0:0:0:0:
329,192,239547,1,0,0:0:0:0:
182,192,239581,1,0,0:0:0:0:
475,192,239615,1,0,0:0:0:0:
256,192,239650,1,0,0:0:0:0:
36,192,239650,1,0,0:0:0:0:
402,192,239684,1,0,0:0:0:0:
109,192,239718,1,0,0:0:0:0:
329,192,239752,1,0,0:0:0:0:
182,192,239786,1,0,0:0:0:0:
475,192,239786,1,0,0:0:0:0:
36,192,239820,1,0,0:0:0:0:
402,192,239854,1,0,0:0:0:0:
256,192,239888,1,0,0:0:0:0:
109,192,239922,1,0,0:0:0:0:
475,192,239922,1,0,0:0:0:0:
329,192,239956,1,0,0:0:0:0:
182,192,239990,1,0,0:0:0:0:
402,192,240025,1,0,0:0:0:0:
36,192,240059,1,0,0:0:0:0:
109,192,240059,1,0,0:0:0:0:
256,192,240093,1,0,0:0:0:0:
475,192,240127,1,0,0:0:0:0:
329,192,240161,1,0,0:0:0:0:
182,192,240195,1,0,0:0:0:0:
36,192,240195,1,0,0:0:0:0:
402,192,240229,1,0,0:0:0:0:
256,192,240263,1,0,0:0:0:0:
475,192,240297,1,0,0:0:0:0:
329,192,240331,1,0,0:0:0:0:
109,192,240331,1,0,0:0:0:0:
182,192,240365,1,0,0:0:0:0:
402,192,240400,1,0,0:0:0:0:
256,192,240434,1,0,0:0:0:0:
36,192,240468,1,0,0:0:0:0:
475,192,240468,1,0,0:0:0:0:
329,192,240502,1,0,0:0:0:0:
402,192,240536,1,0,0:0:0:0:
182,192,240536,1,0,0:0:0:0:
109,192,240570,1,0,0:0:0:0:
256,192,240604,1,0,0:0:0:0:
475,192,240604,1,0,0:0:0:0:
329,192,240638,1,0,0:0:0:0:
36,192,240672,1,0,0:0:0:0:
182,192,240672,1,0,0:0:0:0:
402,192,240706,1,0,0:0:0:0:
109,192,240740,1,0,0:0:0:0:
475,192,240740,1,0,0:0:0:0:
256,192,240775,1,0,0:0:0:0:
329,192,240809,1,0,0:0:0:0:
182,192,240809,1,0,0:0:0:0:
36,192,240843,1,0,0:0:0:0:
109,192,240877,1,0,0:0:0:0:
402,192,240877,1,0,0:0:0:0:
475,192,240911,1,0,0:0:0:0:
182,192,240945,1,0,0:0:0:0:
329,192,240979,1,0,0:0:0:0:
256,192,241013,1,0,0:0:0:0:
36,192,241013,1,0,0:0:0:0:
109,192,241047,1,0,0:0:0:0:
475,192,241081,1,0,0:0:0:0:
182,192,241115,1,0,0:0:0:0:
402,192,241150,1,0,0:0:0:0:
36,192,241150,1,0,0:0:0:0:
329,192,241150,1,0,0:0:0:0:
256,192,241184,1,0,0:0:0:0:
109,192,241218,1,0,0:0:0:0:
475,192,241252,1,0,0:0:0:0:
182,192,241286,1,0,0:0:0:0:
402,192,241320,1,0,0:0:0:0:
256,192,241354,1,0,0:0:0:0:
36,192,241388,1,0,0:0:0:0:
109,192,241422,1,0,0:0:0:0:
329,192,241422,1,0,0:0:0:0:
475,192,241422,1,0,0:0:0:0:
182,192,241456,1,0,0:0:0:0:
402,192,241490,1,0,0:0:0:0:
256,192,241525,1,0,0:0:0:0:
36,192,241559,1,0,0:0:0:0:
475,192,241593,1,0,0:0:0:0:
182,192,241627,1,0,0:0:0:0:
329,192,241661,1,0,0:0:0:0:
36,192,241695,1,0,0:0:0:0:
256,192,241695,1,0,0:0:0:0:
402,192,241695,1,0,0:0:0:0:
109,192,241729,1,0,0:0:0:0:
475,192,241763,1,0,0:0:0:0:
329,192,241797,1,0,0:0:0:0:
36,192,241831,1,0,0:0:0:0:
182,192,241865,1,0,0:0:0:0:
402,192,241900,1,0,0:0:0:0:
256,192,241934,1,0,0:0:0:0:
36,192,241968,1,0,0:0:0:0:
475,192,241968,1,0,0:0:0:0:
109,192,241968,1,0,0:0:0:0:
329,192,242002,1,0,0:0:0:0:
182,192,242036,1,0,0:0:0:0:
402,192,242070,1,0,0:0:0:0:
256,192,242104,1,0,0:0:0:0:
109,192,242138,1,0,0:0:0:0:
475,192,242172,1,0,0:0:0:0:
329,192,242206,1,0,0:0:0:0:
402,192,242240,1,0,0:0:0:0:
182,192,242240,1,0,0:0:0:0:
36,192,242240,1,0,0:0:0:0:
256,192,242275,1,0,0:0:0:0:
109,192,242309,1,0,0:0:0:0:
329,192,242343,1,0,0:0:0:0:
182,192,242377,1,0,0:0:0:0:
475,192,242411,1,0,0:0:0:0:
36,192,242445,1,0,0:0:0:0:
256,192,242479,1,0,0:0:0:0:
109,192,242513,1,0,0:0:0:0:
329,192,242513,1,0,0:0:0:0:
402,192,242513,1,0,0:0:0:0:
182,192,242547,1,0,0:0:0:0:
475,192,242581,1,0,0:0:0:0:
256,192,242615,1,0,0:0:0:0:
36,192,242650,1,0,0:0:0:0:
402,192,242684,1,0,0:0:0:0:
182,192,242718,1,0,0:0:0:0:
329,192,242752,1,0,0:0:0:0:
475,192,242786,1,0,0:0:0:0:
109,192,242786,1,0,0:0:0:0:
256,192,242786,1,0,0:0:0:0:
402,192,242820,1,0,0:0:0:0:
36,192,242854,1,0,0:0:0:0:
329,192,242888,1,0,0:0:0:0:
182,192,242922,1,0,0:0:0:0:
475,192,242956,1,0,0:0:0:0:
256,192,242990,1,0,0:0:0:0:
402,192,243025,1,0,0:0:0:0:
36,192,243059,1,0,0:0:0:0:
109,192,243059,1,0,0:0:0:0:
329,192,243059,1,0,0:0:0:0:
182,192,243093,1,0,0:0:0:0:
475,192,243127,1,0,0:0:0:0:
256,192,243161,1,0,0:0:0:0:
36,192,243195,1,0,0:0:0:0:
402,192,243229,1,0,0:0:0:0:
182,192,243263,1,0,0:0:0:0:
329,192,243297,1,0,0:0:0:0:
475,192,243331,1,0,0:0:0:0:
36,192,243331,1,0,0:0:0:0:
256,192,243331,1,0,0:0:0:0:
109,192,243365,1,0,0:0:0:0:
402,192,243400,1,0,0:0:0:0:
329,192,243400,1,0,0:0:0:0:
182,192,243434,1,0,0:0:0:0:
475,192,243468,1,0,0:0:0:0:
36,192,243468,1,0,0:0:0:0:
256,192,243502,1,0,0:0:0:0:
402,192,243536,1,0,0:0:0:0:
109,192,243536,1,0,0:0:0:0:
329,192,243570,1,0,0:0:0:0:
182,192,243604,1,0,0:0:0:0:
475,192,243604,1,0,0:0:0:0:
256,192,243638,1,0,0:0:0:0:
402,192,243672,1,0,0:0:0:0:
36,192,243672,1,0,0:0:0:0:
329,192,243706,1,0,0:0:0:0:
182,192,243740,1,0,0:0:0:0:
475,192,243740,1,0,0:0:0:0:
109,192,243740,1,0,0:0:0:0:
402,192,243775,1,0,0:0:0:0:
256,192,243809,1,0,0:0:0:0:
36,192,243809,1,0,0:0:0:0:
109,192,243843,1,0,0:0:0:0:
182,192,243877,1,0,0:0:0:0:
329,192,243877,1,0,0:0:0:0:
475,192,243877,1,0,0:0:0:0:
36,192,243911,1,0,0:0:0:0:
402,192,243945,1,0,0:0:0:0:
256,192,243945,1,0,0:0:0:0:
109,192,243979,1,0,0:0:0:0:
329,192,244013,1,0,0:0:0:0:
182,192,244013,1,0,0:0:0:0:
475,192,244047,1,0,0:0:0:0:
402,192,244081,1,0,0:0:0:0:
36,192,244081,1,0,0:0:0:0:
256,192,244115,1,0,0:0:0:0:
109,192,244150,1,0,0:0:0:0:
182,192,244150,1,0,0:0:0:0:
475,192,244150,1,0,0:0:0:0:
329,192,244184,1,0,0:0:0:0:
36,192,244218,1,0,0:0:0:0:
402,192,244218,1,0,0:0:0:0:
256,192,244252,1,0,0:0:0:0:
109,192,244286,1,0,0:0:0:0:
475,192,244286,1,0,0:0:0:0:
182,192,244286,1,0,0:0:0:0:
329,192,244320,1,0,0:0:0:0:
402,192,244354,1,0,0:0:0:0:
256,192,244388,1,0,0:0:0:0:
36,192,244422,1,0,0:0:0:0:
109,192,244422,1,0,0:0:0:0:
475,192,244422,1,0,0:0:0:0:
402,192,244456,1,0,0:0:0:0:
329,192,244490,1,0,0:0:0:0:
182,192,244490,1,0,0:0:0:0:
256,192,244525,1,0,0:0:0:0:
36,192,244559,1,0,0:0:0:0:
109,192,244559,1,0,0:0:0:0:
475,192,244559,1,0,0:0:0:0:
402,192,244593,1,0,0:0:0:0:
329,192,244627,1,0,0:0:0:0:
182,192,244627,1,0,0:0:0:0:
256,192,244661,1,0,0:0:0:0:
36,192,244695,1,0,0:0:0:0:
109,192,244695,1,0,0:0:0:0:
475,192,244695,1,0,0:0:0:0:
402,192,244729,1,0,0:0:0:0:
329,192,244763,1,0,0:0:0:0:
182,192,244763,1,0,0:0:0:0:
256,192,244797,1,0,0:0:0:0:
36,192,244831,1,0,0:0:0:0:
109,192,244831,1,0,0:0:0:0:
475,192,244831,1,0,0:0:0:0:
402,192,244865,1,0,0:0:0:0:
329,192,244900,1,0,0:0:0:0:
182,192,244900,1,0,0:0:0:0:
256,192,244934,1,0,0:0:0:0:
109,192,244968,1,0,0:0:0:0:
36,192,244968,1,0,0:0:0:0:
402,192,244968,1,0,0:0:0:0:
475,192,244968,128,0,245513:0:0:0:0:
402,192,245377,1,0,0:0:0:0:
256,192,245377,1,0,0:0:0:0:
182,192,245377,1,0,0:0:0:0:
36,192,245513,1,0,0:0:0:0:
109,192,245513,1,0,0:0:0:0:
182,192,245513,1,0,0:0:0:0:
402,192,245513,1,0,0:0:0:0:
329,192,245513,1,0,0:0:0:0:
256,192,245513,1,0,0:0:0:0:
475,192,245650,1,0,0:0:0:0:
402,192,245650,1,0,0:0:0:0:
256,192,245650,1,0,0:0:0:0:
109,192,245650,1,0,0:0:0:0:
402,192,245718,1,0,0:0:0:0:
256,192,245718,1,0,0:0:0:0:
475,192,245786,1,0,0:0:0:0:
109,192,245786,1,0,0:0:0:0:
36,192,245786,1,0,0:0:0:0:
329,192,245786,1,0,0:0:0:0:
182,192,245786,1,0,0:0:0:0:
329,192,245922,1,0,0:0:0:0:
36,192,245922,1,0,0:0:0:0:
182,192,245922,1,0,0:0:0:0:
402,192,245922,1,0,0:0:0:0:
182,192,245990,1,0,0:0:0:0:
36,192,245990,1,0,0:0:0:0:
475,192,246059,1,0,0:0:0:0:
402,192,246059,1,0,0:0:0:0:
329,192,246059,1,0,0:0:0:0:
109,192,246059,1,0,0:0:0:0:
256,192,246059,1,0,0:0:0:0:
475,192,246195,1,0,0:0:0:0:
402,192,246195,1,0,0:0:0:0:
256,192,246195,1,0,0:0:0:0:
182,192,246195,1,0,0:0:0:0:
109,192,246195,1,0,0:0:0:0:
402,192,246331,1,0,0:0:0:0:
329,192,246331,1,0,0:0:0:0:
256,192,246331,1,0,0:0:0:0:
109,192,246331,1,0,0:0:0:0:
36,192,246331,1,0,0:0:0:0:
475,192,246331,1,0,0:0:0:0:
402,192,246468,1,0,0:0:0:0:
475,192,246468,1,0,0:0:0:0:
256,192,246468,1,0,0:0:0:0:
182,192,246468,1,0,0:0:0:0:
36,192,246468,1,0,0:0:0:0:
475,192,246604,1,0,0:0:0:0:
256,192,246604,1,0,0:0:0:0:
109,192,246604,1,0,0:0:0:0:
36,192,246604,1,0,0:0:0:0:
329,192,246604,1,0,0:0:0:0:
329,192,246672,1,0,0:0:0:0:
109,192,246672,1,0,0:0:0:0:
475,192,246740,1,0,0:0:0:0:
402,192,246740,1,0,0:0:0:0:
256,192,246740,1,0,0:0:0:0:
182,192,246740,1,0,0:0:0:0:
36,192,246740,1,0,0:0:0:0:
475,192,246877,1,0,0:0:0:0:
402,192,246877,1,0,0:0:0:0:
329,192,246877,1,0,0:0:0:0:
182,192,246877,1,0,0:0:0:0:
109,192,246877,1,0,0:0:0:0:
256,192,246877,1,0,0:0:0:0:
402,192,247013,1,0,0:0:0:0:
256,192,247013,1,0,0:0:0:0:
109,192,247013,1,0,0:0:0:0:
36,192,247013,1,0,0:0:0:0:
402,192,247150,1,0,0:0:0:0:
329,192,247150,1,0,0:0:0:0:
256,192,247150,1,0,0:0:0:0:
182,192,247150,1,0,0:0:0:0:
36,192,247150,1,0,0:0:0:0:
475,192,247286,1,0,0:0:0:0:
402,192,247286,1,0,0:0:0:0:
329,192,247286,1,0,0:0:0:0:
109,192,247286,1,0,0:0:0:0:
475,192,247422,128,0,247490:0:0:0:0:
402,192,247422,128,0,247490:0:0:0:0:
329,192,247422,128,0,247490:0:0:0:0:
256,192,247422,128,0,247490:0:0:0:0:
182,192,247422,128,0,247490:0:0:0:0:
36,192,247422,128,0,247490:0:0:0:0:
109,192,247559,128,0,247627:0:0:0:0:
182,192,247559,128,0,247627:0:0:0:0:
329,192,247559,128,0,247627:0:0:0:0:
402,192,247559,128,0,247627:0:0:0:0:
256,192,247559,128,0,247627:0:0:0:0:
475,192,247695,1,0,0:0:0:0:
402,192,247695,1,0,0:0:0:0:
329,192,247695,1,0,0:0:0:0:
182,192,247695,1,0,0:0:0:0:
109,192,247695,1,0,0:0:0:0:
36,192,247695,1,0,0:0:0:0:
475,192,247831,1,0,0:0:0:0:
402,192,247831,1,0,0:0:0:0:
256,192,247831,1,0,0:0:0:0:
109,192,247831,1,0,0:0:0:0:
402,192,247968,1,0,0:0:0:0:
329,192,247968,1,0,0:0:0:0:
256,192,247968,1,0,0:0:0:0:
182,192,247968,1,0,0:0:0:0:
36,192,247968,1,0,0:0:0:0:
475,192,247968,1,0,0:0:0:0:
475,192,248104,1,0,0:0:0:0:
329,192,248104,1,0,0:0:0:0:
256,192,248104,1,0,0:0:0:0:
36,192,248104,1,0,0:0:0:0:
36,192,248172,1,0,0:0:0:0:
256,192,248172,1,0,0:0:0:0:
475,192,248240,1,0,0:0:0:0:
402,192,248240,1,0,0:0:0:0:
329,192,248240,1,0,0:0:0:0:
182,192,248240,1,0,0:0:0:0:
109,192,248240,1,0,0:0:0:0:
475,192,248377,1,0,0:0:0:0:
402,192,248377,1,0,0:0:0:0:
256,192,248377,1,0,0:0:0:0:
109,192,248377,1,0,0:0:0:0:
36,192,248377,1,0,0:0:0:0:
402,192,248513,1,0,0:0:0:0:
329,192,248513,1,0,0:0:0:0:
109,192,248513,1,0,0:0:0:0:
36,192,248513,1,0,0:0:0:0:
182,192,248513,1,0,0:0:0:0:
256,192,248513,1,0,0:0:0:0:
475,192,248650,1,0,0:0:0:0:
402,192,248650,1,0,0:0:0:0:
256,192,248650,1,0,0:0:0:0:
182,192,248650,1,0,0:0:0:0:
36,192,248650,1,0,0:0:0:0:
475,192,248786,1,0,0:0:0:0:
402,192,248786,1,0,0:0:0:0:
256,192,248786,1,0,0:0:0:0:
109,192,248786,1,0,0:0:0:0:
182,192,248786,1,0,0:0:0:0:
402,192,248854,1,0,0:0:0:0:
256,192,248854,1,0,0:0:0:0:
475,192,248922,1,0,0:0:0:0:
329,192,248922,1,0,0:0:0:0:
182,192,248922,1,0,0:0:0:0:
109,192,248922,1,0,0:0:0:0:
36,192,248922,1,0,0:0:0:0:
475,192,249059,1,0,0:0:0:0:
402,192,249059,1,0,0:0:0:0:
256,192,249059,1,0,0:0:0:0:
109,192,249059,1,0,0:0:0:0:
36,192,249059,1,0,0:0:0:0:
182,192,249059,1,0,0:0:0:0:
402,192,249195,1,0,0:0:0:0:
329,192,249195,1,0,0:0:0:0:
36,192,249195,1,0,0:0:0:0:
256,192,249195,1,0,0:0:0:0:
475,192,249331,1,0,0:0:0:0:
402,192,249331,1,0,0:0:0:0:
256,192,249331,1,0,0:0:0:0:
182,192,249331,1,0,0:0:0:0:
109,192,249331,1,0,0:0:0:0:
475,192,249468,1,0,0:0:0:0:
329,192,249468,1,0,0:0:0:0:
109,192,249468,1,0,0:0:0:0:
36,192,249468,1,0,0:0:0:0:
402,192,249536,1,0,0:0:0:0:
256,192,249536,1,0,0:0:0:0:
475,192,249604,1,0,0:0:0:0:
329,192,249604,1,0,0:0:0:0:
182,192,249604,1,0,0:0:0:0:
109,192,249604,1,0,0:0:0:0:
36,192,249604,1,0,0:0:0:0:
475,192,249740,1,0,0:0:0:0:
402,192,249740,1,0,0:0:0:0:
256,192,249740,1,0,0:0:0:0:
109,192,249740,1,0,0:0:0:0:
475,192,249877,1,0,0:0:0:0:
402,192,249877,1,0,0:0:0:0:
329,192,249877,1,0,0:0:0:0:
182,192,249877,1,0,0:0:0:0:
36,192,249877,1,0,0:0:0:0:
256,192,249877,1,0,0:0:0:0:
256,192,250013,1,0,0:0:0:0:
182,192,250013,1,0,0:0:0:0:
109,192,250013,1,0,0:0:0:0:
402,192,250013,1,0,0:0:0:0:
475,192,250150,1,0,0:0:0:0:
329,192,250150,1,0,0:0:0:0:
256,192,250150,1,0,0:0:0:0:
109,192,250150,1,0,0:0:0:0:
36,192,250150,1,0,0:0:0:0:
402,192,250150,1,0,0:0:0:0:
475,192,250286,1,0,0:0:0:0:
402,192,250286,1,0,0:0:0:0:
36,192,250286,1,0,0:0:0:0:
182,192,250286,1,0,0:0:0:0:
402,192,250354,1,0,0:0:0:0:
182,192,250354,1,0,0:0:0:0:
475,192,250422,1,0,0:0:0:0:
329,192,250422,1,0,0:0:0:0:
256,192,250422,1,0,0:0:0:0:
109,192,250422,1,0,0:0:0:0:
36,192,250422,1,0,0:0:0:0:
475,192,250559,1,0,0:0:0:0:
402,192,250559,1,0,0:0:0:0:
256,192,250559,1,0,0:0:0:0:
182,192,250559,1,0,0:0:0:0:
109,192,250559,1,0,0:0:0:0:
402,192,250695,1,0,0:0:0:0:
329,192,250695,1,0,0:0:0:0:
256,192,250695,1,0,0:0:0:0:
109,192,250695,1,0,0:0:0:0:
36,192,250695,1,0,0:0:0:0:
182,192,250695,1,0,0:0:0:0:
475,192,250831,1,0,0:0:0:0:
402,192,250831,1,0,0:0:0:0:
256,192,250831,1,0,0:0:0:0:
182,192,250831,1,0,0:0:0:0:
36,192,250831,1,0,0:0:0:0:
475,192,250968,1,0,0:0:0:0:
402,192,250968,1,0,0:0:0:0:
329,192,250968,1,0,0:0:0:0:
256,192,250968,1,0,0:0:0:0:
109,192,250968,1,0,0:0:0:0:
329,192,251036,1,0,0:0:0:0:
109,192,251036,1,0,0:0:0:0:
402,192,251104,1,0,0:0:0:0:
182,192,251104,1,0,0:0:0:0:
256,192,251104,1,0,0:0:0:0:
36,192,251104,1,0,0:0:0:0:
475,192,251104,1,0,0:0:0:0:
475,192,251240,1,0,0:0:0:0:
402,192,251240,1,0,0:0:0:0:
329,192,251240,1,0,0:0:0:0:
182,192,251240,1,0,0:0:0:0:
109,192,251240,1,0,0:0:0:0:
256,192,251240,1,0,0:0:0:0:
402,192,251377,1,0,0:0:0:0:
182,192,251377,1,0,0:0:0:0:
36,192,251377,1,0,0:0:0:0:
329,192,251377,1,0,0:0:0:0:
475,192,251513,1,0,0:0:0:0:
329,192,251513,1,0,0:0:0:0:
256,192,251513,1,0,0:0:0:0:
182,192,251513,1,0,0:0:0:0:
109,192,251513,1,0,0:0:0:0:
402,192,251650,1,0,0:0:0:0:
329,192,251650,1,0,0:0:0:0:
36,192,251650,1,0,0:0:0:0:
109,192,251650,1,0,0:0:0:0:
182,192,251786,128,0,251854:0:0:0:0:
256,192,251786,128,0,251854:0:0:0:0:
475,192,251786,128,0,251854:0:0:0:0:
402,192,251786,128,0,251854:0:0:0:0:
36,192,251786,128,0,251854:0:0:0:0:
329,192,251786,128,0,251854:0:0:0:0:
36,192,251922,128,0,251990:0:0:0:0:
109,192,251922,128,0,251990:0:0:0:0:
182,192,251922,128,0,251990:0:0:0:0:
329,192,251922,128,0,251990:0:0:0:0:
256,192,251922,128,0,251990:0:0:0:0:
36,192,252059,128,0,252127:0:0:0:0:
109,192,252059,128,0,252127:0:0:0:0:
182,192,252059,128,0,252127:0:0:0:0:
256,192,252059,128,0,252127:0:0:0:0:
329,192,252059,128,0,252127:0:0:0:0:
475,192,252059,128,0,252127:0:0:0:0:
109,192,252195,128,0,252263:0:0:0:0:
182,192,252195,128,0,252263:0:0:0:0:
256,192,252195,128,0,252263:0:0:0:0:
329,192,252195,128,0,252263:0:0:0:0:
402,192,252195,128,0,252263:0:0:0:0:
475,192,252331,128,0,252400:0:0:0:0:
402,192,252331,128,0,252400:0:0:0:0:
329,192,252331,128,0,252400:0:0:0:0:
256,192,252331,128,0,252400:0:0:0:0:
182,192,252331,128,0,252400:0:0:0:0:
36,192,252331,128,0,252400:0:0:0:0:
402,192,252468,128,0,252536:0:0:0:0:
329,192,252468,128,0,252536:0:0:0:0:
109,192,252468,128,0,252536:0:0:0:0:
256,192,252468,128,0,252536:0:0:0:0:
475,192,252604,128,0,252672:0:0:0:0:
402,192,252604,128,0,252672:0:0:0:0:
329,192,252604,128,0,252672:0:0:0:0:
182,192,252604,128,0,252672:0:0:0:0:
36,192,252604,128,0,252672:0:0:0:0:
109,192,252604,128,0,252672:0:0:0:0:
402,192,252740,128,0,252809:0:0:0:0:
329,192,252740,128,0,252809:0:0:0:0:
256,192,252740,128,0,252809:0:0:0:0:
182,192,252740,128,0,252809:0:0:0:0:
36,192,252740,128,0,252809:0:0:0:0:
475,192,252877,128,0,252945:0:0:0:0:
402,192,252877,128,0,252945:0:0:0:0:
329,192,252877,128,0,252945:0:0:0:0:
256,192,252877,128,0,252945:0:0:0:0:
109,192,252877,128,0,252945:0:0:0:0:
182,192,252877,128,0,252945:0:0:0:0:
109,192,253013,128,0,253081:0:0:0:0:
402,192,253013,128,0,253081:0:0:0:0:
329,192,253013,128,0,253081:0:0:0:0:
256,192,253013,128,0,253081:0:0:0:0:
36,192,253013,128,0,253081:0:0:0:0:
475,192,253150,128,0,253218:0:0:0:0:
402,192,253150,128,0,253218:0:0:0:0:
329,192,253150,128,0,253218:0:0:0:0:
182,192,253150,128,0,253218:0:0:0:0:
109,192,253150,128,0,253218:0:0:0:0:
36,192,253150,128,0,253218:0:0:0:0:
402,192,253286,128,0,253354:0:0:0:0:
329,192,253286,128,0,253354:0:0:0:0:
256,192,253286,128,0,253354:0:0:0:0:
182,192,253286,128,0,253354:0:0:0:0:
109,192,253286,128,0,253354:0:0:0:0:
475,192,253422,128,0,253490:0:0:0:0:
402,192,253422,128,0,253490:0:0:0:0:
256,192,253422,128,0,253490:0:0:0:0:
109,192,253422,128,0,253490:0:0:0:0:
36,192,253422,128,0,253490:0:0:0:0:
329,192,253422,128,0,253490:0:0:0:0:
182,192,253559,128,0,253627:0:0:0:0:
109,192,253559,128,0,253627:0:0:0:0:
36,192,253559,128,0,253627:0:0:0:0:
329,192,253559,128,0,253627:0:0:0:0:
475,192,253559,128,0,253627:0:0:0:0:
475,192,253695,128,0,253763:0:0:0:0:
402,192,253695,128,0,253763:0:0:0:0:
329,192,253695,128,0,253763:0:0:0:0:
256,192,253695,128,0,253763:0:0:0:0:
109,192,253695,128,0,253763:0:0:0:0:
182,192,253695,128,0,253763:0:0:0:0:
402,192,253831,128,0,253900:0:0:0:0:
329,192,253831,128,0,253900:0:0:0:0:
256,192,253831,128,0,253900:0:0:0:0:
109,192,253831,128,0,253900:0:0:0:0:
36,192,253831,128,0,253900:0:0:0:0:
329,192,253968,128,0,254036:0:0:0:0:
256,192,253968,128,0,254036:0:0:0:0:
182,192,253968,128,0,254036:0:0:0:0:
36,192,253968,128,0,254036:0:0:0:0:
109,192,253968,128,0,254036:0:0:0:0:
475,192,253968,128,0,254036:0:0:0:0:
402,192,254104,128,0,254172:0:0:0:0:
329,192,254104,128,0,254172:0:0:0:0:
182,192,254104,128,0,254172:0:0:0:0:
36,192,254104,128,0,254172:0:0:0:0:
475,192,254104,128,0,254172:0:0:0:0:
475,192,254240,128,0,254309:0:0:0:0:
402,192,254240,128,0,254309:0:0:0:0:
256,192,254240,128,0,254309:0:0:0:0:
182,192,254240,128,0,254309:0:0:0:0:
109,192,254240,128,0,254309:0:0:0:0:
36,192,254240,128,0,254309:0:0:0:0:
36,192,254377,1,0,0:0:0:0:
109,192,254377,1,0,0:0:0:0:
256,192,254377,1,0,0:0:0:0:
402,192,254377,1,0,0:0:0:0:
109,192,254445,1,0,0:0:0:0:
256,192,254445,1,0,0:0:0:0:
36,192,254513,1,0,0:0:0:0:
402,192,254513,1,0,0:0:0:0:
475,192,254513,1,0,0:0:0:0:
182,192,254513,1,0,0:0:0:0:
329,192,254513,1,0,0:0:0:0:
182,192,254650,1,0,0:0:0:0:
475,192,254650,1,0,0:0:0:0:
329,192,254650,1,0,0:0:0:0:
109,192,254650,1,0,0:0:0:0:
329,192,254718,1,0,0:0:0:0:
475,192,254718,1,0,0:0:0:0:
36,192,254786,1,0,0:0:0:0:
109,192,254786,1,0,0:0:0:0:
182,192,254786,1,0,0:0:0:0:
402,192,254786,1,0,0:0:0:0:
256,192,254786,1,0,0:0:0:0:
36,192,254922,1,0,0:0:0:0:
109,192,254922,1,0,0:0:0:0:
256,192,254922,1,0,0:0:0:0:
329,192,254922,1,0,0:0:0:0:
402,192,254922,1,0,0:0:0:0:
109,192,255059,1,0,0:0:0:0:
182,192,255059,1,0,0:0:0:0:
256,192,255059,1,0,0:0:0:0:
402,192,255059,1,0,0:0:0:0:
475,192,255059,1,0,0:0:0:0:
329,192,255059,1,0,0:0:0:0:
109,192,255195,1,0,0:0:0:0:
36,192,255195,1,0,0:0:0:0:
256,192,255195,1,0,0:0:0:0:
329,192,255195,1,0,0:0:0:0:
475,192,255195,1,0,0:0:0:0:
36,192,255331,1,0,0:0:0:0:
256,192,255331,1,0,0:0:0:0:
402,192,255331,1,0,0:0:0:0:
475,192,255331,1,0,0:0:0:0:
182,192,255331,1,0,0:0:0:0:
182,192,255400,1,0,0:0:0:0:
402,192,255400,1,0,0:0:0:0:
36,192,255468,1,0,0:0:0:0:
109,192,255468,1,0,0:0:0:0:
256,192,255468,1,0,0:0:0:0:
329,192,255468,1,0,0:0:0:0:
475,192,255468,1,0,0:0:0:0:
36,192,255604,1,0,0:0:0:0:
109,192,255604,1,0,0:0:0:0:
182,192,255604,1,0,0:0:0:0:
329,192,255604,1,0,0:0:0:0:
402,192,255604,1,0,0:0:0:0:
256,192,255604,1,0,0:0:0:0:
109,192,255740,1,0,0:0:0:0:
256,192,255740,1,0,0:0:0:0:
402,192,255740,1,0,0:0:0:0:
475,192,255740,1,0,0:0:0:0:
109,192,255877,1,0,0:0:0:0:
182,192,255877,1,0,0:0:0:0:
256,192,255877,1,0,0:0:0:0:
329,192,255877,1,0,0:0:0:0:
475,192,255877,1,0,0:0:0:0:
36,192,256013,1,0,0:0:0:0:
109,192,256013,1,0,0:0:0:0:
182,192,256013,1,0,0:0:0:0:
402,192,256013,1,0,0:0:0:0:
36,192,256150,128,0,256218:0:0:0:0:
109,192,256150,128,0,256218:0:0:0:0:
182,192,256150,128,0,256218:0:0:0:0:
256,192,256150,128,0,256218:0:0:0:0:
329,192,256150,128,0,256218:0:0:0:0:
475,192,256150,128,0,256218:0:0:0:0:
402,192,256286,128,0,256354:0:0:0:0:
329,192,256286,128,0,256354:0:0:0:0:
182,192,256286,128,0,256354:0:0:0:0:
109,192,256286,128,0,256354:0:0:0:0:
256,192,256286,128,0,256354:0:0:0:0:
36,192,256422,1,0,0:0:0:0:
109,192,256422,1,0,0:0:0:0:
182,192,256422,1,0,0:0:0:0:
329,192,256422,1,0,0:0:0:0:
402,192,256422,1,0,0:0:0:0:
475,192,256422,1,0,0:0:0:0:
36,192,256559,1,0,0:0:0:0:
109,192,256559,1,0,0:0:0:0:
256,192,256559,1,0,0:0:0:0:
402,192,256559,1,0,0:0:0:0:
109,192,256695,1,0,0:0:0:0:
182,192,256695,1,0,0:0:0:0:
256,192,256695,1,0,0:0:0:0:
329,192,256695,1,0,0:0:0:0:
475,192,256695,1,0,0:0:0:0:
36,192,256695,1,0,0:0:0:0:
36,192,256831,1,0,0:0:0:0:
182,192,256831,1,0,0:0:0:0:
256,192,256831,1,0,0:0:0:0:
475,192,256831,1,0,0:0:0:0:
475,192,256900,1,0,0:0:0:0:
256,192,256900,1,0,0:0:0:0:
36,192,256968,1,0,0:0:0:0:
109,192,256968,1,0,0:0:0:0:
182,192,256968,1,0,0:0:0:0:
329,192,256968,1,0,0:0:0:0:
402,192,256968,1,0,0:0:0:0:
36,192,257104,1,0,0:0:0:0:
109,192,257104,1,0,0:0:0:0:
256,192,257104,1,0,0:0:0:0:
402,192,257104,1,0,0:0:0:0:
475,192,257104,1,0,0:0:0:0:
109,192,257240,1,0,0:0:0:0:
182,192,257240,1,0,0:0:0:0:
402,192,257240,1,0,0:0:0:0:
475,192,257240,1,0,0:0:0:0:
329,192,257240,1,0,0:0:0:0:
256,192,257240,1,0,0:0:0:0:
36,192,257377,1,0,0:0:0:0:
109,192,257377,1,0,0:0:0:0:
256,192,257377,1,0,0:0:0:0:
329,192,257377,1,0,0:0:0:0:
475,192,257377,1,0,0:0:0:0:
36,192,257513,1,0,0:0:0:0:
109,192,257513,1,0,0:0:0:0:
256,192,257513,1,0,0:0:0:0:
402,192,257513,1,0,0:0:0:0:
329,192,257513,1,0,0:0:0:0:
109,192,257581,1,0,0:0:0:0:
256,192,257581,1,0,0:0:0:0:
36,192,257650,1,0,0:0:0:0:
182,192,257650,1,0,0:0:0:0:
329,192,257650,1,0,0:0:0:0:
402,192,257650,1,0,0:0:0:0:
475,192,257650,1,0,0:0:0:0:
36,192,257786,1,0,0:0:0:0:
109,192,257786,1,0,0:0:0:0:
256,192,257786,1,0,0:0:0:0:
402,192,257786,1,0,0:0:0:0:
475,192,257786,1,0,0:0:0:0:
329,192,257786,1,0,0:0:0:0:
109,192,257922,1,0,0:0:0:0:
182,192,257922,1,0,0:0:0:0:
329,192,257922,1,0,0:0:0:0:
475,192,257922,1,0,0:0:0:0:
36,192,258059,1,0,0:0:0:0:
109,192,258059,1,0,0:0:0:0:
329,192,258059,1,0,0:0:0:0:
402,192,258059,1,0,0:0:0:0:
182,192,258059,1,0,0:0:0:0:
475,192,258195,1,0,0:0:0:0:
329,192,258195,1,0,0:0:0:0:
402,192,258195,1,0,0:0:0:0:
256,192,258195,1,0,0:0:0:0:
109,192,258195,1,0,0:0:0:0:
256,192,258331,128,0,258604:0:0:0:0:
475,192,258604,1,0,0:0:0:0:
402,192,258604,1,0,0:0:0:0:
329,192,258604,1,0,0:0:0:0:
182,192,258604,1,0,0:0:0:0:
109,192,258604,1,0,0:0:0:0:
36,192,258604,1,0,0:0:0:0:
475,192,258740,1,0,0:0:0:0:
402,192,258740,1,0,0:0:0:0:
256,192,258740,1,0,0:0:0:0:
36,192,258740,1,0,0:0:0:0:
182,192,258809,1,0,0:0:0:0:
109,192,258809,1,0,0:0:0:0:
329,192,258809,1,0,0:0:0:0:
475,192,258877,1,0,0:0:0:0:
402,192,258877,1,0,0:0:0:0:
36,192,258877,1,0,0:0:0:0:
256,192,258945,1,0,0:0:0:0:
182,192,258945,1,0,0:0:0:0:
109,192,258945,1,0,0:0:0:0:
475,192,259013,1,0,0:0:0:0:
329,192,259013,1,0,0:0:0:0:
402,192,259013,1,0,0:0:0:0:
182,192,259081,1,0,0:0:0:0:
109,192,259081,1,0,0:0:0:0:
36,192,259081,1,0,0:0:0:0:
402,192,259150,1,0,0:0:0:0:
256,192,259150,1,0,0:0:0:0:
329,192,259150,1,0,0:0:0:0:
475,192,259150,1,0,0:0:0:0:
109,192,259286,1,0,0:0:0:0:
36,192,259286,1,0,0:0:0:0:
402,192,259286,1,0,0:0:0:0:
256,192,259286,1,0,0:0:0:0:
329,192,259354,1,0,0:0:0:0:
182,192,259354,1,0,0:0:0:0:
475,192,259354,1,0,0:0:0:0:
402,192,259422,1,0,0:0:0:0:
256,192,259422,1,0,0:0:0:0:
36,192,259422,1,0,0:0:0:0:
109,192,259490,1,0,0:0:0:0:
182,192,259490,1,0,0:0:0:0:
475,192,259490,1,0,0:0:0:0:
402,192,259559,1,0,0:0:0:0:
329,192,259559,1,0,0:0:0:0:
36,192,259559,1,0,0:0:0:0:
256,192,259627,1,0,0:0:0:0:
182,192,259627,1,0,0:0:0:0:
109,192,259627,1,0,0:0:0:0:
402,192,259695,1,0,0:0:0:0:
329,192,259695,1,0,0:0:0:0:
475,192,259695,1,0,0:0:0:0:
36,192,259695,1,0,0:0:0:0:
475,192,259831,1,0,0:0:0:0:
402,192,259831,1,0,0:0:0:0:
256,192,259831,1,0,0:0:0:0:
109,192,259831,1,0,0:0:0:0:
329,192,259900,1,0,0:0:0:0:
182,192,259900,1,0,0:0:0:0:
36,192,259900,1,0,0:0:0:0:
475,192,259968,1,0,0:0:0:0:
402,192,259968,1,0,0:0:0:0:
109,192,259968,1,0,0:0:0:0:
256,192,260036,1,0,0:0:0:0:
182,192,260036,1,0,0:0:0:0:
329,192,260036,1,0,0:0:0:0:
36,192,260104,1,0,0:0:0:0:
475,192,260104,1,0,0:0:0:0:
109,192,260104,1,0,0:0:0:0:
402,192,260172,1,0,0:0:0:0:
329,192,260172,1,0,0:0:0:0:
256,192,260172,1,0,0:0:0:0:
182,192,260240,1,0,0:0:0:0:
109,192,260240,1,0,0:0:0:0:
36,192,260240,1,0,0:0:0:0:
475,192,260240,1,0,0:0:0:0:
475,192,260377,1,0,0:0:0:0:
402,192,260377,1,0,0:0:0:0:
256,192,260377,1,0,0:0:0:0:
36,192,260377,1,0,0:0:0:0:
329,192,260445,1,0,0:0:0:0:
109,192,260445,1,0,0:0:0:0:
182,192,260445,1,0,0:0:0:0:
475,192,260513,1,0,0:0:0:0:
402,192,260513,1,0,0:0:0:0:
36,192,260513,1,0,0:0:0:0:
256,192,260581,1,0,0:0:0:0:
182,192,260581,1,0,0:0:0:0:
109,192,260581,1,0,0:0:0:0:
475,192,260650,1,0,0:0:0:0:
402,192,260650,1,0,0:0:0:0:
329,192,260650,1,0,0:0:0:0:
182,192,260718,1,0,0:0:0:0:
109,192,260718,1,0,0:0:0:0:
36,192,260718,1,0,0:0:0:0:
402,192,260786,1,0,0:0:0:0:
329,192,260786,1,0,0:0:0:0:
256,192,260786,1,0,0:0:0:0:
475,192,260786,1,0,0:0:0:0:
182,192,260854,1,0,0:0:0:0:
109,192,260854,1,0,0:0:0:0:
36,192,260854,1,0,0:0:0:0:
475,192,260922,1,0,0:0:0:0:
402,192,260922,1,0,0:0:0:0:
329,192,260922,1,0,0:0:0:0:
256,192,260990,1,0,0:0:0:0:
182,192,260990,1,0,0:0:0:0:
109,192,260990,1,0,0:0:0:0:
475,192,261059,1,0,0:0:0:0:
402,192,261059,1,0,0:0:0:0:
329,192,261059,1,0,0:0:0:0:
36,192,261059,1,0,0:0:0:0:
256,192,261127,1,0,0:0:0:0:
182,192,261127,1,0,0:0:0:0:
109,192,261127,1,0,0:0:0:0:
475,192,261195,1,0,0:0:0:0:
402,192,261195,1,0,0:0:0:0:
36,192,261195,1,0,0:0:0:0:
329,192,261263,1,0,0:0:0:0:
256,192,261263,1,0,0:0:0:0:
182,192,261263,1,0,0:0:0:0:
109,192,261331,1,0,0:0:0:0:
36,192,261331,1,0,0:0:0:0:
475,192,261331,1,0,0:0:0:0:
402,192,261331,1,0,0:0:0:0:
329,192,261400,1,0,0:0:0:0:
256,192,261400,1,0,0:0:0:0:
182,192,261400,1,0,0:0:0:0:
109,192,261468,1,0,0:0:0:0:
36,192,261468,1,0,0:0:0:0:
475,192,261468,1,0,0:0:0:0:
402,192,261536,1,0,0:0:0:0:
329,192,261536,1,0,0:0:0:0:
256,192,261536,1,0,0:0:0:0:
109,192,261604,1,0,0:0:0:0:
36,192,261604,1,0,0:0:0:0:
182,192,261604,1,0,0:0:0:0:
475,192,261604,1,0,0:0:0:0:
402,192,261672,1,0,0:0:0:0:
329,192,261672,1,0,0:0:0:0:
256,192,261672,1,0,0:0:0:0:
109,192,261740,1,0,0:0:0:0:
36,192,261740,1,0,0:0:0:0:
182,192,261740,1,0,0:0:0:0:
475,192,261809,1,0,0:0:0:0:
402,192,261809,1,0,0:0:0:0:
329,192,261809,1,0,0:0:0:0:
256,192,261877,1,0,0:0:0:0:
182,192,261877,1,0,0:0:0:0:
109,192,261877,1,0,0:0:0:0:
36,192,261877,1,0,0:0:0:0:
475,192,261945,1,0,0:0:0:0:
402,192,261945,1,0,0:0:0:0:
109,192,262013,1,0,0:0:0:0:
36,192,262013,1,0,0:0:0:0:
402,192,262081,1,0,0:0:0:0:
329,192,262081,1,0,0:0:0:0:
109,192,262150,1,0,0:0:0:0:
36,192,262150,1,0,0:0:0:0:
329,192,262218,1,0,0:0:0:0:
256,192,262218,1,0,0:0:0:0:
109,192,262286,1,0,0:0:0:0:
36,192,262286,1,0,0:0:0:0:
256,192,262354,1,0,0:0:0:0:
182,192,262354,1,0,0:0:0:0:
109,192,262422,1,0,0:0:0:0:
36,192,262422,1,0,0:0:0:0:
475,192,262422,1,0,0:0:0:0:
182,192,262490,1,0,0:0:0:0:
329,192,262490,1,0,0:0:0:0:
109,192,262559,1,0,0:0:0:0:
36,192,262559,1,0,0:0:0:0:
475,192,262559,1,0,0:0:0:0:
182,192,262627,1,0,0:0:0:0:
329,192,262627,1,0,0:0:0:0:
402,192,262695,1,0,0:0:0:0:
256,192,262695,1,0,0:0:0:0:
475,192,262695,128,0,262968:0:0:0:0:
402,192,262968,1,0,0:0:0:0:
256,192,262968,1,0,0:0:0:0:
109,192,262968,1,0,0:0:0:0:
36,192,262968,1,0,0:0:0:0:
329,192,263036,1,0,0:0:0:0:
182,192,263036,1,0,0:0:0:0:
475,192,263104,1,0,0:0:0:0:
402,192,263104,1,0,0:0:0:0:
256,192,263104,1,0,0:0:0:0:
36,192,263104,1,0,0:0:0:0:
182,192,263172,1,0,0:0:0:0:
109,192,263172,1,0,0:0:0:0:
475,192,263240,1,0,0:0:0:0:
402,192,263240,1,0,0:0:0:0:
329,192,263240,1,0,0:0:0:0:
36,192,263240,1,0,0:0:0:0:
256,192,263309,1,0,0:0:0:0:
182,192,263309,1,0,0:0:0:0:
109,192,263377,1,0,0:0:0:0:
36,192,263377,1,0,0:0:0:0:
475,192,263377,1,0,0:0:0:0:
329,192,263377,1,0,0:0:0:0:
402,192,263445,1,0,0:0:0:0:
256,192,263445,1,0,0:0:0:0:
329,192,263513,1,0,0:0:0:0:
182,192,263513,1,0,0:0:0:0:
109,192,263513,1,0,0:0:0:0:
36,192,263513,1,0,0:0:0:0:
475,192,263581,1,0,0:0:0:0:
402,192,263581,1,0,0:0:0:0:
329,192,263650,1,0,0:0:0:0:
256,192,263650,1,0,0:0:0:0:
182,192,263650,1,0,0:0:0:0:
36,192,263650,1,0,0:0:0:0:
402,192,263718,1,0,0:0:0:0:
109,192,263718,1,0,0:0:0:0:
475,192,263786,1,0,0:0:0:0:
256,192,263786,1,0,0:0:0:0:
182,192,263786,1,0,0:0:0:0:
36,192,263854,1,0,0:0:0:0:
329,192,263854,1,0,0:0:0:0:
109,192,263922,1,0,0:0:0:0:
402,192,263922,1,0,0:0:0:0:
256,192,263922,1,0,0:0:0:0:
182,192,263922,1,0,0:0:0:0:
329,192,263990,1,0,0:0:0:0:
475,192,264059,1,0,0:0:0:0:
402,192,264059,1,0,0:0:0:0:
109,192,264059,1,0,0:0:0:0:
36,192,264059,1,0,0:0:0:0:
256,192,264127,1,0,0:0:0:0:
182,192,264127,1,0,0:0:0:0:
475,192,264195,1,0,0:0:0:0:
329,192,264195,1,0,0:0:0:0:
109,192,264195,1,0,0:0:0:0:
36,192,264195,1,0,0:0:0:0:
256,192,264263,1,0,0:0:0:0:
182,192,264263,1,0,0:0:0:0:
402,192,264331,1,0,0:0:0:0:
475,192,264331,1,0,0:0:0:0:
36,192,264331,1,0,0:0:0:0:
329,192,264400,1,0,0:0:0:0:
182,192,264400,1,0,0:0:0:0:
256,192,264468,1,0,0:0:0:0:
109,192,264468,1,0,0:0:0:0:
36,192,264468,1,0,0:0:0:0:
475,192,264468,1,0,0:0:0:0:
329,192,264536,1,0,0:0:0:0:
475,192,264604,1,0,0:0:0:0:
402,192,264604,1,0,0:0:0:0:
182,192,264604,1,0,0:0:0:0:
109,192,264604,1,0,0:0:0:0:
256,192,264672,1,0,0:0:0:0:
402,192,264740,1,0,0:0:0:0:
329,192,264740,1,0,0:0:0:0:
109,192,264740,1,0,0:0:0:0:
36,192,264740,1,0,0:0:0:0:
182,192,264809,1,0,0:0:0:0:
256,192,264809,1,0,0:0:0:0:
475,192,264877,1,0,0:0:0:0:
36,192,264877,1,0,0:0:0:0:
402,192,264877,1,0,0:0:0:0:
256,192,264945,1,0,0:0:0:0:
109,192,264945,1,0,0:0:0:0:
402,192,265013,1,0,0:0:0:0:
329,192,265013,1,0,0:0:0:0:
182,192,265013,1,0,0:0:0:0:
475,192,265013,1,0,0:0:0:0:
109,192,265081,1,0,0:0:0:0:
36,192,265081,1,0,0:0:0:0:
475,192,265150,1,0,0:0:0:0:
402,192,265150,1,0,0:0:0:0:
256,192,265150,1,0,0:0:0:0:
182,192,265150,1,0,0:0:0:0:
329,192,265218,1,0,0:0:0:0:
109,192,265218,1,0,0:0:0:0:
256,192,265286,1,0,0:0:0:0:
36,192,265286,1,0,0:0:0:0:
475,192,265286,1,0,0:0:0:0:
402,192,265286,1,0,0:0:0:0:
182,192,265354,1,0,0:0:0:0:
329,192,265354,1,0,0:0:0:0:
109,192,265422,1,0,0:0:0:0:
36,192,265422,1,0,0:0:0:0:
475,192,265422,1,0,0:0:0:0:
256,192,265490,1,0,0:0:0:0:
182,192,265490,1,0,0:0:0:0:
402,192,265559,1,0,0:0:0:0:
329,192,265559,1,0,0:0:0:0:
36,192,265559,1,0,0:0:0:0:
475,192,265559,1,0,0:0:0:0:
109,192,265627,1,0,0:0:0:0:
182,192,265627,1,0,0:0:0:0:
402,192,265695,1,0,0:0:0:0:
256,192,265695,1,0,0:0:0:0:
329,192,265695,1,0,0:0:0:0:
36,192,265695,1,0,0:0:0:0:
182,192,265763,1,0,0:0:0:0:
109,192,265763,1,0,0:0:0:0:
475,192,265831,1,0,0:0:0:0:
402,192,265831,1,0,0:0:0:0:
256,192,265831,1,0,0:0:0:0:
329,192,265831,1,0,0:0:0:0:
109,192,265900,1,0,0:0:0:0:
36,192,265900,1,0,0:0:0:0:
475,192,265968,1,0,0:0:0:0:
402,192,265968,1,0,0:0:0:0:
182,192,265968,1,0,0:0:0:0:
329,192,266036,1,0,0:0:0:0:
109,192,266036,1,0,0:0:0:0:
256,192,266104,1,0,0:0:0:0:
402,192,266104,1,0,0:0:0:0:
475,192,266104,1,0,0:0:0:0:
36,192,266104,1,0,0:0:0:0:
182,192,266172,1,0,0:0:0:0:
329,192,266172,1,0,0:0:0:0:
109,192,266240,1,0,0:0:0:0:
36,192,266240,1,0,0:0:0:0:
475,192,266240,1,0,0:0:0:0:
402,192,266275,1,0,0:0:0:0:
329,192,266309,1,0,0:0:0:0:
256,192,266343,1,0,0:0:0:0:
36,192,266377,1,0,0:0:0:0:
109,192,266411,1,0,0:0:0:0:
182,192,266445,1,0,0:0:0:0:
256,192,266479,1,0,0:0:0:0:
475,192,266513,1,0,0:0:0:0:
329,192,266513,1,0,0:0:0:0:
36,192,266513,1,0,0:0:0:0:
402,192,266581,1,0,0:0:0:0:
109,192,266581,1,0,0:0:0:0:
182,192,266581,1,0,0:0:0:0:
329,192,266650,1,0,0:0:0:0:
475,192,266650,1,0,0:0:0:0:
36,192,266650,1,0,0:0:0:0:
402,192,266718,1,0,0:0:0:0:
256,192,266718,1,0,0:0:0:0:
182,192,266718,1,0,0:0:0:0:
475,192,266786,1,0,0:0:0:0:
329,192,266786,1,0,0:0:0:0:
109,192,266786,1,0,0:0:0:0:
36,192,266786,1,0,0:0:0:0:
402,192,266854,1,0,0:0:0:0:
256,192,266854,1,0,0:0:0:0:
182,192,266854,1,0,0:0:0:0:
329,192,266922,1,0,0:0:0:0:
36,192,266922,1,0,0:0:0:0:
109,192,266922,1,0,0:0:0:0:
475,192,266990,1,0,0:0:0:0:
256,192,266990,1,0,0:0:0:0:
402,192,266990,1,0,0:0:0:0:
329,192,267059,1,0,0:0:0:0:
182,192,267059,1,0,0:0:0:0:
36,192,267059,1,0,0:0:0:0:
109,192,267127,1,0,0:0:0:0:
256,192,267127,1,0,0:0:0:0:
475,192,267127,1,0,0:0:0:0:
329,192,267195,1,0,0:0:0:0:
182,192,267195,1,0,0:0:0:0:
36,192,267195,1,0,0:0:0:0:
402,192,267263,1,0,0:0:0:0:
256,192,267263,1,0,0:0:0:0:
475,192,267331,1,0,0:0:0:0:
329,192,267331,1,0,0:0:0:0:
182,192,267331,1,0,0:0:0:0:
36,192,267331,1,0,0:0:0:0:
109,192,267331,1,0,0:0:0:0:
402,192,267468,1,0,0:0:0:0:
329,192,267468,1,0,0:0:0:0:
36,192,267468,1,0,0:0:0:0:
256,192,267468,1,0,0:0:0:0:
475,192,267604,1,0,0:0:0:0:
402,192,267604,1,0,0:0:0:0:
329,192,267604,1,0,0:0:0:0:
182,192,267604,1,0,0:0:0:0:
109,192,267604,1,0,0:0:0:0:
256,192,267604,1,0,0:0:0:0:
475,192,267740,1,0,0:0:0:0:
329,192,267740,1,0,0:0:0:0:
182,192,267740,1,0,0:0:0:0:
36,192,267740,1,0,0:0:0:0:
402,192,267877,1,0,0:0:0:0:
109,192,267877,1,0,0:0:0:0:
36,192,267877,1,0,0:0:0:0:
329,192,267877,1,0,0:0:0:0:
256,192,267877,1,0,0:0:0:0:
475,192,268013,1,0,0:0:0:0:
182,192,268013,1,0,0:0:0:0:
36,192,268013,1,0,0:0:0:0:
402,192,268013,1,0,0:0:0:0:
475,192,268150,1,0,0:0:0:0:
329,192,268150,1,0,0:0:0:0:
256,192,268150,1,0,0:0:0:0:
402,192,268150,1,0,0:0:0:0:
182,192,268150,1,0,0:0:0:0:
109,192,268150,1,0,0:0:0:0:
402,192,268286,1,0,0:0:0:0:
256,192,268286,1,0,0:0:0:0:
109,192,268286,1,0,0:0:0:0:
36,192,268286,1,0,0:0:0:0:
329,192,268422,1,0,0:0:0:0:
182,192,268422,1,0,0:0:0:0:
109,192,268422,1,0,0:0:0:0:
475,192,268422,1,0,0:0:0:0:
36,192,268422,1,0,0:0:0:0:
402,192,268559,1,0,0:0:0:0:
109,192,268559,1,0,0:0:0:0:
475,192,268559,1,0,0:0:0:0:
256,192,268559,1,0,0:0:0:0:
402,192,268695,1,0,0:0:0:0:
329,192,268695,1,0,0:0:0:0:
109,192,268695,1,0,0:0:0:0:
256,192,268695,1,0,0:0:0:0:
182,192,268695,1,0,0:0:0:0:
36,192,268695,1,0,0:0:0:0:
475,192,268831,1,0,0:0:0:0:
329,192,268831,1,0,0:0:0:0:
182,192,268831,1,0,0:0:0:0:
109,192,268831,1,0,0:0:0:0:
475,192,268968,1,0,0:0:0:0:
402,192,268968,1,0,0:0:0:0:
256,192,268968,1,0,0:0:0:0:
182,192,268968,1,0,0:0:0:0:
36,192,268968,1,0,0:0:0:0:
329,192,269104,1,0,0:0:0:0:
109,192,269104,1,0,0:0:0:0:
36,192,269104,1,0,0:0:0:0:
475,192,269104,1,0,0:0:0:0:
402,192,269240,1,0,0:0:0:0:
329,192,269240,1,0,0:0:0:0:
256,192,269240,1,0,0:0:0:0:
182,192,269240,1,0,0:0:0:0:
109,192,269240,1,0,0:0:0:0:
36,192,269240,1,0,0:0:0:0:
475,192,269377,1,0,0:0:0:0:
402,192,269377,1,0,0:0:0:0:
256,192,269377,1,0,0:0:0:0:
36,192,269377,1,0,0:0:0:0:
402,192,269513,1,0,0:0:0:0:
109,192,269513,1,0,0:0:0:0:
182,192,269513,1,0,0:0:0:0:
329,192,269513,1,0,0:0:0:0:
256,192,269513,1,0,0:0:0:0:
475,192,269513,128,0,269786:0:0:0:0:
329,192,269650,1,0,0:0:0:0:
182,192,269650,1,0,0:0:0:0:
109,192,269650,1,0,0:0:0:0:
36,192,269650,1,0,0:0:0:0:
402,192,269786,1,0,0:0:0:0:
329,192,269786,1,0,0:0:0:0:
256,192,269786,1,0,0:0:0:0:
182,192,269786,1,0,0:0:0:0:
36,192,269786,1,0,0:0:0:0:
475,192,269854,1,0,0:0:0:0:
402,192,269922,1,0,0:0:0:0:
329,192,269922,1,0,0:0:0:0:
256,192,269922,1,0,0:0:0:0:
109,192,269922,1,0,0:0:0:0:
475,192,269990,1,0,0:0:0:0:
402,192,270059,1,0,0:0:0:0:
329,192,270059,1,0,0:0:0:0:
182,192,270059,1,0,0:0:0:0:
109,192,270059,1,0,0:0:0:0:
36,192,270059,1,0,0:0:0:0:
475,192,270127,1,0,0:0:0:0:
402,192,270195,1,0,0:0:0:0:
329,192,270195,1,0,0:0:0:0:
256,192,270195,1,0,0:0:0:0:
36,192,270195,1,0,0:0:0:0:
475,192,270263,1,0,0:0:0:0:
402,192,270331,1,0,0:0:0:0:
329,192,270331,1,0,0:0:0:0:
256,192,270331,1,0,0:0:0:0:
182,192,270331,1,0,0:0:0:0:
109,192,270331,1,0,0:0:0:0:
475,192,270468,1,0,0:0:0:0:
402,192,270468,1,0,0:0:0:0:
182,192,270468,1,0,0:0:0:0:
36,192,270468,1,0,0:0:0:0:
475,192,270604,1,0,0:0:0:0:
329,192,270604,1,0,0:0:0:0:
256,192,270604,1,0,0:0:0:0:
109,192,270604,1,0,0:0:0:0:
36,192,270604,1,0,0:0:0:0:
402,192,270740,1,0,0:0:0:0:
329,192,270740,1,0,0:0:0:0:
182,192,270740,1,0,0:0:0:0:
36,192,270740,1,0,0:0:0:0:
475,192,270877,1,0,0:0:0:0:
329,192,270877,1,0,0:0:0:0:
256,192,270877,1,0,0:0:0:0:
182,192,270877,1,0,0:0:0:0:
109,192,270877,1,0,0:0:0:0:
475,192,271013,1,0,0:0:0:0:
402,192,271013,1,0,0:0:0:0:
256,192,271013,1,0,0:0:0:0:
36,192,271013,1,0,0:0:0:0:
475,192,271150,1,0,0:0:0:0:
329,192,271150,1,0,0:0:0:0:
109,192,271150,1,0,0:0:0:0:
36,192,271150,1,0,0:0:0:0:
182,192,271150,1,0,0:0:0:0:
402,192,271218,1,0,0:0:0:0:
256,192,271218,1,0,0:0:0:0:
329,192,271286,1,0,0:0:0:0:
109,192,271286,1,0,0:0:0:0:
36,192,271286,1,0,0:0:0:0:
182,192,271354,1,0,0:0:0:0:
402,192,271354,1,0,0:0:0:0:
475,192,271422,1,0,0:0:0:0:
256,192,271422,1,0,0:0:0:0:
109,192,271422,1,0,0:0:0:0:
36,192,271422,1,0,0:0:0:0:
402,192,271559,1,0,0:0:0:0:
329,192,271559,1,0,0:0:0:0:
182,192,271559,1,0,0:0:0:0:
402,192,271695,1,0,0:0:0:0:
256,192,271695,1,0,0:0:0:0:
36,192,271695,128,0,271968:0:0:0:0:
109,192,271695,1,0,0:0:0:0:
475,192,271968,1,0,0:0:0:0:
402,192,271968,1,0,0:0:0:0:
182,192,271968,1,0,0:0:0:0:
329,192,272104,1,0,0:0:0:0:
109,192,272104,1,0,0:0:0:0:
256,192,272104,1,0,0:0:0:0:
475,192,272240,1,0,0:0:0:0:
256,192,272240,1,0,0:0:0:0:
182,192,272240,1,0,0:0:0:0:
329,192,272240,128,0,272513:0:0:0:0:
475,192,272513,1,0,0:0:0:0:
402,192,272513,1,0,0:0:0:0:
256,192,272513,1,0,0:0:0:0:
36,192,272513,1,0,0:0:0:0:
109,192,272513,1,0,0:0:0:0:
329,192,272581,1,0,0:0:0:0:
182,192,272581,1,0,0:0:0:0:
475,192,272650,1,0,0:0:0:0:
402,192,272650,1,0,0:0:0:0:
256,192,272650,1,0,0:0:0:0:
36,192,272650,1,0,0:0:0:0:
109,192,272718,1,0,0:0:0:0:
329,192,272786,1,0,0:0:0:0:
182,192,272786,1,0,0:0:0:0:
36,192,272786,1,0,0:0:0:0:
402,192,272786,1,0,0:0:0:0:
256,192,272854,1,0,0:0:0:0:
475,192,272922,1,0,0:0:0:0:
402,192,272922,1,0,0:0:0:0:
109,192,272922,1,0,0:0:0:0:
36,192,272922,1,0,0:0:0:0:
182,192,272990,1,0,0:0:0:0:
329,192,272990,1,0,0:0:0:0:
256,192,273059,1,0,0:0:0:0:
36,192,273059,1,0,0:0:0:0:
475,192,273059,1,0,0:0:0:0:
109,192,273127,1,0,0:0:0:0:
182,192,273127,1,0,0:0:0:0:
475,192,273195,1,0,0:0:0:0:
329,192,273195,1,0,0:0:0:0:
36,192,273195,1,0,0:0:0:0:
256,192,273195,1,0,0:0:0:0:
182,192,273263,1,0,0:0:0:0:
402,192,273263,1,0,0:0:0:0:
256,192,273331,1,0,0:0:0:0:
36,192,273331,1,0,0:0:0:0:
475,192,273331,1,0,0:0:0:0:
109,192,273331,1,0,0:0:0:0:
329,192,273400,1,0,0:0:0:0:
182,192,273400,1,0,0:0:0:0:
475,192,273468,1,0,0:0:0:0:
402,192,273468,1,0,0:0:0:0:
256,192,273468,1,0,0:0:0:0:
36,192,273468,1,0,0:0:0:0:
182,192,273536,1,0,0:0:0:0:
109,192,273536,1,0,0:0:0:0:
329,192,273604,1,0,0:0:0:0:
402,192,273604,1,0,0:0:0:0:
36,192,273604,1,0,0:0:0:0:
256,192,273672,1,0,0:0:0:0:
109,192,273672,1,0,0:0:0:0:
475,192,273740,1,0,0:0:0:0:
329,192,273740,1,0,0:0:0:0:
182,192,273740,1,0,0:0:0:0:
402,192,273740,1,0,0:0:0:0:
36,192,273809,1,0,0:0:0:0:
109,192,273809,1,0,0:0:0:0:
475,192,273877,1,0,0:0:0:0:
402,192,273877,1,0,0:0:0:0:
256,192,273877,1,0,0:0:0:0:
182,192,273877,1,0,0:0:0:0:
329,192,273945,1,0,0:0:0:0:
36,192,273945,1,0,0:0:0:0:
109,192,274013,1,0,0:0:0:0:
182,192,274013,1,0,0:0:0:0:
475,192,274013,1,0,0:0:0:0:
402,192,274013,1,0,0:0:0:0:
256,192,274081,1,0,0:0:0:0:
36,192,274081,1,0,0:0:0:0:
475,192,274150,1,0,0:0:0:0:
329,192,274150,1,0,0:0:0:0:
109,192,274150,1,0,0:0:0:0:
402,192,274218,1,0,0:0:0:0:
256,192,274218,1,0,0:0:0:0:
329,192,274286,1,0,0:0:0:0:
182,192,274286,1,0,0:0:0:0:
109,192,274286,1,0,0:0:0:0:
36,192,274286,1,0,0:0:0:0:
475,192,274354,1,0,0:0:0:0:
402,192,274354,1,0,0:0:0:0:
329,192,274422,1,0,0:0:0:0:
256,192,274422,1,0,0:0:0:0:
109,192,274422,1,0,0:0:0:0:
36,192,274422,1,0,0:0:0:0:
402,192,274490,1,0,0:0:0:0:
182,192,274490,1,0,0:0:0:0:
475,192,274559,1,0,0:0:0:0:
329,192,274559,1,0,0:0:0:0:
256,192,274559,1,0,0:0:0:0:
36,192,274559,1,0,0:0:0:0:
109,192,274627,1,0,0:0:0:0:
182,192,274627,1,0,0:0:0:0:
475,192,274695,1,0,0:0:0:0:
329,192,274695,1,0,0:0:0:0:
36,192,274695,1,0,0:0:0:0:
402,192,274763,1,0,0:0:0:0:
256,192,274763,1,0,0:0:0:0:
329,192,274831,1,0,0:0:0:0:
182,192,274831,1,0,0:0:0:0:
109,192,274831,1,0,0:0:0:0:
475,192,274831,1,0,0:0:0:0:
256,192,274900,1,0,0:0:0:0:
36,192,274900,1,0,0:0:0:0:
182,192,274968,1,0,0:0:0:0:
109,192,274968,1,0,0:0:0:0:
475,192,274968,1,0,0:0:0:0:
402,192,275002,1,0,0:0:0:0:
329,192,275036,1,0,0:0:0:0:
256,192,275070,1,0,0:0:0:0:
36,192,275104,1,0,0:0:0:0:
109,192,275138,1,0,0:0:0:0:
182,192,275172,1,0,0:0:0:0:
256,192,275206,1,0,0:0:0:0:
475,192,275240,1,0,0:0:0:0:
329,192,275240,1,0,0:0:0:0:
36,192,275240,1,0,0:0:0:0:
402,192,275309,1,0,0:0:0:0:
256,192,275309,1,0,0:0:0:0:
109,192,275309,1,0,0:0:0:0:
329,192,275377,1,0,0:0:0:0:
182,192,275377,1,0,0:0:0:0:
36,192,275377,1,0,0:0:0:0:
475,192,275445,1,0,0:0:0:0:
402,192,275445,1,0,0:0:0:0:
109,192,275445,1,0,0:0:0:0:
256,192,275513,1,0,0:0:0:0:
182,192,275513,1,0,0:0:0:0:
36,192,275513,1,0,0:0:0:0:
475,192,275581,1,0,0:0:0:0:
329,192,275581,1,0,0:0:0:0:
109,192,275581,1,0,0:0:0:0:
402,192,275650,1,0,0:0:0:0:
256,192,275650,1,0,0:0:0:0:
182,192,275650,1,0,0:0:0:0:
109,192,275718,1,0,0:0:0:0:
36,192,275718,1,0,0:0:0:0:
475,192,275786,1,0,0:0:0:0:
402,192,275786,1,0,0:0:0:0:
329,192,275786,1,0,0:0:0:0:
256,192,275786,1,0,0:0:0:0:
182,192,275854,1,0,0:0:0:0:
109,192,275854,1,0,0:0:0:0:
329,192,275922,1,0,0:0:0:0:
182,192,275990,1,0,0:0:0:0:
402,192,276059,1,0,0:0:0:0:
475,192,276059,1,0,0:0:0:0:
256,192,276059,1,0,0:0:0:0:
109,192,276059,1,0,0:0:0:0:
36,192,276059,1,0,0:0:0:0:
329,192,276263,1,0,0:0:0:0:
256,192,276263,1,0,0:0:0:0:
182,192,276263,1,0,0:0:0:0:
109,192,276263,1,0,0:0:0:0:
475,192,276331,1,0,0:0:0:0:
402,192,276331,1,0,0:0:0:0:
329,192,276331,1,0,0:0:0:0:
182,192,276331,1,0,0:0:0:0:
36,192,276331,1,0,0:0:0:0:
329,192,276468,1,0,0:0:0:0:
256,192,276468,1,0,0:0:0:0:
109,192,276468,1,0,0:0:0:0:
475,192,276468,1,0,0:0:0:0:
402,192,276672,1,0,0:0:0:0:
329,192,276672,1,0,0:0:0:0:
256,192,276672,1,0,0:0:0:0:
109,192,276672,1,0,0:0:0:0:
182,192,276740,1,0,0:0:0:0:
36,192,276740,1,0,0:0:0:0:
256,192,276740,1,0,0:0:0:0:
475,192,276740,1,0,0:0:0:0:
329,192,276740,1,0,0:0:0:0:
475,192,276877,1,0,0:0:0:0:
402,192,276877,1,0,0:0:0:0:
256,192,276877,1,0,0:0:0:0:
109,192,276877,1,0,0:0:0:0:
329,192,277013,1,0,0:0:0:0:
182,192,277013,1,0,0:0:0:0:
402,192,277150,1,0,0:0:0:0:
329,192,277150,1,0,0:0:0:0:
256,192,277150,1,0,0:0:0:0:
182,192,277150,1,0,0:0:0:0:
36,192,277150,1,0,0:0:0:0:
402,192,277354,1,0,0:0:0:0:
256,192,277354,1,0,0:0:0:0:
109,192,277354,1,0,0:0:0:0:
182,192,277354,1,0,0:0:0:0:
475,192,277422,1,0,0:0:0:0:
329,192,277422,1,0,0:0:0:0:
256,192,277422,1,0,0:0:0:0:
182,192,277422,1,0,0:0:0:0:
36,192,277422,1,0,0:0:0:0:
402,192,277559,1,0,0:0:0:0:
329,192,277559,1,0,0:0:0:0:
256,192,277559,1,0,0:0:0:0:
109,192,277559,1,0,0:0:0:0:
475,192,277763,1,0,0:0:0:0:
402,192,277763,1,0,0:0:0:0:
182,192,277763,1,0,0:0:0:0:
36,192,277763,1,0,0:0:0:0:
402,192,277831,1,0,0:0:0:0:
329,192,277831,1,0,0:0:0:0:
256,192,277831,1,0,0:0:0:0:
109,192,277831,1,0,0:0:0:0:
36,192,277831,1,0,0:0:0:0:
475,192,277968,1,0,0:0:0:0:
329,192,277968,1,0,0:0:0:0:
256,192,277968,1,0,0:0:0:0:
109,192,277968,1,0,0:0:0:0:
402,192,278104,1,0,0:0:0:0:
182,192,278104,1,0,0:0:0:0:
475,192,278240,1,0,0:0:0:0:
402,192,278240,1,0,0:0:0:0:
256,192,278240,1,0,0:0:0:0:
109,192,278240,1,0,0:0:0:0:
36,192,278240,1,0,0:0:0:0:
329,192,278445,1,0,0:0:0:0:
256,192,278445,1,0,0:0:0:0:
109,192,278445,1,0,0:0:0:0:
36,192,278445,1,0,0:0:0:0:
475,192,278513,1,0,0:0:0:0:
402,192,278513,1,0,0:0:0:0:
256,192,278513,1,0,0:0:0:0:
182,192,278513,1,0,0:0:0:0:
109,192,278513,1,0,0:0:0:0:
475,192,278650,1,0,0:0:0:0:
329,192,278650,1,0,0:0:0:0:
256,192,278650,1,0,0:0:0:0:
36,192,278650,1,0,0:0:0:0:
475,192,278786,1,0,0:0:0:0:
402,192,278786,1,0,0:0:0:0:
182,192,278786,1,0,0:0:0:0:
109,192,278786,1,0,0:0:0:0:
36,192,278786,1,0,0:0:0:0:
402,192,278990,1,0,0:0:0:0:
329,192,278990,1,0,0:0:0:0:
182,192,278990,1,0,0:0:0:0:
109,192,278990,1,0,0:0:0:0:
475,192,279059,1,0,0:0:0:0:
402,192,279059,1,0,0:0:0:0:
256,192,279059,1,0,0:0:0:0:
182,192,279059,1,0,0:0:0:0:
36,192,279059,1,0,0:0:0:0:
402,192,279195,1,0,0:0:0:0:
329,192,279195,1,0,0:0:0:0:
182,192,279195,1,0,0:0:0:0:
109,192,279195,1,0,0:0:0:0:
475,192,279331,1,0,0:0:0:0:
36,192,279331,1,0,0:0:0:0:
109,192,279331,1,0,0:0:0:0:
256,192,279331,1,0,0:0:0:0:
402,192,279331,1,0,0:0:0:0:
329,192,279400,1,0,0:0:0:0:
182,192,279400,1,0,0:0:0:0:
402,192,279468,1,0,0:0:0:0:
256,192,279468,1,0,0:0:0:0:
109,192,279468,1,0,0:0:0:0:
475,192,279536,1,0,0:0:0:0:
329,192,279536,1,0,0:0:0:0:
182,192,279536,1,0,0:0:0:0:
36,192,279536,1,0,0:0:0:0:
402,192,279604,1,0,0:0:0:0:
256,192,279604,1,0,0:0:0:0:
109,192,279604,1,0,0:0:0:0:
182,192,279672,1,0,0:0:0:0:
36,192,279672,1,0,0:0:0:0:
329,192,279672,1,0,0:0:0:0:
475,192,279740,1,0,0:0:0:0:
402,192,279740,1,0,0:0:0:0:
109,192,279740,1,0,0:0:0:0:
329,192,279809,1,0,0:0:0:0:
182,192,279809,1,0,0:0:0:0:
36,192,279809,1,0,0:0:0:0:
256,192,279877,1,0,0:0:0:0:
109,192,279877,1,0,0:0:0:0:
475,192,279877,1,0,0:0:0:0:
329,192,279945,1,0,0:0:0:0:
182,192,279945,1,0,0:0:0:0:
36,192,280013,1,0,0:0:0:0:
402,192,280013,1,0,0:0:0:0:
182,192,280081,1,0,0:0:0:0:
329,192,280081,1,0,0:0:0:0:
109,192,280150,1,0,0:0:0:0:
402,192,280150,1,0,0:0:0:0:
475,192,280150,1,0,0:0:0:0:
256,192,280150,1,0,0:0:0:0:
475,192,280422,1,0,0:0:0:0:
109,192,280422,1,0,0:0:0:0:
36,192,280422,1,0,0:0:0:0:
256,192,280422,1,0,0:0:0:0:
402,192,280422,1,0,0:0:0:0:
256,192,280831,1,0,0:0:0:0:
109,192,280831,1,0,0:0:0:0:
402,192,280831,1,0,0:0:0:0:
36,192,280831,1,0,0:0:0:0:
475,192,280968,1,0,0:0:0:0:
402,192,280968,1,0,0:0:0:0:
36,192,280968,1,0,0:0:0:0:
329,192,280968,1,0,0:0:0:0:
109,192,281104,1,0,0:0:0:0:
329,192,281104,1,0,0:0:0:0:
402,192,281240,1,0,0:0:0:0:
256,192,281240,1,0,0:0:0:0:
329,192,281240,1,0,0:0:0:0:
109,192,281309,1,0,0:0:0:0:
36,192,281309,1,0,0:0:0:0:
402,192,281377,1,0,0:0:0:0:
182,192,281377,1,0,0:0:0:0:
256,192,281445,1,0,0:0:0:0:
109,192,281445,1,0,0:0:0:0:
475,192,281513,1,0,0:0:0:0:
329,192,281513,1,0,0:0:0:0:
182,192,281581,1,0,0:0:0:0:
36,192,281581,1,0,0:0:0:0:
402,192,281650,1,0,0:0:0:0:
256,192,281650,1,0,0:0:0:0:
109,192,281718,1,0,0:0:0:0:
36,192,281718,1,0,0:0:0:0:
182,192,281786,1,0,0:0:0:0:
475,192,281786,1,0,0:0:0:0:
402,192,281786,1,0,0:0:0:0:
109,192,281854,1,0,0:0:0:0:
36,192,281854,1,0,0:0:0:0:
256,192,281854,1,0,0:0:0:0:
182,192,281922,1,0,0:0:0:0:
475,192,281922,1,0,0:0:0:0:
402,192,281922,1,0,0:0:0:0:
36,192,281990,1,0,0:0:0:0:
329,192,281990,1,0,0:0:0:0:
109,192,282059,1,0,0:0:0:0:
402,192,282059,1,0,0:0:0:0:
182,192,282059,1,0,0:0:0:0:
256,192,282059,1,0,0:0:0:0:
475,192,282127,1,0,0:0:0:0:
329,192,282127,1,0,0:0:0:0:
109,192,282195,1,0,0:0:0:0:
36,192,282195,1,0,0:0:0:0:
256,192,282195,1,0,0:0:0:0:
402,192,282263,1,0,0:0:0:0:
182,192,282263,1,0,0:0:0:0:
329,192,282331,1,0,0:0:0:0:
36,192,282331,1,0,0:0:0:0:
109,192,282400,1,0,0:0:0:0:
256,192,282400,1,0,0:0:0:0:
402,192,282468,1,0,0:0:0:0:
182,192,282468,1,0,0:0:0:0:
329,192,282536,1,0,0:0:0:0:
36,192,282536,1,0,0:0:0:0:
109,192,282604,1,0,0:0:0:0:
475,192,282604,1,0,0:0:0:0:
402,192,282604,1,0,0:0:0:0:
256,192,282604,1,0,0:0:0:0:
329,192,282672,1,0,0:0:0:0:
182,192,282672,1,0,0:0:0:0:
109,192,282740,1,0,0:0:0:0:
402,192,282740,1,0,0:0:0:0:
329,192,282809,1,0,0:0:0:0:
182,192,282809,1,0,0:0:0:0:
402,192,282877,1,0,0:0:0:0:
109,192,282877,1,0,0:0:0:0:
182,192,282945,1,0,0:0:0:0:
329,192,282945,1,0,0:0:0:0:
109,192,283013,1,0,0:0:0:0:
402,192,283013,1,0,0:0:0:0:
256,192,283013,1,0,0:0:0:0:
475,192,283013,1,0,0:0:0:0:
182,192,283081,1,0,0:0:0:0:
329,192,283081,1,0,0:0:0:0:
256,192,283150,1,0,0:0:0:0:
109,192,283150,1,0,0:0:0:0:
36,192,283150,1,0,0:0:0:0:
475,192,283150,1,0,0:0:0:0:
402,192,283218,1,0,0:0:0:0:
329,192,283218,1,0,0:0:0:0:
182,192,283286,1,0,0:0:0:0:
36,192,283286,1,0,0:0:0:0:
475,192,283354,1,0,0:0:0:0:
256,192,283354,1,0,0:0:0:0:
329,192,283422,1,0,0:0:0:0:
402,192,283422,1,0,0:0:0:0:
36,192,283422,1,0,0:0:0:0:
182,192,283490,1,0,0:0:0:0:
109,192,283490,1,0,0:0:0:0:
402,192,283559,1,0,0:0:0:0:
256,192,283559,1,0,0:0:0:0:
109,192,283627,1,0,0:0:0:0:
36,192,283627,1,0,0:0:0:0:
329,192,283695,1,0,0:0:0:0:
182,192,283695,1,0,0:0:0:0:
402,192,283763,1,0,0:0:0:0:
256,192,283763,1,0,0:0:0:0:
182,192,283831,1,0,0:0:0:0:
36,192,283831,1,0,0:0:0:0:
329,192,283900,1,0,0:0:0:0:
256,192,283900,1,0,0:0:0:0:
475,192,283968,1,0,0:0:0:0:
402,192,283968,1,0,0:0:0:0:
36,192,283968,1,0,0:0:0:0:
256,192,284036,1,0,0:0:0:0:
182,192,284036,1,0,0:0:0:0:
109,192,284036,1,0,0:0:0:0:
475,192,284104,1,0,0:0:0:0:
329,192,284104,1,0,0:0:0:0:
36,192,284104,1,0,0:0:0:0:
182,192,284172,1,0,0:0:0:0:
109,192,284172,1,0,0:0:0:0:
475,192,284240,1,0,0:0:0:0:
402,192,284240,1,0,0:0:0:0:
329,192,284240,1,0,0:0:0:0:
256,192,284240,1,0,0:0:0:0:
36,192,284309,1,0,0:0:0:0:
182,192,284309,1,0,0:0:0:0:
256,192,284377,1,0,0:0:0:0:
109,192,284377,1,0,0:0:0:0:
475,192,284422,1,0,0:0:0:0:
402,192,284422,1,0,0:0:0:0:
329,192,284445,1,0,0:0:0:0:
182,192,284445,1,0,0:0:0:0:
36,192,284513,1,0,0:0:0:0:
109,192,284513,1,0,0:0:0:0:
182,192,284581,1,0,0:0:0:0:
329,192,284581,1,0,0:0:0:0:
402,192,284604,1,0,0:0:0:0:
475,192,284604,1,0,0:0:0:0:
256,192,284650,1,0,0:0:0:0:
36,192,284650,1,0,0:0:0:0:
329,192,284718,1,0,0:0:0:0:
182,192,284718,1,0,0:0:0:0:
475,192,284786,1,0,0:0:0:0:
109,192,284786,1,0,0:0:0:0:
36,192,284786,1,0,0:0:0:0:
256,192,284786,1,0,0:0:0:0:
402,192,284786,1,0,0:0:0:0:
109,192,285059,1,0,0:0:0:0:
402,192,285059,1,0,0:0:0:0:
256,192,285195,1,0,0:0:0:0:
402,192,285195,1,0,0:0:0:0:
109,192,285195,1,0,0:0:0:0:
475,192,285195,1,0,0:0:0:0:
36,192,285331,1,0,0:0:0:0:
109,192,285331,1,0,0:0:0:0:
475,192,285331,1,0,0:0:0:0:
182,192,285331,1,0,0:0:0:0:
109,192,285604,1,0,0:0:0:0:
256,192,285604,1,0,0:0:0:0:
182,192,285604,1,0,0:0:0:0:
402,192,285672,1,0,0:0:0:0:
475,192,285672,1,0,0:0:0:0:
109,192,285740,1,0,0:0:0:0:
329,192,285740,1,0,0:0:0:0:
256,192,285809,1,0,0:0:0:0:
402,192,285809,1,0,0:0:0:0:
36,192,285877,1,0,0:0:0:0:
182,192,285877,1,0,0:0:0:0:
329,192,285945,1,0,0:0:0:0:
475,192,285945,1,0,0:0:0:0:
109,192,286013,1,0,0:0:0:0:
256,192,286013,1,0,0:0:0:0:
402,192,286081,1,0,0:0:0:0:
475,192,286081,1,0,0:0:0:0:
329,192,286150,1,0,0:0:0:0:
36,192,286150,1,0,0:0:0:0:
109,192,286150,1,0,0:0:0:0:
402,192,286218,1,0,0:0:0:0:
475,192,286218,1,0,0:0:0:0:
256,192,286218,1,0,0:0:0:0:
329,192,286286,1,0,0:0:0:0:
36,192,286286,1,0,0:0:0:0:
109,192,286286,1,0,0:0:0:0:
475,192,286354,1,0,0:0:0:0:
182,192,286354,1,0,0:0:0:0:
402,192,286422,1,0,0:0:0:0:
109,192,286422,1,0,0:0:0:0:
329,192,286422,1,0,0:0:0:0:
256,192,286422,1,0,0:0:0:0:
36,192,286490,1,0,0:0:0:0:
182,192,286490,1,0,0:0:0:0:
402,192,286559,1,0,0:0:0:0:
475,192,286559,1,0,0:0:0:0:
256,192,286559,1,0,0:0:0:0:
109,192,286627,1,0,0:0:0:0:
329,192,286627,1,0,0:0:0:0:
182,192,286695,1,0,0:0:0:0:
475,192,286695,1,0,0:0:0:0:
402,192,286763,1,0,0:0:0:0:
256,192,286763,1,0,0:0:0:0:
109,192,286831,1,0,0:0:0:0:
329,192,286831,1,0,0:0:0:0:
182,192,286900,1,0,0:0:0:0:
475,192,286900,1,0,0:0:0:0:
402,192,286968,1,0,0:0:0:0:
36,192,286968,1,0,0:0:0:0:
109,192,286968,1,0,0:0:0:0:
256,192,286968,1,0,0:0:0:0:
182,192,287036,1,0,0:0:0:0:
329,192,287036,1,0,0:0:0:0:
402,192,287104,1,0,0:0:0:0:
109,192,287104,1,0,0:0:0:0:
182,192,287172,1,0,0:0:0:0:
329,192,287172,1,0,0:0:0:0:
109,192,287240,1,0,0:0:0:0:
402,192,287240,1,0,0:0:0:0:
329,192,287309,1,0,0:0:0:0:
182,192,287309,1,0,0:0:0:0:
402,192,287377,1,0,0:0:0:0:
109,192,287377,1,0,0:0:0:0:
256,192,287377,1,0,0:0:0:0:
36,192,287377,1,0,0:0:0:0:
329,192,287445,1,0,0:0:0:0:
182,192,287445,1,0,0:0:0:0:
256,192,287513,1,0,0:0:0:0:
402,192,287513,1,0,0:0:0:0:
475,192,287513,1,0,0:0:0:0:
36,192,287513,1,0,0:0:0:0:
109,192,287581,1,0,0:0:0:0:
182,192,287581,1,0,0:0:0:0:
329,192,287650,1,0,0:0:0:0:
475,192,287650,1,0,0:0:0:0:
109,192,287718,1,0,0:0:0:0:
256,192,287718,1,0,0:0:0:0:
182,192,287786,1,0,0:0:0:0:
36,192,287786,1,0,0:0:0:0:
475,192,287786,1,0,0:0:0:0:
329,192,287854,1,0,0:0:0:0:
402,192,287854,1,0,0:0:0:0:
109,192,287922,1,0,0:0:0:0:
256,192,287922,1,0,0:0:0:0:
402,192,287990,1,0,0:0:0:0:
475,192,287990,1,0,0:0:0:0:
182,192,288059,1,0,0:0:0:0:
329,192,288059,1,0,0:0:0:0:
109,192,288127,1,0,0:0:0:0:
256,192,288127,1,0,0:0:0:0:
329,192,288195,1,0,0:0:0:0:
475,192,288195,1,0,0:0:0:0:
182,192,288263,1,0,0:0:0:0:
256,192,288263,1,0,0:0:0:0:
36,192,288331,1,0,0:0:0:0:
109,192,288331,1,0,0:0:0:0:
475,192,288331,1,0,0:0:0:0:
256,192,288400,1,0,0:0:0:0:
329,192,288400,1,0,0:0:0:0:
402,192,288400,1,0,0:0:0:0:
36,192,288468,1,0,0:0:0:0:
182,192,288468,1,0,0:0:0:0:
475,192,288468,1,0,0:0:0:0:
329,192,288536,1,0,0:0:0:0:
402,192,288536,1,0,0:0:0:0:
36,192,288604,1,0,0:0:0:0:
109,192,288604,1,0,0:0:0:0:
182,192,288604,1,0,0:0:0:0:
256,192,288604,1,0,0:0:0:0:
475,192,288672,1,0,0:0:0:0:
329,192,288672,1,0,0:0:0:0:
256,192,288740,1,0,0:0:0:0:
402,192,288740,1,0,0:0:0:0:
36,192,288786,1,0,0:0:0:0:
109,192,288786,1,0,0:0:0:0:
182,192,288809,1,0,0:0:0:0:
329,192,288809,1,0,0:0:0:0:
475,192,288877,1,0,0:0:0:0:
402,192,288877,1,0,0:0:0:0:
329,192,288945,1,0,0:0:0:0:
182,192,288945,1,0,0:0:0:0:
109,192,288968,1,0,0:0:0:0:
36,192,288968,1,0,0:0:0:0:
256,192,289013,1,0,0:0:0:0:
402,192,289013,1,0,0:0:0:0:
182,192,289081,1,0,0:0:0:0:
329,192,289081,1,0,0:0:0:0:
36,192,289150,1,0,0:0:0:0:
109,192,289150,1,0,0:0:0:0:
256,192,289150,1,0,0:0:0:0:
402,192,289150,1,0,0:0:0:0:
475,192,289150,1,0,0:0:0:0:
256,192,289559,1,0,0:0:0:0:
109,192,289559,1,0,0:0:0:0:
402,192,289559,1,0,0:0:0:0:
36,192,289559,1,0,0:0:0:0:
475,192,289695,1,0,0:0:0:0:
402,192,289695,1,0,0:0:0:0:
36,192,289695,1,0,0:0:0:0:
329,192,289695,1,0,0:0:0:0:
109,192,289831,1,0,0:0:0:0:
329,192,289831,1,0,0:0:0:0:
402,192,289968,1,0,0:0:0:0:
256,192,289968,1,0,0:0:0:0:
329,192,289968,1,0,0:0:0:0:
109,192,290036,1,0,0:0:0:0:
36,192,290036,1,0,0:0:0:0:
402,192,290104,1,0,0:0:0:0:
182,192,290104,1,0,0:0:0:0:
256,192,290172,1,0,0:0:0:0:
109,192,290172,1,0,0:0:0:0:
475,192,290240,1,0,0:0:0:0:
329,192,290240,1,0,0:0:0:0:
182,192,290309,1,0,0:0:0:0:
36,192,290309,1,0,0:0:0:0:
402,192,290377,1,0,0:0:0:0:
256,192,290377,1,0,0:0:0:0:
109,192,290445,1,0,0:0:0:0:
36,192,290445,1,0,0:0:0:0:
182,192,290513,1,0,0:0:0:0:
475,192,290513,1,0,0:0:0:0:
402,192,290513,1,0,0:0:0:0:
109,192,290581,1,0,0:0:0:0:
36,192,290581,1,0,0:0:0:0:
329,192,290581,1,0,0:0:0:0:
182,192,290650,1,0,0:0:0:0:
475,192,290650,1,0,0:0:0:0:
402,192,290650,1,0,0:0:0:0:
36,192,290718,1,0,0:0:0:0:
256,192,290718,1,0,0:0:0:0:
109,192,290786,1,0,0:0:0:0:
402,192,290786,1,0,0:0:0:0:
182,192,290786,1,0,0:0:0:0:
329,192,290786,1,0,0:0:0:0:
475,192,290854,1,0,0:0:0:0:
256,192,290854,1,0,0:0:0:0:
109,192,290922,1,0,0:0:0:0:
36,192,290922,1,0,0:0:0:0:
402,192,290922,1,0,0:0:0:0:
329,192,290990,1,0,0:0:0:0:
182,192,290990,1,0,0:0:0:0:
256,192,291059,1,0,0:0:0:0:
36,192,291059,1,0,0:0:0:0:
109,192,291127,1,0,0:0:0:0:
475,192,291127,1,0,0:0:0:0:
402,192,291195,1,0,0:0:0:0:
182,192,291195,1,0,0:0:0:0:
329,192,291263,1,0,0:0:0:0:
36,192,291263,1,0,0:0:0:0:
109,192,291331,1,0,0:0:0:0:
475,192,291331,1,0,0:0:0:0:
402,192,291331,1,0,0:0:0:0:
256,192,291331,1,0,0:0:0:0:
329,192,291400,1,0,0:0:0:0:
182,192,291400,1,0,0:0:0:0:
36,192,291468,1,0,0:0:0:0:
475,192,291468,1,0,0:0:0:0:
329,192,291536,1,0,0:0:0:0:
182,192,291536,1,0,0:0:0:0:
475,192,291604,1,0,0:0:0:0:
36,192,291604,1,0,0:0:0:0:
182,192,291672,1,0,0:0:0:0:
329,192,291672,1,0,0:0:0:0:
36,192,291740,1,0,0:0:0:0:
402,192,291740,1,0,0:0:0:0:
256,192,291740,1,0,0:0:0:0:
475,192,291740,1,0,0:0:0:0:
182,192,291809,1,0,0:0:0:0:
329,192,291809,1,0,0:0:0:0:
256,192,291877,1,0,0:0:0:0:
109,192,291877,1,0,0:0:0:0:
36,192,291877,1,0,0:0:0:0:
475,192,291877,1,0,0:0:0:0:
402,192,291945,1,0,0:0:0:0:
329,192,291945,1,0,0:0:0:0:
182,192,292013,1,0,0:0:0:0:
36,192,292013,1,0,0:0:0:0:
475,192,292081,1,0,0:0:0:0:
402,192,292081,1,0,0:0:0:0:
329,192,292150,1,0,0:0:0:0:
256,192,292150,1,0,0:0:0:0:
36,192,292150,1,0,0:0:0:0:
402,192,292218,1,0,0:0:0:0:
109,192,292218,1,0,0:0:0:0:
329,192,292286,1,0,0:0:0:0:
182,192,292286,1,0,0:0:0:0:
109,192,292354,1,0,0:0:0:0:
36,192,292354,1,0,0:0:0:0:
329,192,292422,1,0,0:0:0:0:
182,192,292422,1,0,0:0:0:0:
402,192,292490,1,0,0:0:0:0:
256,192,292490,1,0,0:0:0:0:
182,192,292559,1,0,0:0:0:0:
36,192,292559,1,0,0:0:0:0:
475,192,292627,1,0,0:0:0:0:
402,192,292627,1,0,0:0:0:0:
256,192,292695,1,0,0:0:0:0:
329,192,292695,1,0,0:0:0:0:
182,192,292695,1,0,0:0:0:0:
402,192,292763,1,0,0:0:0:0:
36,192,292763,1,0,0:0:0:0:
109,192,292763,1,0,0:0:0:0:
475,192,292831,1,0,0:0:0:0:
256,192,292831,1,0,0:0:0:0:
182,192,292831,1,0,0:0:0:0:
36,192,292900,1,0,0:0:0:0:
109,192,292900,1,0,0:0:0:0:
475,192,292968,1,0,0:0:0:0:
402,192,292968,1,0,0:0:0:0:
329,192,292968,1,0,0:0:0:0:
256,192,292968,1,0,0:0:0:0:
36,192,293036,1,0,0:0:0:0:
182,192,293036,1,0,0:0:0:0:
256,192,293104,1,0,0:0:0:0:
109,192,293104,1,0,0:0:0:0:
475,192,293150,1,0,0:0:0:0:
402,192,293150,1,0,0:0:0:0:
329,192,293172,1,0,0:0:0:0:
182,192,293172,1,0,0:0:0:0:
36,192,293240,1,0,0:0:0:0:
109,192,293240,1,0,0:0:0:0:
182,192,293309,1,0,0:0:0:0:
329,192,293309,1,0,0:0:0:0:
402,192,293331,1,0,0:0:0:0:
475,192,293331,1,0,0:0:0:0:
256,192,293377,1,0,0:0:0:0:
109,192,293377,1,0,0:0:0:0:
329,192,293445,1,0,0:0:0:0:
182,192,293445,1,0,0:0:0:0:
475,192,293513,1,0,0:0:0:0:
109,192,293513,1,0,0:0:0:0:
36,192,293513,1,0,0:0:0:0:
256,192,293513,1,0,0:0:0:0:
402,192,293513,1,0,0:0:0:0:
109,192,293786,1,0,0:0:0:0:
402,192,293786,1,0,0:0:0:0:
256,192,293922,1,0,0:0:0:0:
402,192,293922,1,0,0:0:0:0:
36,192,293922,1,0,0:0:0:0:
475,192,293922,1,0,0:0:0:0:
36,192,294059,1,0,0:0:0:0:
109,192,294059,1,0,0:0:0:0:
475,192,294059,1,0,0:0:0:0:
182,192,294059,1,0,0:0:0:0:
109,192,294331,1,0,0:0:0:0:
256,192,294331,1,0,0:0:0:0:
182,192,294331,1,0,0:0:0:0:
402,192,294400,1,0,0:0:0:0:
475,192,294400,1,0,0:0:0:0:
109,192,294468,1,0,0:0:0:0:
329,192,294468,1,0,0:0:0:0:
256,192,294536,1,0,0:0:0:0:
402,192,294536,1,0,0:0:0:0:
36,192,294604,1,0,0:0:0:0:
182,192,294604,1,0,0:0:0:0:
329,192,294672,1,0,0:0:0:0:
475,192,294672,1,0,0:0:0:0:
109,192,294740,1,0,0:0:0:0:
256,192,294740,1,0,0:0:0:0:
402,192,294809,1,0,0:0:0:0:
475,192,294809,1,0,0:0:0:0:
329,192,294877,1,0,0:0:0:0:
36,192,294877,1,0,0:0:0:0:
109,192,294877,1,0,0:0:0:0:
402,192,294945,1,0,0:0:0:0:
182,192,294945,1,0,0:0:0:0:
256,192,294945,1,0,0:0:0:0:
329,192,295013,1,0,0:0:0:0:
36,192,295013,1,0,0:0:0:0:
109,192,295013,1,0,0:0:0:0:
402,192,295081,1,0,0:0:0:0:
182,192,295081,1,0,0:0:0:0:
475,192,295150,1,0,0:0:0:0:
36,192,295150,1,0,0:0:0:0:
329,192,295150,1,0,0:0:0:0:
256,192,295150,1,0,0:0:0:0:
109,192,295218,1,0,0:0:0:0:
182,192,295218,1,0,0:0:0:0:
402,192,295286,1,0,0:0:0:0:
475,192,295286,1,0,0:0:0:0:
256,192,295286,1,0,0:0:0:0:
36,192,295354,1,0,0:0:0:0:
329,192,295354,1,0,0:0:0:0:
182,192,295422,1,0,0:0:0:0:
475,192,295422,1,0,0:0:0:0:
402,192,295490,1,0,0:0:0:0:
256,192,295490,1,0,0:0:0:0:
109,192,295559,1,0,0:0:0:0:
329,192,295559,1,0,0:0:0:0:
182,192,295627,1,0,0:0:0:0:
475,192,295627,1,0,0:0:0:0:
402,192,295695,1,0,0:0:0:0:
36,192,295695,1,0,0:0:0:0:
109,192,295695,1,0,0:0:0:0:
256,192,295695,1,0,0:0:0:0:
329,192,295729,1,0,0:0:0:0:
475,192,295763,1,0,0:0:0:0:
182,192,295763,1,0,0:0:0:0:
402,192,295831,1,0,0:0:0:0:
256,192,295831,1,0,0:0:0:0:
109,192,295900,1,0,0:0:0:0:
36,192,295900,1,0,0:0:0:0:
329,192,295968,1,0,0:0:0:0:
182,192,295968,1,0,0:0:0:0:
475,192,296036,1,0,0:0:0:0:
256,192,296036,1,0,0:0:0:0:
329,192,296104,1,0,0:0:0:0:
36,192,296104,1,0,0:0:0:0:
109,192,296104,1,0,0:0:0:0:
182,192,296138,1,0,0:0:0:0:
402,192,296172,1,0,0:0:0:0:
475,192,296172,1,0,0:0:0:0:
256,192,296240,1,0,0:0:0:0:
109,192,296240,1,0,0:0:0:0:
36,192,296240,1,0,0:0:0:0:
329,192,296240,1,0,0:0:0:0:
182,192,296309,1,0,0:0:0:0:
475,192,296309,1,0,0:0:0:0:
402,192,296377,1,0,0:0:0:0:
256,192,296377,1,0,0:0:0:0:
182,192,296445,1,0,0:0:0:0:
109,192,296445,1,0,0:0:0:0:
475,192,296513,1,0,0:0:0:0:
36,192,296513,1,0,0:0:0:0:
329,192,296513,1,0,0:0:0:0:
256,192,296547,1,0,0:0:0:0:
182,192,296581,1,0,0:0:0:0:
402,192,296581,1,0,0:0:0:0:
329,192,296650,1,0,0:0:0:0:
109,192,296650,1,0,0:0:0:0:
256,192,296718,1,0,0:0:0:0:
36,192,296718,1,0,0:0:0:0:
475,192,296786,1,0,0:0:0:0:
182,192,296786,1,0,0:0:0:0:
329,192,296854,1,0,0:0:0:0:
109,192,296854,1,0,0:0:0:0:
182,192,296922,1,0,0:0:0:0:
402,192,296922,1,0,0:0:0:0:
256,192,296956,1,0,0:0:0:0:
329,192,296990,1,0,0:0:0:0:
36,192,296990,1,0,0:0:0:0:
475,192,297059,1,0,0:0:0:0:
402,192,297059,1,0,0:0:0:0:
109,192,297059,1,0,0:0:0:0:
256,192,297127,1,0,0:0:0:0:
182,192,297127,1,0,0:0:0:0:
329,192,297127,1,0,0:0:0:0:
109,192,297195,1,0,0:0:0:0:
36,192,297195,1,0,0:0:0:0:
475,192,297195,1,0,0:0:0:0:
402,192,297263,1,0,0:0:0:0:
256,192,297263,1,0,0:0:0:0:
329,192,297331,1,0,0:0:0:0:
182,192,297331,1,0,0:0:0:0:
109,192,297365,1,0,0:0:0:0:
475,192,297400,1,0,0:0:0:0:
402,192,297400,1,0,0:0:0:0:
256,192,297468,1,0,0:0:0:0:
36,192,297468,1,0,0:0:0:0:
329,192,297513,1,0,0:0:0:0:
182,192,297513,1,0,0:0:0:0:
475,192,297536,1,0,0:0:0:0:
402,192,297536,1,0,0:0:0:0:
109,192,297604,1,0,0:0:0:0:
36,192,297604,1,0,0:0:0:0:
182,192,297672,1,0,0:0:0:0:
256,192,297672,1,0,0:0:0:0:
402,192,297695,1,0,0:0:0:0:
329,192,297695,1,0,0:0:0:0:
109,192,297740,1,0,0:0:0:0:
36,192,297740,1,0,0:0:0:0:
256,192,297809,1,0,0:0:0:0:
475,192,297809,1,0,0:0:0:0:
402,192,297877,1,0,0:0:0:0:
329,192,297877,1,0,0:0:0:0:
182,192,297877,1,0,0:0:0:0:
109,192,297877,1,0,0:0:0:0:
36,192,297877,1,0,0:0:0:0:
402,192,298286,1,0,0:0:0:0:
329,192,298286,1,0,0:0:0:0:
109,192,298286,1,0,0:0:0:0:
36,192,298286,1,0,0:0:0:0:
475,192,298286,1,0,0:0:0:0:
475,192,298422,1,0,0:0:0:0:
475,192,298695,1,0,0:0:0:0:
475,192,299104,1,0,0:0:0:0:
475,192,299240,1,0,0:0:0:0:
475,192,299513,1,0,0:0:0:0:
475,192,299786,1,0,0:0:0:0:
402,192,300059,1,0,0:0:0:0:
329,192,300059,1,0,0:0:0:0:
36,192,300059,1,0,0:0:0:0:
109,192,300059,1,0,0:0:0:0:
475,192,300059,1,0,0:0:0:0:
402,192,300468,1,0,0:0:0:0:
109,192,300468,1,0,0:0:0:0:
36,192,300468,1,0,0:0:0:0:
329,192,300468,1,0,0:0:0:0:
475,192,300468,1,0,0:0:0:0:
475,192,300604,1,0,0:0:0:0:
475,192,300877,1,0,0:0:0:0:
475,192,301286,1,0,0:0:0:0:
475,192,301422,1,0,0:0:0:0:
475,192,301695,1,0,0:0:0:0:
36,192,302240,1,0,0:0:0:0:
109,192,302240,1,0,0:0:0:0:
402,192,302240,1,0,0:0:0:0:
329,192,302240,1,0,0:0:0:0:
256,192,302240,1,0,0:0:0:0:
475,192,302240,1,0,0:0:0:0:
36,192,302650,1,0,0:0:0:0:
329,192,302650,1,0,0:0:0:0:
402,192,302650,1,0,0:0:0:0:
109,192,302650,1,0,0:0:0:0:
256,192,302650,1,0,0:0:0:0:
475,192,302650,1,0,0:0:0:0:
475,192,302786,1,0,0:0:0:0:
475,192,303059,1,0,0:0:0:0:
475,192,303468,1,0,0:0:0:0:
475,192,303604,1,0,0:0:0:0:
475,192,303877,1,0,0:0:0:0:
475,192,304150,1,0,0:0:0:0:
402,192,304422,1,0,0:0:0:0:
329,192,304422,1,0,0:0:0:0:
36,192,304422,1,0,0:0:0:0:
109,192,304422,1,0,0:0:0:0:
475,192,304422,1,0,0:0:0:0:
402,192,304831,1,0,0:0:0:0:
109,192,304831,1,0,0:0:0:0:
36,192,304831,1,0,0:0:0:0:
329,192,304831,1,0,0:0:0:0:
475,192,304831,1,0,0:0:0:0:
475,192,304968,1,0,0:0:0:0:
475,192,305240,1,0,0:0:0:0:
475,192,305650,1,0,0:0:0:0:
475,192,305786,1,0,0:0:0:0:
256,192,305922,1,0,0:0:0:0:
475,192,305922,1,0,0:0:0:0:
475,192,306059,1,0,0:0:0:0:
475,192,306604,1,0,0:0:0:0:
402,192,306604,1,0,0:0:0:0:
256,192,306604,1,0,0:0:0:0:
36,192,306604,1,0,0:0:0:0:
182,192,306638,1,0,0:0:0:0:
329,192,306672,1,0,0:0:0:0:
109,192,306706,1,0,0:0:0:0:
256,192,306740,1,0,0:0:0:0:
329,192,306809,1,0,0:0:0:0:
182,192,306877,1,0,0:0:0:0:
402,192,306945,1,0,0:0:0:0:
256,192,307013,1,0,0:0:0:0:
109,192,307013,1,0,0:0:0:0:
36,192,307013,1,0,0:0:0:0:
475,192,307047,1,0,0:0:0:0:
182,192,307081,1,0,0:0:0:0:
329,192,307115,1,0,0:0:0:0:
109,192,307150,1,0,0:0:0:0:
402,192,307218,1,0,0:0:0:0:
182,192,307286,1,0,0:0:0:0:
329,192,307354,1,0,0:0:0:0:
475,192,307422,1,0,0:0:0:0:
256,192,307456,1,0,0:0:0:0:
36,192,307490,1,0,0:0:0:0:
329,192,307559,1,0,0:0:0:0:
182,192,307627,1,0,0:0:0:0:
402,192,307695,1,0,0:0:0:0:
256,192,307729,1,0,0:0:0:0:
109,192,307763,1,0,0:0:0:0:
329,192,307797,1,0,0:0:0:0:
475,192,307831,1,0,0:0:0:0:
182,192,307900,1,0,0:0:0:0:
36,192,307968,1,0,0:0:0:0:
329,192,308036,1,0,0:0:0:0:
109,192,308104,1,0,0:0:0:0:
256,192,308138,1,0,0:0:0:0:
475,192,308172,1,0,0:0:0:0:
182,192,308206,1,0,0:0:0:0:
329,192,308240,1,0,0:0:0:0:
109,192,308309,1,0,0:0:0:0:
256,192,308377,1,0,0:0:0:0:
402,192,308445,1,0,0:0:0:0:
329,192,308513,1,0,0:0:0:0:
36,192,308547,1,0,0:0:0:0:
182,192,308581,1,0,0:0:0:0:
402,192,308650,1,0,0:0:0:0:
109,192,308718,1,0,0:0:0:0:
256,192,308786,1,0,0:0:0:0:
402,192,308820,1,0,0:0:0:0:
182,192,308854,1,0,0:0:0:0:
329,192,308888,1,0,0:0:0:0:
36,192,308922,1,0,0:0:0:0:
256,192,308990,1,0,0:0:0:0:
402,192,309059,1,0,0:0:0:0:
109,192,309127,1,0,0:0:0:0:
329,192,309195,1,0,0:0:0:0:
182,192,309229,1,0,0:0:0:0:
402,192,309263,1,0,0:0:0:0:
36,192,309297,1,0,0:0:0:0:
256,192,309331,1,0,0:0:0:0:
329,192,309400,1,0,0:0:0:0:
109,192,309468,1,0,0:0:0:0:
402,192,309536,1,0,0:0:0:0:
182,192,309604,1,0,0:0:0:0:
329,192,309638,1,0,0:0:0:0:
36,192,309672,1,0,0:0:0:0:
109,192,309740,1,0,0:0:0:0:
256,192,309809,1,0,0:0:0:0:
402,192,309877,1,0,0:0:0:0:
182,192,309911,1,0,0:0:0:0:
329,192,309945,1,0,0:0:0:0:
109,192,309979,1,0,0:0:0:0:
256,192,310013,1,0,0:0:0:0:
402,192,310081,1,0,0:0:0:0:
182,192,310150,1,0,0:0:0:0:
329,192,310218,1,0,0:0:0:0:
109,192,310286,1,0,0:0:0:0:
256,192,310320,1,0,0:0:0:0:
475,192,310354,1,0,0:0:0:0:
182,192,310388,1,0,0:0:0:0:
329,192,310422,1,0,0:0:0:0:
109,192,310490,1,0,0:0:0:0:
402,192,310559,1,0,0:0:0:0:
182,192,310627,1,0,0:0:0:0:
329,192,310695,1,0,0:0:0:0:
109,192,310729,1,0,0:0:0:0:
256,192,310763,1,0,0:0:0:0:
475,192,310797,1,0,0:0:0:0:
36,192,310831,1,0,0:0:0:0:
182,192,310900,1,0,0:0:0:0:
402,192,310968,1,0,0:0:0:0:
475,192,310968,1,0,0:0:0:0:
36,192,310968,1,0,0:0:0:0:
109,192,311002,1,0,0:0:0:0:
329,192,311036,1,0,0:0:0:0:
182,192,311070,1,0,0:0:0:0:
256,192,311104,1,0,0:0:0:0:
109,192,311172,1,0,0:0:0:0:
329,192,311240,1,0,0:0:0:0:
182,192,311309,1,0,0:0:0:0:
402,192,311377,1,0,0:0:0:0:
475,192,311377,1,0,0:0:0:0:
256,192,311377,1,0,0:0:0:0:
36,192,311411,1,0,0:0:0:0:
329,192,311445,1,0,0:0:0:0:
109,192,311479,1,0,0:0:0:0:
402,192,311513,1,0,0:0:0:0:
256,192,311581,1,0,0:0:0:0:
109,192,311650,1,0,0:0:0:0:
329,192,311718,1,0,0:0:0:0:
182,192,311786,1,0,0:0:0:0:
402,192,311820,1,0,0:0:0:0:
256,192,311854,1,0,0:0:0:0:
109,192,311922,1,0,0:0:0:0:
329,192,311990,1,0,0:0:0:0:
475,192,312059,1,0,0:0:0:0:
182,192,312093,1,0,0:0:0:0:
329,192,312127,1,0,0:0:0:0:
109,192,312161,1,0,0:0:0:0:
256,192,312195,1,0,0:0:0:0:
182,192,312263,1,0,0:0:0:0:
402,192,312331,1,0,0:0:0:0:
109,192,312400,1,0,0:0:0:0:
256,192,312468,1,0,0:0:0:0:
402,192,312502,1,0,0:0:0:0:
182,192,312536,1,0,0:0:0:0:
329,192,312570,1,0,0:0:0:0:
36,192,312604,1,0,0:0:0:0:
256,192,312672,1,0,0:0:0:0:
109,192,312740,1,0,0:0:0:0:
402,192,312809,1,0,0:0:0:0:
182,192,312877,1,0,0:0:0:0:
329,192,312911,1,0,0:0:0:0:
36,192,312945,1,0,0:0:0:0:
256,192,313013,1,0,0:0:0:0:
109,192,313081,1,0,0:0:0:0:
475,192,313150,1,0,0:0:0:0:
182,192,313184,1,0,0:0:0:0:
329,192,313218,1,0,0:0:0:0:
36,192,313252,1,0,0:0:0:0:
256,192,313286,1,0,0:0:0:0:
402,192,313354,1,0,0:0:0:0:
182,192,313422,1,0,0:0:0:0:
329,192,313490,1,0,0:0:0:0:
109,192,313559,1,0,0:0:0:0:
256,192,313593,1,0,0:0:0:0:
402,192,313627,1,0,0:0:0:0:
182,192,313661,1,0,0:0:0:0:
329,192,313695,1,0,0:0:0:0:
36,192,313729,1,0,0:0:0:0:
182,192,313763,1,0,0:0:0:0:
402,192,313831,1,0,0:0:0:0:
109,192,313900,1,0,0:0:0:0:
256,192,313968,1,0,0:0:0:0:
402,192,314002,1,0,0:0:0:0:
182,192,314036,1,0,0:0:0:0:
329,192,314104,1,0,0:0:0:0:
109,192,314172,1,0,0:0:0:0:
475,192,314240,1,0,0:0:0:0:
329,192,314275,1,0,0:0:0:0:
182,192,314309,1,0,0:0:0:0:
36,192,314343,1,0,0:0:0:0:
402,192,314377,1,0,0:0:0:0:
256,192,314411,1,0,0:0:0:0:
109,192,314445,1,0,0:0:0:0:
475,192,314479,1,0,0:0:0:0:
329,192,314513,1,0,0:0:0:0:
36,192,314547,1,0,0:0:0:0:
182,192,314581,1,0,0:0:0:0:
402,192,314615,1,0,0:0:0:0:
256,192,314650,1,0,0:0:0:0:
109,192,314684,1,0,0:0:0:0:
329,192,314718,1,0,0:0:0:0:
475,192,314752,1,0,0:0:0:0:
36,192,314786,1,0,0:0:0:0:
182,192,314820,1,0,0:0:0:0:
402,192,314854,1,0,0:0:0:0:
256,192,314888,1,0,0:0:0:0:
109,192,314922,1,0,0:0:0:0:
475,192,314956,1,0,0:0:0:0:
329,192,314990,1,0,0:0:0:0:
182,192,315025,1,0,0:0:0:0:
36,192,315059,1,0,0:0:0:0:
256,192,315093,1,0,0:0:0:0:
402,192,315127,1,0,0:0:0:0:
109,192,315161,1,0,0:0:0:0:
329,192,315195,1,0,0:0:0:0:
475,192,315229,1,0,0:0:0:0:
182,192,315263,1,0,0:0:0:0:
402,192,315297,1,0,0:0:0:0:
36,192,315331,1,0,0:0:0:0:
