osu file format v14

[General]
AudioFilename: audio.mp3
AudioLeadIn: 0
PreviewTime: 245513
Countdown: 0
SampleSet: Soft
StackLeniency: 0.7
Mode: 3
LetterboxInBreaks: 0
SpecialStyle: 0
WidescreenStoryboard: 0

[Editor]
DistanceSpacing: 0.8
BeatDivisor: 8
GridSize: 32
TimelineZoom: 1.6

[Metadata]
Title:K.Y.A.F.A.
TitleUnicode:K.Y.A.F.A.
Artist:Camellia
ArtistUnicode:かめりあ
Creator:Evening
Version:RELENTLESS MASSACRE
Source:
Tags:kyafa complextro electronic drill BINZOKOMEGANE GIRLS UNION
BeatmapID:1019388
BeatmapSetID:477233

[Difficulty]
HPDrainRate:9.4
CircleSize:4
OverallDifficulty:8.5
ApproachRate:5
SliderMultiplier:1.4
SliderTickRate:1

[Events]
//Background and Video events
0,0,"ReMa.jpg",0,0
//Break Periods
//Storyboard Layer 0 (Background)
//Storyboard Layer 1 (Fail)
//Storyboard Layer 2 (Pass)
//Storyboard Layer 3 (Foreground)
//Storyboard Sound Samples

[TimingPoints]
1150,272.727272727273,4,2,1,50,1,0
17513,-52.6315789473684,4,2,1,50,0,0
17530,-1000,4,2,1,50,0,0
17547,-52.6315789473684,4,2,1,50,0,0
17564,-1000,4,2,1,50,0,0
17581,-52.6315789473684,4,2,1,50,0,0
17598,-1000,4,2,1,50,0,0
17615,-52.6315789473684,4,2,1,50,0,0
17632,-1000,4,2,1,50,0,0
17650,-100,4,2,1,50,0,0
17786,-52.6315789473684,4,2,1,50,0,0
17803,-1000,4,2,1,50,0,0
17820,-52.6315789473684,4,2,1,50,0,0
17837,-1000,4,2,1,50,0,0
17854,-52.6315789473684,4,2,1,50,0,0
17871,-1000,4,2,1,50,0,0
17888,-52.6315789473684,4,2,1,50,0,0
17905,-1000,4,2,1,50,0,0
17922,-100,4,2,1,50,0,0
18059,-66.6666666666667,4,2,1,50,0,0
18104,-200,4,2,1,50,0,0
18150,-66.6666666666667,4,2,1,50,0,0
18195,-200,4,2,1,50,0,0
18240,-66.6666666666667,4,2,1,50,0,0
18286,-200,4,2,1,50,0,0
18331,-66.6666666666667,4,2,1,50,0,0
18377,-200,4,2,1,50,0,0
18422,-66.6666666666667,4,2,1,50,0,0
18468,-200,4,2,1,50,0,0
18513,-66.6666666666667,4,2,1,50,0,0
18559,-200,4,2,1,50,0,0
18604,-100,4,2,1,50,0,0
36059,-100,4,2,1,50,0,1
36127,-100,4,2,1,50,0,0
53240,-83.3333333333333,4,2,1,50,0,0
53513,-100,4,2,1,50,0,1
61695,-100,4,2,1,50,0,0
62240,-52.6315789473684,4,2,1,50,0,0
62275,-1000,4,2,1,50,0,0
62309,-52.6315789473684,4,2,1,50,0,0
62343,-1000,4,2,1,50,0,0
62377,-52.6315789473684,4,2,1,50,0,0
62411,-1000,4,2,1,50,0,0
62445,-52.6315789473684,4,2,1,50,0,0
62479,-1000,4,2,1,50,0,0
62513,-100,4,2,1,50,0,0
62786,-200,4,2,1,50,0,0
62990,-40,4,2,1,50,0,0
63059,-100,4,2,1,50,0,1
70695,-40,4,2,1,50,0,0
70729,-200,4,2,1,50,0,0
70831,-40,4,2,1,50,0,0
70865,-200,4,2,1,50,0,0
70968,-100,4,2,1,75,0,1
79150,-100,4,2,1,75,0,0
79695,-100,4,2,1,75,0,1
84059,-100,4,2,1,50,0,1
87877,-100,4,2,1,50,0,0
88286,-200,4,2,1,50,0,0
88388,-40,4,2,1,50,0,0
88422,-100,4,2,1,50,0,0
96877,-83.3333333333333,4,2,1,50,0,0
97150,-100,4,2,1,50,0,1
105331,-100,4,2,1,50,0,0
105877,-100,4,2,1,50,0,1
114331,-40,4,2,1,50,0,0
114365,-200,4,2,1,50,0,0
114468,-40,4,2,1,50,0,0
114502,-200,4,2,1,50,0,0
114604,-100,4,2,1,50,0,0
115422,-100,4,2,1,50,0,1
131513,-10,4,2,1,50,0,0
131547,-125,4,2,1,50,0,0
132059,-100,4,2,1,50,0,1
132127,-100,4,2,1,30,0,0
148422,-52.6315789473684,4,2,1,50,0,0
148439,-1000,4,2,1,50,0,0
148456,-52.6315789473684,4,2,1,50,0,0
148473,-1000,4,2,1,50,0,0
148490,-52.6315789473684,4,2,1,50,0,0
148507,-1000,4,2,1,50,0,0
148525,-52.6315789473684,4,2,1,50,0,0
148542,-1000,4,2,1,50,0,0
148559,-100,4,2,1,50,0,0
148695,-52.6315789473684,4,2,1,50,0,0
148712,-1000,4,2,1,50,0,0
148729,-52.6315789473684,4,2,1,50,0,0
148746,-1000,4,2,1,50,0,0
148763,-52.6315789473684,4,2,1,50,0,0
148780,-1000,4,2,1,50,0,0
148797,-52.6315789473684,4,2,1,50,0,0
148814,-1000,4,2,1,50,0,0
148831,-100,4,2,1,50,0,0
148968,-66.6666666666667,4,2,1,50,0,0
149013,-200,4,2,1,50,0,0
149059,-66.6666666666667,4,2,1,50,0,0
149104,-200,4,2,1,50,0,0
149150,-66.6666666666667,4,2,1,50,0,0
149195,-200,4,2,1,50,0,0
149240,-66.6666666666667,4,2,1,50,0,0
149286,-200,4,2,1,50,0,0
149331,-66.6666666666667,4,2,1,50,0,0
149377,-200,4,2,1,50,0,0
149422,-66.6666666666667,4,2,1,50,0,0
149468,-200,4,2,1,50,0,0
149513,-100,4,2,1,50,0,0
166695,-83.3333333333333,4,2,1,50,0,0
166968,-100,4,2,1,50,0,1
175422,-100,4,2,1,50,0,0
175695,-52.6315789473684,4,2,1,50,0,0
175729,-1000,4,2,1,50,0,0
175763,-52.6315789473684,4,2,1,50,0,0
175797,-1000,4,2,1,50,0,0
175831,-52.6315789473684,4,2,1,50,0,0
175865,-1000,4,2,1,50,0,0
175900,-52.6315789473684,4,2,1,50,0,0
175934,-1000,4,2,1,50,0,0
175968,-100,4,2,1,50,0,0
176240,-200,4,2,1,50,0,0
176445,-40,4,2,1,50,0,0
176513,-100,4,2,1,50,0,1
184150,-40,4,2,1,50,0,0
184184,-200,4,2,1,50,0,0
184286,-40,4,2,1,50,0,0
184320,-200,4,2,1,50,0,0
184422,-100,4,2,1,50,0,1
192604,-100,4,2,1,50,0,0
193150,-100,4,2,1,50,0,1
201331,-100,4,2,1,50,0,0
201740,-200,4,2,1,50,0,0
201843,-40,4,2,1,50,0,0
201877,-100,4,2,1,50,0,1
201945,-100,4,2,1,50,0,0
210331,-83.3333333333333,4,2,1,50,0,0
210604,-100,4,2,1,50,0,1
218786,-100,4,2,1,50,0,0
219331,-100,4,2,1,50,0,1
227786,-50,4,2,1,50,0,0
227820,-149.253731343284,4,2,1,50,0,0
227922,-50,4,2,1,50,0,0
227956,-149.253731343284,4,2,1,50,0,0
228059,-100,4,2,1,50,0,0
228877,-100,4,2,1,50,0,1
244968,-10,4,2,1,50,0,0
244985,-125,4,2,1,50,0,0
245377,-200,4,2,1,50,0,0
245479,-40,4,2,1,50,0,0
245513,-100,4,2,1,50,0,1
254172,-100,4,2,1,50,0,0
254240,-100,4,2,1,50,0,1
262695,-200,4,2,1,50,0,0
262900,-40,4,2,1,50,0,0
262968,-100,4,2,1,50,0,1
271422,-100,4,2,1,50,0,0
271695,-52.6315789473684,4,2,1,50,0,0
271729,-1000,4,2,1,50,0,0
271763,-52.6315789473684,4,2,1,50,0,0
271797,-1000,4,2,1,50,0,0
271831,-52.6315789473684,4,2,1,50,0,0
271865,-1000,4,2,1,50,0,0
271900,-52.6315789473684,4,2,1,50,0,0
271934,-1000,4,2,1,50,0,0
271968,-100,4,2,1,50,0,0
272240,-200,4,2,1,50,0,0
272445,-40,4,2,1,50,0,0
272513,-100,4,2,1,50,0,1
280150,-200,4,2,1,50,0,0
280354,-40,4,2,1,50,0,0
280422,-100,4,2,1,50,0,0

[HitObjects]
448,192,1150,128,0,1422:0:0:0:70:LR_Kick Bass strong.wav
320,192,1150,1,0,0:0:0:50:
64,192,1150,1,0,0:0:0:50:
192,192,1422,1,0,0:0:0:50:
448,192,1559,128,0,1831:0:0:0:70:LR_Kick Bass strong.wav
64,192,1559,1,0,0:0:0:50:
320,192,1559,1,0,0:0:0:50:
64,192,1695,1,0,0:0:0:50:
192,192,1695,1,0,0:0:0:50:
320,192,1831,1,0,0:0:0:50:
192,192,1968,1,0,0:0:0:50:
64,192,1968,1,0,0:0:0:50:
448,192,2104,1,0,0:0:0:50:
320,192,2240,1,0,0:0:0:50:
64,192,2240,1,0,0:0:0:50:
192,192,2377,1,0,0:0:0:50:
192,192,2513,1,0,0:0:0:50:
448,192,2513,1,0,0:0:0:50:
320,192,2650,1,0,0:0:0:50:
192,192,2786,1,0,0:0:0:50:
64,192,2786,1,0,0:0:0:50:
448,192,2922,1,0,0:0:0:50:
320,192,3059,1,0,0:0:0:50:
192,192,3059,1,0,0:0:0:50:
64,192,3195,1,0,0:0:0:50:
448,192,3331,128,0,3604:0:0:0:50:
320,192,3331,1,0,0:0:0:50:
192,192,3604,1,0,0:0:0:50:
64,192,3740,1,0,0:0:0:50:
448,192,3740,128,0,4013:0:0:0:50:
192,192,3877,1,0,0:0:0:50:
64,192,3877,1,0,0:0:0:50:
320,192,4013,1,0,0:0:0:50:
64,192,4150,1,0,0:0:0:50:
448,192,4150,1,0,0:0:0:50:
192,192,4286,1,0,0:0:0:50:
448,192,4422,1,0,0:0:0:50:
320,192,4422,1,0,0:0:0:50:
64,192,4559,1,0,0:0:0:50:
64,192,4695,1,0,0:0:0:50:
448,192,4695,1,0,0:0:0:50:
320,192,4831,1,0,0:0:0:50:
192,192,4968,1,0,0:0:0:50:
64,192,4968,1,0,0:0:0:50:
448,192,5104,1,0,0:0:0:50:
192,192,5240,1,0,0:0:0:50:
320,192,5377,1,0,0:0:0:50:
448,192,5513,128,0,5786:0:0:0:70:LR_Kick Bass strong.wav
320,192,5513,1,0,0:0:0:50:
64,192,5513,1,0,0:0:0:50:
192,192,5786,1,0,0:0:0:50:
448,192,5922,128,0,6195:0:0:0:70:LR_Kick Bass strong.wav
320,192,5922,1,0,0:0:0:50:
64,192,5922,1,0,0:0:0:50:
192,192,6059,1,0,0:0:0:50:
64,192,6059,1,0,0:0:0:50:
320,192,6195,1,0,0:0:0:50:
64,192,6331,1,0,0:0:0:50:
192,192,6331,1,0,0:0:0:50:
448,192,6468,1,0,0:0:0:50:
64,192,6604,1,0,0:0:0:50:
320,192,6604,1,0,0:0:0:50:
192,192,6740,1,0,0:0:0:50:
448,192,6877,1,0,0:0:0:50:
192,192,6877,1,0,0:0:0:50:
320,192,7013,1,0,0:0:0:50:
64,192,7150,1,0,0:0:0:50:
192,192,7150,1,0,0:0:0:50:
448,192,7286,1,0,0:0:0:50:
192,192,7422,1,0,0:0:0:50:
320,192,7422,1,0,0:0:0:50:
64,192,7559,1,0,0:0:0:50:
320,192,7695,1,0,0:0:0:50:
448,192,7695,128,0,7968:0:0:0:50:
192,192,7968,1,0,0:0:0:50:
448,192,8104,128,0,8377:0:0:0:50:
64,192,8104,1,0,0:0:0:50:
64,192,8240,1,0,0:0:0:50:
192,192,8240,1,0,0:0:0:50:
320,192,8377,1,0,0:0:0:50:
448,192,8513,1,0,0:0:0:50:
64,192,8513,1,0,0:0:0:50:
192,192,8650,1,0,0:0:0:50:
320,192,8786,1,0,0:0:0:50:
448,192,8786,1,0,0:0:0:50:
64,192,8922,1,0,0:0:0:50:
448,192,9059,1,0,0:0:0:50:
64,192,9059,1,0,0:0:0:50:
448,192,9195,128,0,9229:0:0:0:100:LR_Kick Bass strong.wav
192,192,9195,128,0,9229:0:0:0:50:
320,192,9195,128,0,9229:0:0:0:50:
64,192,9331,1,0,0:0:0:50:
448,192,9468,1,0,0:0:0:50:
192,192,9604,1,0,0:0:0:50:
320,192,9740,1,0,0:0:0:50:
448,192,9877,128,0,10150:0:0:0:70:LR_Kick Bass strong.wav
320,192,9877,1,0,0:0:0:50:
64,192,9877,1,0,0:0:0:50:
192,192,10150,1,0,0:0:0:50:
448,192,10286,128,0,10559:0:0:0:70:LR_Kick Bass strong.wav
320,192,10286,1,0,0:0:0:50:
64,192,10286,1,0,0:0:0:50:
192,192,10422,1,0,0:0:0:50:
64,192,10422,1,0,0:0:0:50:
320,192,10559,1,0,0:0:0:50:
64,192,10695,1,0,0:0:0:50:
192,192,10695,1,0,0:0:0:50:
448,192,10831,1,0,0:0:0:50:
64,192,10968,1,0,0:0:0:50:
320,192,10968,1,0,0:0:0:50:
192,192,11104,1,0,0:0:0:50:
192,192,11240,1,0,0:0:0:50:
320,192,11240,1,0,0:0:0:50:
320,192,11377,1,0,0:0:0:50:
64,192,11513,1,0,0:0:0:50:
192,192,11513,1,0,0:0:0:50:
448,192,11650,1,0,0:0:0:50:
192,192,11786,1,0,0:0:0:50:
320,192,11786,1,0,0:0:0:50:
64,192,11922,1,0,0:0:0:50:
320,192,12059,1,0,0:0:0:50:
448,192,12059,128,0,12331:0:0:0:50:
192,192,12331,1,0,0:0:0:50:
448,192,12468,128,0,12740:0:0:0:50:
64,192,12468,1,0,0:0:0:50:
64,192,12604,1,0,0:0:0:50:
192,192,12604,1,0,0:0:0:50:
320,192,12740,1,0,0:0:0:50:
448,192,12877,1,0,0:0:0:50:
64,192,12877,1,0,0:0:0:50:
192,192,13013,1,0,0:0:0:50:
320,192,13150,1,0,0:0:0:50:
448,192,13150,1,0,0:0:0:50:
64,192,13286,1,0,0:0:0:50:
448,192,13422,1,0,0:0:0:50:
64,192,13422,1,0,0:0:0:50:
448,192,13559,1,0,0:0:0:50:
64,192,13695,1,0,0:0:0:50:
192,192,13695,1,0,0:0:0:50:
448,192,13831,1,0,0:0:0:50:
192,192,13968,1,0,0:0:0:50:
320,192,14104,1,0,0:0:0:50:
448,192,14240,128,0,14513:0:0:0:70:LR_Kick Bass strong.wav
320,192,14240,1,0,0:0:0:50:
64,192,14240,1,0,0:0:0:50:
192,192,14513,1,0,0:0:0:50:
448,192,14650,128,0,14922:0:0:0:70:LR_Kick Bass strong.wav
64,192,14650,1,0,0:0:0:50:
320,192,14650,1,0,0:0:0:50:
64,192,14786,1,0,0:0:0:50:
192,192,14786,1,0,0:0:0:50:
320,192,14922,1,0,0:0:0:50:
192,192,15059,1,0,0:0:0:50:
64,192,15059,1,0,0:0:0:50:
448,192,15195,1,0,0:0:0:50:
320,192,15331,1,0,0:0:0:50:
64,192,15331,1,0,0:0:0:50:
192,192,15468,1,0,0:0:0:50:
192,192,15604,1,0,0:0:0:50:
448,192,15604,1,0,0:0:0:50:
64,192,15604,1,0,0:0:0:50:
320,192,15740,1,0,0:0:0:50:
192,192,15877,1,0,0:0:0:50:
64,192,15877,1,0,0:0:0:50:
320,192,15877,1,0,0:0:0:50:
448,192,16013,1,0,0:0:0:50:
320,192,16150,1,0,0:0:0:50:
192,192,16150,1,0,0:0:0:50:
448,192,16150,1,0,0:0:0:50:
64,192,16286,1,0,0:0:0:50:
320,192,16422,1,0,0:0:0:70:LR4_ClapLRV.wav
64,192,16422,1,0,0:0:0:50:
448,192,16422,1,0,0:0:0:50:
192,192,16490,1,0,0:0:0:70:LR4_ClapLRV.wav
320,192,16559,1,0,0:0:0:70:LR4_ClapLRV.wav
192,192,16627,1,0,0:0:0:70:LR4_ClapLRV.wav
64,192,16695,1,0,0:0:0:70:LR4_ClapLRV.wav
448,192,16695,1,0,0:0:0:50:
192,192,16831,1,0,0:0:0:50:
320,192,16831,1,0,0:0:0:70:LR4_ClapLRV.wav
448,192,16900,1,0,0:0:0:70:LR4_ClapLRV.wav
64,192,16968,1,0,0:0:0:50:
192,192,16968,1,0,0:0:0:70:LR4_ClapLRV.wav
320,192,17036,1,0,0:0:0:70:LR4_ClapLRV.wav
448,192,17104,1,0,0:0:0:70:LR4_ClapLRV.wav
448,192,17240,1,0,0:0:0:70:LR4_ClapLRV.wav
64,192,17240,1,0,0:0:0:50:
320,192,17377,1,0,0:0:0:70:LR4_ClapLRV.wav
64,192,17377,1,0,0:0:0:50:
192,192,17445,1,0,0:0:0:70:LR4_ClapLRV.wav
448,192,17513,1,0,0:0:0:40:LR4_SnareBPDT.wav
320,192,17513,1,0,0:0:0:70:LR4_ClapLRV.wav
64,192,17547,1,0,0:0:0:40:LR4_SnareBPDT.wav
192,192,17581,1,0,0:0:0:40:LR4_SnareBPDT.wav
448,192,17615,1,0,0:0:0:40:LR4_SnareBPDT.wav
320,192,17650,1,0,0:0:0:40:LR_Kick Bass strong.wav
64,192,17718,1,0,0:0:0:50:
448,192,17786,1,0,0:0:0:50:
320,192,17786,1,0,0:0:0:40:LR4_SnareBPDT.wav
192,192,17820,1,0,0:0:0:40:LR4_SnareBPDT.wav
64,192,17854,1,0,0:0:0:40:LR4_SnareBPDT.wav
448,192,17888,1,0,0:0:0:40:LR4_SnareBPDT.wav
320,192,17922,1,0,0:0:0:40:LR_Kick Bass strong.wav
192,192,18013,1,0,0:0:0:50:
320,192,18059,1,0,0:0:0:70:LR_Kick Bass strong.wav
448,192,18059,1,0,0:0:0:50:
64,192,18150,1,0,0:0:0:70:LR_Kick Bass strong.wav
64,192,18240,1,0,0:0:0:70:LR_Kick Bass strong.wav
448,192,18240,1,0,0:0:0:50:
320,192,18331,1,0,0:0:0:70:LR_Kick Bass strong.wav
192,192,18331,1,0,0:0:0:50:
320,192,18422,1,0,0:0:0:70:LR_Kick Bass strong.wav
192,192,18513,1,0,0:0:0:70:LR_Kick Bass strong.wav
64,192,18513,1,0,0:0:0:50:
192,192,18604,128,0,18638:0:0:0:70:LR_Kick Bass strong.wav
448,192,18604,128,0,18638:0:0:0:70:LR_CymbalSSF.wav
320,192,18604,128,0,18638:0:0:0:50:
448,192,18740,1,0,0:0:0:50:
64,192,18877,128,0,18945:0:0:0:50:
320,192,18877,1,0,0:0:0:50:
192,192,19013,128,0,19047:0:0:0:70:LR_Kick Bass strong.wav
320,192,19013,128,0,19047:0:0:0:50:
448,192,19013,128,0,19047:0:0:0:50:
192,192,19150,1,0,0:0:0:50:LR4_SnareBPDT.wav
448,192,19150,1,0,0:0:0:50:
64,192,19150,1,0,0:0:0:50:
320,192,19218,1,0,0:0:0:50:
448,192,19286,1,0,0:0:0:50:
320,192,19422,1,0,0:0:0:50:LR_Kick Bass strong.wav
64,192,19422,128,0,19490:0:0:0:50:
192,192,19422,1,0,0:0:0:50:
448,192,19559,1,0,0:0:0:50:
448,192,19695,1,0,0:0:0:50:
192,192,19695,1,0,0:0:0:50:
192,192,19831,1,0,0:0:0:50:
448,192,19968,1,0,0:0:0:50:LR_Kick Bass strong.wav
64,192,19968,128,0,20036:0:0:0:50:
320,192,19968,1,0,0:0:0:50:
448,192,20036,1,0,0:0:0:50:LR_Kick Bass strong.wav
320,192,20104,1,0,0:0:0:50:LR_Kick Bass strong.wav
192,192,20104,1,0,0:0:0:50:
192,192,20240,1,0,0:0:0:50:LR4_SnareBPDT.wav
448,192,20240,1,0,0:0:0:50:
64,192,20240,1,0,0:0:0:50:
320,192,20377,1,0,0:0:0:50:LR_Kick Bass strong.wav
192,192,20377,1,0,0:0:0:50:
64,192,20513,128,0,20581:0:0:0:50:
448,192,20513,1,0,0:0:0:50:
192,192,20650,1,0,0:0:0:50:
320,192,20786,128,0,20820:0:0:0:50:LR_Kick Bass strong.wav
64,192,20786,128,0,20820:0:0:0:50:
448,192,20786,128,0,20820:0:0:0:50:
192,192,20922,1,0,0:0:0:50:
64,192,21059,128,0,21127:0:0:0:50:
320,192,21059,1,0,0:0:0:50:
192,192,21195,128,0,21229:0:0:0:50:LR_Kick Bass strong.wav
448,192,21195,128,0,21229:0:0:0:50:
320,192,21195,128,0,21229:0:0:0:50:
192,192,21331,1,0,0:0:0:50:LR4_SnareBPDT.wav
448,192,21331,1,0,0:0:0:50:
64,192,21331,1,0,0:0:0:50:
320,192,21468,1,0,0:0:0:50:
320,192,21604,1,0,0:0:0:50:LR_Kick Bass strong.wav
64,192,21604,128,0,21672:0:0:0:50:
448,192,21604,1,0,0:0:0:50:
192,192,21740,1,0,0:0:0:50:
320,192,21877,1,0,0:0:0:50:
192,192,22013,1,0,0:0:0:50:
448,192,22013,1,0,0:0:0:50:
320,192,22150,1,0,0:0:0:50:LR_Kick Bass strong.wav
64,192,22150,128,0,22218:0:0:0:50:
448,192,22150,1,0,0:0:0:50:
320,192,22218,1,0,0:0:0:50:LR_Kick Bass strong.wav
192,192,22286,1,0,0:0:0:50:LR_Kick Bass strong.wav
64,192,22422,1,0,0:0:0:50:LR4_SnareBPDT.wav
448,192,22422,1,0,0:0:0:50:
320,192,22422,1,0,0:0:0:50:
192,192,22604,1,0,0:0:0:50:LR_Kick Bass strong.wav
448,192,22604,1,0,0:0:0:50:
64,192,22695,128,0,22786:0:0:0:50:
320,192,22786,1,0,0:0:0:50:LR_Kick Bass strong.wav
192,192,22786,1,0,0:0:0:50:
320,192,22968,128,0,23002:0:0:0:50:LR_Kick Bass strong.wav
448,192,22968,128,0,23002:0:0:0:50:
64,192,22968,128,0,23002:0:0:0:50:
192,192,23104,1,0,0:0:0:50:
64,192,23240,128,0,23309:0:0:0:50:
320,192,23240,1,0,0:0:0:50:
192,192,23377,128,0,23411:0:0:0:50:LR_Kick Bass strong.wav
320,192,23377,128,0,23411:0:0:0:50:
448,192,23377,128,0,23411:0:0:0:50:
192,192,23513,1,0,0:0:0:50:LR4_SnareBPDT.wav
448,192,23513,1,0,0:0:0:50:
64,192,23513,1,0,0:0:0:50:
320,192,23650,1,0,0:0:0:50:
192,192,23786,1,0,0:0:0:50:LR_Kick Bass strong.wav
64,192,23786,128,0,23854:0:0:0:50:
448,192,23786,1,0,0:0:0:50:
448,192,23922,1,0,0:0:0:50:
320,192,24059,1,0,0:0:0:50:
64,192,24059,1,0,0:0:0:50:
192,192,24195,1,0,0:0:0:50:
320,192,24331,1,0,0:0:0:50:LR_Kick Bass strong.wav
64,192,24331,128,0,24400:0:0:0:50:
448,192,24331,1,0,0:0:0:50:
448,192,24400,1,0,0:0:0:50:LR_Kick Bass strong.wav
320,192,24468,1,0,0:0:0:50:LR_Kick Bass strong.wav
192,192,24468,1,0,0:0:0:50:
192,192,24604,1,0,0:0:0:50:LR4_SnareBPDT.wav
448,192,24604,1,0,0:0:0:50:
64,192,24604,1,0,0:0:0:50:
320,192,24740,1,0,0:0:0:50:LR_Kick Bass strong.wav
192,192,24740,1,0,0:0:0:50:
64,192,24877,128,0,24945:0:0:0:50:
448,192,24877,1,0,0:0:0:50:
320,192,25013,1,0,0:0:0:50:
192,192,25150,128,0,25184:0:0:0:50:LR_Kick Bass strong.wav
448,192,25150,128,0,25184:0:0:0:50:
64,192,25150,128,0,25184:0:0:0:50:
192,192,25286,1,0,0:0:0:50:
64,192,25422,128,0,25490:0:0:0:50:
448,192,25422,1,0,0:0:0:50:
192,192,25559,128,0,25593:0:0:0:50:LR_Kick Bass strong.wav
320,192,25559,128,0,25593:0:0:0:50:
448,192,25559,128,0,25593:0:0:0:50:
64,192,25695,1,0,0:0:0:50:LR4_SnareBPDT.wav
320,192,25695,1,0,0:0:0:50:
448,192,25695,1,0,0:0:0:50:
192,192,25831,1,0,0:0:0:50:
320,192,25968,1,0,0:0:0:50:LR_Kick Bass strong.wav
64,192,25968,128,0,26036:0:0:0:50:
448,192,25968,1,0,0:0:0:50:
448,192,26104,1,0,0:0:0:50:
320,192,26240,1,0,0:0:0:50:
64,192,26240,1,0,0:0:0:50:
192,192,26377,1,0,0:0:0:50:
448,192,26513,1,0,0:0:0:50:LR_Kick Bass strong.wav
64,192,26513,128,0,26581:0:0:0:50:
320,192,26513,1,0,0:0:0:50:
448,192,26581,1,0,0:0:0:50:LR_Kick Bass strong.wav
320,192,26650,1,0,0:0:0:50:LR_Kick Bass strong.wav
192,192,26650,1,0,0:0:0:50:
192,192,26786,1,0,0:0:0:50:LR4_SnareBPDT.wav
448,192,26786,1,0,0:0:0:50:
64,192,26786,1,0,0:0:0:50:
320,192,26968,1,0,0:0:0:70:LR4_SnareBPDT.wav
192,192,26968,1,0,0:0:0:50:
64,192,27059,128,0,27127:0:0:0:50:
448,192,27150,1,0,0:0:0:70:LR4_SnareBPDT.wav
320,192,27150,1,0,0:0:0:50:
192,192,27331,128,0,27365:0:0:0:70:LR_CymbalSSF.wav
448,192,27331,128,0,27400:0:0:0:50:LR_Kick Bass strong.wav
64,192,27331,128,0,27365:0:0:0:50:
320,192,27468,1,0,0:0:0:50:
64,192,27604,128,0,27672:0:0:0:50:
448,192,27604,1,0,0:0:0:50:
320,192,27740,128,0,27775:0:0:0:50:LR_Kick Bass strong.wav
448,192,27740,128,0,27775:0:0:0:50:
192,192,27740,128,0,27775:0:0:0:50:
192,192,27877,1,0,0:0:0:50:LR4_SnareBPDT.wav
64,192,27877,1,0,0:0:0:50:
320,192,27877,1,0,0:0:0:50:
448,192,28013,1,0,0:0:0:50:
192,192,28150,1,0,0:0:0:50:LR_Kick Bass strong.wav
64,192,28150,128,0,28218:0:0:0:50:
448,192,28150,1,0,0:0:0:50:
192,192,28286,1,0,0:0:0:50:
448,192,28422,1,0,0:0:0:50:
320,192,28422,1,0,0:0:0:50:
192,192,28559,1,0,0:0:0:50:
320,192,28695,1,0,0:0:0:50:LR_Kick Bass strong.wav
64,192,28695,128,0,28763:0:0:0:50:
448,192,28695,1,0,0:0:0:50:
320,192,28763,1,0,0:0:0:50:LR_Kick Bass strong.wav
192,192,28831,1,0,0:0:0:50:LR_Kick Bass strong.wav
448,192,28831,1,0,0:0:0:50:
192,192,28968,1,0,0:0:0:50:LR4_SnareBPDT.wav
320,192,28968,1,0,0:0:0:50:
64,192,28968,1,0,0:0:0:50:
320,192,29104,1,0,0:0:0:50:LR_Kick Bass strong.wav
448,192,29104,1,0,0:0:0:50:
192,192,29104,1,0,0:0:0:50:
64,192,29240,128,0,29309:0:0:0:50:
448,192,29240,1,0,0:0:0:50:
320,192,29377,1,0,0:0:0:50:
192,192,29513,128,0,29547:0:0:0:50:LR_Kick Bass strong.wav
448,192,29513,128,0,29547:0:0:0:50:
64,192,29513,128,0,29547:0:0:0:50:
320,192,29650,1,0,0:0:0:50:
64,192,29786,128,0,29854:0:0:0:50:
448,192,29786,1,0,0:0:0:50:
192,192,29922,128,0,29956:0:0:0:50:LR_Kick Bass strong.wav
320,192,29922,128,0,29956:0:0:0:50:
448,192,29922,128,0,29956:0:0:0:50:
192,192,30059,1,0,0:0:0:50:LR4_SnareBPDT.wav
448,192,30059,1,0,0:0:0:50:
64,192,30059,1,0,0:0:0:50:
320,192,30195,1,0,0:0:0:50:
192,192,30331,1,0,0:0:0:50:LR_Kick Bass strong.wav
64,192,30331,128,0,30400:0:0:0:50:
448,192,30331,1,0,0:0:0:50:
448,192,30468,1,0,0:0:0:50:
320,192,30604,1,0,0:0:0:50:
64,192,30604,1,0,0:0:0:50:
192,192,30740,1,0,0:0:0:50:
448,192,30877,1,0,0:0:0:50:LR_Kick Bass strong.wav
64,192,30877,128,0,30945:0:0:0:50:
320,192,30877,1,0,0:0:0:50:
448,192,30945,1,0,0:0:0:50:LR_Kick Bass strong.wav
320,192,31013,1,0,0:0:0:50:LR_Kick Bass strong.wav
192,192,31013,1,0,0:0:0:50:
192,192,31150,1,0,0:0:0:50:LR4_SnareBPDT.wav
448,192,31150,1,0,0:0:0:50:
64,192,31150,1,0,0:0:0:50:
192,192,31331,1,0,0:0:0:50:LR_Kick Bass strong.wav
448,192,31331,1,0,0:0:0:50:
64,192,31422,128,0,31490:0:0:0:50:
320,192,31513,1,0,0:0:0:50:LR_Kick Bass strong.wav
448,192,31513,1,0,0:0:0:50:
448,192,31695,128,0,31729:0:0:0:50:LR_Kick Bass strong.wav
192,192,31695,128,0,31729:0:0:0:50:
64,192,31695,128,0,31729:0:0:0:50:
192,192,31831,1,0,0:0:0:50:
64,192,31968,128,0,32036:0:0:0:50:
320,192,31968,1,0,0:0:0:50:
320,192,32104,128,0,32138:0:0:0:50:LR_Kick Bass strong.wav
448,192,32104,128,0,32138:0:0:0:50:
192,192,32104,128,0,32138:0:0:0:50:
192,192,32240,1,0,0:0:0:50:
192,192,32377,1,0,0:0:0:50:
320,192,32513,1,0,0:0:0:50:LR_Kick Bass strong.wav
64,192,32513,128,0,32581:0:0:0:50:
448,192,32513,1,0,0:0:0:50:
448,192,32650,1,0,0:0:0:50:
448,192,32786,1,0,0:0:0:50:
320,192,32922,1,0,0:0:0:50:
64,192,33059,128,0,33127:0:0:0:50:
320,192,33059,1,0,0:0:0:50:
448,192,33195,1,0,0:0:0:50:
320,192,33331,1,0,0:0:0:50:
448,192,33468,1,0,0:0:0:50:
64,192,33604,128,0,33672:0:0:0:50:
320,192,33604,1,0,0:0:0:50:
448,192,33740,1,0,0:0:0:50:
448,192,33877,1,0,0:0:0:50:LR4_SnareBPDT.wav
192,192,33877,1,0,0:0:0:50:
64,192,33877,1,0,0:0:0:50:
448,192,33945,1,0,0:0:0:50:LR4_SnareBPDT.wav
320,192,34013,1,0,0:0:0:50:LR_Kick Bass strong.wav
64,192,34013,1,0,0:0:0:50:
192,192,34081,1,0,0:0:0:50:LR_Kick Bass strong.wav
64,192,34150,1,0,0:0:0:50:LR4_SnareBPDT.wav
448,192,34150,1,0,0:0:0:50:
64,192,34218,1,0,0:0:0:50:LR4_SnareBPDT.wav
320,192,34218,1,0,0:0:0:50:
192,192,34286,1,0,0:0:0:50:LR_Kick Bass strong.wav
320,192,34354,1,0,0:0:0:50:LR_Kick Bass strong.wav
448,192,34422,1,0,0:0:0:50:LR4_SnareBPDT.wav
64,192,34422,1,0,0:0:0:50:
448,192,34490,1,0,0:0:0:50:LR4_SnareBPDT.wav
192,192,34490,1,0,0:0:0:50:
320,192,34559,1,0,0:0:0:70:LR_Kick Bass strong.wav
192,192,34627,1,0,0:0:0:50:LR_Kick Bass strong.wav
64,192,34695,1,0,0:0:0:50:LR4_SnareBPDT.wav
448,192,34695,1,0,0:0:0:50:
64,192,34763,1,0,0:0:0:50:LR4_SnareBPDT.wav
320,192,34763,1,0,0:0:0:50:
192,192,34831,1,0,0:0:0:50:LR_Kick Bass strong.wav
448,192,34900,1,0,0:0:0:50:LR_Kick Bass strong.wav
320,192,34968,1,0,0:0:0:50:LR4_SnareBPDT.wav
64,192,34968,1,0,0:0:0:50:
320,192,35036,1,0,0:0:0:50:LR4_SnareBPDT.wav
448,192,35104,1,0,0:0:0:50:LR_Kick Bass strong.wav
64,192,35172,1,0,0:0:0:50:LR_Kick Bass strong.wav
192,192,35240,1,0,0:0:0:50:LR4_SnareBPDT.wav
320,192,35240,1,0,0:0:0:50:
192,192,35309,1,0,0:0:0:50:LR4_SnareBPDT.wav
64,192,35377,1,0,0:0:0:50:LR_Kick Bass strong.wav
448,192,35445,1,0,0:0:0:50:LR_Kick Bass strong.wav
320,192,35513,1,0,0:0:0:50:LR4_SnareBPDT.wav
192,192,35513,1,0,0:0:0:50:
320,192,35581,1,0,0:0:0:50:LR4_SnareBPDT.wav
448,192,35650,1,0,0:0:0:50:LR_Kick Bass strong.wav
64,192,35650,1,0,0:0:0:50:
192,192,35718,1,0,0:0:0:50:LR_Kick Bass strong.wav
320,192,35786,1,0,0:0:0:50:LR4_SnareBPDT.wav
448,192,35786,1,0,0:0:0:50:
192,192,35922,1,0,0:0:0:100:LR4_ClapLRV.wav
320,192,35922,1,0,0:0:0:50:
64,192,36059,1,0,0:0:0:100:LR4_ClapLRV.wav
448,192,36059,1,0,0:0:0:80:LR_Kick Bass strong.wav
320,192,36059,1,0,0:0:0:50:
192,192,36195,1,0,0:0:0:100:LR4_ClapLRV.wav
448,192,36195,1,0,0:0:0:50:
320,192,36331,1,0,0:0:0:80:LR_Kick Bass strong.wav
64,192,36331,1,0,0:0:0:100:LR4_ClapLRV.wav
192,192,36331,1,0,0:0:0:50:
64,192,36468,1,0,0:0:0:100:LR4_ClapLRV.wav
448,192,36468,1,0,0:0:0:50:
448,192,36604,1,0,0:0:0:80:LR_Kick Bass strong.wav
192,192,36604,1,0,0:0:0:100:LR4_ClapLRV.wav
320,192,36604,1,0,0:0:0:50:
64,192,36740,1,0,0:0:0:100:LR4_ClapLRV.wav
448,192,36740,1,0,0:0:0:50:
320,192,36809,1,0,0:0:0:100:LR4_ClapLRV.wav
64,192,36877,1,0,0:0:0:100:LR4_ClapLRV.wav
448,192,36877,1,0,0:0:0:80:LR_Kick Bass strong.wav
192,192,36877,1,0,0:0:0:50:
192,192,37013,1,0,0:0:0:100:LR4_ClapLRV.wav
320,192,37013,1,0,0:0:0:50:
448,192,37150,1,0,0:0:0:80:LR_Kick Bass strong.wav
64,192,37150,1,0,0:0:0:100:LR4_ClapLRV.wav
320,192,37150,1,0,0:0:0:50:
192,192,37286,1,0,0:0:0:100:LR4_ClapLRV.wav
448,192,37286,1,0,0:0:0:50:
320,192,37422,1,0,0:0:0:80:LR_Kick Bass strong.wav
64,192,37422,1,0,0:0:0:100:LR4_ClapLRV.wav
192,192,37422,1,0,0:0:0:50:
64,192,37559,1,0,0:0:0:100:LR4_ClapLRV.wav
448,192,37559,1,0,0:0:0:50:
192,192,37627,1,0,0:0:0:100:LR4_ClapLRV.wav
448,192,37695,1,0,0:0:0:80:LR_Kick Bass strong.wav
64,192,37695,1,0,0:0:0:100:LR4_ClapLRV.wav
320,192,37695,1,0,0:0:0:50:
192,192,37831,1,0,0:0:0:100:LR4_ClapLRV.wav
448,192,37831,1,0,0:0:0:50:
192,192,37900,1,0,0:0:0:100:LR4_ClapLRV.wav
448,192,37968,1,0,0:0:0:80:LR_Kick Bass strong.wav
64,192,37968,1,0,0:0:0:100:LR4_ClapLRV.wav
320,192,37968,1,0,0:0:0:50:
64,192,38104,1,0,0:0:0:100:LR4_ClapLRV.wav
448,192,38104,1,0,0:0:0:50:
320,192,38104,1,0,0:0:0:50:
320,192,38240,1,0,0:0:0:80:LR_Kick Bass strong.wav
64,192,38240,1,0,0:0:0:100:LR4_ClapLRV.wav
192,192,38240,1,0,0:0:0:50:
64,192,38377,1,0,0:0:0:100:LR4_ClapLRV.wav
448,192,38377,1,0,0:0:0:50:
192,192,38513,1,0,0:0:0:100:LR4_ClapLRV.wav
448,192,38513,1,0,0:0:0:80:LR_Kick Bass strong.wav
320,192,38513,1,0,0:0:0:50:
64,192,38650,1,0,0:0:0:100:LR4_ClapLRV.wav
320,192,38650,1,0,0:0:0:50:
448,192,38786,1,0,0:0:0:80:LR_Kick Bass strong.wav
64,192,38786,1,0,0:0:0:100:LR4_ClapLRV.wav
192,192,38786,1,0,0:0:0:50:
192,192,38922,1,0,0:0:0:100:LR4_ClapLRV.wav
320,192,38922,1,0,0:0:0:50:
448,192,38990,1,0,0:0:0:100:LR4_ClapLRV.wav
64,192,39059,1,0,0:0:0:100:LR4_ClapLRV.wav
320,192,39059,1,0,0:0:0:80:LR_Kick Bass strong.wav
192,192,39059,1,0,0:0:0:50:
192,192,39195,1,0,0:0:0:100:LR4_ClapLRV.wav
448,192,39195,1,0,0:0:0:50:
448,192,39331,1,0,0:0:0:80:LR_Kick Bass strong.wav
64,192,39331,1,0,0:0:0:100:LR4_ClapLRV.wav
320,192,39331,1,0,0:0:0:50:
192,192,39468,1,0,0:0:0:100:LR4_ClapLRV.wav
448,192,39468,1,0,0:0:0:50:
320,192,39604,1,0,0:0:0:80:LR_Kick Bass strong.wav
64,192,39604,1,0,0:0:0:100:LR4_ClapLRV.wav
192,192,39604,1,0,0:0:0:50:
64,192,39740,1,0,0:0:0:100:LR4_ClapLRV.wav
448,192,39740,1,0,0:0:0:50:
192,192,39809,1,0,0:0:0:100:LR4_ClapLRV.wav
448,192,39877,1,0,0:0:0:80:LR_Kick Bass strong.wav
320,192,39877,1,0,0:0:0:100:LR4_ClapLRV.wav
64,192,39877,1,0,0:0:0:50:
192,192,39945,1,0,0:0:0:100:LR4_ClapLRV.wav
320,192,40013,1,0,0:0:0:100:LR4_ClapLRV.wav
448,192,40013,1,0,0:0:0:50:
192,192,40081,1,0,0:0:0:100:LR4_ClapLRV.wav
448,192,40150,1,0,0:0:0:80:LR_Kick Bass strong.wav
320,192,40150,1,0,0:0:0:100:LR4_ClapLRV.wav
64,192,40150,1,0,0:0:0:50:
320,192,40286,1,0,0:0:0:100:LR4_ClapLRV.wav
192,192,40286,1,0,0:0:0:50:
448,192,40422,1,0,0:0:0:80:LR_Kick Bass strong.wav
192,192,40422,1,0,0:0:0:100:LR4_ClapLRV.wav
64,192,40422,1,0,0:0:0:50:
64,192,40559,1,0,0:0:0:100:LR4_ClapLRV.wav
320,192,40559,1,0,0:0:0:50:
448,192,40695,1,0,0:0:0:80:LR_Kick Bass strong.wav
192,192,40695,1,0,0:0:0:100:LR4_ClapLRV.wav
320,192,40695,1,0,0:0:0:50:
64,192,40831,1,0,0:0:0:100:LR4_ClapLRV.wav
448,192,40831,1,0,0:0:0:50:
192,192,40968,1,0,0:0:0:100:LR4_ClapLRV.wav
320,192,40968,1,0,0:0:0:80:LR_Kick Bass strong.wav
64,192,40968,1,0,0:0:0:50:
192,192,41104,1,0,0:0:0:100:LR4_ClapLRV.wav
448,192,41104,1,0,0:0:0:50:
320,192,41172,1,0,0:0:0:100:LR4_ClapLRV.wav
192,192,41240,1,0,0:0:0:100:LR4_ClapLRV.wav
448,192,41240,1,0,0:0:0:80:LR_Kick Bass strong.wav
64,192,41240,1,0,0:0:0:50:
64,192,41377,1,0,0:0:0:100:LR4_ClapLRV.wav
320,192,41377,1,0,0:0:0:50:
448,192,41513,1,0,0:0:0:80:LR_Kick Bass strong.wav
192,192,41513,1,0,0:0:0:100:LR4_ClapLRV.wav
64,192,41513,1,0,0:0:0:50:
192,192,41650,1,0,0:0:0:100:LR4_ClapLRV.wav
320,192,41650,1,0,0:0:0:50:
320,192,41786,1,0,0:0:0:100:LR4_ClapLRV.wav
448,192,41786,1,0,0:0:0:80:LR_Kick Bass strong.wav
64,192,41786,1,0,0:0:0:50:
192,192,41922,1,0,0:0:0:100:LR4_ClapLRV.wav
320,192,41922,1,0,0:0:0:50:
64,192,42059,1,0,0:0:0:100:LR4_ClapLRV.wav
448,192,42059,1,0,0:0:0:80:LR_Kick Bass strong.wav
192,192,42059,1,0,0:0:0:50:
320,192,42195,1,0,0:0:0:100:LR4_ClapLRV.wav
64,192,42195,1,0,0:0:0:0:
320,192,42263,1,0,0:0:0:100:LR4_ClapLRV.wav
448,192,42331,1,0,0:0:0:80:LR_Kick Bass strong.wav
192,192,42331,1,0,0:0:0:100:LR4_ClapLRV.wav
64,192,42331,1,0,0:0:0:50:
192,192,42468,1,0,0:0:0:100:LR4_ClapLRV.wav
64,192,42468,1,0,0:0:0:50:
448,192,42468,1,0,0:0:0:50:
448,192,42604,1,0,0:0:0:80:LR_Kick Bass strong.wav
64,192,42604,1,0,0:0:0:100:LR4_ClapLRV.wav
320,192,42604,1,0,0:0:0:50:
192,192,42740,1,0,0:0:0:100:LR4_ClapLRV.wav
320,192,42740,1,0,0:0:0:50:
448,192,42877,1,0,0:0:0:80:LR_Kick Bass strong.wav
64,192,42877,1,0,0:0:0:100:LR4_ClapLRV.wav
192,192,42877,1,0,0:0:0:50:
64,192,43013,1,0,0:0:0:100:LR4_ClapLRV.wav
320,192,43013,1,0,0:0:0:50:
448,192,43150,1,0,0:0:0:80:LR_Kick Bass strong.wav
192,192,43150,1,0,0:0:0:100:LR4_ClapLRV.wav
320,192,43150,1,0,0:0:0:50:
64,192,43286,1,0,0:0:0:100:LR4_ClapLRV.wav
448,192,43286,1,0,0:0:0:50:
320,192,43354,1,0,0:0:0:100:LR4_ClapLRV.wav
192,192,43422,1,0,0:0:0:100:LR4_ClapLRV.wav
448,192,43422,1,0,0:0:0:80:LR_Kick Bass strong.wav
64,192,43422,1,0,0:0:0:50:
192,192,43559,1,0,0:0:0:100:LR4_ClapLRV.wav
320,192,43559,1,0,0:0:0:50:
448,192,43695,1,0,0:0:0:80:LR_Kick Bass strong.wav
64,192,43695,1,0,0:0:0:100:LR4_ClapLRV.wav
320,192,43695,1,0,0:0:0:50:
192,192,43831,1,0,0:0:0:100:LR4_ClapLRV.wav
448,192,43831,1,0,0:0:0:50:
64,192,43968,1,0,0:0:0:100:LR4_ClapLRV.wav
320,192,43968,1,0,0:0:0:80:LR_Kick Bass strong.wav
192,192,43968,1,0,0:0:0:50:
448,192,44104,1,0,0:0:0:100:LR4_ClapLRV.wav
320,192,44172,1,0,0:0:0:100:LR4_ClapLRV.wav
448,192,44240,1,0,0:0:0:80:LR_Kick Bass strong.wav
192,192,44240,1,0,0:0:0:100:LR4_ClapLRV.wav
64,192,44240,1,0,0:0:0:50:
320,192,44309,1,0,0:0:0:100:LR4_ClapLRV.wav
192,192,44377,1,0,0:0:0:100:LR4_ClapLRV.wav
64,192,44377,1,0,0:0:0:50:
320,192,44445,1,0,0:0:0:100:LR4_ClapLRV.wav
448,192,44513,1,0,0:0:0:80:LR_Kick Bass strong.wav
192,192,44513,1,0,0:0:0:100:LR4_ClapLRV.wav
64,192,44513,1,0,0:0:0:50:
64,192,44650,1,0,0:0:0:100:LR4_ClapLRV.wav
448,192,44650,1,0,0:0:0:50:
64,192,44786,1,0,0:0:0:100:LR4_ClapLRV.wav
448,192,44786,1,0,0:0:0:80:LR_Kick Bass strong.wav
320,192,44831,1,0,0:0:0:100:LR4_ClapLRV.wav
192,192,44877,1,0,0:0:0:100:LR4_ClapLRV.wav
64,192,44922,1,0,0:0:0:100:LR4_ClapLRV.wav
448,192,44922,1,0,0:0:0:80:LR_Kick Bass strong.wav
320,192,44990,1,0,0:0:0:100:LR4_ClapLRV.wav
192,192,45059,1,0,0:0:0:80:LR_Kick Bass strong.wav
64,192,45059,1,0,0:0:0:100:LR4_ClapLRV.wav
320,192,45127,1,0,0:0:0:100:LR4_ClapLRV.wav
192,192,45195,1,0,0:0:0:100:LR4_ClapLRV.wav
448,192,45195,1,0,0:0:0:80:LR_Kick Bass strong.wav
320,192,45263,1,0,0:0:0:100:LR4_ClapLRV.wav
448,192,45331,1,0,0:0:0:80:LR_Kick Bass strong.wav
64,192,45331,1,0,0:0:0:100:LR4_ClapLRV.wav
192,192,45377,1,0,0:0:0:100:LR4_ClapLRV.wav
320,192,45422,1,0,0:0:0:100:LR4_ClapLRV.wav
192,192,45468,1,0,0:0:0:80:LR_Kick Bass strong.wav
64,192,45468,1,0,0:0:0:100:LR4_ClapLRV.wav
448,192,45536,1,0,0:0:0:100:LR4_ClapLRV.wav
320,192,45604,1,0,0:0:0:80:LR_Kick Bass strong.wav
64,192,45604,1,0,0:0:0:100:LR4_ClapLRV.wav
192,192,45672,1,0,0:0:0:100:LR4_ClapLRV.wav
448,192,45740,1,0,0:0:0:80:LR_Kick Bass strong.wav
320,192,45740,1,0,0:0:0:100:LR4_ClapLRV.wav
64,192,45809,1,0,0:0:0:100:LR4_ClapLRV.wav
192,192,45877,1,0,0:0:0:100:LR4_ClapLRV.wav
448,192,45877,1,0,0:0:0:80:LR_Kick Bass strong.wav
320,192,45922,1,0,0:0:0:100:LR4_ClapLRV.wav
64,192,45968,1,0,0:0:0:100:LR4_ClapLRV.wav
192,192,46013,1,0,0:0:0:100:LR4_ClapLRV.wav
448,192,46013,1,0,0:0:0:80:LR_Kick Bass strong.wav
320,192,46081,1,0,0:0:0:100:LR4_ClapLRV.wav
192,192,46150,1,0,0:0:0:80:LR_Kick Bass strong.wav
64,192,46150,1,0,0:0:0:100:LR4_ClapLRV.wav
448,192,46218,1,0,0:0:0:100:LR4_ClapLRV.wav
320,192,46286,1,0,0:0:0:80:LR_Kick Bass strong.wav
64,192,46286,1,0,0:0:0:100:LR4_ClapLRV.wav
192,192,46354,1,0,0:0:0:100:LR4_ClapLRV.wav
448,192,46422,1,0,0:0:0:80:LR_Kick Bass strong.wav
64,192,46422,1,0,0:0:0:100:LR4_ClapLRV.wav
320,192,46468,1,0,0:0:0:100:LR4_ClapLRV.wav
192,192,46513,1,0,0:0:0:100:LR4_ClapLRV.wav
448,192,46559,1,0,0:0:0:80:LR_Kick Bass strong.wav
320,192,46559,1,0,0:0:0:100:LR4_ClapLRV.wav
64,192,46627,1,0,0:0:0:100:LR4_ClapLRV.wav
448,192,46695,1,0,0:0:0:80:LR_Kick Bass strong.wav
192,192,46695,1,0,0:0:0:100:LR4_ClapLRV.wav
320,192,46763,1,0,0:0:0:100:LR4_ClapLRV.wav
192,192,46831,1,0,0:0:0:80:LR_Kick Bass strong.wav
64,192,46831,1,0,0:0:0:100:LR4_ClapLRV.wav
448,192,46900,1,0,0:0:0:100:LR4_ClapLRV.wav
320,192,46968,1,0,0:0:0:80:LR_Kick Bass strong.wav
64,192,46968,1,0,0:0:0:100:LR4_ClapLRV.wav
192,192,47013,1,0,0:0:0:100:LR4_ClapLRV.wav
448,192,47059,1,0,0:0:0:100:LR4_ClapLRV.wav
320,192,47104,1,0,0:0:0:80:LR_Kick Bass strong.wav
64,192,47104,1,0,0:0:0:100:LR4_ClapLRV.wav
192,192,47172,1,0,0:0:0:100:LR4_ClapLRV.wav
448,192,47240,1,0,0:0:0:80:LR_Kick Bass strong.wav
320,192,47240,1,0,0:0:0:100:LR4_ClapLRV.wav
64,192,47309,1,0,0:0:0:100:LR4_ClapLRV.wav
448,192,47377,1,0,0:0:0:80:LR_Kick Bass strong.wav
192,192,47377,1,0,0:0:0:100:LR4_ClapLRV.wav
320,192,47445,1,0,0:0:0:100:LR4_ClapLRV.wav
448,192,47513,1,0,0:0:0:80:LR_Kick Bass strong.wav
64,192,47513,1,0,0:0:0:100:LR4_ClapLRV.wav
192,192,47559,1,0,0:0:0:100:LR4_ClapLRV.wav
320,192,47604,1,0,0:0:0:100:LR4_ClapLRV.wav
192,192,47650,1,0,0:0:0:80:LR_Kick Bass strong.wav
64,192,47650,1,0,0:0:0:100:LR4_ClapLRV.wav
448,192,47718,1,0,0:0:0:100:LR4_ClapLRV.wav
320,192,47786,1,0,0:0:0:80:LR_Kick Bass strong.wav
64,192,47786,1,0,0:0:0:100:LR4_ClapLRV.wav
192,192,47854,1,0,0:0:0:100:LR4_ClapLRV.wav
448,192,47922,1,0,0:0:0:80:LR_Kick Bass strong.wav
320,192,47922,1,0,0:0:0:100:LR4_ClapLRV.wav
64,192,47990,1,0,0:0:0:100:LR4_ClapLRV.wav
448,192,48059,1,0,0:0:0:80:LR_Kick Bass strong.wav
192,192,48059,1,0,0:0:0:100:LR4_ClapLRV.wav
320,192,48104,1,0,0:0:0:100:LR4_ClapLRV.wav
64,192,48150,1,0,0:0:0:100:LR4_ClapLRV.wav
448,192,48195,1,0,0:0:0:80:LR_Kick Bass strong.wav
192,192,48195,1,0,0:0:0:100:LR4_ClapLRV.wav
320,192,48263,1,0,0:0:0:100:LR4_ClapLRV.wav
192,192,48331,1,0,0:0:0:80:LR_Kick Bass strong.wav
64,192,48331,1,0,0:0:0:100:LR4_ClapLRV.wav
448,192,48400,1,0,0:0:0:100:LR4_ClapLRV.wav
320,192,48468,1,0,0:0:0:80:LR_Kick Bass strong.wav
64,192,48468,1,0,0:0:0:100:LR4_ClapLRV.wav
192,192,48536,1,0,0:0:0:100:LR4_ClapLRV.wav
448,192,48604,1,0,0:0:0:80:LR_Kick Bass strong.wav
64,192,48604,1,0,0:0:0:100:LR4_ClapLRV.wav
320,192,48650,1,0,0:0:0:100:LR4_ClapLRV.wav
192,192,48695,1,0,0:0:0:100:LR4_ClapLRV.wav
448,192,48740,1,0,0:0:0:80:LR_Kick Bass strong.wav
320,192,48740,1,0,0:0:0:100:LR4_ClapLRV.wav
64,192,48809,1,0,0:0:0:100:LR4_ClapLRV.wav
192,192,48877,1,0,0:0:0:100:LR4_ClapLRV.wav
448,192,48877,1,0,0:0:0:80:LR_Kick Bass strong.wav
320,192,48945,1,0,0:0:0:100:LR4_ClapLRV.wav
192,192,49013,1,0,0:0:0:80:LR_Kick Bass strong.wav
64,192,49013,1,0,0:0:0:100:LR4_ClapLRV.wav
448,192,49081,1,0,0:0:0:100:LR4_ClapLRV.wav
320,192,49150,1,0,0:0:0:80:LR_Kick Bass strong.wav
64,192,49150,1,0,0:0:0:100:LR4_ClapLRV.wav
192,192,49218,1,0,0:0:0:80:LR_Kick Bass strong.wav
448,192,49218,1,0,0:0:0:100:LR4_ClapLRV.wav
320,192,49286,1,0,0:0:0:80:LR_Kick Bass strong.wav
64,192,49286,1,0,0:0:0:100:LR4_ClapLRV.wav
192,192,49354,1,0,0:0:0:80:LR_Kick Bass strong.wav
320,192,49422,1,0,0:0:0:80:LR_Kick Bass strong.wav
448,192,49422,1,0,0:0:0:100:LR4_ClapLRV.wav
192,192,49490,1,0,0:0:0:80:LR_Kick Bass strong.wav
64,192,49490,1,0,0:0:0:100:LR4_ClapLRV.wav
448,192,49559,1,0,0:0:0:100:LR4_ClapLRV.wav
320,192,49559,1,0,0:0:0:80:LR_Kick Bass strong.wav
64,192,49627,1,0,0:0:0:80:LR_Kick Bass strong.wav
448,192,49695,1,0,0:0:0:100:LR4_ClapLRV.wav
192,192,49695,1,0,0:0:0:80:LR_Kick Bass strong.wav
320,192,49763,1,0,0:0:0:100:LR4_ClapLRV.wav
64,192,49763,1,0,0:0:0:80:LR_Kick Bass strong.wav
448,192,49831,1,0,0:0:0:100:LR4_ClapLRV.wav
192,192,49831,1,0,0:0:0:80:LR_Kick Bass strong.wav
64,192,49900,1,0,0:0:0:80:LR_Kick Bass strong.wav
448,192,49968,1,0,0:0:0:100:LR4_ClapLRV.wav
320,192,49968,1,0,0:0:0:80:LR_Kick Bass strong.wav
192,192,50036,1,0,0:0:0:80:LR_Kick Bass strong.wav
64,192,50036,1,0,0:0:0:100:LR4_ClapLRV.wav
448,192,50104,1,0,0:0:0:100:LR4_ClapLRV.wav
320,192,50104,1,0,0:0:0:80:LR_Kick Bass strong.wav
192,192,50172,1,0,0:0:0:80:LR_Kick Bass strong.wav
320,192,50240,1,0,0:0:0:80:LR_Kick Bass strong.wav
64,192,50240,1,0,0:0:0:100:LR4_ClapLRV.wav
192,192,50309,1,0,0:0:0:80:LR_Kick Bass strong.wav
448,192,50309,1,0,0:0:0:100:LR4_ClapLRV.wav
64,192,50377,1,0,0:0:0:100:LR4_ClapLRV.wav
320,192,50377,1,0,0:0:0:80:LR_Kick Bass strong.wav
192,192,50445,1,0,0:0:0:80:LR_Kick Bass strong.wav
448,192,50513,1,0,0:0:0:100:LR4_ClapLRV.wav
320,192,50513,1,0,0:0:0:80:LR_Kick Bass strong.wav
192,192,50581,1,0,0:0:0:80:LR_Kick Bass strong.wav
64,192,50581,1,0,0:0:0:100:LR4_ClapLRV.wav
448,192,50650,1,0,0:0:0:100:LR4_ClapLRV.wav
320,192,50650,1,0,0:0:0:80:LR_Kick Bass strong.wav
64,192,50718,1,0,0:0:0:80:LR_Kick Bass strong.wav
448,192,50786,1,0,0:0:0:100:LR4_ClapLRV.wav
192,192,50786,1,0,0:0:0:80:LR_Kick Bass strong.wav
320,192,50854,1,0,0:0:0:100:LR4_ClapLRV.wav
64,192,50854,1,0,0:0:0:80:LR_Kick Bass strong.wav
448,192,50922,1,0,0:0:0:100:LR4_ClapLRV.wav
192,192,50922,1,0,0:0:0:80:LR_Kick Bass strong.wav
64,192,50990,1,0,0:0:0:80:LR_Kick Bass strong.wav
448,192,51059,1,0,0:0:0:100:LR4_ClapLRV.wav
320,192,51059,1,0,0:0:0:80:LR_Kick Bass strong.wav
192,192,51127,1,0,0:0:0:80:LR_Kick Bass strong.wav
64,192,51127,1,0,0:0:0:100:LR4_ClapLRV.wav
448,192,51195,1,0,0:0:0:100:LR4_ClapLRV.wav
320,192,51195,1,0,0:0:0:80:LR_Kick Bass strong.wav
192,192,51263,1,0,0:0:0:80:LR_Kick Bass strong.wav
64,192,51263,1,0,0:0:0:100:LR4_ClapLRV.wav
448,192,51331,1,0,0:0:0:100:LR4_ClapLRV.wav
320,192,51331,1,0,0:0:0:80:LR_Kick Bass strong.wav
448,192,51400,1,0,0:0:0:80:LR_Kick Bass strong.wav
64,192,51400,1,0,0:0:0:100:LR4_ClapLRV.wav
192,192,51468,1,0,0:0:0:100:LR4_ClapLRV.wav
320,192,51468,1,0,0:0:0:80:LR_Kick Bass strong.wav
448,192,51536,1,0,0:0:0:80:LR_Kick Bass strong.wav
192,192,51604,1,0,0:0:0:80:LR_Kick Bass strong.wav
64,192,51604,1,0,0:0:0:100:LR4_ClapLRV.wav
64,192,51672,1,0,0:0:0:100:LR4_ClapLRV.wav
448,192,51672,1,0,0:0:0:80:LR_Kick Bass strong.wav
320,192,51740,1,0,0:0:0:80:LR_Kick Bass strong.wav
192,192,51740,1,0,0:0:0:100:LR4_ClapLRV.wav
64,192,51809,1,0,0:0:0:80:LR_Kick Bass strong.wav
448,192,51877,1,0,0:0:0:100:LR4_ClapLRV.wav
320,192,51877,1,0,0:0:0:80:LR_Kick Bass strong.wav
448,192,51945,1,0,0:0:0:80:LR_Kick Bass strong.wav
64,192,51945,1,0,0:0:0:100:LR4_ClapLRV.wav
192,192,52013,1,0,0:0:0:100:LR4_ClapLRV.wav
320,192,52013,1,0,0:0:0:80:LR_Kick Bass strong.wav
448,192,52081,1,0,0:0:0:80:LR_Kick Bass strong.wav
192,192,52150,1,0,0:0:0:80:LR_Kick Bass strong.wav
64,192,52150,1,0,0:0:0:100:LR4_ClapLRV.wav
320,192,52184,1,0,0:0:0:100:LR4_ClapLRV.wav
448,192,52218,1,0,0:0:0:100:LR4_ClapLRV.wav
64,192,52252,1,0,0:0:0:100:LR4_ClapLRV.wav
192,192,52286,1,0,0:0:0:100:LR4_ClapLRV.wav
320,192,52320,1,0,0:0:0:100:LR4_ClapLRV.wav
64,192,52354,1,0,0:0:0:100:LR4_ClapLRV.wav
448,192,52354,1,0,0:0:0:50:
192,192,52388,1,0,0:0:0:100:LR4_ClapLRV.wav
320,192,52422,128,0,52490:0:0:0:100:LR4_ClapLRV.wav
448,192,52422,128,0,52490:0:0:0:50:
448,192,52559,128,0,52627:0:0:0:50:
320,192,52559,128,0,52627:0:0:0:50:
192,192,52695,128,0,52763:0:0:0:50:
448,192,52831,128,0,52900:0:0:0:50:
320,192,52831,128,0,52900:0:0:0:50:
448,192,52968,128,0,53036:0:0:0:50:
320,192,52968,128,0,53036:0:0:0:50:
192,192,53104,128,0,53138:0:0:0:50:
320,192,53104,128,0,53172:0:0:0:50:
64,192,53104,128,0,53172:0:0:0:50:
448,192,53240,128,0,53309:0:0:0:50:
192,192,53240,128,0,53309:0:0:0:50:
320,192,53240,128,0,53275:0:0:0:50:
64,192,53513,1,0,0:0:0:70:LR_Kick Bass strong.wav
448,192,53513,1,0,0:0:0:50:
320,192,53513,1,0,0:0:0:50:
192,192,53513,1,0,0:0:0:50:
320,192,53581,1,0,0:0:0:50:
192,192,53650,1,0,0:0:0:50:
64,192,53650,1,0,0:0:0:50:
320,192,53718,1,0,0:0:0:50:
64,192,53786,1,0,0:0:0:70:LR_Kick Bass strong.wav
448,192,53786,1,0,0:0:0:50:
192,192,53786,1,0,0:0:0:50:
320,192,53854,1,0,0:0:0:50:
64,192,53922,1,0,0:0:0:70:LR_Kick Bass strong.wav
192,192,53922,1,0,0:0:0:50:
64,192,53990,1,0,0:0:0:70:LR_Kick Bass strong.wav
320,192,53990,1,0,0:0:0:50:
448,192,53990,1,0,0:0:0:50:
320,192,54059,1,0,0:0:0:70:LR4_SnareBPDT.wav
448,192,54059,1,0,0:0:0:50:
192,192,54059,1,0,0:0:0:50:
64,192,54127,1,0,0:0:0:50:
192,192,54195,1,0,0:0:0:70:LR_Kick Bass strong.wav
448,192,54195,1,0,0:0:0:50:
320,192,54195,1,0,0:0:0:50:
64,192,54263,1,0,0:0:0:50:
320,192,54331,1,0,0:0:0:50:
192,192,54400,1,0,0:0:0:50:
320,192,54468,1,0,0:0:0:70:LR_Kick Bass strong.wav
64,192,54468,1,0,0:0:0:50:
448,192,54468,1,0,0:0:0:50:
192,192,54536,1,0,0:0:0:50:
448,192,54604,1,0,0:0:0:70:LR_Kick Bass strong.wav
320,192,54604,1,0,0:0:0:50:
448,192,54672,1,0,0:0:0:70:LR_Kick Bass strong.wav
192,192,54672,1,0,0:0:0:50:
320,192,54740,1,0,0:0:0:70:LR_Kick Bass strong.wav
64,192,54740,1,0,0:0:0:50:
192,192,54809,1,0,0:0:0:50:
448,192,54877,1,0,0:0:0:70:LR_Kick Bass strong.wav
320,192,54877,1,0,0:0:0:50:
64,192,54877,1,0,0:0:0:50:
448,192,54945,1,0,0:0:0:70:LR_Kick Bass strong.wav
320,192,54945,1,0,0:0:0:50:
192,192,55013,1,0,0:0:0:70:LR_Kick Bass strong.wav
64,192,55013,1,0,0:0:0:50:
320,192,55081,1,0,0:0:0:50:
448,192,55150,1,0,0:0:0:70:LR4_SnareBPDT.wav
64,192,55150,1,0,0:0:0:50:
192,192,55218,1,0,0:0:0:50:
448,192,55286,1,0,0:0:0:50:
320,192,55286,1,0,0:0:0:50:
64,192,55286,1,0,0:0:0:50:
192,192,55354,1,0,0:0:0:50:
448,192,55422,128,0,55627:0:0:0:50:
320,192,55422,1,0,0:0:0:50:
64,192,55490,1,0,0:0:0:50:
192,192,55559,1,0,0:0:0:50:
64,192,55627,1,0,0:0:0:50:
320,192,55695,1,0,0:0:0:70:LR_Kick Bass strong.wav
192,192,55695,1,0,0:0:0:50:
448,192,55695,1,0,0:0:0:50:
64,192,55763,1,0,0:0:0:50:
448,192,55831,1,0,0:0:0:50:
320,192,55831,1,0,0:0:0:50:
192,192,55900,1,0,0:0:0:50:
448,192,55968,1,0,0:0:0:70:LR_Kick Bass strong.wav
320,192,55968,1,0,0:0:0:50:
64,192,55968,1,0,0:0:0:50:
192,192,56036,1,0,0:0:0:50:
448,192,56104,1,0,0:0:0:70:LR_Kick Bass strong.wav
320,192,56104,1,0,0:0:0:50:
448,192,56172,1,0,0:0:0:70:LR_Kick Bass strong.wav
192,192,56172,1,0,0:0:0:50:
64,192,56172,1,0,0:0:0:50:
192,192,56240,1,0,0:0:0:70:LR4_SnareBPDT.wav
320,192,56240,1,0,0:0:0:50:
64,192,56240,1,0,0:0:0:50:
448,192,56309,1,0,0:0:0:50:
320,192,56377,1,0,0:0:0:70:LR_Kick Bass strong.wav
192,192,56377,1,0,0:0:0:50:
64,192,56377,1,0,0:0:0:50:
448,192,56445,1,0,0:0:0:50:
64,192,56513,1,0,0:0:0:50:
192,192,56581,1,0,0:0:0:50:
448,192,56650,1,0,0:0:0:70:LR_Kick Bass strong.wav
64,192,56650,1,0,0:0:0:50:
320,192,56650,1,0,0:0:0:50:
192,192,56718,1,0,0:0:0:50:
448,192,56786,1,0,0:0:0:70:LR_Kick Bass strong.wav
320,192,56786,1,0,0:0:0:50:
448,192,56854,1,0,0:0:0:70:LR_Kick Bass strong.wav
192,192,56854,1,0,0:0:0:50:
320,192,56922,1,0,0:0:0:70:LR_Kick Bass strong.wav
64,192,56922,1,0,0:0:0:50:
192,192,56990,1,0,0:0:0:50:
320,192,57059,1,0,0:0:0:70:LR_Kick Bass strong.wav
448,192,57059,1,0,0:0:0:50:
64,192,57059,1,0,0:0:0:50:
320,192,57127,1,0,0:0:0:70:LR_Kick Bass strong.wav
448,192,57127,1,0,0:0:0:50:
192,192,57195,1,0,0:0:0:70:LR_Kick Bass strong.wav
64,192,57195,1,0,0:0:0:50:
320,192,57263,1,0,0:0:0:50:
64,192,57331,128,0,57377:0:0:0:70:LR4_SnareBPDT.wav
448,192,57331,1,0,0:0:0:50:
192,192,57331,128,0,57377:0:0:0:50:
320,192,57400,1,0,0:0:0:50:
448,192,57468,1,0,0:0:0:50:
64,192,57513,128,0,57559:0:0:0:70:LR4_SnareBPDT.wav
192,192,57513,128,0,57559:0:0:0:50:
320,192,57536,1,0,0:0:0:50:
448,192,57604,1,0,0:0:0:50:
320,192,57672,1,0,0:0:0:50:
64,192,57695,128,0,57740:0:0:0:70:LR4_SnareBPDT.wav
192,192,57695,128,0,57740:0:0:0:50:
448,192,57740,1,0,0:0:0:50:
320,192,57809,1,0,0:0:0:50:
448,192,57877,1,0,0:0:0:100:LR_CymbalSSF.wav
192,192,57877,1,0,0:0:0:70:LR_Kick Bass strong.wav
64,192,57877,1,0,0:0:0:50:
64,192,57945,1,0,0:0:0:50:
192,192,58013,1,0,0:0:0:50:
320,192,58013,1,0,0:0:0:50:
448,192,58081,1,0,0:0:0:50:
192,192,58150,1,0,0:0:0:50:
320,192,58150,1,0,0:0:0:50:
64,192,58150,1,0,0:0:0:50:
448,192,58218,1,0,0:0:0:50:
64,192,58286,1,0,0:0:0:70:LR_Kick Bass strong.wav
192,192,58286,1,0,0:0:0:50:
64,192,58354,1,0,0:0:0:70:LR_Kick Bass strong.wav
448,192,58354,1,0,0:0:0:50:
320,192,58354,1,0,0:0:0:50:
320,192,58422,1,0,0:0:0:70:LR4_SnareBPDT.wav
448,192,58422,1,0,0:0:0:50:
192,192,58422,1,0,0:0:0:50:
64,192,58490,1,0,0:0:0:50:
192,192,58559,1,0,0:0:0:70:LR_Kick Bass strong.wav
448,192,58559,1,0,0:0:0:50:
320,192,58559,1,0,0:0:0:50:
64,192,58627,1,0,0:0:0:50:
448,192,58695,1,0,0:0:0:50:
320,192,58763,1,0,0:0:0:50:
64,192,58831,1,0,0:0:0:70:LR_Kick Bass strong.wav
192,192,58831,1,0,0:0:0:50:
448,192,58831,1,0,0:0:0:50:
320,192,58900,1,0,0:0:0:50:
64,192,58968,1,0,0:0:0:70:LR_Kick Bass strong.wav
192,192,58968,1,0,0:0:0:50:
64,192,59036,1,0,0:0:0:70:LR_Kick Bass strong.wav
320,192,59036,1,0,0:0:0:50:
192,192,59104,1,0,0:0:0:70:LR_Kick Bass strong.wav
448,192,59104,1,0,0:0:0:50:
320,192,59172,1,0,0:0:0:50:
192,192,59240,1,0,0:0:0:70:LR_Kick Bass strong.wav
64,192,59240,1,0,0:0:0:50:
448,192,59240,1,0,0:0:0:50:
192,192,59309,1,0,0:0:0:70:LR_Kick Bass strong.wav
64,192,59309,1,0,0:0:0:50:
320,192,59377,1,0,0:0:0:70:LR_Kick Bass strong.wav
448,192,59377,1,0,0:0:0:50:
64,192,59445,1,0,0:0:0:50:
320,192,59513,1,0,0:0:0:70:LR4_SnareBPDT.wav
192,192,59513,1,0,0:0:0:50:
448,192,59513,1,0,0:0:0:50:
64,192,59581,1,0,0:0:0:50:
192,192,59650,1,0,0:0:0:70:LR_Kick Bass strong.wav
448,192,59650,1,0,0:0:0:50:
320,192,59718,1,0,0:0:0:50:
192,192,59786,1,0,0:0:0:50:
64,192,59786,128,0,60059:0:0:0:50:
320,192,59922,128,0,60059:0:0:0:50:
192,192,60059,1,0,0:0:0:70:LR_Kick Bass strong.wav
448,192,60059,128,0,60093:0:0:0:100:LR4_ClapLRV.wav
320,192,60127,1,0,0:0:0:50:
448,192,60195,128,0,60229:0:0:0:100:LR4_ClapLRV.wav
192,192,60195,1,0,0:0:0:50:
320,192,60263,1,0,0:0:0:50:
448,192,60331,128,0,60365:0:0:0:100:LR4_ClapLRV.wav
64,192,60331,1,0,0:0:0:70:LR_Kick Bass strong.wav
192,192,60331,1,0,0:0:0:50:
320,192,60400,1,0,0:0:0:50:
448,192,60468,128,0,60502:0:0:0:100:LR4_ClapLRV.wav
64,192,60468,1,0,0:0:0:50:
320,192,60536,1,0,0:0:0:50:
448,192,60604,128,0,60650:0:0:0:100:LR4_ClapLRV.wav
192,192,60604,1,0,0:0:0:50:
64,192,60604,1,0,0:0:0:50:
320,192,60672,1,0,0:0:0:50:
448,192,60740,128,0,60786:0:0:0:100:LR4_ClapLRV.wav
192,192,60740,1,0,0:0:0:50:
320,192,60809,1,0,0:0:0:50:
64,192,60877,1,0,0:0:0:70:LR_Kick Bass strong.wav
448,192,60877,128,0,60922:0:0:0:100:LR4_ClapLRV.wav
192,192,60877,1,0,0:0:0:50:
320,192,60945,1,0,0:0:0:50:
448,192,61013,128,0,61059:0:0:0:100:LR4_ClapLRV.wav
192,192,61013,1,0,0:0:0:50:
320,192,61081,1,0,0:0:0:50:
448,192,61150,128,0,61218:0:0:0:100:LR4_ClapLRV.wav
192,192,61150,1,0,0:0:0:50:
64,192,61150,1,0,0:0:0:50:
320,192,61218,128,0,61286:0:0:0:50:
448,192,61286,128,0,61354:0:0:0:100:LR4_ClapLRV.wav
64,192,61286,1,0,0:0:0:50:
320,192,61354,128,0,61422:0:0:0:50:
64,192,61422,1,0,0:0:0:70:LR_Kick Bass strong.wav
448,192,61422,128,0,61490:0:0:0:100:LR4_ClapLRV.wav
192,192,61422,1,0,0:0:0:50:
64,192,61490,1,0,0:0:0:70:LR_Kick Bass strong.wav
320,192,61490,128,0,61559:0:0:0:50:
448,192,61559,128,0,61627:0:0:0:100:LR4_ClapLRV.wav
192,192,61627,128,0,61695:0:0:0:50:
448,192,61695,128,0,61763:0:0:0:100:LR4_ClapLRV.wav
320,192,61695,128,0,61763:0:0:0:50:
448,192,61831,128,0,61900:0:0:0:100:LR4_ClapLRV.wav
320,192,61831,128,0,61900:0:0:0:50:
448,192,61968,128,0,62240:0:0:0:100:LR4_ClapLRV.wav
320,192,61968,128,0,62240:0:0:0:50:
192,192,62240,1,0,0:0:0:50:
64,192,62240,128,0,62513:0:0:0:50:
448,192,62513,1,0,0:0:0:50:
320,192,62513,1,0,0:0:0:50:
192,192,62513,1,0,0:0:0:50:
448,192,62650,1,0,0:0:0:70:LR_CymbalSSF.wav
320,192,62650,1,0,0:0:0:70:LR4_SnareBPDT.wav
192,192,62650,1,0,0:0:0:50:
64,192,62650,1,0,0:0:0:50:
320,192,62786,1,0,0:0:0:70:LR_Kick Bass strong.wav
64,192,62786,1,0,0:0:0:50:
192,192,62786,128,0,63059:0:0:0:50:
320,192,63059,1,0,0:0:0:70:LR_CymbalSSF.wav
448,192,63059,1,0,0:0:0:50:
64,192,63059,1,0,0:0:0:50:
192,192,63127,1,0,0:0:0:50:
448,192,63195,1,0,0:0:0:50:
320,192,63263,1,0,0:0:0:50:
64,192,63331,1,0,0:0:0:70:LR_Kick Bass strong.wav
192,192,63331,1,0,0:0:0:50:
448,192,63331,1,0,0:0:0:50:
64,192,63400,1,0,0:0:0:70:LR_Kick Bass strong.wav
320,192,63400,1,0,0:0:0:50:
192,192,63468,1,0,0:0:0:70:LR_Kick Bass strong.wav
448,192,63468,1,0,0:0:0:50:
320,192,63468,1,0,0:0:0:50:
64,192,63536,1,0,0:0:0:50:
448,192,63604,1,0,0:0:0:70:LR_Kick Bass strong.wav
320,192,63604,1,0,0:0:0:50:
192,192,63604,1,0,0:0:0:50:
448,192,63672,1,0,0:0:0:70:LR_Kick Bass strong.wav
320,192,63672,1,0,0:0:0:50:
192,192,63740,1,0,0:0:0:70:LR_Kick Bass strong.wav
64,192,63740,1,0,0:0:0:50:
320,192,63809,1,0,0:0:0:50:
448,192,63877,1,0,0:0:0:70:LR4_SnareBPDT.wav
64,192,63877,1,0,0:0:0:50:
192,192,63945,1,0,0:0:0:50:
320,192,64013,1,0,0:0:0:70:LR_Kick Bass strong.wav
448,192,64013,1,0,0:0:0:50:
64,192,64013,1,0,0:0:0:50:
192,192,64081,1,0,0:0:0:50:
320,192,64150,1,0,0:0:0:50:
448,192,64150,128,0,64354:0:0:0:50:
64,192,64218,1,0,0:0:0:50:
192,192,64286,1,0,0:0:0:50:
64,192,64354,1,0,0:0:0:50:
320,192,64422,1,0,0:0:0:70:LR_Kick Bass strong.wav
192,192,64422,1,0,0:0:0:50:
448,192,64422,1,0,0:0:0:50:
64,192,64490,1,0,0:0:0:50:
448,192,64559,1,0,0:0:0:50:
320,192,64559,1,0,0:0:0:50:
192,192,64627,1,0,0:0:0:50:
448,192,64695,1,0,0:0:0:70:LR_Kick Bass strong.wav
320,192,64695,1,0,0:0:0:50:
64,192,64695,1,0,0:0:0:50:
192,192,64763,1,0,0:0:0:50:
448,192,64831,1,0,0:0:0:70:LR_Kick Bass strong.wav
320,192,64831,1,0,0:0:0:50:
448,192,64900,1,0,0:0:0:70:LR_Kick Bass strong.wav
192,192,64900,1,0,0:0:0:50:
64,192,64900,1,0,0:0:0:50:
320,192,64968,1,0,0:0:0:70:LR4_SnareBPDT.wav
192,192,64968,1,0,0:0:0:50:
64,192,64968,1,0,0:0:0:50:
448,192,65036,1,0,0:0:0:50:
192,192,65104,1,0,0:0:0:70:LR_Kick Bass strong.wav
320,192,65104,1,0,0:0:0:50:
64,192,65104,1,0,0:0:0:50:
448,192,65172,1,0,0:0:0:50:
64,192,65240,1,0,0:0:0:50:
192,192,65309,1,0,0:0:0:50:
320,192,65377,1,0,0:0:0:70:LR_Kick Bass strong.wav
448,192,65377,1,0,0:0:0:50:
64,192,65377,1,0,0:0:0:50:
192,192,65445,1,0,0:0:0:50:
448,192,65513,1,0,0:0:0:70:LR_Kick Bass strong.wav
320,192,65513,1,0,0:0:0:50:
448,192,65581,1,0,0:0:0:70:LR_Kick Bass strong.wav
192,192,65581,1,0,0:0:0:50:
320,192,65650,1,0,0:0:0:70:LR_Kick Bass strong.wav
64,192,65650,1,0,0:0:0:50:
192,192,65718,1,0,0:0:0:50:
448,192,65786,1,0,0:0:0:70:LR_Kick Bass strong.wav
320,192,65786,1,0,0:0:0:50:
64,192,65786,1,0,0:0:0:50:
448,192,65854,1,0,0:0:0:70:LR_Kick Bass strong.wav
320,192,65854,1,0,0:0:0:50:
192,192,65922,1,0,0:0:0:70:LR_Kick Bass strong.wav
64,192,65922,1,0,0:0:0:50:
320,192,65990,1,0,0:0:0:50:
448,192,66059,1,0,0:0:0:70:LR4_SnareBPDT.wav
192,192,66059,1,0,0:0:0:50:
64,192,66059,1,0,0:0:0:50:
320,192,66127,1,0,0:0:0:50:
192,192,66195,1,0,0:0:0:50:
448,192,66195,1,0,0:0:0:70:LR_Kick Bass strong.wav
64,192,66195,1,0,0:0:0:0:
64,192,66263,1,0,0:0:0:50:
320,192,66331,1,0,0:0:0:50:
192,192,66400,1,0,0:0:0:50:
64,192,66400,1,0,0:0:0:50:
448,192,66400,1,0,0:0:0:70:LR_Kick Bass strong.wav
448,192,66468,1,0,0:0:0:50:
320,192,66536,1,0,0:0:0:50:
192,192,66604,1,0,0:0:0:70:LR_CymbalSSF.wav
448,192,66604,1,0,0:0:0:50:
64,192,66604,1,0,0:0:0:50:
320,192,66672,1,0,0:0:0:50:
64,192,66672,1,0,0:0:0:50:
192,192,66740,1,0,0:0:0:50:
448,192,66740,1,0,0:0:0:50:
320,192,66809,1,0,0:0:0:50:
448,192,66877,1,0,0:0:0:50:
64,192,66877,1,0,0:0:0:50:
320,192,66945,1,0,0:0:0:50:
448,192,67013,1,0,0:0:0:50:
192,192,67013,1,0,0:0:0:50:
320,192,67081,1,0,0:0:0:50:
64,192,67150,1,0,0:0:0:70:LR_CymbalSSF.wav
448,192,67150,1,0,0:0:0:50:
192,192,67218,1,0,0:0:0:50:
64,192,67286,1,0,0:0:0:50:
320,192,67286,1,0,0:0:0:50:
192,192,67354,1,0,0:0:0:50:
64,192,67422,1,0,0:0:0:50:
448,192,67422,1,0,0:0:0:50:
192,192,67490,1,0,0:0:0:50:
320,192,67559,1,0,0:0:0:50:
64,192,67559,1,0,0:0:0:50:
192,192,67627,1,0,0:0:0:50:
448,192,67695,1,0,0:0:0:70:LR_CymbalSSF.wav
64,192,67695,1,0,0:0:0:50:
320,192,67763,1,0,0:0:0:50:
192,192,67831,1,0,0:0:0:50:
448,192,67831,1,0,0:0:0:50:
320,192,67900,1,0,0:0:0:50:
448,192,67968,1,0,0:0:0:50:
64,192,67968,1,0,0:0:0:50:
320,192,68036,1,0,0:0:0:50:
192,192,68104,1,0,0:0:0:50:
448,192,68104,1,0,0:0:0:50:
320,192,68172,1,0,0:0:0:50:
64,192,68240,1,0,0:0:0:70:LR_CymbalSSF.wav
448,192,68240,1,0,0:0:0:50:
192,192,68309,1,0,0:0:0:50:
320,192,68377,1,0,0:0:0:50:
64,192,68377,1,0,0:0:0:50:
192,192,68445,1,0,0:0:0:50:
64,192,68513,1,0,0:0:0:50:
448,192,68513,1,0,0:0:0:50:
192,192,68581,1,0,0:0:0:50:
320,192,68650,1,0,0:0:0:50:
64,192,68650,1,0,0:0:0:50:
192,192,68718,1,0,0:0:0:50:
448,192,68786,1,0,0:0:0:50:LR4_SnareBPDT.wav
64,192,68786,1,0,0:0:0:50:
320,192,68786,1,0,0:0:0:50:
448,192,68854,1,0,0:0:0:50:LR4_SnareBPDT.wav
320,192,68854,1,0,0:0:0:50:
192,192,68922,1,0,0:0:0:70:LR_Kick Bass strong.wav
320,192,68990,1,0,0:0:0:70:LR_Kick Bass strong.wav
192,192,69059,1,0,0:0:0:50:LR4_SnareBPDT.wav
64,192,69059,1,0,0:0:0:50:
192,192,69127,1,0,0:0:0:50:LR4_SnareBPDT.wav
64,192,69127,1,0,0:0:0:50:
448,192,69195,1,0,0:0:0:70:LR_Kick Bass strong.wav
64,192,69263,1,0,0:0:0:70:LR_Kick Bass strong.wav
448,192,69331,1,0,0:0:0:50:LR4_SnareBPDT.wav
320,192,69331,1,0,0:0:0:50:
448,192,69400,1,0,0:0:0:50:LR4_SnareBPDT.wav
320,192,69400,1,0,0:0:0:50:
192,192,69468,1,0,0:0:0:70:LR_Kick Bass strong.wav
320,192,69536,1,0,0:0:0:70:LR_Kick Bass strong.wav
192,192,69604,1,0,0:0:0:50:LR4_SnareBPDT.wav
64,192,69604,1,0,0:0:0:50:
192,192,69672,1,0,0:0:0:50:LR4_SnareBPDT.wav
64,192,69672,1,0,0:0:0:50:
448,192,69740,1,0,0:0:0:50:
64,192,69809,1,0,0:0:0:50:
448,192,69877,1,0,0:0:0:50:LR4_SnareBPDT.wav
320,192,69877,1,0,0:0:0:50:
192,192,69877,1,0,0:0:0:50:
64,192,69945,1,0,0:0:0:50:LR4_SnareBPDT.wav
320,192,69945,1,0,0:0:0:50:
448,192,70013,1,0,0:0:0:50:LR4_SnareBPDT.wav
192,192,70013,1,0,0:0:0:50:
64,192,70081,1,0,0:0:0:50:LR4_SnareBPDT.wav
448,192,70150,1,0,0:0:0:50:LR4_SnareBPDT.wav
320,192,70150,1,0,0:0:0:50:
192,192,70150,1,0,0:0:0:50:
64,192,70218,1,0,0:0:0:50:LR4_SnareBPDT.wav
448,192,70286,1,0,0:0:0:50:LR4_SnareBPDT.wav
320,192,70286,1,0,0:0:0:50:
64,192,70354,1,0,0:0:0:50:LR4_SnareBPDT.wav
448,192,70422,1,0,0:0:0:50:LR4_SnareBPDT.wav
320,192,70422,1,0,0:0:0:50:
192,192,70422,1,0,0:0:0:50:
64,192,70490,1,0,0:0:0:50:LR4_SnareBPDT.wav
448,192,70559,1,0,0:0:0:50:LR4_SnareBPDT.wav
192,192,70559,1,0,0:0:0:50:
320,192,70627,1,0,0:0:0:50:LR4_SnareBPDT.wav
448,192,70695,1,0,0:0:0:50:LR4_SnareBPDT.wav
192,192,70695,1,0,0:0:0:50:
64,192,70695,1,0,0:0:0:50:
448,192,70831,1,0,0:0:0:70:LR_CymbalSSF.wav
320,192,70831,1,0,0:0:0:50:
64,192,70968,1,0,0:0:0:70:LR_Kick Bass strong.wav
448,192,70968,1,0,0:0:0:75:
192,192,71013,1,0,0:0:0:75:
320,192,71059,1,0,0:0:0:75:
64,192,71104,1,0,0:0:0:75:
192,192,71150,1,0,0:0:0:75:
448,192,71195,1,0,0:0:0:75:
320,192,71240,1,0,0:0:0:75:
64,192,71240,1,0,0:0:0:75:
192,192,71286,1,0,0:0:0:75:
448,192,71331,1,0,0:0:0:75:
320,192,71377,1,0,0:0:0:70:LR_Kick Bass strong.wav
192,192,71422,1,0,0:0:0:75:
64,192,71468,1,0,0:0:0:75:
448,192,71513,1,0,0:0:0:70:LR4_SnareBPDT.wav
320,192,71513,1,0,0:0:0:75:
192,192,71559,1,0,0:0:0:75:
64,192,71604,1,0,0:0:0:75:
448,192,71650,1,0,0:0:0:75:
320,192,71650,1,0,0:0:0:75:
192,192,71695,1,0,0:0:0:75:
448,192,71740,1,0,0:0:0:75:
320,192,71786,1,0,0:0:0:70:LR_Kick Bass strong.wav
64,192,71831,1,0,0:0:0:75:
192,192,71877,1,0,0:0:0:75:
320,192,71922,1,0,0:0:0:75:
64,192,71968,1,0,0:0:0:75:
192,192,72013,1,0,0:0:0:75:
448,192,72059,1,0,0:0:0:75:
320,192,72059,1,0,0:0:0:75:
64,192,72104,1,0,0:0:0:75:
192,192,72150,1,0,0:0:0:75:
320,192,72195,1,0,0:0:0:75:
448,192,72195,1,0,0:0:0:75:
64,192,72240,1,0,0:0:0:75:
192,192,72286,1,0,0:0:0:75:
448,192,72331,1,0,0:0:0:70:LR_Kick Bass strong.wav
320,192,72377,1,0,0:0:0:75:
192,192,72422,1,0,0:0:0:75:
64,192,72468,1,0,0:0:0:70:LR_Kick Bass strong.wav
320,192,72513,1,0,0:0:0:75:
192,192,72559,1,0,0:0:0:75:
448,192,72604,1,0,0:0:0:70:LR4_SnareBPDT.wav
64,192,72604,1,0,0:0:0:75:
320,192,72650,1,0,0:0:0:75:
192,192,72695,1,0,0:0:0:75:
320,192,72740,1,0,0:0:0:70:LR_Kick Bass strong.wav
448,192,72740,1,0,0:0:0:75:
64,192,72786,1,0,0:0:0:75:
192,192,72831,1,0,0:0:0:75:
320,192,72877,1,0,0:0:0:75:
448,192,72922,1,0,0:0:0:75:
192,192,72968,1,0,0:0:0:75:
320,192,73013,1,0,0:0:0:75:
64,192,73059,1,0,0:0:0:75:
192,192,73104,1,0,0:0:0:75:
320,192,73150,1,0,0:0:0:70:LR_Kick Bass strong.wav
448,192,73150,1,0,0:0:0:75:
64,192,73195,1,0,0:0:0:75:
192,192,73240,1,0,0:0:0:75:
448,192,73286,1,0,0:0:0:75:
320,192,73286,1,0,0:0:0:75:
64,192,73331,1,0,0:0:0:75:
192,192,73377,1,0,0:0:0:75:
448,192,73422,1,0,0:0:0:75:
320,192,73468,1,0,0:0:0:75:
192,192,73513,1,0,0:0:0:75:
64,192,73559,1,0,0:0:0:70:LR_Kick Bass strong.wav
320,192,73604,1,0,0:0:0:75:
192,192,73650,1,0,0:0:0:75:
448,192,73695,1,0,0:0:0:70:LR4_SnareBPDT.wav
64,192,73695,1,0,0:0:0:75:
320,192,73740,1,0,0:0:0:75:
192,192,73786,1,0,0:0:0:75:
448,192,73831,1,0,0:0:0:75:
320,192,73831,1,0,0:0:0:75:
64,192,73877,1,0,0:0:0:75:
192,192,73922,1,0,0:0:0:75:
320,192,73968,1,0,0:0:0:70:LR_Kick Bass strong.wav
64,192,74013,1,0,0:0:0:75:
192,192,74059,1,0,0:0:0:75:
448,192,74104,1,0,0:0:0:75:
320,192,74150,1,0,0:0:0:75:
192,192,74195,1,0,0:0:0:75:
64,192,74240,1,0,0:0:0:75:
448,192,74240,1,0,0:0:0:75:
320,192,74275,1,0,0:0:0:75:
192,192,74309,1,0,0:0:0:75:
64,192,74343,1,0,0:0:0:75:
448,192,74377,1,0,0:0:0:75:
320,192,74411,1,0,0:0:0:75:
192,192,74445,1,0,0:0:0:75:
64,192,74479,1,0,0:0:0:75:
320,192,74513,1,0,0:0:0:100:LR4_ClapLRV.wav
448,192,74513,1,0,0:0:0:75:
192,192,74581,1,0,0:0:0:100:LR4_ClapLRV.wav
320,192,74650,1,0,0:0:0:100:LR4_ClapLRV.wav
448,192,74650,1,0,0:0:0:75:
192,192,74718,1,0,0:0:0:100:LR4_ClapLRV.wav
320,192,74786,1,0,0:0:0:100:LR4_ClapLRV.wav
448,192,74786,1,0,0:0:0:75:
192,192,74854,1,0,0:0:0:100:LR4_ClapLRV.wav
320,192,74922,1,0,0:0:0:100:LR4_ClapLRV.wav
448,192,74922,1,0,0:0:0:75:
192,192,74990,1,0,0:0:0:100:LR4_ClapLRV.wav
320,192,75059,1,0,0:0:0:100:LR4_ClapLRV.wav
448,192,75059,1,0,0:0:0:75:
192,192,75127,1,0,0:0:0:100:LR4_ClapLRV.wav
320,192,75195,1,0,0:0:0:100:LR4_ClapLRV.wav
448,192,75195,1,0,0:0:0:75:
192,192,75263,1,0,0:0:0:100:LR4_ClapLRV.wav
64,192,75331,1,0,0:0:0:70:LR_Kick Bass strong.wav
448,192,75331,1,0,0:0:0:75:
320,192,75377,1,0,0:0:0:75:
192,192,75422,1,0,0:0:0:75:
448,192,75468,1,0,0:0:0:75:
320,192,75513,1,0,0:0:0:75:
64,192,75559,1,0,0:0:0:75:
192,192,75604,1,0,0:0:0:75:
448,192,75604,1,0,0:0:0:75:
320,192,75650,1,0,0:0:0:75:
64,192,75695,1,0,0:0:0:75:
192,192,75740,1,0,0:0:0:70:LR_Kick Bass strong.wav
320,192,75786,1,0,0:0:0:75:
448,192,75831,1,0,0:0:0:75:
64,192,75877,1,0,0:0:0:70:LR4_SnareBPDT.wav
192,192,75877,1,0,0:0:0:75:
320,192,75922,1,0,0:0:0:75:
448,192,75968,1,0,0:0:0:75:
192,192,76013,1,0,0:0:0:75:
64,192,76013,1,0,0:0:0:75:
320,192,76059,1,0,0:0:0:75:
448,192,76104,1,0,0:0:0:75:
192,192,76150,1,0,0:0:0:70:LR_Kick Bass strong.wav
320,192,76195,1,0,0:0:0:75:
64,192,76240,1,0,0:0:0:75:
192,192,76286,1,0,0:0:0:75:
448,192,76331,1,0,0:0:0:75:
320,192,76377,1,0,0:0:0:75:
192,192,76422,1,0,0:0:0:75:
64,192,76422,1,0,0:0:0:75:
448,192,76468,1,0,0:0:0:75:
320,192,76513,1,0,0:0:0:75:
192,192,76559,1,0,0:0:0:75:
64,192,76559,1,0,0:0:0:75:
448,192,76604,1,0,0:0:0:75:
320,192,76650,1,0,0:0:0:75:
64,192,76695,1,0,0:0:0:70:LR_Kick Bass strong.wav
192,192,76740,1,0,0:0:0:75:
320,192,76786,1,0,0:0:0:75:
448,192,76831,1,0,0:0:0:70:LR_Kick Bass strong.wav
192,192,76877,1,0,0:0:0:75:
320,192,76922,1,0,0:0:0:75:
448,192,76968,1,0,0:0:0:70:LR4_SnareBPDT.wav
64,192,76968,1,0,0:0:0:75:
192,192,77013,1,0,0:0:0:75:
320,192,77059,1,0,0:0:0:75:
64,192,77104,1,0,0:0:0:70:LR_Kick Bass strong.wav
448,192,77104,1,0,0:0:0:75:
192,192,77150,1,0,0:0:0:75:
320,192,77195,1,0,0:0:0:75:
448,192,77240,1,0,0:0:0:75:
192,192,77286,1,0,0:0:0:75:
64,192,77331,1,0,0:0:0:75:
320,192,77377,1,0,0:0:0:75:
192,192,77422,1,0,0:0:0:75:
64,192,77468,1,0,0:0:0:75:
448,192,77513,1,0,0:0:0:70:LR_Kick Bass strong.wav
320,192,77513,1,0,0:0:0:100:LR4_ClapLRV.wav
192,192,77559,1,0,0:0:0:75:
64,192,77604,1,0,0:0:0:75:
320,192,77650,1,0,0:0:0:75:
192,192,77695,1,0,0:0:0:75:
448,192,77740,1,0,0:0:0:75:
64,192,77786,1,0,0:0:0:100:LR4_ClapLRV.wav
320,192,77786,1,0,0:0:0:75:
192,192,77854,1,0,0:0:0:100:LR4_ClapLRV.wav
64,192,77922,1,0,0:0:0:100:LR4_ClapLRV.wav
320,192,77922,1,0,0:0:0:70:LR_Kick Bass strong.wav
192,192,77990,1,0,0:0:0:100:LR4_ClapLRV.wav
448,192,77990,1,0,0:0:0:75:
64,192,78059,1,0,0:0:0:70:LR4_SnareBPDT.wav
320,192,78059,1,0,0:0:0:100:LR4_ClapLRV.wav
448,192,78127,1,0,0:0:0:100:LR4_ClapLRV.wav
192,192,78127,1,0,0:0:0:75:
320,192,78195,1,0,0:0:0:100:LR4_ClapLRV.wav
64,192,78195,1,0,0:0:0:75:
448,192,78263,1,0,0:0:0:100:LR4_ClapLRV.wav
192,192,78263,1,0,0:0:0:75:
320,192,78331,1,0,0:0:0:100:LR4_ClapLRV.wav
64,192,78331,1,0,0:0:0:75:
448,192,78400,1,0,0:0:0:75:
320,192,78468,1,0,0:0:0:100:LR4_ClapLRV.wav
192,192,78468,1,0,0:0:0:75:
64,192,78536,1,0,0:0:0:75:
192,192,78604,1,0,0:0:0:100:LR4_ClapLRV.wav
448,192,78604,1,0,0:0:0:75:
320,192,78672,1,0,0:0:0:75:
64,192,78740,1,0,0:0:0:100:LR4_ClapLRV.wav
448,192,78740,1,0,0:0:0:75:
192,192,78809,1,0,0:0:0:75:
64,192,78877,1,0,0:0:0:100:LR4_ClapLRV.wav
448,192,78877,1,0,0:0:0:75:
320,192,78945,1,0,0:0:0:75:
64,192,79013,1,0,0:0:0:100:LR4_ClapLRV.wav
448,192,79013,1,0,0:0:0:75:
192,192,79081,1,0,0:0:0:75:
64,192,79150,1,0,0:0:0:100:LR4_ClapLRV.wav
448,192,79150,1,0,0:0:0:75:
320,192,79218,1,0,0:0:0:75:
64,192,79286,1,0,0:0:0:100:LR4_ClapLRV.wav
192,192,79286,1,0,0:0:0:75:
320,192,79354,1,0,0:0:0:75:
64,192,79422,1,0,0:0:0:100:LR4_ClapLRV.wav
448,192,79422,1,0,0:0:0:75:
192,192,79468,1,0,0:0:0:75:
320,192,79513,1,0,0:0:0:75:
64,192,79559,1,0,0:0:0:100:LR4_ClapLRV.wav
192,192,79604,1,0,0:0:0:75:
448,192,79650,1,0,0:0:0:75:
64,192,79695,1,0,0:0:0:100:LR4_ClapLRV.wav
320,192,79695,1,0,0:0:0:75:
192,192,79740,1,0,0:0:0:75:
448,192,79786,1,0,0:0:0:75:
320,192,79831,1,0,0:0:0:75:
192,192,79877,1,0,0:0:0:75:
64,192,79922,1,0,0:0:0:75:
448,192,79968,1,0,0:0:0:75:
320,192,79968,1,0,0:0:0:75:
192,192,80013,1,0,0:0:0:75:
64,192,80059,1,0,0:0:0:75:
448,192,80104,1,0,0:0:0:70:LR_Kick Bass strong.wav
320,192,80150,1,0,0:0:0:75:
192,192,80195,1,0,0:0:0:75:
448,192,80240,1,0,0:0:0:70:LR4_SnareBPDT.wav
320,192,80240,1,0,0:0:0:75:
64,192,80286,1,0,0:0:0:75:
192,192,80331,1,0,0:0:0:75:
320,192,80377,1,0,0:0:0:75:
448,192,80377,1,0,0:0:0:75:
64,192,80422,1,0,0:0:0:75:
192,192,80468,1,0,0:0:0:75:
448,192,80513,1,0,0:0:0:70:LR_Kick Bass strong.wav
320,192,80559,1,0,0:0:0:75:
192,192,80604,1,0,0:0:0:75:
448,192,80650,1,0,0:0:0:75:
320,192,80695,1,0,0:0:0:75:
64,192,80740,1,0,0:0:0:75:
448,192,80786,1,0,0:0:0:75:
192,192,80786,1,0,0:0:0:75:
320,192,80831,1,0,0:0:0:75:
64,192,80877,1,0,0:0:0:75:
192,192,80922,1,0,0:0:0:75:
448,192,80922,1,0,0:0:0:75:
320,192,80968,1,0,0:0:0:75:
64,192,81013,1,0,0:0:0:75:
192,192,81059,1,0,0:0:0:70:LR_Kick Bass strong.wav
448,192,81104,1,0,0:0:0:75:
320,192,81150,1,0,0:0:0:75:
192,192,81195,1,0,0:0:0:70:LR_Kick Bass strong.wav
64,192,81240,1,0,0:0:0:75:
320,192,81286,1,0,0:0:0:75:
192,192,81331,1,0,0:0:0:70:LR4_SnareBPDT.wav
448,192,81331,1,0,0:0:0:75:
64,192,81377,1,0,0:0:0:75:
320,192,81422,1,0,0:0:0:75:
192,192,81468,1,0,0:0:0:70:LR_Kick Bass strong.wav
448,192,81468,1,0,0:0:0:75:
64,192,81513,1,0,0:0:0:75:
320,192,81559,1,0,0:0:0:75:
192,192,81604,1,0,0:0:0:75:
448,192,81650,1,0,0:0:0:75:
320,192,81695,1,0,0:0:0:75:
64,192,81740,1,0,0:0:0:75:
192,192,81786,1,0,0:0:0:75:
320,192,81831,1,0,0:0:0:75:
448,192,81877,1,0,0:0:0:70:LR_Kick Bass strong.wav
64,192,81877,1,0,0:0:0:75:
192,192,81922,1,0,0:0:0:75:
320,192,81968,1,0,0:0:0:75:
64,192,82013,1,0,0:0:0:75:
448,192,82013,1,0,0:0:0:75:
192,192,82059,1,0,0:0:0:75:
320,192,82104,1,0,0:0:0:75:
64,192,82150,1,0,0:0:0:75:
192,192,82195,1,0,0:0:0:75:
448,192,82240,1,0,0:0:0:75:
320,192,82286,1,0,0:0:0:70:LR_Kick Bass strong.wav
64,192,82331,1,0,0:0:0:75:
192,192,82377,1,0,0:0:0:75:
320,192,82422,1,0,0:0:0:70:LR4_SnareBPDT.wav
448,192,82422,1,0,0:0:0:75:
64,192,82468,1,0,0:0:0:75:
192,192,82513,1,0,0:0:0:75:
320,192,82559,1,0,0:0:0:75:
448,192,82559,1,0,0:0:0:75:
64,192,82604,1,0,0:0:0:75:
192,192,82650,1,0,0:0:0:75:
448,192,82695,1,0,0:0:0:70:LR_Kick Bass strong.wav
320,192,82740,1,0,0:0:0:75:
192,192,82786,1,0,0:0:0:75:
64,192,82831,1,0,0:0:0:75:
320,192,82877,1,0,0:0:0:75:
192,192,82922,1,0,0:0:0:75:
448,192,82968,1,0,0:0:0:75:
64,192,82968,1,0,0:0:0:75:
320,192,83002,1,0,0:0:0:75:
192,192,83036,1,0,0:0:0:75:
64,192,83070,1,0,0:0:0:75:
448,192,83104,1,0,0:0:0:75:
320,192,83138,1,0,0:0:0:75:
192,192,83172,1,0,0:0:0:75:
64,192,83206,1,0,0:0:0:75:
320,192,83240,1,0,0:0:0:70:LR4_ClapLRV.wav
448,192,83240,1,0,0:0:0:75:
192,192,83309,1,0,0:0:0:70:LR4_ClapLRV.wav
320,192,83377,1,0,0:0:0:70:LR4_ClapLRV.wav
448,192,83377,1,0,0:0:0:75:
192,192,83445,1,0,0:0:0:70:LR4_ClapLRV.wav
320,192,83513,1,0,0:0:0:70:LR4_ClapLRV.wav
448,192,83513,1,0,0:0:0:75:
192,192,83581,1,0,0:0:0:70:LR4_ClapLRV.wav
320,192,83650,1,0,0:0:0:70:LR4_ClapLRV.wav
448,192,83650,1,0,0:0:0:75:
192,192,83718,1,0,0:0:0:70:LR4_ClapLRV.wav
64,192,83786,1,0,0:0:0:70:LR4_ClapLRV.wav
448,192,83786,1,0,0:0:0:75:
320,192,83820,1,0,0:0:0:70:LR4_ClapLRV.wav
192,192,83854,1,0,0:0:0:70:LR4_ClapLRV.wav
64,192,83888,1,0,0:0:0:70:LR4_ClapLRV.wav
448,192,83922,1,0,0:0:0:70:LR4_ClapLRV.wav
320,192,83956,1,0,0:0:0:70:LR4_ClapLRV.wav
192,192,83990,1,0,0:0:0:70:LR4_ClapLRV.wav
64,192,84025,1,0,0:0:0:70:LR4_ClapLRV.wav
320,192,84059,1,0,0:0:0:70:LR_Kick Bass strong.wav
448,192,84059,1,0,0:0:0:50:
192,192,84127,1,0,0:0:0:50:
64,192,84195,1,0,0:0:0:50:
448,192,84195,1,0,0:0:0:50:
320,192,84263,1,0,0:0:0:50:
192,192,84331,1,0,0:0:0:50:
64,192,84331,1,0,0:0:0:50:
448,192,84400,1,0,0:0:0:50:
192,192,84468,1,0,0:0:0:70:LR_Kick Bass strong.wav
320,192,84468,1,0,0:0:0:50:
64,192,84468,1,0,0:0:0:50:
448,192,84536,1,0,0:0:0:50:
192,192,84604,1,0,0:0:0:70:LR_Kick Bass strong.wav
320,192,84604,1,0,0:0:0:50:
64,192,84604,1,0,0:0:0:50:
448,192,84672,1,0,0:0:0:50:
320,192,84740,1,0,0:0:0:50:
64,192,84740,1,0,0:0:0:50:
192,192,84809,1,0,0:0:0:50:
320,192,84877,1,0,0:0:0:70:LR_Kick Bass strong.wav
448,192,84877,1,0,0:0:0:50:
64,192,84877,1,0,0:0:0:50:
192,192,84945,1,0,0:0:0:50:
320,192,85013,1,0,0:0:0:50:
448,192,85013,1,0,0:0:0:50:
64,192,85081,1,0,0:0:0:50:
192,192,85150,1,0,0:0:0:50:
448,192,85150,1,0,0:0:0:50:
320,192,85218,1,0,0:0:0:50:
192,192,85286,1,0,0:0:0:70:LR_Kick Bass strong.wav
64,192,85286,1,0,0:0:0:50:
448,192,85286,1,0,0:0:0:50:
320,192,85354,1,0,0:0:0:50:
192,192,85422,1,0,0:0:0:70:LR_Kick Bass strong.wav
64,192,85422,1,0,0:0:0:50:
448,192,85422,1,0,0:0:0:50:
320,192,85490,1,0,0:0:0:50:
64,192,85559,1,0,0:0:0:50:
448,192,85559,1,0,0:0:0:50:
192,192,85627,1,0,0:0:0:50:
320,192,85695,1,0,0:0:0:70:LR_Kick Bass strong.wav
448,192,85695,1,0,0:0:0:50:
64,192,85695,1,0,0:0:0:50:
192,192,85763,1,0,0:0:0:50:
320,192,85831,1,0,0:0:0:50:
448,192,85831,1,0,0:0:0:50:
64,192,85900,1,0,0:0:0:50:
320,192,85968,1,0,0:0:0:70:LR_Kick Bass strong.wav
192,192,85968,1,0,0:0:0:50:
448,192,85968,1,0,0:0:0:50:
64,192,86036,1,0,0:0:0:50:
192,192,86104,1,0,0:0:0:50:
448,192,86104,1,0,0:0:0:50:
320,192,86172,1,0,0:0:0:50:
192,192,86240,1,0,0:0:0:70:LR_Kick Bass strong.wav
64,192,86240,1,0,0:0:0:50:
448,192,86240,1,0,0:0:0:50:
320,192,86309,1,0,0:0:0:50:
192,192,86377,1,0,0:0:0:50:
64,192,86377,1,0,0:0:0:50:
448,192,86445,1,0,0:0:0:50:
320,192,86513,1,0,0:0:0:50:
192,192,86513,1,0,0:0:0:50:
64,192,86581,1,0,0:0:0:50:
320,192,86650,1,0,0:0:0:70:LR_Kick Bass strong.wav
192,192,86650,1,0,0:0:0:50:
448,192,86650,1,0,0:0:0:50:
64,192,86718,1,0,0:0:0:50:
320,192,86786,1,0,0:0:0:70:LR_Kick Bass strong.wav
448,192,86786,1,0,0:0:0:50:
192,192,86786,1,0,0:0:0:50:
64,192,86854,1,0,0:0:0:50:
448,192,86922,1,0,0:0:0:50:
192,192,86922,1,0,0:0:0:50:
320,192,86990,1,0,0:0:0:50:
192,192,87059,1,0,0:0:0:70:LR_Kick Bass strong.wav
448,192,87059,1,0,0:0:0:50:
64,192,87059,1,0,0:0:0:50:
320,192,87127,1,0,0:0:0:50:
192,192,87195,1,0,0:0:0:70:LR_Kick Bass strong.wav
448,192,87195,1,0,0:0:0:50:
64,192,87195,1,0,0:0:0:50:
320,192,87263,1,0,0:0:0:50:
192,192,87331,1,0,0:0:0:70:LR_Kick Bass strong.wav
64,192,87331,1,0,0:0:0:50:
448,192,87331,1,0,0:0:0:50:
320,192,87400,1,0,0:0:0:70:LR_Kick Bass strong.wav
448,192,87400,1,0,0:0:0:50:
192,192,87468,1,0,0:0:0:70:LR_Kick Bass strong.wav
64,192,87468,1,0,0:0:0:50:
320,192,87536,1,0,0:0:0:70:LR_Kick Bass strong.wav
448,192,87536,1,0,0:0:0:50:
192,192,87604,1,0,0:0:0:70:LR_Kick Bass strong.wav
64,192,87604,1,0,0:0:0:50:
320,192,87672,1,0,0:0:0:70:LR_Kick Bass strong.wav
448,192,87672,1,0,0:0:0:50:
192,192,87740,1,0,0:0:0:70:LR_Kick Bass strong.wav
64,192,87740,1,0,0:0:0:50:
320,192,87809,1,0,0:0:0:70:LR_Kick Bass strong.wav
448,192,87809,1,0,0:0:0:50:
64,192,87877,128,0,88150:0:0:0:50:
64,192,88286,128,0,88422:0:0:0:50:
320,192,88422,1,0,0:0:0:100:LR4_ClapLRV.wav
448,192,88422,1,0,0:0:0:50:
192,192,88422,1,0,0:0:0:50:
64,192,88468,1,0,0:0:0:50:
448,192,88513,1,0,0:0:0:50:
320,192,88559,1,0,0:0:0:100:LR4_ClapLRV.wav
192,192,88559,1,0,0:0:0:50:
64,192,88627,1,0,0:0:0:50:
192,192,88695,1,0,0:0:0:100:LR4_ClapLRV.wav
448,192,88695,1,0,0:0:0:50:
320,192,88763,1,0,0:0:0:50:
192,192,88831,1,0,0:0:0:100:LR4_ClapLRV.wav
64,192,88831,1,0,0:0:0:50:
448,192,88900,1,0,0:0:0:50:
320,192,88968,1,0,0:0:0:100:LR4_ClapLRV.wav
64,192,88968,1,0,0:0:0:50:
192,192,89036,1,0,0:0:0:50:
320,192,89104,1,0,0:0:0:100:LR4_ClapLRV.wav
448,192,89104,1,0,0:0:0:50:
64,192,89172,1,0,0:0:0:100:LR4_ClapLRV.wav
192,192,89240,1,0,0:0:0:100:LR4_ClapLRV.wav
448,192,89240,1,0,0:0:0:50:
320,192,89309,1,0,0:0:0:50:
192,192,89377,1,0,0:0:0:100:LR4_ClapLRV.wav
64,192,89377,1,0,0:0:0:50:
448,192,89445,1,0,0:0:0:50:
320,192,89513,1,0,0:0:0:100:LR4_ClapLRV.wav
192,192,89513,1,0,0:0:0:50:
64,192,89559,1,0,0:0:0:50:
448,192,89604,1,0,0:0:0:50:
320,192,89650,1,0,0:0:0:100:LR4_ClapLRV.wav
192,192,89650,1,0,0:0:0:50:
64,192,89718,1,0,0:0:0:50:
448,192,89786,1,0,0:0:0:100:LR4_ClapLRV.wav
192,192,89786,1,0,0:0:0:50:
320,192,89854,1,0,0:0:0:50:
448,192,89922,1,0,0:0:0:100:LR4_ClapLRV.wav
64,192,89922,1,0,0:0:0:50:
192,192,89990,1,0,0:0:0:50:
320,192,90059,1,0,0:0:0:100:LR4_ClapLRV.wav
448,192,90059,1,0,0:0:0:50:
64,192,90127,1,0,0:0:0:50:
320,192,90195,1,0,0:0:0:100:LR4_ClapLRV.wav
192,192,90195,1,0,0:0:0:50:
320,192,90263,1,0,0:0:0:100:LR4_ClapLRV.wav
192,192,90331,1,0,0:0:0:100:LR4_ClapLRV.wav
64,192,90331,1,0,0:0:0:50:
448,192,90400,1,0,0:0:0:50:
192,192,90468,1,0,0:0:0:100:LR4_ClapLRV.wav
64,192,90468,1,0,0:0:0:50:
320,192,90536,1,0,0:0:0:50:
64,192,90604,1,0,0:0:0:100:LR4_ClapLRV.wav
448,192,90604,1,0,0:0:0:50:
192,192,90650,1,0,0:0:0:50:
320,192,90695,1,0,0:0:0:50:
64,192,90740,1,0,0:0:0:100:LR4_ClapLRV.wav
448,192,90740,1,0,0:0:0:50:
192,192,90809,1,0,0:0:0:50:
320,192,90877,1,0,0:0:0:100:LR4_ClapLRV.wav
448,192,90877,1,0,0:0:0:50:
64,192,90945,1,0,0:0:0:50:
192,192,91013,1,0,0:0:0:100:LR4_ClapLRV.wav
448,192,91013,1,0,0:0:0:50:
320,192,91081,1,0,0:0:0:50:
192,192,91150,1,0,0:0:0:100:LR4_ClapLRV.wav
64,192,91150,1,0,0:0:0:50:
448,192,91218,1,0,0:0:0:50:
192,192,91286,1,0,0:0:0:100:LR4_ClapLRV.wav
320,192,91286,1,0,0:0:0:50:
64,192,91354,1,0,0:0:0:100:LR4_ClapLRV.wav
320,192,91422,1,0,0:0:0:100:LR4_ClapLRV.wav
448,192,91422,1,0,0:0:0:50:
64,192,91490,1,0,0:0:0:50:
192,192,91559,1,0,0:0:0:100:LR4_ClapLRV.wav
448,192,91559,1,0,0:0:0:50:
320,192,91627,1,0,0:0:0:50:
192,192,91695,1,0,0:0:0:100:LR4_ClapLRV.wav
64,192,91695,1,0,0:0:0:50:
320,192,91740,1,0,0:0:0:100:LR4_ClapLRV.wav
448,192,91786,1,0,0:0:0:100:LR4_ClapLRV.wav
192,192,91831,1,0,0:0:0:100:LR4_ClapLRV.wav
64,192,91831,1,0,0:0:0:50:
320,192,91900,1,0,0:0:0:100:LR4_ClapLRV.wav
448,192,91968,1,0,0:0:0:100:LR4_ClapLRV.wav
64,192,91968,1,0,0:0:0:50:
192,192,92036,1,0,0:0:0:50:
320,192,92104,1,0,0:0:0:100:LR4_ClapLRV.wav
448,192,92104,1,0,0:0:0:50:
64,192,92172,1,0,0:0:0:100:LR4_ClapLRV.wav
448,192,92240,1,0,0:0:0:100:LR4_ClapLRV.wav
192,192,92240,1,0,0:0:0:50:
448,192,92309,1,0,0:0:0:100:LR4_ClapLRV.wav
192,192,92377,1,0,0:0:0:100:LR4_ClapLRV.wav
64,192,92377,1,0,0:0:0:50:
320,192,92445,1,0,0:0:0:100:LR4_ClapLRV.wav
448,192,92513,1,0,0:0:0:100:LR4_ClapLRV.wav
64,192,92513,1,0,0:0:0:50:
192,192,92581,1,0,0:0:0:100:LR4_ClapLRV.wav
320,192,92650,1,0,0:0:0:100:LR4_ClapLRV.wav
448,192,92650,1,0,0:0:0:50:
64,192,92718,1,0,0:0:0:50:
192,192,92786,1,0,0:0:0:100:LR4_ClapLRV.wav
320,192,92786,1,0,0:0:0:70:LR4_SnareBPDT.wav
448,192,92786,1,0,0:0:0:50:
64,192,92854,1,0,0:0:0:70:LR_Kick Bass strong.wav
448,192,92922,1,0,0:0:0:100:LR4_ClapLRV.wav
320,192,92922,1,0,0:0:0:70:LR_Kick Bass strong.wav
192,192,92990,1,0,0:0:0:70:LR_Kick Bass strong.wav
448,192,93059,1,0,0:0:0:100:LR4_ClapLRV.wav
320,192,93059,1,0,0:0:0:70:LR4_SnareBPDT.wav
64,192,93059,1,0,0:0:0:50:
192,192,93127,1,0,0:0:0:70:LR_Kick Bass strong.wav
320,192,93195,1,0,0:0:0:70:LR_Kick Bass strong.wav
448,192,93195,1,0,0:0:0:100:LR4_ClapLRV.wav
64,192,93263,1,0,0:0:0:70:LR_Kick Bass strong.wav
448,192,93331,1,0,0:0:0:100:LR4_ClapLRV.wav
320,192,93331,1,0,0:0:0:70:LR4_SnareBPDT.wav
192,192,93331,1,0,0:0:0:50:
64,192,93400,1,0,0:0:0:70:LR_Kick Bass strong.wav
320,192,93468,1,0,0:0:0:70:LR_Kick Bass strong.wav
448,192,93468,1,0,0:0:0:100:LR4_ClapLRV.wav
192,192,93536,1,0,0:0:0:70:LR_Kick Bass strong.wav
320,192,93604,1,0,0:0:0:70:LR4_SnareBPDT.wav
448,192,93604,1,0,0:0:0:100:LR4_ClapLRV.wav
64,192,93604,1,0,0:0:0:50:
192,192,93672,1,0,0:0:0:70:LR_Kick Bass strong.wav
320,192,93740,1,0,0:0:0:70:LR_Kick Bass strong.wav
448,192,93740,1,0,0:0:0:100:LR4_ClapLRV.wav
64,192,93809,1,0,0:0:0:70:LR_Kick Bass strong.wav
320,192,93877,1,0,0:0:0:70:LR4_SnareBPDT.wav
448,192,93877,1,0,0:0:0:100:LR4_ClapLRV.wav
192,192,93877,1,0,0:0:0:50:
64,192,93945,1,0,0:0:0:70:LR_Kick Bass strong.wav
448,192,94013,1,0,0:0:0:100:LR4_ClapLRV.wav
320,192,94013,1,0,0:0:0:70:LR_Kick Bass strong.wav
192,192,94081,1,0,0:0:0:70:LR_Kick Bass strong.wav
448,192,94150,1,0,0:0:0:100:LR4_ClapLRV.wav
320,192,94150,1,0,0:0:0:70:LR4_SnareBPDT.wav
64,192,94150,1,0,0:0:0:50:
192,192,94218,1,0,0:0:0:70:LR_Kick Bass strong.wav
448,192,94286,1,0,0:0:0:100:LR4_ClapLRV.wav
320,192,94286,1,0,0:0:0:70:LR_Kick Bass strong.wav
64,192,94354,1,0,0:0:0:70:LR_Kick Bass strong.wav
448,192,94422,1,0,0:0:0:100:LR4_ClapLRV.wav
320,192,94422,1,0,0:0:0:70:LR4_SnareBPDT.wav
192,192,94422,1,0,0:0:0:50:
64,192,94490,1,0,0:0:0:70:LR_Kick Bass strong.wav
320,192,94559,1,0,0:0:0:70:LR_Kick Bass strong.wav
448,192,94559,1,0,0:0:0:100:LR4_ClapLRV.wav
192,192,94627,1,0,0:0:0:70:LR_Kick Bass strong.wav
320,192,94695,1,0,0:0:0:70:LR4_SnareBPDT.wav
448,192,94695,1,0,0:0:0:100:LR4_ClapLRV.wav
64,192,94695,1,0,0:0:0:50:
192,192,94763,1,0,0:0:0:70:LR_Kick Bass strong.wav
320,192,94831,1,0,0:0:0:70:LR_Kick Bass strong.wav
448,192,94831,1,0,0:0:0:100:LR4_ClapLRV.wav
64,192,94900,1,0,0:0:0:70:LR_Kick Bass strong.wav
320,192,94968,1,0,0:0:0:40:LR4_SnareBPDT.wav
448,192,94968,1,0,0:0:0:100:LR4_ClapLRV.wav
192,192,94968,1,0,0:0:0:50:
448,192,95036,1,0,0:0:0:100:LR4_ClapLRV.wav
320,192,95036,1,0,0:0:0:40:LR4_SnareBPDT.wav
192,192,95104,1,0,0:0:0:100:LR4_ClapLRV.wav
64,192,95104,1,0,0:0:0:40:LR4_SnareBPDT.wav
448,192,95172,1,0,0:0:0:100:LR4_ClapLRV.wav
320,192,95172,1,0,0:0:0:40:LR4_SnareBPDT.wav
192,192,95240,1,0,0:0:0:100:LR4_ClapLRV.wav
64,192,95240,1,0,0:0:0:40:LR4_SnareBPDT.wav
448,192,95309,1,0,0:0:0:100:LR4_ClapLRV.wav
320,192,95309,1,0,0:0:0:40:LR4_SnareBPDT.wav
192,192,95377,1,0,0:0:0:100:LR4_ClapLRV.wav
64,192,95377,1,0,0:0:0:40:LR4_SnareBPDT.wav
448,192,95445,1,0,0:0:0:100:LR4_ClapLRV.wav
320,192,95445,1,0,0:0:0:40:LR4_SnareBPDT.wav
192,192,95513,1,0,0:0:0:100:LR4_ClapLRV.wav
64,192,95513,1,0,0:0:0:40:LR4_SnareBPDT.wav
448,192,95581,1,0,0:0:0:100:LR4_ClapLRV.wav
320,192,95581,1,0,0:0:0:40:LR4_SnareBPDT.wav
192,192,95650,1,0,0:0:0:100:LR4_ClapLRV.wav
64,192,95650,1,0,0:0:0:40:LR4_SnareBPDT.wav
448,192,95718,1,0,0:0:0:100:LR4_ClapLRV.wav
320,192,95718,1,0,0:0:0:40:LR4_SnareBPDT.wav
192,192,95786,1,0,0:0:0:100:LR4_ClapLRV.wav
64,192,95786,1,0,0:0:0:40:LR4_SnareBPDT.wav
448,192,95854,1,0,0:0:0:100:LR4_ClapLRV.wav
320,192,95854,1,0,0:0:0:40:LR4_SnareBPDT.wav
192,192,95922,1,0,0:0:0:100:LR4_ClapLRV.wav
64,192,95922,1,0,0:0:0:40:LR4_SnareBPDT.wav
448,192,95990,1,0,0:0:0:100:LR4_ClapLRV.wav
320,192,95990,1,0,0:0:0:40:LR4_SnareBPDT.wav
448,192,96059,1,0,0:0:0:100:LR4_ClapLRV.wav
64,192,96059,128,0,96127:0:0:0:40:LR4_SnareBPDT.wav
192,192,96059,128,0,96127:0:0:0:50:
64,192,96195,128,0,96263:0:0:0:50:
192,192,96195,128,0,96263:0:0:0:50:
64,192,96468,128,0,96536:0:0:0:50:
192,192,96468,128,0,96536:0:0:0:50:
192,192,96604,128,0,96672:0:0:0:50:
64,192,96604,128,0,96672:0:0:0:50:
64,192,96740,128,0,96809:0:0:0:50:
448,192,96740,128,0,96809:0:0:0:50:
320,192,96740,128,0,96775:0:0:0:50:
448,192,96877,128,0,96945:0:0:0:50:
192,192,96877,128,0,96945:0:0:0:50:
320,192,96877,128,0,96911:0:0:0:50:
320,192,97150,1,0,0:0:0:70:LR_Kick Bass strong.wav
448,192,97150,1,0,0:0:0:50:
64,192,97150,1,0,0:0:0:50:
192,192,97218,1,0,0:0:0:50:
320,192,97286,1,0,0:0:0:50:
448,192,97286,1,0,0:0:0:50:
64,192,97354,1,0,0:0:0:50:
192,192,97422,1,0,0:0:0:50:
448,192,97422,1,0,0:0:0:50:
320,192,97490,1,0,0:0:0:50:
192,192,97559,1,0,0:0:0:70:LR_Kick Bass strong.wav
64,192,97559,1,0,0:0:0:50:
448,192,97627,1,0,0:0:0:50:
320,192,97695,1,0,0:0:0:50:
64,192,97695,1,0,0:0:0:50:
192,192,97763,1,0,0:0:0:50:
320,192,97831,1,0,0:0:0:70:LR_Kick Bass strong.wav
448,192,97831,1,0,0:0:0:50:
64,192,97900,1,0,0:0:0:50:
320,192,97968,1,0,0:0:0:70:LR4_SnareBPDT.wav
192,192,97968,1,0,0:0:0:50:
448,192,98036,1,0,0:0:0:50:
192,192,98104,1,0,0:0:0:70:LR_Kick Bass strong.wav
64,192,98104,1,0,0:0:0:50:
64,192,98172,1,0,0:0:0:50:
320,192,98172,1,0,0:0:0:50:
448,192,98240,1,0,0:0:0:50:
192,192,98240,1,0,0:0:0:50:
320,192,98286,1,0,0:0:0:50:
448,192,98331,1,0,0:0:0:50:
192,192,98377,1,0,0:0:0:50:
320,192,98422,1,0,0:0:0:50:
64,192,98468,1,0,0:0:0:50:
192,192,98513,1,0,0:0:0:70:LR_Kick Bass strong.wav
448,192,98513,1,0,0:0:0:50:
320,192,98559,1,0,0:0:0:50:
64,192,98604,1,0,0:0:0:50:
192,192,98650,1,0,0:0:0:50:
448,192,98695,1,0,0:0:0:50:
320,192,98740,1,0,0:0:0:50:
192,192,98786,1,0,0:0:0:50:
64,192,98831,1,0,0:0:0:50:
448,192,98877,1,0,0:0:0:50:
192,192,98922,1,0,0:0:0:70:LR_Kick Bass strong.wav
320,192,98922,1,0,0:0:0:50:
64,192,98968,1,0,0:0:0:50:
448,192,99013,1,0,0:0:0:50:
320,192,99059,1,0,0:0:0:70:LR4_SnareBPDT.wav
192,192,99059,1,0,0:0:0:50:
64,192,99127,1,0,0:0:0:50:
192,192,99195,1,0,0:0:0:50:
448,192,99195,1,0,0:0:0:50:
320,192,99263,1,0,0:0:0:50:
192,192,99331,1,0,0:0:0:70:LR_Kick Bass strong.wav
448,192,99331,1,0,0:0:0:50:
64,192,99331,1,0,0:0:0:50:
320,192,99400,1,0,0:0:0:50:
448,192,99468,1,0,0:0:0:50:
64,192,99468,1,0,0:0:0:50:
192,192,99536,1,0,0:0:0:50:
320,192,99604,1,0,0:0:0:50:
64,192,99604,128,0,99877:0:0:0:50:
192,192,99672,1,0,0:0:0:50:
448,192,99740,1,0,0:0:0:70:LR_Kick Bass strong.wav
320,192,99809,1,0,0:0:0:70:LR_Kick Bass strong.wav
192,192,99809,1,0,0:0:0:50:
448,192,99877,1,0,0:0:0:70:LR_Kick Bass strong.wav
320,192,99877,1,0,0:0:0:50:
192,192,99945,1,0,0:0:0:50:
64,192,99945,1,0,0:0:0:50:
448,192,100013,1,0,0:0:0:70:LR_Kick Bass strong.wav
320,192,100013,1,0,0:0:0:50:
192,192,100081,1,0,0:0:0:50:
320,192,100150,1,0,0:0:0:70:LR4_SnareBPDT.wav
192,192,100218,1,0,0:0:0:50:
64,192,100218,1,0,0:0:0:50:
448,192,100286,1,0,0:0:0:70:LR_Kick Bass strong.wav
320,192,100286,1,0,0:0:0:50:
192,192,100354,1,0,0:0:0:50:
64,192,100354,1,0,0:0:0:50:
448,192,100422,1,0,0:0:0:50:
320,192,100422,1,0,0:0:0:50:
64,192,100490,1,0,0:0:0:50:
192,192,100559,1,0,0:0:0:50:
320,192,100627,1,0,0:0:0:50:
448,192,100627,1,0,0:0:0:50:
192,192,100695,1,0,0:0:0:70:LR_Kick Bass strong.wav
64,192,100695,1,0,0:0:0:50:
448,192,100763,1,0,0:0:0:50:
320,192,100763,1,0,0:0:0:50:
192,192,100831,1,0,0:0:0:50:
64,192,100831,1,0,0:0:0:50:
320,192,100900,1,0,0:0:0:70:LR_Kick Bass strong.wav
448,192,100900,1,0,0:0:0:50:
448,192,100968,1,0,0:0:0:70:LR_Kick Bass strong.wav
64,192,100968,1,0,0:0:0:50:
192,192,101036,1,0,0:0:0:50:
448,192,101104,1,0,0:0:0:70:LR_Kick Bass strong.wav
320,192,101104,1,0,0:0:0:50:
64,192,101172,1,0,0:0:0:50:
320,192,101240,1,0,0:0:0:70:LR4_SnareBPDT.wav
192,192,101240,1,0,0:0:0:50:
448,192,101240,1,0,0:0:0:50:
64,192,101309,1,0,0:0:0:50:
192,192,101377,1,0,0:0:0:50:
320,192,101445,1,0,0:0:0:50:
448,192,101513,1,0,0:0:0:70:LR_Kick Bass strong.wav
64,192,101513,1,0,0:0:0:50:
192,192,101513,1,0,0:0:0:50:
320,192,101581,1,0,0:0:0:50:
192,192,101650,128,0,101718:0:0:0:50:
64,192,101650,128,0,101718:0:0:0:50:
320,192,101718,128,0,101786:0:0:0:50:
448,192,101786,128,0,101854:0:0:0:50:
64,192,101786,128,0,101854:0:0:0:50:
192,192,101854,128,0,101922:0:0:0:50:
320,192,101922,128,0,101990:0:0:0:70:LR_Kick Bass strong.wav
448,192,101922,128,0,101990:0:0:0:50:
64,192,101990,128,0,102059:0:0:0:50:
192,192,102059,128,0,102127:0:0:0:50:
448,192,102059,128,0,102127:0:0:0:50:
320,192,102127,128,0,102195:0:0:0:50:
192,192,102195,128,0,102263:0:0:0:70:LR_Kick Bass strong.wav
64,192,102263,128,0,102331:0:0:0:50:
320,192,102331,128,0,102400:0:0:0:70:LR4_SnareBPDT.wav
448,192,102331,128,0,102400:0:0:0:50:
192,192,102400,128,0,102468:0:0:0:50:
64,192,102468,128,0,102536:0:0:0:70:LR_Kick Bass strong.wav
448,192,102468,128,0,102536:0:0:0:50:
320,192,102536,128,0,102604:0:0:0:50:
192,192,102604,128,0,102672:0:0:0:50:
64,192,102604,128,0,102672:0:0:0:50:
448,192,102672,128,0,102740:0:0:0:50:
320,192,102740,128,0,102809:0:0:0:50:
64,192,102740,128,0,102809:0:0:0:50:
192,192,102809,128,0,102877:0:0:0:50:
320,192,102877,128,0,102945:0:0:0:70:LR_Kick Bass strong.wav
64,192,102945,128,0,103013:0:0:0:50:
192,192,103013,128,0,103081:0:0:0:50:
448,192,103013,128,0,103081:0:0:0:50:
320,192,103081,128,0,103150:0:0:0:50:
192,192,103150,128,0,103218:0:0:0:50:
64,192,103150,128,0,103218:0:0:0:50:
448,192,103218,128,0,103286:0:0:0:50:
64,192,103286,128,0,103354:0:0:0:70:LR_Kick Bass strong.wav
320,192,103286,128,0,103354:0:0:0:50:
192,192,103354,128,0,103422:0:0:0:50:
320,192,103422,128,0,103490:0:0:0:70:LR4_SnareBPDT.wav
448,192,103422,128,0,103490:0:0:0:50:
64,192,103490,128,0,103559:0:0:0:50:
192,192,103559,128,0,103627:0:0:0:50:
320,192,103559,128,0,103627:0:0:0:50:
448,192,103627,128,0,103695:0:0:0:50:
192,192,103695,128,0,103763:0:0:0:70:LR_Kick Bass strong.wav
320,192,103763,128,0,103831:0:0:0:50:
448,192,103831,128,0,103900:0:0:0:50:
64,192,103831,128,0,103900:0:0:0:50:
192,192,103900,128,0,103968:0:0:0:50:
448,192,103968,128,0,104036:0:0:0:50:
320,192,103968,128,0,104036:0:0:0:50:
64,192,104036,128,0,104104:0:0:0:50:
192,192,104104,128,0,104172:0:0:0:70:LR_Kick Bass strong.wav
448,192,104104,128,0,104172:0:0:0:50:
320,192,104172,128,0,104240:0:0:0:70:LR_Kick Bass strong.wav
192,192,104240,128,0,104309:0:0:0:70:LR_Kick Bass strong.wav
64,192,104240,128,0,104309:0:0:0:50:
448,192,104309,128,0,104377:0:0:0:50:
320,192,104377,128,0,104445:0:0:0:70:LR_Kick Bass strong.wav
192,192,104445,128,0,104513:0:0:0:50:
320,192,104513,128,0,104581:0:0:0:70:LR4_SnareBPDT.wav
448,192,104513,128,0,104581:0:0:0:50:
64,192,104581,128,0,104650:0:0:0:50:
192,192,104650,128,0,104718:0:0:0:70:LR_Kick Bass strong.wav
448,192,104650,128,0,104718:0:0:0:50:
320,192,104718,128,0,104786:0:0:0:50:
64,192,104786,128,0,104854:0:0:0:50:
192,192,104786,128,0,104854:0:0:0:50:
448,192,104854,128,0,104922:0:0:0:50:
320,192,104922,128,0,104990:0:0:0:50:
64,192,104922,128,0,104990:0:0:0:50:
192,192,104990,128,0,105059:0:0:0:50:
320,192,105059,128,0,105127:0:0:0:70:LR_Kick Bass strong.wav
448,192,105127,128,0,105195:0:0:0:50:
64,192,105195,128,0,105263:0:0:0:50:
192,192,105195,128,0,105263:0:0:0:50:
320,192,105263,128,0,105331:0:0:0:70:LR_Kick Bass strong.wav
448,192,105331,128,0,105400:0:0:0:70:LR_Kick Bass strong.wav
64,192,105331,128,0,105604:0:0:0:50:
192,192,105400,128,0,105604:0:0:0:50:
320,192,105468,1,0,0:0:0:70:LR_Kick Bass strong.wav
448,192,105536,1,0,0:0:0:50:
320,192,105604,1,0,0:0:0:70:LR4_SnareBPDT.wav
192,192,105672,1,0,0:0:0:50:
64,192,105740,1,0,0:0:0:50:
448,192,105740,1,0,0:0:0:50:
320,192,105786,1,0,0:0:0:50:
192,192,105831,1,0,0:0:0:50:
448,192,105877,1,0,0:0:0:70:LR_Kick Bass strong.wav
64,192,105877,1,0,0:0:0:50:
320,192,105945,1,0,0:0:0:50:
192,192,106013,1,0,0:0:0:50:
448,192,106081,1,0,0:0:0:50:
320,192,106150,1,0,0:0:0:50:
64,192,106150,1,0,0:0:0:50:
192,192,106218,1,0,0:0:0:50:
320,192,106286,1,0,0:0:0:70:LR_Kick Bass strong.wav
448,192,106286,1,0,0:0:0:50:
64,192,106354,1,0,0:0:0:50:
192,192,106422,1,0,0:0:0:50:
448,192,106422,1,0,0:0:0:50:
320,192,106490,1,0,0:0:0:50:
192,192,106559,1,0,0:0:0:70:LR_Kick Bass strong.wav
64,192,106559,1,0,0:0:0:50:
448,192,106627,1,0,0:0:0:50:
320,192,106695,1,0,0:0:0:70:LR4_SnareBPDT.wav
192,192,106695,1,0,0:0:0:50:
64,192,106763,1,0,0:0:0:50:
320,192,106831,1,0,0:0:0:50:
448,192,106831,1,0,0:0:0:50:
448,192,106900,1,0,0:0:0:50:
192,192,106900,1,0,0:0:0:50:
64,192,106968,1,0,0:0:0:50:
320,192,106968,1,0,0:0:0:50:
192,192,107013,1,0,0:0:0:50:
64,192,107059,1,0,0:0:0:50:
320,192,107104,1,0,0:0:0:50:
192,192,107150,1,0,0:0:0:50:
448,192,107195,1,0,0:0:0:50:
320,192,107240,1,0,0:0:0:70:LR_Kick Bass strong.wav
64,192,107240,1,0,0:0:0:50:
192,192,107286,1,0,0:0:0:50:
448,192,107331,1,0,0:0:0:50:
320,192,107377,1,0,0:0:0:50:
64,192,107422,1,0,0:0:0:50:
192,192,107468,1,0,0:0:0:50:
320,192,107513,1,0,0:0:0:50:
448,192,107559,1,0,0:0:0:50:
64,192,107604,1,0,0:0:0:50:
320,192,107650,1,0,0:0:0:70:LR_Kick Bass strong.wav
192,192,107650,1,0,0:0:0:50:
448,192,107695,1,0,0:0:0:50:
64,192,107740,1,0,0:0:0:50:
320,192,107786,1,0,0:0:0:70:LR4_SnareBPDT.wav
192,192,107786,1,0,0:0:0:50:
448,192,107854,1,0,0:0:0:50:
320,192,107922,1,0,0:0:0:50:
64,192,107922,1,0,0:0:0:50:
192,192,107990,1,0,0:0:0:50:
320,192,108059,1,0,0:0:0:70:LR_Kick Bass strong.wav
64,192,108059,1,0,0:0:0:50:
448,192,108059,1,0,0:0:0:50:
192,192,108127,1,0,0:0:0:50:
320,192,108195,1,0,0:0:0:50:
448,192,108195,1,0,0:0:0:50:
64,192,108263,1,0,0:0:0:50:
192,192,108331,1,0,0:0:0:50:
448,192,108331,128,0,108604:0:0:0:50:
320,192,108400,1,0,0:0:0:50:
64,192,108468,1,0,0:0:0:70:LR_Kick Bass strong.wav
192,192,108536,1,0,0:0:0:70:LR_Kick Bass strong.wav
320,192,108536,1,0,0:0:0:50:
192,192,108604,1,0,0:0:0:70:LR_Kick Bass strong.wav
64,192,108604,1,0,0:0:0:50:
320,192,108672,1,0,0:0:0:50:
448,192,108672,1,0,0:0:0:50:
64,192,108740,1,0,0:0:0:50:
192,192,108740,1,0,0:0:0:50:
320,192,108809,1,0,0:0:0:50:
192,192,108877,1,0,0:0:0:70:LR4_SnareBPDT.wav
320,192,108945,1,0,0:0:0:50:
192,192,109013,1,0,0:0:0:70:LR_Kick Bass strong.wav
64,192,109013,1,0,0:0:0:50:
320,192,109081,1,0,0:0:0:50:
448,192,109081,1,0,0:0:0:50:
64,192,109150,1,0,0:0:0:50:
192,192,109150,1,0,0:0:0:50:
448,192,109218,1,0,0:0:0:50:
320,192,109286,1,0,0:0:0:50:
192,192,109354,1,0,0:0:0:50:
64,192,109354,1,0,0:0:0:50:
320,192,109422,1,0,0:0:0:70:LR_Kick Bass strong.wav
448,192,109422,1,0,0:0:0:50:
64,192,109490,1,0,0:0:0:50:
192,192,109490,1,0,0:0:0:50:
320,192,109559,1,0,0:0:0:50:
448,192,109559,1,0,0:0:0:50:
192,192,109627,1,0,0:0:0:70:LR_Kick Bass strong.wav
64,192,109627,1,0,0:0:0:50:
64,192,109695,1,0,0:0:0:70:LR_Kick Bass strong.wav
448,192,109695,1,0,0:0:0:50:
320,192,109763,1,0,0:0:0:50:
192,192,109831,1,0,0:0:0:70:LR_Kick Bass strong.wav
64,192,109831,1,0,0:0:0:50:
448,192,109900,1,0,0:0:0:50:
320,192,109968,1,0,0:0:0:70:LR4_SnareBPDT.wav
64,192,109968,1,0,0:0:0:50:
192,192,109968,1,0,0:0:0:50:
448,192,110036,1,0,0:0:0:50:
320,192,110104,1,0,0:0:0:50:
192,192,110172,1,0,0:0:0:50:
448,192,110240,1,0,0:0:0:70:LR_Kick Bass strong.wav
320,192,110240,1,0,0:0:0:50:
64,192,110240,1,0,0:0:0:50:
192,192,110309,1,0,0:0:0:50:
448,192,110377,1,0,0:0:0:50:
320,192,110377,1,0,0:0:0:50:
64,192,110445,1,0,0:0:0:50:
320,192,110513,1,0,0:0:0:70:LR_Kick Bass strong.wav
192,192,110513,1,0,0:0:0:50:
448,192,110581,1,0,0:0:0:50:
64,192,110650,1,0,0:0:0:50:
192,192,110650,1,0,0:0:0:50:
320,192,110718,1,0,0:0:0:50:
192,192,110786,1,0,0:0:0:70:LR_Kick Bass strong.wav
448,192,110786,1,0,0:0:0:50:
64,192,110854,1,0,0:0:0:50:
320,192,110922,1,0,0:0:0:50:
448,192,110922,1,0,0:0:0:50:
192,192,110990,1,0,0:0:0:50:
64,192,111059,1,0,0:0:0:70:LR_Kick Bass strong.wav
448,192,111059,1,0,0:0:0:50:
320,192,111127,1,0,0:0:0:50:
192,192,111195,1,0,0:0:0:50:
64,192,111195,1,0,0:0:0:50:
448,192,111263,1,0,0:0:0:50:
64,192,111331,1,0,0:0:0:70:LR_Kick Bass strong.wav
320,192,111331,1,0,0:0:0:50:
192,192,111400,1,0,0:0:0:50:
448,192,111468,1,0,0:0:0:50:
320,192,111468,1,0,0:0:0:50:
64,192,111536,1,0,0:0:0:50:
192,192,111604,1,0,0:0:0:70:LR_Kick Bass strong.wav
320,192,111604,1,0,0:0:0:50:
448,192,111672,1,0,0:0:0:50:
192,192,111740,1,0,0:0:0:50:
64,192,111740,1,0,0:0:0:50:
320,192,111809,1,0,0:0:0:50:
448,192,111877,1,0,0:0:0:70:LR_Kick Bass strong.wav
64,192,111877,1,0,0:0:0:50:
192,192,111945,1,0,0:0:0:50:
320,192,112013,1,0,0:0:0:50:
448,192,112013,1,0,0:0:0:50:
64,192,112081,1,0,0:0:0:50:
320,192,112150,1,0,0:0:0:70:LR_Kick Bass strong.wav
192,192,112150,1,0,0:0:0:50:
448,192,112218,1,0,0:0:0:50:
192,192,112286,1,0,0:0:0:50:
64,192,112286,1,0,0:0:0:50:
320,192,112354,1,0,0:0:0:50:
64,192,112422,1,0,0:0:0:70:LR_Kick Bass strong.wav
448,192,112422,1,0,0:0:0:50:
192,192,112422,1,0,0:0:0:50:
320,192,112490,1,0,0:0:0:70:LR_Kick Bass strong.wav
192,192,112559,1,0,0:0:0:70:LR_Kick Bass strong.wav
64,192,112559,1,0,0:0:0:50:
448,192,112627,1,0,0:0:0:70:LR_Kick Bass strong.wav
192,192,112695,1,0,0:0:0:70:LR_Kick Bass strong.wav
64,192,112695,1,0,0:0:0:50:
320,192,112763,1,0,0:0:0:70:LR_Kick Bass strong.wav
192,192,112831,1,0,0:0:0:70:LR_Kick Bass strong.wav
64,192,112831,1,0,0:0:0:50:
448,192,112900,1,0,0:0:0:70:LR_Kick Bass strong.wav
192,192,112968,1,0,0:0:0:70:LR_Kick Bass strong.wav
64,192,112968,1,0,0:0:0:50:
320,192,113036,1,0,0:0:0:70:LR_Kick Bass strong.wav
448,192,113036,1,0,0:0:0:50:
192,192,113104,1,0,0:0:0:70:LR_Kick Bass strong.wav
64,192,113104,1,0,0:0:0:50:
320,192,113172,1,0,0:0:0:70:LR_Kick Bass strong.wav
448,192,113172,1,0,0:0:0:50:
192,192,113240,1,0,0:0:0:70:LR_Kick Bass strong.wav
64,192,113240,1,0,0:0:0:50:
320,192,113309,1,0,0:0:0:70:LR_Kick Bass strong.wav
448,192,113309,1,0,0:0:0:50:
192,192,113377,1,0,0:0:0:70:LR_Kick Bass strong.wav
64,192,113377,1,0,0:0:0:50:
320,192,113445,1,0,0:0:0:70:LR_Kick Bass strong.wav
448,192,113445,1,0,0:0:0:50:
192,192,113513,1,0,0:0:0:70:LR_Kick Bass strong.wav
64,192,113513,1,0,0:0:0:50:
320,192,113581,1,0,0:0:0:70:LR_Kick Bass strong.wav
448,192,113581,1,0,0:0:0:50:
192,192,113650,1,0,0:0:0:70:LR_Kick Bass strong.wav
64,192,113650,1,0,0:0:0:50:
320,192,113718,1,0,0:0:0:70:LR_Kick Bass strong.wav
448,192,113718,1,0,0:0:0:0:
192,192,113786,1,0,0:0:0:70:LR_Kick Bass strong.wav
64,192,113786,1,0,0:0:0:50:
320,192,113854,1,0,0:0:0:70:LR_Kick Bass strong.wav
448,192,113854,1,0,0:0:0:50:
192,192,113922,1,0,0:0:0:70:LR_Kick Bass strong.wav
64,192,113922,1,0,0:0:0:50:
320,192,113990,1,0,0:0:0:70:LR_Kick Bass strong.wav
448,192,113990,1,0,0:0:0:50:
192,192,114059,1,0,0:0:0:70:LR_Kick Bass strong.wav
64,192,114059,1,0,0:0:0:50:
320,192,114127,1,0,0:0:0:70:LR_Kick Bass strong.wav
448,192,114127,1,0,0:0:0:50:
192,192,114195,1,0,0:0:0:70:LR_Kick Bass strong.wav
64,192,114195,1,0,0:0:0:50:
320,192,114263,1,0,0:0:0:70:LR_Kick Bass strong.wav
448,192,114263,1,0,0:0:0:50:
192,192,114331,1,0,0:0:0:70:LR_Kick Bass strong.wav
320,192,114331,1,0,0:0:0:70:LR4_SnareBPDT.wav
64,192,114331,1,0,0:0:0:50:
448,192,114331,1,0,0:0:0:50:
448,192,114468,1,0,0:0:0:50:
64,192,114468,1,0,0:0:0:50:
192,192,114604,1,0,0:0:0:70:LR_CymbalSSF.wav
448,192,114604,1,0,0:0:0:50:
320,192,114604,1,0,0:0:0:50:
64,192,114604,1,0,0:0:0:50:
320,192,114740,1,0,0:0:0:50:
192,192,114877,1,0,0:0:0:50:
448,192,115013,1,0,0:0:0:70:LR_Kick Bass strong.wav
192,192,115013,1,0,0:0:0:50:
64,192,115013,1,0,0:0:0:50:
448,192,115150,1,0,0:0:0:50:
320,192,115218,1,0,0:0:0:50:
448,192,115286,1,0,0:0:0:70:LR_Kick Bass strong.wav
192,192,115286,1,0,0:0:0:50:
448,192,115422,1,0,0:0:0:70:LR4_SnareBPDT.wav
64,192,115422,1,0,0:0:0:50:
320,192,115422,1,0,0:0:0:50:
320,192,115559,1,0,0:0:0:70:LR_Kick Bass strong.wav
192,192,115559,1,0,0:0:0:50:
192,192,115627,1,0,0:0:0:50:
64,192,115695,1,0,0:0:0:50:
448,192,115695,1,0,0:0:0:50:
320,192,115740,1,0,0:0:0:50:
192,192,115786,1,0,0:0:0:50:
448,192,115831,1,0,0:0:0:50:
320,192,115877,1,0,0:0:0:50:
192,192,115922,1,0,0:0:0:50:
448,192,115968,1,0,0:0:0:70:LR_Kick Bass strong.wav
64,192,115968,1,0,0:0:0:50:
320,192,116013,1,0,0:0:0:50:
192,192,116059,1,0,0:0:0:50:
448,192,116104,1,0,0:0:0:50:
320,192,116150,1,0,0:0:0:50:
64,192,116195,1,0,0:0:0:50:
448,192,116240,1,0,0:0:0:50:
320,192,116286,1,0,0:0:0:50:
192,192,116331,1,0,0:0:0:50:
448,192,116377,1,0,0:0:0:70:LR_Kick Bass strong.wav
64,192,116377,1,0,0:0:0:50:
320,192,116422,1,0,0:0:0:50:
192,192,116468,1,0,0:0:0:50:
448,192,116513,1,0,0:0:0:70:LR4_SnareBPDT.wav
64,192,116513,1,0,0:0:0:50:
320,192,116581,1,0,0:0:0:50:
192,192,116581,1,0,0:0:0:50:
448,192,116650,1,0,0:0:0:50:
64,192,116650,1,0,0:0:0:50:
192,192,116718,1,0,0:0:0:50:
448,192,116786,1,0,0:0:0:70:LR_Kick Bass strong.wav
64,192,116786,1,0,0:0:0:50:
320,192,116786,1,0,0:0:0:50:
192,192,116854,1,0,0:0:0:50:
64,192,116922,1,0,0:0:0:50:
320,192,116922,1,0,0:0:0:50:
448,192,116990,1,0,0:0:0:50:
192,192,116990,1,0,0:0:0:50:
64,192,117059,1,0,0:0:0:50:
320,192,117059,1,0,0:0:0:50:
448,192,117127,1,0,0:0:0:50:
192,192,117195,1,0,0:0:0:70:LR_Kick Bass strong.wav
64,192,117195,1,0,0:0:0:50:
320,192,117263,1,0,0:0:0:70:LR_Kick Bass strong.wav
448,192,117263,1,0,0:0:0:50:
192,192,117331,1,0,0:0:0:70:LR_Kick Bass strong.wav
64,192,117331,1,0,0:0:0:50:
448,192,117331,1,0,0:0:0:50:
320,192,117400,1,0,0:0:0:50:
192,192,117468,1,0,0:0:0:70:LR_Kick Bass strong.wav
64,192,117468,1,0,0:0:0:50:
448,192,117536,1,0,0:0:0:50:
320,192,117604,1,0,0:0:0:70:LR4_SnareBPDT.wav
192,192,117604,1,0,0:0:0:50:
64,192,117672,1,0,0:0:0:50:
320,192,117740,1,0,0:0:0:70:LR_Kick Bass strong.wav
448,192,117740,1,0,0:0:0:50:
192,192,117809,1,0,0:0:0:50:
448,192,117877,1,0,0:0:0:50:
64,192,117877,1,0,0:0:0:50:
320,192,117945,1,0,0:0:0:50:
192,192,118013,1,0,0:0:0:50:
64,192,118013,1,0,0:0:0:50:
320,192,118081,1,0,0:0:0:50:
192,192,118150,1,0,0:0:0:70:LR_Kick Bass strong.wav
64,192,118150,1,0,0:0:0:50:
448,192,118150,1,0,0:0:0:50:
320,192,118218,1,0,0:0:0:50:
192,192,118286,1,0,0:0:0:50:
64,192,118286,1,0,0:0:0:50:
448,192,118354,1,0,0:0:0:70:LR_Kick Bass strong.wav
320,192,118354,1,0,0:0:0:50:
448,192,118422,1,0,0:0:0:70:LR_Kick Bass strong.wav
192,192,118422,1,0,0:0:0:50:
64,192,118422,1,0,0:0:0:50:
320,192,118490,1,0,0:0:0:50:
448,192,118559,1,0,0:0:0:70:LR_Kick Bass strong.wav
192,192,118559,1,0,0:0:0:50:
64,192,118627,1,0,0:0:0:50:
320,192,118695,1,0,0:0:0:70:LR4_SnareBPDT.wav
448,192,118695,1,0,0:0:0:50:
192,192,118695,1,0,0:0:0:50:
64,192,118763,1,0,0:0:0:50:
320,192,118831,1,0,0:0:0:50:
192,192,118900,1,0,0:0:0:50:
448,192,118968,1,0,0:0:0:70:LR_Kick Bass strong.wav
320,192,118968,1,0,0:0:0:50:
64,192,118968,1,0,0:0:0:50:
192,192,119036,1,0,0:0:0:50:
64,192,119104,1,0,0:0:0:100:LR4_ClapLRV.wav
448,192,119104,1,0,0:0:0:50:
320,192,119172,1,0,0:0:0:50:
64,192,119240,1,0,0:0:0:100:LR4_ClapLRV.wav
448,192,119240,1,0,0:0:0:50:
192,192,119309,1,0,0:0:0:50:
64,192,119377,1,0,0:0:0:100:LR4_ClapLRV.wav
448,192,119377,1,0,0:0:0:70:LR_Kick Bass strong.wav
320,192,119445,1,0,0:0:0:50:
64,192,119513,1,0,0:0:0:100:LR4_ClapLRV.wav
448,192,119513,1,0,0:0:0:50:
192,192,119581,1,0,0:0:0:50:
64,192,119650,1,0,0:0:0:70:LR_Kick Bass strong.wav
192,192,119718,1,0,0:0:0:50:
64,192,119786,1,0,0:0:0:100:LR4_ClapLRV.wav
448,192,119786,1,0,0:0:0:70:LR4_SnareBPDT.wav
320,192,119786,1,0,0:0:0:50:
320,192,119854,1,0,0:0:0:50:
448,192,119922,1,0,0:0:0:70:LR_Kick Bass strong.wav
64,192,119922,1,0,0:0:0:100:LR4_ClapLRV.wav
192,192,119990,1,0,0:0:0:50:
64,192,120059,1,0,0:0:0:100:LR4_ClapLRV.wav
448,192,120059,1,0,0:0:0:50:
320,192,120127,1,0,0:0:0:50:
64,192,120195,1,0,0:0:0:100:LR4_ClapLRV.wav
448,192,120195,1,0,0:0:0:50:
192,192,120263,1,0,0:0:0:50:
64,192,120331,1,0,0:0:0:70:LR_Kick Bass strong.wav
192,192,120400,1,0,0:0:0:50:
64,192,120468,1,0,0:0:0:100:LR4_ClapLRV.wav
448,192,120468,1,0,0:0:0:50:
320,192,120536,1,0,0:0:0:50:
64,192,120604,1,0,0:0:0:100:LR4_ClapLRV.wav
448,192,120604,1,0,0:0:0:50:
192,192,120672,1,0,0:0:0:50:
64,192,120740,1,0,0:0:0:100:LR4_ClapLRV.wav
448,192,120740,1,0,0:0:0:70:LR_Kick Bass strong.wav
320,192,120809,1,0,0:0:0:50:
448,192,120877,1,0,0:0:0:70:LR4_SnareBPDT.wav
64,192,120877,1,0,0:0:0:100:LR4_ClapLRV.wav
192,192,120877,1,0,0:0:0:50:
192,192,120945,1,0,0:0:0:50:
64,192,121013,1,0,0:0:0:100:LR4_ClapLRV.wav
448,192,121013,1,0,0:0:0:50:
320,192,121081,1,0,0:0:0:50:
448,192,121150,1,0,0:0:0:70:LR_Kick Bass strong.wav
192,192,121150,1,0,0:0:0:50:
320,192,121218,1,0,0:0:0:50:
64,192,121286,1,0,0:0:0:100:LR4_ClapLRV.wav
448,192,121286,1,0,0:0:0:50:
192,192,121354,1,0,0:0:0:50:
64,192,121422,1,0,0:0:0:100:LR4_ClapLRV.wav
448,192,121422,1,0,0:0:0:50:
320,192,121490,1,0,0:0:0:50:
448,192,121559,1,0,0:0:0:70:LR_Kick Bass strong.wav
64,192,121559,1,0,0:0:0:100:LR4_ClapLRV.wav
320,192,121627,1,0,0:0:0:70:LR_Kick Bass strong.wav
64,192,121695,1,0,0:0:0:100:LR4_ClapLRV.wav
448,192,121695,1,0,0:0:0:70:LR_Kick Bass strong.wav
192,192,121695,1,0,0:0:0:50:
320,192,121763,1,0,0:0:0:50:
448,192,121831,1,0,0:0:0:70:LR_Kick Bass strong.wav
320,192,121900,1,0,0:0:0:50:
64,192,121968,1,0,0:0:0:100:LR4_ClapLRV.wav
448,192,121968,1,0,0:0:0:70:LR4_SnareBPDT.wav
192,192,121968,1,0,0:0:0:50:
192,192,122036,1,0,0:0:0:50:
64,192,122104,1,0,0:0:0:100:LR4_ClapLRV.wav
448,192,122104,1,0,0:0:0:70:LR_Kick Bass strong.wav
320,192,122172,1,0,0:0:0:50:
64,192,122240,1,0,0:0:0:100:LR4_ClapLRV.wav
448,192,122240,1,0,0:0:0:50:
192,192,122309,1,0,0:0:0:50:
64,192,122377,1,0,0:0:0:100:LR4_ClapLRV.wav
448,192,122377,1,0,0:0:0:50:
320,192,122445,1,0,0:0:0:50:
448,192,122513,1,0,0:0:0:70:LR_Kick Bass strong.wav
320,192,122581,1,0,0:0:0:50:
64,192,122650,1,0,0:0:0:100:LR4_ClapLRV.wav
448,192,122650,1,0,0:0:0:50:
320,192,122718,1,0,0:0:0:70:LR_Kick Bass strong.wav
64,192,122786,1,0,0:0:0:100:LR4_ClapLRV.wav
448,192,122786,1,0,0:0:0:70:LR_Kick Bass strong.wav
192,192,122786,1,0,0:0:0:50:
320,192,122854,1,0,0:0:0:50:
192,192,122922,1,0,0:0:0:70:LR_Kick Bass strong.wav
64,192,122990,1,0,0:0:0:50:
320,192,123059,1,0,0:0:0:70:LR4_SnareBPDT.wav
448,192,123059,1,0,0:0:0:50:
192,192,123127,1,0,0:0:0:50:
448,192,123195,1,0,0:0:0:100:LR4_ClapLRV.wav
320,192,123195,1,0,0:0:0:50:
64,192,123263,1,0,0:0:0:50:
192,192,123331,1,0,0:0:0:70:LR_Kick Bass strong.wav
448,192,123331,1,0,0:0:0:100:LR4_ClapLRV.wav
320,192,123331,1,0,0:0:0:50:
64,192,123400,1,0,0:0:0:50:
448,192,123468,1,0,0:0:0:100:LR4_ClapLRV.wav
192,192,123468,1,0,0:0:0:50:
320,192,123536,1,0,0:0:0:50:
192,192,123604,1,0,0:0:0:100:LR4_ClapLRV.wav
64,192,123604,1,0,0:0:0:50:
448,192,123672,1,0,0:0:0:50:
320,192,123740,1,0,0:0:0:100:LR4_ClapLRV.wav
64,192,123740,1,0,0:0:0:70:LR_Kick Bass strong.wav
192,192,123809,1,0,0:0:0:50:
320,192,123877,1,0,0:0:0:100:LR4_ClapLRV.wav
64,192,123877,1,0,0:0:0:70:LR_Kick Bass strong.wav
448,192,123877,1,0,0:0:0:50:
192,192,123945,1,0,0:0:0:50:
448,192,124013,1,0,0:0:0:100:LR4_ClapLRV.wav
64,192,124013,1,0,0:0:0:50:
320,192,124081,1,0,0:0:0:50:
64,192,124150,1,0,0:0:0:70:LR_Kick Bass strong.wav
448,192,124150,1,0,0:0:0:100:LR4_ClapLRV.wav
192,192,124150,1,0,0:0:0:50:
320,192,124218,1,0,0:0:0:50:
192,192,124286,1,0,0:0:0:100:LR4_ClapLRV.wav
64,192,124286,1,0,0:0:0:50:
448,192,124354,1,0,0:0:0:50:
320,192,124422,1,0,0:0:0:100:LR4_ClapLRV.wav
192,192,124422,1,0,0:0:0:50:
64,192,124490,1,0,0:0:0:50:
448,192,124559,1,0,0:0:0:100:LR4_ClapLRV.wav
192,192,124559,1,0,0:0:0:70:LR_Kick Bass strong.wav
320,192,124627,1,0,0:0:0:50:
448,192,124695,1,0,0:0:0:100:LR4_ClapLRV.wav
192,192,124695,1,0,0:0:0:70:LR_Kick Bass strong.wav
64,192,124695,1,0,0:0:0:50:
320,192,124763,1,0,0:0:0:50:
448,192,124831,1,0,0:0:0:100:LR4_ClapLRV.wav
64,192,124831,1,0,0:0:0:50:
192,192,124900,1,0,0:0:0:50:
448,192,124968,1,0,0:0:0:100:LR4_ClapLRV.wav
64,192,124968,1,0,0:0:0:70:LR_Kick Bass strong.wav
320,192,124968,1,0,0:0:0:50:
192,192,125036,1,0,0:0:0:50:
320,192,125104,1,0,0:0:0:100:LR4_ClapLRV.wav
448,192,125104,1,0,0:0:0:50:
192,192,125172,1,0,0:0:0:100:LR4_ClapLRV.wav
64,192,125172,1,0,0:0:0:50:
192,192,125240,1,0,0:0:0:100:LR4_ClapLRV.wav
64,192,125240,1,0,0:0:0:70:LR_Kick Bass strong.wav
320,192,125309,1,0,0:0:0:50:
192,192,125377,1,0,0:0:0:100:LR4_ClapLRV.wav
64,192,125377,1,0,0:0:0:50:
320,192,125445,1,0,0:0:0:50:
448,192,125513,1,0,0:0:0:100:LR4_ClapLRV.wav
64,192,125513,1,0,0:0:0:70:LR_Kick Bass strong.wav
192,192,125513,1,0,0:0:0:50:
320,192,125581,1,0,0:0:0:50:
448,192,125650,1,0,0:0:0:100:LR4_ClapLRV.wav
64,192,125650,1,0,0:0:0:50:
192,192,125718,1,0,0:0:0:50:
448,192,125786,1,0,0:0:0:100:LR4_ClapLRV.wav
320,192,125786,1,0,0:0:0:50:
192,192,125854,1,0,0:0:0:50:
64,192,125922,1,0,0:0:0:70:LR_Kick Bass strong.wav
320,192,125922,1,0,0:0:0:100:LR4_ClapLRV.wav
448,192,125990,1,0,0:0:0:50:
320,192,126059,1,0,0:0:0:100:LR4_ClapLRV.wav
64,192,126059,1,0,0:0:0:70:LR_Kick Bass strong.wav
192,192,126059,1,0,0:0:0:50:
448,192,126127,1,0,0:0:0:50:
192,192,126195,1,0,0:0:0:100:LR4_ClapLRV.wav
64,192,126195,1,0,0:0:0:50:
320,192,126263,1,0,0:0:0:50:
448,192,126331,1,0,0:0:0:100:LR4_ClapLRV.wav
64,192,126331,1,0,0:0:0:70:LR_Kick Bass strong.wav
192,192,126331,1,0,0:0:0:50:
320,192,126400,1,0,0:0:0:50:
448,192,126468,1,0,0:0:0:100:LR4_ClapLRV.wav
64,192,126468,1,0,0:0:0:50:
192,192,126536,1,0,0:0:0:50:
448,192,126604,1,0,0:0:0:100:LR4_ClapLRV.wav
320,192,126604,1,0,0:0:0:50:
64,192,126672,1,0,0:0:0:50:
192,192,126740,1,0,0:0:0:70:LR_Kick Bass strong.wav
320,192,126740,1,0,0:0:0:100:LR4_ClapLRV.wav
448,192,126809,1,0,0:0:0:100:LR4_ClapLRV.wav
320,192,126877,1,0,0:0:0:100:LR4_ClapLRV.wav
64,192,126877,1,0,0:0:0:70:LR_Kick Bass strong.wav
192,192,126877,1,0,0:0:0:50:
448,192,126945,1,0,0:0:0:50:
192,192,127013,1,0,0:0:0:100:LR4_ClapLRV.wav
64,192,127013,1,0,0:0:0:50:
320,192,127081,1,0,0:0:0:100:LR4_ClapLRV.wav
64,192,127150,1,0,0:0:0:70:LR_Kick Bass strong.wav
192,192,127150,1,0,0:0:0:100:LR4_ClapLRV.wav
448,192,127150,1,0,0:0:0:50:
320,192,127218,1,0,0:0:0:100:LR4_ClapLRV.wav
192,192,127286,1,0,0:0:0:100:LR4_ClapLRV.wav
64,192,127286,1,0,0:0:0:50:
320,192,127354,1,0,0:0:0:100:LR4_ClapLRV.wav
448,192,127354,1,0,0:0:0:50:
320,192,127422,1,0,0:0:0:100:LR4_ClapLRV.wav
64,192,127422,1,0,0:0:0:70:LR_Kick Bass strong.wav
448,192,127422,1,0,0:0:0:50:
192,192,127490,1,0,0:0:0:50:
320,192,127559,1,0,0:0:0:100:LR4_ClapLRV.wav
448,192,127559,1,0,0:0:0:50:
64,192,127627,1,0,0:0:0:50:
448,192,127695,1,0,0:0:0:100:LR4_ClapLRV.wav
192,192,127695,1,0,0:0:0:70:LR_Kick Bass strong.wav
320,192,127695,1,0,0:0:0:50:
64,192,127763,1,0,0:0:0:50:
448,192,127831,1,0,0:0:0:100:LR4_ClapLRV.wav
320,192,127831,1,0,0:0:0:50:
64,192,127900,1,0,0:0:0:50:
448,192,127968,1,0,0:0:0:100:LR4_ClapLRV.wav
320,192,127968,1,0,0:0:0:50:
192,192,127968,1,0,0:0:0:50:
64,192,128036,1,0,0:0:0:50:
448,192,128104,1,0,0:0:0:100:LR4_ClapLRV.wav
320,192,128104,1,0,0:0:0:70:LR_Kick Bass strong.wav
192,192,128172,1,0,0:0:0:50:
448,192,128240,1,0,0:0:0:100:LR4_ClapLRV.wav
320,192,128240,1,0,0:0:0:70:LR_Kick Bass strong.wav
64,192,128240,1,0,0:0:0:50:
192,192,128309,1,0,0:0:0:50:
448,192,128377,1,0,0:0:0:100:LR4_ClapLRV.wav
320,192,128377,1,0,0:0:0:50:
64,192,128445,1,0,0:0:0:50:
320,192,128513,1,0,0:0:0:70:LR_Kick Bass strong.wav
448,192,128513,1,0,0:0:0:100:LR4_ClapLRV.wav
192,192,128513,1,0,0:0:0:50:
64,192,128581,1,0,0:0:0:50:
448,192,128650,1,0,0:0:0:100:LR4_ClapLRV.wav
192,192,128650,1,0,0:0:0:50:
320,192,128718,1,0,0:0:0:50:
448,192,128786,1,0,0:0:0:100:LR4_ClapLRV.wav
64,192,128786,1,0,0:0:0:50:
192,192,128786,1,0,0:0:0:50:
320,192,128854,1,0,0:0:0:50:
448,192,128922,1,0,0:0:0:100:LR4_ClapLRV.wav
64,192,128922,1,0,0:0:0:70:LR_Kick Bass strong.wav
192,192,128990,1,0,0:0:0:50:
448,192,129059,1,0,0:0:0:100:LR4_ClapLRV.wav
64,192,129059,1,0,0:0:0:70:LR_Kick Bass strong.wav
320,192,129059,1,0,0:0:0:50:
192,192,129127,1,0,0:0:0:50:
448,192,129195,1,0,0:0:0:100:LR4_ClapLRV.wav
64,192,129195,1,0,0:0:0:50:
320,192,129263,1,0,0:0:0:50:
448,192,129331,1,0,0:0:0:100:LR4_ClapLRV.wav
64,192,129331,1,0,0:0:0:70:LR_Kick Bass strong.wav
192,192,129331,1,0,0:0:0:50:
320,192,129400,1,0,0:0:0:50:
448,192,129468,1,0,0:0:0:100:LR4_ClapLRV.wav
64,192,129468,1,0,0:0:0:50:
192,192,129536,1,0,0:0:0:50:
320,192,129604,1,0,0:0:0:70:LR_Kick Bass strong.wav
448,192,129604,1,0,0:0:0:100:LR4_ClapLRV.wav
64,192,129604,1,0,0:0:0:50:
192,192,129672,1,0,0:0:0:50:
64,192,129740,1,0,0:0:0:100:LR4_ClapLRV.wav
320,192,129740,1,0,0:0:0:50:
448,192,129809,1,0,0:0:0:50:
320,192,129877,1,0,0:0:0:70:LR_Kick Bass strong.wav
64,192,129877,1,0,0:0:0:100:LR4_ClapLRV.wav
192,192,129877,1,0,0:0:0:50:
320,192,129945,1,0,0:0:0:100:LR4_ClapLRV.wav
448,192,129945,1,0,0:0:0:50:
64,192,130013,1,0,0:0:0:100:LR4_ClapLRV.wav
192,192,130013,1,0,0:0:0:50:
320,192,130081,1,0,0:0:0:100:LR4_ClapLRV.wav
448,192,130081,1,0,0:0:0:50:
64,192,130150,1,0,0:0:0:100:LR4_ClapLRV.wav
192,192,130150,1,0,0:0:0:50:
320,192,130218,1,0,0:0:0:100:LR4_ClapLRV.wav
64,192,130286,1,0,0:0:0:100:LR4_ClapLRV.wav
192,192,130286,1,0,0:0:0:50:
448,192,130286,1,0,0:0:0:50:
320,192,130354,1,0,0:0:0:100:LR4_ClapLRV.wav
64,192,130422,1,0,0:0:0:100:LR4_ClapLRV.wav
448,192,130422,1,0,0:0:0:50:
192,192,130422,1,0,0:0:0:50:
320,192,130490,1,0,0:0:0:100:LR4_ClapLRV.wav
64,192,130559,1,0,0:0:0:100:LR4_ClapLRV.wav
448,192,130559,1,0,0:0:0:50:
192,192,130627,1,0,0:0:0:100:LR4_ClapLRV.wav
64,192,130695,1,0,0:0:0:100:LR4_ClapLRV.wav
448,192,130695,1,0,0:0:0:50:
320,192,130695,1,0,0:0:0:50:
192,192,130763,1,0,0:0:0:100:LR4_ClapLRV.wav
64,192,130831,1,0,0:0:0:100:LR4_ClapLRV.wav
448,192,130831,1,0,0:0:0:50:
320,192,130831,1,0,0:0:0:50:
192,192,130900,1,0,0:0:0:100:LR4_ClapLRV.wav
448,192,130968,1,0,0:0:0:40:LR_Kick Bass strong.wav
320,192,130968,1,0,0:0:0:40:LR4_SnareBPDT.wav
192,192,131036,1,0,0:0:0:40:LR4_SnareBPDT.wav
64,192,131036,1,0,0:0:0:40:LR_Kick Bass strong.wav
448,192,131104,1,0,0:0:0:40:LR_Kick Bass strong.wav
320,192,131104,1,0,0:0:0:50:LR4_SnareBPDT.wav
192,192,131172,1,0,0:0:0:50:LR4_SnareBPDT.wav
64,192,131172,1,0,0:0:0:40:LR_Kick Bass strong.wav
448,192,131240,1,0,0:0:0:40:LR_Kick Bass strong.wav
320,192,131240,1,0,0:0:0:60:LR4_SnareBPDT.wav
192,192,131309,1,0,0:0:0:60:LR4_SnareBPDT.wav
64,192,131309,1,0,0:0:0:40:LR_Kick Bass strong.wav
448,192,131377,1,0,0:0:0:40:LR_Kick Bass strong.wav
320,192,131377,1,0,0:0:0:60:LR4_SnareBPDT.wav
192,192,131445,1,0,0:0:0:60:LR4_SnareBPDT.wav
64,192,131445,1,0,0:0:0:40:LR_Kick Bass strong.wav
448,192,131513,128,0,131990:0:0:0:50:
320,192,132059,128,4,132195:0:0:0:70:LR_CymbalSSF.wav
448,192,132059,1,0,0:0:0:70:LR_Kick Bass strong.wav
192,192,132059,128,0,132195:0:0:0:50:0
64,192,132059,1,0,0:0:0:70:LR4_ClapLRV.wav
448,192,132331,128,0,132422:0:0:0:30:
64,192,132331,1,0,0:0:0:70:LR4_ClapLRV.wav
320,192,132468,128,4,132604:0:0:0:30:
192,192,132468,1,0,0:0:0:30:
448,192,132604,128,0,132695:0:0:0:30:
64,192,132604,1,0,0:0:0:70:LR4_ClapLRV.wav
192,192,132604,1,0,0:0:0:30:
448,192,132877,128,0,132968:0:0:0:30:
64,192,132877,1,0,0:0:0:70:LR4_ClapLRV.wav
192,192,132877,1,0,0:0:0:30:
64,192,133150,1,0,0:0:0:70:LR4_ClapLRV.wav
448,192,133240,128,0,133331:0:0:0:30:
192,192,133286,1,0,0:0:0:30:
64,192,133422,1,0,0:0:0:70:LR4_ClapLRV.wav
192,192,133422,1,0,0:0:0:30:
448,192,133604,128,0,133695:0:0:0:30:
64,192,133695,1,0,0:0:0:70:LR4_ClapLRV.wav
192,192,133695,1,0,0:0:0:30:
448,192,133968,128,0,134059:0:0:0:30:
64,192,133968,1,0,0:0:0:70:LR4_ClapLRV.wav
192,192,133968,1,0,0:0:0:30:
320,192,134240,128,4,134377:0:0:0:30:
64,192,134240,1,0,0:0:0:70:LR4_ClapLRV.wav
192,192,134240,1,0,0:0:0:30:
64,192,134513,1,0,0:0:0:70:LR4_ClapLRV.wav
320,192,134650,128,4,134786:0:0:0:30:
192,192,134650,1,0,0:0:0:30:
64,192,134786,1,0,0:0:0:70:LR4_ClapLRV.wav
192,192,134786,1,0,0:0:0:30:
64,192,135059,1,0,0:0:0:70:LR4_ClapLRV.wav
192,192,135059,1,0,0:0:0:30:
64,192,135331,1,0,0:0:0:70:LR4_ClapLRV.wav
192,192,135468,1,0,0:0:0:30:
448,192,135604,128,0,135877:0:0:0:30:
64,192,135604,1,0,0:0:0:70:LR4_ClapLRV.wav
192,192,135604,1,0,0:0:0:30:
64,192,135877,1,0,0:0:0:70:LR4_ClapLRV.wav
192,192,135877,1,0,0:0:0:30:
64,192,136150,1,0,0:0:0:70:LR4_ClapLRV.wav
320,192,136422,128,4,136559:0:0:0:30:
64,192,136422,1,0,0:0:0:70:LR4_ClapLRV.wav
192,192,136422,1,0,0:0:0:30:
64,192,136695,1,0,0:0:0:70:LR4_ClapLRV.wav
320,192,136831,128,4,136968:0:0:0:30:
192,192,136831,1,0,0:0:0:30:
64,192,136968,1,0,0:0:0:70:LR4_ClapLRV.wav
192,192,136968,1,0,0:0:0:30:
64,192,137240,1,0,0:0:0:70:LR4_ClapLRV.wav
192,192,137240,1,0,0:0:0:30:
64,192,137513,1,0,0:0:0:70:LR4_ClapLRV.wav
192,192,137650,1,0,0:0:0:30:
64,192,137786,1,0,0:0:0:70:LR4_ClapLRV.wav
192,192,137786,1,0,0:0:0:30:
64,192,138059,1,0,0:0:0:70:LR4_ClapLRV.wav
192,192,138059,1,0,0:0:0:30:
64,192,138331,1,0,0:0:0:70:LR4_ClapLRV.wav
192,192,138331,1,0,0:0:0:30:
320,192,138604,128,4,138740:0:0:0:30:
64,192,138604,1,0,0:0:0:70:LR4_ClapLRV.wav
192,192,138604,1,0,0:0:0:30:
64,192,138877,1,0,0:0:0:70:LR4_ClapLRV.wav
320,192,139013,128,4,139150:0:0:0:30:
192,192,139013,1,0,0:0:0:30:
64,192,139150,1,0,0:0:0:70:LR4_ClapLRV.wav
192,192,139150,1,0,0:0:0:30:
64,192,139422,1,0,0:0:0:70:LR4_ClapLRV.wav
192,192,139422,1,0,0:0:0:30:
64,192,139695,1,0,0:0:0:70:LR4_ClapLRV.wav
192,192,139831,1,0,0:0:0:30:
64,192,139968,1,0,0:0:0:70:LR4_ClapLRV.wav
192,192,139968,1,0,0:0:0:30:
64,192,140240,1,0,0:0:0:70:LR4_ClapLRV.wav
192,192,140240,1,0,0:0:0:30:
64,192,140513,1,0,0:0:0:70:LR4_ClapLRV.wav
320,192,140786,128,4,140922:0:0:0:30:
64,192,140786,1,0,0:0:0:70:LR4_ClapLRV.wav
192,192,140786,1,0,0:0:0:30:
64,192,141059,1,0,0:0:0:70:LR4_ClapLRV.wav
320,192,141195,128,4,141331:0:0:0:30:
192,192,141195,1,0,0:0:0:30:
64,192,141331,1,0,0:0:0:70:LR4_ClapLRV.wav
192,192,141331,1,0,0:0:0:30:
64,192,141604,1,0,0:0:0:70:LR4_ClapLRV.wav
192,192,141604,1,0,0:0:0:30:
64,192,141877,1,0,0:0:0:70:LR4_ClapLRV.wav
192,192,142013,1,0,0:0:0:30:
64,192,142150,1,0,0:0:0:70:LR4_ClapLRV.wav
192,192,142150,1,0,0:0:0:30:
64,192,142422,1,0,0:0:0:70:LR4_ClapLRV.wav
192,192,142422,1,0,0:0:0:30:
64,192,142695,1,0,0:0:0:70:LR4_ClapLRV.wav
192,192,142695,1,0,0:0:0:30:
320,192,142968,128,4,143104:0:0:0:30:
64,192,142968,1,0,0:0:0:70:LR4_ClapLRV.wav
192,192,142968,1,0,0:0:0:30:
64,192,143240,1,0,0:0:0:70:LR4_ClapLRV.wav
320,192,143377,128,4,143513:0:0:0:30:
192,192,143377,1,0,0:0:0:30:
64,192,143513,1,0,0:0:0:70:LR4_ClapLRV.wav
192,192,143513,1,0,0:0:0:30:
64,192,143786,1,0,0:0:0:70:LR4_ClapLRV.wav
192,192,143786,1,0,0:0:0:30:
64,192,144059,1,0,0:0:0:70:LR4_ClapLRV.wav
192,192,144195,1,0,0:0:0:30:
64,192,144331,1,0,0:0:0:70:LR4_ClapLRV.wav
192,192,144331,1,0,0:0:0:30:
64,192,144604,1,0,0:0:0:70:LR4_ClapLRV.wav
192,192,144604,1,0,0:0:0:30:
64,192,144877,1,0,0:0:0:70:LR4_ClapLRV.wav
448,192,145150,128,0,145218:0:0:0:30:LR4_SnareBPDT.wav
64,192,145150,1,0,0:0:0:70:LR4_ClapLRV.wav
192,192,145150,1,0,0:0:0:30:
320,192,145150,128,0,145218:0:0:0:30:
64,192,145422,1,0,0:0:0:70:LR4_ClapLRV.wav
448,192,145559,128,0,145627:0:0:0:30:LR4_SnareBPDT.wav
320,192,145559,128,0,145627:0:0:0:30:
448,192,145695,128,0,145763:0:0:0:30:LR4_SnareBPDT.wav
64,192,145695,1,0,0:0:0:70:LR4_ClapLRV.wav
320,192,145695,128,0,145763:0:0:0:30:
448,192,145968,128,0,146036:0:0:0:30:LR4_SnareBPDT.wav
64,192,145968,1,0,0:0:0:70:LR4_ClapLRV.wav
320,192,145968,128,0,146036:0:0:0:30:
64,192,146240,1,0,0:0:0:70:LR4_ClapLRV.wav
448,192,146377,128,0,146445:0:0:0:30:LR4_SnareBPDT.wav
320,192,146377,128,0,146445:0:0:0:30:
448,192,146513,128,0,146581:0:0:0:30:LR4_SnareBPDT.wav
320,192,146513,128,0,146581:0:0:0:30:
64,192,146513,1,0,0:0:0:70:LR4_ClapLRV.wav
448,192,146786,128,0,146854:0:0:0:30:LR4_SnareBPDT.wav
320,192,146786,128,0,146854:0:0:0:30:
64,192,146786,1,0,0:0:0:70:LR4_ClapLRV.wav
448,192,147059,128,0,147127:0:0:0:30:LR4_SnareBPDT.wav
320,192,147059,128,0,147127:0:0:0:30:
64,192,147059,1,0,0:0:0:70:LR4_ClapLRV.wav
448,192,147331,128,0,147400:0:0:0:30:LR4_SnareBPDT.wav
320,192,147331,128,0,147400:0:0:0:30:
64,192,147331,1,0,0:0:0:70:LR4_ClapLRV.wav
64,192,147604,1,0,0:0:0:70:LR4_ClapLRV.wav
448,192,147740,128,0,147809:0:0:0:30:LR4_SnareBPDT.wav
320,192,147740,128,0,147809:0:0:0:30:
448,192,147877,128,0,147945:0:0:0:30:LR4_SnareBPDT.wav
320,192,147877,128,0,147945:0:0:0:30:
64,192,147877,1,0,0:0:0:70:LR4_ClapLRV.wav
448,192,148150,128,0,148218:0:0:0:30:LR4_SnareBPDT.wav
320,192,148150,128,0,148218:0:0:0:30:
64,192,148150,1,0,0:0:0:70:LR4_ClapLRV.wav
320,192,148422,1,0,0:0:0:40:LR4_SnareBPDT.wav
448,192,148422,1,0,0:0:0:50:
64,192,148456,1,0,0:0:0:40:LR4_SnareBPDT.wav
192,192,148490,1,0,0:0:0:40:LR4_SnareBPDT.wav
448,192,148525,1,0,0:0:0:40:LR4_SnareBPDT.wav
320,192,148559,1,0,0:0:0:50:
64,192,148559,1,0,0:0:0:50:
320,192,148695,1,0,0:0:0:40:LR4_SnareBPDT.wav
448,192,148695,1,0,0:0:0:50:
64,192,148729,1,0,0:0:0:40:LR4_SnareBPDT.wav
192,192,148763,1,0,0:0:0:40:LR4_SnareBPDT.wav
448,192,148797,1,0,0:0:0:40:LR4_SnareBPDT.wav
320,192,148831,1,0,0:0:0:50:
64,192,148831,1,0,0:0:0:50:
192,192,148922,1,0,0:0:0:40:LR4_SnareBPDT.wav
320,192,148968,1,0,0:0:0:40:LR4_SnareBPDT.wav
448,192,148968,1,0,0:0:0:50:
192,192,149059,1,0,0:0:0:40:LR4_SnareBPDT.wav
448,192,149059,1,0,0:0:0:50:
320,192,149150,1,0,0:0:0:40:LR4_SnareBPDT.wav
64,192,149150,1,0,0:0:0:50:
192,192,149240,1,0,0:0:0:70:LR_Kick Bass strong.wav
64,192,149240,1,0,0:0:0:50:
448,192,149240,1,0,0:0:0:50:
320,192,149331,1,0,0:0:0:70:LR_Kick Bass strong.wav
448,192,149331,1,0,0:0:0:50:
192,192,149422,1,0,0:0:0:70:LR_Kick Bass strong.wav
64,192,149422,1,0,0:0:0:50:
448,192,149513,1,0,0:0:0:100:LR4_ClapLRV.wav
320,192,149513,1,0,0:0:0:80:LR_Kick Bass strong.wav
192,192,149513,1,0,0:0:0:50:
448,192,149650,1,0,0:0:0:100:LR4_ClapLRV.wav
192,192,149650,1,0,0:0:0:50:
320,192,149786,1,0,0:0:0:80:LR_Kick Bass strong.wav
64,192,149786,1,0,0:0:0:100:LR4_ClapLRV.wav
192,192,149786,1,0,0:0:0:50:
448,192,149922,1,0,0:0:0:100:LR4_ClapLRV.wav
64,192,149922,1,0,0:0:0:50:
448,192,150059,1,0,0:0:0:80:LR_Kick Bass strong.wav
320,192,150059,1,0,0:0:0:100:LR4_ClapLRV.wav
192,192,150059,1,0,0:0:0:50:
448,192,150195,1,0,0:0:0:100:LR4_ClapLRV.wav
64,192,150195,1,0,0:0:0:50:
320,192,150263,1,0,0:0:0:100:LR4_ClapLRV.wav
192,192,150331,1,0,0:0:0:100:LR4_ClapLRV.wav
64,192,150331,1,0,0:0:0:80:LR_Kick Bass strong.wav
448,192,150331,1,0,0:0:0:50:
320,192,150468,1,0,0:0:0:100:LR4_ClapLRV.wav
192,192,150468,1,0,0:0:0:50:
448,192,150604,1,0,0:0:0:80:LR_Kick Bass strong.wav
320,192,150604,1,0,0:0:0:100:LR4_ClapLRV.wav
64,192,150604,1,0,0:0:0:50:
448,192,150740,1,0,0:0:0:100:LR4_ClapLRV.wav
192,192,150740,1,0,0:0:0:50:
320,192,150877,1,0,0:0:0:80:LR_Kick Bass strong.wav
192,192,150877,1,0,0:0:0:100:LR4_ClapLRV.wav
64,192,150877,1,0,0:0:0:50:
448,192,151013,1,0,0:0:0:100:LR4_ClapLRV.wav
64,192,151013,1,0,0:0:0:50:
192,192,151081,1,0,0:0:0:100:LR4_ClapLRV.wav
448,192,151150,1,0,0:0:0:80:LR_Kick Bass strong.wav
320,192,151150,1,0,0:0:0:100:LR4_ClapLRV.wav
64,192,151150,1,0,0:0:0:50:
448,192,151286,1,0,0:0:0:100:LR4_ClapLRV.wav
192,192,151286,1,0,0:0:0:50:
192,192,151354,1,0,0:0:0:100:LR4_ClapLRV.wav
448,192,151422,1,0,0:0:0:80:LR_Kick Bass strong.wav
320,192,151422,1,0,0:0:0:100:LR4_ClapLRV.wav
64,192,151422,1,0,0:0:0:50:
448,192,151559,1,0,0:0:0:100:LR4_ClapLRV.wav
320,192,151559,1,0,0:0:0:50:
64,192,151559,1,0,0:0:0:50:
320,192,151695,1,0,0:0:0:80:LR_Kick Bass strong.wav
192,192,151695,1,0,0:0:0:100:LR4_ClapLRV.wav
64,192,151695,1,0,0:0:0:50:
448,192,151831,1,0,0:0:0:100:LR4_ClapLRV.wav
64,192,151831,1,0,0:0:0:50:
320,192,151968,1,0,0:0:0:100:LR4_ClapLRV.wav
192,192,151968,1,0,0:0:0:80:LR_Kick Bass strong.wav
448,192,151968,1,0,0:0:0:50:
64,192,152104,1,0,0:0:0:100:LR4_ClapLRV.wav
320,192,152104,1,0,0:0:0:50:
448,192,152240,1,0,0:0:0:80:LR_Kick Bass strong.wav
64,192,152240,1,0,0:0:0:100:LR4_ClapLRV.wav
192,192,152240,1,0,0:0:0:50:
192,192,152377,1,0,0:0:0:100:LR4_ClapLRV.wav
320,192,152377,1,0,0:0:0:50:
448,192,152445,1,0,0:0:0:100:LR4_ClapLRV.wav
64,192,152513,1,0,0:0:0:100:LR4_ClapLRV.wav
320,192,152513,1,0,0:0:0:80:LR_Kick Bass strong.wav
192,192,152513,1,0,0:0:0:50:
448,192,152650,1,0,0:0:0:100:LR4_ClapLRV.wav
192,192,152650,1,0,0:0:0:50:
448,192,152786,1,0,0:0:0:80:LR_Kick Bass strong.wav
320,192,152786,1,0,0:0:0:100:LR4_ClapLRV.wav
64,192,152786,1,0,0:0:0:50:
448,192,152922,1,0,0:0:0:100:LR4_ClapLRV.wav
192,192,152922,1,0,0:0:0:50:
320,192,153059,1,0,0:0:0:80:LR_Kick Bass strong.wav
192,192,153059,1,0,0:0:0:100:LR4_ClapLRV.wav
64,192,153059,1,0,0:0:0:50:
448,192,153195,1,0,0:0:0:100:LR4_ClapLRV.wav
64,192,153195,1,0,0:0:0:50:
192,192,153263,1,0,0:0:0:100:LR4_ClapLRV.wav
448,192,153331,1,0,0:0:0:80:LR_Kick Bass strong.wav
320,192,153331,1,0,0:0:0:100:LR4_ClapLRV.wav
64,192,153331,1,0,0:0:0:50:
192,192,153400,1,0,0:0:0:100:LR4_ClapLRV.wav
320,192,153468,1,0,0:0:0:100:LR4_ClapLRV.wav
448,192,153468,1,0,0:0:0:50:
192,192,153536,1,0,0:0:0:100:LR4_ClapLRV.wav
448,192,153604,1,0,0:0:0:80:LR_Kick Bass strong.wav
320,192,153604,1,0,0:0:0:100:LR4_ClapLRV.wav
64,192,153604,1,0,0:0:0:50:
320,192,153740,1,0,0:0:0:100:LR4_ClapLRV.wav
192,192,153740,1,0,0:0:0:50:
448,192,153877,1,0,0:0:0:80:LR_Kick Bass strong.wav
192,192,153877,1,0,0:0:0:100:LR4_ClapLRV.wav
64,192,153877,1,0,0:0:0:50:
320,192,154013,1,0,0:0:0:100:LR4_ClapLRV.wav
64,192,154013,1,0,0:0:0:50:
448,192,154150,1,0,0:0:0:80:LR_Kick Bass strong.wav
320,192,154150,1,0,0:0:0:100:LR4_ClapLRV.wav
192,192,154150,1,0,0:0:0:50:
448,192,154286,1,0,0:0:0:100:LR4_ClapLRV.wav
64,192,154286,1,0,0:0:0:50:
192,192,154422,1,0,0:0:0:100:LR4_ClapLRV.wav
64,192,154422,1,0,0:0:0:80:LR_Kick Bass strong.wav
320,192,154422,1,0,0:0:0:50:
448,192,154559,1,0,0:0:0:100:LR4_ClapLRV.wav
192,192,154559,1,0,0:0:0:50:
320,192,154627,1,0,0:0:0:100:LR4_ClapLRV.wav
192,192,154695,1,0,0:0:0:100:LR4_ClapLRV.wav
64,192,154695,1,0,0:0:0:80:LR_Kick Bass strong.wav
448,192,154695,1,0,0:0:0:50:
320,192,154831,1,0,0:0:0:100:LR4_ClapLRV.wav
64,192,154831,1,0,0:0:0:50:
448,192,154968,1,0,0:0:0:80:LR_Kick Bass strong.wav
192,192,154968,1,0,0:0:0:100:LR4_ClapLRV.wav
64,192,154968,1,0,0:0:0:50:
320,192,155104,1,0,0:0:0:100:LR4_ClapLRV.wav
192,192,155104,1,0,0:0:0:50:
64,192,155240,1,0,0:0:0:100:LR4_ClapLRV.wav
320,192,155240,1,0,0:0:0:80:LR_Kick Bass strong.wav
448,192,155240,1,0,0:0:0:50:
192,192,155377,1,0,0:0:0:100:LR4_ClapLRV.wav
320,192,155377,1,0,0:0:0:50:
64,192,155513,1,0,0:0:0:100:LR4_ClapLRV.wav
448,192,155513,1,0,0:0:0:80:LR_Kick Bass strong.wav
192,192,155513,1,0,0:0:0:50:
320,192,155650,1,0,0:0:0:100:LR4_ClapLRV.wav
320,192,155718,1,0,0:0:0:100:LR4_ClapLRV.wav
448,192,155786,1,0,0:0:0:80:LR_Kick Bass strong.wav
64,192,155786,1,0,0:0:0:100:LR4_ClapLRV.wav
192,192,155786,1,0,0:0:0:50:
64,192,155922,1,0,0:0:0:100:LR4_ClapLRV.wav
192,192,155922,1,0,0:0:0:50:
448,192,155922,1,0,0:0:0:50:
448,192,156059,1,0,0:0:0:80:LR_Kick Bass strong.wav
64,192,156059,1,0,0:0:0:100:LR4_ClapLRV.wav
320,192,156059,1,0,0:0:0:50:
320,192,156195,1,0,0:0:0:100:LR4_ClapLRV.wav
192,192,156195,1,0,0:0:0:50:
448,192,156331,1,0,0:0:0:80:LR_Kick Bass strong.wav
192,192,156331,1,0,0:0:0:100:LR4_ClapLRV.wav
64,192,156331,1,0,0:0:0:50:
320,192,156468,1,0,0:0:0:100:LR4_ClapLRV.wav
64,192,156468,1,0,0:0:0:50:
448,192,156604,1,0,0:0:0:80:LR_Kick Bass strong.wav
320,192,156604,1,0,0:0:0:100:LR4_ClapLRV.wav
192,192,156604,1,0,0:0:0:50:
448,192,156740,1,0,0:0:0:100:LR4_ClapLRV.wav
64,192,156740,1,0,0:0:0:50:
320,192,156809,1,0,0:0:0:100:LR4_ClapLRV.wav
192,192,156877,1,0,0:0:0:100:LR4_ClapLRV.wav
64,192,156877,1,0,0:0:0:80:LR_Kick Bass strong.wav
448,192,156877,1,0,0:0:0:50:
320,192,157013,1,0,0:0:0:100:LR4_ClapLRV.wav
192,192,157013,1,0,0:0:0:50:
448,192,157150,1,0,0:0:0:80:LR_Kick Bass strong.wav
320,192,157150,1,0,0:0:0:100:LR4_ClapLRV.wav
64,192,157150,1,0,0:0:0:50:
448,192,157286,1,0,0:0:0:100:LR4_ClapLRV.wav
192,192,157286,1,0,0:0:0:50:
192,192,157422,1,0,0:0:0:100:LR4_ClapLRV.wav
64,192,157422,1,0,0:0:0:80:LR_Kick Bass strong.wav
320,192,157422,1,0,0:0:0:50:
448,192,157559,1,0,0:0:0:100:LR4_ClapLRV.wav
320,192,157627,1,0,0:0:0:100:LR4_ClapLRV.wav
448,192,157695,1,0,0:0:0:80:LR_Kick Bass strong.wav
64,192,157695,1,0,0:0:0:100:LR4_ClapLRV.wav
192,192,157695,1,0,0:0:0:50:
320,192,157763,1,0,0:0:0:100:LR4_ClapLRV.wav
192,192,157831,1,0,0:0:0:100:LR4_ClapLRV.wav
64,192,157831,1,0,0:0:0:50:
320,192,157900,1,0,0:0:0:100:LR4_ClapLRV.wav
448,192,157968,1,0,0:0:0:80:LR_Kick Bass strong.wav
64,192,157968,1,0,0:0:0:100:LR4_ClapLRV.wav
192,192,157968,1,0,0:0:0:50:
448,192,158104,1,0,0:0:0:100:LR4_ClapLRV.wav
64,192,158104,1,0,0:0:0:50:
64,192,158240,1,0,0:0:0:100:LR4_ClapLRV.wav
448,192,158240,1,0,0:0:0:80:LR_Kick Bass strong.wav
320,192,158286,1,0,0:0:0:100:LR4_ClapLRV.wav
192,192,158331,1,0,0:0:0:100:LR4_ClapLRV.wav
64,192,158377,1,0,0:0:0:100:LR4_ClapLRV.wav
448,192,158377,1,0,0:0:0:80:LR_Kick Bass strong.wav
320,192,158445,1,0,0:0:0:100:LR4_ClapLRV.wav
192,192,158513,1,0,0:0:0:80:LR_Kick Bass strong.wav
64,192,158513,1,0,0:0:0:100:LR4_ClapLRV.wav
320,192,158581,1,0,0:0:0:100:LR4_ClapLRV.wav
192,192,158650,1,0,0:0:0:100:LR4_ClapLRV.wav
448,192,158650,1,0,0:0:0:80:LR_Kick Bass strong.wav
320,192,158718,1,0,0:0:0:100:LR4_ClapLRV.wav
448,192,158786,1,0,0:0:0:80:LR_Kick Bass strong.wav
64,192,158786,1,0,0:0:0:100:LR4_ClapLRV.wav
192,192,158831,1,0,0:0:0:100:LR4_ClapLRV.wav
320,192,158877,1,0,0:0:0:100:LR4_ClapLRV.wav
192,192,158922,1,0,0:0:0:80:LR_Kick Bass strong.wav
64,192,158922,1,0,0:0:0:100:LR4_ClapLRV.wav
448,192,158990,1,0,0:0:0:100:LR4_ClapLRV.wav
320,192,159059,1,0,0:0:0:80:LR_Kick Bass strong.wav
64,192,159059,1,0,0:0:0:100:LR4_ClapLRV.wav
192,192,159127,1,0,0:0:0:100:LR4_ClapLRV.wav
448,192,159195,1,0,0:0:0:80:LR_Kick Bass strong.wav
320,192,159195,1,0,0:0:0:100:LR4_ClapLRV.wav
64,192,159263,1,0,0:0:0:100:LR4_ClapLRV.wav
192,192,159331,1,0,0:0:0:100:LR4_ClapLRV.wav
448,192,159331,1,0,0:0:0:80:LR_Kick Bass strong.wav
320,192,159377,1,0,0:0:0:100:LR4_ClapLRV.wav
64,192,159422,1,0,0:0:0:100:LR4_ClapLRV.wav
192,192,159468,1,0,0:0:0:100:LR4_ClapLRV.wav
448,192,159468,1,0,0:0:0:80:LR_Kick Bass strong.wav
320,192,159536,1,0,0:0:0:100:LR4_ClapLRV.wav
192,192,159604,1,0,0:0:0:80:LR_Kick Bass strong.wav
64,192,159604,1,0,0:0:0:100:LR4_ClapLRV.wav
320,192,159672,1,0,0:0:0:100:LR4_ClapLRV.wav
448,192,159740,1,0,0:0:0:80:LR_Kick Bass strong.wav
64,192,159740,1,0,0:0:0:100:LR4_ClapLRV.wav
192,192,159809,1,0,0:0:0:100:LR4_ClapLRV.wav
448,192,159877,1,0,0:0:0:80:LR_Kick Bass strong.wav
64,192,159877,1,0,0:0:0:100:LR4_ClapLRV.wav
320,192,159922,1,0,0:0:0:100:LR4_ClapLRV.wav
192,192,159968,1,0,0:0:0:100:LR4_ClapLRV.wav
448,192,160013,1,0,0:0:0:80:LR_Kick Bass strong.wav
320,192,160013,1,0,0:0:0:100:LR4_ClapLRV.wav
64,192,160081,1,0,0:0:0:100:LR4_ClapLRV.wav
192,192,160150,1,0,0:0:0:80:LR_Kick Bass strong.wav
448,192,160150,1,0,0:0:0:100:LR4_ClapLRV.wav
320,192,160218,1,0,0:0:0:100:LR4_ClapLRV.wav
192,192,160286,1,0,0:0:0:80:LR_Kick Bass strong.wav
64,192,160286,1,0,0:0:0:100:LR4_ClapLRV.wav
448,192,160354,1,0,0:0:0:100:LR4_ClapLRV.wav
320,192,160422,1,0,0:0:0:80:LR_Kick Bass strong.wav
64,192,160422,1,0,0:0:0:100:LR4_ClapLRV.wav
192,192,160468,1,0,0:0:0:100:LR4_ClapLRV.wav
448,192,160513,1,0,0:0:0:100:LR4_ClapLRV.wav
320,192,160559,1,0,0:0:0:80:LR_Kick Bass strong.wav
64,192,160559,1,0,0:0:0:100:LR4_ClapLRV.wav
192,192,160627,1,0,0:0:0:100:LR4_ClapLRV.wav
448,192,160695,1,0,0:0:0:80:LR_Kick Bass strong.wav
320,192,160695,1,0,0:0:0:100:LR4_ClapLRV.wav
64,192,160763,1,0,0:0:0:100:LR4_ClapLRV.wav
192,192,160831,1,0,0:0:0:80:LR_Kick Bass strong.wav
448,192,160831,1,0,0:0:0:100:LR4_ClapLRV.wav
320,192,160900,1,0,0:0:0:100:LR4_ClapLRV.wav
448,192,160968,1,0,0:0:0:80:LR_Kick Bass strong.wav
64,192,160968,1,0,0:0:0:100:LR4_ClapLRV.wav
192,192,161013,1,0,0:0:0:100:LR4_ClapLRV.wav
320,192,161059,1,0,0:0:0:100:LR4_ClapLRV.wav
192,192,161104,1,0,0:0:0:80:LR_Kick Bass strong.wav
64,192,161104,1,0,0:0:0:100:LR4_ClapLRV.wav
448,192,161172,1,0,0:0:0:100:LR4_ClapLRV.wav
320,192,161240,1,0,0:0:0:80:LR_Kick Bass strong.wav
64,192,161240,1,0,0:0:0:100:LR4_ClapLRV.wav
192,192,161309,1,0,0:0:0:100:LR4_ClapLRV.wav
448,192,161377,1,0,0:0:0:80:LR_Kick Bass strong.wav
320,192,161377,1,0,0:0:0:100:LR4_ClapLRV.wav
64,192,161445,1,0,0:0:0:100:LR4_ClapLRV.wav
192,192,161513,1,0,0:0:0:80:LR_Kick Bass strong.wav
448,192,161513,1,0,0:0:0:100:LR4_ClapLRV.wav
320,192,161559,1,0,0:0:0:100:LR4_ClapLRV.wav
64,192,161604,1,0,0:0:0:100:LR4_ClapLRV.wav
192,192,161650,1,0,0:0:0:80:LR_Kick Bass strong.wav
448,192,161650,1,0,0:0:0:100:LR4_ClapLRV.wav
320,192,161718,1,0,0:0:0:100:LR4_ClapLRV.wav
192,192,161786,1,0,0:0:0:80:LR_Kick Bass strong.wav
64,192,161786,1,0,0:0:0:100:LR4_ClapLRV.wav
448,192,161854,1,0,0:0:0:100:LR4_ClapLRV.wav
320,192,161922,1,0,0:0:0:80:LR_Kick Bass strong.wav
64,192,161922,1,0,0:0:0:100:LR4_ClapLRV.wav
192,192,161990,1,0,0:0:0:100:LR4_ClapLRV.wav
448,192,162059,1,0,0:0:0:80:LR_Kick Bass strong.wav
64,192,162059,1,0,0:0:0:100:LR4_ClapLRV.wav
320,192,162104,1,0,0:0:0:100:LR4_ClapLRV.wav
192,192,162150,1,0,0:0:0:100:LR4_ClapLRV.wav
448,192,162195,1,0,0:0:0:80:LR_Kick Bass strong.wav
320,192,162195,1,0,0:0:0:100:LR4_ClapLRV.wav
64,192,162263,1,0,0:0:0:100:LR4_ClapLRV.wav
192,192,162331,1,0,0:0:0:100:LR4_ClapLRV.wav
448,192,162331,1,0,0:0:0:80:LR_Kick Bass strong.wav
320,192,162400,1,0,0:0:0:100:LR4_ClapLRV.wav
192,192,162468,1,0,0:0:0:80:LR_Kick Bass strong.wav
64,192,162468,1,0,0:0:0:100:LR4_ClapLRV.wav
448,192,162536,1,0,0:0:0:100:LR4_ClapLRV.wav
320,192,162604,1,0,0:0:0:80:LR_Kick Bass strong.wav
64,192,162604,1,0,0:0:0:100:LR4_ClapLRV.wav
64,192,162672,1,0,0:0:0:80:LR_Kick Bass strong.wav
448,192,162672,1,0,0:0:0:100:LR4_ClapLRV.wav
320,192,162740,1,0,0:0:0:80:LR_Kick Bass strong.wav
192,192,162740,1,0,0:0:0:100:LR4_ClapLRV.wav
64,192,162809,1,0,0:0:0:80:LR_Kick Bass strong.wav
320,192,162877,1,0,0:0:0:80:LR_Kick Bass strong.wav
448,192,162877,1,0,0:0:0:100:LR4_ClapLRV.wav
192,192,162945,1,0,0:0:0:80:LR_Kick Bass strong.wav
64,192,162945,1,0,0:0:0:100:LR4_ClapLRV.wav
448,192,163013,1,0,0:0:0:100:LR4_ClapLRV.wav
320,192,163013,1,0,0:0:0:80:LR_Kick Bass strong.wav
64,192,163081,1,0,0:0:0:80:LR_Kick Bass strong.wav
448,192,163150,1,0,0:0:0:100:LR4_ClapLRV.wav
192,192,163150,1,0,0:0:0:80:LR_Kick Bass strong.wav
448,192,163218,1,0,0:0:0:100:LR4_ClapLRV.wav
64,192,163218,1,0,0:0:0:80:LR_Kick Bass strong.wav
320,192,163286,1,0,0:0:0:100:LR4_ClapLRV.wav
192,192,163286,1,0,0:0:0:80:LR_Kick Bass strong.wav
64,192,163354,1,0,0:0:0:80:LR_Kick Bass strong.wav
448,192,163422,1,0,0:0:0:100:LR4_ClapLRV.wav
320,192,163422,1,0,0:0:0:80:LR_Kick Bass strong.wav
192,192,163490,1,0,0:0:0:80:LR_Kick Bass strong.wav
64,192,163490,1,0,0:0:0:100:LR4_ClapLRV.wav
448,192,163559,1,0,0:0:0:100:LR4_ClapLRV.wav
320,192,163559,1,0,0:0:0:80:LR_Kick Bass strong.wav
192,192,163627,1,0,0:0:0:80:LR_Kick Bass strong.wav
320,192,163695,1,0,0:0:0:80:LR_Kick Bass strong.wav
64,192,163695,1,0,0:0:0:100:LR4_ClapLRV.wav
64,192,163763,1,0,0:0:0:80:LR_Kick Bass strong.wav
448,192,163763,1,0,0:0:0:100:LR4_ClapLRV.wav
192,192,163831,1,0,0:0:0:100:LR4_ClapLRV.wav
320,192,163831,1,0,0:0:0:80:LR_Kick Bass strong.wav
64,192,163900,1,0,0:0:0:80:LR_Kick Bass strong.wav
448,192,163968,1,0,0:0:0:100:LR4_ClapLRV.wav
320,192,163968,1,0,0:0:0:80:LR_Kick Bass strong.wav
192,192,164036,1,0,0:0:0:80:LR_Kick Bass strong.wav
64,192,164036,1,0,0:0:0:100:LR4_ClapLRV.wav
448,192,164104,1,0,0:0:0:100:LR4_ClapLRV.wav
320,192,164104,1,0,0:0:0:80:LR_Kick Bass strong.wav
64,192,164172,1,0,0:0:0:80:LR_Kick Bass strong.wav
448,192,164240,1,0,0:0:0:100:LR4_ClapLRV.wav
192,192,164240,1,0,0:0:0:80:LR_Kick Bass strong.wav
448,192,164309,1,0,0:0:0:100:LR4_ClapLRV.wav
64,192,164309,1,0,0:0:0:80:LR_Kick Bass strong.wav
320,192,164377,1,0,0:0:0:100:LR4_ClapLRV.wav
192,192,164377,1,0,0:0:0:80:LR_Kick Bass strong.wav
64,192,164445,1,0,0:0:0:80:LR_Kick Bass strong.wav
448,192,164513,1,0,0:0:0:100:LR4_ClapLRV.wav
320,192,164513,1,0,0:0:0:80:LR_Kick Bass strong.wav
192,192,164581,1,0,0:0:0:80:LR_Kick Bass strong.wav
64,192,164581,1,0,0:0:0:100:LR4_ClapLRV.wav
448,192,164650,1,0,0:0:0:100:LR4_ClapLRV.wav
320,192,164650,1,0,0:0:0:80:LR_Kick Bass strong.wav
192,192,164718,1,0,0:0:0:80:LR_Kick Bass strong.wav
64,192,164718,1,0,0:0:0:100:LR4_ClapLRV.wav
448,192,164786,1,0,0:0:0:100:LR4_ClapLRV.wav
320,192,164786,1,0,0:0:0:80:LR_Kick Bass strong.wav
448,192,164854,1,0,0:0:0:80:LR_Kick Bass strong.wav
320,192,164854,1,0,0:0:0:100:LR4_ClapLRV.wav
192,192,164922,1,0,0:0:0:100:LR4_ClapLRV.wav
64,192,164922,1,0,0:0:0:80:LR_Kick Bass strong.wav
448,192,164990,1,0,0:0:0:80:LR_Kick Bass strong.wav
192,192,165059,1,0,0:0:0:80:LR_Kick Bass strong.wav
64,192,165059,1,0,0:0:0:100:LR4_ClapLRV.wav
64,192,165127,1,0,0:0:0:100:LR4_ClapLRV.wav
192,192,165127,1,0,0:0:0:80:LR_Kick Bass strong.wav
448,192,165195,1,0,0:0:0:80:LR_Kick Bass strong.wav
320,192,165195,1,0,0:0:0:100:LR4_ClapLRV.wav
64,192,165263,1,0,0:0:0:80:LR_Kick Bass strong.wav
320,192,165331,1,0,0:0:0:100:LR4_ClapLRV.wav
448,192,165331,1,0,0:0:0:80:LR_Kick Bass strong.wav
320,192,165400,1,0,0:0:0:80:LR_Kick Bass strong.wav
448,192,165400,1,0,0:0:0:100:LR4_ClapLRV.wav
64,192,165468,1,0,0:0:0:100:LR4_ClapLRV.wav
192,192,165468,1,0,0:0:0:80:LR_Kick Bass strong.wav
448,192,165536,1,0,0:0:0:80:LR_Kick Bass strong.wav
192,192,165604,1,0,0:0:0:80:LR_Kick Bass strong.wav
64,192,165604,1,0,0:0:0:100:LR4_ClapLRV.wav
320,192,165638,1,0,0:0:0:100:LR4_ClapLRV.wav
448,192,165672,1,0,0:0:0:100:LR4_ClapLRV.wav
64,192,165706,1,0,0:0:0:100:LR4_ClapLRV.wav
192,192,165740,1,0,0:0:0:100:LR4_ClapLRV.wav
320,192,165775,1,0,0:0:0:100:LR4_ClapLRV.wav
448,192,165809,1,0,0:0:0:100:LR4_ClapLRV.wav
64,192,165809,1,0,0:0:0:50:
192,192,165843,1,0,0:0:0:100:LR4_ClapLRV.wav
320,192,165877,128,0,165945:0:0:0:100:LR4_ClapLRV.wav
448,192,165877,128,0,165945:0:0:0:50:
448,192,166013,128,0,166081:0:0:0:50:
320,192,166013,128,0,166081:0:0:0:50:
192,192,166150,128,0,166218:0:0:0:50:
448,192,166286,128,0,166354:0:0:0:50:
320,192,166286,128,0,166354:0:0:0:50:
448,192,166422,128,0,166490:0:0:0:50:
320,192,166422,128,0,166490:0:0:0:50:
192,192,166559,128,0,166593:0:0:0:50:
448,192,166559,128,0,166627:0:0:0:50:
64,192,166559,128,0,166627:0:0:0:50:
448,192,166695,128,0,166763:0:0:0:50:
64,192,166695,128,0,166763:0:0:0:50:
320,192,166695,128,0,166729:0:0:0:50:
64,192,166968,1,0,0:0:0:70:LR_Kick Bass strong.wav
192,192,166968,1,0,0:0:0:50:
320,192,166968,1,0,0:0:0:50:
448,192,166968,1,0,0:0:0:50:
192,192,167036,1,0,0:0:0:50:
320,192,167104,1,0,0:0:0:50:
448,192,167104,1,0,0:0:0:50:
192,192,167172,1,0,0:0:0:50:
64,192,167240,1,0,0:0:0:70:LR_Kick Bass strong.wav
320,192,167240,1,0,0:0:0:50:
448,192,167240,1,0,0:0:0:50:
192,192,167309,1,0,0:0:0:50:
448,192,167377,1,0,0:0:0:70:LR_Kick Bass strong.wav
64,192,167377,1,0,0:0:0:50:
320,192,167377,1,0,0:0:0:50:
448,192,167445,1,0,0:0:0:70:LR_Kick Bass strong.wav
320,192,167445,1,0,0:0:0:50:soft-hitnormal.wav
64,192,167513,1,0,0:0:0:70:LR4_SnareBPDT.wav
448,192,167513,1,0,0:0:0:50:
320,192,167513,1,0,0:0:0:50:
192,192,167581,1,0,0:0:0:50:
64,192,167650,1,0,0:0:0:70:LR_Kick Bass strong.wav
320,192,167650,1,0,0:0:0:50:
448,192,167650,1,0,0:0:0:50:
192,192,167718,1,0,0:0:0:50:
448,192,167786,1,0,0:0:0:50:
320,192,167854,1,0,0:0:0:50:
448,192,167922,1,0,0:0:0:70:LR_Kick Bass strong.wav
64,192,167922,1,0,0:0:0:50:
192,192,167922,1,0,0:0:0:50:
320,192,167990,1,0,0:0:0:50:
64,192,168059,1,0,0:0:0:70:LR_Kick Bass strong.wav
192,192,168059,1,0,0:0:0:50:
64,192,168127,1,0,0:0:0:70:LR_Kick Bass strong.wav
320,192,168127,1,0,0:0:0:50:
192,192,168195,1,0,0:0:0:70:LR_Kick Bass strong.wav
448,192,168195,1,0,0:0:0:50:
320,192,168263,1,0,0:0:0:50:
64,192,168331,1,0,0:0:0:70:LR_Kick Bass strong.wav
192,192,168331,1,0,0:0:0:50:
448,192,168331,1,0,0:0:0:50:
64,192,168400,1,0,0:0:0:70:LR_Kick Bass strong.wav
192,192,168400,1,0,0:0:0:50:
448,192,168468,1,0,0:0:0:70:LR_Kick Bass strong.wav
320,192,168468,1,0,0:0:0:50:
192,192,168536,1,0,0:0:0:50:
64,192,168604,1,0,0:0:0:70:LR4_SnareBPDT.wav
448,192,168604,1,0,0:0:0:50:
320,192,168672,1,0,0:0:0:50:
64,192,168740,1,0,0:0:0:50:
192,192,168740,1,0,0:0:0:50:
448,192,168740,1,0,0:0:0:50:
320,192,168809,1,0,0:0:0:50:
64,192,168877,128,0,169081:0:0:0:50:
448,192,168877,128,0,169013:0:0:0:50:
192,192,168945,128,0,169081:0:0:0:50:
320,192,169013,128,0,169081:0:0:0:50:
448,192,169081,128,0,169150:0:0:0:50:
192,192,169150,1,0,0:0:0:70:LR_Kick Bass strong.wav
320,192,169150,1,0,0:0:0:50:
64,192,169150,1,0,0:0:0:50:
448,192,169218,1,0,0:0:0:50:
64,192,169286,1,0,0:0:0:50:
192,192,169286,1,0,0:0:0:50:
320,192,169354,1,0,0:0:0:50:
64,192,169422,1,0,0:0:0:70:LR_Kick Bass strong.wav
192,192,169422,1,0,0:0:0:50:
448,192,169422,1,0,0:0:0:50:
320,192,169490,1,0,0:0:0:50:
64,192,169559,1,0,0:0:0:70:LR_Kick Bass strong.wav
448,192,169559,1,0,0:0:0:50:
192,192,169559,1,0,0:0:0:50:
192,192,169627,1,0,0:0:0:70:LR_Kick Bass strong.wav
64,192,169627,1,0,0:0:0:50:soft-hitnormal.wav
192,192,169695,1,0,0:0:0:70:LR4_SnareBPDT.wav
64,192,169695,1,0,0:0:0:50:
448,192,169695,1,0,0:0:0:50:
320,192,169763,1,0,0:0:0:50:
192,192,169831,1,0,0:0:0:70:LR_Kick Bass strong.wav
64,192,169831,1,0,0:0:0:50:
448,192,169831,1,0,0:0:0:50:
320,192,169900,1,0,0:0:0:50:
192,192,169968,1,0,0:0:0:50:
320,192,170036,1,0,0:0:0:50:
64,192,170104,1,0,0:0:0:70:LR_Kick Bass strong.wav
448,192,170104,1,0,0:0:0:50:
192,192,170104,1,0,0:0:0:50:
320,192,170172,1,0,0:0:0:50:
64,192,170240,1,0,0:0:0:70:LR_Kick Bass strong.wav
192,192,170240,1,0,0:0:0:50:
64,192,170309,1,0,0:0:0:70:LR_Kick Bass strong.wav
320,192,170309,1,0,0:0:0:50:
192,192,170377,1,0,0:0:0:70:LR_Kick Bass strong.wav
448,192,170377,1,0,0:0:0:50:
320,192,170445,1,0,0:0:0:50:
64,192,170513,1,0,0:0:0:70:LR_Kick Bass strong.wav
192,192,170513,1,0,0:0:0:50:
448,192,170513,1,0,0:0:0:50:
64,192,170581,1,0,0:0:0:70:LR_Kick Bass strong.wav
192,192,170581,1,0,0:0:0:50:
320,192,170650,1,0,0:0:0:70:LR_Kick Bass strong.wav
448,192,170650,1,0,0:0:0:50:
192,192,170718,1,0,0:0:0:50:
64,192,170786,1,0,0:0:0:70:LR4_SnareBPDT.wav
448,192,170786,1,0,0:0:0:50:
320,192,170786,1,0,0:0:0:50:
192,192,170854,1,0,0:0:0:50:
320,192,170922,1,0,0:0:0:50:
64,192,170968,1,0,0:0:0:70:LR4_SnareBPDT.wav
448,192,170990,1,0,0:0:0:50:
192,192,170990,1,0,0:0:0:50:
320,192,171081,1,0,0:0:0:50:
448,192,171127,1,0,0:0:0:50:
192,192,171150,1,0,0:0:0:70:LR4_SnareBPDT.wav
64,192,171150,1,0,0:0:0:50:
320,192,171195,1,0,0:0:0:50:
192,192,171263,1,0,0:0:0:50:
64,192,171331,1,0,0:0:0:100:LR_CymbalSSF.wav
448,192,171331,1,0,0:0:0:70:LR_Kick Bass strong.wav
320,192,171331,1,0,0:0:0:50:
448,192,171400,1,0,0:0:0:50:
320,192,171468,1,0,0:0:0:50:
192,192,171468,1,0,0:0:0:50:
64,192,171536,1,0,0:0:0:50:
320,192,171604,1,0,0:0:0:50:
192,192,171604,1,0,0:0:0:50:
448,192,171604,1,0,0:0:0:50:
64,192,171672,1,0,0:0:0:50:
448,192,171740,1,0,0:0:0:70:LR_Kick Bass strong.wav
320,192,171740,1,0,0:0:0:50:
320,192,171809,1,0,0:0:0:50:soft-hitnormal.wav
448,192,171809,1,0,0:0:0:70:LR_Kick Bass strong.wav
64,192,171877,1,0,0:0:0:70:LR4_SnareBPDT.wav
320,192,171877,1,0,0:0:0:50:
448,192,171877,1,0,0:0:0:50:
192,192,171945,1,0,0:0:0:50:
64,192,172013,1,0,0:0:0:70:LR_Kick Bass strong.wav
320,192,172013,1,0,0:0:0:50:
448,192,172013,1,0,0:0:0:50:
192,192,172081,1,0,0:0:0:50:
64,192,172150,1,0,0:0:0:50:
192,192,172218,1,0,0:0:0:50:
320,192,172286,1,0,0:0:0:70:LR_Kick Bass strong.wav
448,192,172286,1,0,0:0:0:50:
64,192,172286,1,0,0:0:0:50:
192,192,172354,1,0,0:0:0:50:
320,192,172422,1,0,0:0:0:70:LR_Kick Bass strong.wav
448,192,172422,1,0,0:0:0:50:
448,192,172490,1,0,0:0:0:70:LR_Kick Bass strong.wav
192,192,172490,1,0,0:0:0:50:
320,192,172559,1,0,0:0:0:70:LR_Kick Bass strong.wav
64,192,172559,1,0,0:0:0:50:
192,192,172627,1,0,0:0:0:50:
320,192,172695,1,0,0:0:0:70:LR_Kick Bass strong.wav
448,192,172695,1,0,0:0:0:50:
64,192,172695,1,0,0:0:0:50:
320,192,172763,1,0,0:0:0:70:LR_Kick Bass strong.wav
448,192,172763,1,0,0:0:0:50:
64,192,172831,1,0,0:0:0:70:LR_Kick Bass strong.wav
192,192,172831,1,0,0:0:0:50:
448,192,172900,1,0,0:0:0:50:
320,192,172968,1,0,0:0:0:70:LR4_SnareBPDT.wav
64,192,172968,1,0,0:0:0:50:
192,192,172968,1,0,0:0:0:50:
448,192,173036,1,0,0:0:0:50:
64,192,173104,1,0,0:0:0:70:LR_Kick Bass strong.wav
320,192,173104,1,0,0:0:0:50:
192,192,173172,1,0,0:0:0:50:
320,192,173240,1,0,0:0:0:50:
448,192,173240,128,0,173513:0:0:0:50:
192,192,173377,128,0,173513:0:0:0:50:
320,192,173513,128,0,173547:0:0:0:70:LR_Kick Bass strong.wav
64,192,173513,1,0,0:0:0:100:LR4_ClapLRV.wav
192,192,173581,1,0,0:0:0:50:
320,192,173650,128,0,173684:0:0:0:100:LR4_ClapLRV.wav
64,192,173650,1,0,0:0:0:50:
192,192,173718,1,0,0:0:0:50:
448,192,173786,1,0,0:0:0:100:LR4_ClapLRV.wav
320,192,173786,128,0,173820:0:0:0:70:LR_Kick Bass strong.wav
64,192,173786,1,0,0:0:0:50:
192,192,173854,1,0,0:0:0:50:
448,192,173922,1,0,0:0:0:100:LR4_ClapLRV.wav
320,192,173922,128,0,173956:0:0:0:50:
192,192,173990,1,0,0:0:0:50:
448,192,174059,1,0,0:0:0:100:LR4_ClapLRV.wav
320,192,174059,128,0,174104:0:0:0:50:
64,192,174059,1,0,0:0:0:50:
192,192,174127,1,0,0:0:0:50:
320,192,174195,128,0,174240:0:0:0:100:LR4_ClapLRV.wav
64,192,174195,1,0,0:0:0:50:
192,192,174263,1,0,0:0:0:50:
448,192,174331,1,0,0:0:0:70:LR_Kick Bass strong.wav
320,192,174331,128,0,174377:0:0:0:100:LR4_ClapLRV.wav
64,192,174331,1,0,0:0:0:50:
192,192,174400,1,0,0:0:0:50:
320,192,174468,128,0,174513:0:0:0:100:LR4_ClapLRV.wav
64,192,174468,1,0,0:0:0:50:
192,192,174536,1,0,0:0:0:50:
320,192,174604,128,0,174672:0:0:0:100:LR4_ClapLRV.wav
64,192,174604,1,0,0:0:0:50:
448,192,174604,1,0,0:0:0:50:
192,192,174672,128,0,174740:0:0:0:50:
320,192,174740,128,0,174809:0:0:0:100:LR4_ClapLRV.wav
448,192,174740,1,0,0:0:0:50:
192,192,174809,128,0,174877:0:0:0:50:
320,192,174877,128,0,174945:0:0:0:70:LR_Kick Bass strong.wav
448,192,174877,1,0,0:0:0:100:LR4_ClapLRV.wav
192,192,174945,128,0,175013:0:0:0:70:LR_Kick Bass strong.wav
64,192,174945,1,0,0:0:0:50:
320,192,175013,128,0,175081:0:0:0:100:LR4_ClapLRV.wav
448,192,175013,1,0,0:0:0:50:
64,192,175081,128,0,175150:0:0:0:50:
320,192,175150,128,0,175218:0:0:0:100:LR4_ClapLRV.wav
192,192,175150,128,0,175218:0:0:0:50:
320,192,175286,128,0,175354:0:0:0:100:LR4_ClapLRV.wav
192,192,175286,128,0,175354:0:0:0:50:
320,192,175422,128,0,175695:0:0:0:100:LR4_ClapLRV.wav
192,192,175422,128,0,175695:0:0:0:50:
64,192,175695,1,0,0:0:0:50:
448,192,175695,128,0,175968:0:0:0:50:
64,192,175968,1,0,0:0:0:50:
192,192,175968,1,0,0:0:0:50:
320,192,175968,1,0,0:0:0:50:
64,192,176104,1,0,0:0:0:70:LR_CymbalSSF.wav
320,192,176104,1,0,0:0:0:70:LR4_SnareBPDT.wav
448,192,176104,1,0,0:0:0:50:
192,192,176104,1,0,0:0:0:50:
192,192,176240,1,0,0:0:0:70:LR_Kick Bass strong.wav
448,192,176240,1,0,0:0:0:50:
320,192,176240,128,0,176513:0:0:0:50:
64,192,176513,1,0,0:0:0:70:LR_CymbalSSF.wav
192,192,176513,1,0,0:0:0:50:
448,192,176513,1,0,0:0:0:50:
320,192,176581,1,0,0:0:0:50:
64,192,176650,1,0,0:0:0:50:
192,192,176718,1,0,0:0:0:50:
320,192,176786,1,0,0:0:0:70:LR_Kick Bass strong.wav
448,192,176786,1,0,0:0:0:50:
64,192,176786,1,0,0:0:0:50:
320,192,176854,1,0,0:0:0:70:LR_Kick Bass strong.wav
448,192,176854,1,0,0:0:0:50:
64,192,176922,1,0,0:0:0:70:LR_Kick Bass strong.wav
192,192,176922,1,0,0:0:0:50:
448,192,176922,1,0,0:0:0:50:
320,192,176990,1,0,0:0:0:50:
64,192,177059,1,0,0:0:0:70:LR_Kick Bass strong.wav
192,192,177059,1,0,0:0:0:50:
448,192,177059,1,0,0:0:0:50:
64,192,177127,1,0,0:0:0:70:LR_Kick Bass strong.wav
192,192,177127,1,0,0:0:0:50:
448,192,177195,1,0,0:0:0:70:LR_Kick Bass strong.wav
320,192,177195,1,0,0:0:0:50:
192,192,177263,1,0,0:0:0:50:
64,192,177331,1,0,0:0:0:70:LR4_SnareBPDT.wav
448,192,177331,1,0,0:0:0:50:
320,192,177400,1,0,0:0:0:50:
64,192,177468,1,0,0:0:0:70:LR_Kick Bass strong.wav
192,192,177468,1,0,0:0:0:50:
448,192,177468,1,0,0:0:0:50:
320,192,177536,1,0,0:0:0:50:
192,192,177604,1,0,0:0:0:50:
64,192,177604,128,0,177809:0:0:0:50:
448,192,177672,1,0,0:0:0:50:
320,192,177740,1,0,0:0:0:50:
448,192,177809,1,0,0:0:0:50:
192,192,177877,1,0,0:0:0:70:LR_Kick Bass strong.wav
320,192,177877,1,0,0:0:0:50:
64,192,177877,1,0,0:0:0:50:
448,192,177945,1,0,0:0:0:50:
64,192,178013,1,0,0:0:0:50:
192,192,178013,1,0,0:0:0:50:
320,192,178081,1,0,0:0:0:50:
64,192,178150,1,0,0:0:0:70:LR_Kick Bass strong.wav
192,192,178150,1,0,0:0:0:50:
448,192,178150,1,0,0:0:0:50:
320,192,178218,1,0,0:0:0:50:
64,192,178286,1,0,0:0:0:70:LR_Kick Bass strong.wav
192,192,178286,1,0,0:0:0:50:
64,192,178354,1,0,0:0:0:70:LR_Kick Bass strong.wav
192,192,178354,1,0,0:0:0:50:
192,192,178422,1,0,0:0:0:70:LR4_SnareBPDT.wav
64,192,178422,1,0,0:0:0:50:
448,192,178422,1,0,0:0:0:50:
320,192,178490,1,0,0:0:0:50:
192,192,178559,1,0,0:0:0:70:LR_Kick Bass strong.wav
64,192,178559,1,0,0:0:0:50:
448,192,178559,1,0,0:0:0:50:
320,192,178627,1,0,0:0:0:50:
192,192,178695,1,0,0:0:0:50:
320,192,178763,1,0,0:0:0:50:
64,192,178831,1,0,0:0:0:70:LR_Kick Bass strong.wav
448,192,178831,1,0,0:0:0:50:
192,192,178831,1,0,0:0:0:50:
320,192,178900,1,0,0:0:0:50:
64,192,178968,1,0,0:0:0:70:LR_Kick Bass strong.wav
192,192,178968,1,0,0:0:0:50:
64,192,179036,1,0,0:0:0:70:LR_Kick Bass strong.wav
320,192,179036,1,0,0:0:0:50:
192,192,179104,1,0,0:0:0:70:LR_Kick Bass strong.wav
448,192,179104,1,0,0:0:0:50:
320,192,179172,1,0,0:0:0:50:
64,192,179240,1,0,0:0:0:70:LR_Kick Bass strong.wav
192,192,179240,1,0,0:0:0:50:
448,192,179240,1,0,0:0:0:50:
64,192,179309,1,0,0:0:0:70:LR_Kick Bass strong.wav
192,192,179309,1,0,0:0:0:50:
320,192,179377,1,0,0:0:0:70:LR_Kick Bass strong.wav
448,192,179377,1,0,0:0:0:50:
192,192,179445,1,0,0:0:0:50:
64,192,179513,1,0,0:0:0:70:LR4_SnareBPDT.wav
320,192,179513,1,0,0:0:0:50:
448,192,179513,1,0,0:0:0:50:
192,192,179581,1,0,0:0:0:0:
64,192,179650,1,0,0:0:0:0:
448,192,179650,1,0,0:0:0:0:
320,192,179650,1,0,0:0:0:70:LR_Kick Bass strong.wav
448,192,179718,1,0,0:0:0:0:
320,192,179786,1,0,0:0:0:0:
192,192,179854,1,0,0:0:0:0:
64,192,179854,1,0,0:0:0:70:LR_Kick Bass strong.wav
448,192,179854,1,0,0:0:0:0:
64,192,179922,1,0,0:0:0:0:
192,192,179990,1,0,0:0:0:0:
64,192,180059,1,0,0:0:0:70:LR_CymbalSSF.wav
448,192,180059,1,0,0:0:0:50:
320,192,180059,1,0,0:0:0:50:
192,192,180127,1,0,0:0:0:50:
448,192,180127,1,0,0:0:0:50:
320,192,180195,1,0,0:0:0:50:
64,192,180195,1,0,0:0:0:50:
192,192,180263,1,0,0:0:0:50:
64,192,180331,1,0,0:0:0:50:
448,192,180331,1,0,0:0:0:50:
192,192,180400,1,0,0:0:0:50:
64,192,180468,1,0,0:0:0:50:
320,192,180468,1,0,0:0:0:50:
192,192,180536,1,0,0:0:0:50:
64,192,180604,1,0,0:0:0:70:LR_CymbalSSF.wav
448,192,180604,1,0,0:0:0:50:
320,192,180672,1,0,0:0:0:50:
448,192,180740,1,0,0:0:0:50:
192,192,180740,1,0,0:0:0:50:
320,192,180809,1,0,0:0:0:50:
448,192,180877,1,0,0:0:0:50:
64,192,180877,1,0,0:0:0:50:
320,192,180945,1,0,0:0:0:50:
192,192,181013,1,0,0:0:0:50:
448,192,181013,1,0,0:0:0:50:
320,192,181081,1,0,0:0:0:50:
448,192,181150,1,0,0:0:0:70:LR_CymbalSSF.wav
64,192,181150,1,0,0:0:0:50:
192,192,181218,1,0,0:0:0:50:
320,192,181286,1,0,0:0:0:50:
64,192,181286,1,0,0:0:0:50:
192,192,181354,1,0,0:0:0:50:
64,192,181422,1,0,0:0:0:50:
448,192,181422,1,0,0:0:0:50:
192,192,181490,1,0,0:0:0:50:
320,192,181559,1,0,0:0:0:50:
64,192,181559,1,0,0:0:0:50:
192,192,181627,1,0,0:0:0:50:
64,192,181695,1,0,0:0:0:70:LR_CymbalSSF.wav
448,192,181695,1,0,0:0:0:50:
320,192,181763,1,0,0:0:0:50:
192,192,181831,1,0,0:0:0:50:
448,192,181831,1,0,0:0:0:50:
320,192,181900,1,0,0:0:0:50:
448,192,181968,1,0,0:0:0:50:
64,192,181968,1,0,0:0:0:50:
320,192,182036,1,0,0:0:0:50:
192,192,182104,1,0,0:0:0:50:
448,192,182104,1,0,0:0:0:50:
320,192,182172,1,0,0:0:0:50:
448,192,182240,1,0,0:0:0:50:LR4_SnareBPDT.wav
64,192,182240,1,0,0:0:0:50:
192,192,182240,1,0,0:0:0:50:
64,192,182309,1,0,0:0:0:50:LR4_SnareBPDT.wav
192,192,182309,1,0,0:0:0:50:
320,192,182377,1,0,0:0:0:70:LR_Kick Bass strong.wav
448,192,182377,1,0,0:0:0:50:
64,192,182445,1,0,0:0:0:70:LR_Kick Bass strong.wav
320,192,182513,1,0,0:0:0:50:LR4_SnareBPDT.wav
448,192,182513,1,0,0:0:0:50:
320,192,182581,1,0,0:0:0:50:LR4_SnareBPDT.wav
448,192,182581,1,0,0:0:0:50:
192,192,182650,1,0,0:0:0:70:LR_Kick Bass strong.wav
64,192,182650,1,0,0:0:0:50:
448,192,182718,1,0,0:0:0:70:LR_Kick Bass strong.wav
64,192,182786,1,0,0:0:0:50:LR4_SnareBPDT.wav
192,192,182786,1,0,0:0:0:50:
64,192,182854,1,0,0:0:0:50:LR4_SnareBPDT.wav
192,192,182854,1,0,0:0:0:50:
320,192,182922,1,0,0:0:0:70:LR_Kick Bass strong.wav
448,192,182922,1,0,0:0:0:50:
64,192,182990,1,0,0:0:0:70:LR_Kick Bass strong.wav
320,192,183059,1,0,0:0:0:50:LR4_SnareBPDT.wav
448,192,183059,1,0,0:0:0:50:
448,192,183127,1,0,0:0:0:50:LR4_SnareBPDT.wav
320,192,183127,1,0,0:0:0:50:
64,192,183195,1,0,0:0:0:50:
192,192,183195,1,0,0:0:0:50:
320,192,183263,1,0,0:0:0:50:
192,192,183331,1,0,0:0:0:50:LR4_SnareBPDT.wav
64,192,183331,1,0,0:0:0:50:
448,192,183331,1,0,0:0:0:50:
64,192,183400,1,0,0:0:0:50:
192,192,183400,1,0,0:0:0:50:LR4_SnareBPDT.wav
448,192,183468,1,0,0:0:0:50:LR4_SnareBPDT.wav
320,192,183468,1,0,0:0:0:50:
448,192,183536,1,0,0:0:0:50:LR4_SnareBPDT.wav
320,192,183536,1,0,0:0:0:50:
192,192,183604,1,0,0:0:0:50:LR4_SnareBPDT.wav
64,192,183604,1,0,0:0:0:50:
192,192,183672,1,0,0:0:0:50:LR4_SnareBPDT.wav
64,192,183672,1,0,0:0:0:50:
320,192,183740,1,0,0:0:0:50:LR4_SnareBPDT.wav
448,192,183740,1,0,0:0:0:50:
448,192,183809,1,0,0:0:0:50:LR4_SnareBPDT.wav
320,192,183809,1,0,0:0:0:50:
192,192,183877,1,0,0:0:0:50:LR4_SnareBPDT.wav
64,192,183877,1,0,0:0:0:50:
64,192,183945,1,0,0:0:0:50:LR4_SnareBPDT.wav
448,192,184013,1,0,0:0:0:50:LR4_SnareBPDT.wav
320,192,184013,1,0,0:0:0:50:
448,192,184081,1,0,0:0:0:50:LR4_SnareBPDT.wav
192,192,184150,1,0,0:0:0:50:LR4_SnareBPDT.wav
64,192,184150,1,0,0:0:0:50:
64,192,184286,1,0,0:0:0:70:LR_CymbalSSF.wav
192,192,184286,1,0,0:0:0:50:
64,192,184422,1,0,0:0:0:70:LR_Kick Bass strong.wav
448,192,184422,1,0,0:0:0:50:
320,192,184468,1,0,0:0:0:50:
192,192,184513,1,0,0:0:0:50:
448,192,184559,1,0,0:0:0:50:
320,192,184604,1,0,0:0:0:50:
64,192,184650,1,0,0:0:0:50:
448,192,184695,1,0,0:0:0:50:
192,192,184740,1,0,0:0:0:50:
320,192,184786,1,0,0:0:0:50:
64,192,184831,1,0,0:0:0:70:LR_Kick Bass strong.wav
192,192,184877,1,0,0:0:0:50:
448,192,184922,1,0,0:0:0:50:
320,192,184968,1,0,0:0:0:70:LR4_SnareBPDT.wav
64,192,185013,1,0,0:0:0:50:
448,192,185059,1,0,0:0:0:50:
192,192,185104,1,0,0:0:0:50:
320,192,185150,1,0,0:0:0:50:
64,192,185195,1,0,0:0:0:50:
192,192,185240,1,0,0:0:0:70:LR_Kick Bass strong.wav
448,192,185286,1,0,0:0:0:50:
320,192,185331,1,0,0:0:0:50:
64,192,185377,1,0,0:0:0:50:
448,192,185422,1,0,0:0:0:50:
192,192,185468,1,0,0:0:0:50:
320,192,185513,1,0,0:0:0:50:
448,192,185559,1,0,0:0:0:50:
64,192,185604,1,0,0:0:0:50:
320,192,185650,1,0,0:0:0:50:
192,192,185695,1,0,0:0:0:50:
448,192,185740,1,0,0:0:0:50:
320,192,185786,1,0,0:0:0:70:LR_Kick Bass strong.wav
64,192,185831,1,0,0:0:0:50:
448,192,185877,1,0,0:0:0:50:
192,192,185922,1,0,0:0:0:70:LR_Kick Bass strong.wav
320,192,185968,1,0,0:0:0:50:
64,192,186013,1,0,0:0:0:50:
192,192,186059,1,0,0:0:0:70:LR4_SnareBPDT.wav
448,192,186104,1,0,0:0:0:50:
320,192,186150,1,0,0:0:0:50:
64,192,186195,1,0,0:0:0:70:LR_Kick Bass strong.wav
448,192,186240,1,0,0:0:0:50:
192,192,186286,1,0,0:0:0:50:
320,192,186331,1,0,0:0:0:50:
64,192,186377,1,0,0:0:0:50:
192,192,186422,1,0,0:0:0:50:
448,192,186468,1,0,0:0:0:50:
320,192,186513,1,0,0:0:0:50:
64,192,186559,1,0,0:0:0:50:
448,192,186604,1,0,0:0:0:70:LR_Kick Bass strong.wav
192,192,186650,1,0,0:0:0:50:
320,192,186695,1,0,0:0:0:50:
64,192,186740,1,0,0:0:0:50:
192,192,186786,1,0,0:0:0:50:
448,192,186831,1,0,0:0:0:50:
64,192,186877,1,0,0:0:0:50:
320,192,186922,1,0,0:0:0:50:
192,192,186968,1,0,0:0:0:50:
448,192,187013,1,0,0:0:0:70:LR_Kick Bass strong.wav
320,192,187059,1,0,0:0:0:50:
64,192,187104,1,0,0:0:0:50:
192,192,187150,1,0,0:0:0:70:LR4_SnareBPDT.wav
448,192,187195,1,0,0:0:0:50:
320,192,187240,1,0,0:0:0:50:
192,192,187286,1,0,0:0:0:50:
448,192,187331,1,0,0:0:0:50:
64,192,187377,1,0,0:0:0:50:
320,192,187422,1,0,0:0:0:70:LR_Kick Bass strong.wav
192,192,187468,1,0,0:0:0:50:
448,192,187513,1,0,0:0:0:50:
64,192,187559,1,0,0:0:0:50:
192,192,187604,1,0,0:0:0:50:
320,192,187650,1,0,0:0:0:50:
448,192,187695,1,0,0:0:0:50:
64,192,187695,1,0,0:0:0:50:
192,192,187729,1,0,0:0:0:50:
320,192,187763,1,0,0:0:0:50:
448,192,187797,1,0,0:0:0:50:
64,192,187831,1,0,0:0:0:50:
192,192,187865,1,0,0:0:0:50:
320,192,187900,1,0,0:0:0:50:
448,192,187934,1,0,0:0:0:50:
64,192,187968,1,0,0:0:0:100:LR4_ClapLRV.wav
192,192,187968,1,0,0:0:0:50:
192,192,188036,1,0,0:0:0:100:LR4_ClapLRV.wav
64,192,188036,1,0,0:0:0:50:
320,192,188104,1,0,0:0:0:100:LR4_ClapLRV.wav
448,192,188104,1,0,0:0:0:50:
320,192,188172,1,0,0:0:0:100:LR4_ClapLRV.wav
448,192,188172,1,0,0:0:0:50:
64,192,188240,1,0,0:0:0:100:LR4_ClapLRV.wav
192,192,188240,1,0,0:0:0:50:
64,192,188309,1,0,0:0:0:100:LR4_ClapLRV.wav
192,192,188309,1,0,0:0:0:50:
448,192,188377,1,0,0:0:0:100:LR4_ClapLRV.wav
320,192,188377,1,0,0:0:0:50:
448,192,188445,1,0,0:0:0:100:LR4_ClapLRV.wav
320,192,188445,1,0,0:0:0:50:
192,192,188513,1,0,0:0:0:100:LR4_ClapLRV.wav
64,192,188513,1,0,0:0:0:50:
192,192,188581,1,0,0:0:0:100:LR4_ClapLRV.wav
64,192,188581,1,0,0:0:0:50:
320,192,188650,1,0,0:0:0:100:LR4_ClapLRV.wav
448,192,188650,1,0,0:0:0:50:
320,192,188718,1,0,0:0:0:100:LR4_ClapLRV.wav
448,192,188718,1,0,0:0:0:50:
448,192,188786,1,0,0:0:0:70:LR_Kick Bass strong.wav
320,192,188786,1,0,0:0:0:50:
64,192,188831,1,0,0:0:0:50:
192,192,188877,1,0,0:0:0:50:
448,192,188922,1,0,0:0:0:50:
64,192,188968,1,0,0:0:0:50:
320,192,189013,1,0,0:0:0:50:
192,192,189059,1,0,0:0:0:50:
448,192,189104,1,0,0:0:0:50:
320,192,189150,1,0,0:0:0:50:
64,192,189195,1,0,0:0:0:70:LR_Kick Bass strong.wav
192,192,189240,1,0,0:0:0:50:
448,192,189286,1,0,0:0:0:50:
64,192,189331,1,0,0:0:0:70:LR4_SnareBPDT.wav
320,192,189377,1,0,0:0:0:50:
192,192,189422,1,0,0:0:0:50:
448,192,189468,1,0,0:0:0:50:
320,192,189513,1,0,0:0:0:50:
64,192,189559,1,0,0:0:0:50:
448,192,189604,1,0,0:0:0:70:LR_Kick Bass strong.wav
192,192,189650,1,0,0:0:0:50:
320,192,189695,1,0,0:0:0:50:
64,192,189740,1,0,0:0:0:50:
192,192,189786,1,0,0:0:0:50:
448,192,189831,1,0,0:0:0:50:
64,192,189877,1,0,0:0:0:50:
320,192,189922,1,0,0:0:0:50:
192,192,189968,1,0,0:0:0:50:
448,192,190013,1,0,0:0:0:50:
64,192,190059,1,0,0:0:0:50:
320,192,190104,1,0,0:0:0:50:
448,192,190150,1,0,0:0:0:70:LR_Kick Bass strong.wav
192,192,190195,1,0,0:0:0:50:
64,192,190240,1,0,0:0:0:50:
448,192,190286,1,0,0:0:0:70:LR_Kick Bass strong.wav
192,192,190331,1,0,0:0:0:50:
320,192,190377,1,0,0:0:0:50:
64,192,190422,1,0,0:0:0:70:LR4_SnareBPDT.wav
448,192,190468,1,0,0:0:0:50:
192,192,190513,1,0,0:0:0:50:
320,192,190559,1,0,0:0:0:70:LR_Kick Bass strong.wav
448,192,190604,1,0,0:0:0:50:
64,192,190650,1,0,0:0:0:50:
320,192,190695,1,0,0:0:0:50:
192,192,190740,1,0,0:0:0:50:
448,192,190786,1,0,0:0:0:50:
64,192,190831,1,0,0:0:0:50:
320,192,190877,1,0,0:0:0:50:
448,192,190922,1,0,0:0:0:50:
64,192,190968,1,0,0:0:0:70:LR_Kick Bass strong.wav
192,192,190968,1,0,0:0:0:100:LR4_ClapLRV.wav
320,192,191013,1,0,0:0:0:50:
448,192,191059,1,0,0:0:0:50:
192,192,191104,1,0,0:0:0:50:
320,192,191150,1,0,0:0:0:50:
64,192,191195,1,0,0:0:0:50:
192,192,191240,1,0,0:0:0:100:LR4_ClapLRV.wav
448,192,191240,1,0,0:0:0:50:
320,192,191309,1,0,0:0:0:100:LR4_ClapLRV.wav
448,192,191377,1,0,0:0:0:100:LR4_ClapLRV.wav
64,192,191377,1,0,0:0:0:70:LR_Kick Bass strong.wav
320,192,191445,1,0,0:0:0:100:LR4_ClapLRV.wav
64,192,191445,1,0,0:0:0:50:
448,192,191513,1,0,0:0:0:70:LR4_SnareBPDT.wav
192,192,191513,1,0,0:0:0:100:LR4_ClapLRV.wav
320,192,191581,1,0,0:0:0:100:LR4_ClapLRV.wav
64,192,191581,1,0,0:0:0:50:
448,192,191650,1,0,0:0:0:100:LR4_ClapLRV.wav
192,192,191650,1,0,0:0:0:50:
320,192,191718,1,0,0:0:0:100:LR4_ClapLRV.wav
64,192,191718,1,0,0:0:0:50:
448,192,191786,1,0,0:0:0:100:LR4_ClapLRV.wav
192,192,191786,1,0,0:0:0:50:
64,192,191854,1,0,0:0:0:50:
192,192,191922,1,0,0:0:0:100:LR4_ClapLRV.wav
320,192,191922,1,0,0:0:0:50:
448,192,191990,1,0,0:0:0:50:
64,192,192059,1,0,0:0:0:100:LR4_ClapLRV.wav
320,192,192059,1,0,0:0:0:50:
192,192,192127,1,0,0:0:0:50:
448,192,192195,1,0,0:0:0:100:LR4_ClapLRV.wav
64,192,192195,1,0,0:0:0:50:
320,192,192263,1,0,0:0:0:50:
448,192,192331,1,0,0:0:0:100:LR4_ClapLRV.wav
64,192,192331,1,0,0:0:0:50:
192,192,192400,1,0,0:0:0:50:
64,192,192468,1,0,0:0:0:100:LR4_ClapLRV.wav
448,192,192468,1,0,0:0:0:50:
320,192,192536,1,0,0:0:0:50:
64,192,192604,1,0,0:0:0:100:LR4_ClapLRV.wav
448,192,192604,1,0,0:0:0:50:
192,192,192672,1,0,0:0:0:50:
320,192,192740,1,0,0:0:0:100:LR4_ClapLRV.wav
448,192,192740,1,0,0:0:0:50:
192,192,192809,1,0,0:0:0:50:
64,192,192877,1,0,0:0:0:100:LR4_ClapLRV.wav
448,192,192877,1,0,0:0:0:50:
320,192,192922,1,0,0:0:0:50:
192,192,192968,1,0,0:0:0:50:
448,192,193013,1,0,0:0:0:100:LR4_ClapLRV.wav
320,192,193059,1,0,0:0:0:50:
64,192,193104,1,0,0:0:0:50:
192,192,193150,1,0,0:0:0:100:LR4_ClapLRV.wav
448,192,193150,1,0,0:0:0:50:
320,192,193195,1,0,0:0:0:50:
64,192,193240,1,0,0:0:0:50:
192,192,193286,1,0,0:0:0:50:
448,192,193331,1,0,0:0:0:50:
64,192,193377,1,0,0:0:0:50:
320,192,193422,1,0,0:0:0:50:
192,192,193468,1,0,0:0:0:50:
448,192,193513,1,0,0:0:0:50:
320,192,193559,1,0,0:0:0:70:LR_Kick Bass strong.wav
64,192,193559,1,0,0:0:0:50:
192,192,193604,1,0,0:0:0:50:
448,192,193650,1,0,0:0:0:50:
64,192,193695,1,0,0:0:0:70:LR4_SnareBPDT.wav
320,192,193695,1,0,0:0:0:50:
192,192,193740,1,0,0:0:0:50:
448,192,193786,1,0,0:0:0:50:
64,192,193831,1,0,0:0:0:50:
320,192,193877,1,0,0:0:0:50:
192,192,193922,1,0,0:0:0:50:
448,192,193968,1,0,0:0:0:70:LR_Kick Bass strong.wav
64,192,193968,1,0,0:0:0:50:
320,192,194013,1,0,0:0:0:50:
192,192,194059,1,0,0:0:0:50:
64,192,194104,1,0,0:0:0:50:
448,192,194150,1,0,0:0:0:50:
192,192,194195,1,0,0:0:0:50:
320,192,194240,1,0,0:0:0:50:
64,192,194286,1,0,0:0:0:50:
448,192,194331,1,0,0:0:0:50:
192,192,194377,1,0,0:0:0:50:
320,192,194422,1,0,0:0:0:50:
448,192,194468,1,0,0:0:0:50:
192,192,194513,1,0,0:0:0:70:LR_Kick Bass strong.wav
64,192,194513,1,0,0:0:0:50:
320,192,194559,1,0,0:0:0:50:
64,192,194581,1,0,0:0:0:50:
448,192,194604,1,0,0:0:0:50:
192,192,194650,1,0,0:0:0:70:LR_Kick Bass strong.wav
320,192,194695,1,0,0:0:0:50:
64,192,194740,1,0,0:0:0:50:
448,192,194786,1,0,0:0:0:70:LR4_SnareBPDT.wav
192,192,194786,1,0,0:0:0:50:
320,192,194831,1,0,0:0:0:50:
64,192,194877,1,0,0:0:0:50:
448,192,194922,1,0,0:0:0:70:LR_Kick Bass strong.wav
192,192,194922,1,0,0:0:0:50:
320,192,194968,1,0,0:0:0:50:
64,192,195013,1,0,0:0:0:50:
448,192,195059,1,0,0:0:0:50:
192,192,195104,1,0,0:0:0:50:
320,192,195150,1,0,0:0:0:50:
448,192,195195,1,0,0:0:0:50:
64,192,195240,1,0,0:0:0:50:
320,192,195286,1,0,0:0:0:50:
192,192,195331,1,0,0:0:0:70:LR_Kick Bass strong.wav
448,192,195331,1,0,0:0:0:50:
64,192,195377,1,0,0:0:0:50:
320,192,195422,1,0,0:0:0:50:
448,192,195468,1,0,0:0:0:50:
64,192,195513,1,0,0:0:0:50:
320,192,195559,1,0,0:0:0:50:
192,192,195604,1,0,0:0:0:50:
448,192,195650,1,0,0:0:0:50:
320,192,195695,1,0,0:0:0:50:
192,192,195740,1,0,0:0:0:70:LR_Kick Bass strong.wav
64,192,195740,1,0,0:0:0:50:
448,192,195786,1,0,0:0:0:50:
320,192,195831,1,0,0:0:0:50:
192,192,195877,1,0,0:0:0:70:LR4_SnareBPDT.wav
64,192,195877,1,0,0:0:0:50:
448,192,195922,1,0,0:0:0:50:
320,192,195968,1,0,0:0:0:50:
64,192,196013,1,0,0:0:0:50:
192,192,196059,1,0,0:0:0:50:
448,192,196104,1,0,0:0:0:50:
64,192,196150,1,0,0:0:0:70:LR_Kick Bass strong.wav
320,192,196150,1,0,0:0:0:50:
192,192,196195,1,0,0:0:0:50:
448,192,196240,1,0,0:0:0:50:
64,192,196286,1,0,0:0:0:50:
192,192,196331,1,0,0:0:0:50:
320,192,196377,1,0,0:0:0:50:
64,192,196422,1,0,0:0:0:50:
448,192,196422,1,0,0:0:0:50:
192,192,196456,1,0,0:0:0:50:
320,192,196490,1,0,0:0:0:50:
448,192,196525,1,0,0:0:0:50:
64,192,196559,1,0,0:0:0:50:
192,192,196593,1,0,0:0:0:50:
320,192,196627,1,0,0:0:0:50:
448,192,196661,1,0,0:0:0:50:
192,192,196695,1,0,0:0:0:70:LR4_ClapLRV.wav
64,192,196695,1,0,0:0:0:50:
192,192,196763,1,0,0:0:0:70:LR4_ClapLRV.wav
64,192,196763,1,0,0:0:0:50:
320,192,196831,1,0,0:0:0:70:LR4_ClapLRV.wav
448,192,196831,1,0,0:0:0:50:
320,192,196900,1,0,0:0:0:70:LR4_ClapLRV.wav
448,192,196900,1,0,0:0:0:50:
64,192,196968,1,0,0:0:0:70:LR4_ClapLRV.wav
192,192,196968,1,0,0:0:0:50:
64,192,197036,1,0,0:0:0:70:LR4_ClapLRV.wav
192,192,197036,1,0,0:0:0:50:
320,192,197104,1,0,0:0:0:70:LR4_ClapLRV.wav
448,192,197104,1,0,0:0:0:50:
448,192,197172,1,0,0:0:0:70:LR4_ClapLRV.wav
320,192,197172,1,0,0:0:0:50:
64,192,197240,128,0,197445:0:0:0:70:LR4_ClapLRV.wav
192,192,197240,128,0,197445:0:0:0:50:
320,192,197309,1,0,0:0:0:70:LR4_ClapLRV.wav
448,192,197377,1,0,0:0:0:70:LR4_ClapLRV.wav
320,192,197445,1,0,0:0:0:70:LR4_ClapLRV.wav
64,192,197513,1,0,0:0:0:70:LR_Kick Bass strong.wav
192,192,197513,1,0,0:0:0:50:
320,192,197581,1,0,0:0:0:50:
448,192,197650,1,0,0:0:0:50:
64,192,197650,1,0,0:0:0:50:
192,192,197718,1,0,0:0:0:50:
320,192,197786,1,0,0:0:0:50:
448,192,197786,1,0,0:0:0:50:
64,192,197854,1,0,0:0:0:50:
192,192,197922,1,0,0:0:0:70:LR_Kick Bass strong.wav
320,192,197922,1,0,0:0:0:50:
448,192,197922,1,0,0:0:0:50:
64,192,197990,1,0,0:0:0:50:
192,192,198059,1,0,0:0:0:70:LR_Kick Bass strong.wav
320,192,198059,1,0,0:0:0:50:
448,192,198059,1,0,0:0:0:50:
64,192,198127,1,0,0:0:0:50:
192,192,198195,1,0,0:0:0:50:
448,192,198195,1,0,0:0:0:50:
320,192,198263,1,0,0:0:0:50:
64,192,198331,1,0,0:0:0:70:LR_Kick Bass strong.wav
192,192,198331,1,0,0:0:0:50:
448,192,198331,1,0,0:0:0:50:
320,192,198400,1,0,0:0:0:50:
192,192,198468,1,0,0:0:0:50:
64,192,198468,1,0,0:0:0:50:
448,192,198536,1,0,0:0:0:50:
320,192,198604,1,0,0:0:0:50:
64,192,198604,1,0,0:0:0:50:
192,192,198672,1,0,0:0:0:50:
320,192,198740,1,0,0:0:0:70:LR_Kick Bass strong.wav
448,192,198740,1,0,0:0:0:50:
64,192,198740,1,0,0:0:0:50:
192,192,198809,1,0,0:0:0:50:
448,192,198877,1,0,0:0:0:70:LR_Kick Bass strong.wav
64,192,198877,1,0,0:0:0:50:
320,192,198877,1,0,0:0:0:50:
192,192,198945,1,0,0:0:0:50:
448,192,199013,1,0,0:0:0:50:
64,192,199013,1,0,0:0:0:50:
320,192,199081,1,0,0:0:0:50:
64,192,199150,1,0,0:0:0:70:LR_Kick Bass strong.wav
192,192,199150,1,0,0:0:0:50:
448,192,199150,1,0,0:0:0:50:
320,192,199218,1,0,0:0:0:50:
192,192,199286,1,0,0:0:0:50:
64,192,199286,1,0,0:0:0:50:
448,192,199354,1,0,0:0:0:50:
320,192,199422,1,0,0:0:0:70:LR_Kick Bass strong.wav
192,192,199422,1,0,0:0:0:50:
64,192,199422,1,0,0:0:0:50:
448,192,199490,1,0,0:0:0:50:
320,192,199559,1,0,0:0:0:50:
64,192,199559,1,0,0:0:0:50:
192,192,199627,1,0,0:0:0:50:
320,192,199695,1,0,0:0:0:70:LR_Kick Bass strong.wav
448,192,199695,1,0,0:0:0:50:
64,192,199695,1,0,0:0:0:50:
64,192,199763,1,0,0:0:0:50:
320,192,199831,1,0,0:0:0:50:
448,192,199831,1,0,0:0:0:50:
192,192,199900,1,0,0:0:0:50:
64,192,199968,1,0,0:0:0:50:
320,192,199968,1,0,0:0:0:50:
448,192,200036,1,0,0:0:0:50:
192,192,200104,1,0,0:0:0:70:LR_Kick Bass strong.wav
320,192,200104,1,0,0:0:0:50:
64,192,200104,1,0,0:0:0:50:
448,192,200172,1,0,0:0:0:50:
64,192,200240,1,0,0:0:0:70:LR_Kick Bass strong.wav
320,192,200240,1,0,0:0:0:50:
192,192,200240,1,0,0:0:0:50:
192,192,200309,1,0,0:0:0:50:
448,192,200377,1,0,0:0:0:50:
320,192,200377,1,0,0:0:0:50:
192,192,200445,1,0,0:0:0:50:
320,192,200513,1,0,0:0:0:70:LR_Kick Bass strong.wav
64,192,200513,1,0,0:0:0:50:
448,192,200513,1,0,0:0:0:50:
192,192,200581,1,0,0:0:0:50:
320,192,200650,1,0,0:0:0:70:LR_Kick Bass strong.wav
64,192,200650,1,0,0:0:0:50:
448,192,200650,1,0,0:0:0:50:
192,192,200718,1,0,0:0:0:50:
320,192,200786,1,0,0:0:0:70:LR_Kick Bass strong.wav
448,192,200786,1,0,0:0:0:50:
64,192,200786,1,0,0:0:0:50:
64,192,200854,1,0,0:0:0:70:LR_Kick Bass strong.wav
192,192,200854,1,0,0:0:0:50:
320,192,200922,1,0,0:0:0:70:LR_Kick Bass strong.wav
448,192,200922,1,0,0:0:0:50:
64,192,200990,1,0,0:0:0:70:LR_Kick Bass strong.wav
192,192,200990,1,0,0:0:0:50:
320,192,201059,1,0,0:0:0:70:LR_Kick Bass strong.wav
448,192,201059,1,0,0:0:0:50:
64,192,201127,1,0,0:0:0:70:LR_Kick Bass strong.wav
192,192,201127,1,0,0:0:0:50:
320,192,201195,1,0,0:0:0:70:LR_Kick Bass strong.wav
448,192,201195,1,0,0:0:0:50:
192,192,201263,1,0,0:0:0:70:LR_Kick Bass strong.wav
64,192,201263,1,0,0:0:0:50:
448,192,201331,128,0,201604:0:0:0:50:
448,192,201740,128,0,201877:0:0:0:50:
64,192,201877,1,0,0:0:0:100:LR4_ClapLRV.wav
320,192,201877,1,0,0:0:0:50:
192,192,201877,1,0,0:0:0:50:
448,192,201922,1,0,0:0:0:50:
64,192,201968,1,0,0:0:0:50:
192,192,202013,1,0,0:0:0:100:LR4_ClapLRV.wav
320,192,202013,1,0,0:0:0:50:
448,192,202081,1,0,0:0:0:50:
64,192,202150,1,0,0:0:0:100:LR4_ClapLRV.wav
320,192,202150,1,0,0:0:0:50:
192,192,202218,1,0,0:0:0:50:
320,192,202286,1,0,0:0:0:100:LR4_ClapLRV.wav
448,192,202286,1,0,0:0:0:50:
64,192,202354,1,0,0:0:0:50:
192,192,202422,1,0,0:0:0:100:LR4_ClapLRV.wav
448,192,202422,1,0,0:0:0:50:
320,192,202490,1,0,0:0:0:50:
64,192,202559,1,0,0:0:0:100:LR4_ClapLRV.wav
192,192,202559,1,0,0:0:0:50:
448,192,202627,1,0,0:0:0:100:LR4_ClapLRV.wav
320,192,202695,1,0,0:0:0:100:LR4_ClapLRV.wav
64,192,202695,1,0,0:0:0:50:
192,192,202763,1,0,0:0:0:50:
320,192,202831,1,0,0:0:0:100:LR4_ClapLRV.wav
448,192,202831,1,0,0:0:0:50:
64,192,202900,1,0,0:0:0:50:
192,192,202968,1,0,0:0:0:100:LR4_ClapLRV.wav
320,192,202968,1,0,0:0:0:50:
448,192,203013,1,0,0:0:0:50:
64,192,203059,1,0,0:0:0:50:
192,192,203104,1,0,0:0:0:100:LR4_ClapLRV.wav
320,192,203104,1,0,0:0:0:50:
448,192,203172,1,0,0:0:0:50:
64,192,203240,1,0,0:0:0:100:LR4_ClapLRV.wav
320,192,203240,1,0,0:0:0:50:
192,192,203309,1,0,0:0:0:50:
64,192,203377,1,0,0:0:0:100:LR4_ClapLRV.wav
448,192,203377,1,0,0:0:0:50:
320,192,203445,1,0,0:0:0:50:
64,192,203513,1,0,0:0:0:100:LR4_ClapLRV.wav
192,192,203513,1,0,0:0:0:50:
448,192,203581,1,0,0:0:0:50:
320,192,203650,1,0,0:0:0:100:LR4_ClapLRV.wav
192,192,203650,1,0,0:0:0:50:
192,192,203718,1,0,0:0:0:100:LR4_ClapLRV.wav
320,192,203786,1,0,0:0:0:100:LR4_ClapLRV.wav
448,192,203786,1,0,0:0:0:50:
64,192,203854,1,0,0:0:0:50:
448,192,203922,1,0,0:0:0:100:LR4_ClapLRV.wav
320,192,203922,1,0,0:0:0:50:
192,192,203990,1,0,0:0:0:50:
64,192,204059,1,0,0:0:0:100:LR4_ClapLRV.wav
448,192,204059,1,0,0:0:0:50:
320,192,204104,1,0,0:0:0:50:
192,192,204150,1,0,0:0:0:50:
64,192,204195,1,0,0:0:0:100:LR4_ClapLRV.wav
448,192,204195,1,0,0:0:0:50:
320,192,204263,1,0,0:0:0:50:
64,192,204331,1,0,0:0:0:100:LR4_ClapLRV.wav
192,192,204331,1,0,0:0:0:50:
448,192,204400,1,0,0:0:0:50:
320,192,204468,1,0,0:0:0:100:LR4_ClapLRV.wav
64,192,204468,1,0,0:0:0:50:
192,192,204536,1,0,0:0:0:50:
320,192,204604,1,0,0:0:0:100:LR4_ClapLRV.wav
448,192,204604,1,0,0:0:0:50:
64,192,204672,1,0,0:0:0:50:
192,192,204740,1,0,0:0:0:100:LR4_ClapLRV.wav
320,192,204740,1,0,0:0:0:50:
448,192,204809,1,0,0:0:0:100:LR4_ClapLRV.wav
64,192,204877,1,0,0:0:0:100:LR4_ClapLRV.wav
192,192,204877,1,0,0:0:0:50:
448,192,204945,1,0,0:0:0:50:
320,192,205013,1,0,0:0:0:100:LR4_ClapLRV.wav
64,192,205013,1,0,0:0:0:50:
192,192,205081,1,0,0:0:0:50:
320,192,205150,1,0,0:0:0:100:LR4_ClapLRV.wav
448,192,205150,1,0,0:0:0:50:
192,192,205195,1,0,0:0:0:100:LR4_ClapLRV.wav
64,192,205240,1,0,0:0:0:100:LR4_ClapLRV.wav
320,192,205286,1,0,0:0:0:100:LR4_ClapLRV.wav
448,192,205286,1,0,0:0:0:50:
192,192,205354,1,0,0:0:0:100:LR4_ClapLRV.wav
64,192,205422,1,0,0:0:0:100:LR4_ClapLRV.wav
448,192,205422,1,0,0:0:0:50:
320,192,205490,1,0,0:0:0:50:
64,192,205559,1,0,0:0:0:100:LR4_ClapLRV.wav
192,192,205559,1,0,0:0:0:50:
448,192,205627,1,0,0:0:0:100:LR4_ClapLRV.wav
320,192,205695,1,0,0:0:0:100:LR4_ClapLRV.wav
64,192,205695,1,0,0:0:0:50:
64,192,205763,1,0,0:0:0:100:LR4_ClapLRV.wav
320,192,205831,1,0,0:0:0:100:LR4_ClapLRV.wav
448,192,205831,1,0,0:0:0:50:
192,192,205900,1,0,0:0:0:100:LR4_ClapLRV.wav
448,192,205968,1,0,0:0:0:100:LR4_ClapLRV.wav
64,192,205968,1,0,0:0:0:50:
320,192,206036,1,0,0:0:0:100:LR4_ClapLRV.wav
64,192,206104,1,0,0:0:0:100:LR4_ClapLRV.wav
192,192,206104,1,0,0:0:0:50:
448,192,206172,1,0,0:0:0:50:
320,192,206240,1,0,0:0:0:100:LR4_ClapLRV.wav
64,192,206240,1,0,0:0:0:70:LR4_SnareBPDT.wav
192,192,206240,1,0,0:0:0:50:
320,192,206309,1,0,0:0:0:70:LR_Kick Bass strong.wav
64,192,206377,1,0,0:0:0:100:LR4_ClapLRV.wav
192,192,206377,1,0,0:0:0:70:LR_Kick Bass strong.wav
320,192,206445,1,0,0:0:0:70:LR_Kick Bass strong.wav
64,192,206513,1,0,0:0:0:100:LR4_ClapLRV.wav
448,192,206513,1,0,0:0:0:70:LR4_SnareBPDT.wav
192,192,206513,1,0,0:0:0:50:
448,192,206581,1,0,0:0:0:70:LR_Kick Bass strong.wav
192,192,206650,1,0,0:0:0:70:LR_Kick Bass strong.wav
64,192,206650,1,0,0:0:0:100:LR4_ClapLRV.wav
448,192,206718,1,0,0:0:0:70:LR_Kick Bass strong.wav
320,192,206786,1,0,0:0:0:100:LR4_ClapLRV.wav
64,192,206786,1,0,0:0:0:70:LR4_SnareBPDT.wav
192,192,206786,1,0,0:0:0:50:
320,192,206854,1,0,0:0:0:70:LR_Kick Bass strong.wav
192,192,206922,1,0,0:0:0:70:LR_Kick Bass strong.wav
64,192,206922,1,0,0:0:0:100:LR4_ClapLRV.wav
320,192,206990,1,0,0:0:0:70:LR_Kick Bass strong.wav
192,192,207059,1,0,0:0:0:70:LR4_SnareBPDT.wav
448,192,207059,1,0,0:0:0:100:LR4_ClapLRV.wav
64,192,207059,1,0,0:0:0:50:
448,192,207127,1,0,0:0:0:70:LR_Kick Bass strong.wav
192,192,207195,1,0,0:0:0:70:LR_Kick Bass strong.wav
64,192,207195,1,0,0:0:0:100:LR4_ClapLRV.wav
320,192,207263,1,0,0:0:0:70:LR_Kick Bass strong.wav
192,192,207331,1,0,0:0:0:70:LR4_SnareBPDT.wav
64,192,207331,1,0,0:0:0:100:LR4_ClapLRV.wav
448,192,207331,1,0,0:0:0:50:
192,192,207400,1,0,0:0:0:70:LR_Kick Bass strong.wav
448,192,207468,1,0,0:0:0:100:LR4_ClapLRV.wav
320,192,207468,1,0,0:0:0:70:LR_Kick Bass strong.wav
192,192,207536,1,0,0:0:0:70:LR_Kick Bass strong.wav
448,192,207604,1,0,0:0:0:100:LR4_ClapLRV.wav
64,192,207604,1,0,0:0:0:70:LR4_SnareBPDT.wav
320,192,207604,1,0,0:0:0:50:
64,192,207672,1,0,0:0:0:70:LR_Kick Bass strong.wav
448,192,207740,1,0,0:0:0:100:LR4_ClapLRV.wav
320,192,207740,1,0,0:0:0:70:LR_Kick Bass strong.wav
64,192,207809,1,0,0:0:0:70:LR_Kick Bass strong.wav
448,192,207877,1,0,0:0:0:100:LR4_ClapLRV.wav
320,192,207877,1,0,0:0:0:70:LR4_SnareBPDT.wav
192,192,207877,1,0,0:0:0:50:
192,192,207945,1,0,0:0:0:70:LR_Kick Bass strong.wav
320,192,208013,1,0,0:0:0:70:LR_Kick Bass strong.wav
448,192,208013,1,0,0:0:0:100:LR4_ClapLRV.wav
192,192,208081,1,0,0:0:0:70:LR_Kick Bass strong.wav
320,192,208150,1,0,0:0:0:70:LR4_SnareBPDT.wav
64,192,208150,1,0,0:0:0:100:LR4_ClapLRV.wav
448,192,208150,1,0,0:0:0:50:
64,192,208218,1,0,0:0:0:70:LR_Kick Bass strong.wav
320,192,208286,1,0,0:0:0:70:LR_Kick Bass strong.wav
448,192,208286,1,0,0:0:0:100:LR4_ClapLRV.wav
64,192,208354,1,0,0:0:0:70:LR_Kick Bass strong.wav
192,192,208422,1,0,0:0:0:40:LR4_SnareBPDT.wav
320,192,208422,1,0,0:0:0:100:LR4_ClapLRV.wav
448,192,208422,1,0,0:0:0:50:
448,192,208490,1,0,0:0:0:100:LR4_ClapLRV.wav
320,192,208490,1,0,0:0:0:40:LR4_SnareBPDT.wav
192,192,208559,1,0,0:0:0:100:LR4_ClapLRV.wav
64,192,208559,1,0,0:0:0:40:LR4_SnareBPDT.wav
448,192,208627,1,0,0:0:0:100:LR4_ClapLRV.wav
320,192,208627,1,0,0:0:0:40:LR4_SnareBPDT.wav
192,192,208695,1,0,0:0:0:100:LR4_ClapLRV.wav
64,192,208695,1,0,0:0:0:40:LR4_SnareBPDT.wav
448,192,208763,1,0,0:0:0:100:LR4_ClapLRV.wav
320,192,208763,1,0,0:0:0:40:LR4_SnareBPDT.wav
192,192,208831,1,0,0:0:0:100:LR4_ClapLRV.wav
64,192,208831,1,0,0:0:0:40:LR4_SnareBPDT.wav
448,192,208900,1,0,0:0:0:100:LR4_ClapLRV.wav
320,192,208900,1,0,0:0:0:40:LR4_SnareBPDT.wav
192,192,208968,1,0,0:0:0:100:LR4_ClapLRV.wav
64,192,208968,1,0,0:0:0:40:LR4_SnareBPDT.wav
64,192,209036,1,0,0:0:0:100:LR4_ClapLRV.wav
192,192,209036,1,0,0:0:0:40:LR4_SnareBPDT.wav
320,192,209104,1,0,0:0:0:100:LR4_ClapLRV.wav
448,192,209104,1,0,0:0:0:40:LR4_SnareBPDT.wav
448,192,209172,1,0,0:0:0:100:LR4_ClapLRV.wav
320,192,209172,1,0,0:0:0:40:LR4_SnareBPDT.wav
192,192,209240,1,0,0:0:0:100:LR4_ClapLRV.wav
64,192,209240,1,0,0:0:0:40:LR4_SnareBPDT.wav
64,192,209309,1,0,0:0:0:100:LR4_ClapLRV.wav
192,192,209309,1,0,0:0:0:40:LR4_SnareBPDT.wav
320,192,209377,1,0,0:0:0:100:LR4_ClapLRV.wav
448,192,209377,1,0,0:0:0:40:LR4_SnareBPDT.wav
448,192,209445,1,0,0:0:0:100:LR4_ClapLRV.wav
320,192,209445,1,0,0:0:0:40:LR4_SnareBPDT.wav
448,192,209513,1,0,0:0:0:100:LR4_ClapLRV.wav
192,192,209513,128,0,209581:0:0:0:40:LR4_SnareBPDT.wav
64,192,209513,128,0,209581:0:0:0:50:
64,192,209650,128,0,209718:0:0:0:50:
192,192,209650,128,0,209718:0:0:0:50:
64,192,209922,128,0,209990:0:0:0:50:
192,192,209922,128,0,209990:0:0:0:50:
192,192,210059,128,0,210127:0:0:0:50:
64,192,210059,128,0,210127:0:0:0:50:
64,192,210195,128,0,210263:0:0:0:50:
320,192,210195,128,0,210263:0:0:0:50:
448,192,210195,128,0,210229:0:0:0:50:
320,192,210331,128,0,210400:0:0:0:50:
192,192,210331,128,0,210400:0:0:0:50:
448,192,210331,128,0,210365:0:0:0:50:
64,192,210604,1,0,0:0:0:70:LR_Kick Bass strong.wav
192,192,210604,1,0,0:0:0:50:
448,192,210604,1,0,0:0:0:50:
64,192,210672,1,0,0:0:0:50:
192,192,210740,1,0,0:0:0:50:
320,192,210740,1,0,0:0:0:50:
448,192,210809,1,0,0:0:0:50:
320,192,210877,1,0,0:0:0:50:
64,192,210877,1,0,0:0:0:50:
192,192,210945,1,0,0:0:0:50:
320,192,211013,1,0,0:0:0:70:LR_Kick Bass strong.wav
448,192,211013,1,0,0:0:0:50:
64,192,211081,1,0,0:0:0:50:
192,192,211150,1,0,0:0:0:50:
448,192,211150,1,0,0:0:0:50:
320,192,211218,1,0,0:0:0:50:
64,192,211286,1,0,0:0:0:70:LR_Kick Bass strong.wav
192,192,211286,1,0,0:0:0:50:
448,192,211354,1,0,0:0:0:50:
320,192,211422,1,0,0:0:0:70:LR4_SnareBPDT.wav
192,192,211422,1,0,0:0:0:50:
64,192,211490,1,0,0:0:0:50:
320,192,211559,1,0,0:0:0:70:LR_Kick Bass strong.wav
448,192,211559,1,0,0:0:0:50:
448,192,211627,1,0,0:0:0:50:
192,192,211627,1,0,0:0:0:50:
64,192,211695,1,0,0:0:0:50:
320,192,211695,1,0,0:0:0:50:
192,192,211740,1,0,0:0:0:50:
64,192,211786,1,0,0:0:0:50:
320,192,211831,1,0,0:0:0:50:
192,192,211877,1,0,0:0:0:50:
448,192,211922,1,0,0:0:0:50:
320,192,211968,1,0,0:0:0:70:LR_Kick Bass strong.wav
64,192,211968,1,0,0:0:0:50:
192,192,212013,1,0,0:0:0:50:
448,192,212059,1,0,0:0:0:50:
320,192,212104,1,0,0:0:0:50:
64,192,212150,1,0,0:0:0:50:
192,192,212195,1,0,0:0:0:50:
320,192,212240,1,0,0:0:0:50:
448,192,212286,1,0,0:0:0:50:
64,192,212331,1,0,0:0:0:50:
320,192,212377,1,0,0:0:0:70:LR_Kick Bass strong.wav
192,192,212377,1,0,0:0:0:50:
448,192,212422,1,0,0:0:0:50:
64,192,212468,1,0,0:0:0:50:
192,192,212513,1,0,0:0:0:70:LR4_SnareBPDT.wav
320,192,212513,1,0,0:0:0:50:
448,192,212581,1,0,0:0:0:50:
320,192,212650,1,0,0:0:0:50:
64,192,212650,1,0,0:0:0:50:
192,192,212718,1,0,0:0:0:50:
64,192,212786,1,0,0:0:0:70:LR_Kick Bass strong.wav
320,192,212786,1,0,0:0:0:50:
448,192,212786,1,0,0:0:0:50:
192,192,212854,1,0,0:0:0:50:
64,192,212922,1,0,0:0:0:50:
448,192,212922,1,0,0:0:0:50:
320,192,212990,1,0,0:0:0:50:
192,192,213059,1,0,0:0:0:50:
448,192,213059,128,0,213331:0:0:0:50:
320,192,213127,1,0,0:0:0:50:
64,192,213195,1,0,0:0:0:70:LR_Kick Bass strong.wav
320,192,213263,1,0,0:0:0:70:LR_Kick Bass strong.wav
192,192,213263,1,0,0:0:0:50:
192,192,213331,1,0,0:0:0:70:LR_Kick Bass strong.wav
64,192,213331,1,0,0:0:0:50:
320,192,213400,1,0,0:0:0:50:
448,192,213400,1,0,0:0:0:50:
64,192,213468,1,0,0:0:0:70:LR_Kick Bass strong.wav
448,192,213468,1,0,0:0:0:50:
192,192,213536,1,0,0:0:0:50:
320,192,213604,1,0,0:0:0:70:LR4_SnareBPDT.wav
192,192,213672,1,0,0:0:0:50:
64,192,213672,1,0,0:0:0:50:
448,192,213740,1,0,0:0:0:70:LR_Kick Bass strong.wav
64,192,213740,1,0,0:0:0:50:
192,192,213809,1,0,0:0:0:50:
320,192,213809,1,0,0:0:0:50:
320,192,213877,1,0,0:0:0:50:
64,192,213877,1,0,0:0:0:50:
448,192,213945,1,0,0:0:0:50:
320,192,214013,1,0,0:0:0:50:
192,192,214081,1,0,0:0:0:50:
64,192,214081,1,0,0:0:0:50:
320,192,214150,1,0,0:0:0:70:LR_Kick Bass strong.wav
448,192,214150,1,0,0:0:0:50:
64,192,214218,1,0,0:0:0:50:
192,192,214218,1,0,0:0:0:50:
320,192,214286,1,0,0:0:0:50:
448,192,214286,1,0,0:0:0:50:
64,192,214354,1,0,0:0:0:70:LR_Kick Bass strong.wav
192,192,214354,1,0,0:0:0:50:
64,192,214422,1,0,0:0:0:70:LR_Kick Bass strong.wav
448,192,214422,1,0,0:0:0:50:
192,192,214422,1,0,0:0:0:50:
320,192,214490,1,0,0:0:0:50:
64,192,214559,1,0,0:0:0:70:LR_Kick Bass strong.wav
192,192,214559,1,0,0:0:0:50:
448,192,214627,1,0,0:0:0:50:
320,192,214695,1,0,0:0:0:70:LR4_SnareBPDT.wav
64,192,214695,1,0,0:0:0:50:
192,192,214695,1,0,0:0:0:50:
448,192,214763,1,0,0:0:0:50:
320,192,214831,1,0,0:0:0:50:
192,192,214900,1,0,0:0:0:50:
448,192,214968,1,0,0:0:0:70:LR_Kick Bass strong.wav
320,192,214968,1,0,0:0:0:50:
64,192,214968,1,0,0:0:0:50:
192,192,215036,1,0,0:0:0:50:
320,192,215104,128,0,215240:0:0:0:50:
448,192,215104,128,0,215172:0:0:0:50:
64,192,215104,128,0,215172:0:0:0:50:
192,192,215172,128,0,215309:0:0:0:50:
64,192,215240,128,0,215309:0:0:0:50:
448,192,215240,128,0,215309:0:0:0:50:
320,192,215309,128,0,215377:0:0:0:50:
64,192,215377,128,0,215445:0:0:0:70:LR_Kick Bass strong.wav
192,192,215377,128,0,215513:0:0:0:50:
448,192,215377,128,0,215445:0:0:0:50:
320,192,215445,128,0,215581:0:0:0:50:
448,192,215513,128,0,215650:0:0:0:50:
64,192,215513,128,0,215581:0:0:0:50:
192,192,215581,128,0,215650:0:0:0:50:
320,192,215650,128,0,215718:0:0:0:70:LR_Kick Bass strong.wav
448,192,215718,128,0,215786:0:0:0:50:
192,192,215786,128,0,215922:0:0:0:70:LR4_SnareBPDT.wav
64,192,215786,128,0,215854:0:0:0:50:
320,192,215786,128,0,215854:0:0:0:50:
448,192,215854,128,0,215990:0:0:0:50:
64,192,215922,128,0,215990:0:0:0:70:LR_Kick Bass strong.wav
320,192,215922,128,0,215990:0:0:0:50:
192,192,215990,128,0,216059:0:0:0:50:
320,192,216059,128,0,216195:0:0:0:50:
448,192,216059,128,0,216127:0:0:0:50:
64,192,216059,128,0,216127:0:0:0:50:
192,192,216127,128,0,216263:0:0:0:50:
448,192,216195,128,0,216263:0:0:0:50:
64,192,216195,128,0,216331:0:0:0:50:
320,192,216263,128,0,216331:0:0:0:50:
192,192,216331,128,0,216400:0:0:0:70:LR_Kick Bass strong.wav
64,192,216400,128,0,216468:0:0:0:50:
320,192,216468,128,0,216604:0:0:0:50:
448,192,216468,128,0,216536:0:0:0:50:
192,192,216468,128,0,216536:0:0:0:50:
64,192,216536,128,0,216672:0:0:0:50:
448,192,216604,128,0,216672:0:0:0:50:
192,192,216604,128,0,216672:0:0:0:50:
320,192,216672,128,0,216740:0:0:0:50:
64,192,216740,128,0,216809:0:0:0:70:LR_Kick Bass strong.wav
448,192,216740,128,0,216809:0:0:0:50:
192,192,216740,128,0,216877:0:0:0:50:
320,192,216809,128,0,216945:0:0:0:50:
64,192,216877,128,0,216945:0:0:0:70:LR4_SnareBPDT.wav
448,192,216877,128,0,216945:0:0:0:50:
192,192,216945,128,0,217013:0:0:0:50:
64,192,217013,128,0,217081:0:0:0:50:
320,192,217013,128,0,217081:0:0:0:50:
448,192,217013,128,0,217150:0:0:0:50:
192,192,217081,128,0,217150:0:0:0:50:
320,192,217150,128,0,217218:0:0:0:70:LR_Kick Bass strong.wav
448,192,217218,128,0,217286:0:0:0:50:
64,192,217286,128,0,217422:0:0:0:50:
320,192,217286,128,0,217354:0:0:0:50:
192,192,217286,128,0,217354:0:0:0:50:
448,192,217354,128,0,217490:0:0:0:50:
320,192,217422,128,0,217490:0:0:0:50:
192,192,217422,128,0,217490:0:0:0:50:
64,192,217490,128,0,217559:0:0:0:50:
448,192,217559,128,0,217627:0:0:0:70:LR_Kick Bass strong.wav
192,192,217559,128,0,217627:0:0:0:50:
320,192,217559,128,0,217695:0:0:0:50:
64,192,217627,128,0,217763:0:0:0:70:LR_Kick Bass strong.wav
448,192,217695,128,0,217763:0:0:0:70:LR_Kick Bass strong.wav
192,192,217695,128,0,217831:0:0:0:50:
320,192,217763,128,0,217831:0:0:0:50:
64,192,217831,128,0,217900:0:0:0:70:LR_Kick Bass strong.wav
192,192,217900,128,0,217968:0:0:0:50:
448,192,217968,128,0,218036:0:0:0:70:LR4_SnareBPDT.wav
64,192,217968,128,0,218036:0:0:0:50:
320,192,217968,128,0,218104:0:0:0:50:
192,192,218036,128,0,218172:0:0:0:50:
64,192,218104,128,0,218172:0:0:0:70:LR_Kick Bass strong.wav
448,192,218104,128,0,218172:0:0:0:50:
320,192,218172,128,0,218240:0:0:0:50:
448,192,218240,128,0,218309:0:0:0:50:
192,192,218240,128,0,218377:0:0:0:50:
64,192,218240,128,0,218309:0:0:0:50:
320,192,218309,128,0,218445:0:0:0:50:
64,192,218377,128,0,218445:0:0:0:50:
448,192,218377,128,0,218513:0:0:0:50:
192,192,218445,128,0,218513:0:0:0:50:
320,192,218513,128,0,218581:0:0:0:70:LR_Kick Bass strong.wav
448,192,218581,128,0,218650:0:0:0:50:
64,192,218650,128,0,218718:0:0:0:50:
192,192,218650,128,0,218718:0:0:0:50:
320,192,218718,128,0,218786:0:0:0:70:LR_Kick Bass strong.wav
192,192,218786,128,0,218854:0:0:0:70:LR_Kick Bass strong.wav
448,192,218786,128,0,219059:0:0:0:50:
64,192,218786,128,0,218854:0:0:0:0:
320,192,218854,128,0,219059:0:0:0:50:
192,192,218922,1,0,0:0:0:70:LR_Kick Bass strong.wav
64,192,218990,1,0,0:0:0:50:
192,192,219059,1,0,0:0:0:70:LR4_SnareBPDT.wav
320,192,219127,1,0,0:0:0:50:
448,192,219195,1,0,0:0:0:50:
192,192,219195,1,0,0:0:0:50:
320,192,219263,1,0,0:0:0:50:
64,192,219331,1,0,0:0:0:70:LR_Kick Bass strong.wav
448,192,219331,1,0,0:0:0:50:
192,192,219400,1,0,0:0:0:50:
320,192,219468,1,0,0:0:0:50:
64,192,219536,1,0,0:0:0:50:
192,192,219604,1,0,0:0:0:50:
448,192,219604,1,0,0:0:0:50:
320,192,219672,1,0,0:0:0:50:
192,192,219740,1,0,0:0:0:70:LR_Kick Bass strong.wav
64,192,219740,1,0,0:0:0:50:
448,192,219809,1,0,0:0:0:50:
320,192,219877,1,0,0:0:0:50:
64,192,219877,1,0,0:0:0:50:
192,192,219945,1,0,0:0:0:50:
448,192,220013,1,0,0:0:0:70:LR_Kick Bass strong.wav
320,192,220013,1,0,0:0:0:50:
64,192,220081,1,0,0:0:0:50:
192,192,220150,1,0,0:0:0:70:LR4_SnareBPDT.wav
320,192,220150,1,0,0:0:0:50:
448,192,220218,1,0,0:0:0:50:
192,192,220286,1,0,0:0:0:70:LR_Kick Bass strong.wav
64,192,220286,1,0,0:0:0:50:
64,192,220354,1,0,0:0:0:50:
320,192,220354,1,0,0:0:0:50:
448,192,220422,1,0,0:0:0:50:
192,192,220422,1,0,0:0:0:50:
320,192,220468,1,0,0:0:0:50:
448,192,220513,1,0,0:0:0:50:
192,192,220559,1,0,0:0:0:50:
320,192,220604,1,0,0:0:0:50:
64,192,220650,1,0,0:0:0:50:
192,192,220695,1,0,0:0:0:70:LR_Kick Bass strong.wav
448,192,220695,1,0,0:0:0:50:
320,192,220740,1,0,0:0:0:50:
64,192,220786,1,0,0:0:0:50:
192,192,220831,1,0,0:0:0:50:
448,192,220877,1,0,0:0:0:50:
320,192,220922,1,0,0:0:0:50:
192,192,220968,1,0,0:0:0:50:
64,192,221013,1,0,0:0:0:50:
448,192,221059,1,0,0:0:0:50:
192,192,221104,1,0,0:0:0:70:LR_Kick Bass strong.wav
320,192,221104,1,0,0:0:0:50:
64,192,221150,1,0,0:0:0:50:
448,192,221195,1,0,0:0:0:50:
320,192,221240,1,0,0:0:0:70:LR4_SnareBPDT.wav
192,192,221240,1,0,0:0:0:50:
64,192,221309,1,0,0:0:0:50:
192,192,221377,1,0,0:0:0:50:
448,192,221377,1,0,0:0:0:50:
320,192,221445,1,0,0:0:0:50:
448,192,221513,1,0,0:0:0:70:LR_Kick Bass strong.wav
192,192,221513,1,0,0:0:0:50:
64,192,221513,1,0,0:0:0:50:
320,192,221581,1,0,0:0:0:50:
192,192,221650,1,0,0:0:0:50:
64,192,221650,1,0,0:0:0:50:
448,192,221718,1,0,0:0:0:50:
320,192,221786,1,0,0:0:0:50:
64,192,221786,128,0,222059:0:0:0:50:
192,192,221854,1,0,0:0:0:50:
448,192,221922,1,0,0:0:0:70:LR_Kick Bass strong.wav
192,192,221990,1,0,0:0:0:70:LR_Kick Bass strong.wav
320,192,221990,1,0,0:0:0:50:
320,192,222059,1,0,0:0:0:70:LR_Kick Bass strong.wav
448,192,222059,1,0,0:0:0:50:
192,192,222127,1,0,0:0:0:50:
64,192,222127,1,0,0:0:0:50:
448,192,222195,1,0,0:0:0:50:
64,192,222195,1,0,0:0:0:70:LR_Kick Bass strong.wav
192,192,222263,1,0,0:0:0:50:
320,192,222331,1,0,0:0:0:70:LR4_SnareBPDT.wav
192,192,222400,1,0,0:0:0:50:
448,192,222468,1,0,0:0:0:70:LR_Kick Bass strong.wav
320,192,222468,1,0,0:0:0:50:
448,192,222536,1,0,0:0:0:50:
64,192,222536,1,0,0:0:0:50:
320,192,222604,1,0,0:0:0:50:
64,192,222604,1,0,0:0:0:50:
192,192,222672,1,0,0:0:0:50:
64,192,222740,1,0,0:0:0:50:
320,192,222809,1,0,0:0:0:50:
448,192,222809,1,0,0:0:0:50:
192,192,222877,1,0,0:0:0:70:LR_Kick Bass strong.wav
64,192,222877,1,0,0:0:0:50:
448,192,222945,1,0,0:0:0:50:
320,192,222945,1,0,0:0:0:50:
192,192,223013,1,0,0:0:0:50:
64,192,223013,1,0,0:0:0:50:
448,192,223081,1,0,0:0:0:70:LR_Kick Bass strong.wav
320,192,223081,1,0,0:0:0:50:
448,192,223150,1,0,0:0:0:70:LR_Kick Bass strong.wav
64,192,223150,1,0,0:0:0:50:
320,192,223150,1,0,0:0:0:50:
192,192,223218,1,0,0:0:0:50:
448,192,223286,1,0,0:0:0:70:LR_Kick Bass strong.wav
320,192,223286,1,0,0:0:0:50:
64,192,223354,1,0,0:0:0:50:
192,192,223422,1,0,0:0:0:70:LR4_SnareBPDT.wav
448,192,223422,1,0,0:0:0:50:
320,192,223422,1,0,0:0:0:50:
64,192,223490,1,0,0:0:0:50:
192,192,223559,1,0,0:0:0:50:
320,192,223627,1,0,0:0:0:50:
64,192,223695,1,0,0:0:0:70:LR_Kick Bass strong.wav
192,192,223695,1,0,0:0:0:50:
448,192,223695,1,0,0:0:0:50:
64,192,223763,1,0,0:0:0:50:
320,192,223763,1,0,0:0:0:50:
192,192,223831,1,0,0:0:0:50:
320,192,223900,1,0,0:0:0:50:
64,192,223968,1,0,0:0:0:70:LR_Kick Bass strong.wav
448,192,223968,1,0,0:0:0:50:
448,192,224036,1,0,0:0:0:50:
192,192,224036,1,0,0:0:0:50:
320,192,224104,1,0,0:0:0:50:
192,192,224172,1,0,0:0:0:50:
64,192,224240,1,0,0:0:0:70:LR_Kick Bass strong.wav
448,192,224240,1,0,0:0:0:50:
64,192,224309,1,0,0:0:0:50:
320,192,224309,1,0,0:0:0:50:
192,192,224377,1,0,0:0:0:50:
320,192,224445,1,0,0:0:0:50:
448,192,224513,1,0,0:0:0:70:LR_Kick Bass strong.wav
64,192,224513,1,0,0:0:0:50:
192,192,224581,1,0,0:0:0:50:
448,192,224581,1,0,0:0:0:50:
320,192,224650,1,0,0:0:0:50:
192,192,224718,1,0,0:0:0:50:
64,192,224786,1,0,0:0:0:70:LR_Kick Bass strong.wav
448,192,224786,1,0,0:0:0:50:
320,192,224854,1,0,0:0:0:50:
192,192,224854,1,0,0:0:0:50:
192,192,224922,1,0,0:0:0:50:
320,192,224990,1,0,0:0:0:50:
448,192,225059,1,0,0:0:0:70:LR_Kick Bass strong.wav
64,192,225059,1,0,0:0:0:50:
192,192,225127,1,0,0:0:0:50:
320,192,225127,1,0,0:0:0:50:
320,192,225195,1,0,0:0:0:50:
192,192,225263,1,0,0:0:0:50:
448,192,225331,1,0,0:0:0:70:LR_Kick Bass strong.wav
64,192,225331,1,0,0:0:0:50:
320,192,225400,1,0,0:0:0:50:
192,192,225400,1,0,0:0:0:50:
192,192,225468,1,0,0:0:0:50:
320,192,225536,1,0,0:0:0:50:
64,192,225604,1,0,0:0:0:70:LR_Kick Bass strong.wav
448,192,225604,1,0,0:0:0:50:
192,192,225672,1,0,0:0:0:50:
320,192,225672,1,0,0:0:0:50:
320,192,225740,1,0,0:0:0:50:
192,192,225809,1,0,0:0:0:50:
64,192,225877,1,0,0:0:0:70:LR_Kick Bass strong.wav
448,192,225877,1,0,0:0:0:50:
320,192,225877,1,0,0:0:0:50:
192,192,225945,1,0,0:0:0:70:LR_Kick Bass strong.wav
320,192,226013,1,0,0:0:0:70:LR_Kick Bass strong.wav
448,192,226013,1,0,0:0:0:50:
64,192,226081,1,0,0:0:0:70:LR_Kick Bass strong.wav
320,192,226150,1,0,0:0:0:70:LR_Kick Bass strong.wav
448,192,226150,1,0,0:0:0:50:
192,192,226218,1,0,0:0:0:70:LR_Kick Bass strong.wav
320,192,226286,1,0,0:0:0:70:LR_Kick Bass strong.wav
448,192,226286,1,0,0:0:0:50:
64,192,226354,1,0,0:0:0:70:LR_Kick Bass strong.wav
320,192,226422,1,0,0:0:0:70:LR_Kick Bass strong.wav
448,192,226422,1,0,0:0:0:50:
192,192,226490,1,0,0:0:0:70:LR_Kick Bass strong.wav
64,192,226490,1,0,0:0:0:50:
320,192,226559,1,0,0:0:0:70:LR_Kick Bass strong.wav
448,192,226559,1,0,0:0:0:50:
64,192,226627,1,0,0:0:0:70:LR_Kick Bass strong.wav
192,192,226627,1,0,0:0:0:50:
320,192,226695,1,0,0:0:0:70:LR_Kick Bass strong.wav
448,192,226695,1,0,0:0:0:50:
192,192,226763,1,0,0:0:0:70:LR_Kick Bass strong.wav
64,192,226763,1,0,0:0:0:50:
320,192,226831,1,0,0:0:0:70:LR_Kick Bass strong.wav
448,192,226831,1,0,0:0:0:50:
64,192,226900,1,0,0:0:0:70:LR_Kick Bass strong.wav
192,192,226900,1,0,0:0:0:50:
320,192,226968,1,0,0:0:0:70:LR_Kick Bass strong.wav
448,192,226968,1,0,0:0:0:50:
64,192,227036,1,0,0:0:0:70:LR_Kick Bass strong.wav
192,192,227036,1,0,0:0:0:50:
320,192,227104,1,0,0:0:0:70:LR_Kick Bass strong.wav
448,192,227104,1,0,0:0:0:50:
192,192,227172,1,0,0:0:0:70:LR_Kick Bass strong.wav
64,192,227172,1,0,0:0:0:0:
320,192,227240,1,0,0:0:0:70:LR_Kick Bass strong.wav
448,192,227240,1,0,0:0:0:50:
448,192,227309,1,0,0:0:0:70:LR_Kick Bass strong.wav
320,192,227309,1,0,0:0:0:50:
192,192,227377,1,0,0:0:0:70:LR_Kick Bass strong.wav
64,192,227377,1,0,0:0:0:50:
64,192,227445,1,0,0:0:0:70:LR_Kick Bass strong.wav
192,192,227445,1,0,0:0:0:50:
320,192,227513,1,0,0:0:0:70:LR_Kick Bass strong.wav
448,192,227513,1,0,0:0:0:50:
448,192,227581,1,0,0:0:0:70:LR_Kick Bass strong.wav
320,192,227581,1,0,0:0:0:50:
192,192,227650,1,0,0:0:0:70:LR_Kick Bass strong.wav
64,192,227650,1,0,0:0:0:50:
192,192,227718,1,0,0:0:0:70:LR_Kick Bass strong.wav
64,192,227718,1,0,0:0:0:50:
320,192,227786,1,0,0:0:0:70:LR_Kick Bass strong.wav
448,192,227786,1,0,0:0:0:70:LR4_SnareBPDT.wav
64,192,227786,1,0,0:0:0:50:
192,192,227786,1,0,0:0:0:50:
64,192,227922,1,0,0:0:0:50:
448,192,227922,1,0,0:0:0:50:
64,192,228059,1,0,0:0:0:70:LR_CymbalSSF.wav
192,192,228059,1,0,0:0:0:50:
320,192,228059,1,0,0:0:0:50:
448,192,228059,1,0,0:0:0:50:
192,192,228195,1,0,0:0:0:50:
320,192,228331,1,0,0:0:0:50:
320,192,228468,1,0,0:0:0:70:LR_Kick Bass strong.wav
448,192,228468,1,0,0:0:0:50:
64,192,228468,1,0,0:0:0:50:
64,192,228604,1,0,0:0:0:50:
192,192,228672,1,0,0:0:0:50:
64,192,228740,1,0,0:0:0:70:LR_Kick Bass strong.wav
320,192,228740,1,0,0:0:0:50:
64,192,228877,1,0,0:0:0:70:LR4_SnareBPDT.wav
448,192,228877,1,0,0:0:0:50:
192,192,228877,1,0,0:0:0:50:
192,192,229013,1,0,0:0:0:70:LR_Kick Bass strong.wav
320,192,229013,1,0,0:0:0:50:
320,192,229081,1,0,0:0:0:50:
448,192,229150,1,0,0:0:0:50:
64,192,229150,1,0,0:0:0:50:
192,192,229195,1,0,0:0:0:50:
320,192,229240,1,0,0:0:0:50:
64,192,229286,1,0,0:0:0:50:
192,192,229331,1,0,0:0:0:50:
320,192,229377,1,0,0:0:0:50:
64,192,229422,1,0,0:0:0:70:LR_Kick Bass strong.wav
448,192,229422,1,0,0:0:0:50:
192,192,229468,1,0,0:0:0:50:
320,192,229513,1,0,0:0:0:50:
64,192,229559,1,0,0:0:0:50:
192,192,229604,1,0,0:0:0:50:
448,192,229650,1,0,0:0:0:50:
64,192,229695,1,0,0:0:0:50:
192,192,229740,1,0,0:0:0:50:
320,192,229786,1,0,0:0:0:50:
64,192,229831,1,0,0:0:0:70:LR_Kick Bass strong.wav
448,192,229831,1,0,0:0:0:50:
192,192,229877,1,0,0:0:0:50:
320,192,229922,1,0,0:0:0:50:
64,192,229968,1,0,0:0:0:70:LR4_SnareBPDT.wav
448,192,229968,1,0,0:0:0:50:
192,192,230036,1,0,0:0:0:50:
320,192,230036,1,0,0:0:0:50:
64,192,230104,1,0,0:0:0:50:
448,192,230104,1,0,0:0:0:50:
320,192,230172,1,0,0:0:0:50:
64,192,230240,1,0,0:0:0:70:LR_Kick Bass strong.wav
448,192,230240,1,0,0:0:0:50:
192,192,230240,1,0,0:0:0:50:
320,192,230309,1,0,0:0:0:50:
448,192,230377,1,0,0:0:0:50:
192,192,230377,1,0,0:0:0:50:
64,192,230445,1,0,0:0:0:50:
320,192,230445,1,0,0:0:0:50:
448,192,230513,1,0,0:0:0:50:
192,192,230513,1,0,0:0:0:50:
64,192,230581,1,0,0:0:0:50:
448,192,230650,1,0,0:0:0:70:LR_Kick Bass strong.wav
320,192,230650,1,0,0:0:0:50:
64,192,230718,1,0,0:0:0:70:LR_Kick Bass strong.wav
192,192,230718,1,0,0:0:0:50:
448,192,230786,1,0,0:0:0:70:LR_Kick Bass strong.wav
320,192,230786,1,0,0:0:0:50:
64,192,230786,1,0,0:0:0:50:
192,192,230854,1,0,0:0:0:50:
320,192,230922,1,0,0:0:0:70:LR_Kick Bass strong.wav
448,192,230922,1,0,0:0:0:50:
64,192,230990,1,0,0:0:0:50:
192,192,231059,1,0,0:0:0:70:LR4_SnareBPDT.wav
320,192,231059,1,0,0:0:0:50:
448,192,231127,1,0,0:0:0:50:
64,192,231195,1,0,0:0:0:70:LR_Kick Bass strong.wav
192,192,231195,1,0,0:0:0:50:
320,192,231263,1,0,0:0:0:50:
64,192,231331,1,0,0:0:0:50:
448,192,231331,1,0,0:0:0:50:
192,192,231400,1,0,0:0:0:50:
320,192,231468,1,0,0:0:0:50:
448,192,231468,1,0,0:0:0:50:
192,192,231536,1,0,0:0:0:50:
448,192,231604,1,0,0:0:0:70:LR_Kick Bass strong.wav
64,192,231604,1,0,0:0:0:50:
320,192,231604,1,0,0:0:0:50:
192,192,231672,1,0,0:0:0:50:
320,192,231740,1,0,0:0:0:50:
448,192,231740,1,0,0:0:0:50:
64,192,231809,1,0,0:0:0:70:LR_Kick Bass strong.wav
192,192,231809,1,0,0:0:0:50:
64,192,231877,1,0,0:0:0:70:LR_Kick Bass strong.wav
320,192,231877,1,0,0:0:0:50:
448,192,231877,1,0,0:0:0:50:
192,192,231945,1,0,0:0:0:50:
64,192,232013,1,0,0:0:0:70:LR_Kick Bass strong.wav
320,192,232013,1,0,0:0:0:50:
448,192,232081,1,0,0:0:0:50:
64,192,232150,1,0,0:0:0:70:LR4_SnareBPDT.wav
192,192,232150,1,0,0:0:0:50:
320,192,232150,1,0,0:0:0:50:
448,192,232218,1,0,0:0:0:50:
192,192,232286,1,0,0:0:0:50:
320,192,232354,1,0,0:0:0:50:
64,192,232422,1,0,0:0:0:70:LR_Kick Bass strong.wav
192,192,232422,1,0,0:0:0:50:
448,192,232422,1,0,0:0:0:50:
320,192,232490,1,0,0:0:0:50:
448,192,232559,1,0,0:0:0:100:LR4_ClapLRV.wav
64,192,232559,1,0,0:0:0:50:
192,192,232627,1,0,0:0:0:50:
448,192,232695,1,0,0:0:0:100:LR4_ClapLRV.wav
64,192,232695,1,0,0:0:0:50:
320,192,232763,1,0,0:0:0:50:
448,192,232831,1,0,0:0:0:100:LR4_ClapLRV.wav
64,192,232831,1,0,0:0:0:70:LR_Kick Bass strong.wav
192,192,232900,1,0,0:0:0:50:
64,192,232968,1,0,0:0:0:100:LR4_ClapLRV.wav
448,192,232968,1,0,0:0:0:50:
320,192,233036,1,0,0:0:0:50:
448,192,233104,1,0,0:0:0:70:LR_Kick Bass strong.wav
320,192,233172,1,0,0:0:0:50:
448,192,233240,1,0,0:0:0:100:LR4_ClapLRV.wav
64,192,233240,1,0,0:0:0:70:LR4_SnareBPDT.wav
192,192,233240,1,0,0:0:0:50:
448,192,233309,1,0,0:0:0:50:
64,192,233377,1,0,0:0:0:70:LR_Kick Bass strong.wav
192,192,233377,1,0,0:0:0:100:LR4_ClapLRV.wav
320,192,233445,1,0,0:0:0:50:
448,192,233513,1,0,0:0:0:100:LR4_ClapLRV.wav
64,192,233513,1,0,0:0:0:50:
192,192,233581,1,0,0:0:0:50:
64,192,233650,1,0,0:0:0:100:LR4_ClapLRV.wav
448,192,233650,1,0,0:0:0:50:
320,192,233718,1,0,0:0:0:50:
448,192,233786,1,0,0:0:0:70:LR_Kick Bass strong.wav
320,192,233854,1,0,0:0:0:50:
448,192,233922,1,0,0:0:0:100:LR4_ClapLRV.wav
64,192,233922,1,0,0:0:0:50:
192,192,233990,1,0,0:0:0:50:
64,192,234059,1,0,0:0:0:100:LR4_ClapLRV.wav
448,192,234059,1,0,0:0:0:50:
320,192,234127,1,0,0:0:0:50:
448,192,234195,1,0,0:0:0:100:LR4_ClapLRV.wav
64,192,234195,1,0,0:0:0:70:LR_Kick Bass strong.wav
192,192,234263,1,0,0:0:0:50:
64,192,234331,1,0,0:0:0:70:LR4_SnareBPDT.wav
448,192,234331,1,0,0:0:0:100:LR4_ClapLRV.wav
320,192,234331,1,0,0:0:0:50:
64,192,234400,1,0,0:0:0:50:
448,192,234468,1,0,0:0:0:100:LR4_ClapLRV.wav
320,192,234468,1,0,0:0:0:50:
192,192,234536,1,0,0:0:0:50:
64,192,234604,1,0,0:0:0:70:LR_Kick Bass strong.wav
320,192,234604,1,0,0:0:0:50:
192,192,234672,1,0,0:0:0:50:
64,192,234740,1,0,0:0:0:100:LR4_ClapLRV.wav
448,192,234740,1,0,0:0:0:50:
320,192,234809,1,0,0:0:0:50:
448,192,234877,1,0,0:0:0:100:LR4_ClapLRV.wav
64,192,234877,1,0,0:0:0:50:
192,192,234945,1,0,0:0:0:50:
64,192,235013,1,0,0:0:0:70:LR_Kick Bass strong.wav
448,192,235013,1,0,0:0:0:100:LR4_ClapLRV.wav
192,192,235081,1,0,0:0:0:70:LR_Kick Bass strong.wav
448,192,235150,1,0,0:0:0:100:LR4_ClapLRV.wav
64,192,235150,1,0,0:0:0:70:LR_Kick Bass strong.wav
320,192,235150,1,0,0:0:0:50:
192,192,235218,1,0,0:0:0:50:
64,192,235286,1,0,0:0:0:70:LR_Kick Bass strong.wav
192,192,235354,1,0,0:0:0:50:
448,192,235422,1,0,0:0:0:100:LR4_ClapLRV.wav
64,192,235422,1,0,0:0:0:70:LR4_SnareBPDT.wav
320,192,235422,1,0,0:0:0:50:
320,192,235490,1,0,0:0:0:50:
192,192,235559,1,0,0:0:0:100:LR4_ClapLRV.wav
64,192,235559,1,0,0:0:0:70:LR_Kick Bass strong.wav
320,192,235627,1,0,0:0:0:50:
64,192,235695,1,0,0:0:0:100:LR4_ClapLRV.wav
448,192,235695,1,0,0:0:0:50:
320,192,235763,1,0,0:0:0:50:
448,192,235831,1,0,0:0:0:100:LR4_ClapLRV.wav
64,192,235831,1,0,0:0:0:50:
192,192,235900,1,0,0:0:0:50:
64,192,235968,1,0,0:0:0:70:LR_Kick Bass strong.wav
192,192,236036,1,0,0:0:0:50:
64,192,236104,1,0,0:0:0:100:LR4_ClapLRV.wav
448,192,236104,1,0,0:0:0:50:
192,192,236172,1,0,0:0:0:70:LR_Kick Bass strong.wav
448,192,236240,1,0,0:0:0:100:LR4_ClapLRV.wav
64,192,236240,1,0,0:0:0:70:LR_Kick Bass strong.wav
320,192,236240,1,0,0:0:0:50:
192,192,236309,1,0,0:0:0:50:
320,192,236377,1,0,0:0:0:70:LR_Kick Bass strong.wav
448,192,236445,1,0,0:0:0:50:
64,192,236513,1,0,0:0:0:70:LR4_SnareBPDT.wav
192,192,236513,1,0,0:0:0:50:
320,192,236581,1,0,0:0:0:50:
64,192,236650,1,0,0:0:0:100:LR4_ClapLRV.wav
192,192,236650,1,0,0:0:0:50:
448,192,236718,1,0,0:0:0:50:
320,192,236786,1,0,0:0:0:70:LR_Kick Bass strong.wav
192,192,236786,1,0,0:0:0:100:LR4_ClapLRV.wav
64,192,236786,1,0,0:0:0:50:
64,192,236854,1,0,0:0:0:50:
320,192,236922,1,0,0:0:0:100:LR4_ClapLRV.wav
448,192,236922,1,0,0:0:0:50:
192,192,236990,1,0,0:0:0:50:
320,192,237059,1,0,0:0:0:100:LR4_ClapLRV.wav
448,192,237059,1,0,0:0:0:50:
64,192,237127,1,0,0:0:0:50:
192,192,237195,1,0,0:0:0:100:LR4_ClapLRV.wav
448,192,237195,1,0,0:0:0:70:LR_Kick Bass strong.wav
320,192,237263,1,0,0:0:0:50:
64,192,237331,1,0,0:0:0:100:LR4_ClapLRV.wav
192,192,237331,1,0,0:0:0:70:LR_Kick Bass strong.wav
448,192,237331,1,0,0:0:0:50:
320,192,237400,1,0,0:0:0:50:
64,192,237468,1,0,0:0:0:100:LR4_ClapLRV.wav
448,192,237468,1,0,0:0:0:50:
192,192,237536,1,0,0:0:0:50:
320,192,237604,1,0,0:0:0:70:LR_Kick Bass strong.wav
448,192,237604,1,0,0:0:0:100:LR4_ClapLRV.wav
64,192,237604,1,0,0:0:0:50:
192,192,237672,1,0,0:0:0:50:
320,192,237740,1,0,0:0:0:100:LR4_ClapLRV.wav
448,192,237740,1,0,0:0:0:50:
64,192,237809,1,0,0:0:0:50:
192,192,237877,1,0,0:0:0:100:LR4_ClapLRV.wav
320,192,237877,1,0,0:0:0:50:
448,192,237945,1,0,0:0:0:50:
64,192,238013,1,0,0:0:0:100:LR4_ClapLRV.wav
320,192,238013,1,0,0:0:0:70:LR_Kick Bass strong.wav
192,192,238081,1,0,0:0:0:50:
64,192,238150,1,0,0:0:0:100:LR4_ClapLRV.wav
320,192,238150,1,0,0:0:0:70:LR_Kick Bass strong.wav
448,192,238150,1,0,0:0:0:50:
192,192,238218,1,0,0:0:0:50:
64,192,238286,1,0,0:0:0:100:LR4_ClapLRV.wav
448,192,238286,1,0,0:0:0:50:
320,192,238354,1,0,0:0:0:50:
64,192,238422,1,0,0:0:0:100:LR4_ClapLRV.wav
192,192,238422,1,0,0:0:0:70:LR_Kick Bass strong.wav
448,192,238422,1,0,0:0:0:50:
320,192,238490,1,0,0:0:0:50:
192,192,238559,1,0,0:0:0:100:LR4_ClapLRV.wav
64,192,238559,1,0,0:0:0:50:
448,192,238627,1,0,0:0:0:100:LR4_ClapLRV.wav
320,192,238627,1,0,0:0:0:50:
320,192,238695,1,0,0:0:0:100:LR4_ClapLRV.wav
448,192,238695,1,0,0:0:0:70:LR_Kick Bass strong.wav
192,192,238763,1,0,0:0:0:50:
320,192,238831,1,0,0:0:0:100:LR4_ClapLRV.wav
448,192,238831,1,0,0:0:0:50:
192,192,238900,1,0,0:0:0:50:
64,192,238968,1,0,0:0:0:100:LR4_ClapLRV.wav
448,192,238968,1,0,0:0:0:70:LR_Kick Bass strong.wav
320,192,238968,1,0,0:0:0:50:
192,192,239036,1,0,0:0:0:50:
64,192,239104,1,0,0:0:0:100:LR4_ClapLRV.wav
448,192,239104,1,0,0:0:0:50:
320,192,239172,1,0,0:0:0:50:
64,192,239240,1,0,0:0:0:100:LR4_ClapLRV.wav
192,192,239240,1,0,0:0:0:50:
320,192,239309,1,0,0:0:0:50:
448,192,239377,1,0,0:0:0:70:LR_Kick Bass strong.wav
192,192,239377,1,0,0:0:0:100:LR4_ClapLRV.wav
64,192,239445,1,0,0:0:0:50:
192,192,239513,1,0,0:0:0:100:LR4_ClapLRV.wav
448,192,239513,1,0,0:0:0:70:LR_Kick Bass strong.wav
320,192,239513,1,0,0:0:0:50:
64,192,239581,1,0,0:0:0:50:
320,192,239650,1,0,0:0:0:100:LR4_ClapLRV.wav
448,192,239650,1,0,0:0:0:50:
192,192,239718,1,0,0:0:0:50:
64,192,239786,1,0,0:0:0:100:LR4_ClapLRV.wav
448,192,239786,1,0,0:0:0:70:LR_Kick Bass strong.wav
320,192,239786,1,0,0:0:0:50:
192,192,239854,1,0,0:0:0:50:
64,192,239922,1,0,0:0:0:100:LR4_ClapLRV.wav
448,192,239922,1,0,0:0:0:50:
320,192,239990,1,0,0:0:0:50:
64,192,240059,1,0,0:0:0:100:LR4_ClapLRV.wav
192,192,240059,1,0,0:0:0:50:
448,192,240127,1,0,0:0:0:50:
320,192,240195,1,0,0:0:0:70:LR_Kick Bass strong.wav
192,192,240195,1,0,0:0:0:100:LR4_ClapLRV.wav
64,192,240263,1,0,0:0:0:100:LR4_ClapLRV.wav
192,192,240331,1,0,0:0:0:100:LR4_ClapLRV.wav
448,192,240331,1,0,0:0:0:70:LR_Kick Bass strong.wav
320,192,240331,1,0,0:0:0:50:
64,192,240400,1,0,0:0:0:50:
320,192,240468,1,0,0:0:0:100:LR4_ClapLRV.wav
448,192,240468,1,0,0:0:0:50:
192,192,240536,1,0,0:0:0:100:LR4_ClapLRV.wav
64,192,240604,1,0,0:0:0:70:LR_Kick Bass strong.wav
448,192,240604,1,0,0:0:0:100:LR4_ClapLRV.wav
320,192,240604,1,0,0:0:0:50:
192,192,240672,1,0,0:0:0:100:LR4_ClapLRV.wav
320,192,240740,1,0,0:0:0:100:LR4_ClapLRV.wav
448,192,240740,1,0,0:0:0:50:
64,192,240809,1,0,0:0:0:100:LR4_ClapLRV.wav
192,192,240809,1,0,0:0:0:50:
64,192,240877,1,0,0:0:0:100:LR4_ClapLRV.wav
192,192,240877,1,0,0:0:0:70:LR_Kick Bass strong.wav
448,192,240877,1,0,0:0:0:50:
320,192,240945,1,0,0:0:0:50:
64,192,241013,1,0,0:0:0:100:LR4_ClapLRV.wav
192,192,241013,1,0,0:0:0:50:
320,192,241081,1,0,0:0:0:50:
64,192,241150,1,0,0:0:0:100:LR4_ClapLRV.wav
192,192,241150,1,0,0:0:0:70:LR_Kick Bass strong.wav
448,192,241150,1,0,0:0:0:50:
192,192,241218,1,0,0:0:0:50:
448,192,241286,1,0,0:0:0:100:LR4_ClapLRV.wav
320,192,241286,1,0,0:0:0:50:
64,192,241354,1,0,0:0:0:50:
320,192,241422,1,0,0:0:0:100:LR4_ClapLRV.wav
192,192,241422,1,0,0:0:0:50:
448,192,241422,1,0,0:0:0:50:
448,192,241490,1,0,0:0:0:50:
192,192,241559,1,0,0:0:0:100:LR4_ClapLRV.wav
64,192,241559,1,0,0:0:0:70:LR_Kick Bass strong.wav
448,192,241627,1,0,0:0:0:50:
320,192,241695,1,0,0:0:0:100:LR4_ClapLRV.wav
192,192,241695,1,0,0:0:0:70:LR_Kick Bass strong.wav
64,192,241695,1,0,0:0:0:50:
192,192,241763,1,0,0:0:0:50:
320,192,241831,1,0,0:0:0:100:LR4_ClapLRV.wav
448,192,241831,1,0,0:0:0:50:
64,192,241900,1,0,0:0:0:50:
448,192,241968,1,0,0:0:0:70:LR_Kick Bass strong.wav
192,192,241968,1,0,0:0:0:100:LR4_ClapLRV.wav
320,192,241968,1,0,0:0:0:50:
448,192,242036,1,0,0:0:0:50:
64,192,242104,1,0,0:0:0:100:LR4_ClapLRV.wav
192,192,242104,1,0,0:0:0:50:
320,192,242172,1,0,0:0:0:50:
448,192,242240,1,0,0:0:0:100:LR4_ClapLRV.wav
192,192,242240,1,0,0:0:0:50:
64,192,242240,1,0,0:0:0:50:
64,192,242309,1,0,0:0:0:50:
448,192,242377,1,0,0:0:0:100:LR4_ClapLRV.wav
320,192,242377,1,0,0:0:0:70:LR_Kick Bass strong.wav
192,192,242445,1,0,0:0:0:50:
64,192,242513,1,0,0:0:0:100:LR4_ClapLRV.wav
448,192,242513,1,0,0:0:0:70:LR_Kick Bass strong.wav
320,192,242513,1,0,0:0:0:50:
320,192,242581,1,0,0:0:0:50:
192,192,242650,1,0,0:0:0:100:LR4_ClapLRV.wav
64,192,242650,1,0,0:0:0:50:
448,192,242718,1,0,0:0:0:50:
64,192,242786,1,0,0:0:0:100:LR4_ClapLRV.wav
320,192,242786,1,0,0:0:0:70:LR_Kick Bass strong.wav
192,192,242786,1,0,0:0:0:50:
64,192,242854,1,0,0:0:0:50:
448,192,242922,1,0,0:0:0:100:LR4_ClapLRV.wav
320,192,242922,1,0,0:0:0:50:
192,192,242990,1,0,0:0:0:50:
320,192,243059,1,0,0:0:0:70:LR_Kick Bass strong.wav
448,192,243059,1,0,0:0:0:100:LR4_ClapLRV.wav
64,192,243059,1,0,0:0:0:50:
320,192,243127,1,0,0:0:0:50:
448,192,243195,1,0,0:0:0:100:LR4_ClapLRV.wav
192,192,243195,1,0,0:0:0:50:
64,192,243263,1,0,0:0:0:50:
192,192,243331,1,0,0:0:0:70:LR_Kick Bass strong.wav
320,192,243331,1,0,0:0:0:100:LR4_ClapLRV.wav
448,192,243331,1,0,0:0:0:50:
64,192,243400,1,0,0:0:0:100:LR4_ClapLRV.wav
192,192,243400,1,0,0:0:0:50:
320,192,243468,1,0,0:0:0:100:LR4_ClapLRV.wav
448,192,243468,1,0,0:0:0:50:
64,192,243536,1,0,0:0:0:100:LR4_ClapLRV.wav
192,192,243536,1,0,0:0:0:50:
448,192,243604,1,0,0:0:0:100:LR4_ClapLRV.wav
320,192,243604,1,0,0:0:0:50:
192,192,243672,1,0,0:0:0:100:LR4_ClapLRV.wav
64,192,243740,1,0,0:0:0:100:LR4_ClapLRV.wav
448,192,243740,1,0,0:0:0:50:
320,192,243740,1,0,0:0:0:50:
192,192,243809,1,0,0:0:0:100:LR4_ClapLRV.wav
448,192,243877,1,0,0:0:0:100:LR4_ClapLRV.wav
64,192,243877,1,0,0:0:0:50:
320,192,243877,1,0,0:0:0:50:
192,192,243945,1,0,0:0:0:100:LR4_ClapLRV.wav
448,192,244013,1,0,0:0:0:100:LR4_ClapLRV.wav
64,192,244013,1,0,0:0:0:50:
320,192,244081,1,0,0:0:0:100:LR4_ClapLRV.wav
448,192,244150,1,0,0:0:0:100:LR4_ClapLRV.wav
64,192,244150,1,0,0:0:0:50:
192,192,244150,1,0,0:0:0:50:
320,192,244218,1,0,0:0:0:100:LR4_ClapLRV.wav
448,192,244286,1,0,0:0:0:100:LR4_ClapLRV.wav
64,192,244286,1,0,0:0:0:50:
192,192,244286,1,0,0:0:0:50:
320,192,244354,1,0,0:0:0:100:LR4_ClapLRV.wav
64,192,244422,1,0,0:0:0:40:LR_Kick Bass strong.wav
192,192,244422,1,0,0:0:0:40:LR4_SnareBPDT.wav
192,192,244490,1,0,0:0:0:40:LR4_SnareBPDT.wav
448,192,244559,1,0,0:0:0:40:LR_Kick Bass strong.wav
320,192,244559,1,0,0:0:0:50:LR4_SnareBPDT.wav
320,192,244627,1,0,0:0:0:50:LR4_SnareBPDT.wav
192,192,244695,1,0,0:0:0:40:LR_Kick Bass strong.wav
64,192,244695,1,0,0:0:0:60:LR4_SnareBPDT.wav
192,192,244763,1,0,0:0:0:60:LR4_SnareBPDT.wav
64,192,244763,1,0,0:0:0:40:LR_Kick Bass strong.wav
448,192,244831,1,0,0:0:0:40:LR_Kick Bass strong.wav
320,192,244831,1,0,0:0:0:60:LR4_SnareBPDT.wav
448,192,244900,1,0,0:0:0:60:LR4_SnareBPDT.wav
320,192,244900,1,0,0:0:0:40:LR_Kick Bass strong.wav
64,192,244968,128,0,245377:0:0:0:50:
192,192,244968,1,0,0:0:0:50:
320,192,245377,1,0,0:0:0:100:LR4_ClapLRV.wav
448,192,245513,1,0,0:0:0:100:LR4_ClapLRV.wav
320,192,245513,1,0,0:0:0:50:
192,192,245513,1,0,0:0:0:50:
64,192,245513,1,0,0:0:0:50:
448,192,245650,1,0,0:0:0:100:LR4_ClapLRV.wav
64,192,245650,1,0,0:0:0:50:
192,192,245650,1,0,0:0:0:50:
320,192,245718,1,0,0:0:0:100:LR4_ClapLRV.wav
320,192,245786,1,0,0:0:0:100:LR4_ClapLRV.wav
448,192,245786,1,0,0:0:0:50:
64,192,245786,1,0,0:0:0:50:
192,192,245786,1,0,0:0:0:50:
192,192,245922,1,0,0:0:0:100:LR4_ClapLRV.wav
448,192,245922,1,0,0:0:0:50:
320,192,245922,1,0,0:0:0:50:
64,192,245990,1,0,0:0:0:100:LR4_ClapLRV.wav
64,192,246059,1,0,0:0:0:100:LR4_ClapLRV.wav
448,192,246059,1,0,0:0:0:50:
192,192,246059,1,0,0:0:0:50:
192,192,246195,1,0,0:0:0:100:LR4_ClapLRV.wav
448,192,246195,1,0,0:0:0:50:
320,192,246195,1,0,0:0:0:50:
320,192,246331,1,0,0:0:0:100:LR4_ClapLRV.wav
448,192,246331,1,0,0:0:0:50:
192,192,246331,1,0,0:0:0:50:
64,192,246331,1,0,0:0:0:50:
448,192,246468,1,0,0:0:0:100:LR4_ClapLRV.wav
320,192,246468,1,0,0:0:0:50:
64,192,246468,1,0,0:0:0:50:
448,192,246604,1,0,0:0:0:100:LR4_ClapLRV.wav
192,192,246604,1,0,0:0:0:50:
64,192,246604,1,0,0:0:0:50:
448,192,246672,1,0,0:0:0:100:LR4_ClapLRV.wav
320,192,246740,1,0,0:0:0:100:LR4_ClapLRV.wav
192,192,246740,1,0,0:0:0:50:
64,192,246740,1,0,0:0:0:50:
320,192,246877,1,0,0:0:0:100:LR4_ClapLRV.wav
448,192,246877,1,0,0:0:0:50:
192,192,246877,1,0,0:0:0:50:
64,192,246877,1,0,0:0:0:50:
320,192,247013,1,0,0:0:0:100:LR4_ClapLRV.wav
448,192,247013,1,0,0:0:0:50:
64,192,247013,1,0,0:0:0:50:
448,192,247150,1,0,0:0:0:100:LR4_ClapLRV.wav
320,192,247150,1,0,0:0:0:50:
192,192,247150,1,0,0:0:0:50:
64,192,247150,1,0,0:0:0:50:
320,192,247286,1,0,0:0:0:100:LR4_ClapLRV.wav
448,192,247286,1,0,0:0:0:50:
192,192,247286,1,0,0:0:0:50:
448,192,247422,128,0,247490:0:0:0:70:LR_CymbalSSF.wav
64,192,247422,128,0,247490:0:0:0:50:
192,192,247422,128,0,247490:0:0:0:50:
320,192,247422,128,0,247490:0:0:0:50:
448,192,247559,128,0,247627:0:0:0:70:LR_CymbalSSF.wav
192,192,247559,128,0,247627:0:0:0:50:
64,192,247559,128,0,247627:0:0:0:50:
320,192,247695,1,0,0:0:0:100:LR4_ClapLRV.wav
448,192,247695,1,0,0:0:0:50:
64,192,247695,128,0,247831:0:0:0:50:
320,192,247831,1,0,0:0:0:100:LR4_ClapLRV.wav
448,192,247831,1,0,0:0:0:50:
192,192,247831,1,0,0:0:0:50:
320,192,247968,1,0,0:0:0:100:LR4_ClapLRV.wav
448,192,247968,1,0,0:0:0:50:
192,192,247968,1,0,0:0:0:50:
64,192,247968,1,0,0:0:0:50:
64,192,248104,1,0,0:0:0:100:LR4_ClapLRV.wav
448,192,248104,1,0,0:0:0:50:
320,192,248104,1,0,0:0:0:50:
64,192,248172,1,0,0:0:0:100:LR4_ClapLRV.wav
192,192,248240,1,0,0:0:0:100:LR4_ClapLRV.wav
448,192,248240,1,0,0:0:0:50:
320,192,248240,1,0,0:0:0:50:
64,192,248377,1,0,0:0:0:100:LR4_ClapLRV.wav
448,192,248377,1,0,0:0:0:50:
192,192,248377,1,0,0:0:0:50:
64,192,248513,1,0,0:0:0:100:LR4_ClapLRV.wav
448,192,248513,1,0,0:0:0:50:
320,192,248513,1,0,0:0:0:50:
192,192,248513,1,0,0:0:0:50:
320,192,248650,1,0,0:0:0:100:LR4_ClapLRV.wav
448,192,248650,1,0,0:0:0:50:
64,192,248650,1,0,0:0:0:50:
448,192,248786,1,0,0:0:0:100:LR4_ClapLRV.wav
192,192,248786,1,0,0:0:0:50:
64,192,248786,1,0,0:0:0:50:
448,192,248854,1,0,0:0:0:100:LR4_ClapLRV.wav
320,192,248922,1,0,0:0:0:100:LR4_ClapLRV.wav
192,192,248922,1,0,0:0:0:50:
64,192,248922,1,0,0:0:0:50:
192,192,249059,1,0,0:0:0:100:LR4_ClapLRV.wav
448,192,249059,1,0,0:0:0:50:
320,192,249059,1,0,0:0:0:50:
64,192,249059,1,0,0:0:0:50:
320,192,249195,1,0,0:0:0:100:LR4_ClapLRV.wav
448,192,249195,1,0,0:0:0:50:
64,192,249195,1,0,0:0:0:50:
320,192,249331,1,0,0:0:0:100:LR4_ClapLRV.wav
192,192,249331,1,0,0:0:0:50:
64,192,249331,1,0,0:0:0:50:
64,192,249468,1,0,0:0:0:50:
448,192,249468,1,0,0:0:0:50:
192,192,249536,1,0,0:0:0:100:LR4_ClapLRV.wav
64,192,249604,1,0,0:0:0:50:
448,192,249604,1,0,0:0:0:50:
320,192,249604,1,0,0:0:0:50:
192,192,249740,1,0,0:0:0:100:LR4_ClapLRV.wav
448,192,249740,1,0,0:0:0:50:
320,192,249740,1,0,0:0:0:50:
64,192,249877,1,4,0:0:0:50:
448,192,249877,128,4,250013:0:0:0:50:
320,192,249877,1,0,0:0:0:100:LR4_ClapLRV.wav
192,192,249877,1,0,0:0:0:50:
320,192,250013,1,0,0:0:0:100:LR4_ClapLRV.wav
64,192,250013,1,0,0:0:0:50:
320,192,250150,1,0,0:0:0:100:LR4_ClapLRV.wav
448,192,250150,1,0,0:0:0:50:
64,192,250150,1,0,0:0:0:50:
192,192,250150,1,0,0:0:0:50:
320,192,250286,1,0,0:0:0:100:LR4_ClapLRV.wav
448,192,250286,1,0,0:0:0:50:
192,192,250286,1,0,0:0:0:50:
320,192,250354,1,0,0:0:0:100:LR4_ClapLRV.wav
192,192,250422,1,0,0:0:0:100:LR4_ClapLRV.wav
64,192,250422,1,0,0:0:0:50:
448,192,250422,1,0,0:0:0:50:
192,192,250559,1,0,0:0:0:100:LR4_ClapLRV.wav
448,192,250559,1,0,0:0:0:50:
64,192,250559,1,0,0:0:0:50:
320,192,250695,1,0,0:0:0:100:LR4_ClapLRV.wav
448,192,250695,1,0,0:0:0:50:
192,192,250695,1,0,0:0:0:50:
64,192,250695,1,0,0:0:0:50:
320,192,250831,1,0,0:0:0:100:LR4_ClapLRV.wav
448,192,250831,1,0,0:0:0:50:
64,192,250831,1,0,0:0:0:50:
192,192,250968,1,0,0:0:0:100:LR4_ClapLRV.wav
448,192,250968,1,0,0:0:0:50:
320,192,250968,1,0,0:0:0:50:
192,192,251036,1,0,0:0:0:100:LR4_ClapLRV.wav
320,192,251104,1,0,0:0:0:100:LR4_ClapLRV.wav
64,192,251104,1,0,0:0:0:50:
448,192,251104,1,0,0:0:0:50:
192,192,251240,1,0,0:0:0:100:LR4_ClapLRV.wav
448,192,251240,1,0,0:0:0:50:
320,192,251240,1,0,0:0:0:50:
64,192,251240,1,0,0:0:0:50:
192,192,251377,1,0,0:0:0:100:LR4_ClapLRV.wav
448,192,251377,1,0,0:0:0:50:
64,192,251377,1,0,0:0:0:50:
320,192,251513,1,0,0:0:0:100:LR4_ClapLRV.wav
448,192,251513,1,0,0:0:0:50:
192,192,251513,1,0,0:0:0:50:
192,192,251650,1,0,0:0:0:100:LR4_ClapLRV.wav
320,192,251650,1,0,0:0:0:50:
64,192,251650,1,0,0:0:0:50:
320,192,251786,128,0,251854:0:0:0:70:LR_CymbalSSF.wav
64,192,251786,128,0,251854:0:0:0:50:
192,192,251786,128,0,251854:0:0:0:50:
448,192,251786,128,0,251854:0:0:0:50:
320,192,251922,128,0,251990:0:0:0:70:LR_CymbalSSF.wav
448,192,251922,128,0,251990:0:0:0:50:
64,192,251922,128,0,251990:0:0:0:50:
192,192,252059,128,0,252127:0:0:0:100:LR4_ClapLRV.wav
448,192,252059,128,0,252127:0:0:0:50:
320,192,252059,128,0,252127:0:0:0:50:
192,192,252195,128,0,252263:0:0:0:100:LR4_ClapLRV.wav
448,192,252195,128,0,252263:0:0:0:50:
64,192,252195,128,0,252263:0:0:0:50:
192,192,252331,128,0,252400:0:0:0:100:LR4_ClapLRV.wav
320,192,252331,128,0,252400:0:0:0:50:
64,192,252331,128,0,252400:0:0:0:50:
448,192,252331,128,0,252400:0:0:0:50:
192,192,252468,128,0,252536:0:0:0:100:LR4_ClapLRV.wav
320,192,252468,128,0,252536:0:0:0:50:
64,192,252468,128,0,252536:0:0:0:50:
320,192,252604,128,0,252672:0:0:0:100:LR4_ClapLRV.wav
448,192,252604,128,0,252672:0:0:0:50:
64,192,252604,128,0,252672:0:0:0:50:
192,192,252740,128,0,252809:0:0:0:100:LR4_ClapLRV.wav
448,192,252740,128,0,252809:0:0:0:50:
320,192,252740,128,0,252809:0:0:0:50:
192,192,252877,128,0,252945:0:0:0:100:LR4_ClapLRV.wav
64,192,252877,128,0,252945:0:0:0:50:
320,192,252877,128,0,252945:0:0:0:50:
448,192,252877,128,0,252945:0:0:0:50:
192,192,253013,128,0,253081:0:0:0:100:LR4_ClapLRV.wav
64,192,253013,128,0,253081:0:0:0:50:
448,192,253013,128,0,253081:0:0:0:50:
320,192,253150,128,0,253218:0:0:0:100:LR4_ClapLRV.wav
448,192,253150,128,0,253218:0:0:0:50:
64,192,253150,128,0,253218:0:0:0:50:
192,192,253286,128,0,253354:0:0:0:100:LR4_ClapLRV.wav
320,192,253286,128,0,253354:0:0:0:50:
448,192,253286,128,0,253354:0:0:0:50:
192,192,253422,128,0,253490:0:0:0:100:LR4_ClapLRV.wav
448,192,253422,128,0,253490:0:0:0:50:
320,192,253422,128,0,253490:0:0:0:50:
64,192,253422,128,0,253490:0:0:0:50:
192,192,253559,128,0,253627:0:0:0:100:LR4_ClapLRV.wav
448,192,253559,128,0,253627:0:0:0:50:
64,192,253559,128,0,253627:0:0:0:50:
320,192,253695,128,0,253763:0:0:0:100:LR4_ClapLRV.wav
448,192,253695,128,0,253763:0:0:0:50:
64,192,253695,128,0,253763:0:0:0:50:
192,192,253831,128,0,253900:0:0:0:100:LR4_ClapLRV.wav
320,192,253831,128,0,253900:0:0:0:50:
64,192,253831,128,0,253900:0:0:0:50:
192,192,253968,128,0,254036:0:0:0:100:LR4_ClapLRV.wav
448,192,253968,128,0,254036:0:0:0:50:
320,192,253968,128,0,254036:0:0:0:50:
64,192,253968,128,0,254036:0:0:0:50:
320,192,254104,128,0,254172:0:0:0:100:LR4_ClapLRV.wav
448,192,254104,128,0,254172:0:0:0:50:
64,192,254104,128,0,254172:0:0:0:50:
448,192,254240,128,4,254309:0:0:0:50:
320,192,254240,128,4,254309:0:0:0:50:
192,192,254240,128,0,254309:0:0:0:100:LR4_ClapLRV.wav
64,192,254240,128,0,254309:0:0:0:50:
64,192,254377,1,0,0:0:0:100:LR4_ClapLRV.wav
448,192,254377,1,0,0:0:0:50:
320,192,254377,1,0,0:0:0:50:
192,192,254445,1,0,0:0:0:100:LR4_ClapLRV.wav
192,192,254513,1,0,0:0:0:100:LR4_ClapLRV.wav
64,192,254513,1,0,0:0:0:50:
448,192,254513,1,0,0:0:0:50:
320,192,254513,1,0,0:0:0:50:
192,192,254650,1,0,0:0:0:100:LR4_ClapLRV.wav
64,192,254650,1,0,0:0:0:50:
320,192,254650,1,0,0:0:0:50:
448,192,254718,1,0,0:0:0:100:LR4_ClapLRV.wav
448,192,254786,1,0,0:0:0:100:LR4_ClapLRV.wav
64,192,254786,1,0,0:0:0:50:
320,192,254786,1,0,0:0:0:50:
320,192,254922,1,0,0:0:0:100:LR4_ClapLRV.wav
64,192,254922,1,0,0:0:0:50:
192,192,254922,1,0,0:0:0:50:
192,192,255059,1,0,0:0:0:100:LR4_ClapLRV.wav
64,192,255059,1,0,0:0:0:50:
320,192,255059,1,0,0:0:0:50:
448,192,255059,1,0,0:0:0:50:
64,192,255195,1,0,0:0:0:100:LR4_ClapLRV.wav
192,192,255195,1,0,0:0:0:50:
448,192,255195,1,0,0:0:0:50:
64,192,255331,1,0,0:0:0:100:LR4_ClapLRV.wav
320,192,255331,1,0,0:0:0:50:
448,192,255331,1,0,0:0:0:50:
64,192,255400,1,0,0:0:0:100:LR4_ClapLRV.wav
192,192,255468,1,0,0:0:0:100:LR4_ClapLRV.wav
320,192,255468,1,0,0:0:0:50:
448,192,255468,1,0,0:0:0:50:
64,192,255604,1,0,0:0:0:100:LR4_ClapLRV.wav
192,192,255604,1,0,0:0:0:50:
320,192,255604,1,0,0:0:0:50:
448,192,255604,1,0,0:0:0:50:
64,192,255740,1,0,0:0:0:100:LR4_ClapLRV.wav
448,192,255740,1,0,0:0:0:50:
192,192,255740,1,0,0:0:0:50:
64,192,255877,1,0,0:0:0:100:LR4_ClapLRV.wav
192,192,255877,1,0,0:0:0:50:
320,192,255877,1,0,0:0:0:50:
448,192,255877,1,0,0:0:0:50:
64,192,256013,1,0,0:0:0:100:LR4_ClapLRV.wav
192,192,256013,1,0,0:0:0:50:
320,192,256013,1,0,0:0:0:50:
64,192,256150,128,0,256218:0:0:0:70:LR_CymbalSSF.wav
448,192,256150,128,0,256218:0:0:0:50:
320,192,256150,128,0,256218:0:0:0:50:
192,192,256150,128,0,256218:0:0:0:50:
64,192,256286,128,0,256354:0:0:0:70:LR_CymbalSSF.wav
320,192,256286,128,0,256354:0:0:0:50:
448,192,256286,128,0,256354:0:0:0:50:
64,192,256422,1,0,0:0:0:100:LR4_ClapLRV.wav
192,192,256422,1,0,0:0:0:50:
448,192,256422,128,0,256559:0:0:0:50:
64,192,256559,1,0,0:0:0:100:LR4_ClapLRV.wav
192,192,256559,1,0,0:0:0:50:
320,192,256559,1,0,0:0:0:50:
64,192,256695,1,0,0:0:0:100:LR4_ClapLRV.wav
320,192,256695,1,0,0:0:0:50:
192,192,256695,1,0,0:0:0:50:
448,192,256695,1,0,0:0:0:50:
448,192,256831,1,0,0:0:0:100:LR4_ClapLRV.wav
64,192,256831,1,0,0:0:0:50:
192,192,256831,1,0,0:0:0:50:
448,192,256900,1,0,0:0:0:100:LR4_ClapLRV.wav
320,192,256968,1,0,0:0:0:100:LR4_ClapLRV.wav
64,192,256968,1,0,0:0:0:50:
192,192,256968,1,0,0:0:0:50:
64,192,257104,1,0,0:0:0:100:LR4_ClapLRV.wav
320,192,257104,1,0,0:0:0:50:
448,192,257104,1,0,0:0:0:50:
64,192,257240,1,0,0:0:0:100:LR4_ClapLRV.wav
192,192,257240,1,0,0:0:0:50:
320,192,257240,1,0,0:0:0:50:
448,192,257240,1,0,0:0:0:50:
64,192,257377,1,0,0:0:0:100:LR4_ClapLRV.wav
192,192,257377,1,0,0:0:0:50:
448,192,257377,1,0,0:0:0:50:
64,192,257513,1,0,0:0:0:100:LR4_ClapLRV.wav
320,192,257513,1,0,0:0:0:50:
448,192,257513,1,0,0:0:0:50:
64,192,257581,1,0,0:0:0:100:LR4_ClapLRV.wav
192,192,257650,1,0,0:0:0:100:LR4_ClapLRV.wav
320,192,257650,1,0,0:0:0:50:
448,192,257650,1,0,0:0:0:50:
64,192,257786,1,0,0:0:0:100:LR4_ClapLRV.wav
192,192,257786,1,0,0:0:0:50:
448,192,257786,1,0,0:0:0:50:
320,192,257786,1,0,0:0:0:50:
64,192,257922,1,0,0:0:0:100:LR4_ClapLRV.wav
192,192,257922,1,0,0:0:0:50:
448,192,257922,1,0,0:0:0:50:
192,192,258059,1,0,0:0:0:100:LR4_ClapLRV.wav
320,192,258059,1,0,0:0:0:50:
448,192,258059,1,0,0:0:0:50:
64,192,258195,1,0,0:0:0:100:LR4_ClapLRV.wav
448,192,258195,1,0,0:0:0:50:
320,192,258195,1,0,0:0:0:50:
192,192,258331,1,0,0:0:0:50:
192,192,258468,1,0,0:0:0:50:
320,192,258604,1,0,0:0:0:100:LR4_ClapLRV.wav
448,192,258604,1,0,0:0:0:50:
64,192,258604,1,0,0:0:0:50:
320,192,258740,1,0,0:0:0:100:LR4_ClapLRV.wav
64,192,258740,1,0,0:0:0:50:
192,192,258809,1,0,0:0:0:100:LR4_ClapLRV.wav
320,192,258877,1,0,0:0:0:100:LR4_ClapLRV.wav
448,192,258877,1,0,0:0:0:50:
192,192,258945,1,0,0:0:0:100:LR4_ClapLRV.wav
64,192,258945,1,0,0:0:0:50:
320,192,259013,1,0,0:0:0:100:LR4_ClapLRV.wav
448,192,259013,1,0,0:0:0:50:
192,192,259081,1,0,0:0:0:100:LR4_ClapLRV.wav
64,192,259081,1,0,0:0:0:50:
320,192,259150,1,0,0:0:0:100:LR4_ClapLRV.wav
448,192,259150,1,0,0:0:0:50:
64,192,259150,1,0,0:0:0:50:
192,192,259286,1,0,0:0:0:100:LR4_ClapLRV.wav
448,192,259286,1,0,0:0:0:50:
320,192,259354,1,0,0:0:0:100:LR4_ClapLRV.wav
192,192,259422,1,0,0:0:0:100:LR4_ClapLRV.wav
64,192,259422,1,0,0:0:0:50:
320,192,259490,1,0,0:0:0:100:LR4_ClapLRV.wav
448,192,259490,1,0,0:0:0:50:
192,192,259559,1,0,0:0:0:100:LR4_ClapLRV.wav
64,192,259559,1,0,0:0:0:50:
320,192,259627,1,0,0:0:0:100:LR4_ClapLRV.wav
448,192,259627,1,0,0:0:0:50:
192,192,259695,1,0,0:0:0:100:LR4_ClapLRV.wav
64,192,259695,1,0,0:0:0:50:
448,192,259695,1,0,0:0:0:50:
64,192,259831,1,0,0:0:0:100:LR4_ClapLRV.wav
320,192,259831,1,0,0:0:0:50:
192,192,259900,1,0,0:0:0:100:LR4_ClapLRV.wav
320,192,259968,1,0,0:0:0:100:LR4_ClapLRV.wav
448,192,259968,1,0,0:0:0:50:
64,192,260036,1,0,0:0:0:50:
192,192,260036,1,0,0:0:0:100:LR4_ClapLRV.wav
320,192,260104,1,0,0:0:0:100:LR4_ClapLRV.wav
448,192,260104,1,0,0:0:0:50:
192,192,260172,1,0,0:0:0:100:LR4_ClapLRV.wav
64,192,260172,1,0,0:0:0:50:
64,192,260240,1,0,0:0:0:100:LR4_ClapLRV.wav
448,192,260240,1,0,0:0:0:50:
320,192,260240,1,0,0:0:0:50:
192,192,260377,1,0,0:0:0:100:LR4_ClapLRV.wav
448,192,260377,1,0,0:0:0:50:
320,192,260445,1,0,0:0:0:100:LR4_ClapLRV.wav
64,192,260513,1,0,0:0:0:100:LR4_ClapLRV.wav
192,192,260513,1,0,0:0:0:50:
320,192,260581,1,0,0:0:0:100:LR4_ClapLRV.wav
448,192,260581,1,0,0:0:0:50:
64,192,260650,1,0,0:0:0:100:LR4_ClapLRV.wav
192,192,260650,1,0,0:0:0:50:
320,192,260718,1,0,0:0:0:100:LR4_ClapLRV.wav
448,192,260718,1,0,0:0:0:50:
448,192,260786,1,0,0:0:0:100:LR4_ClapLRV.wav
64,192,260786,1,0,0:0:0:50:
192,192,260786,1,0,0:0:0:50:
320,192,260854,1,0,0:0:0:100:LR4_ClapLRV.wav
192,192,260922,1,0,0:0:0:100:LR4_ClapLRV.wav
64,192,260922,1,0,0:0:0:50:
320,192,260990,1,0,0:0:0:100:LR4_ClapLRV.wav
192,192,261059,1,0,0:0:0:100:LR4_ClapLRV.wav
64,192,261059,1,0,0:0:0:50:
448,192,261059,1,0,0:0:0:50:
320,192,261127,1,0,0:0:0:100:LR4_ClapLRV.wav
192,192,261195,1,0,0:0:0:100:LR4_ClapLRV.wav
64,192,261195,1,0,0:0:0:50:
448,192,261263,1,0,0:0:0:100:LR4_ClapLRV.wav
192,192,261331,1,0,0:0:0:100:LR4_ClapLRV.wav
320,192,261331,1,0,0:0:0:50:
64,192,261331,1,0,0:0:0:50:
448,192,261400,1,0,0:0:0:100:LR4_ClapLRV.wav
192,192,261468,1,0,0:0:0:100:LR4_ClapLRV.wav
64,192,261468,1,0,0:0:0:50:
320,192,261536,1,0,0:0:0:100:LR4_ClapLRV.wav
192,192,261604,1,0,0:0:0:100:LR4_ClapLRV.wav
448,192,261604,1,0,0:0:0:50:
64,192,261604,1,0,0:0:0:50:
320,192,261672,1,0,0:0:0:100:LR4_ClapLRV.wav
192,192,261740,1,0,0:0:0:100:LR4_ClapLRV.wav
64,192,261740,1,0,0:0:0:50:
320,192,261809,1,0,0:0:0:100:LR4_ClapLRV.wav
448,192,261809,1,0,0:0:0:50:
192,192,261877,1,0,0:0:0:90:LR4_ClapLRV.wav
64,192,261877,1,0,0:0:0:50:
448,192,261877,1,0,0:0:0:50:
192,192,261945,1,0,0:0:0:90:LR4_ClapLRV.wav
64,192,261945,1,0,0:0:0:50:
320,192,262013,1,0,0:0:0:80:LR4_ClapLRV.wav
448,192,262013,1,0,0:0:0:50:
320,192,262081,1,0,0:0:0:80:LR4_ClapLRV.wav
448,192,262081,1,0,0:0:0:50:
192,192,262150,1,0,0:0:0:70:LR4_ClapLRV.wav
64,192,262150,1,0,0:0:0:50:
192,192,262218,1,0,0:0:0:70:LR4_ClapLRV.wav
320,192,262286,1,0,0:0:0:70:LR4_ClapLRV.wav
448,192,262286,1,0,0:0:0:50:
320,192,262354,1,0,0:0:0:70:LR4_ClapLRV.wav
192,192,262422,1,0,0:0:0:60:LR4_ClapLRV.wav
64,192,262422,1,0,0:0:0:50:
320,192,262490,1,0,0:0:0:60:LR4_ClapLRV.wav
192,192,262559,1,0,0:0:0:50:LR4_ClapLRV.wav
64,192,262559,1,0,0:0:0:50:
320,192,262627,1,0,0:0:0:50:LR4_ClapLRV.wav
64,192,262695,1,0,0:0:0:50:
192,192,262695,1,0,0:0:0:50:
448,192,262695,128,0,262968:0:0:0:50:
192,192,262968,1,0,0:0:0:70:LR_Kick Bass strong.wav
64,192,262968,1,0,0:0:0:50:
320,192,262968,1,0,0:0:0:50:
64,192,263036,1,0,0:0:0:50:
448,192,263104,1,0,0:0:0:50:
192,192,263104,1,0,0:0:0:50:
320,192,263172,1,0,0:0:0:50:
192,192,263240,1,0,0:0:0:50:
64,192,263240,1,0,0:0:0:50:
448,192,263309,1,0,0:0:0:50:
192,192,263377,1,0,0:0:0:70:LR_Kick Bass strong.wav
320,192,263377,1,0,0:0:0:50:
64,192,263377,1,0,0:0:0:50:
448,192,263445,1,0,0:0:0:50:
320,192,263513,1,0,0:0:0:70:LR4_SnareBPDT.wav
64,192,263513,1,0,0:0:0:50:
192,192,263513,1,0,0:0:0:50:
64,192,263581,1,0,0:0:0:50:
320,192,263650,1,0,0:0:0:50:
448,192,263650,1,0,0:0:0:50:
192,192,263718,1,0,0:0:0:50:
320,192,263786,1,0,0:0:0:70:LR_Kick Bass strong.wav
448,192,263786,1,0,0:0:0:50:
64,192,263854,1,0,0:0:0:50:
192,192,263922,1,0,0:0:0:50:
448,192,263922,1,0,0:0:0:50:
320,192,263990,1,0,0:0:0:50:
192,192,264059,1,0,0:0:0:50:
64,192,264059,1,0,0:0:0:50:
448,192,264127,1,0,0:0:0:50:
320,192,264195,1,0,0:0:0:50:
192,192,264195,1,0,0:0:0:50:
64,192,264263,1,0,0:0:0:50:
320,192,264331,1,0,0:0:0:70:LR_Kick Bass strong.wav
448,192,264331,1,0,0:0:0:50:
192,192,264400,1,0,0:0:0:70:LR_Kick Bass strong.wav
64,192,264400,1,0,0:0:0:50:
320,192,264468,1,0,0:0:0:70:LR_Kick Bass strong.wav
448,192,264468,1,0,0:0:0:50:
64,192,264536,1,0,0:0:0:50:
192,192,264604,1,0,0:0:0:70:LR4_SnareBPDT.wav
320,192,264604,1,0,0:0:0:50:
448,192,264604,1,0,0:0:0:50:
320,192,264672,1,0,0:0:0:50:
192,192,264740,1,0,0:0:0:70:LR_Kick Bass strong.wav
64,192,264740,1,0,0:0:0:50:
320,192,264809,1,0,0:0:0:50:
192,192,264877,1,0,0:0:0:50:
64,192,264877,1,0,0:0:0:50:
448,192,264945,1,0,0:0:0:50:
320,192,265013,1,0,0:0:0:50:
192,192,265013,1,0,0:0:0:50:
64,192,265081,1,0,0:0:0:50:
192,192,265150,1,0,0:0:0:70:LR_Kick Bass strong.wav
448,192,265150,1,0,0:0:0:50:
320,192,265150,1,0,0:0:0:50:
192,192,265218,1,0,0:0:0:50:
448,192,265286,1,0,0:0:0:50:
320,192,265286,1,0,0:0:0:50:
192,192,265354,1,0,0:0:0:50:
64,192,265422,1,0,0:0:0:50:
448,192,265422,1,0,0:0:0:50:
320,192,265490,1,0,0:0:0:50:
64,192,265559,1,0,0:0:0:70:LR_Kick Bass strong.wav
192,192,265559,1,0,0:0:0:50:
448,192,265559,1,0,0:0:0:50:
320,192,265627,1,0,0:0:0:50:
192,192,265695,1,0,0:0:0:70:LR4_SnareBPDT.wav
448,192,265695,1,0,0:0:0:50:
64,192,265695,1,0,0:0:0:50:
192,192,265763,1,0,0:0:0:50:
448,192,265831,1,0,0:0:0:50:
320,192,265831,1,0,0:0:0:50:
192,192,265900,1,0,0:0:0:50:
64,192,265968,1,0,0:0:0:70:LR_Kick Bass strong.wav
448,192,265968,1,0,0:0:0:50:
320,192,265968,1,0,0:0:0:50:
192,192,266036,1,0,0:0:0:50:
320,192,266104,1,0,0:0:0:50:
448,192,266104,1,0,0:0:0:50:
64,192,266172,1,0,0:0:0:50:
192,192,266240,1,0,0:0:0:50:
320,192,266240,1,0,0:0:0:50:
64,192,266309,1,0,0:0:0:50:
192,192,266377,1,0,0:0:0:50:
64,192,266445,1,0,0:0:0:50:
320,192,266513,1,0,0:0:0:70:LR_Kick Bass strong.wav
448,192,266513,1,0,0:0:0:70:LR4_ClapLRV.wav
192,192,266581,1,0,0:0:0:70:LR_Kick Bass strong.wav
64,192,266581,1,0,0:0:0:70:LR4_ClapLRV.wav
320,192,266650,1,0,0:0:0:70:LR_Kick Bass strong.wav
448,192,266650,1,0,0:0:0:70:LR4_ClapLRV.wav
192,192,266718,1,0,0:0:0:50:
64,192,266718,1,0,0:0:0:70:LR4_ClapLRV.wav
320,192,266786,1,0,0:0:0:70:LR4_SnareBPDT.wav
448,192,266786,1,0,0:0:0:70:LR4_ClapLRV.wav
192,192,266854,1,0,0:0:0:70:LR4_ClapLRV.wav
320,192,266922,1,0,0:0:0:70:LR_Kick Bass strong.wav
448,192,266922,1,0,0:0:0:70:LR4_ClapLRV.wav
192,192,266990,1,0,0:0:0:70:LR4_ClapLRV.wav
320,192,267059,1,0,0:0:0:70:LR4_SnareBPDT.wav
448,192,267059,1,0,0:0:0:70:LR4_ClapLRV.wav
64,192,267059,1,0,0:0:0:50:
64,192,267127,1,0,0:0:0:50:
448,192,267195,1,0,0:0:0:50:
320,192,267195,1,0,0:0:0:50:
320,192,267263,1,0,0:0:0:50:
192,192,267331,128,0,267400:0:0:0:70:LR_Kick Bass strong.wav
64,192,267331,128,0,267536:0:0:0:50:
448,192,267331,128,0,267536:0:0:0:50:
192,192,267468,128,0,267536:0:0:0:50:
320,192,267468,128,0,267536:0:0:0:50:
192,192,267604,128,0,267809:0:0:0:70:LR4_SnareBPDT.wav
64,192,267604,128,0,267672:0:0:0:50:
320,192,267604,128,0,267672:0:0:0:50:
448,192,267604,128,0,267809:0:0:0:50:
320,192,267740,128,0,267809:0:0:0:50:
64,192,267740,128,0,267945:0:0:0:50:
192,192,267877,128,0,268081:0:0:0:70:LR_Kick Bass strong.wav
320,192,267877,128,0,268081:0:0:0:50:
448,192,267877,128,0,267945:0:0:0:50:
64,192,268013,128,0,268081:0:0:0:50:
448,192,268013,128,0,268081:0:0:0:50:
192,192,268150,128,0,268218:0:0:0:70:LR4_SnareBPDT.wav
64,192,268150,128,0,268354:0:0:0:50:
320,192,268150,128,0,268354:0:0:0:50:
448,192,268150,128,0,268218:0:0:0:50:
192,192,268286,128,0,268490:0:0:0:50:
448,192,268286,128,0,268354:0:0:0:50:
64,192,268422,128,0,268627:0:0:0:70:LR_Kick Bass strong.wav
320,192,268422,128,0,268490:0:0:0:50:
448,192,268422,128,0,268627:0:0:0:50:
320,192,268559,128,0,268627:0:0:0:50:
192,192,268559,128,0,268627:0:0:0:50:
64,192,268695,128,0,268763:0:0:0:70:LR4_SnareBPDT.wav
192,192,268695,128,0,268900:0:0:0:50:
320,192,268695,128,0,268900:0:0:0:50:
448,192,268695,128,0,268763:0:0:0:50:
64,192,268831,128,0,268900:0:0:0:50:
448,192,268831,128,0,269036:0:0:0:50:
64,192,268968,128,0,269172:0:0:0:70:LR_Kick Bass strong.wav
320,192,268968,128,0,269172:0:0:0:50:
192,192,268968,128,0,269036:0:0:0:50:
448,192,269104,128,0,269172:0:0:0:50:
192,192,269104,128,0,269172:0:0:0:50:
192,192,269240,128,0,269445:0:0:0:70:LR4_SnareBPDT.wav
448,192,269240,128,0,269445:0:0:0:50:
64,192,269240,128,0,269309:0:0:0:50:
320,192,269240,128,0,269309:0:0:0:50:
320,192,269377,128,0,269445:0:0:0:50:
64,192,269377,128,0,269513:0:0:0:50:
192,192,269513,128,0,269581:0:0:0:70:LR_Kick Bass strong.wav
448,192,269513,128,0,269581:0:0:0:50:
320,192,269513,128,0,269581:0:0:0:50:
448,192,269650,128,0,269718:0:0:0:50:
64,192,269650,128,0,269718:0:0:0:50:
192,192,269786,128,0,269854:0:0:0:70:LR4_SnareBPDT.wav
448,192,269786,128,0,269854:0:0:0:100:LR4_ClapLRV.wav
64,192,269786,128,0,269854:0:0:0:50:
320,192,269854,128,0,269922:0:0:0:100:LR4_ClapLRV.wav
448,192,269922,128,0,269990:0:0:0:100:LR4_ClapLRV.wav
320,192,269990,128,0,270059:0:0:0:100:LR4_ClapLRV.wav
192,192,270059,128,0,270127:0:0:0:70:LR_Kick Bass strong.wav
448,192,270059,128,0,270127:0:0:0:100:LR4_ClapLRV.wav
64,192,270059,128,0,270127:0:0:0:50:
320,192,270127,128,0,270195:0:0:0:100:LR4_ClapLRV.wav
448,192,270195,128,0,270263:0:0:0:100:LR4_ClapLRV.wav
64,192,270195,128,0,270263:0:0:0:50:
320,192,270263,128,0,270331:0:0:0:100:LR4_ClapLRV.wav
192,192,270331,128,0,270400:0:0:0:70:LR4_SnareBPDT.wav
64,192,270331,128,0,270400:0:0:0:50:
448,192,270331,128,0,270400:0:0:0:100:LR4_ClapLRV.wav
448,192,270468,128,0,270536:0:0:0:100:LR4_ClapLRV.wav
320,192,270468,128,0,270536:0:0:0:50:
192,192,270468,128,0,270536:0:0:0:50:
64,192,270604,128,0,270672:0:0:0:70:LR_Kick Bass strong.wav
448,192,270604,128,0,270672:0:0:0:100:LR4_ClapLRV.wav
320,192,270604,128,0,270672:0:0:0:50:
320,192,270740,128,0,270809:0:0:0:100:LR4_ClapLRV.wav
192,192,270740,128,0,270809:0:0:0:50:
64,192,270740,128,0,270809:0:0:0:50:
192,192,270877,128,0,270945:0:0:0:70:LR4_SnareBPDT.wav
64,192,270877,128,0,270945:0:0:0:50:
448,192,270877,128,0,270945:0:0:0:100:LR4_ClapLRV.wav
448,192,271013,128,0,271081:0:0:0:100:LR4_ClapLRV.wav
320,192,271013,128,0,271081:0:0:0:50:
192,192,271013,128,0,271081:0:0:0:50:
64,192,271150,128,0,271218:0:0:0:70:LR_Kick Bass strong.wav
448,192,271150,128,0,271218:0:0:0:100:LR4_ClapLRV.wav
320,192,271150,128,0,271218:0:0:0:50:
192,192,271218,128,0,271286:0:0:0:50:
320,192,271286,128,0,271354:0:0:0:50:
448,192,271286,128,0,271354:0:0:0:100:LR4_ClapLRV.wav
64,192,271286,128,0,271354:0:0:0:50:
192,192,271354,128,0,271422:0:0:0:50:
64,192,271422,128,0,271695:0:0:0:70:LR4_SnareBPDT.wav
320,192,271422,128,0,271490:0:0:0:50:
448,192,271422,128,0,271490:0:0:0:100:LR4_ClapLRV.wav
320,192,271559,128,0,271695:0:0:0:50:
192,192,271695,128,0,271968:0:0:0:70:LR_Kick Bass strong.wav
448,192,271695,1,0,0:0:0:50:
448,192,271968,1,0,0:0:0:50:
320,192,271968,128,0,272240:0:0:0:50:
192,192,272104,1,0,0:0:0:70:LR_Kick Bass strong.wav
64,192,272104,1,0,0:0:0:50:
448,192,272240,1,0,0:0:0:50:
64,192,272240,128,0,272513:0:0:0:50:
448,192,272513,1,0,0:0:0:70:LR_CymbalSSF.wav
320,192,272513,1,0,0:0:0:50:
192,192,272513,1,0,0:0:0:50:
320,192,272581,1,0,0:0:0:50:
64,192,272650,1,0,0:0:0:50:
192,192,272650,1,0,0:0:0:50:
320,192,272718,1,0,0:0:0:50:
192,192,272786,1,0,0:0:0:50:
64,192,272786,1,0,0:0:0:50:
448,192,272854,1,0,0:0:0:50:
320,192,272922,1,0,0:0:0:50:
64,192,272922,1,0,0:0:0:50:
192,192,272990,1,0,0:0:0:50:
320,192,273059,1,0,0:0:0:70:LR_Kick Bass strong.wav
448,192,273059,1,0,0:0:0:50:
192,192,273127,1,0,0:0:0:70:LR_Kick Bass strong.wav
64,192,273127,1,0,0:0:0:50:
320,192,273195,1,0,0:0:0:70:LR_Kick Bass strong.wav
448,192,273195,1,0,0:0:0:50:
64,192,273263,1,0,0:0:0:50:
192,192,273331,1,0,0:0:0:70:LR4_SnareBPDT.wav
320,192,273331,1,0,0:0:0:50:
448,192,273331,1,0,0:0:0:50:
192,192,273400,1,0,0:0:0:50:
320,192,273468,1,0,0:0:0:70:LR_Kick Bass strong.wav
448,192,273468,1,0,0:0:0:50:
192,192,273536,1,0,0:0:0:50:
320,192,273604,1,0,0:0:0:50:
64,192,273604,1,0,0:0:0:50:
448,192,273672,1,0,0:0:0:50:
320,192,273740,1,0,0:0:0:50:
64,192,273740,1,0,0:0:0:50:
192,192,273809,1,0,0:0:0:50:
320,192,273877,1,0,0:0:0:70:LR_Kick Bass strong.wav
448,192,273877,1,0,0:0:0:50:
64,192,273877,1,0,0:0:0:50:
448,192,273945,1,0,0:0:0:50:
320,192,274013,1,0,0:0:0:50:
192,192,274013,1,0,0:0:0:50:
64,192,274081,1,0,0:0:0:50:
192,192,274150,1,0,0:0:0:50:
448,192,274150,1,0,0:0:0:50:
320,192,274218,1,0,0:0:0:50:
192,192,274286,1,0,0:0:0:70:LR_Kick Bass strong.wav
64,192,274286,1,0,0:0:0:50:
448,192,274286,1,0,0:0:0:50:
320,192,274354,1,0,0:0:0:50:
192,192,274422,1,0,0:0:0:70:LR4_SnareBPDT.wav
448,192,274422,1,0,0:0:0:50:
64,192,274422,1,0,0:0:0:50:
64,192,274490,1,0,0:0:0:50:
192,192,274559,1,0,0:0:0:50:
320,192,274559,1,0,0:0:0:50:
448,192,274627,1,0,0:0:0:50:
192,192,274695,1,0,0:0:0:70:LR_Kick Bass strong.wav
320,192,274695,1,0,0:0:0:50:
64,192,274695,1,0,0:0:0:50:
448,192,274763,1,0,0:0:0:50:
320,192,274831,1,0,0:0:0:50:
192,192,274831,1,0,0:0:0:50:
64,192,274900,1,0,0:0:0:50:
320,192,274968,1,0,0:0:0:50:
448,192,274968,1,0,0:0:0:50:
192,192,275036,1,0,0:0:0:50:
320,192,275104,1,0,0:0:0:50:
192,192,275172,1,0,0:0:0:50:
320,192,275240,1,0,0:0:0:70:LR_Kick Bass strong.wav
448,192,275240,1,0,0:0:0:100:LR4_ClapLRV.wav
192,192,275309,1,0,0:0:0:70:LR_Kick Bass strong.wav
64,192,275309,1,0,0:0:0:100:LR4_ClapLRV.wav
320,192,275377,1,0,0:0:0:70:LR_Kick Bass strong.wav
448,192,275377,1,0,0:0:0:100:LR4_ClapLRV.wav
192,192,275445,1,0,0:0:0:100:LR4_ClapLRV.wav
320,192,275513,1,0,0:0:0:70:LR4_SnareBPDT.wav
448,192,275513,1,0,0:0:0:100:LR4_ClapLRV.wav
64,192,275513,1,0,0:0:0:50:
192,192,275581,1,0,0:0:0:100:LR4_ClapLRV.wav
320,192,275650,1,0,0:0:0:70:LR_Kick Bass strong.wav
448,192,275650,1,0,0:0:0:100:LR4_ClapLRV.wav
192,192,275718,1,0,0:0:0:100:LR4_ClapLRV.wav
448,192,275786,1,0,0:0:0:100:LR4_ClapLRV.wav
320,192,275786,1,0,0:0:0:50:
192,192,275854,1,0,0:0:0:70:LR_Kick Bass strong.wav
64,192,275854,1,0,0:0:0:50:
320,192,275922,1,0,0:0:0:70:LR_Kick Bass strong.wav
192,192,275990,1,0,0:0:0:70:LR_Kick Bass strong.wav
320,192,276059,1,0,0:0:0:70:LR_CymbalSSF.wav
448,192,276059,1,0,0:0:0:50:
64,192,276059,1,0,0:0:0:50:
192,192,276263,1,0,0:0:0:70:LR_Kick Bass strong.wav
448,192,276263,1,0,0:0:0:50:
64,192,276263,1,0,0:0:0:50:
192,192,276331,1,0,0:0:0:70:LR_Kick Bass strong.wav
448,192,276331,1,0,0:0:0:50:
320,192,276331,1,0,0:0:0:50:
64,192,276468,1,0,0:0:0:70:LR_Kick Bass strong.wav
448,192,276468,1,0,0:0:0:50:
320,192,276468,1,0,0:0:0:50:
64,192,276672,1,0,0:0:0:70:LR_Kick Bass strong.wav
192,192,276672,1,0,0:0:0:50:
448,192,276672,1,0,0:0:0:50:
64,192,276740,1,0,0:0:0:70:LR_Kick Bass strong.wav
448,192,276740,1,0,0:0:0:50:
320,192,276740,1,0,0:0:0:50:
192,192,276877,1,0,0:0:0:70:LR_Kick Bass strong.wav
448,192,276877,1,0,0:0:0:50:
320,192,276877,1,0,0:0:0:50:
64,192,277013,1,0,0:0:0:50:
448,192,277150,1,0,0:0:0:70:LR_CymbalSSF.wav
64,192,277150,1,0,0:0:0:70:LR_Kick Bass strong.wav
320,192,277150,1,0,0:0:0:50:
192,192,277150,1,0,0:0:0:50:
192,192,277354,1,0,0:0:0:70:LR_Kick Bass strong.wav
448,192,277354,1,0,0:0:0:50:
320,192,277354,1,0,0:0:0:50:
64,192,277422,1,0,0:0:0:70:LR_Kick Bass strong.wav
448,192,277422,1,0,0:0:0:50:
320,192,277422,1,0,0:0:0:50:
64,192,277559,1,0,0:0:0:70:LR_Kick Bass strong.wav
448,192,277559,1,0,0:0:0:50:
192,192,277559,1,0,0:0:0:50:
64,192,277763,1,0,0:0:0:70:LR_Kick Bass strong.wav
448,192,277763,1,0,0:0:0:50:
320,192,277763,1,0,0:0:0:50:
64,192,277831,1,0,0:0:0:70:LR_Kick Bass strong.wav
320,192,277831,1,0,0:0:0:50:
192,192,277831,1,0,0:0:0:50:
192,192,277968,1,0,0:0:0:70:LR_Kick Bass strong.wav
448,192,277968,1,0,0:0:0:50:
320,192,277968,1,0,0:0:0:50:
64,192,278104,1,0,0:0:0:50:
448,192,278240,1,0,0:0:0:70:LR_CymbalSSF.wav
64,192,278240,1,0,0:0:0:70:LR_Kick Bass strong.wav
320,192,278240,1,0,0:0:0:50:
192,192,278240,1,0,0:0:0:50:
64,192,278445,1,0,0:0:0:70:LR_Kick Bass strong.wav
448,192,278445,1,0,0:0:0:50:
320,192,278445,1,0,0:0:0:50:
192,192,278513,1,0,0:0:0:70:LR_Kick Bass strong.wav
448,192,278513,1,0,0:0:0:50:
320,192,278513,1,0,0:0:0:50:
64,192,278650,1,0,0:0:0:70:LR_Kick Bass strong.wav
448,192,278650,1,0,0:0:0:50:
192,192,278650,1,0,0:0:0:50:
64,192,278786,1,0,0:0:0:70:LR_Kick Bass strong.wav
448,192,278786,1,0,0:0:0:50:
320,192,278786,1,0,0:0:0:70:LR_CymbalSSF.wav
64,192,278990,1,0,0:0:0:70:LR_Kick Bass strong.wav
320,192,278990,1,0,0:0:0:50:
192,192,278990,1,0,0:0:0:50:
64,192,279059,1,0,0:0:0:70:LR_Kick Bass strong.wav
448,192,279059,1,0,0:0:0:50:
192,192,279059,1,0,0:0:0:50:
192,192,279195,1,0,0:0:0:70:LR_Kick Bass strong.wav
448,192,279195,1,0,0:0:0:50:
320,192,279195,1,0,0:0:0:50:
448,192,279331,1,0,0:0:0:70:LR_CymbalSSF.wav
64,192,279331,1,0,0:0:0:70:LR_Kick Bass strong.wav
320,192,279331,1,0,0:0:0:50:
192,192,279331,1,0,0:0:0:50:
320,192,279400,1,0,0:0:0:70:LR_Kick Bass strong.wav
448,192,279400,1,0,0:0:0:50:
192,192,279468,1,0,0:0:0:70:LR_Kick Bass strong.wav
64,192,279468,1,0,0:0:0:50:
192,192,279536,1,0,0:0:0:70:LR_Kick Bass strong.wav
64,192,279536,1,0,0:0:0:50:
320,192,279604,1,0,0:0:0:70:LR_Kick Bass strong.wav
448,192,279604,1,0,0:0:0:50:
320,192,279672,1,0,0:0:0:70:LR_Kick Bass strong.wav
448,192,279672,1,0,0:0:0:50:
320,192,279740,1,0,0:0:0:70:LR_Kick Bass strong.wav
448,192,279740,1,0,0:0:0:50:
320,192,279809,1,0,0:0:0:70:LR_Kick Bass strong.wav
448,192,279809,1,0,0:0:0:50:
64,192,279877,1,0,0:0:0:70:LR_Kick Bass strong.wav
64,192,279945,1,0,0:0:0:70:LR_Kick Bass strong.wav
192,192,280013,1,0,0:0:0:70:LR_Kick Bass strong.wav
192,192,280081,1,0,0:0:0:70:LR_Kick Bass strong.wav
448,192,280150,1,0,0:0:0:70:LR4_SnareBPDT.wav
320,192,280150,1,0,0:0:0:50:
64,192,280150,1,0,0:0:0:50:
192,192,280422,1,0,0:0:0:70:LR_Kick Bass strong.wav
448,192,280422,1,0,0:0:0:70:LR_CymbalSSF.wav
320,192,280422,1,0,0:0:0:50:
64,192,280422,1,0,0:0:0:0:
320,192,280559,1,0,0:0:0:50:
64,192,280695,128,0,280763:0:0:0:50:
192,192,280695,1,0,0:0:0:50:
448,192,280831,1,0,0:0:0:70:LR_Kick Bass strong.wav
320,192,280831,1,0,0:0:0:50:
448,192,280968,1,0,0:0:0:50:LR4_SnareBPDT.wav
64,192,280968,1,0,0:0:0:50:
192,192,280968,1,0,0:0:0:50:
320,192,281036,1,0,0:0:0:50:
192,192,281104,1,0,0:0:0:50:
64,192,281240,128,0,281309:0:0:0:50:LR_Kick Bass strong.wav
448,192,281240,1,0,0:0:0:50:
320,192,281240,1,0,0:0:0:50:
192,192,281309,1,0,0:0:0:0:
448,192,281377,1,0,0:0:0:50:
320,192,281445,1,0,0:0:0:0:
192,192,281513,1,0,0:0:0:50:
448,192,281581,1,0,0:0:0:0:
320,192,281650,1,0,0:0:0:50:
192,192,281718,1,0,0:0:0:0:
64,192,281786,128,0,281854:0:0:0:50:LR_Kick Bass strong.wav
448,192,281786,1,0,0:0:0:50:
320,192,281786,1,0,0:0:0:50:
320,192,281854,1,0,0:0:0:50:LR_Kick Bass strong.wav
192,192,281922,1,0,0:0:0:50:LR_Kick Bass strong.wav
448,192,281922,1,0,0:0:0:50:
320,192,281990,1,0,0:0:0:0:
192,192,282059,1,0,0:0:0:50:LR4_SnareBPDT.wav
64,192,282059,1,0,0:0:0:50:
448,192,282127,1,0,0:0:0:0:
320,192,282195,1,0,0:0:0:50:LR_Kick Bass strong.wav
192,192,282195,1,0,0:0:0:50:
448,192,282263,1,0,0:0:0:0:
64,192,282331,128,0,282400:0:0:0:50:
192,192,282331,1,0,0:0:0:50:
320,192,282400,1,0,0:0:0:0:
448,192,282468,1,0,0:0:0:50:
192,192,282536,1,0,0:0:0:0:
320,192,282604,1,0,0:0:0:50:LR_Kick Bass strong.wav
448,192,282604,1,0,0:0:0:50:
192,192,282672,1,0,0:0:0:0:
448,192,282740,1,0,0:0:0:50:
320,192,282809,1,0,0:0:0:0:
64,192,282877,128,0,282945:0:0:0:50:
192,192,282877,1,0,0:0:0:50:
448,192,282945,1,0,0:0:0:0:
320,192,283013,1,0,0:0:0:50:LR_Kick Bass strong.wav
192,192,283013,1,0,0:0:0:50:
448,192,283081,1,0,0:0:0:0:
64,192,283150,1,0,0:0:0:50:LR4_SnareBPDT.wav
320,192,283150,1,0,0:0:0:50:
448,192,283218,1,0,0:0:0:0:
192,192,283286,1,0,0:0:0:50:
320,192,283354,1,0,0:0:0:0:
64,192,283422,128,0,283490:0:0:0:50:LR_Kick Bass strong.wav
448,192,283422,1,0,0:0:0:50:
192,192,283422,1,0,0:0:0:50:
320,192,283490,1,0,0:0:0:0:
448,192,283559,1,0,0:0:0:50:
192,192,283627,1,0,0:0:0:0:
320,192,283695,1,0,0:0:0:50:
448,192,283763,1,0,0:0:0:0:
320,192,283831,1,0,0:0:0:50:
192,192,283900,1,0,0:0:0:0:
64,192,283968,128,0,284036:0:0:0:50:LR_Kick Bass strong.wav
448,192,283968,1,0,0:0:0:50:
320,192,283968,1,0,0:0:0:50:
320,192,284036,1,0,0:0:0:50:LR_Kick Bass strong.wav
192,192,284104,1,0,0:0:0:50:LR_Kick Bass strong.wav
448,192,284104,1,0,0:0:0:0:
320,192,284172,1,0,0:0:0:0:
192,192,284240,1,0,0:0:0:50:LR4_SnareBPDT.wav
64,192,284240,1,0,0:0:0:50:
320,192,284422,1,0,0:0:0:50:LR_Kick Bass strong.wav
192,192,284422,1,0,0:0:0:50:
64,192,284513,128,0,284581:0:0:0:50:
448,192,284604,1,0,0:0:0:50:LR_Kick Bass strong.wav
320,192,284604,1,0,0:0:0:50:
192,192,284786,1,0,0:0:0:50:LR_Kick Bass strong.wav
64,192,284786,1,0,0:0:0:50:
448,192,284786,1,0,0:0:0:50:
320,192,284922,1,0,0:0:0:50:
64,192,285059,128,0,285127:0:0:0:50:
448,192,285059,1,0,0:0:0:50:
192,192,285195,1,0,0:0:0:50:LR_Kick Bass strong.wav
320,192,285195,1,0,0:0:0:50:
448,192,285331,1,0,0:0:0:50:LR4_SnareBPDT.wav
320,192,285331,1,0,0:0:0:50:
64,192,285331,1,0,0:0:0:50:
192,192,285468,1,0,0:0:0:50:
64,192,285604,128,0,285672:0:0:0:50:LR_Kick Bass strong.wav
448,192,285604,1,0,0:0:0:50:
320,192,285604,1,0,0:0:0:50:
192,192,285672,1,0,0:0:0:0:
320,192,285740,1,0,0:0:0:50:
448,192,285809,1,0,0:0:0:0:
192,192,285877,1,0,0:0:0:50:
320,192,285945,1,0,0:0:0:0:
448,192,286013,1,0,0:0:0:50:
192,192,286081,1,0,0:0:0:0:
64,192,286150,128,0,286218:0:0:0:50:LR_Kick Bass strong.wav
448,192,286150,1,0,0:0:0:50:
320,192,286150,1,0,0:0:0:50:
320,192,286218,1,0,0:0:0:50:LR_Kick Bass strong.wav
192,192,286286,1,0,0:0:0:50:LR_Kick Bass strong.wav
448,192,286286,1,0,0:0:0:50:
320,192,286354,1,0,0:0:0:0:
192,192,286422,1,0,0:0:0:50:LR4_SnareBPDT.wav
64,192,286422,1,0,0:0:0:50:
448,192,286490,1,0,0:0:0:0:
192,192,286559,1,0,0:0:0:50:LR_Kick Bass strong.wav
320,192,286559,1,0,0:0:0:50:
448,192,286627,1,0,0:0:0:0:
64,192,286695,128,0,286763:0:0:0:50:
192,192,286695,1,0,0:0:0:50:
320,192,286763,1,0,0:0:0:0:
448,192,286831,1,0,0:0:0:50:
192,192,286900,1,0,0:0:0:0:
320,192,286968,1,0,0:0:0:50:LR_Kick Bass strong.wav
448,192,286968,1,0,0:0:0:50:
192,192,287036,1,0,0:0:0:0:
448,192,287104,1,0,0:0:0:50:
320,192,287172,1,0,0:0:0:0:
64,192,287240,128,0,287309:0:0:0:50:
192,192,287240,1,0,0:0:0:50:
448,192,287309,1,0,0:0:0:0:
320,192,287377,1,0,0:0:0:50:LR_Kick Bass strong.wav
192,192,287377,1,0,0:0:0:50:
448,192,287445,1,0,0:0:0:0:
320,192,287513,1,0,0:0:0:50:LR4_SnareBPDT.wav
192,192,287513,1,0,0:0:0:50:
64,192,287513,1,0,0:0:0:50:
448,192,287581,1,0,0:0:0:0:
320,192,287650,1,0,0:0:0:50:
192,192,287718,1,0,0:0:0:0:
64,192,287786,128,0,287854:0:0:0:50:LR_Kick Bass strong.wav
448,192,287786,1,0,0:0:0:50:
320,192,287786,1,0,0:0:0:50:
192,192,287854,1,0,0:0:0:0:
320,192,287922,1,0,0:0:0:50:
448,192,287990,1,0,0:0:0:0:
192,192,288059,1,0,0:0:0:50:
320,192,288127,1,0,0:0:0:0:
448,192,288195,1,0,0:0:0:50:
192,192,288263,1,0,0:0:0:0:
64,192,288331,128,0,288400:0:0:0:50:LR_Kick Bass strong.wav
320,192,288331,1,0,0:0:0:50:
448,192,288331,1,0,0:0:0:50:
320,192,288400,1,0,0:0:0:50:LR_Kick Bass strong.wav
192,192,288468,1,0,0:0:0:50:LR_Kick Bass strong.wav
448,192,288468,1,0,0:0:0:50:
320,192,288536,1,0,0:0:0:0:
192,192,288604,1,0,0:0:0:50:LR4_SnareBPDT.wav
64,192,288604,1,0,0:0:0:50:
320,192,288786,1,0,0:0:0:70:LR4_SnareBPDT.wav
192,192,288786,1,0,0:0:0:50:
64,192,288877,128,0,288945:0:0:0:50:
448,192,288968,1,0,0:0:0:70:LR4_SnareBPDT.wav
320,192,288968,1,0,0:0:0:50:
448,192,289150,1,0,0:0:0:70:LR_CymbalSSF.wav
192,192,289150,1,0,0:0:0:50:LR_Kick Bass strong.wav
64,192,289150,1,0,0:0:0:50:
320,192,289286,1,0,0:0:0:50:
64,192,289422,128,0,289490:0:0:0:50:
192,192,289422,1,0,0:0:0:50:
448,192,289559,1,0,0:0:0:50:LR_Kick Bass strong.wav
320,192,289559,1,0,0:0:0:50:
448,192,289695,1,0,0:0:0:50:LR4_SnareBPDT.wav
64,192,289695,1,0,0:0:0:50:
192,192,289695,1,0,0:0:0:50:
320,192,289763,1,0,0:0:0:0:
192,192,289831,1,0,0:0:0:50:
64,192,289968,128,0,290036:0:0:0:50:LR_Kick Bass strong.wav
448,192,289968,1,0,0:0:0:50:
320,192,289968,1,0,0:0:0:50:
192,192,290036,1,0,0:0:0:0:
448,192,290104,1,0,0:0:0:50:
320,192,290172,1,0,0:0:0:0:
192,192,290240,1,0,0:0:0:50:
448,192,290309,1,0,0:0:0:0:
320,192,290377,1,0,0:0:0:50:
192,192,290445,1,0,0:0:0:0:
64,192,290513,128,0,290581:0:0:0:50:LR_Kick Bass strong.wav
448,192,290513,1,0,0:0:0:50:
320,192,290513,1,0,0:0:0:50:
320,192,290581,1,0,0:0:0:50:LR_Kick Bass strong.wav
192,192,290650,1,0,0:0:0:50:LR_Kick Bass strong.wav
448,192,290650,1,0,0:0:0:50:
320,192,290718,1,0,0:0:0:0:
192,192,290786,1,0,0:0:0:50:LR4_SnareBPDT.wav
64,192,290786,1,0,0:0:0:50:
448,192,290854,1,0,0:0:0:0:
320,192,290922,1,0,0:0:0:50:LR_Kick Bass strong.wav
192,192,290922,1,0,0:0:0:50:
448,192,290990,1,0,0:0:0:0:
64,192,291059,128,0,291127:0:0:0:50:
192,192,291059,1,0,0:0:0:50:
320,192,291127,1,0,0:0:0:0:
448,192,291195,1,0,0:0:0:50:
192,192,291263,1,0,0:0:0:0:
320,192,291331,1,0,0:0:0:50:LR_Kick Bass strong.wav
448,192,291331,1,0,0:0:0:50:
192,192,291400,1,0,0:0:0:0:
448,192,291468,1,0,0:0:0:50:
320,192,291536,1,0,0:0:0:0:
64,192,291604,128,0,291672:0:0:0:50:
192,192,291604,1,0,0:0:0:50:
448,192,291672,1,0,0:0:0:0:
320,192,291740,1,0,0:0:0:50:LR_Kick Bass strong.wav
192,192,291740,1,0,0:0:0:50:
448,192,291809,1,0,0:0:0:0:
64,192,291877,1,0,0:0:0:50:LR4_SnareBPDT.wav
320,192,291877,1,0,0:0:0:50:
448,192,291945,1,0,0:0:0:0:
192,192,292013,1,0,0:0:0:50:
320,192,292081,1,0,0:0:0:0:
64,192,292150,128,0,292218:0:0:0:50:LR_Kick Bass strong.wav
448,192,292150,1,0,0:0:0:50:
192,192,292150,1,0,0:0:0:50:
320,192,292218,1,0,0:0:0:0:
448,192,292286,1,0,0:0:0:50:
192,192,292354,1,0,0:0:0:0:
320,192,292422,1,0,0:0:0:50:
448,192,292490,1,0,0:0:0:0:
320,192,292559,1,0,0:0:0:50:
192,192,292627,1,0,0:0:0:0:
64,192,292695,128,0,292763:0:0:0:50:LR_Kick Bass strong.wav
448,192,292695,1,0,0:0:0:50:
320,192,292695,1,0,0:0:0:50:
320,192,292763,1,0,0:0:0:50:LR_Kick Bass strong.wav
192,192,292831,1,0,0:0:0:50:LR_Kick Bass strong.wav
448,192,292831,1,0,0:0:0:50:
320,192,292900,1,0,0:0:0:0:
192,192,292968,1,0,0:0:0:50:LR4_SnareBPDT.wav
64,192,292968,1,0,0:0:0:50:
320,192,293150,1,0,0:0:0:50:LR_Kick Bass strong.wav
192,192,293150,1,0,0:0:0:50:
64,192,293240,128,0,293309:0:0:0:50:
448,192,293331,1,0,0:0:0:50:LR_Kick Bass strong.wav
320,192,293331,1,0,0:0:0:50:
192,192,293513,1,0,0:0:0:50:LR_Kick Bass strong.wav
64,192,293513,1,0,0:0:0:50:
448,192,293513,1,0,0:0:0:50:
320,192,293650,1,0,0:0:0:50:
64,192,293786,128,0,293854:0:0:0:50:
448,192,293786,1,0,0:0:0:50:
192,192,293922,1,0,0:0:0:50:LR_Kick Bass strong.wav
320,192,293922,1,0,0:0:0:50:
448,192,294059,1,0,0:0:0:50:LR4_SnareBPDT.wav
320,192,294059,1,0,0:0:0:50:
64,192,294059,1,0,0:0:0:50:
192,192,294195,1,0,0:0:0:50:
64,192,294331,128,0,294400:0:0:0:50:LR_Kick Bass strong.wav
448,192,294331,1,0,0:0:0:50:
320,192,294331,1,0,0:0:0:50:
192,192,294400,1,0,0:0:0:0:
320,192,294468,1,0,0:0:0:50:
448,192,294536,1,0,0:0:0:0:
192,192,294604,1,0,0:0:0:50:
320,192,294672,1,0,0:0:0:0:
448,192,294740,1,0,0:0:0:50:
192,192,294809,1,0,0:0:0:0:
64,192,294877,128,0,294945:0:0:0:50:LR_Kick Bass strong.wav
448,192,294877,1,0,0:0:0:50:
320,192,294877,1,0,0:0:0:50:
320,192,294945,1,0,0:0:0:50:LR_Kick Bass strong.wav
192,192,295013,1,0,0:0:0:50:LR_Kick Bass strong.wav
448,192,295013,1,0,0:0:0:50:
320,192,295081,1,0,0:0:0:0:
192,192,295150,1,0,0:0:0:50:LR4_SnareBPDT.wav
64,192,295150,1,0,0:0:0:50:
448,192,295218,1,0,0:0:0:0:
192,192,295286,1,0,0:0:0:50:LR_Kick Bass strong.wav
320,192,295286,1,0,0:0:0:50:
448,192,295354,1,0,0:0:0:0:
64,192,295422,128,0,295490:0:0:0:50:
192,192,295422,1,0,0:0:0:50:
320,192,295490,1,0,0:0:0:0:
448,192,295559,1,0,0:0:0:50:
192,192,295627,1,0,0:0:0:0:
320,192,295695,1,0,0:0:0:70:LR_Kick Bass strong.wav
448,192,295695,1,0,0:0:0:70:LR4_ClapLRV.wav
64,192,295729,1,0,0:0:0:70:LR4_ClapLRV.wav
192,192,295763,1,0,0:0:0:70:LR4_ClapLRV.wav
448,192,295831,1,0,0:0:0:70:LR4_ClapLRV.wav
320,192,295900,1,0,0:0:0:70:LR4_ClapLRV.wav
64,192,295968,128,0,296036:0:0:0:0:
192,192,295968,1,0,0:0:0:70:LR4_ClapLRV.wav
448,192,296036,1,0,0:0:0:70:LR4_ClapLRV.wav
192,192,296104,1,0,0:0:0:70:LR_Kick Bass strong.wav
64,192,296104,1,0,0:0:0:70:LR4_ClapLRV.wav
320,192,296138,1,0,0:0:0:70:LR4_ClapLRV.wav
448,192,296172,1,0,0:0:0:70:LR4_ClapLRV.wav
320,192,296240,1,0,0:0:0:70:LR4_ClapLRV.wav
192,192,296240,1,0,0:0:0:70:LR4_SnareBPDT.wav
64,192,296240,1,0,0:0:0:0:
448,192,296309,1,0,0:0:0:70:LR4_ClapLRV.wav
320,192,296377,1,0,0:0:0:70:LR4_ClapLRV.wav
192,192,296445,1,0,0:0:0:70:LR4_ClapLRV.wav
64,192,296513,128,0,296581:0:0:0:70:LR4_ClapLRV.wav
448,192,296513,1,0,0:0:0:70:LR_Kick Bass strong.wav
320,192,296547,1,0,0:0:0:70:LR4_ClapLRV.wav
192,192,296581,1,0,0:0:0:70:LR4_ClapLRV.wav
448,192,296650,1,0,0:0:0:70:LR4_ClapLRV.wav
320,192,296718,1,0,0:0:0:70:LR4_ClapLRV.wav
192,192,296786,1,0,0:0:0:70:LR4_ClapLRV.wav
320,192,296854,1,0,0:0:0:70:LR4_ClapLRV.wav
448,192,296922,1,0,0:0:0:70:LR4_ClapLRV.wav
64,192,296956,1,0,0:0:0:70:LR4_ClapLRV.wav
192,192,296990,1,0,0:0:0:70:LR4_ClapLRV.wav
64,192,297059,128,0,297127:0:0:0:0:
320,192,297059,1,0,0:0:0:70:LR_Kick Bass strong.wav
448,192,297059,1,0,0:0:0:70:LR4_ClapLRV.wav
320,192,297127,1,0,0:0:0:70:LR_Kick Bass strong.wav
192,192,297195,1,0,0:0:0:70:LR_Kick Bass strong.wav
448,192,297195,1,0,0:0:0:70:LR4_ClapLRV.wav
320,192,297263,1,0,0:0:0:70:LR4_ClapLRV.wav
192,192,297331,1,0,0:0:0:70:LR4_SnareBPDT.wav
64,192,297331,1,0,0:0:0:0:
448,192,297331,1,0,0:0:0:70:LR4_ClapLRV.wav
320,192,297400,1,0,0:0:0:70:LR4_ClapLRV.wav
448,192,297468,1,0,0:0:0:70:LR4_ClapLRV.wav
320,192,297513,1,0,0:0:0:0:
192,192,297513,1,0,0:0:0:70:LR_Kick Bass strong.wav
64,192,297536,1,0,0:0:0:70:LR4_ClapLRV.wav
192,192,297604,1,0,0:0:0:70:LR4_ClapLRV.wav
64,192,297672,1,0,0:0:0:70:LR4_ClapLRV.wav
448,192,297695,1,0,0:0:0:0:
320,192,297695,1,0,0:0:0:70:LR_Kick Bass strong.wav
192,192,297740,1,0,0:0:0:70:LR4_ClapLRV.wav
320,192,297809,1,0,0:0:0:70:LR4_ClapLRV.wav
64,192,297877,128,0,298013:0:0:0:0:
448,192,297877,128,0,298013:0:0:0:70:LR_Kick Bass strong.wav
192,192,297877,128,0,298013:0:0:0:70:LR_CymbalSSF.wav
64,192,298286,128,0,298422:0:0:0:0:
192,192,298286,128,0,298422:0:0:0:70:LR_CymbalSSF.wav
448,192,298286,128,0,298422:0:0:0:70:LR_Kick Bass strong.wav
64,192,300059,128,0,300195:0:0:0:0:
448,192,300059,128,0,300195:0:0:0:70:LR_CymbalSSF.wav
64,192,300468,128,0,300604:0:0:0:0:
448,192,300468,128,0,300604:0:0:0:70:LR_CymbalSSF.wav
448,192,302240,128,0,302377:0:0:0:70:LR_CymbalSSF.wav
320,192,302240,128,0,302377:0:0:0:70:LR_Kick Bass strong.wav
64,192,302240,128,0,302377:0:0:0:0:
448,192,302650,128,0,302786:0:0:0:70:LR_CymbalSSF.wav
320,192,302650,128,0,302786:0:0:0:70:LR_Kick Bass strong.wav
64,192,302650,128,0,302786:0:0:0:0:
64,192,304422,128,0,304559:0:0:0:0:
448,192,304422,128,0,304559:0:0:0:70:LR_CymbalSSF.wav
448,192,304831,128,0,304968:0:0:0:70:LR_CymbalSSF.wav
64,192,304831,128,0,304968:0:0:0:0:
192,192,305922,1,0,0:0:0:0:
64,192,305922,1,0,0:0:0:0:
448,192,306604,1,0,0:0:0:70:LR_Kick Bass strong.wav
64,192,306604,1,0,0:0:0:70:LR4_ClapLRV.wav
320,192,306604,1,0,0:0:0:50:
192,192,306638,1,0,0:0:0:70:LR4_ClapLRV.wav
320,192,306672,1,0,0:0:0:70:LR4_ClapLRV.wav
448,192,306706,1,0,0:0:0:70:LR4_ClapLRV.wav
192,192,306740,1,0,0:0:0:70:LR4_ClapLRV.wav
64,192,306809,1,0,0:0:0:70:LR4_ClapLRV.wav
320,192,306877,1,0,0:0:0:70:LR4_ClapLRV.wav
192,192,306945,1,0,0:0:0:70:LR4_ClapLRV.wav
448,192,307013,1,0,0:0:0:70:LR_Kick Bass strong.wav
320,192,307013,1,0,0:0:0:70:LR4_ClapLRV.wav
64,192,307047,1,0,0:0:0:70:LR4_ClapLRV.wav
192,192,307081,1,0,0:0:0:70:LR4_ClapLRV.wav
448,192,307115,1,0,0:0:0:70:LR4_ClapLRV.wav
320,192,307150,1,0,0:0:0:70:LR4_ClapLRV.wav
192,192,307218,1,0,0:0:0:70:LR4_ClapLRV.wav
448,192,307286,1,0,0:0:0:70:LR4_ClapLRV.wav
320,192,307354,1,0,0:0:0:70:LR4_ClapLRV.wav
64,192,307422,1,0,0:0:0:70:LR4_ClapLRV.wav
192,192,307456,1,0,0:0:0:70:LR4_ClapLRV.wav
448,192,307490,1,0,0:0:0:70:LR4_ClapLRV.wav
320,192,307559,1,0,0:0:0:70:LR4_ClapLRV.wav
192,192,307627,1,0,0:0:0:70:LR4_ClapLRV.wav
448,192,307695,1,0,0:0:0:70:LR4_ClapLRV.wav
320,192,307729,1,0,0:0:0:70:LR4_ClapLRV.wav
192,192,307763,1,0,0:0:0:70:LR4_ClapLRV.wav
64,192,307797,1,0,0:0:0:70:LR4_ClapLRV.wav
448,192,307831,1,0,0:0:0:70:LR4_ClapLRV.wav
320,192,307900,1,0,0:0:0:70:LR4_ClapLRV.wav
192,192,307968,1,0,0:0:0:70:LR4_ClapLRV.wav
320,192,308036,1,0,0:0:0:70:LR4_ClapLRV.wav
192,192,308104,1,0,0:0:0:70:LR4_ClapLRV.wav
64,192,308138,1,0,0:0:0:70:LR4_ClapLRV.wav
448,192,308172,1,0,0:0:0:70:LR4_ClapLRV.wav
320,192,308206,1,0,0:0:0:70:LR4_ClapLRV.wav
192,192,308240,1,0,0:0:0:70:LR4_ClapLRV.wav
320,192,308309,1,0,0:0:0:70:LR4_ClapLRV.wav
448,192,308377,1,0,0:0:0:70:LR4_ClapLRV.wav
192,192,308445,1,0,0:0:0:70:LR4_ClapLRV.wav
320,192,308513,1,0,0:0:0:70:LR4_ClapLRV.wav
448,192,308547,1,0,0:0:0:70:LR4_ClapLRV.wav
64,192,308581,1,0,0:0:0:70:LR4_ClapLRV.wav
192,192,308650,1,0,0:0:0:70:LR4_ClapLRV.wav
448,192,308718,1,0,0:0:0:70:LR4_ClapLRV.wav
320,192,308786,1,0,0:0:0:70:LR4_ClapLRV.wav
192,192,308820,1,0,0:0:0:70:LR4_ClapLRV.wav
64,192,308854,1,0,0:0:0:70:LR4_ClapLRV.wav
448,192,308888,1,0,0:0:0:70:LR4_ClapLRV.wav
320,192,308922,1,0,0:0:0:70:LR4_ClapLRV.wav
192,192,308990,1,0,0:0:0:70:LR4_ClapLRV.wav
320,192,309059,1,0,0:0:0:70:LR4_ClapLRV.wav
64,192,309127,1,0,0:0:0:70:LR4_ClapLRV.wav
192,192,309195,1,0,0:0:0:70:LR4_ClapLRV.wav
320,192,309229,1,0,0:0:0:70:LR4_ClapLRV.wav
448,192,309263,1,0,0:0:0:70:LR4_ClapLRV.wav
64,192,309297,1,0,0:0:0:70:LR4_ClapLRV.wav
192,192,309331,1,0,0:0:0:70:LR4_ClapLRV.wav
320,192,309400,1,0,0:0:0:70:LR4_ClapLRV.wav
192,192,309468,1,0,0:0:0:70:LR4_ClapLRV.wav
320,192,309536,1,0,0:0:0:70:LR4_ClapLRV.wav
448,192,309604,1,0,0:0:0:70:LR4_ClapLRV.wav
192,192,309638,1,0,0:0:0:70:LR4_ClapLRV.wav
320,192,309672,1,0,0:0:0:70:LR4_ClapLRV.wav
64,192,309740,1,0,0:0:0:70:LR4_ClapLRV.wav
192,192,309809,1,0,0:0:0:70:LR4_ClapLRV.wav
448,192,309877,1,0,0:0:0:70:LR4_ClapLRV.wav
320,192,309911,1,0,0:0:0:70:LR4_ClapLRV.wav
192,192,309945,1,0,0:0:0:70:LR4_ClapLRV.wav
64,192,309979,1,0,0:0:0:70:LR4_ClapLRV.wav
320,192,310013,1,0,0:0:0:70:LR4_ClapLRV.wav
192,192,310081,1,0,0:0:0:70:LR4_ClapLRV.wav
320,192,310150,1,0,0:0:0:70:LR4_ClapLRV.wav
64,192,310218,1,0,0:0:0:70:LR4_ClapLRV.wav
192,192,310286,1,0,0:0:0:70:LR4_ClapLRV.wav
320,192,310320,1,0,0:0:0:70:LR4_ClapLRV.wav
448,192,310354,1,0,0:0:0:70:LR4_ClapLRV.wav
64,192,310388,1,0,0:0:0:70:LR4_ClapLRV.wav
192,192,310422,1,0,0:0:0:70:LR4_ClapLRV.wav
320,192,310490,1,0,0:0:0:70:LR4_ClapLRV.wav
192,192,310559,1,0,0:0:0:70:LR4_ClapLRV.wav
320,192,310627,1,0,0:0:0:70:LR4_ClapLRV.wav
64,192,310695,1,0,0:0:0:70:LR4_ClapLRV.wav
192,192,310729,1,0,0:0:0:70:LR4_ClapLRV.wav
320,192,310763,1,0,0:0:0:70:LR4_ClapLRV.wav
448,192,310831,1,0,0:0:0:70:LR4_ClapLRV.wav
320,192,310900,1,0,0:0:0:70:LR4_ClapLRV.wav
448,192,310968,1,0,0:0:0:70:LR_Kick Bass strong.wav
64,192,310968,1,0,0:0:0:70:LR4_ClapLRV.wav
192,192,311002,1,0,0:0:0:70:LR4_ClapLRV.wav
320,192,311036,1,0,0:0:0:70:LR4_ClapLRV.wav
448,192,311070,1,0,0:0:0:70:LR4_ClapLRV.wav
192,192,311104,1,0,0:0:0:70:LR4_ClapLRV.wav
64,192,311172,1,0,0:0:0:70:LR4_ClapLRV.wav
320,192,311240,1,0,0:0:0:70:LR4_ClapLRV.wav
192,192,311309,1,0,0:0:0:70:LR4_ClapLRV.wav
320,192,311377,1,0,0:0:0:70:LR4_ClapLRV.wav
448,192,311377,1,0,0:0:0:70:LR_Kick Bass strong.wav
64,192,311411,1,0,0:0:0:70:LR4_ClapLRV.wav
192,192,311445,1,0,0:0:0:70:LR4_ClapLRV.wav
448,192,311479,1,0,0:0:0:70:LR4_ClapLRV.wav
320,192,311513,1,0,0:0:0:70:LR4_ClapLRV.wav
192,192,311581,1,0,0:0:0:70:LR4_ClapLRV.wav
448,192,311650,1,0,0:0:0:70:LR4_ClapLRV.wav
320,192,311718,1,0,0:0:0:70:LR4_ClapLRV.wav
64,192,311786,1,0,0:0:0:70:LR4_ClapLRV.wav
192,192,311820,1,0,0:0:0:70:LR4_ClapLRV.wav
448,192,311854,1,0,0:0:0:70:LR4_ClapLRV.wav
320,192,311922,1,0,0:0:0:70:LR4_ClapLRV.wav
192,192,311990,1,0,0:0:0:70:LR4_ClapLRV.wav
448,192,312059,1,0,0:0:0:70:LR4_ClapLRV.wav
320,192,312093,1,0,0:0:0:70:LR4_ClapLRV.wav
192,192,312127,1,0,0:0:0:70:LR4_ClapLRV.wav
64,192,312161,1,0,0:0:0:70:LR4_ClapLRV.wav
448,192,312195,1,0,0:0:0:70:LR4_ClapLRV.wav
320,192,312263,1,0,0:0:0:70:LR4_ClapLRV.wav
192,192,312331,1,0,0:0:0:70:LR4_ClapLRV.wav
320,192,312400,1,0,0:0:0:70:LR4_ClapLRV.wav
192,192,312468,1,0,0:0:0:70:LR4_ClapLRV.wav
64,192,312502,1,0,0:0:0:70:LR4_ClapLRV.wav
448,192,312536,1,0,0:0:0:70:LR4_ClapLRV.wav
320,192,312570,1,0,0:0:0:70:LR4_ClapLRV.wav
192,192,312604,1,0,0:0:0:70:LR4_ClapLRV.wav
320,192,312672,1,0,0:0:0:70:LR4_ClapLRV.wav
448,192,312740,1,0,0:0:0:70:LR4_ClapLRV.wav
192,192,312809,1,0,0:0:0:70:LR4_ClapLRV.wav
320,192,312877,1,0,0:0:0:70:LR4_ClapLRV.wav
448,192,312911,1,0,0:0:0:70:LR4_ClapLRV.wav
64,192,312945,1,0,0:0:0:70:LR4_ClapLRV.wav
192,192,313013,1,0,0:0:0:70:LR4_ClapLRV.wav
448,192,313081,1,0,0:0:0:70:LR4_ClapLRV.wav
320,192,313150,1,0,0:0:0:70:LR4_ClapLRV.wav
192,192,313184,1,0,0:0:0:70:LR4_ClapLRV.wav
64,192,313218,1,0,0:0:0:70:LR4_ClapLRV.wav
448,192,313252,1,0,0:0:0:70:LR4_ClapLRV.wav
320,192,313286,1,0,0:0:0:70:LR4_ClapLRV.wav
192,192,313354,1,0,0:0:0:70:LR4_ClapLRV.wav
320,192,313422,1,0,0:0:0:70:LR4_ClapLRV.wav
64,192,313490,1,0,0:0:0:70:LR4_ClapLRV.wav
192,192,313559,1,0,0:0:0:70:LR4_ClapLRV.wav
320,192,313593,1,0,0:0:0:70:LR4_ClapLRV.wav
448,192,313627,1,0,0:0:0:70:LR4_ClapLRV.wav
64,192,313661,1,0,0:0:0:70:LR4_ClapLRV.wav
192,192,313695,1,0,0:0:0:70:LR4_ClapLRV.wav
448,192,313729,1,0,0:0:0:0:
320,192,313763,1,0,0:0:0:70:LR4_ClapLRV.wav
192,192,313831,1,0,0:0:0:70:LR4_ClapLRV.wav
320,192,313900,1,0,0:0:0:70:LR4_ClapLRV.wav
448,192,313968,1,0,0:0:0:70:LR4_ClapLRV.wav
192,192,314002,1,0,0:0:0:70:LR4_ClapLRV.wav
320,192,314036,1,0,0:0:0:70:LR4_ClapLRV.wav
64,192,314104,1,0,0:0:0:70:LR4_ClapLRV.wav
192,192,314172,1,0,0:0:0:70:LR4_ClapLRV.wav
448,192,314240,1,0,0:0:0:70:LR4_ClapLRV.wav
320,192,314275,1,0,0:0:0:70:LR4_ClapLRV.wav
192,192,314309,1,0,0:0:0:70:LR4_ClapLRV.wav
64,192,314343,1,0,0:0:0:70:LR4_ClapLRV.wav
448,192,314377,1,0,0:0:0:70:LR4_ClapLRV.wav
320,192,314411,1,0,0:0:0:70:LR4_ClapLRV.wav
192,192,314445,1,0,0:0:0:70:LR4_ClapLRV.wav
64,192,314479,1,0,0:0:0:70:LR4_ClapLRV.wav
448,192,314513,1,0,0:0:0:70:LR4_ClapLRV.wav
320,192,314547,1,0,0:0:0:70:LR4_ClapLRV.wav
192,192,314581,1,0,0:0:0:70:LR4_ClapLRV.wav
64,192,314615,1,0,0:0:0:70:LR4_ClapLRV.wav
448,192,314650,1,0,0:0:0:70:LR4_ClapLRV.wav
320,192,314684,1,0,0:0:0:70:LR4_ClapLRV.wav
192,192,314718,1,0,0:0:0:70:LR4_ClapLRV.wav
64,192,314752,1,0,0:0:0:70:LR4_ClapLRV.wav
448,192,314786,1,0,0:0:0:70:LR4_ClapLRV.wav
192,192,314820,1,0,0:0:0:70:LR4_ClapLRV.wav
320,192,314854,1,0,0:0:0:70:LR4_ClapLRV.wav
64,192,314888,1,0,0:0:0:70:LR4_ClapLRV.wav
448,192,314922,1,0,0:0:0:70:LR4_ClapLRV.wav
192,192,314956,1,0,0:0:0:70:LR4_ClapLRV.wav
320,192,314990,1,0,0:0:0:70:LR4_ClapLRV.wav
64,192,315025,1,0,0:0:0:70:LR4_ClapLRV.wav
448,192,315059,1,0,0:0:0:70:LR4_ClapLRV.wav
192,192,315093,1,0,0:0:0:70:LR4_ClapLRV.wav
320,192,315127,1,0,0:0:0:70:LR4_ClapLRV.wav
448,192,315161,1,0,0:0:0:70:LR4_ClapLRV.wav
64,192,315195,1,0,0:0:0:70:LR4_ClapLRV.wav
192,192,315229,1,0,0:0:0:70:LR4_ClapLRV.wav
320,192,315263,1,0,0:0:0:70:LR4_ClapLRV.wav
448,192,315297,1,0,0:0:0:70:LR4_ClapLRV.wav
64,192,315331,1,0,0:0:0:70:LR4_ClapLRV.wav
