osu file format v14

[General]
AudioFilename: audio.mp3
AudioLeadIn: 0
PreviewTime: 241008
Countdown: 1
SampleSet: Soft
StackLeniency: 0.7
Mode: 0
LetterboxInBreaks: 0
WidescreenStoryboard: 0

[Editor]
Bookmarks: 18599,33872,245508,262963,280417,297872
DistanceSpacing: 1.5
BeatDivisor: 4
GridSize: 4
TimelineZoom: 5.300003

[Metadata]
Title:K.Y.A.F.A
TitleUnicode:K.Y.A.F.A
Artist:Camellia
ArtistUnicode:Camellia
Creator:dima21
Version:WaLfeR
Source:
Tags:
BeatmapID:1313041
BeatmapSetID:622906

[Difficulty]
HPDrainRate:6
CircleSize:3.7
OverallDifficulty:8.9
ApproachRate:9.8
SliderMultiplier:2.1
SliderTickRate:1

[Events]
//Background and Video events
0,0,"kiborg_mech_katana_devushka_2000x1128.jpg",0,0
//Break Periods
2,132237,144666
//Storyboard Layer 0 (Background)
//Storyboard Layer 1 (Fail)
//Storyboard Layer 2 (Pass)
//Storyboard Layer 3 (Foreground)
//Storyboard Sound Samples

[TimingPoints]
1145,272.727272727273,4,2,0,30,1,0
1145,-125,4,2,0,30,0,0
1554,-100,4,2,0,30,0,0
3326,-125,4,2,0,30,0,0
3735,-100,4,2,0,30,0,0
5508,-125,4,2,0,30,0,0
5917,-100,4,2,0,30,0,0
7690,-125,4,2,0,30,0,0
8099,-100,4,2,0,30,0,0
9190,-62.5,4,2,0,30,0,0
9872,-125,4,2,0,30,0,0
10281,-100,4,2,0,30,0,0
12054,-125,4,2,0,30,0,0
12463,-100,4,2,0,30,0,0
14235,-125,4,2,0,30,0,0
14644,-100,4,2,0,30,0,0
16417,-76.9230769230769,4,2,0,30,0,0
17508,-125,4,2,0,30,0,0
18599,-111.111111111111,4,2,0,30,0,0
19008,-90.9090909090909,4,2,0,30,0,0
20781,-111.111111111111,4,2,0,30,0,0
21190,-90.9090909090909,4,2,0,30,0,0
22963,-111.111111111111,4,2,0,30,0,0
23372,-90.9090909090909,4,2,0,30,0,0
25145,-111.111111111111,4,2,0,30,0,0
25554,-90.9090909090909,4,2,0,30,0,0
27326,-111.111111111111,4,2,0,30,0,0
27735,-90.9090909090909,4,2,0,30,0,0
29508,-111.111111111111,4,2,0,30,0,0
29917,-90.9090909090909,4,2,0,30,0,0
31690,-111.111111111111,4,2,0,30,0,0
32099,-90.9090909090909,4,2,0,30,0,0
33872,-76.9230769230769,4,2,0,30,0,0
36054,-200,4,2,0,30,0,0
36599,-166.666666666667,4,2,0,30,0,0
37145,-142.857142857143,4,2,0,30,0,0
37690,-125,4,2,0,30,0,0
38235,-111.111111111111,4,2,0,30,0,0
38781,-100,4,2,0,30,0,0
39326,-90.9090909090909,4,2,0,30,0,0
39872,-90.9090909090909,4,2,0,30,0,0
40145,-125,4,2,0,30,0,0
40417,-83.3333333333333,4,2,0,30,0,0
40963,-76.9230769230769,4,2,0,30,0,0
41508,-71.4285714285714,4,2,0,30,0,0
42054,-66.6666666666667,4,2,0,30,0,0
42599,-62.5,4,2,0,30,0,0
43145,-58.8235294117647,4,2,0,30,0,0
43690,-55.5555555555556,4,2,0,30,0,0
44235,-52.6315789473684,4,2,0,30,0,0
44781,-83.3333333333333,4,2,0,30,0,0
45599,-76.9230769230769,4,2,0,30,0,0
46145,-71.4285714285714,4,2,0,30,0,0
46690,-66.6666666666667,4,2,0,30,0,0
47235,-83.3333333333333,4,2,0,30,0,0
47781,-76.9230769230769,4,2,0,30,0,0
48326,-71.4285714285714,4,2,0,30,0,0
48872,-66.6666666666667,4,2,0,30,0,0
52417,-125,4,2,0,30,0,0
53099,-111.111111111111,4,2,0,30,0,0
53508,-62.5,4,2,0,30,0,1
55417,-58.8235294117647,4,2,0,30,0,1
55690,-90.9090909090909,4,2,0,30,0,1
55963,-62.5,4,2,0,30,0,1
57326,-125,4,2,0,30,0,1
57872,-62.5,4,2,0,30,0,1
59781,-90.9090909090909,4,2,0,30,0,1
61690,-62.5,4,2,0,30,0,1
62235,-100,4,2,0,30,0,1
62508,-62.5,4,2,0,30,0,1
64145,-76.9230769230769,4,2,0,30,0,1
64417,-62.5,4,2,0,30,0,1
66054,-83.3333333333333,4,2,0,30,0,1
66326,-62.5,4,2,0,30,0,1
70690,-76.9230769230769,4,2,0,30,0,1
70963,-90.9090909090909,4,2,0,30,0,0
74235,-55.5555555555556,4,2,0,30,0,0
74508,-90.9090909090909,4,2,0,30,0,0
75326,-66.6666666666667,4,2,0,30,0,0
75599,-90.9090909090909,4,2,0,30,0,0
77508,-83.3333333333333,4,2,0,30,0,0
77780,-62.5,4,2,0,30,0,0
78326,-62.5,4,2,0,30,0,0
79145,-83.3333333333333,4,2,0,30,0,0
79417,-62.5,4,2,0,30,0,0
79690,-52.6315789473684,4,2,0,30,0,0
79963,-90.9090909090909,4,2,0,30,0,0
82963,-125,4,2,0,30,0,0
83235,-50,4,2,0,30,0,0
83781,-200,4,2,0,30,0,0
84054,-71.4285714285714,4,2,0,30,0,0
85008,-142.857142857143,4,2,0,30,0,0
85417,-71.4285714285714,4,2,0,30,0,0
86372,-142.857142857143,4,2,0,30,0,0
86781,-71.4285714285715,4,2,0,30,0,0
87872,-55.5555555555556,4,2,0,30,0,0
88417,-90.9090909090909,4,2,0,30,0,0
92508,-125,4,2,0,30,0,0
92781,-76.9230769230769,4,2,0,30,0,0
96054,-125,4,2,0,30,0,0
96735,-111.111111111111,4,2,0,30,0,0
97145,-71.4285714285714,4,2,0,30,0,0
101645,-90.9090909090908,4,2,0,30,0,0
102054,-166.666666666667,4,2,0,30,0,0
102326,-90.9090909090909,4,2,0,30,0,0
102735,-166.666666666667,4,2,0,30,0,0
103007,-90.9090909090909,4,2,0,30,0,0
103554,-166.666666666667,4,2,0,30,0,0
103826,-90.9090909090909,4,2,0,30,0,0
104235,-166.666666666667,4,2,0,30,0,0
104507,-90.9090909090909,4,2,0,30,0,0
104917,-166.666666666667,4,2,0,30,0,0
105189,-90.9090909090909,4,2,0,30,0,0
105326,-76.9230769230769,4,2,0,30,0,0
105872,-71.4285714285714,4,2,0,30,0,0
110235,-62.5,4,2,0,30,0,0
114599,-71.4285714285714,4,2,0,30,0,0
119099,-90.9090909090908,4,2,0,30,0,0
119508,-166.666666666667,4,2,0,30,0,0
119780,-90.9090909090909,4,2,0,30,0,0
120189,-166.666666666667,4,2,0,30,0,0
120461,-90.9090909090909,4,2,0,30,0,0
121008,-166.666666666667,4,2,0,30,0,0
121280,-90.9090909090909,4,2,0,30,0,0
121689,-166.666666666667,4,2,0,30,0,0
121961,-90.9090909090909,4,2,0,30,0,0
122371,-166.666666666667,4,2,0,30,0,0
122643,-90.9090909090909,4,2,0,30,0,0
122781,-76.9230769230769,4,2,0,30,0,0
123326,-66.6666666666667,4,2,0,30,0,0
127690,-76.9230769230769,4,2,0,30,0,0
145145,-125,4,2,0,30,0,0
145554,-90.9090909090909,4,2,0,30,0,0
145963,-125,4,2,0,30,0,0
146372,-90.9090909090909,4,2,0,30,0,0
146781,-125,4,2,0,30,0,0
147735,-90.9090909090909,4,2,0,30,0,0
149508,-200,4,2,0,30,0,0
150053,-166.666666666667,4,2,0,30,0,0
150599,-142.857142857143,4,2,0,30,0,0
151144,-125,4,2,0,30,0,0
151689,-111.111111111111,4,2,0,30,0,0
152235,-100,4,2,0,30,0,0
152780,-90.9090909090909,4,2,0,30,0,0
153326,-90.9090909090909,4,2,0,30,0,0
153599,-125,4,2,0,30,0,0
153871,-83.3333333333333,4,2,0,30,0,0
154417,-76.9230769230769,4,2,0,30,0,0
154962,-71.4285714285714,4,2,0,30,0,0
155508,-66.6666666666667,4,2,0,30,0,0
156053,-62.5,4,2,0,30,0,0
156599,-58.8235294117647,4,2,0,30,0,0
157144,-55.5555555555556,4,2,0,30,0,0
157689,-52.6315789473684,4,2,0,30,0,0
158235,-83.3333333333333,4,2,0,30,0,0
159053,-76.9230769230769,4,2,0,30,0,0
159599,-71.4285714285714,4,2,0,30,0,0
160144,-66.6666666666667,4,2,0,30,0,0
160689,-83.3333333333333,4,2,0,30,0,0
161235,-76.9230769230769,4,2,0,30,0,0
161780,-71.4285714285714,4,2,0,30,0,0
162326,-66.6666666666667,4,2,0,30,0,0
165871,-125,4,2,0,30,0,0
166553,-111.111111111111,4,2,0,30,0,0
166963,-62.5,4,2,0,30,0,1
168872,-58.8235294117647,4,2,0,30,0,1
169145,-90.9090909090909,4,2,0,30,0,1
169418,-62.5,4,2,0,30,0,1
170781,-125,4,2,0,30,0,1
171326,-62.5,4,2,0,30,0,1
173236,-90.9090909090909,4,2,0,30,0,1
175145,-62.5,4,2,0,30,0,1
175690,-100,4,2,0,30,0,1
175963,-62.5,4,2,0,30,0,1
177600,-76.9230769230769,4,2,0,30,0,1
177872,-62.5,4,2,0,30,0,1
179509,-83.3333333333333,4,2,0,30,0,1
179781,-62.5,4,2,0,30,0,1
184145,-76.9230769230769,4,2,0,30,0,1
184417,-90.9090909090909,4,2,0,30,0,0
187689,-55.5555555555556,4,2,0,30,0,0
187962,-90.9090909090909,4,2,0,30,0,0
188780,-66.6666666666667,4,2,0,30,0,0
189053,-90.9090909090909,4,2,0,30,0,0
190962,-83.3333333333333,4,2,0,30,0,0
191234,-62.5,4,2,0,30,0,0
191780,-62.5,4,2,0,30,0,0
192599,-83.3333333333333,4,2,0,30,0,0
192871,-62.5,4,2,0,30,0,0
193144,-52.6315789473684,4,2,0,30,0,0
193417,-90.9090909090909,4,2,0,30,0,0
196417,-125,4,2,0,30,0,0
196689,-50,4,2,0,30,0,0
197235,-200,4,2,0,30,0,0
197508,-71.4285714285714,4,2,0,30,0,0
198462,-142.857142857143,4,2,0,30,0,0
198871,-71.4285714285714,4,2,0,30,0,0
199826,-142.857142857143,4,2,0,30,0,0
200235,-71.4285714285715,4,2,0,30,0,0
201326,-55.5555555555556,4,2,0,30,0,0
201871,-90.9090909090909,4,2,0,30,0,0
201872,-90.9090909090909,4,2,0,30,0,0
205963,-125,4,2,0,30,0,0
206236,-76.9230769230769,4,2,0,30,0,0
209509,-125,4,2,0,30,0,0
210190,-111.111111111111,4,2,0,30,0,0
210599,-71.4285714285714,4,2,0,30,0,0
215099,-90.9090909090908,4,2,0,30,0,0
215508,-166.666666666667,4,2,0,30,0,0
215780,-90.9090909090909,4,2,0,30,0,0
216189,-166.666666666667,4,2,0,30,0,0
216461,-90.9090909090909,4,2,0,30,0,0
217008,-166.666666666667,4,2,0,30,0,0
217280,-90.9090909090909,4,2,0,30,0,0
217689,-166.666666666667,4,2,0,30,0,0
217961,-90.9090909090909,4,2,0,30,0,0
218371,-166.666666666667,4,2,0,30,0,0
218643,-90.9090909090909,4,2,0,30,0,0
218780,-76.9230769230769,4,2,0,30,0,0
219326,-71.4285714285714,4,2,0,30,0,0
223689,-62.5,4,2,0,30,0,0
228053,-71.4285714285714,4,2,0,30,0,0
232553,-90.9090909090908,4,2,0,30,0,0
232962,-166.666666666667,4,2,0,30,0,0
233234,-90.9090909090909,4,2,0,30,0,0
233643,-166.666666666667,4,2,0,30,0,0
233915,-90.9090909090909,4,2,0,30,0,0
234462,-166.666666666667,4,2,0,30,0,0
234734,-90.9090909090909,4,2,0,30,0,0
235143,-166.666666666667,4,2,0,30,0,0
235415,-90.9090909090909,4,2,0,30,0,0
235825,-166.666666666667,4,2,0,30,0,0
236097,-90.9090909090909,4,2,0,30,0,0
236235,-76.9230769230769,4,2,0,30,0,0
236780,-66.6666666666667,4,2,0,30,0,0
241144,-76.9230769230769,4,2,0,30,0,0
245508,-58.8235294117647,4,2,0,30,0,1
247417,-50,4,2,0,30,0,1
247690,-90.9090909090909,4,2,0,30,0,1
247963,-62.5,4,2,0,30,0,1
249326,-125,4,2,0,30,0,1
249872,-62.5,4,2,0,30,0,1
251781,-90.9090909090909,4,2,0,30,0,1
253690,-62.5,4,2,0,30,0,1
254235,-100,4,2,0,30,0,1
254508,-62.5,4,2,0,30,0,1
256145,-76.9230769230769,4,2,0,30,0,1
256417,-62.5,4,2,0,30,0,1
258054,-83.3333333333333,4,2,0,30,0,1
258326,-62.5,4,2,0,30,0,1
261872,-1,4,2,0,30,0,1
261940,-3.6315789473684,4,2,0,30,0,1
262008,-6.6315789473684,4,2,0,30,0,1
262076,-9.6315789473684,4,2,0,30,0,1
262145,-12.6315789473684,4,2,0,30,0,1
262213,-15.6315789473684,4,2,0,30,0,1
262281,-18.6315789473684,4,2,0,30,0,1
262349,-21.6315789473684,4,2,0,30,0,1
262417,-24.6315789473684,4,2,0,30,0,1
262485,-27.6315789473684,4,2,0,30,0,1
262554,-30.6315789473684,4,2,0,30,0,1
262963,-83.3333333333333,4,2,0,30,0,0
266235,-111.111111111111,4,2,0,30,0,0
267531,-76.9230769230769,4,2,0,30,0,0
269508,-71.4285714285714,4,2,0,30,0,0
269781,-62.5,4,2,0,30,0,0
271145,-71.4285714285714,4,2,0,30,0,0
271690,-62.5,4,2,0,30,0,0
271963,-71.4285714285714,4,2,0,30,0,0
274963,-58.8235294117647,4,2,0,30,0,0
275781,-90.9090909090909,4,2,0,30,0,0
276054,-71.4285714285714,4,2,0,30,0,0
279872,-1.4285714285714,4,2,0,30,0,0
280145,-40,4,2,0,30,0,0
280417,-111.111111111111,4,2,0,30,0,0
280826,-90.9090909090909,4,2,0,30,0,0
282599,-111.111111111111,4,2,0,30,0,0
283008,-90.9090909090909,4,2,0,30,0,0
284781,-111.111111111111,4,2,0,30,0,0
285190,-90.9090909090909,4,2,0,30,0,0
286963,-111.111111111111,4,2,0,30,0,0
287372,-90.9090909090909,4,2,0,30,0,0
289144,-111.111111111111,4,2,0,30,0,0
289553,-90.9090909090909,4,2,0,30,0,0
291326,-111.111111111111,4,2,0,30,0,0
291735,-90.9090909090909,4,2,0,30,0,0
293508,-111.111111111111,4,2,0,30,0,0
293917,-90.9090909090909,4,2,0,30,0,0
295690,-76.9230769230769,4,2,0,30,0,0
310963,-142.857142857143,4,2,0,30,0,0
314235,-90.909090909091,4,2,0,30,0,0

[HitObjects]
100,176,1145,6,0,B|143:145|160:100|160:100|192:92|212:136,1,168
28,212,1554,2,0,P|23:156|52:116,1,105
284,228,1963,1,0,0:0:0:0:
120,36,2235,1,0,0:0:0:0:
292,92,2372,2,0,P|240:88|200:52,1,105
128,324,2781,1,0,0:0:0:0:
376,248,3054,1,0,0:0:0:0:
168,184,3326,6,0,P|124:180|164:180,1,168
228,264,3735,2,0,P|176:304|128:308,1,105
36,228,4145,1,0,0:0:0:0:
224,128,4417,1,0,0:0:0:0:
24,48,4554,2,0,B|48:100|48:100|108:120,1,105
248,24,4963,1,0,0:0:0:0:
144,208,5235,1,0,0:0:0:0:
348,240,5508,6,0,B|312:288|308:344|308:344|280:356|248:348,1,168
424,268,5917,2,0,P|420:204|388:172,1,105
136,212,6326,1,0,0:0:0:0:
340,64,6599,1,0,0:0:0:0:
272,208,6735,2,0,B|248:184|248:140|248:140|224:168,1,105
76,44,7145,1,0,0:0:0:0:
252,316,7417,1,0,0:0:0:0:
252,144,7690,6,0,B|220:192|256:232|256:232|312:240|336:288,1,168
464,180,8099,2,0,P|444:136|392:112,1,105
112,248,8508,1,0,0:0:0:0:
388,272,8781,1,0,0:0:0:0:
272,100,8917,2,0,P|288:64|280:104,1,105
296,228,9190,2,0,B|260:256|232:252|232:252|232:304|232:304|204:296|184:328,1,168
236,176,9599,1,0,0:0:0:0:
376,136,9872,6,0,B|408:200|408:200|408:232|408:232|376:296,1,168
168,216,10281,2,0,B|144:188|144:188|148:176|144:156|144:156|176:124,1,105
432,152,10690,1,0,0:0:0:0:
292,320,10963,1,0,0:0:0:0:
288,196,11099,1,0,0:0:0:0:
292,320,11235,1,0,0:0:0:0:
360,144,11508,1,0,0:0:0:0:
208,352,11781,1,0,0:0:0:0:
380,248,12054,6,0,P|376:308|376:248,1,168
296,344,12463,2,0,P|364:384|412:376,1,105
196,340,12872,1,0,0:0:0:0:
32,204,13145,1,0,0:0:0:0:
152,240,13281,1,0,0:0:0:0:
108,120,13417,1,0,0:0:0:0:
308,272,13690,1,0,0:0:0:0:
240,28,13963,1,0,0:0:0:0:
256,228,14235,6,0,P|240:156|132:144,1,168
164,280,14645,2,0,P|144:256|200:212,1,105
384,48,15054,1,0,0:0:0:0:
288,280,15326,1,0,0:0:0:0:
224,172,15463,1,0,0:0:0:0:
288,280,15599,1,0,0:0:0:0:
120,120,15872,1,0,0:0:0:0:
284,336,16145,1,0,0:0:0:0:
328,240,16417,6,0,P|260:236|248:228,3,68.2499968757631
248,156,16690,1,0,0:0:0:0:
152,252,16826,6,0,P|208:296|224:296,3,68.2499968757631
268,248,17099,1,0,0:0:0:0:
384,136,17235,6,0,L|328:192,3,68.2499968757631
192,76,17508,2,0,L|224:80,6,21
292,68,17781,2,0,L|280:88,6,21
284,184,18054,5,0,0:0:0:0:
244,188,18122,1,0,0:0:0:0:
208,168,18190,1,0,0:0:0:0:
180,136,18258,1,0,0:0:0:0:
176,96,18326,5,0,0:0:0:0:
176,52,18395,1,0,0:0:0:0:
140,28,18463,1,0,0:0:0:0:
100,36,18531,1,0,0:0:0:0:
64,68,18599,6,0,P|33:135|-48:76,1,188.999994232178
65,201,19008,2,0,P|133:124|138:89,1,115.50000352478
304,164,19281,1,0,0:0:0:0:
156,292,19417,2,0,P|232:320|264:304,2,115.50000352478
228,108,19826,1,0,0:0:0:0:
420,136,19963,5,0,0:0:0:0:
420,136,20031,1,0,0:0:0:0:
420,136,20099,2,0,B|392:76|392:76|396:16,1,115.50000352478
292,288,20372,1,0,0:0:0:0:
312,92,20508,1,0,0:0:0:0:
416,260,20645,1,0,0:0:0:0:
280,172,20781,6,0,B|252:164|220:186|220:186|200:153|160:152|160:152|184:112|164:84,1,188.999994232178
156,228,21190,2,0,P|212:264|260:248,1,115.50000352478
228,52,21463,1,0,0:0:0:0:
368,260,21599,2,0,B|308:240|308:240|248:260,2,115.50000352478
156,96,22008,1,0,0:0:0:0:
372,248,22145,5,0,0:0:0:0:
372,248,22213,1,0,0:0:0:0:
372,248,22281,2,0,B|412:192|412:192|420:136,1,115.50000352478
248,56,22554,1,0,0:0:0:0:
184,256,22690,1,0,0:0:0:0:
340,160,22826,1,0,0:0:0:0:
204,152,22963,6,0,B|176:112|176:112|136:148|92:128|92:128|68:180,1,188.999994232178
216,308,23372,2,0,B|240:276|240:276|264:288|288:280|288:280|312:320,1,115.50000352478
132,280,23645,1,0,0:0:0:0:
136,284,23781,2,0,B|103:318|103:318|64:312|35:322,2,115.50000352478
248,216,24190,1,0,0:0:0:0:
400,348,24326,5,0,0:0:0:0:
400,348,24394,1,0,0:0:0:0:
400,348,24462,2,0,B|384:288|384:288|342:254,1,115.50000352478
260,76,24735,1,0,0:0:0:0:
336,248,24872,1,0,0:0:0:0:
472,92,25008,1,0,0:0:0:0:
316,136,25145,6,0,B|272:160|260:76|260:76|176:116|168:64,1,188.999994232178
260,256,25554,2,0,P|288:312|352:324,1,115.50000352478
164,308,25826,1,0,0:0:0:0:
172,112,25963,2,0,L|136:232,2,115.50000352478
256,292,26372,1,0,0:0:0:0:
340,112,26508,5,0,0:0:0:0:
340,112,26576,1,0,0:0:0:0:
340,112,26645,2,0,P|344:168|376:232,1,115.50000352478
348,308,26917,1,0,0:0:0:0:
260,132,27054,1,0,0:0:0:0:
164,308,27190,1,0,0:0:0:0:
302,226,27326,6,0,B|276:240|250:246|250:246|232:192|176:188|176:188|156:176|176:144,1,188.999994232178
292,308,27735,2,0,P|213:306|180:268,1,115.50000352478
0,288,28008,1,0,0:0:0:0:
140,148,28145,2,0,P|160:120|144:148,2,115.50000352478
256,308,28554,1,0,0:0:0:0:
352,140,28690,5,0,0:0:0:0:
352,140,28758,1,0,0:0:0:0:
352,140,28826,2,0,P|352:100|343:139,1,115.50000352478
184,244,29099,1,0,0:0:0:0:
376,280,29235,1,0,0:0:0:0:
484,116,29372,1,0,0:0:0:0:
356,212,29508,6,0,B|316:224|308:260|308:260|260:252|260:252|244:312|180:320,1,188.999994232178
284,120,29917,2,0,P|328:60|384:28,1,115.50000352478
168,68,30190,1,0,0:0:0:0:
64,236,30326,2,0,P|105:189|136:124,2,115.50000352478
224,352,30735,1,0,0:0:0:0:
344,196,30872,5,0,0:0:0:0:
344,196,30940,1,0,0:0:0:0:
344,196,31008,2,0,B|288:168|288:168|244:116,1,115.50000352478
148,208,31281,1,0,0:0:0:0:
312,316,31417,1,0,0:0:0:0:
236,136,31554,1,0,0:0:0:0:
188,288,31690,6,0,P|100:276|68:168,1,188.999994232178
252,248,32099,2,0,P|256:319|208:360,1,115.50000352478
136,176,32372,1,0,0:0:0:0:
320,104,32508,2,0,P|264:112|256:164,2,115.50000352478
376,292,32917,1,0,0:0:0:0:
180,292,33054,6,0,P|190:239|244:233,2,115.50000352478
204,96,33463,1,0,0:0:0:0:
56,224,33599,1,0,0:0:0:0:
252,232,33735,1,0,0:0:0:0:
64,96,33872,5,0,0:0:0:0:
100,76,33940,1,0,0:0:0:0:
140,72,34008,2,0,P|176:68|204:112,1,68.2499968757631
184,176,34145,5,0,0:0:0:0:
224,168,34213,1,0,0:0:0:0:
256,144,34281,2,0,P|276:104|280:64,1,68.2499968757631
368,48,34417,5,0,0:0:0:0:
368,88,34485,1,0,0:0:0:0:
356,128,34554,2,0,P|340:176|312:204,1,68.2499968757631
252,272,34690,5,0,0:0:0:0:
212,284,34758,1,0,0:0:0:0:
172,276,34826,2,0,P|132:248|116:220,1,68.2499968757631
152,112,34963,5,0,0:0:0:0:
196,132,35031,1,0,0:0:0:0:
244,136,35099,2,0,P|288:140|320:172,1,68.2499968757631
344,284,35235,5,0,0:0:0:0:
288,276,35304,1,0,0:0:0:0:
244,244,35372,2,0,P|216:204|212:176,1,68.2499968757631
296,84,35508,5,0,0:0:0:0:
296,84,35576,1,0,0:0:0:0:
296,84,35645,1,0,0:0:0:0:
296,84,35713,1,0,0:0:0:0:
296,84,35781,2,0,B|312:144|312:144|300:232,1,136.499993751526
92,180,36054,6,0,P|112:208|104:240,1,52.5
160,152,36326,2,0,P|164:132|148:96,1,52.5
240,176,36599,6,0,P|268:184|312:168,1,62.9999980773926
216,252,36872,2,0,P|196:284|196:324,1,62.9999980773926
76,232,37145,6,0,P|64:180|72:140,1,73.4999977569581
148,272,37417,2,0,P|156:220|136:188,1,73.4999977569581
308,152,37690,6,0,B|264:160|264:160|192:152,1,84
68,92,37963,2,0,B|116:100|116:100|176:92,1,84
220,280,38235,6,0,B|180:240|180:240|160:176,1,94.499997116089
124,8,38508,2,0,B|180:8|180:8|228:40,1,94.499997116089
104,228,38781,6,0,B|56:244|56:244|32:232|-4:236,1,105
228,284,39054,2,0,B|212:312|220:340|220:340|180:412,1,105
368,184,39326,6,0,B|404:208|436:204|436:204|468:216|468:256,1,115.50000352478
316,16,39599,2,0,B|368:16|368:16|388:4|388:4|452:8,1,115.50000352478
172,112,39872,6,0,B|164:92|144:80|144:80|116:88|84:72|84:72|56:40,1,115.50000352478
64,340,40145,2,0,B|44:304|44:304|68:256,1,84
316,208,40417,6,0,P|316:160|312:208,1,125.999996154785
4,68,40690,2,0,P|8:112|8:68,1,125.999996154785
244,324,40963,6,0,B|208:304|215:265|215:265|184:260|152:224,1,136.499993751526
492,164,41235,2,0,B|464:112|464:112|470:75|470:75|446:35,1,136.499993751526
120,200,41508,6,0,B|136:156|164:124|164:124|135:130|92:132,1,146.999995513916
408,316,41781,2,0,B|403:304|386:286|386:286|394:265|389:223|389:223|404:208|422:191,1,146.999995513916
32,132,42054,6,0,B|76:112|104:88|104:88|140:96|176:128,1,157.500006008148
484,356,42326,2,0,B|436:328|400:328|400:328|388:296|404:260,1,157.500006008148
36,56,42599,6,0,B|76:68|100:88|100:88|100:28|72:-20,1,168
300,312,42872,2,0,B|268:280|272:256|272:256|256:240|256:240|256:208|256:208|236:184|196:180,1,168
480,28,43145,6,0,B|480:88|424:116|424:116|440:160|476:172,1,178.500003404617
56,144,43417,2,0,B|112:116|124:76|124:76|144:176,1,178.500003404617
204,336,43690,6,0,P|156:308|204:332,1,188.999994232178
380,208,43963,2,0,P|328:172|376:212,1,188.999994232178
192,36,44235,6,0,B|164:64|120:85|120:85|116:113|116:113|72:124|36:168,1,199.499994672775
488,256,44508,2,0,B|496:216|496:216|472:184|480:144|480:144|416:152|400:108,1,199.499994672775
108,68,44781,5,0,0:0:0:0:
328,152,44917,1,0,0:0:0:0:
152,276,45054,2,0,B|84:296|84:296|16:292,1,125.999996154785
124,48,45326,1,0,0:0:0:0:
348,160,45463,5,0,0:0:0:0:
152,276,45599,2,0,B|84:296|84:296|8:304,1,136.499993751526
120,28,45872,1,0,0:0:0:0:
364,156,46008,5,0,0:0:0:0:
28,292,46145,2,0,B|84:296|84:296|184:264,1,146.999995513916
104,44,46417,1,0,0:0:0:0:
384,144,46554,5,0,0:0:0:0:
28,292,46690,2,0,B|84:296|84:296|196:260,1,157.500006008148
368,132,46963,1,0,0:0:0:0:
80,44,47099,5,0,0:0:0:0:
204,356,47235,2,0,P|160:356|204:352,1,125.999996154785
428,268,47508,5,0,0:0:0:0:
236,104,47645,1,0,0:0:0:0:
428,268,47781,2,0,B|396:288|392:304|392:304|356:272|312:272,1,136.499993751526
328,20,48054,5,0,0:0:0:0:
160,204,48190,1,0,0:0:0:0:
380,88,48326,2,0,B|340:92|316:112|316:112|272:108|260:64,1,146.999995513916
344,304,48599,5,0,0:0:0:0:
92,304,48735,1,0,0:0:0:0:
320,196,48872,2,0,B|280:232|236:228|236:228|212:272|236:300,1,157.500006008148
72,92,49145,5,0,0:0:0:0:
68,96,49213,1,0,0:0:0:0:
68,104,49281,1,0,0:0:0:0:
72,108,49349,1,0,0:0:0:0:
84,104,49417,5,0,0:0:0:0:
88,92,49485,1,0,0:0:0:0:
80,80,49554,1,0,0:0:0:0:
68,76,49622,1,0,0:0:0:0:
48,80,49690,5,0,0:0:0:0:
36,96,49758,1,0,0:0:0:0:
36,116,49826,1,0,0:0:0:0:
52,124,49895,1,0,0:0:0:0:
76,136,49963,5,0,0:0:0:0:
96,152,50031,1,0,0:0:0:0:
104,176,50099,1,0,0:0:0:0:
100,200,50167,1,0,0:0:0:0:
124,224,50235,5,0,0:0:0:0:
156,224,50304,1,0,0:0:0:0:
176,200,50372,1,0,0:0:0:0:
188,172,50440,1,0,0:0:0:0:
216,148,50508,5,0,0:0:0:0:
256,144,50576,1,0,0:0:0:0:
288,168,50645,1,0,0:0:0:0:
304,204,50713,1,0,0:0:0:0:
300,244,50781,5,0,0:0:0:0:
280,280,50849,1,0,0:0:0:0:
292,320,50917,1,0,0:0:0:0:
332,328,50985,1,0,0:0:0:0:
368,312,51054,5,0,0:0:0:0:
392,280,51122,1,0,0:0:0:0:
416,248,51190,1,0,0:0:0:0:
456,240,51258,1,0,0:0:0:0:
480,272,51326,6,0,L|508:257,7,31.4999990386963
340,308,51599,6,0,L|368:293,7,31.4999990386963
416,180,51872,6,0,L|384:196,7,31.4999990386963
272,204,52145,6,0,L|288:200,15,15.7499995193482
192,144,52417,6,0,P|200:100|256:76,1,84
392,200,52690,1,0,0:0:0:0:
220,304,52826,2,0,P|204:284|220:296,1,84
104,176,53099,2,0,B|68:192|68:192|52:216|52:216|20:228,2,94.499997116089
340,108,53508,6,0,B|371:147|408:160|408:160|392:208|400:240,1,168
104,216,53781,2,0,B|88:168|104:136|104:136|64:136|24:100,1,168
256,152,53985,1,0,0:0:0:0:
256,152,54053,6,0,P|316:216|284:296,2,168
192,100,54463,2,0,P|184:72|184:96,1,84
232,16,54599,2,0,B|256:40|256:40|312:48,2,84
180,296,54872,1,0,0:0:0:0:
180,296,54940,1,0,0:0:0:0:
180,296,55008,6,0,P|148:216|192:276,1,252
248,196,55281,2,0,P|200:156|152:144,1,84
36,216,55417,6,0,B|64:164|108:148|108:148|64:136|24:108,1,178.500003404617
436,104,55690,6,0,P|448:168|400:224,1,115.50000352478
344,192,55963,2,0,B|352:160|376:152|376:152|356:140|336:156,1,84
276,180,56099,1,0,0:0:0:0:
276,180,56167,1,0,0:0:0:0:
276,180,56235,2,0,P|292:96|368:72,1,168
152,52,56508,6,0,B|120:96|112:156|112:156|112:120|88:88,1,168
196,268,56781,2,0,B|236:292|236:292|288:280,1,84
308,212,56917,2,0,B|340:244|340:244|352:288,1,84
444,312,57054,2,0,B|444:260|444:260|468:228,2,84
222,156,57326,6,0,L|188:180,1,42
308,116,57531,2,0,L|368:124,1,42
332,246,57735,2,0,L|308:212,1,42
210,80,57872,6,0,P|116:124|124:188,1,168
232,296,58145,2,0,P|224:184|172:144,1,168
121,183,58348,1,0,0:0:0:0:
117,175,58417,2,0,B|87:214|87:214|127:250|67:318,2,168
432,224,58826,6,0,B|364:236|364:236|324:224|324:224|252:240,1,168
376,156,59031,1,0,0:0:0:0:
320,304,59099,2,0,B|355:326|355:326|313:329,1,84
456,76,59235,1,0,0:0:0:0:
456,76,59304,1,0,0:0:0:0:
456,76,59372,2,0,P|380:32|304:108,1,168
384,104,59576,2,0,P|336:64|304:72,1,84
268,216,59781,6,0,P|325:188|296:132,1,115.50000352478
196,320,60054,1,0,0:0:0:0:
308,132,60190,1,0,0:0:0:0:
128,252,60326,1,0,0:0:0:0:
344,208,60463,1,0,0:0:0:0:
128,148,60599,2,0,B|144:176|144:176|184:176,1,57.7500017623902
312,280,60735,6,0,B|296:248|296:248|264:240,1,57.7500017623902
200,88,60872,1,0,0:0:0:0:
228,304,61008,1,0,0:0:0:0:
269,39,61145,1,0,0:0:0:0:
368,336,61281,1,0,0:0:0:0:
163,96,61418,5,0,0:0:0:0:
163,96,61485,1,0,0:0:0:0:
163,96,61554,1,0,0:0:0:0:
395,168,61690,6,0,P|356:180|314:175,2,84
172,264,61963,2,0,B|140:216|110:207|110:207|125:162|122:124,1,168
288,296,62235,6,0,B|289:284|289:284|278:283|278:283|280:271|280:271|269:270|269:270|270:258|270:258|259:257|259:257|261:245|261:245|250:244|250:244|252:233|252:233|240:231|240:231|242:220|242:220,1,105
136,76,62508,6,0,B|200:72|240:40|240:40|216:104,1,168
232,200,62781,1,0,0:0:0:0:
232,200,62849,1,0,0:0:0:0:
232,200,62917,1,0,0:0:0:0:
284,24,63054,2,0,B|308:56|356:56|356:56|308:160,1,168
176,80,63326,6,0,P|136:80|80:64,2,84
352,240,63599,1,0,0:0:0:0:
320,248,63667,1,0,0:0:0:0:
280,224,63735,2,0,P|256:136|304:80,1,168
64,248,64008,2,0,L|64:144,1,84
64,96,64145,6,0,B|72:152|72:152|48:192|48:192|64:248,1,136.499993751526
264,176,64417,2,0,B|228:140|192:136|192:136|234:94|208:48,1,168
456,136,64690,2,0,B|488:108|480:60,1,84
368,64,64826,2,0,P|400:56|368:72,2,84
144,80,65099,2,0,B|104:40|64:72|64:72|16:64|0:8,1,168
192,296,65372,6,0,B|192:240|192:240|200:192,1,84
128,176,65508,2,0,B|104:180|84:192|84:192|88:168|80:152,2,84
312,64,65781,5,0,0:0:0:0:
312,64,65849,1,0,0:0:0:0:
312,64,65917,2,0,B|268:84|268:84|281:107|272:120,1,84
313,177,66054,2,0,P|233:177|205:137,1,125.999996154785
60,128,66326,6,0,B|16:160|28:208|28:208|56:180|108:168,1,168
280,264,66599,1,0,0:0:0:0:
192,40,66735,1,0,0:0:0:0:
160,256,66872,6,0,B|192:192|192:192|240:168|240:168|264:112,1,168
472,176,67145,1,0,0:0:0:0:
296,48,67281,1,0,0:0:0:0:
320,264,67417,6,0,P|288:240|312:264,1,168
112,168,67690,1,0,0:0:0:0:
328,136,67826,1,0,0:0:0:0:
120,64,67963,6,0,B|132:97|132:97|160:90|165:122|165:122|195:123|201:149|201:149|230:145|237:173|237:173,1,168
296,368,68235,1,0,0:0:0:0:
432,192,68372,1,0,0:0:0:0:
223,124,68508,6,0,B|152:128|152:128|152:192|192:232,1,168
304,248,68781,5,0,0:0:0:0:
280,224,68849,1,0,0:0:0:0:
256,200,68917,2,0,P|223:133|224:104,1,84
320,56,69054,5,0,0:0:0:0:
288,40,69122,1,0,0:0:0:0:
256,40,69190,2,0,P|208:48|176:64,1,84
280,128,69326,5,0,0:0:0:0:
312,136,69395,1,0,0:0:0:0:
344,136,69463,2,0,P|392:96|400:64,1,84
400,192,69599,5,0,0:0:0:0:
376,216,69667,1,0,0:0:0:0:
344,232,69735,2,0,P|288:232|256:216,1,84
104,160,69872,5,0,0:0:0:0:
104,120,69940,1,0,0:0:0:0:
72,112,70008,1,0,0:0:0:0:
40,128,70076,1,0,0:0:0:0:
32,160,70145,5,0,0:0:0:0:
40,192,70213,1,0,0:0:0:0:
64,216,70281,1,0,0:0:0:0:
96,224,70349,1,0,0:0:0:0:
128,224,70417,5,0,0:0:0:0:
152,208,70485,1,0,0:0:0:0:
176,184,70554,1,0,0:0:0:0:
184,152,70622,1,0,0:0:0:0:
176,120,70690,6,0,L|208:48,1,68.2499968757631
240,64,70826,2,0,L|208:128,1,68.2499968757631
288,136,70963,6,0,B|264:184|264:184|256:248,1,115.50000352478
360,352,71235,1,0,0:0:0:0:
344,200,71372,1,0,0:0:0:0:
248,320,71508,6,0,B|240:280|240:248|240:248|176:208,1,115.50000352478
96,328,71781,1,0,0:0:0:0:
48,184,71917,1,0,0:0:0:0:
192,144,72054,6,0,B|159:106|159:106|128:104|128:104|96:64,1,115.50000352478
256,96,72326,1,0,0:0:0:0:
256,96,72395,1,0,0:0:0:0:
256,96,72463,1,0,0:0:0:0:
256,208,72599,6,0,P|270:263|254:317,1,115.50000352478
344,240,72872,1,0,0:0:0:0:
336,80,73008,1,0,0:0:0:0:
368,152,73145,6,0,B|400:136|400:136|408:72|456:64,1,115.50000352478
392,288,73417,1,0,0:0:0:0:
248,344,73554,1,0,0:0:0:0:
320,232,73690,6,0,P|320:176|240:136,1,115.50000352478
376,8,73963,1,0,0:0:0:0:
232,40,74099,1,0,0:0:0:0:
392,232,74235,6,0,P|376:168|384:232,1,188.999994232178
232,264,74508,5,0,0:0:0:0:
208,232,74576,1,0,0:0:0:0:
176,256,74644,5,0,0:0:0:0:
160,216,74712,1,0,0:0:0:0:
128,240,74780,5,0,0:0:0:0:
128,200,74848,1,0,0:0:0:0:
88,216,74917,5,0,0:0:0:0:
112,184,74985,1,0,0:0:0:0:
72,184,75053,5,0,0:0:0:0:
104,160,75121,1,0,0:0:0:0:
64,144,75189,5,0,0:0:0:0:
96,120,75258,1,0,0:0:0:0:
80,88,75326,6,0,B|120:64|80:0|80:0|104:16|136:8,1,157.500006008148
288,88,75599,6,0,B|296:160|296:160|264:200,1,115.50000352478
136,312,75872,1,0,0:0:0:0:
304,360,76008,1,0,0:0:0:0:
269,193,76145,6,0,B|304:152|304:152|352:144|360:88,1,115.50000352478
192,48,76417,1,0,0:0:0:0:
88,184,76554,1,0,0:0:0:0:
248,120,76690,5,0,0:0:0:0:
272,128,76758,1,0,0:0:0:0:
296,120,76826,1,0,0:0:0:0:
184,256,76963,5,0,0:0:0:0:
112,96,77099,1,0,0:0:0:0:
248,208,77235,6,0,B|283:191|283:191|264:152|280:104,1,115.50000352478
96,168,77508,6,0,P|96:112|16:120,1,125.999996154785
280,136,77781,6,0,B|256:179|256:179|272:219,1,84
304,112,77917,2,0,B|346:86|346:86|352:52,1,84
272,104,78054,2,0,B|250:59|250:59|208:48,1,84
288,120,78190,6,0,P|296:88|296:120,1,84
432,240,78326,6,0,P|416:216|424:240,1,84
432,240,78463,6,0,P|416:208|424:240,1,84
432,240,78599,6,0,P|416:200|424:240,1,84
432,240,78735,6,0,P|416:192|424:240,1,84
432,240,78872,2,0,P|448:192|408:224,2,84
360,256,79145,6,0,P|384:192|440:192,1,125.999996154785
336,72,79417,5,0,0:0:0:0:
304,80,79485,1,0,0:0:0:0:
272,104,79554,1,0,0:0:0:0:
256,136,79622,1,0,0:0:0:0:
246,175,79690,2,0,B|262:151|262:151|248:136|248:136|280:120|280:120|272:96|272:96|304:92|304:92|296:72|296:72|320:80|320:80|336:64,1,199.499994672775
120,112,79963,6,0,B|72:152|72:152|8:136,1,115.50000352478
136,312,80235,1,0,0:0:0:0:
320,208,80372,1,0,0:0:0:0:
112,216,80508,6,0,B|176:184|176:184|208:128,1,115.50000352478
392,64,80781,1,0,0:0:0:0:
184,40,80917,1,0,0:0:0:0:
288,224,81054,5,0,0:0:0:0:
280,272,81122,5,0,0:0:0:0:
256,320,81190,5,0,0:0:0:0:
440,224,81326,1,0,0:0:0:0:
264,112,81463,1,0,0:0:0:0:
60,168,81599,6,0,P|108:216|180:208,1,115.50000352478
240,152,81872,1,0,0:0:0:0:
344,328,82008,1,0,0:0:0:0:
160,232,82145,6,0,P|112:304|120:336,1,115.50000352478
304,232,82417,1,0,0:0:0:0:
128,112,82554,1,0,0:0:0:0:
232,288,82690,6,0,P|184:288|160:224,1,115.50000352478
312,120,82963,6,0,L|200:96,1,84
345,52,83235,6,0,B|386:74|388:125|388:125|387:96,7,105
464,104,83781,6,0,P|464:136|448:168,1,52.5
144,216,84054,6,0,B|72:200|104:174|72:120|72:120|144:144|168:112|168:112|160:72|216:32,1,293.999991027832
368,272,84463,1,0,0:0:0:0:
104,352,84599,2,0,B|80:336|80:304|80:304|32:304|8:344|8:344|-40:312|-16:256|-16:256|24:232|56:232|56:232,1,293.999991027832
106,237,85008,2,0,P|57:231|7:248,1,73.4999977569581
408,72,85281,5,0,0:0:0:0:
240,296,85417,2,0,B|200:256|232:224|232:224|312:216|360:272|360:272|352:328|288:320,3,293.999991027832
248,304,86372,2,0,P|280:336|312:312,1,73.4999977569581
96,120,86645,5,0,0:0:0:0:
280,328,86781,2,0,P|247:255|337:308,1,220.499993270874
472,184,87190,1,0,0:0:0:0:
288,280,87326,5,0,0:0:0:0:
264,232,87395,1,0,0:0:0:0:
224,200,87463,1,0,0:0:0:0:
176,184,87531,5,0,0:0:0:0:
128,192,87599,1,0,0:0:0:0:
88,224,87667,1,0,0:0:0:0:
40,200,87735,5,0,0:0:0:0:
48,152,87804,1,0,0:0:0:0:
68,117,87872,6,0,B|132:102|106:16|38:-11|-39:46|-42:110|68:117|-13:185|-13:185|-71:160|-71:160|-45:246|-45:246|-110:225|-110:225|-112:261,1,566.999982696534
280,128,88417,2,0,B|208:104|208:104|176:64,1,115.50000352478
200,200,88690,2,0,B|144:168|144:168|112:120,1,115.50000352478
144,296,88963,2,0,B|96:264|96:264|64:208,1,115.50000352478
80,384,89235,2,0,B|24:320|24:320|16:272,1,115.50000352478
72,152,89508,6,0,P|128:184|160:224,1,115.50000352478
168,56,89781,2,0,P|200:136|208:184,1,115.50000352478
280,232,90054,6,0,P|200:144|200:136,1,115.50000352478
352,136,90258,1,0,0:0:0:0:
352,136,90326,2,0,L|288:128,1,57.7500017623902
304,88,90463,2,0,L|232:80,1,57.7500017623902
200,160,90599,6,0,P|162:122|176:32,1,115.50000352478
72,144,90872,2,0,P|149:70|189:46,1,115.50000352478
224,304,91145,2,0,P|136:328|112:368,1,115.50000352478
256,232,91417,2,0,P|288:152|272:120,1,115.50000352478
384,248,91690,6,0,L|384:368,1,115.50000352478
480,184,91963,2,0,L|480:320,1,115.50000352478
416,48,92235,2,0,L|408:168,1,115.50000352478
320,96,92508,2,0,B|264:72|264:72|304:48,1,84
208,176,92781,5,0,0:0:0:0:
200,168,92849,1,0,0:0:0:0:
192,160,92917,2,0,P|160:96|168:72,1,68.2499968757631
72,200,93054,5,0,0:0:0:0:
72,184,93122,1,0,0:0:0:0:
80,168,93190,2,0,P|96:120|120:96,1,68.2499968757631
192,296,93326,5,0,0:0:0:0:
184,272,93395,1,0,0:0:0:0:
184,248,93463,2,0,P|200:200|224:168,1,68.2499968757631
328,296,93599,5,0,0:0:0:0:
328,272,93667,1,0,0:0:0:0:
312,248,93735,2,0,P|288:208|264:192,1,68.2499968757631
408,144,93872,5,0,0:0:0:0:
416,176,93940,1,0,0:0:0:0:
440,200,94008,2,0,P|480:224|512:224,1,68.2499968757631
328,144,94145,5,0,0:0:0:0:
320,112,94213,1,0,0:0:0:0:
296,88,94281,2,0,P|256:64|224:64,1,68.2499968757631
144,232,94417,5,0,0:0:0:0:
152,200,94485,1,0,0:0:0:0:
176,175,94553,2,0,P|203:155|236:149,1,68.2499968757631
224,248,94690,5,0,0:0:0:0:
216,280,94758,1,0,0:0:0:0:
191,304,94826,2,0,P|163:323|130:329,1,68.2499968757631
48,256,94963,5,0,0:0:0:0:
40,232,95031,1,0,0:0:0:0:
40,208,95099,1,0,0:0:0:0:
48,184,95167,1,0,0:0:0:0:
72,160,95235,5,0,0:0:0:0:
104,144,95304,1,0,0:0:0:0:
136,136,95372,1,0,0:0:0:0:
168,144,95440,1,0,0:0:0:0:
208,136,95508,5,0,0:0:0:0:
248,120,95576,1,0,0:0:0:0:
280,96,95645,1,0,0:0:0:0:
304,64,95713,1,0,0:0:0:0:
352,64,95781,5,0,0:0:0:0:
392,88,95849,1,0,0:0:0:0:
416,128,95917,1,0,0:0:0:0:
408,176,95985,1,0,0:0:0:0:
336,136,96054,6,0,B|280:176|280:176|312:184,1,84
168,144,96326,1,0,0:0:0:0:
296,280,96463,2,0,P|280:312|280:280,1,84
256,64,96735,6,0,B|272:120|272:120|312:160,2,94.499997116089
88,280,97145,2,0,P|104:192|176:184,1,146.999995513916
368,272,97417,5,0,0:0:0:0:
200,336,97554,1,0,0:0:0:0:
256,144,97690,1,0,0:0:0:0:
336,344,97826,6,0,P|304:224|328:208,1,146.999995513916
264,68,98099,2,0,P|236:68|192:100,2,73.4999977569581
192,336,98372,5,0,0:0:0:0:
320,160,98508,1,0,0:0:0:0:
64,296,98645,1,0,0:0:0:0:
104,88,98781,1,0,0:0:0:0:
144,264,98917,6,0,B|167:239|192:200|192:200|232:192|256:224,1,146.999995513916
376,240,99190,6,0,P|336:224|304:200,5,73.4999977569581
312,160,99599,2,0,B|272:160|272:160|232:136,1,73.4999977569581
160,176,99735,1,0,0:0:0:0:
160,176,99804,1,0,0:0:0:0:
160,176,99872,1,0,0:0:0:0:
280,56,100008,6,0,L|256:128,1,73.4999977569581
192,304,100145,1,0,0:0:0:0:
96,120,100281,6,0,B|144:112|144:112|192:128,1,73.4999977569581
392,184,100417,2,0,B|360:200|360:200|304:184,2,73.4999977569581
192,40,100690,5,0,0:0:0:0:
328,272,100826,1,0,0:0:0:0:
344,248,100895,1,0,0:0:0:0:
352,232,100963,6,0,B|368:160|368:160|384:192|408:224,1,146.999995513916
328,104,101235,6,0,B|352:120|368:160|368:160|288:184,1,146.999995513916
216,344,101508,1,0,0:0:0:0:
144,192,101645,6,0,L|216:168,1,57.7500017623902
176,104,101781,2,0,L|240:88,1,57.7500017623902
264,152,101917,2,0,L|336:128,1,57.7500017623902
400,160,102054,2,0,P|400:192|384:224,1,62.9999980773926
304,296,102326,6,0,L|240:288,1,57.7500017623902
280,264,102463,2,0,L|216:256,1,57.7500017623902
264,224,102599,2,0,L|200:216,1,57.7500017623902
208,144,102735,2,0,B|246:140|246:140|270:124,1,62.9999980773926
104,280,103008,6,0,L|184:264,1,57.7500017623902
184,288,103145,2,0,L|264:272,1,57.7500017623902
248,240,103281,2,0,L|328:224,1,57.7500017623902
320,272,103417,2,0,L|400:256,1,57.7500017623902
424,200,103554,2,0,L|360:216,1,62.9999980773926
136,144,103826,6,0,B|56:112|80:120,1,57.7500017623902
168,192,103963,2,0,L|120:136,1,57.7500017623902
176,256,104099,2,0,L|168:176,1,57.7500017623902
248,240,104235,2,0,B|251:274|251:274|280:312,1,62.9999980773926
463,132,104508,6,0,B|440:152|440:152|402:150,1,57.7500017623902
384,88,104645,2,0,B|400:104|400:104|392:128|392:128|408:152,1,57.7500017623902
340,167,104781,2,0,B|368:168|368:168|402:150,1,57.7500017623902
421,219,104917,2,0,B|408:200|408:200|417:171|417:171|402:150,1,62.9999980773926
248,94,105190,6,0,L|184:96,1,57.7500017623902
176,208,105326,6,0,B|136:240|96:240|96:240|104:200|87:163|87:163|144:160|184:104|200:96|200:96|200:88|200:88|208:96|208:96|208:88|208:88|216:96|216:96|216:88|216:88|224:96|224:96|224:88|224:88|232:96|232:96|232:88|232:88|240:96|240:96|240:88|240:88|248:96|248:96|248:88|248:88|256:96|256:96|256:88|256:88,1,409.499981254579
336,240,105872,6,0,B|344:184|376:152|376:152|336:112,1,146.999995513916
144,48,106145,1,0,0:0:0:0:
240,328,106281,1,0,0:0:0:0:
440,152,106417,1,0,0:0:0:0:
200,112,106554,6,0,P|64:80|56:56,1,146.999995513916
376,344,106826,6,0,P|408:328|432:288,2,73.4999977569581
304,104,107099,1,0,0:0:0:0:
168,328,107235,1,0,0:0:0:0:
416,200,107372,1,0,0:0:0:0:
72,184,107508,1,0,0:0:0:0:
464,256,107645,6,0,P|376:264|344:216,1,146.999995513916
280,344,107917,6,0,L|192:312,5,73.4999977569581
136,344,108326,2,0,P|136:312|152:272,1,73.4999977569581
184,240,108463,5,0,0:0:0:0:
192,184,108531,1,0,0:0:0:0:
176,136,108599,1,0,0:0:0:0:
312,160,108735,6,0,L|335:90,1,73.4999977569581
392,288,108872,1,0,0:0:0:0:
192,320,109008,6,0,B|240:304|256:272,1,73.4999977569581
112,184,109144,2,0,B|80:176|80:176|24:184,2,73.4999977569581
32,352,109417,5,0,0:0:0:0:
208,216,109553,1,0,0:0:0:0:
224,192,109622,1,0,0:0:0:0:
232,176,109690,6,0,B|224:136|248:104|248:104|296:112|312:160,1,146.999995513916
424,232,109963,6,0,B|432:270|408:302|408:302|360:294|352:264,1,146.999995513916
192,280,110235,6,0,B|232:248|232:248|272:264,3,84
288,96,110508,6,0,B|256:128|256:128|200:120,3,84
440,208,110781,6,0,B|400:216|400:216|368:184,3,84
208,200,111054,6,0,L|96:184,3,84
328,160,111326,6,0,L|392:88,3,84
320,280,111599,6,0,L|368:352,3,84
224,152,111872,6,0,B|264:160|264:160|286:115,3,84
376,208,112145,6,0,B|336:192|336:192|368:136,3,84
240,240,112417,5,0,0:0:0:0:
240,240,112485,1,0,0:0:0:0:
240,240,112554,1,0,0:0:0:0:
328,112,112690,5,0,0:0:0:0:
328,112,112758,1,0,0:0:0:0:
328,112,112826,1,0,0:0:0:0:
336,304,112963,5,0,0:0:0:0:
336,304,113031,1,0,0:0:0:0:
336,304,113099,1,0,0:0:0:0:
480,120,113235,5,0,0:0:0:0:
480,120,113304,1,0,0:0:0:0:
480,120,113372,1,0,0:0:0:0:
464,224,113508,5,0,0:0:0:0:
432,200,113576,1,0,0:0:0:0:
392,192,113645,1,0,0:0:0:0:
352,200,113713,1,0,0:0:0:0:
320,216,113781,5,0,0:0:0:0:
288,200,113849,1,0,0:0:0:0:
264,168,113917,1,0,0:0:0:0:
272,128,113985,1,0,0:0:0:0:
288,96,114054,5,0,0:0:0:0:
280,64,114122,1,0,0:0:0:0:
248,40,114190,1,0,0:0:0:0:
208,48,114258,1,0,0:0:0:0:
172,92,114326,2,0,L|144:192,1,84
72,264,114463,2,0,L|36:360,1,84
12,120,114599,6,0,B|32:164|60:186|60:186|23:195|-5:233,1,146.999995513916
152,320,114872,1,0,0:0:0:0:
256,176,115008,1,0,0:0:0:0:
344,328,115144,1,0,0:0:0:0:
385,197,115281,6,0,P|249:165|241:141,1,146.999995513916
80,216,115553,6,0,P|112:200|136:160,2,73.4999977569581
232,32,115826,1,0,0:0:0:0:
288,336,115962,1,0,0:0:0:0:
320,16,116099,1,0,0:0:0:0:
200,320,116235,1,0,0:0:0:0:
496,240,116372,6,0,B|456:228|424:248|424:248|416:192|384:172,1,146.999995513916
456,72,116644,6,0,B|424:48|424:48|368:40,5,73.4999977569581
320,72,117054,2,0,P|320:40|336:0,1,73.4999977569581
272,0,117190,5,0,0:0:0:0:
240,32,117258,1,0,0:0:0:0:
232,72,117326,1,0,0:0:0:0:
120,312,117463,6,0,B|120:272|120:272|143:242,1,73.4999977569581
296,136,117599,1,0,0:0:0:0:
80,144,117735,6,0,B|112:104|112:104|108:56,1,73.4999977569581
288,256,117871,2,0,B|324:237|324:237|356:245,2,73.4999977569581
112,328,118144,5,0,0:0:0:0:
352,176,118280,1,0,0:0:0:0:
323,179,118349,1,0,0:0:0:0:
306,184,118417,6,0,B|281:216|286:137|286:137|215:177|241:134,1,146.999995513916
186,22,118690,6,0,B|208:-6|203:72|203:72|273:31|250:70,1,146.999995513916
440,136,118963,1,0,0:0:0:0:
280,280,119099,6,0,P|280:256|288:280,1,57.7500017623902
280,280,119235,2,0,P|300:292|276:286,1,57.7500017623902
280,280,119372,2,0,P|259:291|275:273,1,57.7500017623902
200,231,119508,2,0,P|233:198|280:192,1,94.499997116089
360,152,119781,6,0,L|320:96,1,57.7500017623902
326,105,119917,2,0,L|392:112,1,57.7500017623902
392,112,120054,2,0,L|368:56,1,57.7500017623902
272,64,120190,2,0,P|344:40|368:56,1,94.499997116089
200,208,120463,6,0,B|208:176|208:176|232:168,1,57.7500017623902
216,232,120599,2,0,B|256:240|256:240|280:224,1,57.7500017623902
256,168,120735,2,0,L|288:120,1,57.7500017623902
280,208,120872,2,0,L|344:192,1,57.7500017623902
376,120,121008,2,0,B|344:144|344:144|320:144|320:144|288:168,1,94.499997116089
120,136,121281,6,0,L|160:80,1,57.7500017623902
200,88,121417,2,0,L|264:56,1,57.7500017623902
296,88,121554,2,0,L|376:80,1,57.7500017623902
272,160,121690,2,0,P|224:144|208:192,1,94.499997116089
256,280,121963,6,0,L|232:336,1,57.7500017623902
312,288,122099,2,0,L|328:352,1,57.7500017623902
376,264,122235,2,0,L|432:312,1,57.7500017623902
424,216,122372,2,0,L|520:224,1,94.499997116089
423,77,122645,6,0,L|416:8,1,57.7500017623902
444,160,122781,6,0,P|476:8|388:155,1,477.749978130342
440,80,123326,6,0,B|360:96|360:96|368:136|416:160,1,157.500006008148
424,304,123599,6,0,P|416:256|384:224,1,78.7500030040742
320,136,123735,1,0,0:0:0:0:
240,312,123872,1,0,0:0:0:0:
56,176,124008,6,0,B|72:136|72:136|104:112,1,78.7500030040742
144,248,124145,1,0,0:0:0:0:
328,224,124281,2,0,B|328:184|304:144|304:144|352:152|384:192,1,157.500006008148
224,200,124554,1,0,0:0:0:0:
368,80,124690,1,0,0:0:0:0:
208,344,124826,6,0,B|256:336|288:344|288:344|328:328|344:288,1,157.500006008148
360,152,125031,2,0,B|320:168|320:168|264:136,1,78.7500030040742
216,120,125167,1,0,0:0:0:0:
216,120,125236,2,0,L|144:88,1,78.7500030040742
224,40,125372,2,0,L|304:80,1,78.7500030040742
328,88,125508,5,0,0:0:0:0:
152,208,125645,2,0,B|144:168|128:136|128:136|120:104|136:56,1,157.500006008148
320,184,125917,1,0,0:0:0:0:
112,296,126054,1,0,0:0:0:0:
272,312,126190,6,0,P|288:272|328:240,1,78.7500030040742
424,128,126326,1,0,0:0:0:0:
256,192,126463,2,0,B|224:224|208:256|208:256|192:216|184:176,1,157.500006008148
296,48,126735,1,0,0:0:0:0:
416,272,126872,5,0,0:0:0:0:
208,336,127008,6,0,B|240:296|240:296|256:256,1,78.7500030040742
352,176,127145,1,0,0:0:0:0:
144,88,127281,2,0,B|136:128|136:128|96:168,1,78.7500030040742
88,264,127417,1,0,0:0:0:0:
384,320,127554,6,0,B|352:288|352:288|336:232,1,78.7500030040742
160,176,127690,6,0,P|192:96|256:64,1,136.499993751526
352,208,127963,2,0,P|320:288|256:320,1,136.499993751526
184,72,128235,2,0,P|282:30|320:40,1,136.499993751526
360,304,128508,2,0,P|245:353|224:352,1,136.499993751526
400,192,128781,6,0,B|376:120|376:120|312:96,1,136.499993751526
120,192,129054,2,0,B|144:264|144:264|200:296,1,136.499993751526
304,64,129326,2,0,B|248:112|248:112|176:96,1,136.499993751526
232,312,129599,2,0,B|288:264|288:264|356:284,1,136.499993751526
256,192,129872,5,0,0:0:0:0:
272,168,129940,1,0,0:0:0:0:
264,144,130008,1,0,0:0:0:0:
240,136,130076,1,0,0:0:0:0:
208,120,130145,5,0,0:0:0:0:
200,88,130213,1,0,0:0:0:0:
216,56,130281,1,0,0:0:0:0:
248,40,130349,1,0,0:0:0:0:
280,64,130417,5,0,0:0:0:0:
320,72,130485,1,0,0:0:0:0:
352,48,130554,1,0,0:0:0:0:
384,24,130622,1,0,0:0:0:0:
424,48,130690,5,0,0:0:0:0:
416,96,130758,1,0,0:0:0:0:
400,144,130826,1,0,0:0:0:0:
368,176,130895,1,0,0:0:0:0:
360,232,130963,5,0,0:0:0:0:
400,272,131031,1,0,0:0:0:0:
408,328,131099,1,0,0:0:0:0:
360,352,131167,1,0,0:0:0:0:
296,344,131235,5,0,0:0:0:0:
272,288,131304,1,0,0:0:0:0:
288,232,131372,1,0,0:0:0:0:
320,184,131440,1,0,0:0:0:0:
256,192,131474,12,0,132037,0:0:0:0:
192,184,145145,6,0,P|280:184|288:272,1,168
272,96,145554,2,0,P|176:104|136:136,1,115.50000352478
368,216,145963,6,0,P|336:312|280:320,1,168
440,200,146372,2,0,P|408:152|352:144,1,115.50000352478
216,128,146781,6,0,P|120:208|80:184,2,168
488,280,147735,6,0,B|448:240|448:240|432:240|432:240|392:200,1,115.50000352478
232,288,148008,1,0,0:0:0:0:
216,96,148145,1,0,0:0:0:0:
406,301,148417,5,0,0:0:0:0:
406,301,148485,1,0,0:0:0:0:
406,301,148554,1,0,0:0:0:0:
336,128,148690,5,0,0:0:0:0:
336,128,148758,1,0,0:0:0:0:
336,128,148826,1,0,0:0:0:0:
192,96,148963,5,0,0:0:0:0:
240,80,149031,1,0,0:0:0:0:
288,88,149099,2,0,P|336:120|344:128,1,57.7500017623902
296,200,149235,5,0,0:0:0:0:
352,216,149304,1,0,0:0:0:0:
384,248,149372,2,0,L|408:304,1,57.7500017623902
88,72,149508,6,0,L|96:136,1,52.5
144,136,149781,2,0,L|152:200,1,52.5
256,328,150054,6,0,L|248:256,1,62.9999980773926
288,224,150326,2,0,L|280:152,1,62.9999980773926
424,40,150599,6,0,L|360:88,1,73.4999977569581
384,152,150872,2,0,L|320:192,1,73.4999977569581
56,304,151145,6,0,L|128:256,1,84
155,279,151349,1,0,0:0:0:0:
184,304,151417,2,0,L|256:240,1,84
168,88,151690,6,0,P|200:88|176:80,1,94.499997116089
352,128,151963,2,0,P|312:144|344:120,1,94.499997116089
160,264,152235,6,0,B|192:240|208:208|208:208|208:232|216:248,1,105
336,64,152508,2,0,B|320:96|296:120|296:120|320:104|336:104,1,105
312,344,152781,6,0,B|320:272|320:272|280:216,1,115.50000352478
144,48,153054,2,0,B|200:104|200:104|248:96,1,115.50000352478
472,152,153326,6,0,B|416:144|384:160|384:160|392:136|416:128,1,115.50000352478
248,232,153599,2,0,P|304:176|336:168,1,84
32,96,153872,6,0,P|104:104|152:72,1,125.999996154785
416,96,154145,2,0,P|344:104|296:72,1,125.999996154785
96,224,154417,6,0,B|112:144|112:144|160:96,1,136.499993751526
352,224,154690,2,0,B|336:144|336:144|288:96,1,136.499993751526
68,336,154963,6,0,P|92:296|72:340,1,146.999995513916
92,20,155235,2,0,P|40:24|92:24,1,146.999995513916
260,356,155508,6,0,B|208:328|180:288|180:288|184:328|216:348,1,157.500006008148
468,92,155781,2,0,B|484:152|480:200|480:200|504:168|504:144,1,157.500006008148
96,152,156054,6,0,B|144:144|168:120|168:120|152:80|176:32,1,168
512,256,156326,2,0,B|440:248|408:224|408:224|424:280,1,168
32,64,156599,6,0,B|48:168|8:208|8:208|0:176|-16:168,1,178.500003404617
440,128,156872,2,0,B|432:72|448:8|448:8|456:48|464:72,1,178.500003404617
56,304,157145,6,0,B|16:240|24:200|24:200|-8:240|-16:288,1,188.999994232178
456,352,157417,2,0,B|400:392|336:376|336:376|360:328|408:336,1,188.999994232178
0,16,157690,6,0,B|40:48|48:96|48:96|40:152|0:192,1,199.499994672775
504,256,157963,2,0,B|464:224|456:176|456:176|464:120|504:80,1,199.499994672775
277,189,158235,6,0,P|344:173|402:128,1,125.999996154785
341,297,158508,1,0,0:0:0:0:
367,26,158645,1,0,0:0:0:0:
178,214,158781,6,0,B|219:203|249:233|249:233|278:187,1,125.999996154785
71,335,159054,1,0,0:0:0:0:
28,112,159190,1,0,0:0:0:0:
284,242,159326,6,0,B|244:249|244:249|229:220|229:220|196:234|196:234|175:211,1,136.499993751526
399,345,159599,1,0,0:0:0:0:
339,71,159735,1,0,0:0:0:0:
141,250,159872,6,0,P|124:185|194:190,1,146.999995513916
329,339,160145,1,0,0:0:0:0:
231,117,160281,1,0,0:0:0:0:
449,258,160417,6,0,P|483:335|515:306,1,157.500006008148
373,65,160690,1,0,0:0:0:0:
252,298,160826,1,0,0:0:0:0:
485,151,160963,6,0,P|441:179|454:250,1,125.999996154785
215,52,161235,1,0,0:0:0:0:
350,327,161372,1,0,0:0:0:0:
180,326,161508,6,0,B|172:253|172:253|115:197,1,136.499993751526
353,28,161781,1,0,0:0:0:0:
443,308,161917,1,0,0:0:0:0:
372,101,162054,6,0,B|326:109|298:79|298:79|215:114,1,146.999995513916
288,368,162326,1,0,0:0:0:0:
120,104,162463,1,0,0:0:0:0:
320,208,162599,5,0,0:0:0:0:
312,184,162667,1,0,0:0:0:0:
296,168,162735,1,0,0:0:0:0:
272,160,162804,1,0,0:0:0:0:
256,136,162872,5,0,0:0:0:0:
256,104,162940,1,0,0:0:0:0:
272,80,163008,1,0,0:0:0:0:
296,64,163076,1,0,0:0:0:0:
272,32,163145,5,0,0:0:0:0:
232,24,163213,1,0,0:0:0:0:
200,40,163281,1,0,0:0:0:0:
160,48,163349,1,0,0:0:0:0:
128,24,163417,5,0,0:0:0:0:
88,24,163485,1,0,0:0:0:0:
64,56,163554,1,0,0:0:0:0:
64,96,163622,1,0,0:0:0:0:
88,128,163690,5,0,0:0:0:0:
120,144,163758,1,0,0:0:0:0:
160,152,163826,1,0,0:0:0:0:
192,176,163895,1,0,0:0:0:0:
216,216,163963,5,0,0:0:0:0:
216,264,164031,1,0,0:0:0:0:
184,296,164099,1,0,0:0:0:0:
144,272,164167,1,0,0:0:0:0:
152,224,164235,5,0,0:0:0:0:
192,200,164304,1,0,0:0:0:0:
240,184,164372,1,0,0:0:0:0:
256,128,164440,1,0,0:0:0:0:
304,104,164508,5,0,0:0:0:0:
360,104,164576,1,0,0:0:0:0:
400,144,164645,1,0,0:0:0:0:
408,200,164713,1,0,0:0:0:0:
424,256,164781,6,0,P|479:246|512:208,3,78.7500030040742
376,136,165054,6,0,P|412:112|384:144,3,78.7500030040742
352,272,165326,6,0,P|320:320|280:328,3,78.7500030040742
264,168,165599,6,0,L|216:172,6,39.3750015020371
152,112,165872,6,0,B|160:68|160:68|216:44,1,84
272,264,166145,1,0,0:0:0:0:
352,136,166281,2,0,P|336:116|352:128,1,84
64,112,166554,2,0,B|80:144|80:144|56:168|56:168|80:224,2,94.499997116089
304,328,166963,2,0,B|320:272|328:200|328:200|344:264,1,168
496,24,167235,1,0,0:0:0:0:
224,48,167372,1,0,0:0:0:0:
224,48,167440,1,0,0:0:0:0:
224,48,167508,6,0,B|238:125|316:105|328:40|269:14|269:14|312:-8|352:16|352:16|384:40|424:24,1,336
408,296,167917,2,0,P|352:232|256:227,1,168
344,336,168122,2,0,B|304:352|304:352|260:336,2,84
273,221,168326,1,0,0:0:0:0:
273,221,168394,1,0,0:0:0:0:
273,221,168462,1,0,0:0:0:0:
24,336,168599,2,0,P|76:315|111:287,2,84
204,44,168872,6,0,P|284:12|356:60,1,178.500003404617
480,256,169145,2,0,B|431:235|416:240|416:240|406:229|376:208,1,115.50000352478
124,152,169417,6,0,B|172:136|172:136|172:92|212:72,1,115.50000352478
264,208,169622,1,0,0:0:0:0:
264,208,169690,2,0,B|275:168|247:133|247:133|292:109|272:56,1,168
416,288,169963,1,0,0:0:0:0:
352,24,170099,2,0,L|272:56,1,84
248,48,170235,1,0,0:0:0:0:
248,320,170372,1,0,0:0:0:0:
88,104,170508,6,0,B|144:80|144:80|192:80|192:80|256:48,1,168
224,184,170781,6,0,L|288:160,1,42
400,176,170985,2,0,L|352:208,1,42
344,64,171190,2,0,P|328:80|280:96,1,42
304,224,171326,6,0,B|328:192|328:160|328:160|336:208|408:256,1,168
120,312,171599,2,0,P|136:232|160:304,1,168
160,312,171804,1,0,0:0:0:0:
96,352,171872,1,0,0:0:0:0:
64,48,172008,1,0,0:0:0:0:
304,168,172145,6,0,P|256:96|152:64,1,168
24,280,172417,2,0,B|48:304|48:304|56:352,2,84
200,72,172690,1,0,0:0:0:0:
200,72,172758,1,0,0:0:0:0:
200,72,172826,1,0,0:0:0:0:
416,240,172963,1,0,0:0:0:0:
176,368,173099,1,0,0:0:0:0:
128,104,173235,6,0,P|191:152|272:96,1,168
432,48,173508,5,0,0:0:0:0:
328,200,173645,1,0,0:0:0:0:
440,56,173781,1,0,0:0:0:0:
392,232,173917,1,0,0:0:0:0:
352,48,174054,1,0,0:0:0:0:
400,224,174190,1,0,0:0:0:0:
280,80,174326,1,0,0:0:0:0:
440,176,174463,5,0,0:0:0:0:
288,72,174599,1,0,0:0:0:0:
440,176,174735,1,0,0:0:0:0:
352,16,174872,1,0,0:0:0:0:
272,184,175008,1,0,0:0:0:0:
488,24,175145,6,0,P|444:55|389:62,2,84
224,40,175417,1,0,0:0:0:0:
360,272,175554,1,0,0:0:0:0:
304,112,175690,6,0,P|352:120|448:96,1,105
152,192,175963,2,0,B|112:176|112:176|95:146|95:146|51:151|51:151|45:123|45:123|26:126|26:126|0:88,1,168
168,352,176235,1,0,0:0:0:0:
168,352,176304,1,0,0:0:0:0:
168,352,176372,1,0,0:0:0:0:
304,120,176508,6,0,B|384:160|384:160|488:160,1,168
192,168,176781,1,0,0:0:0:0:
176,136,176849,1,0,0:0:0:0:
168,96,176917,2,0,B|248:96|248:96|336:136,1,168
112,296,177190,1,0,0:0:0:0:
360,200,177326,6,0,B|376:256|376:256|432:240|504:256,1,168
216,208,177599,6,0,P|248:120|312:96,1,168
136,296,177872,2,0,P|224:320|312:248,1,168
168,48,178145,6,0,B|80:56|80:56|13:114,1,168
344,208,178349,1,0,0:0:0:0:
376,160,178417,2,0,P|240:48|200:48,1,168
208,320,178690,1,0,0:0:0:0:
456,216,178826,2,0,P|424:296|336:360,1,168
280,88,179099,1,0,0:0:0:0:
104,288,179235,1,0,0:0:0:0:
104,288,179304,1,0,0:0:0:0:
104,288,179372,1,0,0:0:0:0:
336,152,179508,6,0,B|269:194|269:194|181:210,1,168
424,336,179781,2,0,P|368:296|384:344,1,168
416,72,180054,5,0,0:0:0:0:
256,288,180190,1,0,0:0:0:0:
432,88,180326,1,0,0:0:0:0:
240,272,180463,1,0,0:0:0:0:
112,40,180599,5,0,0:0:0:0:
360,152,180735,1,0,0:0:0:0:
104,72,180872,1,0,0:0:0:0:
368,120,181008,1,0,0:0:0:0:
144,272,181145,5,0,0:0:0:0:
248,24,181281,1,0,0:0:0:0:
176,280,181417,1,0,0:0:0:0:
216,16,181554,1,0,0:0:0:0:
368,240,181690,5,0,0:0:0:0:
104,176,181826,1,0,0:0:0:0:
376,192,181963,1,0,0:0:0:0:
112,232,182099,1,0,0:0:0:0:
328,72,182235,5,0,0:0:0:0:
328,72,182304,1,0,0:0:0:0:
328,72,182372,2,0,P|272:80|240:96,1,84
336,200,182508,5,0,0:0:0:0:
336,200,182576,1,0,0:0:0:0:
336,200,182645,2,0,P|280:168|240:160,1,84
272,304,182781,5,0,0:0:0:0:
272,304,182849,1,0,0:0:0:0:
272,304,182917,2,0,P|232:272|224:232,1,84
168,352,183054,5,0,0:0:0:0:
168,352,183122,1,0,0:0:0:0:
168,352,183190,2,0,P|144:304|152:256,1,84
224,168,183326,5,0,0:0:0:0:
248,136,183395,1,0,0:0:0:0:
240,96,183463,1,0,0:0:0:0:
200,80,183531,1,0,0:0:0:0:
160,96,183599,1,0,0:0:0:0:
144,136,183667,1,0,0:0:0:0:
104,152,183735,1,0,0:0:0:0:
72,120,183804,5,0,0:0:0:0:
56,80,183872,1,0,0:0:0:0:
88,48,183940,1,0,0:0:0:0:
128,56,184008,1,0,0:0:0:0:
152,88,184076,1,0,0:0:0:0:
176,112,184145,6,0,L|232:72,1,68.2499968757631
256,96,184281,2,0,L|312:56,1,68.2499968757631
392,144,184417,6,0,B|432:192|432:192|432:256,1,115.50000352478
264,168,184690,5,0,0:0:0:0:
344,336,184826,1,0,0:0:0:0:
208,216,184963,2,0,P|190:156|260:99,1,115.50000352478
368,216,185235,5,0,0:0:0:0:
320,40,185372,1,0,0:0:0:0:
434,182,185508,2,0,P|432:257|383:288,1,115.50000352478
232,208,185781,5,0,0:0:0:0:
232,208,185849,1,0,0:0:0:0:
232,208,185917,1,0,0:0:0:0:
104,344,186054,5,0,0:0:0:0:
96,160,186190,1,0,0:0:0:0:
232,288,186326,2,0,B|176:272|176:272|128:240,1,115.50000352478
256,104,186599,5,0,0:0:0:0:
336,272,186735,1,0,0:0:0:0:
200,152,186872,2,0,P|181:91|227:37,1,115.50000352478
312,200,187145,5,0,0:0:0:0:
408,40,187281,1,0,0:0:0:0:
384,224,187417,2,0,P|348:266|273:262,1,115.50000352478
48,88,187690,6,0,B|87:69|98:120|66:133|38:117|38:117|56:168|9:225,1,188.999994232178
176,96,187963,5,0,0:0:0:0:
184,120,188031,5,0,0:0:0:0:
160,112,188099,5,0,0:0:0:0:
184,104,188167,5,0,0:0:0:0:
168,120,188235,5,0,0:0:0:0:
176,96,188304,5,0,0:0:0:0:
184,120,188372,5,0,0:0:0:0:
160,112,188440,5,0,0:0:0:0:
176,96,188508,5,0,0:0:0:0:
184,120,188576,5,0,0:0:0:0:
176,96,188645,5,0,0:0:0:0:
160,112,188713,5,0,0:0:0:0:
208,120,188781,6,0,B|184:208|184:208|192:280,1,157.500006008148
368,224,189054,6,0,L|240:208,1,115.50000352478
88,136,189326,1,0,0:0:0:0:
112,320,189463,1,0,0:0:0:0:
253,209,189599,6,0,L|298:315,1,115.50000352478
144,216,189872,1,0,0:0:0:0:
312,144,190008,1,0,0:0:0:0:
304,328,190145,5,0,0:0:0:0:
304,328,190213,1,0,0:0:0:0:
304,328,190281,1,0,0:0:0:0:
464,240,190417,5,0,0:0:0:0:
280,232,190554,1,0,0:0:0:0:
456,168,190690,6,0,P|398:206|398:266,1,115.50000352478
192,208,190963,6,0,B|195:159|176:104|176:104|194:117|208:144,1,125.999996154785
64,352,191235,5,0,0:0:0:0:
104,336,191304,1,0,0:0:0:0:
64,352,191372,1,0,0:0:0:0:
104,336,191440,1,0,0:0:0:0:
64,352,191508,1,0,0:0:0:0:
104,336,191576,1,0,0:0:0:0:
64,352,191645,1,0,0:0:0:0:
241,148,191781,6,0,B|248:104|248:104|225:36,1,84
320,168,191917,2,0,B|304:128|304:128|264:88,1,84
288,232,192054,2,0,B|288:192|288:192|328:144,1,84
328,288,192190,2,0,B|376:280|376:280|424:312,1,84
277,338,192326,2,0,P|258:307|277:242,1,84
384,208,192463,2,0,B|344:216|344:216|288:192,1,84
224,144,192599,6,0,B|144:168|144:168|96:160,1,125.999996154785
368,112,192872,5,0,0:0:0:0:
368,112,192940,1,0,0:0:0:0:
368,112,193008,1,0,0:0:0:0:
368,112,193076,1,0,0:0:0:0:
368,112,193145,2,0,B|261:129|261:129|168:160,1,199.499994672775
160,208,193417,6,0,L|320:248,1,115.50000352478
448,288,193690,1,0,0:0:0:0:
456,104,193826,1,0,0:0:0:0:
288,192,193963,6,0,P|320:240|376:272,1,115.50000352478
400,88,194235,1,0,0:0:0:0:
224,32,194372,1,0,0:0:0:0:
296,200,194508,5,0,0:0:0:0:
296,200,194576,1,0,0:0:0:0:
296,200,194645,1,0,0:0:0:0:
136,104,194781,5,0,0:0:0:0:
176,280,194917,1,0,0:0:0:0:
360,264,195054,6,0,B|296:280|296:280|224:272,1,115.50000352478
248,88,195326,1,0,0:0:0:0:
96,192,195463,1,0,0:0:0:0:
280,200,195599,6,0,B|320:144|320:144|376:104,1,115.50000352478
464,264,195872,1,0,0:0:0:0:
488,80,196008,1,0,0:0:0:0:
392,240,196145,6,0,P|400:176|368:104,1,115.50000352478
256,96,196417,2,0,L|336:64,1,84
96,304,196690,5,0,0:0:0:0:
128,296,196758,1,0,0:0:0:0:
160,288,196826,1,0,0:0:0:0:
192,280,196895,1,0,0:0:0:0:
224,272,196963,1,0,0:0:0:0:
256,264,197031,1,0,0:0:0:0:
288,256,197099,1,0,0:0:0:0:
320,248,197167,1,0,0:0:0:0:
328,240,197235,6,0,L|384:232,1,52.5
240,48,197508,6,0,B|156:83|217:176|318:129|280:64|280:64|336:88|408:72,1,293.999991027832
448,296,197917,1,0,0:0:0:0:
360,80,198054,2,0,B|328:80|280:64|280:64|299:110|256:126,1,146.999995513916
152,328,198326,6,0,P|152:216|64:320,1,293.999991027832
257,187,198735,1,0,0:0:0:0:
344,96,198872,6,0,B|304:48|304:48|168:16|168:16|232:48|240:88,3,293.999991027832
120,104,199826,6,0,P|145:93|177:122,1,73.4999977569581
112,216,200099,1,0,0:0:0:0:
320,328,200235,6,0,B|368:296|352:232|352:232|280:328|176:248,1,293.999991027832
304,48,200645,1,0,0:0:0:0:
72,88,200781,5,0,0:0:0:0:
88,120,200849,1,0,0:0:0:0:
88,160,200917,1,0,0:0:0:0:
72,192,200985,1,0,0:0:0:0:
72,232,201054,1,0,0:0:0:0:
96,256,201122,1,0,0:0:0:0:
136,264,201190,1,0,0:0:0:0:
168,240,201258,1,0,0:0:0:0:
192,200,201326,6,0,B|159:235|159:235|138:288|138:288|106:246|106:246|56:235|56:235|85:193|85:193|71:159|71:159|108:118|108:118|51:86|51:86|96:24|200:40,1,566.999982696534
240,64,201872,6,0,B|200:16|200:16|136:0,1,115.50000352478
128,128,202145,2,0,B|72:96|72:96|40:48,1,115.50000352478
80,216,202418,2,0,B|56:168|56:168|0:136,1,115.50000352478
128,40,202690,2,0,B|184:72|184:72|208:136,1,115.50000352478
144,272,202963,2,0,P|208:304|240:368,1,115.50000352478
392,328,203236,2,0,B|392:264|392:264|354:219,1,115.50000352478
200,208,203509,6,0,P|152:168|120:112,1,115.50000352478
352,136,203713,1,0,0:0:0:0:
352,136,203781,2,0,L|288:128,1,57.7500017623902
304,88,203918,2,0,L|232:80,1,57.7500017623902
208,152,204054,2,0,P|170:114|184:24,1,115.50000352478
176,216,204326,2,0,P|248:208|280:144,1,115.50000352478
144,280,204600,2,0,P|105:229|131:165,1,115.50000352478
123,344,204872,2,0,P|193:329|213:276,1,115.50000352478
288,152,205145,6,0,B|304:216|304:216|288:272,1,115.50000352478
432,184,205418,2,0,B|440:240|440:240|432:320,1,115.50000352478
280,344,205690,2,0,B|272:288|272:288|287:228,1,115.50000352478
192,296,205963,2,0,B|136:272|136:272|176:248,1,84
280,120,206236,5,0,0:0:0:0:
264,120,206304,1,0,0:0:0:0:
248,120,206372,2,0,P|216:56|224:32,1,68.2499968757631
104,144,206509,5,0,0:0:0:0:
112,160,206577,1,0,0:0:0:0:
112,176,206645,2,0,P|120:216|96:272,1,68.2499968757631
248,344,206781,5,0,0:0:0:0:
240,328,206850,1,0,0:0:0:0:
232,312,206918,2,0,P|248:264|272:232,1,68.2499968757631
392,160,207054,5,0,0:0:0:0:
392,176,207122,1,0,0:0:0:0:
392,192,207190,2,0,P|408:232|392:288,1,68.2499968757631
424,64,207327,5,0,0:0:0:0:
424,48,207395,1,0,0:0:0:0:
424,32,207463,2,0,P|448:0|472:-16,1,68.2499968757631
504,176,207600,5,0,0:0:0:0:
496,192,207668,1,0,0:0:0:0:
480,200,207736,2,0,P|440:208|408:192,1,68.2499968757631
288,72,207872,5,0,0:0:0:0:
280,88,207940,1,0,0:0:0:0:
269,105,208008,2,0,P|245:145|197:152,1,68.2499968757631
288,288,208145,5,0,0:0:0:0:
272,296,208213,1,0,0:0:0:0:
248,296,208281,2,0,P|213:281|184:280,1,68.2499968757631
64,320,208418,5,0,0:0:0:0:
48,312,208486,1,0,0:0:0:0:
48,288,208554,1,0,0:0:0:0:
56,272,208622,1,0,0:0:0:0:
72,248,208690,5,0,0:0:0:0:
96,232,208759,1,0,0:0:0:0:
112,208,208827,1,0,0:0:0:0:
112,184,208895,1,0,0:0:0:0:
96,152,208963,5,0,0:0:0:0:
64,144,209031,1,0,0:0:0:0:
40,168,209100,1,0,0:0:0:0:
48,200,209168,1,0,0:0:0:0:
88,208,209236,5,0,0:0:0:0:
128,192,209304,1,0,0:0:0:0:
160,168,209372,1,0,0:0:0:0:
160,128,209440,1,0,0:0:0:0:
184,112,209509,6,0,B|216:144|216:144|272:152,1,84
384,192,209781,1,0,0:0:0:0:
248,208,209918,2,0,P|232:240|232:208,1,84
336,112,210190,6,0,B|352:168|352:168|384:192,2,94.499997116089
120,208,210599,2,0,P|136:120|208:112,1,146.999995513916
368,216,210871,5,0,0:0:0:0:
176,328,211008,1,0,0:0:0:0:
288,136,211144,1,0,0:0:0:0:
304,352,211280,6,0,B|272:256|272:256|272:200,1,146.999995513916
104,72,211553,2,0,P|72:94|32:104,2,73.4999977569581
328,56,211826,5,0,0:0:0:0:
288,272,211963,1,0,0:0:0:0:
216,64,212099,1,0,0:0:0:0:
376,216,212235,1,0,0:0:0:0:
160,192,212371,6,0,P|224:216|272:152,1,146.999995513916
440,312,212644,6,0,B|400:304|400:304|352:304,5,73.4999977569581
312,208,213053,2,0,B|340:225|340:225|380:225,1,73.4999977569581
392,240,213189,1,0,0:0:0:0:
392,240,213258,1,0,0:0:0:0:
392,240,213326,1,0,0:0:0:0:
280,48,213463,6,0,B|266:93|266:93|272:128,1,73.4999977569581
224,224,213599,1,0,0:0:0:0:
40,104,213735,6,0,B|88:96|88:96|136:112,1,73.4999977569581
208,152,213871,2,0,B|176:168|176:168|120:152,2,73.4999977569581
48,304,214144,5,0,0:0:0:0:
264,304,214280,1,0,0:0:0:0:
264,304,214349,1,0,0:0:0:0:
264,304,214417,6,0,P|280:232|320:272,1,146.999995513916
384,48,214689,6,0,P|432:112|392:144,1,146.999995513916
352,360,214962,1,0,0:0:0:0:
224,248,215099,6,0,P|256:224|296:224,1,57.7500017623902
360,224,215235,2,0,P|392:224|424:208,1,57.7500017623902
400,128,215371,2,0,P|432:104|456:104,1,57.7500017623902
480,72,215508,2,0,P|448:64|408:72,1,62.9999980773926
496,224,215780,6,0,B|464:232|464:232|432:216,1,57.7500017623902
392,144,215917,2,0,B|360:128|360:128|328:136,1,57.7500017623902
328,216,216053,2,0,B|296:224|296:224|264:208,1,57.7500017623902
240,248,216189,2,0,B|272:272|272:272|312:272,1,62.9999980773926
200,128,216462,6,0,P|234:133|280:112,1,57.7500017623902
168,96,216599,2,0,P|208:80|248:80,1,57.7500017623902
144,64,216735,2,0,B|176:64|176:64|224:48,1,57.7500017623902
112,40,216871,2,0,B|131:31|131:31|153:28|153:28|192:16,1,57.7500017623902
216,16,217008,2,0,P|248:40|288:40,1,62.9999980773926
368,184,217280,6,0,B|328:176|328:176|312:160,1,57.7500017623902
248,216,217417,2,0,B|232:184|232:184|200:160,1,57.7500017623902
275,100,217553,2,0,B|280:64|280:64|267:20,1,57.7500017623902
232,64,217689,2,0,B|235:98|235:98|264:136,1,62.9999980773926
463,132,217962,6,0,B|440:152|440:152|402:150,1,57.7500017623902
384,88,218099,2,0,B|400:104|400:104|392:128|392:128|408:152,1,57.7500017623902
340,167,218235,2,0,B|368:168|368:168|402:150,1,57.7500017623902
421,219,218371,2,0,B|408:200|408:200|417:171|417:171|402:150,1,62.9999980773926
360,328,218644,6,0,L|296:330,1,57.7500017623902
240,248,218781,2,0,B|194:189|141:255|147:300|217:320|217:320|248:352|248:352|210:370|197:400|197:400|139:364|119:347|119:347|115:372,1,409.499981254579
296,288,219326,6,0,B|346:223|242:158,1,146.999995513916
96,16,219599,1,0,0:0:0:0:
40,232,219735,1,0,0:0:0:0:
255,166,219871,1,0,0:0:0:0:
320,376,220008,6,0,B|240:360|240:360|176:320,1,146.999995513916
408,328,220280,6,0,B|440:312|440:312|464:272,2,73.4999977569581
312,128,220553,1,0,0:0:0:0:
184,312,220689,1,0,0:0:0:0:
384,208,220826,1,0,0:0:0:0:
168,160,220962,1,0,0:0:0:0:
368,72,221099,6,0,B|320:16|320:16|240:8,1,146.999995513916
312,216,221371,6,0,B|272:208|272:208|224:184,5,73.4999977569581
224,304,221780,2,0,P|224:272|240:232,1,73.4999977569581
256,192,221917,5,0,0:0:0:0:
288,160,221985,1,0,0:0:0:0:
328,144,222053,1,0,0:0:0:0:
448,160,222189,6,0,P|472:120|471:90,1,73.4999977569581
424,192,222326,1,0,0:0:0:0:
264,344,222462,6,0,B|312:328|328:296,1,73.4999977569581
224,352,222598,2,0,B|192:344|192:344|136:352,2,73.4999977569581
440,288,222871,5,0,0:0:0:0:
232,224,223007,1,0,0:0:0:0:
208,208,223076,1,0,0:0:0:0:
176,184,223145,2,0,B|173:235|232:224|232:224|223:175|181:178,1,146.999995513916
176,184,223417,2,0,B|179:133|120:144|120:144|129:193|171:190,1,146.999995513916
376,320,223689,6,0,B|400:320|416:288|416:288|456:304,3,84
320,272,223962,6,0,B|296:288|288:304|288:304|232:296,3,84
320,192,224235,6,0,B|296:184|280:200|280:200|248:168,3,84
368,120,224508,6,0,B|328:120|328:120|256:104,3,84
384,192,224780,6,0,P|424:168|439:116,3,84
317,174,225053,6,0,P|317:210|347:250,3,84
232,104,225326,6,0,B|272:112|272:112|294:67,3,84
400,128,225599,6,0,B|363:114|363:114|392:56,3,84
384,200,225871,5,0,0:0:0:0:
384,200,225939,1,0,0:0:0:0:
384,200,226008,1,0,0:0:0:0:
144,272,226144,5,0,0:0:0:0:
144,272,226212,1,0,0:0:0:0:
144,272,226280,1,0,0:0:0:0:
392,296,226417,5,0,0:0:0:0:
392,296,226485,1,0,0:0:0:0:
392,296,226553,1,0,0:0:0:0:
160,192,226689,5,0,0:0:0:0:
160,192,226758,1,0,0:0:0:0:
160,192,226826,1,0,0:0:0:0:
384,80,226962,5,0,0:0:0:0:
384,136,227030,1,0,0:0:0:0:
416,184,227099,1,0,0:0:0:0:
448,232,227167,1,0,0:0:0:0:
424,288,227235,5,0,0:0:0:0:
368,288,227303,1,0,0:0:0:0:
320,256,227371,1,0,0:0:0:0:
264,272,227439,1,0,0:0:0:0:
264,328,227508,5,0,0:0:0:0:
312,360,227576,1,0,0:0:0:0:
368,336,227644,1,0,0:0:0:0:
376,280,227712,1,0,0:0:0:0:
352,224,227781,2,0,L|344:128,1,84
296,104,227917,2,0,L|304:192,1,84
216,120,228054,6,0,P|244:38|299:19,1,146.999995513916
128,160,228326,1,0,0:0:0:0:
336,232,228462,1,0,0:0:0:0:
295,19,228598,1,0,0:0:0:0:
336,232,228735,6,0,B|256:192|256:192|192:176,1,146.999995513916
56,344,229007,6,0,P|88:328|112:288,2,73.4999977569581
200,178,229280,1,0,0:0:0:0:
320,360,229416,1,0,0:0:0:0:
304,136,229553,1,0,0:0:0:0:
200,328,229689,1,0,0:0:0:0:
408,256,229826,6,0,B|368:288|328:280|328:280|320:240|288:216,1,146.999995513916
488,112,230098,6,0,B|456:88|456:88|400:80,5,73.4999977569581
352,168,230508,2,0,P|352:136|368:96,1,73.4999977569581
400,80,230644,5,0,0:0:0:0:
440,88,230712,1,0,0:0:0:0:
480,104,230780,1,0,0:0:0:0:
400,312,230917,6,0,B|400:272|400:272|423:242,1,73.4999977569581
408,352,231053,1,0,0:0:0:0:
272,184,231189,6,0,B|304:160|304:160|344:160,1,73.4999977569581
288,256,231325,2,0,B|256:280|256:280|220:267,2,73.4999977569581
96,144,231598,5,0,0:0:0:0:
176,352,231734,1,0,0:0:0:0:
192,312,231803,1,0,0:0:0:0:
216,264,231872,2,0,B|200:328|168:368|168:368|224:344,1,146.999995513916
264,144,232145,2,0,B|280:80|304:48|304:48|272:48|248:72,1,146.999995513916
432,200,232417,1,0,0:0:0:0:
432,24,232553,6,0,P|432:0|440:24,1,57.7500017623902
432,104,232689,2,0,P|452:116|428:110,1,57.7500017623902
368,64,232826,2,0,P|347:75|363:57,1,57.7500017623902
312,48,232962,2,0,P|345:15|392:9,1,94.499997116089
464,64,233235,6,0,L|424:8,1,57.7500017623902
376,80,233371,2,0,L|442:87,1,57.7500017623902
384,16,233508,2,0,L|352:64,1,57.7500017623902
360,112,233644,2,0,B|392:152|392:152|416:200,1,94.499997116089
328,224,233917,6,0,B|336:192|336:192|360:184,1,57.7500017623902
328,224,234053,2,0,B|328:264|328:264|288:296,1,57.7500017623902
328,224,234189,2,0,B|368:224|368:224|384:248,1,57.7500017623902
320,224,234326,2,0,B|280:224|280:224|264:192,1,57.7500017623902
224,192,234462,2,0,B|192:216|192:216|168:216|168:216|136:240,1,94.499997116089
80,176,234735,6,0,L|120:120,1,57.7500017623902
56,64,234871,2,0,L|120:32,1,57.7500017623902
184,88,235008,2,0,L|264:80,1,57.7500017623902
288,80,235144,2,0,B|232:84|232:84|243:105|240:128,1,94.499997116089
233,333,235417,6,0,L|256:280,1,57.7500017623902
288,200,235553,2,0,L|304:264,1,57.7500017623902
384,296,235689,2,0,L|340:258,1,57.7500017623902
368,216,235826,2,0,L|448:272,1,94.499997116089
448,184,236099,6,0,P|451:140|480:112,1,57.7500017623902
352,120,236235,6,0,P|384:-32|318:107,1,409.499981254579
72,168,236780,6,0,P|16:152|-16:232,1,157.500006008148
216,256,237053,6,0,P|208:208|176:176,1,78.7500030040742
72,168,237189,1,0,0:0:0:0:
256,24,237326,1,0,0:0:0:0:
344,240,237462,6,0,B|360:200|360:200|392:176,1,78.7500030040742
264,188,237599,1,0,0:0:0:0:
152,120,237735,2,0,B|64:80|64:80|24:24,1,157.500006008148
96,256,238008,1,0,0:0:0:0:
248,80,238144,1,0,0:0:0:0:
168,304,238280,6,0,B|200:304|200:304|216:288|216:288|248:304|248:304|304:248,1,157.500006008148
360,160,238485,2,0,B|320:176|320:176|264:144,1,78.7500030040742
216,120,238621,1,0,0:0:0:0:
216,120,238690,2,0,L|144:88,1,78.7500030040742
224,40,238826,2,0,L|304:80,1,78.7500030040742
176,48,238962,5,0,0:0:0:0:
64,256,239099,2,0,B|56:216|40:184|40:184|32:152|48:104,1,157.500006008148
272,176,239371,1,0,0:0:0:0:
96,336,239508,1,0,0:0:0:0:
328,304,239644,6,0,P|344:264|384:232,1,78.7500030040742
400,128,239780,1,0,0:0:0:0:
184,232,239917,2,0,B|190:265|206:305|206:305|222:273|254:241,1,157.500006008148
112,56,240189,1,0,0:0:0:0:
296,208,240326,5,0,0:0:0:0:
112,360,240463,6,0,B|144:320|144:320|160:280,1,78.7500030040742
272,264,240599,1,0,0:0:0:0:
256,32,240735,2,0,B|248:72|248:72|208:112,1,78.7500030040742
216,216,240871,1,0,0:0:0:0:
432,312,241008,6,0,B|400:280|400:280|384:224,1,78.7500030040742
296,216,241144,6,0,P|328:136|392:104,1,136.499993751526
168,144,241417,2,0,P|136:224|72:256,1,136.499993751526
288,320,241689,2,0,P|386:278|424:288,1,136.499993751526
368,80,241962,2,0,P|253:129|232:128,1,136.499993751526
216,336,242235,6,0,B|192:264|192:264|128:240,1,136.499993751526
160,40,242508,2,0,B|184:112|184:112|240:144,1,136.499993751526
408,248,242780,2,0,B|352:296|352:296|280:280,1,136.499993751526
280,80,243053,2,0,B|336:32|336:32|404:52,1,136.499993751526
288,288,243326,5,0,0:0:0:0:
280,240,243394,1,0,0:0:0:0:
248,200,243462,1,0,0:0:0:0:
200,184,243530,1,0,0:0:0:0:
168,208,243599,5,0,0:0:0:0:
144,240,243667,1,0,0:0:0:0:
120,272,243735,1,0,0:0:0:0:
80,272,243803,1,0,0:0:0:0:
56,248,243871,5,0,0:0:0:0:
64,216,243939,1,0,0:0:0:0:
56,192,244008,1,0,0:0:0:0:
24,176,244076,1,0,0:0:0:0:
8,152,244144,5,0,0:0:0:0:
24,128,244212,1,0,0:0:0:0:
48,112,244280,1,0,0:0:0:0:
72,112,244349,1,0,0:0:0:0:
88,120,244417,5,0,0:0:0:0:
106,116,244485,1,0,0:0:0:0:
120,104,244553,1,0,0:0:0:0:
136,88,244621,1,0,0:0:0:0:
144,80,244689,5,0,0:0:0:0:
152,72,244758,1,0,0:0:0:0:
168,64,244826,1,0,0:0:0:0:
256,192,244895,12,0,245491,0:0:0:0:
351,10,245508,6,0,B|416:40|416:40|432:88|432:88|512:128,1,178.500003404617
296,352,245781,2,0,L|224:296,1,89.2500017023087
136,176,245917,1,0,0:0:0:0:
136,176,245985,1,0,0:0:0:0:
136,176,246054,1,0,0:0:0:0:
432,256,246190,6,0,B|408:120|408:120|392:168|392:168,1,178.500003404617
128,8,246463,2,0,P|112:104|16:80,1,178.500003404617
296,272,246735,2,0,L|176:288,1,89.2500017023087
280,152,246872,2,0,B|256:145|256:145|224:168|224:168|180:138|180:138|152:176|88:184,1,178.500003404617
432,208,247145,1,0,0:0:0:0:
160,48,247281,2,0,L|120:148,1,89.2500017023087
80,328,247417,6,0,B|124:380|168:316|168:316|184:376|249:372,1,210
344,232,247690,2,0,P|280:280|216:296,1,115.50000352478
152,96,247963,6,0,B|216:48|216:48|320:24,1,168
400,296,248235,1,0,0:0:0:0:
400,296,248304,1,0,0:0:0:0:
400,296,248372,2,0,L|496:280,1,84
352,224,248508,2,0,B|272:232|272:232|184:344,1,168
344,48,248781,6,0,B|392:88|448:56|448:56|464:16|496:16,1,168
208,304,249054,1,0,0:0:0:0:
488,204,249190,1,0,0:0:0:0:
152,136,249326,2,0,L|208:112,1,42
312,48,249531,2,0,L|304:104,1,42
312,232,249735,2,0,L|280:176,1,42
408,112,249872,6,0,B|421:158|464:184|464:184|432:224|376:224,1,168
112,200,250145,2,0,P|112:128|176:48,1,168
304,32,250349,1,0,0:0:0:0:
448,32,250417,2,0,P|456:120|448:136,1,84
368,224,250554,2,0,P|341:160|393:81,1,168
104,112,250826,6,0,B|125:72|144:0|144:0|155:40|152:96,1,168
120,336,251099,2,0,L|200:296,1,84
320,224,251235,2,0,P|360:200|400:160,1,84
416,32,251372,2,0,B|352:104|352:104|327:132|288:152,1,168
24,24,251645,2,0,P|68:48|88:80,1,84
160,168,251781,6,0,P|128:104|72:64,1,115.50000352478
260,180,252054,2,0,L|324:132,1,57.7500017623902
312,296,252190,2,0,L|252:252,1,57.7500017623902
384,180,252326,2,0,L|376:260,1,57.7500017623902
256,140,252463,2,0,L|209:174,1,57.7500017623902
188,24,252599,6,0,L|234:58,1,57.7500017623902
116,144,252735,2,0,L|121:86,1,57.7500017623902
128,236,252872,2,0,L|128:316,1,57.7500017623902
228,216,253008,2,0,L|220:128,1,57.7500017623902
324,296,253145,6,0,L|308:356,1,57.7500017623902
384,164,253281,2,0,L|352:100,1,57.7500017623902
488,312,253417,2,0,L|508:392,1,57.7500017623902
488,120,253554,2,0,L|460:48,1,57.7500017623902
176,240,253690,6,0,B|192:200|232:184|232:184|216:160|216:96,2,168
400,56,254099,1,0,0:0:0:0:
296,200,254235,6,0,B|264:208|264:208|218:190|218:190|208:208|173:213,1,105
464,96,254508,6,0,B|480:136|480:136|456:224|456:224|392:256,1,168
184,80,254781,1,0,0:0:0:0:
184,80,254849,1,0,0:0:0:0:
184,80,254917,2,0,L|288:72,1,84
392,144,255054,2,0,L|192:160,1,168
32,368,255326,1,0,0:0:0:0:
72,88,255463,1,0,0:0:0:0:
320,232,255599,6,0,B|272:248|223:231|223:231|152:256,1,168
376,64,255872,1,0,0:0:0:0:
384,352,256008,1,0,0:0:0:0:
200,216,256145,2,0,L|336:152,1,136.499993751526
376,136,256417,6,0,B|336:144|320:184|320:184|280:168|280:168|280:196|232:248|232:248,1,168
0,72,256690,2,0,B|64:0|64:0|168:8,1,168
48,280,256963,1,0,0:0:0:0:
48,280,257031,1,0,0:0:0:0:
48,280,257099,2,0,P|96:208|104:168,1,84
216,136,257235,1,0,0:0:0:0:
496,64,257372,6,0,P|480:160|424:216,1,168
208,40,257645,1,0,0:0:0:0:
360,280,257781,1,0,0:0:0:0:
80,224,257917,1,0,0:0:0:0:
288,272,258054,2,0,L|208:256,1,62.9999980773926
168,168,258190,2,0,L|240:184,1,62.9999980773926
368,224,258326,6,0,B|325:195|336:136|336:136|240:104|240:104,1,168
8,0,258599,1,0,0:0:0:0:
72,280,258735,1,0,0:0:0:0:
192,24,258872,2,0,L|280:8,2,84
240,304,259145,1,0,0:0:0:0:
32,112,259281,1,0,0:0:0:0:
320,128,259417,5,0,0:0:0:0:
344,152,259485,1,0,0:0:0:0:
352,192,259554,1,0,0:0:0:0:
120,32,259690,1,0,0:0:0:0:
120,320,259826,1,0,0:0:0:0:
280,80,259963,2,0,B|320:56|320:56|344:8,2,84
408,336,260235,5,0,0:0:0:0:
136,232,260372,1,0,0:0:0:0:
408,144,260508,1,0,0:0:0:0:
400,88,260576,1,0,0:0:0:0:
352,56,260645,1,0,0:0:0:0:
64,24,260781,5,0,0:0:0:0:
40,80,260849,1,0,0:0:0:0:
48,136,260917,1,0,0:0:0:0:
64,192,260985,1,0,0:0:0:0:
96,240,261054,1,0,0:0:0:0:
136,280,261122,5,0,0:0:0:0:
152,336,261190,1,0,0:0:0:0:
112,376,261258,1,0,0:0:0:0:
56,352,261326,1,0,0:0:0:0:
56,296,261395,1,0,0:0:0:0:
104,264,261463,5,0,0:0:0:0:
152,232,261531,1,0,0:0:0:0:
208,256,261599,1,0,0:0:0:0:
256,288,261667,1,0,0:0:0:0:
312,264,261735,1,0,0:0:0:0:
320,208,261804,1,0,0:0:0:0:
256,192,261872,6,0,P|132:220|256:184,1,393.75
256,192,261940,6,0,P|268:60|272:192,1,393.75
256,192,262008,6,0,P|388:216|264:216,1,393.75
256,192,262076,6,0,P|300:308|240:232,1,393.75
256,192,262145,6,0,P|160:220|248:184,1,311.718738852069
256,192,262213,6,0,P|196:120|264:176,1,251.893932114401
256,192,262281,6,0,P|264:128|272:168,1,211.33475145606
256,192,262349,6,0,P|312:152|288:192,1,182.025551668932
256,192,262417,6,0,P|332:192|296:224,1,159.855772488255
256,192,262485,6,0,P|288:256|232:248,1,142.500002588545
256,192,262554,6,0,B|216:184|200:152|200:152|156:156|156:156|144:132|88:112,1,171.391755385772
104,48,262690,6,0,B|176:56|176:56|296:32,1,159.983967380501
480,48,262963,6,0,B|456:112|456:112|448:176,1,125.999996154785
376,368,263235,1,0,0:0:0:0:
256,192,263372,1,0,0:0:0:0:
440,304,263508,6,0,B|432:264|432:232|432:232|376:200,1,125.999996154785
232,352,263781,1,0,0:0:0:0:
328,160,263917,1,0,0:0:0:0:
112,184,264054,6,0,B|79:146|48:144|48:144|16:96,1,125.999996154785
80,312,264326,1,0,0:0:0:0:
80,312,264395,1,0,0:0:0:0:
80,312,264463,1,0,0:0:0:0:
144,112,264599,6,0,P|184:168|176:224,1,125.999996154785
352,344,264872,1,0,0:0:0:0:
272,144,265008,1,0,0:0:0:0:
248,360,265145,6,0,B|280:344|280:344|288:280|352:272,1,125.999996154785
144,184,265417,1,0,0:0:0:0:
248,360,265554,1,0,0:0:0:0:
216,152,265690,6,0,P|176:112|97:120,1,125.999996154785
312,40,265963,1,0,0:0:0:0:
109,112,266099,1,0,0:0:0:0:
264,152,266235,6,0,B|256:88|256:88|256:152,1,94.499997116089
224,272,266508,5,0,0:0:0:0:
272,288,266576,1,0,0:0:0:0:
320,288,266644,5,0,0:0:0:0:
360,256,266712,1,0,0:0:0:0:
368,208,266780,5,0,0:0:0:0:
336,168,266848,1,0,0:0:0:0:
320,120,266917,5,0,0:0:0:0:
344,72,266985,1,0,0:0:0:0:
392,56,267053,5,0,0:0:0:0:
440,80,267121,1,0,0:0:0:0:
448,128,267189,5,0,0:0:0:0:
432,176,267258,1,0,0:0:0:0:
368,208,267326,2,0,P|328:152|320:112,1,94.499997116089
96,88,267599,6,0,B|104:128|136:144|136:144|72:200,1,136.499993751526
312,256,267872,1,0,0:0:0:0:
104,360,268008,1,0,0:0:0:0:
240,168,268145,2,0,P|208:144|264:152,1,136.499993751526
56,40,268417,1,0,0:0:0:0:
128,264,268554,1,0,0:0:0:0:
248,64,268690,5,0,0:0:0:0:
272,112,268758,1,0,0:0:0:0:
328,128,268826,1,0,0:0:0:0:
208,328,268963,5,0,0:0:0:0:
416,224,269099,1,0,0:0:0:0:
248,64,269235,6,0,P|272:112|354:127,1,136.499993751526
96,104,269508,6,0,P|96:40|16:56,1,146.999995513916
200,272,269781,6,0,B|176:315|192:352,1,84
200,272,269917,2,0,B|248:264|272:232,1,84
200,272,270054,2,0,B|160:240|112:248,1,84
208,136,270190,6,0,P|216:104|216:136,1,84
328,232,270326,6,0,P|312:208|320:232,1,84
344,88,270463,6,0,P|328:56|336:88,1,84
162,12,270599,6,0,P|198:15|184:48,1,84
80,128,270735,6,0,P|64:80|72:128,1,84
119,202,270872,2,0,P|146:229|120:256,2,84
344,344,271145,6,0,P|368:280|440:288,1,146.999995513916
392,40,271417,5,0,0:0:0:0:
328,64,271485,1,0,0:0:0:0:
280,112,271554,1,0,0:0:0:0:
256,176,271622,1,0,0:0:0:0:
256,176,271690,2,0,B|272:112|272:112|328:64|328:64|392:40,1,168
440,288,271963,6,0,B|392:328|392:328|304:304,1,146.999995513916
354,54,272235,1,0,0:0:0:0:
310,305,272372,1,0,0:0:0:0:
72,240,272508,6,0,B|128:264|152:232|152:232|128:200|168:152,1,146.999995513916
376,64,272781,1,0,0:0:0:0:
128,40,272917,1,0,0:0:0:0:
328,192,273054,5,0,0:0:0:0:
280,152,273122,5,0,0:0:0:0:
264,88,273190,5,0,0:0:0:0:
424,280,273326,1,0,0:0:0:0:
320,48,273463,1,0,0:0:0:0:
72,48,273599,6,0,B|112:64|112:96|112:96|192:88,1,146.999995513916
280,320,273872,1,0,0:0:0:0:
392,96,274008,1,0,0:0:0:0:
192,240,274145,6,0,B|200:216|184:192|184:192|184:272|152:344,1,146.999995513916
400,192,274417,1,0,0:0:0:0:
168,104,274554,1,0,0:0:0:0:
200,352,274690,6,0,P|131:349|103:274,1,146.999995513916
408,312,274963,6,0,B|376:312|376:312|360:288|360:288|328:288|328:288|303:262|303:262|248:264,1,178.500003404617
464,48,275235,6,0,B|505:70|507:121|507:121,6,89.2500017023087
392,232,275781,6,0,B|408:272|408:272|384:352,1,115.50000352478
336,96,276054,2,0,P|256:96|168:48,1,146.999995513916
72,288,276326,1,0,0:0:0:0:
80,40,276463,1,0,0:0:0:0:
336,312,276667,6,0,P|383:294|416:272,2,73.4999977569581
416,216,276872,1,0,0:0:0:0:
120,80,277145,2,0,P|96:152|128:240,1,146.999995513916
296,48,277417,1,0,0:0:0:0:
360,288,277554,1,0,0:0:0:0:
24,120,277758,6,0,B|32:88|32:88|88:32,2,73.4999977569581
136,40,277963,1,0,0:0:0:0:
512,352,278235,2,0,B|432:352|432:352|336:368,1,146.999995513916
304,344,278440,1,0,0:0:0:0:
256,296,278508,1,0,0:0:0:0:
78,118,278645,5,0,0:0:0:0:
328,80,278781,1,0,0:0:0:0:
112,200,278917,1,0,0:0:0:0:
288,16,279054,1,0,0:0:0:0:
184,240,279190,1,0,0:0:0:0:
408,136,279326,5,0,0:0:0:0:
400,200,279395,1,0,0:0:0:0:
408,264,279463,1,0,0:0:0:0:
368,320,279531,1,0,0:0:0:0:
304,344,279599,5,0,0:0:0:0:
240,328,279667,1,0,0:0:0:0:
208,272,279735,1,0,0:0:0:0:
248,216,279804,1,0,0:0:0:0:
192,160,279872,6,0,P|192:112|200:160,12,131.25
256,56,280145,2,0,P|158:46|109:182,1,262.5
150,248,280417,6,0,P|61:245|24:164,1,188.999994232178
328,288,280826,2,0,P|352:232|336:172,1,115.50000352478
184,80,281099,1,0,0:0:0:0:
341,180,281235,2,0,P|417:208|449:192,2,115.50000352478
248,16,281644,1,0,0:0:0:0:
128,160,281781,5,0,0:0:0:0:
128,160,281849,1,0,0:0:0:0:
128,160,281917,2,0,B|100:100|100:100|104:40,1,115.50000352478
72,232,282190,1,0,0:0:0:0:
240,304,282326,1,0,0:0:0:0:
224,120,282463,1,0,0:0:0:0:
376,136,282599,6,0,B|348:120|324:118|324:118|314:62|314:62|256:32|208:32,1,188.999994232178
336,200,283008,2,0,P|414:205|443:171,1,115.50000352478
264,112,283281,1,0,0:0:0:0:
312,288,283417,2,0,B|269:278|252:268|252:268|192:288,2,115.50000352478
168,168,283826,1,0,0:0:0:0:
352,192,283963,5,0,0:0:0:0:
352,192,284031,1,0,0:0:0:0:
352,192,284099,2,0,B|392:136|392:136|400:80,1,115.50000352478
232,8,284372,1,0,0:0:0:0:
101,138,284508,1,0,0:0:0:0:
231,268,284644,1,0,0:0:0:0:
233,117,284781,6,0,B|205:77|205:77|165:113|121:93|121:93|97:145,1,188.999994232178
288,168,285190,2,0,P|310:122|281:53,1,115.50000352478
384,224,285463,1,0,0:0:0:0:
233,117,285599,2,0,B|208:143|208:143|120:144,2,115.50000352478
416,128,286008,1,0,0:0:0:0:
256,216,286144,5,0,0:0:0:0:
256,216,286212,1,0,0:0:0:0:
256,216,286280,2,0,B|208:160|208:160|232:112,1,115.50000352478
40,120,286553,1,0,0:0:0:0:
168,256,286690,1,0,0:0:0:0:
64,104,286826,1,0,0:0:0:0:
144,232,286963,6,0,B|100:256|74:183|74:183|25:204|-14:168,1,188.999994232178
112,312,287372,2,0,P|176:304|216:264,1,115.50000352478
80,144,287644,1,0,0:0:0:0:
256,208,287781,2,0,P|290:259|272:320,2,115.50000352478
136,64,288190,1,0,0:0:0:0:
312,120,288326,5,0,0:0:0:0:
312,120,288394,1,0,0:0:0:0:
312,120,288463,2,0,B|328:176|328:176|352:208|360:240,1,115.50000352478
168,208,288735,1,0,0:0:0:0:
328,304,288872,1,0,0:0:0:0:
152,368,289008,1,0,0:0:0:0:
234,252,289145,6,0,P|242:156|146:132,1,188.999994232178
188,308,289553,2,0,P|232:328|296:288,1,115.50000352478
108,268,289826,1,0,0:0:0:0:
220,120,289963,2,0,P|240:92|224:120,2,115.50000352478
108,268,290372,1,0,0:0:0:0:
220,120,290508,5,0,0:0:0:0:
220,120,290576,1,0,0:0:0:0:
220,120,290644,2,0,P|220:80|211:119,1,115.50000352478
28,156,290917,1,0,0:0:0:0:
184,252,291053,1,0,0:0:0:0:
124,76,291190,1,0,0:0:0:0:
100,224,291326,2,0,B|70:178|120:137|120:137|166:186|112:232,1,188.999994232178
300,152,291735,6,0,B|280:132|288:96|288:96|324:111|316:144,1,115.50000352478
376,312,292008,1,0,0:0:0:0:
192,312,292144,2,0,B|233:265|233:265|264:200,2,115.50000352478
88,156,292553,1,0,0:0:0:0:
260,228,292690,5,0,0:0:0:0:
260,228,292758,1,0,0:0:0:0:
260,228,292826,2,0,B|204:200|204:200|160:148,1,115.50000352478
352,188,293099,1,0,0:0:0:0:
260,28,293235,1,0,0:0:0:0:
84,88,293372,1,0,0:0:0:0:
200,184,293508,6,0,P|112:172|88:76,1,188.999994232178
144,264,293917,2,0,P|208:268|260:228,1,115.50000352478
64,224,294190,1,0,0:0:0:0:
192,92,294326,2,0,B|160:76|132:88|132:88|136:112|128:152,2,115.50000352478
352,188,294735,1,0,0:0:0:0:
224,324,294872,6,0,B|260:328|288:320|288:320|272:292|288:265,2,115.50000352478
172,144,295281,1,0,0:0:0:0:
44,276,295417,1,0,0:0:0:0:
220,324,295553,1,0,0:0:0:0:
368,160,295690,2,0,P|373:118|424:80,7,68.2499968757631
308,60,296235,2,0,P|280:71|236:64,3,68.2499968757631
232,176,296508,5,0,0:0:0:0:
272,212,296576,1,0,0:0:0:0:
328,208,296645,1,0,0:0:0:0:
368,172,296713,1,0,0:0:0:0:
364,116,296781,1,0,0:0:0:0:
384,64,296849,1,0,0:0:0:0:
432,40,296917,1,0,0:0:0:0:
484,60,296985,5,0,0:0:0:0:
508,108,297054,1,0,0:0:0:0:
472,148,297122,1,0,0:0:0:0:
420,140,297190,1,0,0:0:0:0:
364,116,297258,1,0,0:0:0:0:
320,84,297326,1,0,0:0:0:0:
280,44,297395,1,0,0:0:0:0:
228,52,297463,5,0,0:0:0:0:
200,100,297531,1,0,0:0:0:0:
220,152,297599,1,0,0:0:0:0:
276,156,297667,1,0,0:0:0:0:
312,116,297735,1,0,0:0:0:0:
296,64,297804,1,0,0:0:0:0:
248,40,297872,6,0,B|196:0|196:0|144:0|144:0|96:40|96:40|64:24|-16:56,1,272.999987503052
136,208,298281,6,0,P|100:144|12:148,1,136.499993751526
92,332,298554,1,0,0:0:0:0:
240,192,298690,1,0,0:0:0:0:
324,380,298826,1,0,0:0:0:0:
160,256,298963,1,0,0:0:0:0:
364,264,299099,5,0,0:0:0:0:
216,372,299235,1,0,0:0:0:0:
356,220,299372,1,0,0:0:0:0:
212,76,299508,1,0,0:0:0:0:
400,160,299645,1,0,0:0:0:0:
216,68,299781,1,0,0:0:0:0:
404,152,299917,5,0,0:0:0:0:
204,204,300054,2,0,P|276:268|140:324,1,272.999987503052
168,140,300463,2,0,P|96:108|104:4,1,136.499993751526
284,72,300735,1,0,0:0:0:0:
352,268,300872,1,0,0:0:0:0:
152,228,301008,1,0,0:0:0:0:
356,248,301145,1,0,0:0:0:0:
268,64,301281,5,0,0:0:0:0:
164,240,301417,1,0,0:0:0:0:
336,128,301553,1,0,0:0:0:0:
136,80,301690,1,0,0:0:0:0:
332,136,301826,1,0,0:0:0:0:
140,64,301962,1,0,0:0:0:0:
328,148,302099,1,0,0:0:0:0:
259,340,302235,6,0,B|210:393|139:341|175:259|238:282|238:282|184:256|152:203,1,272.999987503052
380,260,302645,6,0,P|340:328|340:412,1,136.499993751526
428,200,302917,1,0,0:0:0:0:
240,284,303054,1,0,0:0:0:0:
95,139,303190,1,0,0:0:0:0:
299,139,303326,1,0,0:0:0:0:
116,44,303463,1,0,0:0:0:0:
244,200,303599,1,0,0:0:0:0:
180,8,303735,5,0,0:0:0:0:
220,208,303872,1,0,0:0:0:0:
200,4,304008,1,0,0:0:0:0:
204,208,304145,1,0,0:0:0:0:
216,4,304281,1,0,0:0:0:0:
96,172,304417,6,0,B|179:175|188:272|79:264|68:229|68:229|97:267|92:331,1,272.999987503052
292,348,304826,6,0,B|216:336|216:336|144:344,1,136.499993751526
328,232,305099,1,0,0:0:0:0:
164,112,305235,1,0,0:0:0:0:
359,47,305372,1,0,0:0:0:0:
168,116,305508,1,0,0:0:0:0:
332,240,305645,1,0,0:0:0:0:
368,40,305781,5,0,0:0:0:0:
464,220,305917,1,0,0:0:0:0:
284,120,306054,1,0,0:0:0:0:
468,212,306190,1,0,0:0:0:0:
280,132,306326,1,0,0:0:0:0:
472,204,306463,1,0,0:0:0:0:
316,72,306599,6,0,B|348:64|348:64|404:80,5,68.2499968757631
328,164,307008,2,0,B|284:172|284:172|232:164,5,68.2499968757631
172,116,307417,2,0,P|128:36|92:104,1,204.749990627289
44,192,307690,6,0,B|66:227|66:227|60:280,5,68.2499968757631
116,164,308099,2,0,B|96:128|96:128|100:76,5,68.2499968757631
184,44,308508,2,0,P|200:132|304:204,1,204.749990627289
336,108,308781,6,0,B|308:76|308:76|264:52,5,68.2499968757631
288,168,309190,2,0,B|252:192|252:192|232:232,5,68.2499968757631
332,264,309599,6,0,B|292:272|292:272|252:264,5,68.2499968757631
196,344,310008,2,0,B|228:316|228:316|236:272,3,68.2499968757631
264,192,310281,6,0,B|284:220|284:220|296:272,5,68.2499968757631
368,324,310690,2,0,P|344:356|296:380,3,68.2499968757631
120,256,310963,102,0,B|120:208|120:208|172:157|190:100|190:43|190:43|198:245|346:127|396:320|274:385|167:352|151:213|276:160|276:160|348:156|404:98|429:27|390:-75|234:-51|202:44|253:170|362:70|388:262|388:262|386:209|385:154|458:99|565:125|575:208|542:247|498:254|472:240,1,1690.49994841004,2|0,0:0|0:0,0:0:0:0:
336,348,314235,6,0,L|336:372,52,17.0624992189408
256,192,315326,12,0,322963,0:0:0:0:
