osu file format v14

[General]
AudioFilename: audio.mp3
AudioLeadIn: 0
PreviewTime: 239105
Countdown: 0
SampleSet: Soft
StackLeniency: 0.7
Mode: 3
LetterboxInBreaks: 0
SpecialStyle: 0
WidescreenStoryboard: 1

[Editor]
Bookmarks: 42164,47811,70399,87340,115576,138164,143811,149458,160752,172046,183340,205929,217223,234164,262399
DistanceSpacing: 0.8
BeatDivisor: 12
GridSize: 16
TimelineZoom: 2.2

[Metadata]
Title:Jingle (Metal Arrange / Cover)
TitleUnicode:Jingle (Metal Arrange / Cover)
Artist:Camellia
ArtistUnicode:かめりあ
Creator:_underjoy
Version:Soultune
Source:
Tags:summary vip 02 jumpstream ln cametek dj noriken fa featured artist rock japanese bonus track #from_ten_wonderland from ten wonderland
BeatmapID:2154148
BeatmapSetID:1030201

[Difficulty]
HPDrainRate:8.5
CircleSize:4
OverallDifficulty:8.3
ApproachRate:5
SliderMultiplier:1.4
SliderTickRate:1

[Events]
//Background and Video events
0,0,"thumb-1920-593483.jpg",0,0
//Break Periods
//Storyboard Layer 0 (Background)
//Storyboard Layer 1 (Fail)
//Storyboard Layer 2 (Pass)
//Storyboard Layer 3 (Foreground)
//Storyboard Layer 4 (Overlay)
//Storyboard Sound Samples

[TimingPoints]
2635,352.941176470588,4,2,1,35,1,0
44987,-133.333333333333,4,2,1,35,0,0
46929,-100,4,2,1,35,0,0
47811,-31.25,4,2,1,35,0,0
47899,-222.222222222222,4,2,1,35,0,0
48164,-100,4,2,1,35,0,0
48340,-31.25,4,2,1,35,0,0
48428,-222.222222222222,4,2,1,35,0,0
48693,-100,4,2,1,35,0,0
49223,-31.25,4,2,1,35,0,0
49311,-222.222222222222,4,2,1,35,0,0
49576,-100,4,2,1,35,0,0
49752,-31.25,4,2,1,35,0,0
49840,-222.222222222222,4,2,1,35,0,0
50105,-100,4,2,1,35,0,0
50634,-31.25,4,2,1,35,0,0
50722,-222.222222222222,4,2,1,35,0,0
50987,-100,4,2,1,35,0,0
51163,-31.25,4,2,1,35,0,0
51251,-222.222222222222,4,2,1,35,0,0
51517,-100,4,2,1,35,0,0
52046,-31.25,4,2,1,35,0,0
52134,-222.222222222222,4,2,1,35,0,0
52399,-100,4,2,1,35,0,0
52575,-31.25,4,2,1,35,0,0
52663,-222.222222222222,4,2,1,35,0,0
52929,-100,4,2,1,35,0,0
53458,-31.25,4,2,1,35,0,0
53546,-222.222222222222,4,2,1,35,0,0
53811,-100,4,2,1,35,0,0
53987,-31.25,4,2,1,35,0,0
54075,-222.222222222222,4,2,1,35,0,0
54340,-100,4,2,1,35,0,0
54870,-31.25,4,2,1,35,0,0
54958,-222.222222222222,4,2,1,35,0,0
55223,-100,4,2,1,35,0,0
55399,-31.25,4,2,1,35,0,0
55487,-222.222222222222,4,2,1,35,0,0
55752,-100,4,2,1,35,0,0
56282,-31.25,4,2,1,35,0,0
56370,-222.222222222222,4,2,1,35,0,0
56635,-100,4,2,1,35,0,0
56811,-31.25,4,2,1,35,0,0
56899,-222.222222222222,4,2,1,35,0,0
57164,-100,4,2,1,35,0,0
58752,-41.6666666666667,4,2,1,35,0,0
58840,-153.846153846154,4,2,1,35,0,0
59105,-31.25,4,2,1,35,0,0
59193,-222.222222222222,4,2,1,35,0,0
59458,-100,4,2,1,35,0,0
59634,-31.25,4,2,1,35,0,0
59722,-222.222222222222,4,2,1,35,0,0
59987,-100,4,2,1,35,0,0
60517,-31.25,4,2,1,35,0,0
60605,-222.222222222222,4,2,1,35,0,0
60870,-100,4,2,1,35,0,0
61046,-31.25,4,2,1,35,0,0
61134,-222.222222222222,4,2,1,35,0,0
61399,-100,4,2,1,35,0,0
61576,-66.6666666666667,4,2,1,35,0,0
61620,-133.333333333333,4,2,1,35,0,0
61752,-66.6666666666667,4,2,1,35,0,0
61796,-133.333333333333,4,2,1,35,0,0
61928,-31.25,4,2,1,35,0,0
62016,-222.222222222222,4,2,1,35,0,0
62281,-100,4,2,1,35,0,0
62457,-31.25,4,2,1,35,0,0
62502,-132.450331125828,4,2,1,35,0,0
62811,-100,4,2,1,35,0,0
63340,-31.25,4,2,1,35,0,0
63428,-222.222222222222,4,2,1,35,0,0
63693,-100,4,2,1,35,0,0
63869,-31.25,4,2,1,35,0,0
63899,-131.578947368421,4,2,1,35,0,0
64164,-100,4,2,1,35,0,0
64752,-66.6666666666667,4,2,1,35,0,0
64796,-133.333333333333,4,2,1,35,0,0
64840,-100,4,2,1,35,0,0
68987,-200,4,2,1,35,0,0
69164,-153.846153846154,4,2,1,35,0,0
69340,-133.333333333333,4,2,1,35,0,0
69517,-100,4,2,1,35,0,0
70046,-133.333333333333,4,2,1,35,0,0
70399,-100,4,2,1,45,0,0
92634,-285.714285714286,4,2,1,35,0,0
92723,-250,4,2,1,35,0,0
92767,-200,4,2,1,35,0,0
92811,-153.846153846154,4,2,1,35,0,0
92855,-133.333333333333,4,2,1,35,0,0
92899,-50,4,2,1,35,0,0
92943,-400,4,2,1,35,0,0
92987,-100,4,2,1,35,0,1
114164,-100,4,2,1,35,0,0
138164,-117.647058823529,4,2,1,35,0,0
143458,-111.111111111111,4,2,1,35,0,0
143634,-105.263157894737,4,2,1,35,0,0
143811,-100,4,2,1,35,0,0
148223,-133.333333333333,4,2,1,35,0,0
148399,-117.647058823529,4,2,1,35,0,0
148576,-100,4,2,1,35,0,0
181929,-153.846153846154,4,2,1,35,0,0
192517,-142.857142857143,4,2,1,35,0,0
192693,-125,4,2,1,35,0,0
192870,-111.111111111111,4,2,1,35,0,0
193046,-100,4,2,1,35,0,0
193223,-125,4,2,1,35,0,0
193399,-111.111111111111,4,2,1,35,0,0
193576,-100,4,2,1,35,0,0
193752,-125,4,2,1,35,0,0
193929,-111.111111111111,4,2,1,35,0,0
194105,-100,4,2,1,35,0,0
194634,-31.25,4,2,1,35,0,0
194722,-400,4,2,1,35,0,0
194987,-100,4,2,1,35,0,0
195163,-31.25,4,2,1,35,0,0
195251,-222.222222222222,4,2,1,35,0,0
195517,-100,4,2,1,35,0,0
196046,-31.25,4,2,1,35,0,0
196134,-222.222222222222,4,2,1,35,0,0
196399,-100,4,2,1,35,0,0
196575,-31.25,4,2,1,35,0,0
196663,-222.222222222222,4,2,1,35,0,0
196929,-100,4,2,1,35,0,0
197458,-31.25,4,2,1,35,0,0
197546,-222.222222222222,4,2,1,35,0,0
197811,-100,4,2,1,35,0,0
197987,-66.6666666666667,4,2,1,35,0,0
198032,-400,4,2,1,35,0,0
198120,-200,4,2,1,35,0,0
198208,-133.333333333333,4,2,1,35,0,0
198340,-100,4,2,1,35,0,0
198517,-117.647058823529,4,2,1,35,0,0
198870,-100,4,2,1,35,0,0
200282,-31.25,4,2,1,35,0,0
200370,-222.222222222222,4,2,1,35,0,0
200635,-100,4,2,1,35,0,0
200811,-31.25,4,2,1,35,0,0
200899,-222.222222222222,4,2,1,35,0,0
201164,-100,4,2,1,35,0,0
201694,-31.25,4,2,1,35,0,0
201782,-222.222222222222,4,2,1,35,0,0
202047,-100,4,2,1,35,0,0
202223,-66.6666666666667,4,2,1,35,0,0
202267,-400,4,2,1,35,0,0
202355,-200,4,2,1,35,0,0
202443,-133.333333333333,4,2,1,35,0,0
202576,-100,4,2,1,35,0,0
215811,-200,4,2,1,35,0,0
215987,-166.666666666667,4,2,1,35,0,0
216164,-133.333333333333,4,2,1,35,0,0
216340,-100,4,2,1,35,0,0
216892,-133.333333333333,4,2,1,35,0,0
217223,-100,4,2,1,45,0,0
239458,-133.333333333333,4,2,1,35,0,0
239811,-100,4,2,1,35,0,1
260987,-100,4,2,1,35,0,0
262399,-105.263157894737,4,2,1,35,0,0
263811,-111.111111111111,4,2,1,35,0,0
264164,-117.647058823529,4,2,1,35,0,0
264517,-125,4,2,1,35,0,0
264870,-133.333333333333,4,2,1,35,0,0

[HitObjects]
320,192,2635,5,0,0:0:0:0:
192,192,2635,1,0,0:0:0:0:
320,192,2811,1,0,0:0:0:0:
320,192,2987,1,0,0:0:0:0:
320,192,3164,1,0,0:0:0:0:
320,192,3340,1,0,0:0:0:0:
320,192,3517,1,0,0:0:0:0:
320,192,3693,1,0,0:0:0:0:
320,192,3870,1,0,0:0:0:0:
448,192,4046,1,0,0:0:0:0:
64,192,4046,1,0,0:0:0:0:
64,192,4223,1,0,0:0:0:0:
64,192,4399,1,0,0:0:0:0:
64,192,4576,1,0,0:0:0:0:
64,192,4752,1,0,0:0:0:0:
64,192,4929,1,0,0:0:0:0:
64,192,5105,1,0,0:0:0:0:
64,192,5282,1,0,0:0:0:0:
320,192,5458,1,0,0:0:0:0:
448,192,5458,1,0,0:0:0:0:
448,192,5634,1,0,0:0:0:0:
448,192,5811,1,0,0:0:0:0:
448,192,5987,1,0,0:0:0:0:
448,192,6164,1,0,0:0:0:0:
448,192,6340,1,0,0:0:0:0:
448,192,6517,1,0,0:0:0:0:
448,192,6693,1,0,0:0:0:0:
448,192,6870,1,0,0:0:0:0:
448,192,7046,1,0,0:0:0:0:
448,192,7223,1,0,0:0:0:0:
448,192,7399,1,0,0:0:0:0:
448,192,7576,1,0,0:0:0:0:
448,192,7752,1,0,0:0:0:0:
448,192,7929,1,0,0:0:0:0:
448,192,8105,1,0,0:0:0:0:
320,192,8282,1,0,0:0:0:0:
64,192,8282,1,0,0:0:0:0:
64,192,8458,1,0,0:0:0:0:
64,192,8634,1,0,0:0:0:0:
64,192,8811,1,0,0:0:0:0:
64,192,8987,1,0,0:0:0:0:
64,192,9164,1,0,0:0:0:0:
64,192,9340,1,0,0:0:0:0:
64,192,9517,1,0,0:0:0:0:
448,192,9693,1,0,0:0:0:0:
320,192,9693,1,0,0:0:0:0:
448,192,9870,1,0,0:0:0:0:
448,192,10046,1,0,0:0:0:0:
448,192,10223,1,0,0:0:0:0:
448,192,10399,1,0,0:0:0:0:
448,192,10576,1,0,0:0:0:0:
448,192,10752,1,0,0:0:0:0:
448,192,10929,1,0,0:0:0:0:
320,192,11105,1,0,0:0:0:0:
192,192,11105,1,0,0:0:0:0:
192,192,11282,1,0,0:0:0:0:
192,192,11458,1,0,0:0:0:0:
192,192,11634,1,0,0:0:0:0:
192,192,11811,1,0,0:0:0:0:
192,192,11987,1,0,0:0:0:0:
192,192,12164,1,0,0:0:0:0:
192,192,12340,1,0,0:0:0:0:
192,192,12517,1,0,0:0:0:0:
192,192,12693,1,0,0:0:0:0:
192,192,12870,1,0,0:0:0:0:
192,192,13046,1,0,0:0:0:0:
192,192,13223,1,0,0:0:0:0:
192,192,13399,1,0,0:0:0:0:
192,192,13576,1,0,0:0:0:0:
192,192,13752,1,0,0:0:0:0:
64,192,13929,1,0,0:0:0:0:
448,192,13929,1,0,0:0:0:0:
448,192,14105,1,0,0:0:0:0:
448,192,14282,1,0,0:0:0:0:
64,192,14282,1,0,0:0:0:0:
448,192,14458,1,0,0:0:0:0:
192,192,14634,1,0,0:0:0:0:
448,192,14634,1,0,0:0:0:0:
448,192,14811,1,0,0:0:0:0:
448,192,14987,1,0,0:0:0:0:
192,192,14987,1,0,0:0:0:0:
448,192,15164,1,0,0:0:0:0:
64,192,15340,1,0,0:0:0:0:
320,192,15340,1,0,0:0:0:0:
64,192,15517,1,0,0:0:0:0:
64,192,15693,1,0,0:0:0:0:
320,192,15693,1,0,0:0:0:0:
64,192,15870,1,0,0:0:0:0:
64,192,16046,1,0,0:0:0:0:
192,192,16046,1,0,0:0:0:0:
64,192,16223,1,0,0:0:0:0:
64,192,16399,1,0,0:0:0:0:
320,192,16399,1,0,0:0:0:0:
64,192,16576,1,0,0:0:0:0:
448,192,16752,1,0,0:0:0:0:
320,192,16752,1,0,0:0:0:0:
320,192,16929,1,0,0:0:0:0:
320,192,17105,1,0,0:0:0:0:
64,192,17105,1,0,0:0:0:0:
320,192,17282,1,0,0:0:0:0:
320,192,17458,1,0,0:0:0:0:
192,192,17458,1,0,0:0:0:0:
320,192,17634,1,0,0:0:0:0:
320,192,17811,1,0,0:0:0:0:
64,192,17811,1,0,0:0:0:0:
320,192,17987,1,0,0:0:0:0:
320,192,18164,1,0,0:0:0:0:
448,192,18164,1,0,0:0:0:0:
320,192,18340,1,0,0:0:0:0:
320,192,18517,1,0,0:0:0:0:
64,192,18517,1,0,0:0:0:0:
320,192,18693,1,0,0:0:0:0:
320,192,18870,1,0,0:0:0:0:
192,192,18870,1,0,0:0:0:0:
320,192,19046,1,0,0:0:0:0:
320,192,19223,1,0,0:0:0:0:
64,192,19223,1,0,0:0:0:0:
320,192,19399,1,0,0:0:0:0:
64,192,19576,1,0,0:0:0:0:
448,192,19576,1,0,0:0:0:0:
64,192,19752,1,0,0:0:0:0:
64,192,19929,1,0,0:0:0:0:
448,192,19929,1,0,0:0:0:0:
64,192,20105,1,0,0:0:0:0:
64,192,20282,1,0,0:0:0:0:
320,192,20282,1,0,0:0:0:0:
64,192,20458,1,0,0:0:0:0:
64,192,20634,1,0,0:0:0:0:
320,192,20634,1,0,0:0:0:0:
64,192,20811,1,0,0:0:0:0:
64,192,20987,1,0,0:0:0:0:
448,192,20987,1,0,0:0:0:0:
448,192,21164,1,0,0:0:0:0:
448,192,21340,1,0,0:0:0:0:
64,192,21340,1,0,0:0:0:0:
448,192,21517,1,0,0:0:0:0:
448,192,21693,1,0,0:0:0:0:
192,192,21693,1,0,0:0:0:0:
448,192,21870,1,0,0:0:0:0:
448,192,22046,1,0,0:0:0:0:
192,192,22046,1,0,0:0:0:0:
448,192,22223,1,0,0:0:0:0:
320,192,22311,1,0,0:0:0:0:
64,192,22399,1,0,0:0:0:0:
448,192,22399,128,0,24340:0:0:0:0:
64,192,23811,1,0,0:0:0:0:
64,192,24164,1,0,0:0:0:0:
192,192,24340,1,0,0:0:0:0:
320,192,24429,1,0,0:0:0:0:
448,192,24517,1,0,0:0:0:0:
192,192,24517,1,0,0:0:0:0:
64,192,24517,1,0,0:0:0:0:
64,192,24782,1,0,0:0:0:0:
192,192,24782,1,0,0:0:0:0:
320,192,24826,1,0,0:0:0:0:
192,192,25046,1,0,0:0:0:0:
64,192,25046,1,0,0:0:0:0:
320,192,25134,1,0,0:0:0:0:
192,192,25223,1,0,0:0:0:0:
64,192,25223,1,0,0:0:0:0:
448,192,25223,1,0,0:0:0:0:
448,192,25399,1,0,0:0:0:0:
448,192,25576,1,0,0:0:0:0:
64,192,25576,1,0,0:0:0:0:
448,192,25752,1,0,0:0:0:0:
192,192,25752,1,0,0:0:0:0:
448,192,25929,1,0,0:0:0:0:
64,192,25929,1,0,0:0:0:0:
448,192,26105,1,0,0:0:0:0:
192,192,26105,1,0,0:0:0:0:
448,192,26282,1,0,0:0:0:0:
320,192,26282,1,0,0:0:0:0:
192,192,26458,1,0,0:0:0:0:
320,192,26458,1,0,0:0:0:0:
192,192,26634,1,0,0:0:0:0:
64,192,26634,1,0,0:0:0:0:
448,192,26634,1,0,0:0:0:0:
64,192,26811,1,0,0:0:0:0:
64,192,26987,1,0,0:0:0:0:
448,192,26987,1,0,0:0:0:0:
64,192,27164,1,0,0:0:0:0:
320,192,27164,1,0,0:0:0:0:
64,192,27340,1,0,0:0:0:0:
448,192,27340,1,0,0:0:0:0:
64,192,27517,1,0,0:0:0:0:
448,192,27517,1,0,0:0:0:0:
64,192,27693,1,0,0:0:0:0:
320,192,27693,1,0,0:0:0:0:
64,192,27870,1,0,0:0:0:0:
320,192,27870,1,0,0:0:0:0:
192,192,28046,1,0,0:0:0:0:
448,192,28046,1,0,0:0:0:0:
64,192,28046,1,0,0:0:0:0:
448,192,28223,1,0,0:0:0:0:
448,192,28399,1,0,0:0:0:0:
64,192,28399,1,0,0:0:0:0:
448,192,28576,1,0,0:0:0:0:
192,192,28576,1,0,0:0:0:0:
448,192,28752,1,0,0:0:0:0:
320,192,28752,1,0,0:0:0:0:
320,192,28929,1,0,0:0:0:0:
448,192,28929,1,0,0:0:0:0:
192,192,29105,1,0,0:0:0:0:
448,192,29105,1,0,0:0:0:0:
448,192,29282,1,0,0:0:0:0:
192,192,29282,1,0,0:0:0:0:
64,192,29458,1,0,0:0:0:0:
320,192,29458,1,0,0:0:0:0:
320,192,29634,1,0,0:0:0:0:
64,192,29634,1,0,0:0:0:0:
192,192,29811,1,0,0:0:0:0:
64,192,29811,1,0,0:0:0:0:
64,192,29987,1,0,0:0:0:0:
320,192,29987,1,0,0:0:0:0:
64,192,30164,1,0,0:0:0:0:
320,192,30164,1,0,0:0:0:0:
64,192,30340,1,0,0:0:0:0:
448,192,30340,1,0,0:0:0:0:
320,192,30429,1,0,0:0:0:0:
192,192,30517,1,0,0:0:0:0:
448,192,30517,1,0,0:0:0:0:
64,192,30693,1,0,0:0:0:0:
448,192,30693,1,0,0:0:0:0:
320,192,30693,1,0,0:0:0:0:
192,192,30870,1,0,0:0:0:0:
64,192,30870,1,0,0:0:0:0:
64,192,31046,1,0,0:0:0:0:
64,192,31223,1,0,0:0:0:0:
320,192,31223,1,0,0:0:0:0:
64,192,31399,1,0,0:0:0:0:
448,192,31399,1,0,0:0:0:0:
320,192,31576,1,0,0:0:0:0:
64,192,31576,1,0,0:0:0:0:
64,192,31752,1,0,0:0:0:0:
320,192,31752,1,0,0:0:0:0:
192,192,31929,1,0,0:0:0:0:
64,192,31929,1,0,0:0:0:0:
64,192,32105,1,0,0:0:0:0:
320,192,32105,1,0,0:0:0:0:
192,192,32282,1,0,0:0:0:0:
448,192,32282,1,0,0:0:0:0:
64,192,32282,1,0,0:0:0:0:
448,192,32458,1,0,0:0:0:0:
448,192,32634,1,0,0:0:0:0:
64,192,32634,1,0,0:0:0:0:
448,192,32811,1,0,0:0:0:0:
192,192,32811,1,0,0:0:0:0:
448,192,32987,1,0,0:0:0:0:
64,192,32987,1,0,0:0:0:0:
192,192,33164,1,0,0:0:0:0:
448,192,33164,1,0,0:0:0:0:
448,192,33340,1,0,0:0:0:0:
320,192,33340,1,0,0:0:0:0:
192,192,33517,1,0,0:0:0:0:
320,192,33517,1,0,0:0:0:0:
192,192,33693,1,0,0:0:0:0:
64,192,33693,1,0,0:0:0:0:
448,192,33693,1,0,0:0:0:0:
64,192,33870,1,0,0:0:0:0:
320,192,34046,1,0,0:0:0:0:
64,192,34046,1,0,0:0:0:0:
64,192,34223,1,0,0:0:0:0:
448,192,34223,1,0,0:0:0:0:
320,192,34399,1,0,0:0:0:0:
64,192,34399,1,0,0:0:0:0:
64,192,34576,1,0,0:0:0:0:
320,192,34576,1,0,0:0:0:0:
64,192,34752,1,0,0:0:0:0:
448,192,34752,1,0,0:0:0:0:
448,192,34929,1,0,0:0:0:0:
64,192,34929,1,0,0:0:0:0:
448,192,35105,1,0,0:0:0:0:
64,192,35105,1,0,0:0:0:0:
192,192,35282,1,0,0:0:0:0:
448,192,35282,1,0,0:0:0:0:
320,192,35458,1,0,0:0:0:0:
448,192,35458,1,0,0:0:0:0:
192,192,35634,1,0,0:0:0:0:
64,192,35634,1,0,0:0:0:0:
320,192,35723,1,0,0:0:0:0:
448,192,35811,1,0,0:0:0:0:
192,192,35811,1,0,0:0:0:0:
64,192,35811,1,0,0:0:0:0:
320,192,36076,1,0,0:0:0:0:
192,192,36098,1,0,0:0:0:0:
64,192,36164,1,0,0:0:0:0:
448,192,36164,1,0,0:0:0:0:
64,192,36340,1,0,0:0:0:0:
448,192,36340,1,0,0:0:0:0:
448,192,36517,1,0,0:0:0:0:
320,192,36517,1,0,0:0:0:0:
64,192,36517,1,0,0:0:0:0:
192,192,36517,1,0,0:0:0:0:
448,192,36693,1,0,0:0:0:0:
192,192,36693,1,0,0:0:0:0:
448,192,36870,1,0,0:0:0:0:
320,192,36870,1,0,0:0:0:0:
448,192,37046,1,0,0:0:0:0:
320,192,37046,1,0,0:0:0:0:
448,192,37223,1,0,0:0:0:0:
192,192,37223,1,0,0:0:0:0:
192,192,37399,1,0,0:0:0:0:
448,192,37399,1,0,0:0:0:0:
448,192,37576,1,0,0:0:0:0:
64,192,37576,1,0,0:0:0:0:
448,192,37752,1,0,0:0:0:0:
64,192,37752,1,0,0:0:0:0:
320,192,37929,1,0,0:0:0:0:
64,192,37929,1,0,0:0:0:0:
448,192,37929,1,0,0:0:0:0:
64,192,38105,1,0,0:0:0:0:
320,192,38105,1,0,0:0:0:0:
64,192,38282,1,0,0:0:0:0:
448,192,38282,1,0,0:0:0:0:
448,192,38458,1,0,0:0:0:0:
64,192,38458,1,0,0:0:0:0:
64,192,38634,1,0,0:0:0:0:
192,192,38634,1,0,0:0:0:0:
64,192,38811,1,0,0:0:0:0:
192,192,38811,1,0,0:0:0:0:
320,192,38899,1,0,0:0:0:0:
64,192,38987,1,0,0:0:0:0:
448,192,38987,1,0,0:0:0:0:
448,192,39164,1,0,0:0:0:0:
64,192,39164,1,0,0:0:0:0:
320,192,39340,1,0,0:0:0:0:
448,192,39340,1,0,0:0:0:0:
64,192,39340,1,0,0:0:0:0:
320,192,39517,1,0,0:0:0:0:
448,192,39517,1,0,0:0:0:0:
64,192,39693,1,0,0:0:0:0:
192,192,39693,1,0,0:0:0:0:
448,192,39693,1,0,0:0:0:0:
192,192,39870,1,0,0:0:0:0:
64,192,39870,1,0,0:0:0:0:
448,192,40046,1,0,0:0:0:0:
64,192,40046,1,0,0:0:0:0:
320,192,40046,1,0,0:0:0:0:
64,192,40223,1,0,0:0:0:0:
448,192,40223,1,0,0:0:0:0:
192,192,40399,1,0,0:0:0:0:
320,192,40399,1,0,0:0:0:0:
448,192,40399,1,0,0:0:0:0:
192,192,40576,1,0,0:0:0:0:
320,192,40576,1,0,0:0:0:0:
192,192,40752,1,0,0:0:0:0:
448,192,40752,1,0,0:0:0:0:
64,192,40752,1,0,0:0:0:0:
192,192,40929,1,0,0:0:0:0:
448,192,40929,1,0,0:0:0:0:
320,192,41105,1,0,0:0:0:0:
64,192,41105,1,0,0:0:0:0:
448,192,41105,1,0,0:0:0:0:
64,192,41282,1,0,0:0:0:0:
320,192,41282,1,0,0:0:0:0:
64,192,41458,1,0,0:0:0:0:
192,192,41458,1,0,0:0:0:0:
448,192,41458,1,0,0:0:0:0:
320,192,41634,1,0,0:0:0:0:
192,192,41634,1,0,0:0:0:0:
64,192,41811,1,0,0:0:0:0:
320,192,41811,1,0,0:0:0:0:
448,192,41811,1,0,0:0:0:0:
320,192,41987,1,0,0:0:0:0:
448,192,41987,1,0,0:0:0:0:
192,192,42076,1,0,0:0:0:0:
64,192,42076,1,0,0:0:0:0:
64,192,42164,1,0,0:0:0:0:
192,192,42164,1,0,0:0:0:0:
320,192,42164,1,0,0:0:0:0:
448,192,42164,1,0,0:0:0:0:
448,192,42340,1,0,0:0:0:0:
320,192,42340,1,0,0:0:0:0:
448,192,42517,1,0,0:0:0:0:
320,192,42517,1,0,0:0:0:0:
448,192,42693,1,0,0:0:0:0:
320,192,42693,1,0,0:0:0:0:
448,192,42870,1,0,0:0:0:0:
320,192,42870,1,0,0:0:0:0:
448,192,43046,1,0,0:0:0:0:
320,192,43046,1,0,0:0:0:0:
448,192,43223,1,0,0:0:0:0:
320,192,43223,1,0,0:0:0:0:
448,192,43399,1,0,0:0:0:0:
320,192,43399,1,0,0:0:0:0:
448,192,43576,1,0,0:0:0:0:
320,192,43576,1,0,0:0:0:0:
192,192,43576,1,0,0:0:0:0:
448,192,43752,1,0,0:0:0:0:
320,192,43752,1,0,0:0:0:0:
192,192,43752,1,0,0:0:0:0:
448,192,43929,1,0,0:0:0:0:
320,192,43929,1,0,0:0:0:0:
192,192,43929,1,0,0:0:0:0:
448,192,44105,1,0,0:0:0:0:
320,192,44105,1,0,0:0:0:0:
192,192,44105,1,0,0:0:0:0:
448,192,44282,1,0,0:0:0:0:
320,192,44282,1,0,0:0:0:0:
192,192,44282,1,0,0:0:0:0:
448,192,44458,1,0,0:0:0:0:
320,192,44458,1,0,0:0:0:0:
192,192,44458,1,0,0:0:0:0:
448,192,44634,1,0,0:0:0:0:
320,192,44634,1,0,0:0:0:0:
192,192,44634,1,0,0:0:0:0:
448,192,44811,1,0,0:0:0:0:
320,192,44811,1,0,0:0:0:0:
192,192,44811,1,0,0:0:0:0:
448,192,44987,128,0,46811:0:0:0:0:
64,192,44987,128,0,46987:0:0:0:0:
320,192,44987,128,0,46870:0:0:0:0:
192,192,44987,128,0,46929:0:0:0:0:
448,192,46929,1,0,0:0:0:0:
320,192,46987,1,0,0:0:0:0:
192,192,47046,1,0,0:0:0:0:
64,192,47105,1,0,0:0:0:0:
64,192,47811,1,0,0:0:0:0:
320,192,47811,1,0,0:0:0:0:
448,192,47811,1,0,0:0:0:0:
64,192,48340,1,0,0:0:0:0:
320,192,48340,1,0,0:0:0:0:
448,192,48340,1,0,0:0:0:0:
64,192,48958,1,0,0:0:0:0:
320,192,49046,1,0,0:0:0:0:
64,192,49134,1,0,0:0:0:0:
320,192,49223,1,0,0:0:0:0:
192,192,49223,1,0,0:0:0:0:
448,192,49223,1,0,0:0:0:0:
192,192,49752,1,0,0:0:0:0:
320,192,49752,1,0,0:0:0:0:
448,192,49752,1,0,0:0:0:0:
64,192,50282,1,0,0:0:0:0:
320,192,50370,1,0,0:0:0:0:
192,192,50458,1,0,0:0:0:0:
448,192,50546,1,0,0:0:0:0:
192,192,50634,1,0,0:0:0:0:
320,192,50634,1,0,0:0:0:0:
64,192,50634,1,0,0:0:0:0:
64,192,51164,1,0,0:0:0:0:
192,192,51164,1,0,0:0:0:0:
320,192,51164,1,0,0:0:0:0:
64,192,51782,1,0,0:0:0:0:
320,192,51870,1,0,0:0:0:0:
64,192,51958,1,0,0:0:0:0:
320,192,52046,1,0,0:0:0:0:
192,192,52046,1,0,0:0:0:0:
448,192,52046,1,0,0:0:0:0:
192,192,52576,1,0,0:0:0:0:
320,192,52576,1,0,0:0:0:0:
448,192,52576,1,0,0:0:0:0:
320,192,53105,1,0,0:0:0:0:
192,192,53193,1,0,0:0:0:0:
448,192,53282,1,0,0:0:0:0:
320,192,53282,1,0,0:0:0:0:
192,192,53370,1,0,0:0:0:0:
64,192,53458,1,0,0:0:0:0:
320,192,53458,1,0,0:0:0:0:
448,192,53458,1,0,0:0:0:0:
64,192,53987,1,0,0:0:0:0:
320,192,53987,1,0,0:0:0:0:
448,192,53987,1,0,0:0:0:0:
448,192,54605,1,0,0:0:0:0:
192,192,54693,1,0,0:0:0:0:
448,192,54782,1,0,0:0:0:0:
64,192,54870,1,0,0:0:0:0:
320,192,54870,1,0,0:0:0:0:
192,192,54870,1,0,0:0:0:0:
192,192,55399,1,0,0:0:0:0:
64,192,55399,1,0,0:0:0:0:
448,192,55399,1,0,0:0:0:0:
448,192,55929,1,0,0:0:0:0:
192,192,56017,1,0,0:0:0:0:
320,192,56105,1,0,0:0:0:0:
64,192,56193,1,0,0:0:0:0:
320,192,56282,1,0,0:0:0:0:
192,192,56282,1,0,0:0:0:0:
448,192,56282,1,0,0:0:0:0:
448,192,56811,1,0,0:0:0:0:
192,192,56811,1,0,0:0:0:0:
320,192,56811,1,0,0:0:0:0:
448,192,57429,1,0,0:0:0:0:
192,192,57517,1,0,0:0:0:0:
320,192,57605,1,0,0:0:0:0:
64,192,57693,1,0,0:0:0:0:
448,192,57693,1,0,0:0:0:0:
192,192,57752,1,0,0:0:0:0:
64,192,57811,1,0,0:0:0:0:
320,192,57870,1,0,0:0:0:0:
448,192,57870,1,0,0:0:0:0:
64,192,57958,1,0,0:0:0:0:
192,192,57958,1,0,0:0:0:0:
448,192,58046,1,0,0:0:0:0:
320,192,58105,1,0,0:0:0:0:
192,192,58105,1,0,0:0:0:0:
448,192,58164,1,0,0:0:0:0:
64,192,58223,1,0,0:0:0:0:
192,192,58223,1,0,0:0:0:0:
320,192,58311,1,0,0:0:0:0:
64,192,58399,1,0,0:0:0:0:
192,192,58458,1,0,0:0:0:0:
64,192,58517,1,0,0:0:0:0:
320,192,58576,1,0,0:0:0:0:
192,192,58664,1,0,0:0:0:0:
64,192,58752,1,0,0:0:0:0:
320,192,58752,1,0,0:0:0:0:
448,192,58752,1,0,0:0:0:0:
64,192,59105,1,0,0:0:0:0:
192,192,59105,1,0,0:0:0:0:
448,192,59105,1,0,0:0:0:0:
64,192,59634,1,0,0:0:0:0:
192,192,59634,1,0,0:0:0:0:
448,192,59634,1,0,0:0:0:0:
64,192,60164,1,0,0:0:0:0:
192,192,60252,1,0,0:0:0:0:
448,192,60340,1,0,0:0:0:0:
320,192,60399,1,0,0:0:0:0:
192,192,60458,1,0,0:0:0:0:
64,192,60517,1,0,0:0:0:0:
320,192,60517,1,0,0:0:0:0:
448,192,60517,1,0,0:0:0:0:
64,192,61046,1,0,0:0:0:0:
320,192,61046,1,0,0:0:0:0:
448,192,61046,1,0,0:0:0:0:
192,192,61576,1,0,0:0:0:0:
448,192,61576,1,0,0:0:0:0:
64,192,61576,1,0,0:0:0:0:
192,192,61752,1,0,0:0:0:0:
448,192,61752,1,0,0:0:0:0:
64,192,61752,1,0,0:0:0:0:
320,192,61929,1,0,0:0:0:0:
192,192,61929,1,0,0:0:0:0:
64,192,61929,1,0,0:0:0:0:
64,192,62458,1,0,0:0:0:0:
192,192,62458,1,0,0:0:0:0:
320,192,62458,1,0,0:0:0:0:
192,192,62811,1,0,0:0:0:0:
320,192,62899,1,0,0:0:0:0:
64,192,62987,1,0,0:0:0:0:
320,192,63076,1,0,0:0:0:0:
448,192,63076,1,0,0:0:0:0:
192,192,63164,1,0,0:0:0:0:
64,192,63164,1,0,0:0:0:0:
320,192,63252,1,0,0:0:0:0:
448,192,63340,1,0,0:0:0:0:
192,192,63340,1,0,0:0:0:0:
64,192,63340,1,0,0:0:0:0:
64,192,63870,1,0,0:0:0:0:
192,192,63870,1,0,0:0:0:0:
448,192,63870,1,0,0:0:0:0:
320,192,64164,1,0,0:0:0:0:
192,192,64223,1,0,0:0:0:0:
64,192,64223,1,0,0:0:0:0:
320,192,64311,1,0,0:0:0:0:
448,192,64311,1,0,0:0:0:0:
192,192,64399,1,0,0:0:0:0:
64,192,64399,1,0,0:0:0:0:
320,192,64487,1,0,0:0:0:0:
64,192,64576,1,0,0:0:0:0:
192,192,64664,1,0,0:0:0:0:
64,192,64752,1,0,0:0:0:0:
448,192,64752,1,0,0:0:0:0:
320,192,64752,1,0,0:0:0:0:
320,192,64929,1,0,0:0:0:0:
448,192,64929,1,0,0:0:0:0:
320,192,65105,1,0,0:0:0:0:
448,192,65105,1,0,0:0:0:0:
320,192,65282,1,0,0:0:0:0:
448,192,65282,1,0,0:0:0:0:
320,192,65458,1,0,0:0:0:0:
448,192,65458,1,0,0:0:0:0:
320,192,65634,1,0,0:0:0:0:
448,192,65634,1,0,0:0:0:0:
320,192,65811,1,0,0:0:0:0:
448,192,65811,1,0,0:0:0:0:
320,192,65987,1,0,0:0:0:0:
448,192,65987,1,0,0:0:0:0:
192,192,66164,1,0,0:0:0:0:
64,192,66164,1,0,0:0:0:0:
192,192,66340,1,0,0:0:0:0:
64,192,66340,1,0,0:0:0:0:
192,192,66517,1,0,0:0:0:0:
64,192,66517,1,0,0:0:0:0:
64,192,66693,1,0,0:0:0:0:
192,192,66693,1,0,0:0:0:0:
64,192,66870,1,0,0:0:0:0:
192,192,66870,1,0,0:0:0:0:
64,192,67046,1,0,0:0:0:0:
192,192,67046,1,0,0:0:0:0:
64,192,67223,1,0,0:0:0:0:
192,192,67223,1,0,0:0:0:0:
64,192,67399,1,0,0:0:0:0:
192,192,67399,1,0,0:0:0:0:
64,192,67576,1,0,0:0:0:0:
320,192,67576,1,0,0:0:0:0:
448,192,67576,1,0,0:0:0:0:
64,192,67752,1,0,0:0:0:0:
320,192,67752,1,0,0:0:0:0:
448,192,67752,1,0,0:0:0:0:
448,192,67929,1,0,0:0:0:0:
320,192,67929,1,0,0:0:0:0:
64,192,67929,1,0,0:0:0:0:
64,192,68105,1,0,0:0:0:0:
320,192,68105,1,0,0:0:0:0:
448,192,68105,1,0,0:0:0:0:
64,192,68282,1,0,0:0:0:0:
320,192,68282,1,0,0:0:0:0:
448,192,68282,1,0,0:0:0:0:
192,192,68282,1,0,0:0:0:0:
448,192,68458,1,0,0:0:0:0:
320,192,68458,1,0,0:0:0:0:
64,192,68458,1,0,0:0:0:0:
192,192,68458,1,0,0:0:0:0:
320,192,68634,1,0,0:0:0:0:
448,192,68634,1,0,0:0:0:0:
192,192,68723,1,0,0:0:0:0:
64,192,68723,1,0,0:0:0:0:
320,192,68811,1,0,0:0:0:0:
448,192,68811,1,0,0:0:0:0:
192,192,68899,1,0,0:0:0:0:
64,192,68899,1,0,0:0:0:0:
64,192,68987,1,0,0:0:0:0:
192,192,68987,1,0,0:0:0:0:
320,192,68987,1,0,0:0:0:0:
448,192,68987,1,0,0:0:0:0:
64,192,69517,1,0,0:0:0:0:
192,192,69576,1,0,0:0:0:0:
448,192,69634,1,0,0:0:0:0:
320,192,69693,1,0,0:0:0:0:
192,192,69782,1,0,0:0:0:0:
320,192,69870,1,0,0:0:0:0:
192,192,69958,1,0,0:0:0:0:
64,192,70046,1,0,0:0:0:0:
320,192,70046,1,0,0:0:0:0:
448,192,70046,1,0,0:0:0:0:
64,192,70399,1,0,0:0:0:0:
192,192,70399,1,0,0:0:0:0:
448,192,70399,1,0,0:0:0:0:
320,192,70487,1,0,0:0:0:0:
448,192,70576,1,0,0:0:0:0:
64,192,70576,1,0,0:0:0:0:
192,192,70664,1,0,0:0:0:0:
320,192,70752,1,0,0:0:0:0:
448,192,70752,1,0,0:0:0:0:
64,192,70840,1,0,0:0:0:0:
320,192,70929,1,0,0:0:0:0:
448,192,70929,1,0,0:0:0:0:
192,192,70929,1,0,0:0:0:0:
64,192,71017,1,0,0:0:0:0:
192,192,71105,1,0,0:0:0:0:
448,192,71105,1,0,0:0:0:0:
320,192,71193,1,0,0:0:0:0:
448,192,71282,1,0,0:0:0:0:
64,192,71282,1,0,0:0:0:0:
192,192,71370,1,0,0:0:0:0:
64,192,71458,1,0,0:0:0:0:
448,192,71458,1,0,0:0:0:0:
320,192,71458,1,0,0:0:0:0:
192,192,71546,1,0,0:0:0:0:
64,192,71634,1,0,0:0:0:0:
448,192,71634,1,0,0:0:0:0:
320,192,71723,1,0,0:0:0:0:
64,192,71811,1,0,0:0:0:0:
192,192,71811,1,0,0:0:0:0:
448,192,71811,1,0,0:0:0:0:
320,192,71899,1,0,0:0:0:0:
448,192,71987,1,0,0:0:0:0:
64,192,71987,1,0,0:0:0:0:
192,192,72076,1,0,0:0:0:0:
320,192,72164,1,0,0:0:0:0:
448,192,72164,1,0,0:0:0:0:
64,192,72252,1,0,0:0:0:0:
320,192,72340,1,0,0:0:0:0:
448,192,72340,1,0,0:0:0:0:
192,192,72340,1,0,0:0:0:0:
64,192,72429,1,0,0:0:0:0:
192,192,72517,1,0,0:0:0:0:
448,192,72517,1,0,0:0:0:0:
320,192,72605,1,0,0:0:0:0:
448,192,72693,1,0,0:0:0:0:
64,192,72693,1,0,0:0:0:0:
192,192,72782,1,0,0:0:0:0:
64,192,72870,1,0,0:0:0:0:
448,192,72870,1,0,0:0:0:0:
320,192,72870,1,0,0:0:0:0:
192,192,72958,1,0,0:0:0:0:
64,192,73046,1,0,0:0:0:0:
448,192,73046,1,0,0:0:0:0:
320,192,73134,1,0,0:0:0:0:
192,192,73223,1,0,0:0:0:0:
64,192,73223,1,0,0:0:0:0:
448,192,73223,1,0,0:0:0:0:
320,192,73311,1,0,0:0:0:0:
192,192,73399,1,0,0:0:0:0:
64,192,73399,1,0,0:0:0:0:
448,192,73487,1,0,0:0:0:0:
320,192,73576,1,0,0:0:0:0:
64,192,73576,1,0,0:0:0:0:
192,192,73664,1,0,0:0:0:0:
64,192,73752,1,0,0:0:0:0:
448,192,73752,1,0,0:0:0:0:
320,192,73752,1,0,0:0:0:0:
192,192,73840,1,0,0:0:0:0:
320,192,73929,1,0,0:0:0:0:
448,192,73929,1,0,0:0:0:0:
64,192,74017,1,0,0:0:0:0:
192,192,74105,1,0,0:0:0:0:
448,192,74105,1,0,0:0:0:0:
320,192,74193,1,0,0:0:0:0:
64,192,74282,1,0,0:0:0:0:
192,192,74282,1,0,0:0:0:0:
448,192,74282,1,0,0:0:0:0:
320,192,74370,1,0,0:0:0:0:
64,192,74458,1,0,0:0:0:0:
192,192,74458,1,0,0:0:0:0:
448,192,74546,1,0,0:0:0:0:
320,192,74634,1,0,0:0:0:0:
64,192,74634,1,0,0:0:0:0:
192,192,74634,1,0,0:0:0:0:
448,192,74723,1,0,0:0:0:0:
320,192,74811,1,0,0:0:0:0:
64,192,74811,1,0,0:0:0:0:
192,192,74899,1,0,0:0:0:0:
448,192,74987,1,0,0:0:0:0:
64,192,74987,1,0,0:0:0:0:
320,192,75076,1,0,0:0:0:0:
192,192,75164,1,0,0:0:0:0:
64,192,75164,1,0,0:0:0:0:
448,192,75164,1,0,0:0:0:0:
320,192,75252,1,0,0:0:0:0:
64,192,75340,1,0,0:0:0:0:
192,192,75340,1,0,0:0:0:0:
448,192,75429,1,0,0:0:0:0:
320,192,75517,1,0,0:0:0:0:
64,192,75517,1,0,0:0:0:0:
192,192,75605,1,0,0:0:0:0:
448,192,75693,1,0,0:0:0:0:
320,192,75693,1,0,0:0:0:0:
64,192,75693,1,0,0:0:0:0:
192,192,75782,1,0,0:0:0:0:
448,192,75870,1,0,0:0:0:0:
64,192,75870,1,0,0:0:0:0:
320,192,75958,1,0,0:0:0:0:
64,192,76046,1,0,0:0:0:0:
192,192,76046,1,0,0:0:0:0:
448,192,76046,1,0,0:0:0:0:
320,192,76134,1,0,0:0:0:0:
448,192,76223,1,0,0:0:0:0:
64,192,76223,1,0,0:0:0:0:
192,192,76311,1,0,0:0:0:0:
320,192,76399,1,0,0:0:0:0:
448,192,76399,1,0,0:0:0:0:
64,192,76487,1,0,0:0:0:0:
320,192,76576,1,0,0:0:0:0:
448,192,76576,1,0,0:0:0:0:
192,192,76576,1,0,0:0:0:0:
64,192,76664,1,0,0:0:0:0:
192,192,76752,1,0,0:0:0:0:
448,192,76752,1,0,0:0:0:0:
320,192,76840,1,0,0:0:0:0:
448,192,76929,1,0,0:0:0:0:
64,192,76929,1,0,0:0:0:0:
192,192,77017,1,0,0:0:0:0:
64,192,77105,1,0,0:0:0:0:
448,192,77105,1,0,0:0:0:0:
320,192,77105,1,0,0:0:0:0:
192,192,77193,1,0,0:0:0:0:
64,192,77282,1,0,0:0:0:0:
448,192,77282,1,0,0:0:0:0:
320,192,77370,1,0,0:0:0:0:
64,192,77458,1,0,0:0:0:0:
192,192,77458,1,0,0:0:0:0:
448,192,77458,1,0,0:0:0:0:
320,192,77546,1,0,0:0:0:0:
448,192,77634,1,0,0:0:0:0:
64,192,77634,1,0,0:0:0:0:
192,192,77723,1,0,0:0:0:0:
320,192,77811,1,0,0:0:0:0:
448,192,77811,1,0,0:0:0:0:
64,192,77899,1,0,0:0:0:0:
320,192,77987,1,0,0:0:0:0:
448,192,77987,1,0,0:0:0:0:
192,192,77987,1,0,0:0:0:0:
64,192,78076,1,0,0:0:0:0:
192,192,78164,1,0,0:0:0:0:
448,192,78164,1,0,0:0:0:0:
320,192,78252,1,0,0:0:0:0:
448,192,78340,1,0,0:0:0:0:
64,192,78340,1,0,0:0:0:0:
192,192,78429,1,0,0:0:0:0:
64,192,78517,1,0,0:0:0:0:
448,192,78517,1,0,0:0:0:0:
320,192,78517,1,0,0:0:0:0:
192,192,78605,1,0,0:0:0:0:
64,192,78693,1,0,0:0:0:0:
448,192,78693,1,0,0:0:0:0:
320,192,78782,1,0,0:0:0:0:
192,192,78870,1,0,0:0:0:0:
64,192,78870,1,0,0:0:0:0:
448,192,78870,1,0,0:0:0:0:
320,192,78958,1,0,0:0:0:0:
192,192,79046,1,0,0:0:0:0:
64,192,79046,1,0,0:0:0:0:
448,192,79134,1,0,0:0:0:0:
320,192,79223,1,0,0:0:0:0:
64,192,79223,1,0,0:0:0:0:
192,192,79311,1,0,0:0:0:0:
64,192,79399,1,0,0:0:0:0:
320,192,79399,1,0,0:0:0:0:
448,192,79399,1,0,0:0:0:0:
192,192,79487,1,0,0:0:0:0:
320,192,79576,1,0,0:0:0:0:
448,192,79576,1,0,0:0:0:0:
64,192,79664,1,0,0:0:0:0:
192,192,79752,1,0,0:0:0:0:
448,192,79752,1,0,0:0:0:0:
320,192,79840,1,0,0:0:0:0:
64,192,79929,1,0,0:0:0:0:
192,192,79929,1,0,0:0:0:0:
448,192,79929,1,0,0:0:0:0:
320,192,80017,1,0,0:0:0:0:
192,192,80105,1,0,0:0:0:0:
64,192,80105,1,0,0:0:0:0:
448,192,80193,1,0,0:0:0:0:
320,192,80282,1,0,0:0:0:0:
64,192,80282,1,0,0:0:0:0:
192,192,80282,1,0,0:0:0:0:
448,192,80370,1,0,0:0:0:0:
320,192,80458,1,0,0:0:0:0:
64,192,80458,1,0,0:0:0:0:
192,192,80546,1,0,0:0:0:0:
448,192,80634,1,0,0:0:0:0:
320,192,80634,1,0,0:0:0:0:
192,192,80723,1,0,0:0:0:0:
448,192,80811,1,0,0:0:0:0:
64,192,80811,1,0,0:0:0:0:
320,192,80899,1,0,0:0:0:0:
64,192,80987,1,0,0:0:0:0:
192,192,80987,1,0,0:0:0:0:
448,192,80987,1,0,0:0:0:0:
320,192,81076,1,0,0:0:0:0:
192,192,81164,1,0,0:0:0:0:
64,192,81164,1,0,0:0:0:0:
320,192,81252,1,0,0:0:0:0:
192,192,81340,1,0,0:0:0:0:
64,192,81340,1,0,0:0:0:0:
320,192,81429,1,0,0:0:0:0:
448,192,81429,1,0,0:0:0:0:
192,192,81517,1,0,0:0:0:0:
64,192,81517,1,0,0:0:0:0:
448,192,81605,1,0,0:0:0:0:
192,192,81693,1,0,0:0:0:0:
64,192,81693,1,0,0:0:0:0:
320,192,81693,1,0,0:0:0:0:
448,192,81782,1,0,0:0:0:0:
320,192,81870,1,0,0:0:0:0:
64,192,81870,1,0,0:0:0:0:
192,192,81958,1,0,0:0:0:0:
64,192,82046,1,0,0:0:0:0:
448,192,82046,1,0,0:0:0:0:
320,192,82134,1,0,0:0:0:0:
192,192,82223,1,0,0:0:0:0:
64,192,82223,1,0,0:0:0:0:
448,192,82223,1,0,0:0:0:0:
320,192,82311,1,0,0:0:0:0:
192,192,82399,1,0,0:0:0:0:
64,192,82399,1,0,0:0:0:0:
448,192,82487,1,0,0:0:0:0:
320,192,82576,1,0,0:0:0:0:
64,192,82576,1,0,0:0:0:0:
192,192,82664,1,0,0:0:0:0:
320,192,82752,1,0,0:0:0:0:
448,192,82752,1,0,0:0:0:0:
64,192,82752,1,0,0:0:0:0:
192,192,82840,1,0,0:0:0:0:
320,192,82929,1,0,0:0:0:0:
448,192,82929,1,0,0:0:0:0:
64,192,83017,1,0,0:0:0:0:
320,192,83105,1,0,0:0:0:0:
448,192,83105,1,0,0:0:0:0:
192,192,83105,1,0,0:0:0:0:
64,192,83193,1,0,0:0:0:0:
192,192,83282,1,0,0:0:0:0:
448,192,83282,1,0,0:0:0:0:
320,192,83370,1,0,0:0:0:0:
448,192,83458,1,0,0:0:0:0:
64,192,83458,1,0,0:0:0:0:
192,192,83546,1,0,0:0:0:0:
320,192,83634,1,0,0:0:0:0:
448,192,83634,1,0,0:0:0:0:
64,192,83634,1,0,0:0:0:0:
192,192,83723,1,0,0:0:0:0:
320,192,83811,1,0,0:0:0:0:
448,192,83811,1,0,0:0:0:0:
64,192,83899,1,0,0:0:0:0:
192,192,83987,1,0,0:0:0:0:
448,192,83987,1,0,0:0:0:0:
320,192,84076,1,0,0:0:0:0:
64,192,84164,1,0,0:0:0:0:
448,192,84164,1,0,0:0:0:0:
192,192,84252,1,0,0:0:0:0:
64,192,84340,1,0,0:0:0:0:
320,192,84340,1,0,0:0:0:0:
448,192,84340,1,0,0:0:0:0:
192,192,84429,1,0,0:0:0:0:
64,192,84517,1,0,0:0:0:0:
320,192,84517,1,0,0:0:0:0:
448,192,84517,1,0,0:0:0:0:
192,192,84605,1,0,0:0:0:0:
320,192,84693,1,0,0:0:0:0:
448,192,84693,1,0,0:0:0:0:
64,192,84782,1,0,0:0:0:0:
192,192,84870,1,0,0:0:0:0:
448,192,84870,1,0,0:0:0:0:
320,192,84958,1,0,0:0:0:0:
192,192,85046,1,0,0:0:0:0:
64,192,85046,1,0,0:0:0:0:
448,192,85046,1,0,0:0:0:0:
320,192,85134,1,0,0:0:0:0:
64,192,85223,1,0,0:0:0:0:
192,192,85223,1,0,0:0:0:0:
448,192,85311,1,0,0:0:0:0:
320,192,85399,1,0,0:0:0:0:
64,192,85399,1,0,0:0:0:0:
192,192,85487,1,0,0:0:0:0:
64,192,85576,1,0,0:0:0:0:
448,192,85576,1,0,0:0:0:0:
320,192,85576,1,0,0:0:0:0:
192,192,85664,1,0,0:0:0:0:
320,192,85752,1,0,0:0:0:0:
448,192,85752,1,0,0:0:0:0:
64,192,85840,1,0,0:0:0:0:
192,192,85929,1,0,0:0:0:0:
448,192,85929,1,0,0:0:0:0:
320,192,85929,1,0,0:0:0:0:
64,192,86017,1,0,0:0:0:0:
448,192,86105,1,0,0:0:0:0:
192,192,86105,1,0,0:0:0:0:
320,192,86193,1,0,0:0:0:0:
64,192,86282,1,0,0:0:0:0:
192,192,86282,1,0,0:0:0:0:
320,192,86370,1,0,0:0:0:0:
448,192,86370,1,0,0:0:0:0:
64,192,86458,1,0,0:0:0:0:
192,192,86546,1,0,0:0:0:0:
448,192,86546,1,0,0:0:0:0:
320,192,86634,1,0,0:0:0:0:
64,192,86634,1,0,0:0:0:0:
192,192,86723,1,0,0:0:0:0:
448,192,86811,1,0,0:0:0:0:
320,192,86811,1,0,0:0:0:0:
64,192,86899,1,0,0:0:0:0:
192,192,86921,1,0,0:0:0:0:
448,192,86987,1,0,0:0:0:0:
64,192,87076,1,0,0:0:0:0:
192,192,87076,1,0,0:0:0:0:
320,192,87164,1,0,0:0:0:0:
448,192,87186,1,0,0:0:0:0:
192,192,87252,1,0,0:0:0:0:
448,192,87340,1,0,0:0:0:0:
64,192,87340,1,0,0:0:0:0:
320,192,87340,1,0,0:0:0:0:
320,192,87517,1,0,0:0:0:0:
192,192,87517,1,0,0:0:0:0:
192,192,87693,1,0,0:0:0:0:
320,192,87693,1,0,0:0:0:0:
64,192,87870,1,0,0:0:0:0:
192,192,87870,1,0,0:0:0:0:
448,192,87870,1,0,0:0:0:0:
192,192,88046,1,0,0:0:0:0:
320,192,88046,1,0,0:0:0:0:
448,192,88223,1,0,0:0:0:0:
320,192,88223,1,0,0:0:0:0:
192,192,88311,1,0,0:0:0:0:
64,192,88311,1,0,0:0:0:0:
320,192,88399,1,0,0:0:0:0:
192,192,88458,1,0,0:0:0:0:
64,192,88517,1,0,0:0:0:0:
320,192,88576,1,0,0:0:0:0:
192,192,88664,1,0,0:0:0:0:
64,192,88752,1,0,0:0:0:0:
320,192,88752,1,0,0:0:0:0:
448,192,88752,1,0,0:0:0:0:
192,192,88929,1,0,0:0:0:0:
320,192,88929,1,0,0:0:0:0:
192,192,89105,1,0,0:0:0:0:
320,192,89105,1,0,0:0:0:0:
64,192,89282,1,0,0:0:0:0:
192,192,89282,1,0,0:0:0:0:
448,192,89282,1,0,0:0:0:0:
192,192,89458,1,0,0:0:0:0:
320,192,89458,1,0,0:0:0:0:
448,192,89634,1,0,0:0:0:0:
192,192,89723,1,0,0:0:0:0:
320,192,89811,1,0,0:0:0:0:
448,192,89811,1,0,0:0:0:0:
320,192,89899,1,0,0:0:0:0:
64,192,89987,1,0,0:0:0:0:
192,192,89987,1,0,0:0:0:0:
448,192,89987,1,0,0:0:0:0:
64,192,90164,1,0,0:0:0:0:
448,192,90164,1,0,0:0:0:0:
192,192,90164,1,0,0:0:0:0:
320,192,90340,1,0,0:0:0:0:
448,192,90340,1,0,0:0:0:0:
192,192,90429,1,0,0:0:0:0:
64,192,90429,1,0,0:0:0:0:
320,192,90517,1,0,0:0:0:0:
448,192,90517,1,0,0:0:0:0:
192,192,90605,1,0,0:0:0:0:
64,192,90693,1,0,0:0:0:0:
320,192,90693,1,0,0:0:0:0:
448,192,90693,1,0,0:0:0:0:
192,192,90870,1,0,0:0:0:0:
64,192,90870,1,0,0:0:0:0:
320,192,90958,1,0,0:0:0:0:
448,192,90958,1,0,0:0:0:0:
192,192,91046,1,0,0:0:0:0:
64,192,91046,1,0,0:0:0:0:
320,192,91134,1,0,0:0:0:0:
64,192,91223,1,0,0:0:0:0:
192,192,91282,1,0,0:0:0:0:
64,192,91340,1,0,0:0:0:0:
320,192,91399,1,0,0:0:0:0:
192,192,91487,1,0,0:0:0:0:
448,192,91576,1,0,0:0:0:0:
320,192,91634,1,0,0:0:0:0:
448,192,91693,1,0,0:0:0:0:
192,192,91752,1,0,0:0:0:0:
64,192,91752,1,0,0:0:0:0:
320,192,91840,1,0,0:0:0:0:
448,192,91840,1,0,0:0:0:0:
192,192,91929,1,0,0:0:0:0:
320,192,92017,1,0,0:0:0:0:
448,192,92017,1,0,0:0:0:0:
64,192,92105,1,0,0:0:0:0:
192,192,92164,1,0,0:0:0:0:
64,192,92223,1,0,0:0:0:0:
320,192,92282,1,0,0:0:0:0:
448,192,92282,1,0,0:0:0:0:
192,192,92370,1,0,0:0:0:0:
64,192,92370,1,0,0:0:0:0:
448,192,92458,1,0,0:0:0:0:
320,192,92546,1,0,0:0:0:0:
64,192,92634,1,0,0:0:0:0:
192,192,92634,1,0,0:0:0:0:
448,192,92634,1,0,0:0:0:0:
64,192,92987,1,0,0:0:0:0:
320,192,92987,1,0,0:0:0:0:
448,192,92987,1,0,0:0:0:0:
192,192,92987,1,0,0:0:0:0:
64,192,93340,1,0,0:0:0:0:
192,192,93340,1,0,0:0:0:0:
448,192,93340,1,0,0:0:0:0:
320,192,93429,1,0,0:0:0:0:
320,192,93605,1,0,0:0:0:0:
192,192,93693,1,0,0:0:0:0:
64,192,93693,1,0,0:0:0:0:
448,192,93693,1,0,0:0:0:0:
320,192,93782,1,0,0:0:0:0:
192,192,93870,1,0,0:0:0:0:
448,192,93958,1,0,0:0:0:0:
320,192,94046,1,0,0:0:0:0:
192,192,94046,1,0,0:0:0:0:
64,192,94046,1,0,0:0:0:0:
320,192,94223,1,0,0:0:0:0:
192,192,94311,1,0,0:0:0:0:
64,192,94399,1,0,0:0:0:0:
448,192,94399,1,0,0:0:0:0:
320,192,94399,1,0,0:0:0:0:
192,192,94576,1,0,0:0:0:0:
320,192,94752,1,0,0:0:0:0:
448,192,94752,1,0,0:0:0:0:
64,192,94752,1,0,0:0:0:0:
192,192,94840,1,0,0:0:0:0:
192,192,95017,1,0,0:0:0:0:
320,192,95105,1,0,0:0:0:0:
448,192,95105,1,0,0:0:0:0:
64,192,95105,1,0,0:0:0:0:
192,192,95193,1,0,0:0:0:0:
320,192,95282,1,0,0:0:0:0:
64,192,95370,1,0,0:0:0:0:
448,192,95458,1,0,0:0:0:0:
192,192,95458,1,0,0:0:0:0:
320,192,95458,1,0,0:0:0:0:
64,192,95546,1,0,0:0:0:0:
192,192,95634,1,0,0:0:0:0:
320,192,95723,1,0,0:0:0:0:
448,192,95811,1,0,0:0:0:0:
192,192,95811,1,0,0:0:0:0:
64,192,95811,1,0,0:0:0:0:
64,192,96164,1,0,0:0:0:0:
192,192,96164,1,0,0:0:0:0:
448,192,96164,1,0,0:0:0:0:
320,192,96252,1,0,0:0:0:0:
320,192,96429,1,0,0:0:0:0:
64,192,96517,1,0,0:0:0:0:
192,192,96517,1,0,0:0:0:0:
448,192,96517,1,0,0:0:0:0:
320,192,96605,1,0,0:0:0:0:
192,192,96693,1,0,0:0:0:0:
448,192,96782,1,0,0:0:0:0:
64,192,96870,1,0,0:0:0:0:
320,192,96870,1,0,0:0:0:0:
192,192,96870,1,0,0:0:0:0:
320,192,97046,1,0,0:0:0:0:
192,192,97134,1,0,0:0:0:0:
320,192,97223,1,0,0:0:0:0:
64,192,97223,1,0,0:0:0:0:
448,192,97223,1,0,0:0:0:0:
192,192,97399,1,0,0:0:0:0:
320,192,97576,1,0,0:0:0:0:
448,192,97576,1,0,0:0:0:0:
64,192,97576,1,0,0:0:0:0:
192,192,97664,1,0,0:0:0:0:
192,192,97840,1,0,0:0:0:0:
320,192,97929,1,0,0:0:0:0:
448,192,97929,1,0,0:0:0:0:
64,192,97929,1,0,0:0:0:0:
192,192,98017,1,0,0:0:0:0:
320,192,98105,1,0,0:0:0:0:
64,192,98193,1,0,0:0:0:0:
448,192,98282,1,0,0:0:0:0:
192,192,98282,1,0,0:0:0:0:
320,192,98282,1,0,0:0:0:0:
64,192,98370,1,0,0:0:0:0:
320,192,98458,1,0,0:0:0:0:
192,192,98546,1,0,0:0:0:0:
448,192,98634,1,0,0:0:0:0:
320,192,98634,1,0,0:0:0:0:
64,192,98634,1,0,0:0:0:0:
448,192,98987,1,0,0:0:0:0:
64,192,98987,1,0,0:0:0:0:
192,192,98987,1,0,0:0:0:0:
320,192,99076,1,0,0:0:0:0:
320,192,99252,1,0,0:0:0:0:
64,192,99340,1,0,0:0:0:0:
448,192,99340,1,0,0:0:0:0:
192,192,99340,1,0,0:0:0:0:
320,192,99429,1,0,0:0:0:0:
64,192,99517,1,0,0:0:0:0:
192,192,99605,1,0,0:0:0:0:
448,192,99693,1,0,0:0:0:0:
64,192,99693,1,0,0:0:0:0:
320,192,99693,1,0,0:0:0:0:
320,192,99870,1,0,0:0:0:0:
192,192,99958,1,0,0:0:0:0:
64,192,100046,1,0,0:0:0:0:
448,192,100046,1,0,0:0:0:0:
320,192,100046,1,0,0:0:0:0:
192,192,100223,1,0,0:0:0:0:
64,192,100399,1,0,0:0:0:0:
448,192,100399,1,0,0:0:0:0:
320,192,100399,1,0,0:0:0:0:
192,192,100487,1,0,0:0:0:0:
192,192,100664,1,0,0:0:0:0:
64,192,100752,1,0,0:0:0:0:
448,192,100752,1,0,0:0:0:0:
320,192,100752,1,0,0:0:0:0:
192,192,100840,1,0,0:0:0:0:
448,192,100929,1,0,0:0:0:0:
320,192,101017,1,0,0:0:0:0:
64,192,101105,1,0,0:0:0:0:
448,192,101105,1,0,0:0:0:0:
192,192,101105,1,0,0:0:0:0:
320,192,101193,1,0,0:0:0:0:
192,192,101282,1,0,0:0:0:0:
320,192,101370,1,0,0:0:0:0:
64,192,101458,1,0,0:0:0:0:
192,192,101458,1,0,0:0:0:0:
448,192,101458,1,0,0:0:0:0:
64,192,101811,1,0,0:0:0:0:
448,192,101811,1,0,0:0:0:0:
192,192,101811,1,0,0:0:0:0:
320,192,101899,1,0,0:0:0:0:
320,192,102076,1,0,0:0:0:0:
64,192,102164,1,0,0:0:0:0:
448,192,102164,1,0,0:0:0:0:
192,192,102164,1,0,0:0:0:0:
320,192,102252,1,0,0:0:0:0:
192,192,102340,1,0,0:0:0:0:
448,192,102429,1,0,0:0:0:0:
192,192,102517,1,0,0:0:0:0:
320,192,102517,1,0,0:0:0:0:
64,192,102517,1,0,0:0:0:0:
320,192,102693,1,0,0:0:0:0:
192,192,102782,1,0,0:0:0:0:
64,192,102870,1,0,0:0:0:0:
448,192,102870,1,0,0:0:0:0:
320,192,102870,1,0,0:0:0:0:
192,192,103046,1,0,0:0:0:0:
64,192,103223,1,0,0:0:0:0:
448,192,103223,1,0,0:0:0:0:
320,192,103223,1,0,0:0:0:0:
192,192,103311,1,0,0:0:0:0:
192,192,103487,1,0,0:0:0:0:
64,192,103576,1,0,0:0:0:0:
448,192,103576,1,0,0:0:0:0:
320,192,103664,1,0,0:0:0:0:
192,192,103664,1,0,0:0:0:0:
64,192,103752,1,0,0:0:0:0:
448,192,103752,1,0,0:0:0:0:
320,192,103840,1,0,0:0:0:0:
192,192,103840,1,0,0:0:0:0:
448,192,103929,1,0,0:0:0:0:
192,192,104017,1,0,0:0:0:0:
320,192,104105,1,0,0:0:0:0:
64,192,104193,1,0,0:0:0:0:
320,192,104282,1,0,0:0:0:0:
448,192,104282,1,0,0:0:0:0:
192,192,104282,1,0,0:0:0:0:
64,192,104634,1,0,0:0:0:0:
192,192,104634,1,0,0:0:0:0:
448,192,104634,1,0,0:0:0:0:
320,192,104723,1,0,0:0:0:0:
320,192,104899,1,0,0:0:0:0:
192,192,104987,1,0,0:0:0:0:
64,192,104987,1,0,0:0:0:0:
448,192,104987,1,0,0:0:0:0:
320,192,105076,1,0,0:0:0:0:
64,192,105164,1,0,0:0:0:0:
192,192,105252,1,0,0:0:0:0:
448,192,105340,1,0,0:0:0:0:
320,192,105340,1,0,0:0:0:0:
64,192,105340,1,0,0:0:0:0:
192,192,105517,1,0,0:0:0:0:
320,192,105605,1,0,0:0:0:0:
64,192,105693,1,0,0:0:0:0:
448,192,105693,1,0,0:0:0:0:
192,192,105693,1,0,0:0:0:0:
192,192,105870,1,0,0:0:0:0:
320,192,106046,1,0,0:0:0:0:
448,192,106046,1,0,0:0:0:0:
64,192,106046,1,0,0:0:0:0:
192,192,106134,1,0,0:0:0:0:
192,192,106311,1,0,0:0:0:0:
320,192,106399,1,0,0:0:0:0:
448,192,106399,1,0,0:0:0:0:
64,192,106399,1,0,0:0:0:0:
192,192,106487,1,0,0:0:0:0:
448,192,106576,1,0,0:0:0:0:
320,192,106664,1,0,0:0:0:0:
192,192,106752,1,0,0:0:0:0:
64,192,106752,1,0,0:0:0:0:
448,192,106752,1,0,0:0:0:0:
320,192,106840,1,0,0:0:0:0:
64,192,106929,1,0,0:0:0:0:
192,192,107017,1,0,0:0:0:0:
64,192,107105,1,0,0:0:0:0:
320,192,107105,1,0,0:0:0:0:
448,192,107105,1,0,0:0:0:0:
64,192,107458,1,0,0:0:0:0:
192,192,107458,1,0,0:0:0:0:
448,192,107458,1,0,0:0:0:0:
320,192,107546,1,0,0:0:0:0:
320,192,107723,1,0,0:0:0:0:
192,192,107811,1,0,0:0:0:0:
64,192,107811,1,0,0:0:0:0:
448,192,107811,1,0,0:0:0:0:
320,192,107899,1,0,0:0:0:0:
64,192,107987,1,0,0:0:0:0:
192,192,108076,1,0,0:0:0:0:
320,192,108164,1,0,0:0:0:0:
448,192,108164,1,0,0:0:0:0:
64,192,108164,1,0,0:0:0:0:
192,192,108340,1,0,0:0:0:0:
320,192,108429,1,0,0:0:0:0:
448,192,108517,1,0,0:0:0:0:
64,192,108517,1,0,0:0:0:0:
192,192,108517,1,0,0:0:0:0:
192,192,108693,1,0,0:0:0:0:
320,192,108870,1,0,0:0:0:0:
448,192,108870,1,0,0:0:0:0:
64,192,108870,1,0,0:0:0:0:
192,192,108958,1,0,0:0:0:0:
192,192,109134,1,0,0:0:0:0:
320,192,109223,1,0,0:0:0:0:
448,192,109223,1,0,0:0:0:0:
64,192,109267,1,0,0:0:0:0:
192,192,109399,1,0,0:0:0:0:
320,192,109487,1,0,0:0:0:0:
64,192,109576,1,0,0:0:0:0:
192,192,109664,1,0,0:0:0:0:
64,192,109752,1,0,0:0:0:0:
320,192,109840,1,0,0:0:0:0:
448,192,109929,1,0,0:0:0:0:
64,192,109929,1,0,0:0:0:0:
192,192,109929,1,0,0:0:0:0:
320,192,110017,1,0,0:0:0:0:
64,192,110105,1,0,0:0:0:0:
320,192,110193,1,0,0:0:0:0:
448,192,110282,1,0,0:0:0:0:
192,192,110282,1,0,0:0:0:0:
64,192,110282,1,0,0:0:0:0:
320,192,110370,1,0,0:0:0:0:
64,192,110458,1,0,0:0:0:0:
320,192,110546,1,0,0:0:0:0:
448,192,110634,1,0,0:0:0:0:
192,192,110634,1,0,0:0:0:0:
64,192,110634,1,0,0:0:0:0:
192,192,110811,1,0,0:0:0:0:
64,192,110987,1,0,0:0:0:0:
320,192,110987,1,0,0:0:0:0:
448,192,110987,1,0,0:0:0:0:
192,192,111164,1,0,0:0:0:0:
448,192,111164,1,0,0:0:0:0:
320,192,111340,1,0,0:0:0:0:
448,192,111340,1,0,0:0:0:0:
64,192,111340,1,0,0:0:0:0:
192,192,111429,1,0,0:0:0:0:
448,192,111517,1,0,0:0:0:0:
192,192,111605,1,0,0:0:0:0:
448,192,111693,1,0,0:0:0:0:
64,192,111693,1,0,0:0:0:0:
320,192,111693,1,0,0:0:0:0:
192,192,111782,1,0,0:0:0:0:
448,192,111870,1,0,0:0:0:0:
192,192,111958,1,0,0:0:0:0:
448,192,112046,1,0,0:0:0:0:
64,192,112046,1,0,0:0:0:0:
320,192,112046,1,0,0:0:0:0:
192,192,112223,1,0,0:0:0:0:
448,192,112223,1,0,0:0:0:0:
320,192,112311,1,0,0:0:0:0:
64,192,112399,1,0,0:0:0:0:
448,192,112399,1,0,0:0:0:0:
192,192,112443,1,0,0:0:0:0:
64,192,112752,1,0,0:0:0:0:
192,192,112752,1,0,0:0:0:0:
320,192,112840,1,0,0:0:0:0:
448,192,112840,1,0,0:0:0:0:
64,192,112929,1,0,0:0:0:0:
192,192,113017,1,0,0:0:0:0:
64,192,113105,1,0,0:0:0:0:
320,192,113193,1,0,0:0:0:0:
192,192,113282,1,0,0:0:0:0:
320,192,113370,1,0,0:0:0:0:
64,192,113458,1,0,0:0:0:0:
192,192,113546,1,0,0:0:0:0:
64,192,113634,1,0,0:0:0:0:
192,192,113723,1,0,0:0:0:0:
320,192,113811,1,0,0:0:0:0:
448,192,113899,1,0,0:0:0:0:
192,192,113987,1,0,0:0:0:0:
320,192,114076,1,0,0:0:0:0:
448,192,114164,1,0,0:0:0:0:
64,192,114164,1,0,0:0:0:0:
192,192,114164,1,0,0:0:0:0:
192,192,114517,1,0,0:0:0:0:
320,192,114546,1,0,0:0:0:0:
64,192,114693,1,0,0:0:0:0:
448,192,114870,1,0,0:0:0:0:
320,192,114914,1,0,0:0:0:0:
192,192,114958,1,0,0:0:0:0:
448,192,115046,1,0,0:0:0:0:
320,192,115134,1,0,0:0:0:0:
192,192,115223,1,0,0:0:0:0:
64,192,115223,1,0,0:0:0:0:
448,192,115223,1,0,0:0:0:0:
320,192,115399,1,0,0:0:0:0:
192,192,115458,1,0,0:0:0:0:
320,192,115517,1,0,0:0:0:0:
192,192,115576,1,0,0:0:0:0:
64,192,115576,1,0,0:0:0:0:
448,192,115576,1,0,0:0:0:0:
320,192,115664,1,0,0:0:0:0:
64,192,115752,1,0,0:0:0:0:
192,192,115752,1,0,0:0:0:0:
64,192,115929,1,0,0:0:0:0:
192,192,115929,1,0,0:0:0:0:
320,192,116017,1,0,0:0:0:0:
64,192,116105,1,0,0:0:0:0:
192,192,116105,1,0,0:0:0:0:
448,192,116282,1,0,0:0:0:0:
320,192,116282,1,0,0:0:0:0:
64,192,116282,1,0,0:0:0:0:
64,192,116458,1,0,0:0:0:0:
192,192,116458,1,0,0:0:0:0:
320,192,116546,1,0,0:0:0:0:
64,192,116634,1,0,0:0:0:0:
192,192,116634,1,0,0:0:0:0:
192,192,116811,1,0,0:0:0:0:
64,192,116811,1,0,0:0:0:0:
448,192,116870,1,0,0:0:0:0:
192,192,116929,1,0,0:0:0:0:
64,192,116987,1,0,0:0:0:0:
320,192,116987,1,0,0:0:0:0:
192,192,117164,1,0,0:0:0:0:
448,192,117164,1,0,0:0:0:0:
320,192,117252,1,0,0:0:0:0:
64,192,117340,1,0,0:0:0:0:
192,192,117340,1,0,0:0:0:0:
448,192,117429,1,0,0:0:0:0:
320,192,117517,1,0,0:0:0:0:
64,192,117517,1,0,0:0:0:0:
192,192,117605,1,0,0:0:0:0:
64,192,117693,1,0,0:0:0:0:
320,192,117693,1,0,0:0:0:0:
448,192,117693,1,0,0:0:0:0:
192,192,117870,1,0,0:0:0:0:
320,192,117870,1,0,0:0:0:0:
448,192,117958,1,0,0:0:0:0:
192,192,118134,1,0,0:0:0:0:
320,192,118134,1,0,0:0:0:0:
448,192,118223,1,0,0:0:0:0:
192,192,118311,1,0,0:0:0:0:
320,192,118311,1,0,0:0:0:0:
192,192,118487,1,0,0:0:0:0:
64,192,118487,1,0,0:0:0:0:
448,192,118576,1,0,0:0:0:0:
192,192,118664,1,0,0:0:0:0:
64,192,118664,1,0,0:0:0:0:
64,192,118840,1,0,0:0:0:0:
192,192,118840,1,0,0:0:0:0:
448,192,118929,1,0,0:0:0:0:
320,192,118929,1,0,0:0:0:0:
192,192,119017,1,0,0:0:0:0:
320,192,119105,1,0,0:0:0:0:
448,192,119105,1,0,0:0:0:0:
64,192,119105,1,0,0:0:0:0:
192,192,119282,1,0,0:0:0:0:
320,192,119282,1,0,0:0:0:0:
64,192,119370,1,0,0:0:0:0:
192,192,119458,1,0,0:0:0:0:
320,192,119458,1,0,0:0:0:0:
320,192,119634,1,0,0:0:0:0:
448,192,119634,1,0,0:0:0:0:
64,192,119693,1,0,0:0:0:0:
320,192,119752,1,0,0:0:0:0:
448,192,119811,1,0,0:0:0:0:
192,192,119811,1,0,0:0:0:0:
192,192,119987,1,0,0:0:0:0:
64,192,119987,1,0,0:0:0:0:
448,192,120046,1,0,0:0:0:0:
192,192,120105,1,0,0:0:0:0:
320,192,120164,1,0,0:0:0:0:
64,192,120164,1,0,0:0:0:0:
448,192,120340,1,0,0:0:0:0:
320,192,120340,1,0,0:0:0:0:
192,192,120429,1,0,0:0:0:0:
448,192,120517,1,0,0:0:0:0:
320,192,120517,1,0,0:0:0:0:
64,192,120517,1,0,0:0:0:0:
192,192,120634,1,0,0:0:0:0:
64,192,120634,1,0,0:0:0:0:
320,192,120752,1,0,0:0:0:0:
64,192,120752,1,0,0:0:0:0:
448,192,120870,1,0,0:0:0:0:
192,192,120870,1,0,0:0:0:0:
320,192,120987,1,0,0:0:0:0:
448,192,120987,1,0,0:0:0:0:
192,192,121105,1,0,0:0:0:0:
448,192,121105,1,0,0:0:0:0:
64,192,121223,1,0,0:0:0:0:
320,192,121223,1,0,0:0:0:0:
192,192,121223,1,0,0:0:0:0:
448,192,121311,1,0,0:0:0:0:
192,192,121399,1,0,0:0:0:0:
64,192,121399,1,0,0:0:0:0:
192,192,121576,1,0,0:0:0:0:
64,192,121576,1,0,0:0:0:0:
448,192,121664,1,0,0:0:0:0:
192,192,121752,1,0,0:0:0:0:
64,192,121752,1,0,0:0:0:0:
320,192,121929,1,0,0:0:0:0:
64,192,121929,1,0,0:0:0:0:
448,192,121929,1,0,0:0:0:0:
448,192,122105,1,0,0:0:0:0:
320,192,122105,1,0,0:0:0:0:
192,192,122193,1,0,0:0:0:0:
448,192,122282,1,0,0:0:0:0:
320,192,122282,1,0,0:0:0:0:
320,192,122458,1,0,0:0:0:0:
448,192,122458,1,0,0:0:0:0:
64,192,122517,1,0,0:0:0:0:
320,192,122576,1,0,0:0:0:0:
192,192,122634,1,0,0:0:0:0:
448,192,122634,1,0,0:0:0:0:
64,192,122811,1,0,0:0:0:0:
320,192,122811,1,0,0:0:0:0:
192,192,122899,1,0,0:0:0:0:
320,192,122987,1,0,0:0:0:0:
448,192,122987,1,0,0:0:0:0:
64,192,123076,1,0,0:0:0:0:
192,192,123164,1,0,0:0:0:0:
448,192,123164,1,0,0:0:0:0:
320,192,123252,1,0,0:0:0:0:
64,192,123340,1,0,0:0:0:0:
192,192,123340,1,0,0:0:0:0:
448,192,123340,1,0,0:0:0:0:
320,192,123517,1,0,0:0:0:0:
192,192,123517,1,0,0:0:0:0:
64,192,123605,1,0,0:0:0:0:
320,192,123782,1,0,0:0:0:0:
192,192,123782,1,0,0:0:0:0:
64,192,123870,1,0,0:0:0:0:
320,192,123958,1,0,0:0:0:0:
192,192,123958,1,0,0:0:0:0:
320,192,124134,1,0,0:0:0:0:
448,192,124134,1,0,0:0:0:0:
64,192,124223,1,0,0:0:0:0:
320,192,124311,1,0,0:0:0:0:
448,192,124311,1,0,0:0:0:0:
448,192,124487,1,0,0:0:0:0:
320,192,124487,1,0,0:0:0:0:
64,192,124576,1,0,0:0:0:0:
192,192,124576,1,0,0:0:0:0:
320,192,124664,1,0,0:0:0:0:
192,192,124752,1,0,0:0:0:0:
448,192,124752,1,0,0:0:0:0:
64,192,124752,1,0,0:0:0:0:
64,192,124929,1,0,0:0:0:0:
192,192,124929,1,0,0:0:0:0:
448,192,125017,1,0,0:0:0:0:
64,192,125105,1,0,0:0:0:0:
320,192,125105,1,0,0:0:0:0:
448,192,125193,1,0,0:0:0:0:
192,192,125282,1,0,0:0:0:0:
64,192,125282,1,0,0:0:0:0:
320,192,125458,1,0,0:0:0:0:
64,192,125458,1,0,0:0:0:0:
448,192,125458,1,0,0:0:0:0:
192,192,125634,1,0,0:0:0:0:
320,192,125634,1,0,0:0:0:0:
448,192,125723,1,0,0:0:0:0:
64,192,125811,1,0,0:0:0:0:
192,192,125811,1,0,0:0:0:0:
448,192,125899,1,0,0:0:0:0:
192,192,125987,1,0,0:0:0:0:
64,192,125987,1,0,0:0:0:0:
448,192,126164,1,0,0:0:0:0:
64,192,126164,1,0,0:0:0:0:
192,192,126164,1,0,0:0:0:0:
320,192,126252,1,0,0:0:0:0:
448,192,126340,1,0,0:0:0:0:
192,192,126340,1,0,0:0:0:0:
64,192,126399,1,0,0:0:0:0:
192,192,126458,1,0,0:0:0:0:
320,192,126517,1,0,0:0:0:0:
64,192,126517,1,0,0:0:0:0:
448,192,126576,1,0,0:0:0:0:
320,192,126634,1,0,0:0:0:0:
448,192,126693,1,0,0:0:0:0:
192,192,126693,1,0,0:0:0:0:
64,192,126752,1,0,0:0:0:0:
192,192,126811,1,0,0:0:0:0:
320,192,126870,1,0,0:0:0:0:
64,192,126870,1,0,0:0:0:0:
448,192,126870,1,0,0:0:0:0:
192,192,126958,1,0,0:0:0:0:
64,192,127046,1,0,0:0:0:0:
320,192,127046,1,0,0:0:0:0:
64,192,127223,1,0,0:0:0:0:
320,192,127223,1,0,0:0:0:0:
192,192,127311,1,0,0:0:0:0:
64,192,127399,1,0,0:0:0:0:
320,192,127399,1,0,0:0:0:0:
448,192,127576,1,0,0:0:0:0:
192,192,127576,1,0,0:0:0:0:
64,192,127576,1,0,0:0:0:0:
64,192,127752,1,0,0:0:0:0:
320,192,127752,1,0,0:0:0:0:
192,192,127840,1,0,0:0:0:0:
64,192,127929,1,0,0:0:0:0:
320,192,127929,1,0,0:0:0:0:
320,192,128105,1,0,0:0:0:0:
64,192,128105,1,0,0:0:0:0:
192,192,128164,1,0,0:0:0:0:
320,192,128223,1,0,0:0:0:0:
64,192,128282,1,0,0:0:0:0:
448,192,128282,1,0,0:0:0:0:
192,192,128458,1,0,0:0:0:0:
448,192,128458,1,0,0:0:0:0:
320,192,128546,1,0,0:0:0:0:
64,192,128634,1,0,0:0:0:0:
192,192,128634,1,0,0:0:0:0:
448,192,128723,1,0,0:0:0:0:
320,192,128811,1,0,0:0:0:0:
64,192,128811,1,0,0:0:0:0:
192,192,128899,1,0,0:0:0:0:
64,192,128987,1,0,0:0:0:0:
320,192,128987,1,0,0:0:0:0:
448,192,128987,1,0,0:0:0:0:
320,192,129164,1,0,0:0:0:0:
192,192,129164,1,0,0:0:0:0:
448,192,129252,1,0,0:0:0:0:
320,192,129429,1,0,0:0:0:0:
192,192,129429,1,0,0:0:0:0:
448,192,129517,1,0,0:0:0:0:
320,192,129605,1,0,0:0:0:0:
192,192,129605,1,0,0:0:0:0:
320,192,129782,1,0,0:0:0:0:
64,192,129782,1,0,0:0:0:0:
448,192,129870,1,0,0:0:0:0:
320,192,129958,1,0,0:0:0:0:
64,192,129958,1,0,0:0:0:0:
64,192,130134,1,0,0:0:0:0:
320,192,130134,1,0,0:0:0:0:
448,192,130223,1,0,0:0:0:0:
192,192,130223,1,0,0:0:0:0:
320,192,130311,1,0,0:0:0:0:
192,192,130399,1,0,0:0:0:0:
448,192,130399,1,0,0:0:0:0:
64,192,130399,1,0,0:0:0:0:
320,192,130576,1,0,0:0:0:0:
192,192,130576,1,0,0:0:0:0:
64,192,130664,1,0,0:0:0:0:
320,192,130752,1,0,0:0:0:0:
192,192,130752,1,0,0:0:0:0:
192,192,130929,1,0,0:0:0:0:
448,192,130929,1,0,0:0:0:0:
320,192,130987,1,0,0:0:0:0:
192,192,131046,1,0,0:0:0:0:
448,192,131105,1,0,0:0:0:0:
64,192,131105,1,0,0:0:0:0:
320,192,131282,1,0,0:0:0:0:
64,192,131282,1,0,0:0:0:0:
192,192,131340,1,0,0:0:0:0:
320,192,131399,1,0,0:0:0:0:
448,192,131458,1,0,0:0:0:0:
64,192,131458,1,0,0:0:0:0:
448,192,131634,1,0,0:0:0:0:
192,192,131634,1,0,0:0:0:0:
320,192,131723,1,0,0:0:0:0:
448,192,131811,1,0,0:0:0:0:
192,192,131811,1,0,0:0:0:0:
64,192,131811,1,0,0:0:0:0:
320,192,131929,1,0,0:0:0:0:
192,192,131929,1,0,0:0:0:0:
448,192,132046,1,0,0:0:0:0:
192,192,132046,1,0,0:0:0:0:
320,192,132164,1,0,0:0:0:0:
64,192,132164,1,0,0:0:0:0:
192,192,132282,1,0,0:0:0:0:
320,192,132282,1,0,0:0:0:0:
320,192,132399,1,0,0:0:0:0:
448,192,132399,1,0,0:0:0:0:
64,192,132517,1,0,0:0:0:0:
192,192,132517,1,0,0:0:0:0:
448,192,132517,1,0,0:0:0:0:
320,192,132605,1,0,0:0:0:0:
448,192,132693,1,0,0:0:0:0:
64,192,132693,1,0,0:0:0:0:
320,192,132870,1,0,0:0:0:0:
64,192,132870,1,0,0:0:0:0:
448,192,132958,1,0,0:0:0:0:
320,192,133046,1,0,0:0:0:0:
64,192,133046,1,0,0:0:0:0:
192,192,133223,1,0,0:0:0:0:
64,192,133223,1,0,0:0:0:0:
448,192,133223,1,0,0:0:0:0:
448,192,133399,1,0,0:0:0:0:
192,192,133399,1,0,0:0:0:0:
320,192,133487,1,0,0:0:0:0:
448,192,133576,1,0,0:0:0:0:
192,192,133576,1,0,0:0:0:0:
192,192,133752,1,0,0:0:0:0:
448,192,133752,1,0,0:0:0:0:
320,192,133811,1,0,0:0:0:0:
192,192,133870,1,0,0:0:0:0:
64,192,133929,1,0,0:0:0:0:
448,192,133929,1,0,0:0:0:0:
64,192,134105,1,0,0:0:0:0:
320,192,134105,1,0,0:0:0:0:
192,192,134193,1,0,0:0:0:0:
320,192,134282,1,0,0:0:0:0:
448,192,134282,1,0,0:0:0:0:
192,192,134370,1,0,0:0:0:0:
448,192,134458,1,0,0:0:0:0:
64,192,134458,1,0,0:0:0:0:
320,192,134546,1,0,0:0:0:0:
64,192,134634,1,0,0:0:0:0:
192,192,134634,1,0,0:0:0:0:
448,192,134634,1,0,0:0:0:0:
192,192,134811,1,0,0:0:0:0:
320,192,134811,1,0,0:0:0:0:
64,192,134899,1,0,0:0:0:0:
192,192,135076,1,0,0:0:0:0:
320,192,135076,1,0,0:0:0:0:
64,192,135164,1,0,0:0:0:0:
192,192,135252,1,0,0:0:0:0:
320,192,135252,1,0,0:0:0:0:
192,192,135429,1,0,0:0:0:0:
448,192,135429,1,0,0:0:0:0:
64,192,135517,1,0,0:0:0:0:
192,192,135605,1,0,0:0:0:0:
448,192,135605,1,0,0:0:0:0:
448,192,135782,1,0,0:0:0:0:
192,192,135782,1,0,0:0:0:0:
64,192,135870,1,0,0:0:0:0:
320,192,135870,1,0,0:0:0:0:
192,192,135958,1,0,0:0:0:0:
320,192,136046,1,0,0:0:0:0:
448,192,136046,1,0,0:0:0:0:
64,192,136046,1,0,0:0:0:0:
192,192,136223,1,0,0:0:0:0:
320,192,136223,1,0,0:0:0:0:
448,192,136311,1,0,0:0:0:0:
64,192,136399,1,0,0:0:0:0:
192,192,136399,1,0,0:0:0:0:
448,192,136487,1,0,0:0:0:0:
320,192,136576,1,0,0:0:0:0:
192,192,136576,1,0,0:0:0:0:
192,192,136752,1,0,0:0:0:0:
64,192,136752,1,0,0:0:0:0:
448,192,136752,1,0,0:0:0:0:
320,192,136929,1,0,0:0:0:0:
192,192,136929,1,0,0:0:0:0:
64,192,137017,1,0,0:0:0:0:
448,192,137105,1,0,0:0:0:0:
320,192,137105,1,0,0:0:0:0:
64,192,137193,1,0,0:0:0:0:
192,192,137282,1,0,0:0:0:0:
320,192,137282,1,0,0:0:0:0:
448,192,137458,1,0,0:0:0:0:
64,192,137458,1,0,0:0:0:0:
192,192,137458,1,0,0:0:0:0:
320,192,137546,1,0,0:0:0:0:
448,192,137634,1,0,0:0:0:0:
64,192,137634,1,0,0:0:0:0:
192,192,137693,1,0,0:0:0:0:
64,192,137752,1,0,0:0:0:0:
448,192,137811,1,0,0:0:0:0:
192,192,137811,1,0,0:0:0:0:
320,192,137870,1,0,0:0:0:0:
448,192,137929,1,0,0:0:0:0:
64,192,137987,1,0,0:0:0:0:
320,192,137987,1,0,0:0:0:0:
192,192,138046,1,0,0:0:0:0:
64,192,138105,1,0,0:0:0:0:
320,192,138164,1,0,0:0:0:0:
192,192,138164,1,0,0:0:0:0:
448,192,138164,1,0,0:0:0:0:
64,192,138340,128,0,138517:0:0:0:0:
320,192,138517,128,0,138693:0:0:0:0:
192,192,138693,128,0,138870:0:0:0:0:
192,192,139046,128,0,139223:0:0:0:0:
64,192,139223,128,0,139399:0:0:0:0:
320,192,139399,128,0,139576:0:0:0:0:
192,192,139752,128,0,139929:0:0:0:0:
320,192,139929,128,0,140105:0:0:0:0:
64,192,140105,128,0,140282:0:0:0:0:
192,192,140458,128,0,140634:0:0:0:0:
64,192,140634,128,0,140811:0:0:0:0:
320,192,140811,1,0,0:0:0:0:
192,192,140870,1,0,0:0:0:0:
320,192,140929,1,0,0:0:0:0:
192,192,140987,1,0,0:0:0:0:
192,192,141340,1,0,0:0:0:0:
320,192,141399,1,0,0:0:0:0:
192,192,141458,1,0,0:0:0:0:
320,192,141517,1,0,0:0:0:0:
192,192,141870,128,0,142046:0:0:0:0:
448,192,142046,1,0,0:0:0:0:
64,192,142046,128,0,142223:0:0:0:0:
320,192,142223,128,0,142399:0:0:0:0:
192,192,142576,128,0,142752:0:0:0:0:
448,192,142576,1,0,0:0:0:0:
320,192,142752,128,0,142929:0:0:0:0:
64,192,142929,128,0,143105:0:0:0:0:
64,192,143282,1,0,0:0:0:0:
192,192,143282,1,0,0:0:0:0:
320,192,143340,1,0,0:0:0:0:
448,192,143340,1,0,0:0:0:0:
192,192,143399,1,0,0:0:0:0:
64,192,143458,1,0,0:0:0:0:
320,192,143458,1,0,0:0:0:0:
448,192,143458,1,0,0:0:0:0:
192,192,143634,1,0,0:0:0:0:
320,192,143634,1,0,0:0:0:0:
64,192,143811,1,0,0:0:0:0:
448,192,143811,1,0,0:0:0:0:
192,192,143811,1,0,0:0:0:0:
320,192,143987,1,0,0:0:0:0:
64,192,144164,1,0,0:0:0:0:
448,192,144164,1,0,0:0:0:0:
192,192,144340,1,0,0:0:0:0:
64,192,144517,1,0,0:0:0:0:
448,192,144517,1,0,0:0:0:0:
320,192,144693,1,0,0:0:0:0:
64,192,144870,1,0,0:0:0:0:
448,192,144870,1,0,0:0:0:0:
192,192,145046,1,0,0:0:0:0:
320,192,145223,1,0,0:0:0:0:
448,192,145223,1,0,0:0:0:0:
64,192,145399,1,0,0:0:0:0:
320,192,145576,1,0,0:0:0:0:
448,192,145576,1,0,0:0:0:0:
192,192,145752,1,0,0:0:0:0:
320,192,145929,1,0,0:0:0:0:
448,192,145929,1,0,0:0:0:0:
64,192,146105,1,0,0:0:0:0:
320,192,146282,1,0,0:0:0:0:
448,192,146282,1,0,0:0:0:0:
192,192,146458,1,0,0:0:0:0:
64,192,146634,1,0,0:0:0:0:
448,192,146634,1,0,0:0:0:0:
64,192,146811,1,0,0:0:0:0:
448,192,146811,1,0,0:0:0:0:
192,192,146987,1,0,0:0:0:0:
320,192,146987,1,0,0:0:0:0:
192,192,147164,1,0,0:0:0:0:
320,192,147164,1,0,0:0:0:0:
64,192,147340,1,0,0:0:0:0:
448,192,147340,1,0,0:0:0:0:
448,192,147517,1,0,0:0:0:0:
64,192,147517,1,0,0:0:0:0:
64,192,147693,1,0,0:0:0:0:
448,192,147693,1,0,0:0:0:0:
448,192,147870,1,0,0:0:0:0:
64,192,147870,1,0,0:0:0:0:
64,192,148046,1,0,0:0:0:0:
192,192,148046,1,0,0:0:0:0:
320,192,148046,1,0,0:0:0:0:
448,192,148046,1,0,0:0:0:0:
448,192,148223,1,0,0:0:0:0:
320,192,148223,1,0,0:0:0:0:
192,192,148223,1,0,0:0:0:0:
64,192,148223,1,0,0:0:0:0:
192,192,148576,1,0,0:0:0:0:
320,192,148634,1,0,0:0:0:0:
192,192,148693,1,0,0:0:0:0:
320,192,148752,1,0,0:0:0:0:
448,192,148752,1,0,0:0:0:0:
64,192,148840,1,0,0:0:0:0:
192,192,148840,1,0,0:0:0:0:
448,192,148929,1,0,0:0:0:0:
192,192,149017,1,0,0:0:0:0:
320,192,149105,1,0,0:0:0:0:
192,192,149193,1,0,0:0:0:0:
320,192,149282,1,0,0:0:0:0:
64,192,149370,1,0,0:0:0:0:
192,192,149458,1,0,0:0:0:0:
320,192,149458,1,0,0:0:0:0:
448,192,149458,1,0,0:0:0:0:
64,192,149634,1,0,0:0:0:0:
192,192,149811,1,0,0:0:0:0:
64,192,149987,128,0,150076:0:0:0:0:
448,192,149987,1,0,0:0:0:0:
320,192,150076,128,0,150164:0:0:0:0:
64,192,150164,128,0,150282:0:0:0:0:
192,192,150164,128,0,150282:0:0:0:0:
448,192,150164,1,0,0:0:0:0:
64,192,150399,128,0,150517:0:0:0:0:
320,192,150399,128,0,150517:0:0:0:0:
448,192,150517,1,0,0:0:0:0:
320,192,150664,128,0,150782:0:0:0:0:
192,192,150664,128,0,150782:0:0:0:0:
448,192,150899,128,0,151017:0:0:0:0:
192,192,150899,128,0,151017:0:0:0:0:
320,192,151164,128,0,151282:0:0:0:0:
448,192,151164,128,0,151282:0:0:0:0:
64,192,151223,1,0,0:0:0:0:
448,192,151399,1,0,0:0:0:0:
64,192,151429,128,0,151517:0:0:0:0:
320,192,151458,1,0,0:0:0:0:
192,192,151517,1,0,0:0:0:0:
64,192,151576,1,0,0:0:0:0:
320,192,151576,1,0,0:0:0:0:
448,192,151576,1,0,0:0:0:0:
64,192,151840,128,0,152811:0:0:0:0:
448,192,151840,128,0,152811:0:0:0:0:
192,192,152282,1,0,0:0:0:0:
320,192,152282,1,0,0:0:0:0:
320,192,152811,128,0,152987:0:0:0:0:
192,192,152899,128,0,153076:0:0:0:0:
448,192,152987,128,0,153164:0:0:0:0:
64,192,152987,1,0,0:0:0:0:
320,192,153076,128,0,153252:0:0:0:0:
192,192,153164,128,0,153340:0:0:0:0:
64,192,153252,128,0,153429:0:0:0:0:
320,192,153340,128,0,153517:0:0:0:0:
448,192,153340,1,0,0:0:0:0:
192,192,153429,128,0,153605:0:0:0:0:
448,192,153517,128,0,153693:0:0:0:0:
64,192,153517,1,0,0:0:0:0:
320,192,153605,128,0,153693:0:0:0:0:
64,192,153693,128,0,154223:0:0:0:0:
192,192,153693,1,0,0:0:0:0:
320,192,153870,1,0,0:0:0:0:
320,192,154046,1,0,0:0:0:0:
192,192,154223,128,0,154752:0:0:0:0:
448,192,154223,1,0,0:0:0:0:
320,192,154282,1,0,0:0:0:0:
448,192,154340,1,0,0:0:0:0:
320,192,154399,1,0,0:0:0:0:
64,192,154399,1,0,0:0:0:0:
448,192,154752,128,0,155105:0:0:0:0:
192,192,155105,128,0,156870:0:0:0:0:
64,192,155105,1,0,0:0:0:0:
448,192,155634,1,0,0:0:0:0:
320,192,155723,1,0,0:0:0:0:
64,192,155811,1,0,0:0:0:0:
448,192,155811,1,0,0:0:0:0:
320,192,156164,1,0,0:0:0:0:
320,192,156340,1,0,0:0:0:0:
448,192,156517,128,0,156605:0:0:0:0:
320,192,156605,128,0,156693:0:0:0:0:
64,192,156693,128,0,156870:0:0:0:0:
448,192,156693,1,0,0:0:0:0:
448,192,156870,1,0,0:0:0:0:
448,192,157046,1,0,0:0:0:0:
192,192,157105,1,0,0:0:0:0:
448,192,157164,1,0,0:0:0:0:
320,192,157223,1,0,0:0:0:0:
64,192,157223,1,0,0:0:0:0:
192,192,157223,1,0,0:0:0:0:
448,192,157576,1,0,0:0:0:0:
64,192,157752,128,0,157840:0:0:0:0:
320,192,157840,128,0,157929:0:0:0:0:
192,192,157929,128,0,158105:0:0:0:0:
64,192,157929,1,0,0:0:0:0:
320,192,158282,1,0,0:0:0:0:
64,192,158458,128,0,158546:0:0:0:0:
448,192,158458,1,0,0:0:0:0:
192,192,158546,1,0,0:0:0:0:
320,192,158634,128,0,158811:0:0:0:0:
64,192,158634,1,0,0:0:0:0:
448,192,158634,1,0,0:0:0:0:
64,192,158987,1,0,0:0:0:0:
192,192,159164,128,0,159252:0:0:0:0:
64,192,159164,1,0,0:0:0:0:
448,192,159340,128,0,159517:0:0:0:0:
64,192,159517,1,0,0:0:0:0:
64,192,159693,1,0,0:0:0:0:
64,192,159870,128,0,159958:0:0:0:0:
448,192,159870,1,0,0:0:0:0:
320,192,159929,1,0,0:0:0:0:
192,192,159987,1,0,0:0:0:0:
448,192,160046,128,0,160576:0:0:0:0:
64,192,160046,1,0,0:0:0:0:
320,192,160046,1,0,0:0:0:0:
320,192,160223,1,0,0:0:0:0:
64,192,160311,128,0,160576:0:0:0:0:
192,192,160311,1,0,0:0:0:0:
192,192,160487,1,0,0:0:0:0:
320,192,160576,1,0,0:0:0:0:
192,192,160664,1,0,0:0:0:0:
64,192,160752,1,0,0:0:0:0:
448,192,160752,128,0,160840:0:0:0:0:
320,192,160752,1,0,0:0:0:0:
192,192,160840,128,0,160929:0:0:0:0:
448,192,160929,128,0,161105:0:0:0:0:
192,192,161017,128,0,161193:0:0:0:0:
320,192,161105,128,0,161193:0:0:0:0:
64,192,161193,128,0,161370:0:0:0:0:
448,192,161282,128,0,161370:0:0:0:0:
320,192,161282,1,0,0:0:0:0:
192,192,161370,128,0,161458:0:0:0:0:
448,192,161458,128,0,161634:0:0:0:0:
320,192,161458,1,0,0:0:0:0:
64,192,161458,1,0,0:0:0:0:
192,192,161546,128,0,161723:0:0:0:0:
320,192,161634,128,0,161811:0:0:0:0:
64,192,161723,128,0,161899:0:0:0:0:
448,192,161811,128,0,161899:0:0:0:0:
192,192,161811,1,0,0:0:0:0:
320,192,161899,128,0,162076:0:0:0:0:
192,192,161987,128,0,162164:0:0:0:0:
448,192,161987,1,0,0:0:0:0:
64,192,162076,128,0,162252:0:0:0:0:
448,192,162164,128,0,162252:0:0:0:0:
320,192,162252,128,0,162340:0:0:0:0:
448,192,162340,128,0,162429:0:0:0:0:
64,192,162340,1,0,0:0:0:0:
320,192,162429,128,0,162605:0:0:0:0:
192,192,162517,128,0,162693:0:0:0:0:
448,192,162517,1,0,0:0:0:0:
64,192,162605,128,0,162782:0:0:0:0:
448,192,162693,128,0,162782:0:0:0:0:
320,192,162782,128,0,162870:0:0:0:0:
64,192,162870,1,0,0:0:0:0:
448,192,162870,128,0,163046:0:0:0:0:
192,192,162870,1,0,0:0:0:0:
320,192,162958,128,0,163134:0:0:0:0:
192,192,163046,128,0,163223:0:0:0:0:
448,192,163134,128,0,163311:0:0:0:0:
320,192,163223,128,0,163399:0:0:0:0:
64,192,163311,128,0,163487:0:0:0:0:
448,192,163399,128,0,163487:0:0:0:0:
320,192,163443,128,0,163532:0:0:0:0:
192,192,163487,128,0,163664:0:0:0:0:
320,192,163576,128,0,163752:0:0:0:0:
448,192,163576,128,0,163664:0:0:0:0:
64,192,163664,128,0,163752:0:0:0:0:
192,192,163752,128,0,163840:0:0:0:0:
64,192,163840,128,0,163929:0:0:0:0:
448,192,163929,128,0,164017:0:0:0:0:
192,192,164017,128,0,164193:0:0:0:0:
320,192,164105,128,0,164193:0:0:0:0:
448,192,164105,128,0,164193:0:0:0:0:
64,192,164193,128,0,164282:0:0:0:0:
192,192,164282,128,0,164370:0:0:0:0:
448,192,164282,1,0,0:0:0:0:
320,192,164282,1,0,0:0:0:0:
64,192,164370,128,0,164458:0:0:0:0:
448,192,164458,128,0,164546:0:0:0:0:
192,192,164546,128,0,164723:0:0:0:0:
320,192,164634,128,0,164811:0:0:0:0:
448,192,164634,128,0,164723:0:0:0:0:
64,192,164723,128,0,164811:0:0:0:0:
192,192,164811,128,0,164899:0:0:0:0:
448,192,164811,1,0,0:0:0:0:
64,192,164899,128,0,164987:0:0:0:0:
448,192,164987,128,0,165164:0:0:0:0:
320,192,165046,128,0,165223:0:0:0:0:
64,192,165164,1,0,0:0:0:0:
448,192,165223,128,0,165458:0:0:0:0:
320,192,165282,128,0,165517:0:0:0:0:
64,192,165340,1,0,0:0:0:0:
448,192,165517,128,0,165752:0:0:0:0:
320,192,165576,128,0,165811:0:0:0:0:
64,192,165693,1,0,0:0:0:0:
192,192,165693,1,0,0:0:0:0:
448,192,165811,128,0,166046:0:0:0:0:
320,192,165870,128,0,166046:0:0:0:0:
64,192,165870,1,0,0:0:0:0:
64,192,166046,1,0,0:0:0:0:
192,192,166046,1,0,0:0:0:0:
320,192,166223,128,0,166399:0:0:0:0:
64,192,166223,1,0,0:0:0:0:
64,192,166399,1,0,0:0:0:0:
192,192,166399,1,0,0:0:0:0:
448,192,166399,1,0,0:0:0:0:
448,192,166576,128,0,166752:0:0:0:0:
320,192,166634,128,0,166811:0:0:0:0:
192,192,166693,128,0,166870:0:0:0:0:
64,192,166752,128,0,167811:0:0:0:0:
448,192,166929,1,0,0:0:0:0:
320,192,167017,1,0,0:0:0:0:
448,192,167105,1,0,0:0:0:0:
192,192,167105,1,0,0:0:0:0:
320,192,167458,1,0,0:0:0:0:
320,192,167634,1,0,0:0:0:0:
192,192,167811,128,0,167899:0:0:0:0:
320,192,167899,128,0,167987:0:0:0:0:
448,192,167987,128,0,168076:0:0:0:0:
64,192,167987,1,0,0:0:0:0:
64,192,168164,1,0,0:0:0:0:
64,192,168340,1,0,0:0:0:0:
320,192,168399,1,0,0:0:0:0:
64,192,168458,1,0,0:0:0:0:
192,192,168517,1,0,0:0:0:0:
448,192,168517,1,0,0:0:0:0:
320,192,168517,1,0,0:0:0:0:
448,192,168870,1,0,0:0:0:0:
64,192,169046,128,0,169134:0:0:0:0:
320,192,169134,128,0,169223:0:0:0:0:
64,192,169223,128,0,169311:0:0:0:0:
192,192,169311,128,0,169487:0:0:0:0:
64,192,169399,128,0,169840:0:0:0:0:
320,192,169487,128,0,169664:0:0:0:0:
192,192,169576,128,0,170105:0:0:0:0:
448,192,169664,128,0,169752:0:0:0:0:
320,192,169752,128,0,169929:0:0:0:0:
448,192,169840,128,0,170282:0:0:0:0:
64,192,169929,128,0,170017:0:0:0:0:
320,192,170017,128,0,170193:0:0:0:0:
64,192,170105,128,0,170546:0:0:0:0:
192,192,170193,128,0,170370:0:0:0:0:
320,192,170282,128,0,170546:0:0:0:0:
448,192,170370,128,0,170458:0:0:0:0:
192,192,170458,128,0,170546:0:0:0:0:
448,192,170546,128,0,170634:0:0:0:0:
320,192,170634,1,0,0:0:0:0:
192,192,170634,1,0,0:0:0:0:
64,192,170634,128,0,170899:0:0:0:0:
448,192,170723,1,0,0:0:0:0:
192,192,170811,1,0,0:0:0:0:
448,192,170899,128,0,171164:0:0:0:0:
320,192,170899,1,0,0:0:0:0:
64,192,170987,1,0,0:0:0:0:
192,192,171076,1,0,0:0:0:0:
64,192,171164,128,0,171252:0:0:0:0:
320,192,171164,1,0,0:0:0:0:
192,192,171252,1,0,0:0:0:0:
448,192,171340,128,0,171958:0:0:0:0:
320,192,171340,1,0,0:0:0:0:
64,192,171340,1,0,0:0:0:0:
192,192,171429,1,0,0:0:0:0:
320,192,171517,1,0,0:0:0:0:
64,192,171605,1,0,0:0:0:0:
192,192,171649,1,0,0:0:0:0:
320,192,171693,1,0,0:0:0:0:
64,192,171782,1,0,0:0:0:0:
320,192,171870,1,0,0:0:0:0:
64,192,171958,1,0,0:0:0:0:
320,192,172046,1,0,0:0:0:0:
448,192,172046,1,0,0:0:0:0:
192,192,172046,128,0,173282:0:0:0:0:
448,192,172399,1,0,0:0:0:0:
64,192,172399,1,0,0:0:0:0:
320,192,172487,1,0,0:0:0:0:
320,192,172664,1,0,0:0:0:0:
64,192,172752,1,0,0:0:0:0:
448,192,172752,1,0,0:0:0:0:
320,192,172840,1,0,0:0:0:0:
64,192,172929,1,0,0:0:0:0:
320,192,173017,1,0,0:0:0:0:
64,192,173105,1,0,0:0:0:0:
448,192,173105,1,0,0:0:0:0:
320,192,173282,128,0,173370:0:0:0:0:
448,192,173370,128,0,173458:0:0:0:0:
64,192,173458,1,0,0:0:0:0:
320,192,173458,128,0,173546:0:0:0:0:
192,192,173546,128,0,173634:0:0:0:0:
64,192,173634,128,0,173723:0:0:0:0:
320,192,173723,128,0,173811:0:0:0:0:
64,192,173811,1,0,0:0:0:0:
192,192,173811,128,0,173899:0:0:0:0:
448,192,173899,128,0,173987:0:0:0:0:
192,192,173987,128,0,174076:0:0:0:0:
320,192,174076,128,0,174164:0:0:0:0:
448,192,174164,1,0,0:0:0:0:
64,192,174164,128,0,174340:0:0:0:0:
192,192,174252,1,0,0:0:0:0:
320,192,174340,1,0,0:0:0:0:
192,192,174429,1,0,0:0:0:0:
448,192,174429,128,0,174605:0:0:0:0:
64,192,174517,1,0,0:0:0:0:
320,192,174517,1,0,0:0:0:0:
192,192,174605,1,0,0:0:0:0:
448,192,174693,1,0,0:0:0:0:
64,192,174693,128,0,174870:0:0:0:0:
192,192,174782,1,0,0:0:0:0:
320,192,174870,1,0,0:0:0:0:
448,192,174870,1,0,0:0:0:0:
192,192,174987,128,0,176193:0:0:0:0:
320,192,175223,1,0,0:0:0:0:
448,192,175223,1,0,0:0:0:0:
64,192,175311,1,0,0:0:0:0:
64,192,175487,1,0,0:0:0:0:
320,192,175576,1,0,0:0:0:0:
448,192,175576,1,0,0:0:0:0:
64,192,175664,1,0,0:0:0:0:
320,192,175752,1,0,0:0:0:0:
64,192,175840,1,0,0:0:0:0:
320,192,175929,1,0,0:0:0:0:
448,192,175929,1,0,0:0:0:0:
448,192,176105,1,0,0:0:0:0:
64,192,176193,1,0,0:0:0:0:
320,192,176282,1,0,0:0:0:0:
448,192,176282,1,0,0:0:0:0:
64,192,176458,1,0,0:0:0:0:
320,192,176634,1,0,0:0:0:0:
448,192,176634,1,0,0:0:0:0:
64,192,176723,1,0,0:0:0:0:
192,192,176811,128,0,176987:0:0:0:0:
64,192,176899,1,0,0:0:0:0:
320,192,176987,128,0,177164:0:0:0:0:
448,192,176987,1,0,0:0:0:0:
64,192,177076,1,0,0:0:0:0:
192,192,177164,128,0,177340:0:0:0:0:
448,192,177164,1,0,0:0:0:0:
320,192,177252,1,0,0:0:0:0:
448,192,177340,128,0,177517:0:0:0:0:
64,192,177340,1,0,0:0:0:0:
320,192,177429,1,0,0:0:0:0:
64,192,177517,128,0,177605:0:0:0:0:
192,192,177517,1,0,0:0:0:0:
320,192,177605,1,0,0:0:0:0:
64,192,177693,1,0,0:0:0:0:
192,192,177693,1,0,0:0:0:0:
448,192,177693,1,0,0:0:0:0:
320,192,177870,1,0,0:0:0:0:
192,192,177958,1,0,0:0:0:0:
448,192,178046,1,0,0:0:0:0:
320,192,178134,1,0,0:0:0:0:
64,192,178223,1,0,0:0:0:0:
192,192,178223,1,0,0:0:0:0:
448,192,178311,1,0,0:0:0:0:
320,192,178311,1,0,0:0:0:0:
192,192,178399,1,0,0:0:0:0:
320,192,178458,1,0,0:0:0:0:
448,192,178517,1,0,0:0:0:0:
192,192,178576,1,0,0:0:0:0:
192,192,178664,1,0,0:0:0:0:
320,192,178752,1,0,0:0:0:0:
448,192,178752,1,0,0:0:0:0:
64,192,178752,1,0,0:0:0:0:
320,192,178840,1,0,0:0:0:0:
448,192,178840,1,0,0:0:0:0:
192,192,178929,1,0,0:0:0:0:
448,192,179017,1,0,0:0:0:0:
320,192,179105,1,0,0:0:0:0:
192,192,179105,1,0,0:0:0:0:
64,192,179105,1,0,0:0:0:0:
64,192,179282,1,0,0:0:0:0:
320,192,179458,1,0,0:0:0:0:
192,192,179546,1,0,0:0:0:0:
320,192,179634,1,0,0:0:0:0:
448,192,179634,1,0,0:0:0:0:
192,192,179723,1,0,0:0:0:0:
64,192,179723,1,0,0:0:0:0:
320,192,179811,1,0,0:0:0:0:
448,192,179870,1,0,0:0:0:0:
192,192,179929,1,0,0:0:0:0:
320,192,179987,1,0,0:0:0:0:
320,192,180076,1,0,0:0:0:0:
64,192,180164,1,0,0:0:0:0:
192,192,180164,1,0,0:0:0:0:
448,192,180164,1,0,0:0:0:0:
192,192,180252,1,0,0:0:0:0:
64,192,180252,1,0,0:0:0:0:
320,192,180340,1,0,0:0:0:0:
192,192,180429,1,0,0:0:0:0:
320,192,180517,1,0,0:0:0:0:
64,192,180517,1,0,0:0:0:0:
448,192,180517,1,0,0:0:0:0:
320,192,180605,1,0,0:0:0:0:
192,192,180693,1,0,0:0:0:0:
320,192,180782,1,0,0:0:0:0:
192,192,180870,1,0,0:0:0:0:
64,192,180870,1,0,0:0:0:0:
448,192,180870,1,0,0:0:0:0:
192,192,180958,1,0,0:0:0:0:
320,192,181046,1,0,0:0:0:0:
192,192,181134,1,0,0:0:0:0:
64,192,181223,1,0,0:0:0:0:
320,192,181223,1,0,0:0:0:0:
448,192,181223,1,0,0:0:0:0:
320,192,181311,1,0,0:0:0:0:
192,192,181399,1,0,0:0:0:0:
320,192,181487,1,0,0:0:0:0:
64,192,181576,1,0,0:0:0:0:
192,192,181576,1,0,0:0:0:0:
64,192,181664,1,0,0:0:0:0:
192,192,181664,1,0,0:0:0:0:
320,192,181752,1,0,0:0:0:0:
448,192,181752,1,0,0:0:0:0:
448,192,181840,1,0,0:0:0:0:
320,192,181840,1,0,0:0:0:0:
192,192,181929,1,0,0:0:0:0:
448,192,181929,1,0,0:0:0:0:
320,192,181929,1,0,0:0:0:0:
64,192,181929,128,0,183340:0:0:0:0:
448,192,183340,128,0,183517:0:0:0:0:
320,192,183870,128,0,184046:0:0:0:0:
448,192,184752,128,0,184929:0:0:0:0:
320,192,185282,128,0,185458:0:0:0:0:
192,192,186164,128,0,186340:0:0:0:0:
64,192,186693,128,0,186870:0:0:0:0:
192,192,187576,128,0,187752:0:0:0:0:
64,192,188105,128,0,188282:0:0:0:0:
192,192,188634,128,0,188811:0:0:0:0:
448,192,188987,128,0,189164:0:0:0:0:
320,192,189517,128,0,189693:0:0:0:0:
448,192,190399,128,0,190576:0:0:0:0:
320,192,190929,128,0,191105:0:0:0:0:
192,192,191811,128,0,191987:0:0:0:0:
64,192,192340,128,0,192517:0:0:0:0:
320,192,193046,1,0,0:0:0:0:
448,192,193046,1,0,0:0:0:0:
192,192,193105,1,0,0:0:0:0:
64,192,193105,1,0,0:0:0:0:
320,192,193164,1,0,0:0:0:0:
192,192,193223,1,0,0:0:0:0:
64,192,193223,1,0,0:0:0:0:
448,192,193223,1,0,0:0:0:0:
320,192,193576,1,0,0:0:0:0:
448,192,193576,1,0,0:0:0:0:
192,192,193634,1,0,0:0:0:0:
64,192,193634,1,0,0:0:0:0:
320,192,193693,1,0,0:0:0:0:
192,192,193752,1,0,0:0:0:0:
64,192,193752,1,0,0:0:0:0:
448,192,193752,1,0,0:0:0:0:
192,192,194105,1,0,0:0:0:0:
320,192,194164,1,0,0:0:0:0:
192,192,194223,1,0,0:0:0:0:
320,192,194282,1,0,0:0:0:0:
448,192,194282,1,0,0:0:0:0:
192,192,194370,1,0,0:0:0:0:
64,192,194370,1,0,0:0:0:0:
448,192,194458,1,0,0:0:0:0:
320,192,194546,1,0,0:0:0:0:
448,192,194634,1,0,0:0:0:0:
192,192,194634,1,0,0:0:0:0:
64,192,194634,1,0,0:0:0:0:
448,192,195164,1,0,0:0:0:0:
192,192,195164,1,0,0:0:0:0:
64,192,195164,1,0,0:0:0:0:
448,192,195782,1,0,0:0:0:0:
192,192,195870,1,0,0:0:0:0:
448,192,195958,1,0,0:0:0:0:
192,192,196046,1,0,0:0:0:0:
320,192,196046,1,0,0:0:0:0:
64,192,196046,1,0,0:0:0:0:
320,192,196576,1,0,0:0:0:0:
192,192,196576,1,0,0:0:0:0:
64,192,196576,1,0,0:0:0:0:
448,192,197105,1,0,0:0:0:0:
320,192,197164,1,0,0:0:0:0:
448,192,197223,1,0,0:0:0:0:
192,192,197282,1,0,0:0:0:0:
320,192,197340,1,0,0:0:0:0:
64,192,197399,1,0,0:0:0:0:
320,192,197458,1,0,0:0:0:0:
192,192,197458,1,0,0:0:0:0:
448,192,197458,1,0,0:0:0:0:
448,192,197987,1,0,0:0:0:0:
320,192,197987,1,0,0:0:0:0:
192,192,197987,1,0,0:0:0:0:
320,192,198340,1,0,0:0:0:0:
64,192,198399,1,0,0:0:0:0:
320,192,198458,1,0,0:0:0:0:
192,192,198517,1,0,0:0:0:0:
64,192,198517,1,0,0:0:0:0:
448,192,198517,1,0,0:0:0:0:
320,192,198870,1,0,0:0:0:0:
448,192,198870,1,0,0:0:0:0:
192,192,198958,1,0,0:0:0:0:
64,192,198958,1,0,0:0:0:0:
448,192,199046,1,0,0:0:0:0:
320,192,199134,1,0,0:0:0:0:
64,192,199223,1,0,0:0:0:0:
192,192,199311,1,0,0:0:0:0:
320,192,199399,1,0,0:0:0:0:
64,192,199487,1,0,0:0:0:0:
448,192,199576,1,0,0:0:0:0:
320,192,199664,1,0,0:0:0:0:
192,192,199752,1,0,0:0:0:0:
448,192,199840,1,0,0:0:0:0:
192,192,199929,1,0,0:0:0:0:
64,192,199929,1,0,0:0:0:0:
320,192,200017,1,0,0:0:0:0:
448,192,200017,1,0,0:0:0:0:
64,192,200105,1,0,0:0:0:0:
192,192,200105,1,0,0:0:0:0:
320,192,200193,1,0,0:0:0:0:
448,192,200282,1,0,0:0:0:0:
192,192,200282,1,0,0:0:0:0:
64,192,200282,1,0,0:0:0:0:
448,192,200811,1,0,0:0:0:0:
192,192,200811,1,0,0:0:0:0:
64,192,200811,1,0,0:0:0:0:
64,192,201429,1,0,0:0:0:0:
320,192,201517,1,0,0:0:0:0:
64,192,201605,1,0,0:0:0:0:
448,192,201693,1,0,0:0:0:0:
192,192,201693,1,0,0:0:0:0:
320,192,201693,1,0,0:0:0:0:
320,192,202223,1,0,0:0:0:0:
448,192,202223,1,0,0:0:0:0:
64,192,202223,1,0,0:0:0:0:
192,192,202576,1,0,0:0:0:0:
320,192,202664,1,0,0:0:0:0:
64,192,202752,1,0,0:0:0:0:
192,192,202752,1,0,0:0:0:0:
448,192,202752,1,0,0:0:0:0:
448,192,202929,1,0,0:0:0:0:
64,192,202929,1,0,0:0:0:0:
448,192,203105,1,0,0:0:0:0:
64,192,203105,1,0,0:0:0:0:
320,192,203164,1,0,0:0:0:0:
448,192,203223,1,0,0:0:0:0:
192,192,203282,1,0,0:0:0:0:
320,192,203340,1,0,0:0:0:0:
192,192,203399,1,0,0:0:0:0:
448,192,203458,1,0,0:0:0:0:
320,192,203517,1,0,0:0:0:0:
448,192,203576,1,0,0:0:0:0:
192,192,203634,1,0,0:0:0:0:
320,192,203693,1,0,0:0:0:0:
448,192,203752,1,0,0:0:0:0:
64,192,203811,1,0,0:0:0:0:
192,192,203870,1,0,0:0:0:0:
64,192,203929,1,0,0:0:0:0:
320,192,203987,1,0,0:0:0:0:
192,192,204046,1,0,0:0:0:0:
320,192,204105,1,0,0:0:0:0:
64,192,204164,1,0,0:0:0:0:
192,192,204223,1,0,0:0:0:0:
64,192,204282,1,0,0:0:0:0:
320,192,204340,1,0,0:0:0:0:
192,192,204399,1,0,0:0:0:0:
320,192,204458,1,0,0:0:0:0:
64,192,204517,1,0,0:0:0:0:
192,192,204517,1,0,0:0:0:0:
448,192,204517,1,0,0:0:0:0:
448,192,205929,1,0,0:0:0:0:
192,192,205929,1,0,0:0:0:0:
64,192,205929,1,0,0:0:0:0:
448,192,206105,1,0,0:0:0:0:
448,192,206282,1,0,0:0:0:0:
192,192,206282,1,0,0:0:0:0:
448,192,206458,1,0,0:0:0:0:
448,192,206634,1,0,0:0:0:0:
192,192,206634,1,0,0:0:0:0:
448,192,206811,1,0,0:0:0:0:
448,192,206987,1,0,0:0:0:0:
192,192,206987,1,0,0:0:0:0:
448,192,207164,1,0,0:0:0:0:
64,192,207340,1,0,0:0:0:0:
320,192,207340,1,0,0:0:0:0:
64,192,207517,1,0,0:0:0:0:
64,192,207693,1,0,0:0:0:0:
320,192,207693,1,0,0:0:0:0:
64,192,207870,1,0,0:0:0:0:
64,192,208046,1,0,0:0:0:0:
320,192,208046,1,0,0:0:0:0:
64,192,208223,1,0,0:0:0:0:
64,192,208399,1,0,0:0:0:0:
320,192,208399,1,0,0:0:0:0:
64,192,208576,1,0,0:0:0:0:
320,192,208752,1,0,0:0:0:0:
192,192,208752,1,0,0:0:0:0:
320,192,208929,1,0,0:0:0:0:
192,192,209105,1,0,0:0:0:0:
320,192,209105,1,0,0:0:0:0:
192,192,209282,1,0,0:0:0:0:
192,192,209458,1,0,0:0:0:0:
320,192,209458,1,0,0:0:0:0:
320,192,209634,1,0,0:0:0:0:
320,192,209811,1,0,0:0:0:0:
192,192,209811,1,0,0:0:0:0:
192,192,209987,1,0,0:0:0:0:
192,192,210164,1,0,0:0:0:0:
320,192,210164,1,0,0:0:0:0:
320,192,210340,1,0,0:0:0:0:
192,192,210517,1,0,0:0:0:0:
320,192,210517,1,0,0:0:0:0:
192,192,210693,1,0,0:0:0:0:
320,192,210782,1,0,0:0:0:0:
192,192,210870,1,0,0:0:0:0:
64,192,210870,1,0,0:0:0:0:
320,192,210958,1,0,0:0:0:0:
192,192,211046,1,0,0:0:0:0:
320,192,211223,1,0,0:0:0:0:
448,192,211223,1,0,0:0:0:0:
192,192,211311,1,0,0:0:0:0:
320,192,211399,1,0,0:0:0:0:
192,192,211487,1,0,0:0:0:0:
64,192,211576,1,0,0:0:0:0:
448,192,211576,1,0,0:0:0:0:
320,192,211576,1,0,0:0:0:0:
64,192,211752,1,0,0:0:0:0:
448,192,211752,1,0,0:0:0:0:
64,192,211929,1,0,0:0:0:0:
448,192,211929,1,0,0:0:0:0:
448,192,212105,1,0,0:0:0:0:
64,192,212105,1,0,0:0:0:0:
64,192,212282,1,0,0:0:0:0:
448,192,212282,1,0,0:0:0:0:
448,192,212458,1,0,0:0:0:0:
64,192,212458,1,0,0:0:0:0:
64,192,212634,1,0,0:0:0:0:
448,192,212634,1,0,0:0:0:0:
64,192,212811,1,0,0:0:0:0:
448,192,212811,1,0,0:0:0:0:
192,192,212987,1,0,0:0:0:0:
320,192,212987,1,0,0:0:0:0:
192,192,213164,1,0,0:0:0:0:
320,192,213164,1,0,0:0:0:0:
192,192,213340,1,0,0:0:0:0:
320,192,213340,1,0,0:0:0:0:
192,192,213517,1,0,0:0:0:0:
320,192,213517,1,0,0:0:0:0:
192,192,213693,1,0,0:0:0:0:
320,192,213693,1,0,0:0:0:0:
192,192,213870,1,0,0:0:0:0:
320,192,213870,1,0,0:0:0:0:
192,192,214046,1,0,0:0:0:0:
320,192,214046,1,0,0:0:0:0:
192,192,214223,1,0,0:0:0:0:
320,192,214223,1,0,0:0:0:0:
320,192,214399,1,0,0:0:0:0:
64,192,214399,1,0,0:0:0:0:
448,192,214399,1,0,0:0:0:0:
448,192,214576,1,0,0:0:0:0:
320,192,214576,1,0,0:0:0:0:
64,192,214576,1,0,0:0:0:0:
64,192,214752,1,0,0:0:0:0:
320,192,214752,1,0,0:0:0:0:
448,192,214752,1,0,0:0:0:0:
64,192,214929,1,0,0:0:0:0:
448,192,214929,1,0,0:0:0:0:
320,192,214929,1,0,0:0:0:0:
448,192,215105,1,0,0:0:0:0:
320,192,215105,1,0,0:0:0:0:
192,192,215105,1,0,0:0:0:0:
64,192,215105,1,0,0:0:0:0:
64,192,215282,1,0,0:0:0:0:
192,192,215282,1,0,0:0:0:0:
320,192,215282,1,0,0:0:0:0:
448,192,215282,1,0,0:0:0:0:
192,192,215458,1,0,0:0:0:0:
64,192,215458,1,0,0:0:0:0:
320,192,215546,1,0,0:0:0:0:
448,192,215546,1,0,0:0:0:0:
192,192,215634,1,0,0:0:0:0:
64,192,215634,1,0,0:0:0:0:
448,192,215723,1,0,0:0:0:0:
320,192,215723,1,0,0:0:0:0:
64,192,215811,1,0,0:0:0:0:
192,192,215811,1,0,0:0:0:0:
320,192,215811,1,0,0:0:0:0:
448,192,215811,1,0,0:0:0:0:
64,192,216340,1,0,0:0:0:0:
448,192,216429,1,0,0:0:0:0:
192,192,216517,1,0,0:0:0:0:
320,192,216605,1,0,0:0:0:0:
192,192,216693,1,0,0:0:0:0:
320,192,216782,1,0,0:0:0:0:
64,192,216870,1,0,0:0:0:0:
448,192,216892,1,0,0:0:0:0:
64,192,217223,1,0,0:0:0:0:
192,192,217223,1,0,0:0:0:0:
448,192,217223,1,0,0:0:0:0:
320,192,217311,1,0,0:0:0:0:
448,192,217399,1,0,0:0:0:0:
64,192,217399,1,0,0:0:0:0:
192,192,217487,1,0,0:0:0:0:
320,192,217576,1,0,0:0:0:0:
448,192,217576,1,0,0:0:0:0:
64,192,217664,1,0,0:0:0:0:
320,192,217752,1,0,0:0:0:0:
448,192,217752,1,0,0:0:0:0:
192,192,217752,1,0,0:0:0:0:
64,192,217840,1,0,0:0:0:0:
192,192,217929,1,0,0:0:0:0:
448,192,217929,1,0,0:0:0:0:
320,192,218017,1,0,0:0:0:0:
448,192,218105,1,0,0:0:0:0:
64,192,218105,1,0,0:0:0:0:
192,192,218193,1,0,0:0:0:0:
64,192,218282,1,0,0:0:0:0:
448,192,218282,1,0,0:0:0:0:
320,192,218282,1,0,0:0:0:0:
192,192,218370,1,0,0:0:0:0:
64,192,218458,1,0,0:0:0:0:
448,192,218458,1,0,0:0:0:0:
320,192,218546,1,0,0:0:0:0:
64,192,218634,1,0,0:0:0:0:
192,192,218634,1,0,0:0:0:0:
448,192,218634,1,0,0:0:0:0:
320,192,218723,1,0,0:0:0:0:
448,192,218811,1,0,0:0:0:0:
64,192,218811,1,0,0:0:0:0:
192,192,218899,1,0,0:0:0:0:
320,192,218987,1,0,0:0:0:0:
448,192,218987,1,0,0:0:0:0:
64,192,219076,1,0,0:0:0:0:
320,192,219164,1,0,0:0:0:0:
448,192,219164,1,0,0:0:0:0:
192,192,219164,1,0,0:0:0:0:
64,192,219252,1,0,0:0:0:0:
192,192,219340,1,0,0:0:0:0:
448,192,219340,1,0,0:0:0:0:
320,192,219429,1,0,0:0:0:0:
448,192,219517,1,0,0:0:0:0:
64,192,219517,1,0,0:0:0:0:
192,192,219605,1,0,0:0:0:0:
64,192,219693,1,0,0:0:0:0:
448,192,219693,1,0,0:0:0:0:
320,192,219693,1,0,0:0:0:0:
192,192,219782,1,0,0:0:0:0:
64,192,219870,1,0,0:0:0:0:
448,192,219870,1,0,0:0:0:0:
320,192,219958,1,0,0:0:0:0:
192,192,220046,1,0,0:0:0:0:
64,192,220046,1,0,0:0:0:0:
448,192,220046,1,0,0:0:0:0:
320,192,220134,1,0,0:0:0:0:
192,192,220223,1,0,0:0:0:0:
64,192,220223,1,0,0:0:0:0:
448,192,220311,1,0,0:0:0:0:
320,192,220399,1,0,0:0:0:0:
64,192,220399,1,0,0:0:0:0:
192,192,220487,1,0,0:0:0:0:
64,192,220576,1,0,0:0:0:0:
448,192,220576,1,0,0:0:0:0:
320,192,220576,1,0,0:0:0:0:
192,192,220664,1,0,0:0:0:0:
320,192,220752,1,0,0:0:0:0:
448,192,220752,1,0,0:0:0:0:
64,192,220840,1,0,0:0:0:0:
192,192,220929,1,0,0:0:0:0:
448,192,220929,1,0,0:0:0:0:
320,192,221017,1,0,0:0:0:0:
64,192,221105,1,0,0:0:0:0:
448,192,221105,1,0,0:0:0:0:
192,192,221193,1,0,0:0:0:0:
320,192,221193,1,0,0:0:0:0:
64,192,221282,1,0,0:0:0:0:
448,192,221282,1,0,0:0:0:0:
320,192,221370,1,0,0:0:0:0:
192,192,221370,1,0,0:0:0:0:
64,192,221458,1,0,0:0:0:0:
448,192,221458,1,0,0:0:0:0:
192,192,221546,1,0,0:0:0:0:
320,192,221634,1,0,0:0:0:0:
448,192,221634,1,0,0:0:0:0:
192,192,221723,1,0,0:0:0:0:
448,192,221811,1,0,0:0:0:0:
64,192,221811,1,0,0:0:0:0:
320,192,221899,1,0,0:0:0:0:
192,192,221987,1,0,0:0:0:0:
64,192,221987,1,0,0:0:0:0:
448,192,221987,1,0,0:0:0:0:
320,192,222076,1,0,0:0:0:0:
64,192,222164,1,0,0:0:0:0:
192,192,222164,1,0,0:0:0:0:
320,192,222252,1,0,0:0:0:0:
64,192,222340,1,0,0:0:0:0:
448,192,222340,1,0,0:0:0:0:
192,192,222429,1,0,0:0:0:0:
320,192,222429,1,0,0:0:0:0:
64,192,222517,1,0,0:0:0:0:
448,192,222517,1,0,0:0:0:0:
192,192,222605,1,0,0:0:0:0:
320,192,222605,1,0,0:0:0:0:
64,192,222693,1,0,0:0:0:0:
448,192,222693,1,0,0:0:0:0:
192,192,222782,1,0,0:0:0:0:
64,192,222870,1,0,0:0:0:0:
448,192,222870,1,0,0:0:0:0:
320,192,222870,1,0,0:0:0:0:
192,192,222958,1,0,0:0:0:0:
64,192,223046,1,0,0:0:0:0:
448,192,223046,1,0,0:0:0:0:
320,192,223134,1,0,0:0:0:0:
192,192,223223,1,0,0:0:0:0:
64,192,223223,1,0,0:0:0:0:
448,192,223311,1,0,0:0:0:0:
192,192,223399,1,0,0:0:0:0:
64,192,223399,1,0,0:0:0:0:
320,192,223399,1,0,0:0:0:0:
448,192,223487,1,0,0:0:0:0:
320,192,223576,1,0,0:0:0:0:
64,192,223576,1,0,0:0:0:0:
192,192,223664,1,0,0:0:0:0:
64,192,223752,1,0,0:0:0:0:
448,192,223752,1,0,0:0:0:0:
320,192,223840,1,0,0:0:0:0:
448,192,223929,1,0,0:0:0:0:
64,192,223929,1,0,0:0:0:0:
192,192,223929,1,0,0:0:0:0:
320,192,224017,1,0,0:0:0:0:
448,192,224105,1,0,0:0:0:0:
64,192,224105,1,0,0:0:0:0:
192,192,224193,1,0,0:0:0:0:
448,192,224282,1,0,0:0:0:0:
320,192,224282,1,0,0:0:0:0:
64,192,224282,1,0,0:0:0:0:
192,192,224370,1,0,0:0:0:0:
64,192,224458,1,0,0:0:0:0:
448,192,224458,1,0,0:0:0:0:
320,192,224546,1,0,0:0:0:0:
192,192,224634,1,0,0:0:0:0:
64,192,224634,1,0,0:0:0:0:
448,192,224723,1,0,0:0:0:0:
192,192,224811,1,0,0:0:0:0:
64,192,224811,1,0,0:0:0:0:
320,192,224811,1,0,0:0:0:0:
448,192,224899,1,0,0:0:0:0:
320,192,224987,1,0,0:0:0:0:
64,192,224987,1,0,0:0:0:0:
192,192,225076,1,0,0:0:0:0:
64,192,225164,1,0,0:0:0:0:
448,192,225164,1,0,0:0:0:0:
320,192,225252,1,0,0:0:0:0:
448,192,225340,1,0,0:0:0:0:
64,192,225340,1,0,0:0:0:0:
192,192,225340,1,0,0:0:0:0:
320,192,225429,1,0,0:0:0:0:
448,192,225517,1,0,0:0:0:0:
64,192,225517,1,0,0:0:0:0:
192,192,225605,1,0,0:0:0:0:
320,192,225693,1,0,0:0:0:0:
448,192,225693,1,0,0:0:0:0:
64,192,225693,1,0,0:0:0:0:
192,192,225782,1,0,0:0:0:0:
320,192,225870,1,0,0:0:0:0:
448,192,225870,1,0,0:0:0:0:
64,192,225958,1,0,0:0:0:0:
192,192,226046,1,0,0:0:0:0:
448,192,226046,1,0,0:0:0:0:
320,192,226134,1,0,0:0:0:0:
448,192,226223,1,0,0:0:0:0:
192,192,226223,1,0,0:0:0:0:
64,192,226223,1,0,0:0:0:0:
320,192,226311,1,0,0:0:0:0:
192,192,226399,1,0,0:0:0:0:
64,192,226399,1,0,0:0:0:0:
448,192,226487,1,0,0:0:0:0:
320,192,226576,1,0,0:0:0:0:
64,192,226576,1,0,0:0:0:0:
192,192,226576,1,0,0:0:0:0:
448,192,226664,1,0,0:0:0:0:
64,192,226752,1,0,0:0:0:0:
192,192,226752,1,0,0:0:0:0:
320,192,226840,1,0,0:0:0:0:
448,192,226929,1,0,0:0:0:0:
64,192,226929,1,0,0:0:0:0:
320,192,227017,1,0,0:0:0:0:
192,192,227017,1,0,0:0:0:0:
448,192,227105,1,0,0:0:0:0:
64,192,227105,1,0,0:0:0:0:
192,192,227193,1,0,0:0:0:0:
448,192,227282,1,0,0:0:0:0:
64,192,227282,1,0,0:0:0:0:
320,192,227370,1,0,0:0:0:0:
64,192,227458,1,0,0:0:0:0:
448,192,227458,1,0,0:0:0:0:
192,192,227546,1,0,0:0:0:0:
320,192,227546,1,0,0:0:0:0:
64,192,227634,1,0,0:0:0:0:
320,192,227723,1,0,0:0:0:0:
192,192,227723,1,0,0:0:0:0:
448,192,227811,1,0,0:0:0:0:
64,192,227811,1,0,0:0:0:0:
320,192,227899,1,0,0:0:0:0:
64,192,227987,1,0,0:0:0:0:
448,192,227987,1,0,0:0:0:0:
192,192,228076,1,0,0:0:0:0:
320,192,228076,1,0,0:0:0:0:
64,192,228164,1,0,0:0:0:0:
320,192,228252,1,0,0:0:0:0:
64,192,228340,1,0,0:0:0:0:
192,192,228340,1,0,0:0:0:0:
320,192,228429,1,0,0:0:0:0:
192,192,228517,1,0,0:0:0:0:
64,192,228517,1,0,0:0:0:0:
448,192,228517,1,0,0:0:0:0:
320,192,228605,1,0,0:0:0:0:
448,192,228693,1,0,0:0:0:0:
64,192,228693,1,0,0:0:0:0:
192,192,228782,1,0,0:0:0:0:
64,192,228870,1,0,0:0:0:0:
448,192,228870,1,0,0:0:0:0:
320,192,228958,1,0,0:0:0:0:
192,192,229046,1,0,0:0:0:0:
64,192,229046,1,0,0:0:0:0:
448,192,229046,1,0,0:0:0:0:
320,192,229134,1,0,0:0:0:0:
192,192,229223,1,0,0:0:0:0:
64,192,229223,1,0,0:0:0:0:
448,192,229311,1,0,0:0:0:0:
320,192,229399,1,0,0:0:0:0:
64,192,229399,1,0,0:0:0:0:
192,192,229487,1,0,0:0:0:0:
320,192,229576,1,0,0:0:0:0:
448,192,229576,1,0,0:0:0:0:
64,192,229576,1,0,0:0:0:0:
192,192,229664,1,0,0:0:0:0:
320,192,229752,1,0,0:0:0:0:
448,192,229752,1,0,0:0:0:0:
64,192,229840,1,0,0:0:0:0:
320,192,229929,1,0,0:0:0:0:
448,192,229929,1,0,0:0:0:0:
192,192,229929,1,0,0:0:0:0:
64,192,230017,1,0,0:0:0:0:
192,192,230105,1,0,0:0:0:0:
448,192,230105,1,0,0:0:0:0:
320,192,230193,1,0,0:0:0:0:
448,192,230282,1,0,0:0:0:0:
64,192,230282,1,0,0:0:0:0:
192,192,230370,1,0,0:0:0:0:
320,192,230458,1,0,0:0:0:0:
448,192,230458,1,0,0:0:0:0:
64,192,230458,1,0,0:0:0:0:
192,192,230546,1,0,0:0:0:0:
320,192,230634,1,0,0:0:0:0:
448,192,230634,1,0,0:0:0:0:
64,192,230723,1,0,0:0:0:0:
192,192,230811,1,0,0:0:0:0:
448,192,230811,1,0,0:0:0:0:
320,192,230899,1,0,0:0:0:0:
64,192,230987,1,0,0:0:0:0:
448,192,230987,1,0,0:0:0:0:
192,192,230987,1,0,0:0:0:0:
320,192,231076,1,0,0:0:0:0:
64,192,231164,1,0,0:0:0:0:
448,192,231164,1,0,0:0:0:0:
192,192,231252,1,0,0:0:0:0:
64,192,231340,1,0,0:0:0:0:
320,192,231340,1,0,0:0:0:0:
448,192,231340,1,0,0:0:0:0:
192,192,231429,1,0,0:0:0:0:
320,192,231517,1,0,0:0:0:0:
448,192,231517,1,0,0:0:0:0:
64,192,231605,1,0,0:0:0:0:
192,192,231693,1,0,0:0:0:0:
448,192,231693,1,0,0:0:0:0:
320,192,231782,1,0,0:0:0:0:
192,192,231870,1,0,0:0:0:0:
64,192,231870,1,0,0:0:0:0:
448,192,231870,1,0,0:0:0:0:
320,192,231958,1,0,0:0:0:0:
64,192,232046,1,0,0:0:0:0:
192,192,232046,1,0,0:0:0:0:
448,192,232134,1,0,0:0:0:0:
320,192,232223,1,0,0:0:0:0:
64,192,232223,1,0,0:0:0:0:
192,192,232311,1,0,0:0:0:0:
64,192,232399,1,0,0:0:0:0:
448,192,232399,1,0,0:0:0:0:
320,192,232487,1,0,0:0:0:0:
192,192,232487,1,0,0:0:0:0:
64,192,232576,1,0,0:0:0:0:
448,192,232576,1,0,0:0:0:0:
192,192,232664,1,0,0:0:0:0:
320,192,232664,1,0,0:0:0:0:
448,192,232752,1,0,0:0:0:0:
64,192,232752,1,0,0:0:0:0:
320,192,232811,1,0,0:0:0:0:
192,192,232870,1,0,0:0:0:0:
320,192,232929,1,0,0:0:0:0:
64,192,232929,1,0,0:0:0:0:
448,192,232929,1,0,0:0:0:0:
64,192,233105,1,0,0:0:0:0:
320,192,233105,1,0,0:0:0:0:
448,192,233105,1,0,0:0:0:0:
192,192,233282,1,0,0:0:0:0:
320,192,233340,1,0,0:0:0:0:
192,192,233399,1,0,0:0:0:0:
64,192,233458,1,0,0:0:0:0:
448,192,233458,1,0,0:0:0:0:
320,192,233458,1,0,0:0:0:0:
448,192,233634,1,0,0:0:0:0:
64,192,233634,1,0,0:0:0:0:
320,192,233634,1,0,0:0:0:0:
192,192,233811,1,0,0:0:0:0:
320,192,233899,1,0,0:0:0:0:
64,192,233987,1,0,0:0:0:0:
192,192,233987,1,0,0:0:0:0:
320,192,234076,1,0,0:0:0:0:
448,192,234076,1,0,0:0:0:0:
64,192,234164,1,0,0:0:0:0:
320,192,234164,1,0,0:0:0:0:
448,192,234164,1,0,0:0:0:0:
192,192,234164,1,0,0:0:0:0:
192,192,234340,1,0,0:0:0:0:
320,192,234340,1,0,0:0:0:0:
192,192,234517,1,0,0:0:0:0:
320,192,234517,1,0,0:0:0:0:
64,192,234693,1,0,0:0:0:0:
192,192,234693,1,0,0:0:0:0:
448,192,234693,1,0,0:0:0:0:
192,192,234870,1,0,0:0:0:0:
320,192,234870,1,0,0:0:0:0:
192,192,235046,1,0,0:0:0:0:
320,192,235046,1,0,0:0:0:0:
448,192,235134,1,0,0:0:0:0:
320,192,235223,1,0,0:0:0:0:
192,192,235282,1,0,0:0:0:0:
64,192,235340,1,0,0:0:0:0:
320,192,235399,1,0,0:0:0:0:
320,192,235487,1,0,0:0:0:0:
64,192,235576,1,0,0:0:0:0:
192,192,235576,1,0,0:0:0:0:
448,192,235576,1,0,0:0:0:0:
192,192,235752,1,0,0:0:0:0:
320,192,235752,1,0,0:0:0:0:
192,192,235929,1,0,0:0:0:0:
320,192,235929,1,0,0:0:0:0:
64,192,236105,1,0,0:0:0:0:
320,192,236105,1,0,0:0:0:0:
448,192,236105,1,0,0:0:0:0:
192,192,236282,1,0,0:0:0:0:
320,192,236282,1,0,0:0:0:0:
192,192,236458,1,0,0:0:0:0:
320,192,236458,1,0,0:0:0:0:
64,192,236546,1,0,0:0:0:0:
320,192,236634,1,0,0:0:0:0:
448,192,236634,1,0,0:0:0:0:
320,192,236723,1,0,0:0:0:0:
448,192,236723,1,0,0:0:0:0:
192,192,236811,1,0,0:0:0:0:
64,192,236811,1,0,0:0:0:0:
448,192,236987,128,0,238046:0:0:0:0:
64,192,236987,128,0,238046:0:0:0:0:
320,192,236987,1,0,0:0:0:0:
192,192,237164,1,0,0:0:0:0:
320,192,237252,1,0,0:0:0:0:
192,192,237340,1,0,0:0:0:0:
320,192,237429,1,0,0:0:0:0:
192,192,237517,1,0,0:0:0:0:
320,192,237693,1,0,0:0:0:0:
192,192,237782,1,0,0:0:0:0:
320,192,237870,1,0,0:0:0:0:
192,192,237958,1,0,0:0:0:0:
320,192,238046,1,0,0:0:0:0:
64,192,238105,1,0,0:0:0:0:
320,192,238164,1,0,0:0:0:0:
64,192,238223,1,0,0:0:0:0:
192,192,238311,1,0,0:0:0:0:
64,192,238399,1,0,0:0:0:0:
448,192,238399,1,0,0:0:0:0:
320,192,238458,1,0,0:0:0:0:
192,192,238458,1,0,0:0:0:0:
64,192,238517,1,0,0:0:0:0:
448,192,238517,1,0,0:0:0:0:
320,192,238576,1,0,0:0:0:0:
192,192,238634,1,0,0:0:0:0:
320,192,238693,1,0,0:0:0:0:
64,192,238752,1,0,0:0:0:0:
192,192,238811,1,0,0:0:0:0:
64,192,238870,1,0,0:0:0:0:
320,192,238929,1,0,0:0:0:0:
192,192,238987,1,0,0:0:0:0:
448,192,239046,1,0,0:0:0:0:
320,192,239105,1,0,0:0:0:0:
448,192,239164,1,0,0:0:0:0:
192,192,239223,1,0,0:0:0:0:
320,192,239282,1,0,0:0:0:0:
64,192,239340,1,0,0:0:0:0:
192,192,239399,1,0,0:0:0:0:
64,192,239458,1,0,0:0:0:0:
320,192,239458,1,0,0:0:0:0:
448,192,239458,1,0,0:0:0:0:
64,192,239811,1,0,0:0:0:0:
192,192,239811,1,0,0:0:0:0:
448,192,239811,1,0,0:0:0:0:
320,192,239899,1,0,0:0:0:0:
192,192,239987,1,0,0:0:0:0:
64,192,240076,1,0,0:0:0:0:
192,192,240164,1,0,0:0:0:0:
448,192,240164,1,0,0:0:0:0:
320,192,240164,1,0,0:0:0:0:
64,192,240252,1,0,0:0:0:0:
448,192,240340,1,0,0:0:0:0:
320,192,240429,1,0,0:0:0:0:
192,192,240517,1,0,0:0:0:0:
448,192,240517,1,0,0:0:0:0:
64,192,240517,1,0,0:0:0:0:
320,192,240605,1,0,0:0:0:0:
192,192,240693,1,0,0:0:0:0:
64,192,240782,1,0,0:0:0:0:
320,192,240870,1,0,0:0:0:0:
448,192,240870,1,0,0:0:0:0:
192,192,240870,1,0,0:0:0:0:
64,192,240958,1,0,0:0:0:0:
320,192,241046,1,0,0:0:0:0:
192,192,241134,1,0,0:0:0:0:
64,192,241223,1,0,0:0:0:0:
320,192,241223,1,0,0:0:0:0:
448,192,241223,1,0,0:0:0:0:
192,192,241311,1,0,0:0:0:0:
64,192,241399,1,0,0:0:0:0:
320,192,241487,1,0,0:0:0:0:
192,192,241576,1,0,0:0:0:0:
448,192,241576,1,0,0:0:0:0:
64,192,241576,1,0,0:0:0:0:
320,192,241664,1,0,0:0:0:0:
448,192,241752,1,0,0:0:0:0:
192,192,241840,1,0,0:0:0:0:
64,192,241929,1,0,0:0:0:0:
320,192,241929,1,0,0:0:0:0:
448,192,241929,1,0,0:0:0:0:
192,192,242017,1,0,0:0:0:0:
64,192,242105,1,0,0:0:0:0:
320,192,242193,1,0,0:0:0:0:
448,192,242282,1,0,0:0:0:0:
192,192,242282,1,0,0:0:0:0:
64,192,242282,1,0,0:0:0:0:
320,192,242370,1,0,0:0:0:0:
448,192,242458,1,0,0:0:0:0:
192,192,242546,1,0,0:0:0:0:
320,192,242634,1,0,0:0:0:0:
64,192,242634,1,0,0:0:0:0:
448,192,242634,1,0,0:0:0:0:
192,192,242723,1,0,0:0:0:0:
320,192,242811,1,0,0:0:0:0:
448,192,242899,1,0,0:0:0:0:
192,192,242987,1,0,0:0:0:0:
64,192,242987,1,0,0:0:0:0:
320,192,242987,1,0,0:0:0:0:
448,192,243076,1,0,0:0:0:0:
64,192,243164,1,0,0:0:0:0:
192,192,243252,1,0,0:0:0:0:
64,192,243340,1,0,0:0:0:0:
320,192,243340,1,0,0:0:0:0:
448,192,243340,1,0,0:0:0:0:
192,192,243429,1,0,0:0:0:0:
320,192,243517,1,0,0:0:0:0:
448,192,243605,1,0,0:0:0:0:
64,192,243693,1,0,0:0:0:0:
192,192,243693,1,0,0:0:0:0:
320,192,243693,1,0,0:0:0:0:
448,192,243782,1,0,0:0:0:0:
192,192,243870,1,0,0:0:0:0:
320,192,243958,1,0,0:0:0:0:
192,192,244046,1,0,0:0:0:0:
64,192,244046,1,0,0:0:0:0:
448,192,244046,1,0,0:0:0:0:
320,192,244134,1,0,0:0:0:0:
448,192,244223,1,0,0:0:0:0:
192,192,244311,1,0,0:0:0:0:
64,192,244399,1,0,0:0:0:0:
320,192,244399,1,0,0:0:0:0:
448,192,244399,1,0,0:0:0:0:
192,192,244487,1,0,0:0:0:0:
64,192,244576,1,0,0:0:0:0:
320,192,244664,1,0,0:0:0:0:
448,192,244752,1,0,0:0:0:0:
192,192,244752,1,0,0:0:0:0:
64,192,244752,1,0,0:0:0:0:
320,192,244840,1,0,0:0:0:0:
448,192,244929,1,0,0:0:0:0:
192,192,245017,1,0,0:0:0:0:
64,192,245105,1,0,0:0:0:0:
320,192,245105,1,0,0:0:0:0:
448,192,245105,1,0,0:0:0:0:
192,192,245193,1,0,0:0:0:0:
320,192,245282,1,0,0:0:0:0:
64,192,245370,1,0,0:0:0:0:
192,192,245458,1,0,0:0:0:0:
320,192,245458,1,0,0:0:0:0:
448,192,245458,1,0,0:0:0:0:
64,192,245546,1,0,0:0:0:0:
192,192,245634,1,0,0:0:0:0:
448,192,245723,1,0,0:0:0:0:
64,192,245811,1,0,0:0:0:0:
320,192,245811,1,0,0:0:0:0:
192,192,245811,1,0,0:0:0:0:
448,192,245899,1,0,0:0:0:0:
320,192,245987,1,0,0:0:0:0:
192,192,246076,1,0,0:0:0:0:
64,192,246164,1,0,0:0:0:0:
448,192,246164,1,0,0:0:0:0:
320,192,246164,1,0,0:0:0:0:
192,192,246252,1,0,0:0:0:0:
64,192,246340,1,0,0:0:0:0:
320,192,246429,1,0,0:0:0:0:
448,192,246517,1,0,0:0:0:0:
192,192,246517,1,0,0:0:0:0:
64,192,246517,1,0,0:0:0:0:
320,192,246605,1,0,0:0:0:0:
448,192,246693,1,0,0:0:0:0:
192,192,246782,1,0,0:0:0:0:
64,192,246870,1,0,0:0:0:0:
320,192,246870,1,0,0:0:0:0:
448,192,246870,1,0,0:0:0:0:
192,192,246958,1,0,0:0:0:0:
320,192,247046,1,0,0:0:0:0:
64,192,247134,1,0,0:0:0:0:
192,192,247223,1,0,0:0:0:0:
320,192,247223,1,0,0:0:0:0:
448,192,247223,1,0,0:0:0:0:
64,192,247311,1,0,0:0:0:0:
192,192,247399,1,0,0:0:0:0:
320,192,247487,1,0,0:0:0:0:
448,192,247576,1,0,0:0:0:0:
192,192,247576,1,0,0:0:0:0:
64,192,247576,1,0,0:0:0:0:
320,192,247664,1,0,0:0:0:0:
448,192,247752,1,0,0:0:0:0:
192,192,247840,1,0,0:0:0:0:
64,192,247929,1,0,0:0:0:0:
320,192,247929,1,0,0:0:0:0:
448,192,247929,1,0,0:0:0:0:
192,192,248017,1,0,0:0:0:0:
64,192,248105,1,0,0:0:0:0:
320,192,248193,1,0,0:0:0:0:
192,192,248282,1,0,0:0:0:0:
64,192,248282,1,0,0:0:0:0:
448,192,248282,1,0,0:0:0:0:
64,192,248458,1,0,0:0:0:0:
192,192,248517,1,0,0:0:0:0:
320,192,248576,1,0,0:0:0:0:
64,192,248634,1,0,0:0:0:0:
192,192,248723,1,0,0:0:0:0:
64,192,248811,1,0,0:0:0:0:
320,192,248811,1,0,0:0:0:0:
448,192,248811,1,0,0:0:0:0:
448,192,248987,1,0,0:0:0:0:
320,192,249046,1,0,0:0:0:0:
192,192,249105,1,0,0:0:0:0:
448,192,249164,1,0,0:0:0:0:
320,192,249252,1,0,0:0:0:0:
192,192,249340,1,0,0:0:0:0:
64,192,249340,1,0,0:0:0:0:
448,192,249340,1,0,0:0:0:0:
64,192,249517,1,0,0:0:0:0:
192,192,249576,1,0,0:0:0:0:
320,192,249634,1,0,0:0:0:0:
64,192,249693,1,0,0:0:0:0:
192,192,249782,1,0,0:0:0:0:
64,192,249870,1,0,0:0:0:0:
320,192,249870,1,0,0:0:0:0:
448,192,249870,1,0,0:0:0:0:
448,192,250046,1,0,0:0:0:0:
320,192,250046,1,0,0:0:0:0:
64,192,250046,1,0,0:0:0:0:
192,192,250223,1,0,0:0:0:0:
320,192,250223,1,0,0:0:0:0:
64,192,250399,1,0,0:0:0:0:
192,192,250399,1,0,0:0:0:0:
448,192,250399,1,0,0:0:0:0:
320,192,250576,1,0,0:0:0:0:
192,192,250664,1,0,0:0:0:0:
320,192,250752,1,0,0:0:0:0:
448,192,250752,1,0,0:0:0:0:
192,192,250840,1,0,0:0:0:0:
64,192,250840,1,0,0:0:0:0:
320,192,250929,1,0,0:0:0:0:
448,192,250929,1,0,0:0:0:0:
64,192,251017,1,0,0:0:0:0:
192,192,251105,1,0,0:0:0:0:
320,192,251105,1,0,0:0:0:0:
448,192,251105,1,0,0:0:0:0:
64,192,251193,1,0,0:0:0:0:
192,192,251282,1,0,0:0:0:0:
320,192,251282,1,0,0:0:0:0:
448,192,251282,1,0,0:0:0:0:
64,192,251370,1,0,0:0:0:0:
320,192,251458,1,0,0:0:0:0:
448,192,251458,1,0,0:0:0:0:
192,192,251546,1,0,0:0:0:0:
320,192,251634,1,0,0:0:0:0:
448,192,251634,1,0,0:0:0:0:
64,192,251634,1,0,0:0:0:0:
192,192,251723,1,0,0:0:0:0:
64,192,251811,1,0,0:0:0:0:
448,192,251811,1,0,0:0:0:0:
320,192,251899,1,0,0:0:0:0:
192,192,251987,1,0,0:0:0:0:
64,192,251987,1,0,0:0:0:0:
448,192,251987,1,0,0:0:0:0:
320,192,252076,1,0,0:0:0:0:
64,192,252164,1,0,0:0:0:0:
192,192,252164,1,0,0:0:0:0:
320,192,252252,1,0,0:0:0:0:
448,192,252340,1,0,0:0:0:0:
192,192,252340,1,0,0:0:0:0:
64,192,252340,1,0,0:0:0:0:
320,192,252429,1,0,0:0:0:0:
64,192,252517,1,0,0:0:0:0:
448,192,252517,1,0,0:0:0:0:
192,192,252605,1,0,0:0:0:0:
64,192,252693,1,0,0:0:0:0:
320,192,252693,1,0,0:0:0:0:
448,192,252693,1,0,0:0:0:0:
192,192,252782,1,0,0:0:0:0:
320,192,252870,1,0,0:0:0:0:
448,192,252870,1,0,0:0:0:0:
64,192,252958,1,0,0:0:0:0:
192,192,253046,1,0,0:0:0:0:
320,192,253046,1,0,0:0:0:0:
448,192,253046,1,0,0:0:0:0:
64,192,253134,1,0,0:0:0:0:
192,192,253223,1,0,0:0:0:0:
320,192,253223,1,0,0:0:0:0:
448,192,253311,1,0,0:0:0:0:
192,192,253399,1,0,0:0:0:0:
64,192,253399,1,0,0:0:0:0:
320,192,253399,1,0,0:0:0:0:
448,192,253487,1,0,0:0:0:0:
192,192,253576,1,0,0:0:0:0:
64,192,253576,1,0,0:0:0:0:
448,192,253664,1,0,0:0:0:0:
192,192,253752,1,0,0:0:0:0:
64,192,253752,1,0,0:0:0:0:
320,192,253752,1,0,0:0:0:0:
448,192,253840,1,0,0:0:0:0:
192,192,253929,1,0,0:0:0:0:
320,192,253929,1,0,0:0:0:0:
64,192,254017,1,0,0:0:0:0:
320,192,254105,1,0,0:0:0:0:
448,192,254105,1,0,0:0:0:0:
192,192,254105,1,0,0:0:0:0:
64,192,254193,1,0,0:0:0:0:
320,192,254282,1,0,0:0:0:0:
448,192,254282,1,0,0:0:0:0:
192,192,254370,1,0,0:0:0:0:
64,192,254458,1,0,0:0:0:0:
320,192,254458,1,0,0:0:0:0:
448,192,254458,1,0,0:0:0:0:
192,192,254546,1,0,0:0:0:0:
64,192,254634,1,0,0:0:0:0:
448,192,254634,1,0,0:0:0:0:
320,192,254723,1,0,0:0:0:0:
448,192,254811,1,0,0:0:0:0:
192,192,254811,1,0,0:0:0:0:
64,192,254811,1,0,0:0:0:0:
320,192,254899,1,0,0:0:0:0:
64,192,254987,1,0,0:0:0:0:
448,192,254987,1,0,0:0:0:0:
192,192,255076,1,0,0:0:0:0:
64,192,255164,1,0,0:0:0:0:
320,192,255164,1,0,0:0:0:0:
448,192,255164,1,0,0:0:0:0:
192,192,255252,1,0,0:0:0:0:
448,192,255340,1,0,0:0:0:0:
320,192,255340,1,0,0:0:0:0:
192,192,255429,1,0,0:0:0:0:
64,192,255517,1,0,0:0:0:0:
320,192,255517,1,0,0:0:0:0:
448,192,255517,1,0,0:0:0:0:
192,192,255605,1,0,0:0:0:0:
64,192,255693,1,0,0:0:0:0:
448,192,255693,1,0,0:0:0:0:
320,192,255782,1,0,0:0:0:0:
192,192,255870,1,0,0:0:0:0:
64,192,255870,1,0,0:0:0:0:
448,192,255870,1,0,0:0:0:0:
320,192,255958,1,0,0:0:0:0:
64,192,256046,1,0,0:0:0:0:
192,192,256046,1,0,0:0:0:0:
448,192,256134,1,0,0:0:0:0:
320,192,256223,1,0,0:0:0:0:
192,192,256223,1,0,0:0:0:0:
64,192,256223,1,0,0:0:0:0:
448,192,256311,1,0,0:0:0:0:
192,192,256399,1,0,0:0:0:0:
320,192,256399,1,0,0:0:0:0:
64,192,256487,1,0,0:0:0:0:
320,192,256576,1,0,0:0:0:0:
448,192,256576,1,0,0:0:0:0:
64,192,256664,1,0,0:0:0:0:
192,192,256664,1,0,0:0:0:0:
320,192,256752,1,0,0:0:0:0:
448,192,256752,1,0,0:0:0:0:
192,192,256840,1,0,0:0:0:0:
320,192,256929,1,0,0:0:0:0:
448,192,256929,1,0,0:0:0:0:
64,192,256929,1,0,0:0:0:0:
192,192,257017,1,0,0:0:0:0:
448,192,257105,1,0,0:0:0:0:
64,192,257105,1,0,0:0:0:0:
320,192,257193,1,0,0:0:0:0:
64,192,257282,1,0,0:0:0:0:
448,192,257282,1,0,0:0:0:0:
192,192,257282,1,0,0:0:0:0:
320,192,257370,1,0,0:0:0:0:
64,192,257458,1,0,0:0:0:0:
448,192,257458,1,0,0:0:0:0:
192,192,257546,1,0,0:0:0:0:
64,192,257634,1,0,0:0:0:0:
320,192,257634,1,0,0:0:0:0:
448,192,257634,1,0,0:0:0:0:
192,192,257723,1,0,0:0:0:0:
64,192,257811,1,0,0:0:0:0:
448,192,257811,1,0,0:0:0:0:
320,192,257899,1,0,0:0:0:0:
192,192,257987,1,0,0:0:0:0:
64,192,257987,1,0,0:0:0:0:
448,192,257987,1,0,0:0:0:0:
320,192,258076,1,0,0:0:0:0:
192,192,258164,1,0,0:0:0:0:
64,192,258164,1,0,0:0:0:0:
448,192,258252,1,0,0:0:0:0:
320,192,258340,1,0,0:0:0:0:
192,192,258340,1,0,0:0:0:0:
64,192,258340,1,0,0:0:0:0:
448,192,258429,1,0,0:0:0:0:
192,192,258517,1,0,0:0:0:0:
320,192,258517,1,0,0:0:0:0:
64,192,258605,1,0,0:0:0:0:
192,192,258693,1,0,0:0:0:0:
320,192,258693,1,0,0:0:0:0:
448,192,258693,1,0,0:0:0:0:
64,192,258782,1,0,0:0:0:0:
320,192,258870,1,0,0:0:0:0:
192,192,258870,1,0,0:0:0:0:
448,192,258958,1,0,0:0:0:0:
320,192,259046,1,0,0:0:0:0:
192,192,259046,1,0,0:0:0:0:
64,192,259046,1,0,0:0:0:0:
448,192,259134,1,0,0:0:0:0:
320,192,259223,1,0,0:0:0:0:
192,192,259223,1,0,0:0:0:0:
64,192,259311,1,0,0:0:0:0:
320,192,259399,1,0,0:0:0:0:
448,192,259399,1,0,0:0:0:0:
192,192,259487,1,0,0:0:0:0:
320,192,259576,1,0,0:0:0:0:
448,192,259576,1,0,0:0:0:0:
192,192,259664,1,0,0:0:0:0:
64,192,259664,1,0,0:0:0:0:
448,192,259752,1,0,0:0:0:0:
64,192,259840,1,0,0:0:0:0:
320,192,259929,1,0,0:0:0:0:
192,192,260017,1,0,0:0:0:0:
448,192,260105,1,0,0:0:0:0:
64,192,260193,1,0,0:0:0:0:
320,192,260282,1,0,0:0:0:0:
192,192,260370,1,0,0:0:0:0:
448,192,260458,1,0,0:0:0:0:
64,192,260546,1,0,0:0:0:0:
320,192,260634,1,0,0:0:0:0:
192,192,260723,1,0,0:0:0:0:
320,192,260811,1,0,0:0:0:0:
192,192,260899,1,0,0:0:0:0:
320,192,260987,1,0,0:0:0:0:
448,192,260987,1,0,0:0:0:0:
64,192,260987,128,0,262399:0:0:0:0:
192,192,262399,128,0,263811:0:0:0:0:
320,192,262399,128,0,264164:0:0:0:0:
448,192,262399,128,0,264517:0:0:0:0:
64,192,263811,1,0,0:0:0:0:
192,192,264164,1,0,0:0:0:0:
320,192,264517,1,0,0:0:0:0:
448,192,264870,1,0,0:0:0:0:
64,192,265223,1,0,0:0:0:0:
320,192,265399,1,0,0:0:0:0:
192,192,265576,1,0,0:0:0:0:
320,192,265752,1,0,0:0:0:0:
448,192,265929,1,0,0:0:0:0:
64,192,266105,1,0,0:0:0:0:
320,192,266282,1,0,0:0:0:0:
192,192,266458,1,0,0:0:0:0:
320,192,266634,1,0,0:0:0:0:
64,192,266811,1,0,0:0:0:0:
320,192,266987,1,0,0:0:0:0:
192,192,267164,1,0,0:0:0:0:
448,192,267340,1,0,0:0:0:0:
64,192,267517,1,0,0:0:0:0:
320,192,267693,1,0,0:0:0:0:
192,192,267870,1,0,0:0:0:0:
448,192,268046,1,0,0:0:0:0:
320,192,268046,1,0,0:0:0:0:
192,192,268223,1,0,0:0:0:0:
448,192,268399,1,0,0:0:0:0:
192,192,268576,1,0,0:0:0:0:
448,192,268752,1,0,0:0:0:0:
192,192,268929,1,0,0:0:0:0:
448,192,269105,1,0,0:0:0:0:
192,192,269282,1,0,0:0:0:0:
320,192,269458,1,0,0:0:0:0:
448,192,269458,1,0,0:0:0:0:
192,192,269634,1,0,0:0:0:0:
320,192,269811,1,0,0:0:0:0:
192,192,269987,1,0,0:0:0:0:
320,192,270164,1,0,0:0:0:0:
448,192,270164,128,0,272282:0:0:0:0:
192,192,270340,1,0,0:0:0:0:
320,192,270517,1,0,0:0:0:0:
192,192,270693,1,0,0:0:0:0:
320,192,270870,1,0,0:0:0:0:
64,192,270870,1,0,0:0:0:0:
192,192,271046,1,0,0:0:0:0:
64,192,271223,1,0,0:0:0:0:
192,192,271399,1,0,0:0:0:0:
320,192,271576,1,0,0:0:0:0:
64,192,271929,1,0,0:0:0:0:
320,192,272105,1,0,0:0:0:0:
64,192,272458,1,0,0:0:0:0:
320,192,272634,1,0,0:0:0:0:
192,192,272811,1,0,0:0:0:0:
448,192,272987,1,0,0:0:0:0:
64,192,273340,1,0,0:0:0:0:
320,192,273517,1,0,0:0:0:0:
