osu file format v14

[General]
AudioFilename: audio.mp3
AudioLeadIn: 0
PreviewTime: 239102
Countdown: 0
SampleSet: Normal
StackLeniency: 0.7
Mode: 1
LetterboxInBreaks: 0
WidescreenStoryboard: 0

[Editor]
DistanceSpacing: 0.8
BeatDivisor: 8
GridSize: 32
TimelineZoom: 3.799996

[Metadata]
Title:Jingle (Metal Arrange / Cover)
TitleUnicode:Jingle (Metal Arrange / Cover)
Artist:Camellia
ArtistUnicode:かめりあ
Creator:Servatory
Version:Starlight Tears
Source:
Tags:Rock Japanese jmetal jrock J-Rock J-Metal remix remixes summary vips 02 cametek かめるかめりあ kamelcamellia DJ Noriken #from_ten_wonderland
BeatmapID:2776802
BeatmapSetID:1340406

[Difficulty]
HPDrainRate:4.5
CircleSize:6
OverallDifficulty:6.5
ApproachRate:9
SliderMultiplier:1.4
SliderTickRate:1

[Events]
//Background and Video events
0,0,"bg.jpg",0,-57
//Break Periods
//Storyboard Layer 0 (Background)
//Storyboard Layer 1 (Fail)
//Storyboard Layer 2 (Pass)
//Storyboard Layer 3 (Foreground)
//Storyboard Layer 4 (Overlay)
//Storyboard Sound Samples

[TimingPoints]
2632,352.941176470588,4,1,0,50,1,0
2632,-125,4,1,0,50,0,0
23720,-100,4,1,0,50,0,0
24249,-100,4,1,0,75,0,0
39317,-98.9583333333333,4,1,0,75,0,0
39494,-97.9381443298969,4,1,0,75,0,0
39670,-96.9387755102041,4,1,0,75,0,0
39847,-95.959595959596,4,1,0,75,0,0
39935,-95,4,1,0,75,0,0
40023,-94.0594059405941,4,1,0,75,0,0
40200,-93.1372549019608,4,1,0,75,0,0
40376,-92.2330097087379,4,1,0,75,0,0
40553,-91.3461538461538,4,1,0,75,0,0
40729,-90.4761904761905,4,1,0,75,0,0
40906,-89.622641509434,4,1,0,75,0,0
41082,-88.785046728972,4,1,0,75,0,0
41259,-87.962962962963,4,1,0,75,0,0
41435,-87.1559633027523,4,1,0,75,0,0
41611,-86.3636363636364,4,1,0,75,0,0
41788,-85.5855855855856,4,1,0,75,0,0
41964,-84.8214285714286,4,1,0,75,0,0
42053,-84.070796460177,4,1,0,75,0,0
42141,-83.3333333333333,4,1,0,75,0,0
42494,-111.111111111111,4,1,0,75,0,0
42670,-108.527131782946,4,1,0,75,0,0
42847,-106.060606060606,4,1,0,75,0,0
43023,-103.703703703704,4,1,0,75,0,0
43200,-101.449275362319,4,1,0,75,0,0
43376,-99.290780141844,4,1,0,75,0,0
43553,-97.2222222222222,4,1,0,75,0,0
43729,-95.2380952380952,4,1,0,75,0,0
43906,-93.3333333333333,4,1,0,75,0,0
44082,-91.5032679738562,4,1,0,75,0,0
44259,-89.7435897435897,4,1,0,75,0,0
44435,-88.0503144654088,4,1,0,75,0,0
44611,-86.4197530864198,4,1,0,75,0,0
44788,-84.8484848484848,4,1,0,75,0,0
44964,-83.3333333333333,4,1,0,75,0,0
46837,-100,4,1,0,75,0,0
47720,-71.4285714285714,4,1,0,85,0,0
48935,-100,4,1,0,85,0,0
49023,-90.9090909090909,4,1,0,85,0,0
49111,-83.3333333333333,4,1,0,85,0,0
49200,-76.9230769230769,4,1,0,85,0,0
49484,-71.4285714285714,4,1,0,85,0,0
50259,-100,4,1,0,85,0,0
50347,-93.0232558139535,4,1,0,85,0,0
50435,-86.9565217391304,4,1,0,85,0,0
50523,-81.6326530612245,4,1,0,85,0,0
50611,-76.9230769230769,4,1,0,85,0,0
50896,-71.4285714285714,4,1,0,85,0,0
51759,-100,4,1,0,85,0,0
51847,-90.9090909090909,4,1,0,85,0,0
51935,-83.3333333333333,4,1,0,85,0,0
52023,-76.9230769230769,4,1,0,85,0,0
52308,-71.4285714285714,4,1,0,85,0,0
53082,-100,4,1,0,85,0,0
53170,-93.0232558139535,4,1,0,85,0,0
53259,-86.9565217391304,4,1,0,85,0,0
53347,-81.6326530612245,4,1,0,85,0,0
53435,-76.9230769230769,4,1,0,85,0,0
53720,-71.4285714285714,4,1,0,85,0,0
54582,-100,4,1,0,85,0,0
54670,-90.9090909090909,4,1,0,85,0,0
54759,-83.3333333333333,4,1,0,85,0,0
54847,-76.9230769230769,4,1,0,85,0,0
55131,-71.4285714285714,4,1,0,85,0,0
55906,-100,4,1,0,85,0,0
55994,-93.0232558139535,4,1,0,85,0,0
56082,-86.9565217391304,4,1,0,85,0,0
56170,-81.6326530612245,4,1,0,85,0,0
56259,-76.9230769230769,4,1,0,85,0,0
56543,-71.4285714285714,4,1,0,85,0,0
57406,-100,4,1,0,85,0,0
57494,-98.3606557377049,4,1,0,85,0,0
57582,-96.7741935483871,4,1,0,85,0,0
57670,-95.2380952380952,4,1,0,85,0,0
57729,-93.75,4,1,0,85,0,0
57788,-92.3076923076923,4,1,0,85,0,0
57847,-90.9090909090909,4,1,0,85,0,0
57935,-89.5522388059701,4,1,0,85,0,0
58023,-88.2352941176471,4,1,0,85,0,0
58082,-86.9565217391304,4,1,0,85,0,0
58141,-85.7142857142857,4,1,0,85,0,0
58200,-84.5070422535211,4,1,0,85,0,0
58288,-83.3333333333333,4,1,0,85,0,0
58376,-82.1917808219178,4,1,0,85,0,0
58435,-81.0810810810811,4,1,0,85,0,0
58494,-80,4,1,0,85,0,0
58553,-78.9473684210526,4,1,0,85,0,0
58641,-77.9220779220779,4,1,0,85,0,0
58729,-76.9230769230769,4,1,0,85,0,0
59014,-71.4285714285714,4,1,0,85,0,0
60317,-100,4,1,0,85,0,0
60376,-90.9090909090909,4,1,0,85,0,0
60435,-83.3333333333333,4,1,0,85,0,0
60494,-76.9230769230769,4,1,0,85,0,0
60779,-71.4285714285714,4,1,0,85,0,0
62788,-100,4,1,0,85,0,0
62876,-95.2380952380952,4,1,0,85,0,0
62964,-90.9090909090909,4,1,0,85,0,0
63053,-86.9565217391304,4,1,0,85,0,0
63141,-83.3333333333333,4,1,0,85,0,0
63229,-80,4,1,0,85,0,0
63317,-76.9230769230769,4,1,0,85,0,0
63602,-71.4285714285714,4,1,0,85,0,0
64200,-100,4,1,0,85,0,0
64288,-95.2380952380952,4,1,0,85,0,0
64376,-90.9090909090909,4,1,0,85,0,0
64464,-86.9565217391304,4,1,0,85,0,0
64553,-83.3333333333333,4,1,0,85,0,0
64641,-80,4,1,0,85,0,0
64729,-76.9230769230769,4,1,0,85,0,0
65082,-111.111111111111,4,1,0,75,0,0
65259,-109.195402298851,4,1,0,76,0,0
65435,-107.344632768362,4,1,0,76,0,0
65611,-105.555555555556,4,1,0,77,0,0
65788,-103.825136612022,4,1,0,77,0,0
65964,-102.150537634409,4,1,0,78,0,0
66141,-100.529100529101,4,1,0,78,0,0
66317,-98.9583333333333,4,1,0,79,0,0
66494,-97.4358974358974,4,1,0,79,0,0
66670,-95.959595959596,4,1,0,80,0,0
66847,-94.5273631840796,4,1,0,80,0,0
67023,-93.1372549019608,4,1,0,81,0,0
67200,-91.7874396135266,4,1,0,81,0,0
67376,-90.4761904761905,4,1,0,82,0,0
67553,-89.2018779342723,4,1,0,82,0,0
67729,-87.962962962963,4,1,0,83,0,0
67906,-86.7579908675799,4,1,0,83,0,0
68082,-85.5855855855856,4,1,0,84,0,0
68259,-84.4444444444445,4,1,0,84,0,0
68435,-83.3333333333333,4,1,0,85,0,0
69317,-100,4,1,0,75,0,0
70308,-83.3333333333333,4,1,0,95,0,0
70396,-83.3333333333333,4,1,0,95,0,1
92631,-83.3333333333333,4,1,0,95,0,0
92984,-80,4,1,0,95,0,1
114161,-80,4,1,0,95,0,0
114249,-80,4,1,0,95,0,0
114494,-80.4597701149425,4,1,0,95,0,0
114670,-80.9248554913295,4,1,0,95,0,0
114847,-81.3953488372093,4,1,0,95,0,0
114935,-81.8713450292398,4,1,0,95,0,0
115023,-82.3529411764706,4,1,0,95,0,0
115111,-82.8402366863905,4,1,0,95,0,0
115200,-83.3333333333333,4,1,0,95,0,0
139573,-100,4,1,0,95,0,0
140720,-125,4,1,0,60,0,0
142023,-125,4,1,0,45,0,0
142553,-125,4,1,0,30,0,0
143190,-100,4,1,0,85,0,0
144073,-111.111111111111,4,1,0,75,0,0
144426,-108.333333333333,4,1,0,76,0,0
144779,-105.691056910569,4,1,0,77,0,0
145131,-103.174603174603,4,1,0,77,0,0
145484,-100.77519379845,4,1,0,78,0,0
145837,-98.4848484848485,4,1,0,79,0,0
146190,-96.2962962962963,4,1,0,80,0,0
146611,-94.2028985507246,4,1,0,80,0,0
146788,-92.1985815602837,4,1,0,81,0,0
146964,-90.2777777777778,4,1,0,82,0,0
147141,-88.4353741496599,4,1,0,83,0,0
147317,-86.6666666666667,4,1,0,83,0,0
147494,-84.9673202614379,4,1,0,84,0,0
147670,-83.3333333333333,4,1,0,85,0,0
148484,-100,4,1,0,85,0,0
158964,-98.5915492957747,4,1,0,85,0,0
159141,-97.2222222222222,4,1,0,85,0,0
159317,-95.8904109589041,4,1,0,85,0,0
159494,-94.5945945945946,4,1,0,85,0,0
159670,-93.3333333333333,4,1,0,85,0,0
159847,-92.1052631578947,4,1,0,85,0,0
159906,-90.9090909090909,4,1,0,85,0,0
159964,-89.7435897435897,4,1,0,85,0,0
160023,-88.6075949367089,4,1,0,85,0,0
160200,-87.5,4,1,0,85,0,0
160288,-86.4197530864198,4,1,0,85,0,0
160464,-85.3658536585366,4,1,0,85,0,0
160553,-84.3373493975904,4,1,0,85,0,0
160729,-83.3333333333333,4,1,0,85,0,0
165847,-85.3658536585366,4,1,0,85,0,0
166023,-87.5,4,1,0,85,0,0
166200,-89.7435897435897,4,1,0,85,0,0
166376,-92.1052631578947,4,1,0,85,0,0
166553,-94.5945945945946,4,1,0,85,0,0
166641,-97.2222222222222,4,1,0,85,0,0
166729,-100,4,1,0,85,0,0
169023,-99.4318181818182,4,1,0,85,0,0
169111,-98.8700564971752,4,1,0,85,0,0
169200,-98.314606741573,4,1,0,85,0,0
169288,-97.7653631284916,4,1,0,85,0,0
169376,-97.2222222222222,4,1,0,85,0,0
169464,-96.6850828729282,4,1,0,85,0,0
169553,-96.1538461538461,4,1,0,85,0,0
169641,-95.6284153005464,4,1,0,85,0,0
169729,-95.1086956521739,4,1,0,85,0,0
169817,-94.5945945945946,4,1,0,85,0,0
169906,-94.0860215053763,4,1,0,85,0,0
169994,-93.5828877005348,4,1,0,85,0,0
170082,-93.0851063829787,4,1,0,85,0,0
170170,-92.5925925925926,4,1,0,85,0,0
170259,-92.1052631578947,4,1,0,85,0,0
170347,-91.6230366492147,4,1,0,85,0,0
170435,-91.1458333333333,4,1,0,85,0,0
170523,-90.6735751295337,4,1,0,85,0,0
170611,-90.2061855670103,4,1,0,85,0,0
170700,-89.7435897435897,4,1,0,85,0,0
170788,-89.2857142857143,4,1,0,85,0,0
170876,-88.8324873096447,4,1,0,85,0,0
170964,-88.3838383838384,4,1,0,85,0,0
171053,-87.9396984924623,4,1,0,85,0,0
171141,-87.5,4,1,0,85,0,0
171229,-87.0646766169154,4,1,0,85,0,0
171317,-86.6336633663366,4,1,0,85,0,0
171406,-86.2068965517241,4,1,0,85,0,0
171494,-85.7843137254902,4,1,0,85,0,0
171582,-85.3658536585366,4,1,0,85,0,0
171670,-84.9514563106796,4,1,0,85,0,0
171759,-84.5410628019324,4,1,0,85,0,0
171847,-84.1346153846154,4,1,0,85,0,0
171935,-83.7320574162679,4,1,0,85,0,0
172023,-83.3333333333333,4,1,0,85,0,0
183249,-125,4,1,0,60,0,0
192955,-100,4,1,0,85,0,0
194082,-96.3855421686747,4,1,0,85,0,0
194141,-93.0232558139535,4,1,0,85,0,0
194200,-89.8876404494382,4,1,0,85,0,0
194259,-86.9565217391304,4,1,0,85,0,0
194347,-84.2105263157895,4,1,0,85,0,0
194435,-81.6326530612245,4,1,0,85,0,0
194523,-79.2079207920792,4,1,0,85,0,0
194611,-76.9230769230769,4,1,0,85,0,0
194896,-71.4285714285714,4,1,0,85,0,0
195759,-100,4,1,0,85,0,0
195847,-90.9090909090909,4,1,0,85,0,0
195935,-83.3333333333333,4,1,0,85,0,0
196023,-76.9230769230769,4,1,0,85,0,0
196308,-71.4285714285714,4,1,0,85,0,0
197082,-100,4,1,0,85,0,0
197141,-94.3396226415094,4,1,0,85,0,0
197200,-89.2857142857143,4,1,0,85,0,0
197259,-84.7457627118644,4,1,0,85,0,0
197347,-80.6451612903226,4,1,0,85,0,0
197435,-76.9230769230769,4,1,0,85,0,0
197720,-71.4285714285714,4,1,0,85,0,0
198317,-100,4,1,0,85,0,0
198376,-98.1308411214953,4,1,0,85,0,0
198435,-96.3302752293578,4,1,0,85,0,0
198494,-94.5945945945946,4,1,0,85,0,0
198670,-92.9203539823009,4,1,0,85,0,0
198847,-91.304347826087,4,1,0,85,0,0
198935,-89.7435897435897,4,1,0,85,0,0
199023,-88.2352941176471,4,1,0,85,0,0
199111,-86.7768595041322,4,1,0,85,0,0
199200,-85.3658536585366,4,1,0,85,0,0
199288,-84,4,1,0,85,0,0
199376,-82.6771653543307,4,1,0,85,0,0
199464,-81.3953488372093,4,1,0,85,0,0
199553,-80.1526717557252,4,1,0,85,0,0
199641,-78.9473684210526,4,1,0,85,0,0
199729,-77.7777777777778,4,1,0,85,0,0
199817,-76.6423357664234,4,1,0,85,0,0
199906,-75.5395683453237,4,1,0,85,0,0
199994,-74.468085106383,4,1,0,85,0,0
200082,-73.4265734265734,4,1,0,85,0,0
200170,-72.4137931034483,4,1,0,85,0,0
200259,-71.4285714285714,4,1,0,85,0,0
201406,-100,4,1,0,85,0,0
201494,-90.9090909090909,4,1,0,85,0,0
201582,-83.3333333333333,4,1,0,85,0,0
201670,-76.9230769230769,4,1,0,85,0,0
201955,-71.4285714285714,4,1,0,85,0,0
202553,-100,4,1,0,85,0,0
202631,-97.5609756097561,4,1,0,85,0,0
202729,-95.4198473282443,4,1,0,85,0,0
202906,-93.984962406015,4,1,0,85,0,0
203082,-92.5925925925926,4,1,0,85,0,0
203141,-91.2408759124088,4,1,0,85,0,0
203200,-89.9280575539568,4,1,0,85,0,0
203259,-88.6524822695036,4,1,0,85,0,0
203347,-87.4125874125874,4,1,0,85,0,0
203435,-86.2068965517241,4,1,0,85,0,0
203494,-85.0340136054422,4,1,0,85,0,0
203553,-83.8926174496644,4,1,0,85,0,0
203611,-82.7814569536424,4,1,0,85,0,0
203700,-81.6993464052288,4,1,0,85,0,0
203788,-80.6451612903226,4,1,0,85,0,0
203847,-79.6178343949045,4,1,0,85,0,0
203906,-78.6163522012579,4,1,0,85,0,0
203964,-77.639751552795,4,1,0,85,0,0
204053,-76.6871165644172,4,1,0,85,0,0
204141,-75.7575757575758,4,1,0,85,0,0
204200,-74.8502994011976,4,1,0,85,0,0
204259,-73.9644970414201,4,1,0,85,0,0
204317,-73.0994152046784,4,1,0,85,0,0
204406,-72.2543352601156,4,1,0,85,0,0
204494,-71.4285714285714,4,1,0,85,0,0
205837,-125,4,1,0,75,0,0
210670,-121.951219512195,4,1,0,75,0,0
210759,-119.047619047619,4,1,0,75,0,0
210847,-116.279069767442,4,1,0,75,0,0
210935,-113.636363636364,4,1,0,75,0,0
211023,-111.111111111111,4,1,0,75,0,0
211200,-108.695652173913,4,1,0,75,0,0
211288,-106.382978723404,4,1,0,75,0,0
211376,-104.166666666667,4,1,0,75,0,0
211464,-102.040816326531,4,1,0,75,0,0
211553,-100,4,1,0,75,0,0
211906,-111.111111111111,4,1,0,75,0,0
212082,-109.195402298851,4,1,0,76,0,0
212259,-107.344632768362,4,1,0,76,0,0
212435,-105.555555555556,4,1,0,77,0,0
212611,-103.825136612022,4,1,0,77,0,0
212788,-102.150537634409,4,1,0,78,0,0
212964,-100.529100529101,4,1,0,78,0,0
213141,-98.9583333333333,4,1,0,79,0,0
213317,-97.4358974358974,4,1,0,79,0,0
213494,-95.959595959596,4,1,0,80,0,0
213670,-94.5273631840796,4,1,0,80,0,0
213847,-93.1372549019608,4,1,0,81,0,0
214023,-91.7874396135266,4,1,0,81,0,0
214200,-90.4761904761905,4,1,0,82,0,0
214376,-89.2018779342723,4,1,0,82,0,0
214553,-87.962962962963,4,1,0,83,0,0
214729,-86.7579908675799,4,1,0,83,0,0
214906,-85.5855855855856,4,1,0,84,0,0
215082,-84.4444444444445,4,1,0,84,0,0
215259,-83.3333333333333,4,1,0,85,0,0
216141,-100,4,1,0,75,0,0
217131,-83.3333333333333,4,1,0,95,0,0
217220,-83.3333333333333,4,1,0,95,0,1
239455,-83.3333333333333,4,1,0,95,0,0
239808,-80,4,1,0,95,0,1
260984,-80,4,1,0,95,0,0
261073,-80,4,1,0,95,0,0
262337,-83.3333333333333,4,1,0,85,0,0
265200,-100,4,1,0,50,0,0
265376,-100.719424460432,4,1,0,50,0,0
265553,-101.449275362319,4,1,0,50,0,0
265729,-102.189781021898,4,1,0,50,0,0
265906,-102.941176470588,4,1,0,50,0,0
266082,-103.703703703704,4,1,0,50,0,0
266259,-104.477611940299,4,1,0,50,0,0
266435,-105.263157894737,4,1,0,50,0,0
266611,-106.060606060606,4,1,0,50,0,0
266788,-106.870229007634,4,1,0,50,0,0
266964,-107.692307692308,4,1,0,50,0,0
267141,-108.527131782946,4,1,0,50,0,0
267317,-109.375,4,1,0,50,0,0
267494,-110.236220472441,4,1,0,50,0,0
267670,-111.111111111111,4,1,0,50,0,0
267847,-112,4,1,0,50,0,0
268023,-112.903225806452,4,1,0,50,0,0
268200,-113.821138211382,4,1,0,50,0,0
268376,-114.754098360656,4,1,0,50,0,0
268553,-115.702479338843,4,1,0,50,0,0
268729,-116.666666666667,4,1,0,50,0,0
268906,-117.647058823529,4,1,0,50,0,0
269082,-118.64406779661,4,1,0,50,0,0
269259,-119.65811965812,4,1,0,50,0,0
269435,-120.689655172414,4,1,0,50,0,0
269611,-121.739130434783,4,1,0,50,0,0
269788,-122.80701754386,4,1,0,50,0,0
269964,-123.893805309735,4,1,0,50,0,0
270141,-125,4,1,0,50,0,0
270317,-122.448979591837,4,1,0,50,0,0
270494,-120,4,1,0,50,0,0
270670,-117.647058823529,4,1,0,50,0,0
270847,-115.384615384615,4,1,0,50,0,0
271023,-113.207547169811,4,1,0,50,0,0
271200,-111.111111111111,4,1,0,50,0,0
271376,-109.090909090909,4,1,0,50,0,0
271553,-107.142857142857,4,1,0,50,0,0
271729,-105.263157894737,4,1,0,50,0,0
271906,-103.448275862069,4,1,0,50,0,0
272082,-101.694915254237,4,1,0,50,0,0
272259,-100,4,1,0,50,0,0
272435,-106.060606060606,4,1,0,50,0,0
272611,-112.903225806452,4,1,0,50,0,0
272788,-120.689655172414,4,1,0,50,0,0
272964,-129.62962962963,4,1,0,50,0,0
273141,-140,4,1,0,50,0,0
273317,-152.173913043478,4,1,0,50,0,0
273494,-166.666666666667,4,1,0,50,0,0

[HitObjects]
256,192,2632,5,8,0:0:0:0:
256,192,2808,1,8,0:0:0:0:
256,192,2984,1,8,0:0:0:0:
256,192,3161,1,0,0:0:0:0:
256,192,3337,1,8,0:0:0:0:
256,192,3514,1,0,0:0:0:0:
256,192,3690,1,8,0:0:0:0:
256,192,3867,1,8,0:0:0:0:
256,192,4043,1,0,0:0:0:0:
256,192,4220,1,0,0:0:0:0:
256,192,4396,1,8,0:0:0:0:
256,192,4573,1,8,0:0:0:0:
256,192,4749,1,0,0:0:0:0:
256,192,4926,1,8,0:0:0:0:
256,192,5102,1,8,0:0:0:0:
256,192,5279,1,0,0:0:0:0:
256,192,5455,1,8,0:0:0:0:
256,192,5631,1,0,0:0:0:0:
256,192,5808,1,8,0:0:0:0:
256,192,5984,1,8,0:0:0:0:
256,192,6161,1,8,0:0:0:0:
256,192,6337,1,0,0:0:0:0:
256,192,6514,1,8,0:0:0:0:
256,192,6690,1,8,0:0:0:0:
256,192,6867,1,0,0:0:0:0:
256,192,7043,1,0,0:0:0:0:
256,192,7220,1,8,0:0:0:0:
256,192,7396,1,8,0:0:0:0:
256,192,7573,1,0,0:0:0:0:
256,192,7749,1,8,0:0:0:0:
256,192,7926,1,8,0:0:0:0:
256,192,8102,1,0,0:0:0:0:
256,192,8279,1,8,0:0:0:0:
256,192,8455,1,0,0:0:0:0:
256,192,8631,1,8,0:0:0:0:
256,192,8808,1,8,0:0:0:0:
256,192,8984,1,8,0:0:0:0:
256,192,9161,1,0,0:0:0:0:
256,192,9337,1,8,0:0:0:0:
256,192,9514,1,8,0:0:0:0:
256,192,9690,1,0,0:0:0:0:
256,192,9867,1,0,0:0:0:0:
256,192,10043,1,8,0:0:0:0:
256,192,10220,1,8,0:0:0:0:
256,192,10396,1,0,0:0:0:0:
256,192,10573,1,8,0:0:0:0:
256,192,10749,1,0,0:0:0:0:
256,192,10926,1,8,0:0:0:0:
256,192,11102,1,8,0:0:0:0:
256,192,11279,1,0,0:0:0:0:
256,192,11455,1,8,0:0:0:0:
256,192,11631,1,8,0:0:0:0:
256,192,11808,1,8,0:0:0:0:
256,192,11984,1,0,0:0:0:0:
256,192,12161,1,8,0:0:0:0:
256,192,12337,1,8,0:0:0:0:
256,192,12514,1,0,0:0:0:0:
256,192,12690,1,0,0:0:0:0:
256,192,12867,1,8,0:0:0:0:
256,192,13043,1,8,0:0:0:0:
256,192,13220,1,0,0:0:0:0:
256,192,13396,1,8,0:0:0:0:
256,192,13573,1,0,0:0:0:0:
256,192,13749,1,8,0:0:0:0:
256,192,13926,1,8,0:0:0:0:
256,192,14102,1,0,0:0:0:0:
256,192,14279,1,8,0:0:0:0:
256,192,14455,1,8,0:0:0:0:
256,192,14631,1,8,0:0:0:0:
256,192,14808,1,0,0:0:0:0:
256,192,14984,1,8,0:0:0:0:
256,192,15161,1,8,0:0:0:0:
256,192,15337,1,0,0:0:0:0:
256,192,15514,1,0,0:0:0:0:
256,192,15690,1,8,0:0:0:0:
256,192,15867,1,0,0:0:0:0:
256,192,16043,1,8,0:0:0:0:
256,192,16220,1,8,0:0:0:0:
256,192,16396,1,0,0:0:0:0:
256,192,16573,1,0,0:0:0:0:
256,192,16749,1,8,0:0:0:0:
256,192,16926,1,0,0:0:0:0:
256,192,17102,1,8,0:0:0:0:
256,192,17279,1,0,0:0:0:0:
256,192,17455,1,8,0:0:0:0:
256,192,17631,1,8,0:0:0:0:
256,192,17808,1,8,0:0:0:0:
256,192,17984,1,0,0:0:0:0:
256,192,18161,1,0,0:0:0:0:
256,192,18337,1,0,0:0:0:0:
256,192,18514,1,8,0:0:0:0:
256,192,18690,1,8,0:0:0:0:
256,192,18867,1,0,0:0:0:0:
256,192,19043,1,0,0:0:0:0:
256,192,19220,1,8,0:0:0:0:
256,192,19396,1,8,0:0:0:0:
256,192,19573,1,8,0:0:0:0:
256,192,19749,1,0,0:0:0:0:
256,192,19926,1,8,0:0:0:0:
256,192,20102,1,0,0:0:0:0:
256,192,20279,1,8,0:0:0:0:
256,192,20455,1,8,0:0:0:0:
256,192,20631,1,0,0:0:0:0:
256,192,20808,1,8,0:0:0:0:
256,192,20984,1,0,0:0:0:0:
256,192,21161,1,0,0:0:0:0:
256,192,21337,1,8,0:0:0:0:
256,192,21514,1,0,0:0:0:0:
256,192,21690,1,8,0:0:0:0:
256,192,21867,1,8,0:0:0:0:
256,192,22043,1,8,0:0:0:0:
256,192,22220,1,8,0:0:0:0:
256,192,22308,1,8,0:0:0:0:
256,192,22396,1,8,0:0:0:0:
256,192,22573,8,8,23631,0:0:0:0:
256,192,23808,5,8,0:0:0:0:
256,192,24161,1,8,0:0:0:0:
256,192,24337,1,0,0:0:0:0:
256,192,24426,1,0,0:0:0:0:
256,192,24514,1,8,0:0:0:0:
256,192,24779,1,8,0:0:0:0:
256,192,24867,1,0,0:0:0:0:
256,192,25043,1,8,0:0:0:0:
256,192,25131,1,8,0:0:0:0:
256,256,25220,1,4,0:0:0:0:
256,192,25396,1,0,0:0:0:0:
256,192,25573,1,8,0:0:0:0:
256,192,25749,1,8,0:0:0:0:
256,192,25926,1,8,0:0:0:0:
256,192,26102,1,0,0:0:0:0:
256,192,26279,1,8,0:0:0:0:
256,192,26455,1,8,0:0:0:0:
256,192,26631,1,0,0:0:0:0:
256,192,26808,1,0,0:0:0:0:
256,192,26984,1,8,0:0:0:0:
256,192,27161,1,8,0:0:0:0:
256,192,27337,1,0,0:0:0:0:
256,192,27514,1,8,0:0:0:0:
256,192,27690,1,0,0:0:0:0:
256,192,27867,1,8,0:0:0:0:
256,192,27955,1,0,0:0:0:0:
256,192,28043,1,8,0:0:0:0:
256,192,28220,1,8,0:0:0:0:
256,192,28396,1,0,0:0:0:0:
256,192,28573,1,0,0:0:0:0:
256,192,28749,1,8,0:0:0:0:
256,192,28926,1,0,0:0:0:0:
256,192,29102,1,8,0:0:0:0:
256,192,29279,1,8,0:0:0:0:
256,192,29455,1,0,0:0:0:0:
256,192,29631,1,0,0:0:0:0:
256,192,29808,1,8,0:0:0:0:
256,192,29984,1,8,0:0:0:0:
256,192,30161,1,0,0:0:0:0:
256,192,30337,1,8,0:0:0:0:
256,192,30426,1,8,0:0:0:0:
256,192,30514,1,0,0:0:0:0:
256,256,30690,1,12,0:0:0:0:
256,192,30867,1,0,0:0:0:0:
256,192,31220,1,8,0:0:0:0:
256,192,31396,1,0,0:0:0:0:
256,192,31573,1,8,0:0:0:0:
256,192,31749,1,0,0:0:0:0:
256,192,31926,1,8,0:0:0:0:
256,192,32102,1,8,0:0:0:0:
256,192,32279,1,8,0:0:0:0:
256,192,32455,1,0,0:0:0:0:
256,192,32631,1,8,0:0:0:0:
256,192,32808,1,8,0:0:0:0:
256,192,32896,1,8,0:0:0:0:
256,192,32984,1,0,0:0:0:0:
256,192,33161,1,8,0:0:0:0:
256,192,33337,1,0,0:0:0:0:
256,192,33514,1,8,0:0:0:0:
256,192,33602,1,0,0:0:0:0:
256,192,33690,1,0,0:0:0:0:
256,192,33867,1,0,0:0:0:0:
256,192,34043,1,8,0:0:0:0:
256,192,34220,1,8,0:0:0:0:
256,192,34396,1,8,0:0:0:0:
256,192,34573,1,0,0:0:0:0:
256,192,34749,1,8,0:0:0:0:
256,192,34926,1,8,0:0:0:0:
256,192,35102,1,0,0:0:0:0:
256,192,35279,1,0,0:0:0:0:
256,192,35455,1,8,0:0:0:0:
256,192,35631,1,0,0:0:0:0:
256,192,35720,1,0,0:0:0:0:
256,192,35808,1,8,0:0:0:0:
256,192,35984,1,0,0:0:0:0:
256,192,36073,1,8,0:0:0:0:
256,192,36161,1,0,0:0:0:0:
256,192,36337,1,8,0:0:0:0:
256,256,36514,1,4,0:0:0:0:
256,192,36867,1,8,0:0:0:0:
256,192,37043,1,8,0:0:0:0:
256,192,37220,1,0,0:0:0:0:
256,192,37396,1,0,0:0:0:0:
256,192,37573,1,8,0:0:0:0:
256,192,37749,1,8,0:0:0:0:
256,192,37926,1,0,0:0:0:0:
256,192,38102,1,8,0:0:0:0:
256,192,38190,1,0,0:0:0:0:
256,192,38279,1,8,0:0:0:0:
256,192,38455,1,0,0:0:0:0:
256,192,38631,1,8,0:0:0:0:
256,192,38808,1,8,0:0:0:0:
256,192,38896,1,8,0:0:0:0:
256,192,38984,1,8,0:0:0:0:
256,192,39161,1,0,0:0:0:0:
256,192,39337,1,8,0:0:0:0:
256,192,39514,1,0,0:0:0:0:
256,192,39690,1,8,0:0:0:0:
256,192,39867,1,8,0:0:0:0:
256,192,39955,1,8,0:0:0:0:
256,192,40043,1,0,0:0:0:0:
256,192,40220,1,8,0:0:0:0:
256,192,40396,1,8,0:0:0:0:
256,192,40573,1,0,0:0:0:0:
256,192,40749,1,8,0:0:0:0:
256,192,40926,1,0,0:0:0:0:
256,192,41102,1,8,0:0:0:0:
256,192,41279,1,8,0:0:0:0:
256,192,41455,1,0,0:0:0:0:
256,192,41631,1,0,0:0:0:0:
256,192,41808,1,8,0:0:0:0:
256,192,41984,1,8,0:0:0:0:
256,192,42073,1,8,0:0:0:0:
256,256,42161,1,4,0:0:0:0:
256,192,42514,1,0,0:0:0:0:
256,192,42690,1,0,0:0:0:0:
256,192,42867,1,0,0:0:0:0:
256,192,43043,1,0,0:0:0:0:
256,192,43220,1,0,0:0:0:0:
256,192,43396,1,0,0:0:0:0:
256,192,43573,1,8,0:0:0:0:
256,192,43749,1,8,0:0:0:0:
256,192,43926,1,8,0:0:0:0:
256,192,44102,1,8,0:0:0:0:
256,192,44279,1,8,0:0:0:0:
256,192,44455,1,8,0:0:0:0:
256,192,44631,1,8,0:0:0:0:
256,192,44808,1,8,0:0:0:0:
256,256,44984,1,12,0:0:0:0:
256,192,45161,8,0,46749,0:0:0:0:
256,192,46926,5,8,0:0:0:0:
256,192,46984,1,8,0:0:0:0:
256,192,47043,1,8,0:0:0:0:
256,192,47102,1,0,0:0:0:0:
256,256,47808,1,4,0:0:0:0:
256,192,48161,1,0,0:0:0:0:
256,256,48337,1,4,0:0:0:0:
256,192,48955,1,8,0:0:0:0:
256,192,49043,1,8,0:0:0:0:
256,192,49131,1,8,0:0:0:0:
256,256,49220,1,4,0:0:0:0:
256,192,49573,1,0,0:0:0:0:
256,256,49749,1,4,0:0:0:0:
256,192,50279,1,8,0:0:0:0:
256,192,50367,1,8,0:0:0:0:
256,192,50455,1,8,0:0:0:0:
256,192,50543,1,8,0:0:0:0:
256,256,50631,1,4,0:0:0:0:
256,192,50984,1,0,0:0:0:0:
256,256,51161,1,4,0:0:0:0:
256,192,51779,1,8,0:0:0:0:
256,192,51867,1,8,0:0:0:0:
256,192,51955,1,8,0:0:0:0:
256,256,52043,1,4,0:0:0:0:
256,192,52396,1,0,0:0:0:0:
256,256,52573,1,4,0:0:0:0:
256,192,53102,1,0,0:0:0:0:
256,192,53190,1,0,0:0:0:0:
256,192,53279,1,8,0:0:0:0:
256,192,53367,1,8,0:0:0:0:
256,256,53455,1,4,0:0:0:0:
256,192,53808,1,0,0:0:0:0:
256,256,53984,1,4,0:0:0:0:
256,192,54602,1,8,0:0:0:0:
256,192,54690,1,8,0:0:0:0:
256,192,54779,1,8,0:0:0:0:
256,256,54867,1,4,0:0:0:0:
256,192,55220,1,0,0:0:0:0:
256,256,55396,1,4,0:0:0:0:
256,192,55926,1,8,0:0:0:0:
256,192,56014,1,8,0:0:0:0:
256,192,56102,1,8,0:0:0:0:
256,192,56190,1,8,0:0:0:0:
256,256,56279,1,4,0:0:0:0:
256,192,56631,1,0,0:0:0:0:
256,256,56808,1,4,0:0:0:0:
256,192,57426,1,8,0:0:0:0:
256,192,57514,1,0,0:0:0:0:
256,192,57602,1,0,0:0:0:0:
256,192,57690,1,8,0:0:0:0:
256,192,57749,1,8,0:0:0:0:
256,192,57808,1,8,0:0:0:0:
256,192,57867,1,0,0:0:0:0:
256,192,57955,1,0,0:0:0:0:
256,192,58043,1,8,0:0:0:0:
256,192,58102,1,0,0:0:0:0:
256,192,58161,1,0,0:0:0:0:
256,192,58220,1,8,0:0:0:0:
256,192,58308,1,0,0:0:0:0:
256,192,58396,1,8,0:0:0:0:
256,192,58455,1,8,0:0:0:0:
256,192,58514,1,8,0:0:0:0:
256,192,58573,1,0,0:0:0:0:
256,192,58661,1,0,0:0:0:0:
256,192,58749,1,8,0:0:0:0:
256,192,59102,1,4,0:0:0:0:
256,192,59455,1,0,0:0:0:0:
256,256,59631,1,4,0:0:0:0:
256,192,60337,1,8,0:0:0:0:
256,192,60396,1,8,0:0:0:0:
256,192,60455,1,8,0:0:0:0:
256,256,60514,1,4,0:0:0:0:
256,192,60867,1,0,0:0:0:0:
256,256,61043,1,4,0:0:0:0:
256,256,61573,1,12,0:0:0:0:
256,256,61749,1,12,0:0:0:0:
256,256,61926,1,4,0:0:0:0:
256,192,62279,1,0,0:0:0:0:
256,192,62455,1,4,0:0:0:0:
256,192,62808,1,0,0:0:0:0:
256,192,62896,1,0,0:0:0:0:
256,192,62984,1,0,0:0:0:0:
256,192,63073,1,8,0:0:0:0:
256,192,63161,1,8,0:0:0:0:
256,192,63249,1,8,0:0:0:0:
256,256,63337,1,4,0:0:0:0:
256,192,63690,1,0,0:0:0:0:
256,256,63867,1,4,0:0:0:0:
256,192,64220,1,8,0:0:0:0:
256,192,64308,1,8,0:0:0:0:
256,192,64396,1,0,0:0:0:0:
256,192,64484,1,0,0:0:0:0:
256,192,64573,1,0,0:0:0:0:
256,192,64661,1,0,0:0:0:0:
256,256,64749,1,12,0:0:0:0:
256,192,65102,1,0,0:0:0:0:
256,192,65279,1,0,0:0:0:0:
256,192,65455,1,8,0:0:0:0:
256,192,65631,1,0,0:0:0:0:
256,192,65808,1,8,0:0:0:0:
256,192,65984,1,0,0:0:0:0:
256,192,66161,1,8,0:0:0:0:
256,192,66337,1,0,0:0:0:0:
256,192,66514,1,0,0:0:0:0:
256,192,66690,1,0,0:0:0:0:
256,192,66867,1,8,0:0:0:0:
256,192,67043,1,0,0:0:0:0:
256,192,67220,1,8,0:0:0:0:
256,192,67396,1,0,0:0:0:0:
256,192,67573,1,8,0:0:0:0:
256,192,67749,1,8,0:0:0:0:
256,192,67926,1,0,0:0:0:0:
256,192,68102,1,0,0:0:0:0:
256,192,68279,1,8,0:0:0:0:
256,192,68455,1,0,0:0:0:0:
256,192,68631,1,8,0:0:0:0:
256,192,68720,1,8,0:0:0:0:
256,192,68808,1,0,0:0:0:0:
256,192,68896,1,0,0:0:0:0:
256,256,68984,1,12,0:0:0:0:
256,192,69337,1,0,0:0:0:0:
256,192,69514,1,0,0:0:0:0:
256,192,69573,1,0,0:0:0:0:
256,192,69631,1,0,0:0:0:0:
256,192,69690,1,8,0:0:0:0:
256,192,69779,1,8,0:0:0:0:
256,192,69867,1,0,0:0:0:0:
256,192,69955,1,0,0:0:0:0:
256,192,70043,1,8,0:0:0:0:
256,192,70396,1,8,0:0:0:0:
256,192,70484,1,8,0:0:0:0:
256,192,70573,1,8,0:0:0:0:
256,192,70661,1,8,0:0:0:0:
256,192,70749,1,0,0:0:0:0:
256,192,70837,1,0,0:0:0:0:
256,192,70926,1,8,0:0:0:0:
256,192,71014,1,8,0:0:0:0:
256,192,71102,1,0,0:0:0:0:
256,192,71190,1,0,0:0:0:0:
256,192,71279,1,8,0:0:0:0:
256,192,71367,1,0,0:0:0:0:
256,192,71455,1,8,0:0:0:0:
256,192,71543,1,8,0:0:0:0:
256,192,71631,1,8,0:0:0:0:
256,192,71720,1,0,0:0:0:0:
256,192,71808,1,8,0:0:0:0:
256,192,71896,1,8,0:0:0:0:
256,192,71984,1,8,0:0:0:0:
256,192,72073,1,8,0:0:0:0:
256,192,72161,1,0,0:0:0:0:
256,192,72249,1,0,0:0:0:0:
256,192,72337,1,8,0:0:0:0:
256,192,72426,1,8,0:0:0:0:
256,192,72514,1,0,0:0:0:0:
256,192,72602,1,0,0:0:0:0:
256,192,72690,1,8,0:0:0:0:
256,192,72779,1,0,0:0:0:0:
256,192,72867,1,8,0:0:0:0:
256,192,72955,1,8,0:0:0:0:
256,192,73043,1,8,0:0:0:0:
256,192,73131,1,0,0:0:0:0:
256,192,73220,1,8,0:0:0:0:
256,192,73308,1,8,0:0:0:0:
256,192,73396,1,8,0:0:0:0:
256,192,73484,1,8,0:0:0:0:
256,192,73573,1,0,0:0:0:0:
256,192,73661,1,0,0:0:0:0:
256,192,73749,1,8,0:0:0:0:
256,192,73837,1,8,0:0:0:0:
256,192,73926,1,8,0:0:0:0:
256,192,74014,1,0,0:0:0:0:
256,192,74102,1,8,0:0:0:0:
256,192,74190,1,0,0:0:0:0:
256,192,74279,1,8,0:0:0:0:
256,192,74367,1,8,0:0:0:0:
256,192,74455,1,0,0:0:0:0:
256,192,74543,1,0,0:0:0:0:
256,192,74631,1,8,0:0:0:0:
256,192,74720,1,0,0:0:0:0:
256,192,74808,1,8,0:0:0:0:
256,192,74896,1,8,0:0:0:0:
256,192,74984,1,8,0:0:0:0:
256,192,75073,1,0,0:0:0:0:
256,192,75161,1,8,0:0:0:0:
256,192,75249,1,8,0:0:0:0:
256,192,75337,1,0,0:0:0:0:
256,192,75426,1,0,0:0:0:0:
256,192,75514,1,8,0:0:0:0:
256,192,75602,1,0,0:0:0:0:
256,192,75690,1,8,0:0:0:0:
256,192,75779,1,8,0:0:0:0:
256,192,75867,1,8,0:0:0:0:
256,192,75955,1,0,0:0:0:0:
256,192,76043,1,8,0:0:0:0:
256,192,76131,1,8,0:0:0:0:
256,192,76220,1,8,0:0:0:0:
256,192,76308,1,8,0:0:0:0:
256,192,76396,1,0,0:0:0:0:
256,192,76484,1,0,0:0:0:0:
256,192,76573,1,8,0:0:0:0:
256,192,76661,1,8,0:0:0:0:
256,192,76749,1,0,0:0:0:0:
256,192,76837,1,0,0:0:0:0:
256,192,76926,1,8,0:0:0:0:
256,192,77014,1,0,0:0:0:0:
256,192,77102,1,8,0:0:0:0:
256,192,77190,1,8,0:0:0:0:
256,192,77279,1,8,0:0:0:0:
256,192,77367,1,0,0:0:0:0:
256,192,77455,1,8,0:0:0:0:
256,192,77543,1,8,0:0:0:0:
256,192,77631,1,8,0:0:0:0:
256,192,77720,1,8,0:0:0:0:
256,192,77808,1,0,0:0:0:0:
256,192,77896,1,0,0:0:0:0:
256,192,77984,1,8,0:0:0:0:
256,192,78073,1,8,0:0:0:0:
256,192,78161,1,0,0:0:0:0:
256,192,78249,1,0,0:0:0:0:
256,192,78337,1,8,0:0:0:0:
256,192,78426,1,0,0:0:0:0:
256,192,78514,1,8,0:0:0:0:
256,192,78602,1,8,0:0:0:0:
256,192,78690,1,8,0:0:0:0:
256,192,78779,1,0,0:0:0:0:
256,192,78867,1,8,0:0:0:0:
256,192,78955,1,8,0:0:0:0:
256,192,79043,1,8,0:0:0:0:
256,192,79131,1,8,0:0:0:0:
256,192,79220,1,0,0:0:0:0:
256,192,79308,1,0,0:0:0:0:
256,192,79396,1,8,0:0:0:0:
256,192,79484,1,8,0:0:0:0:
256,192,79573,1,8,0:0:0:0:
256,192,79661,1,0,0:0:0:0:
256,192,79749,1,8,0:0:0:0:
256,192,79837,1,0,0:0:0:0:
256,192,79926,1,8,0:0:0:0:
256,192,80014,1,8,0:0:0:0:
256,192,80102,1,0,0:0:0:0:
256,192,80190,1,0,0:0:0:0:
256,192,80279,1,8,0:0:0:0:
256,192,80367,1,8,0:0:0:0:
256,192,80455,1,8,0:0:0:0:
256,192,80543,1,0,0:0:0:0:
256,192,80631,1,8,0:0:0:0:
256,192,80720,1,0,0:0:0:0:
256,192,80808,1,8,0:0:0:0:
256,192,80896,1,8,0:0:0:0:
256,192,80984,1,0,0:0:0:0:
256,192,81073,1,8,0:0:0:0:
256,192,81161,1,8,0:0:0:0:
256,192,81249,1,8,0:0:0:0:
256,192,81337,1,0,0:0:0:0:
256,192,81426,1,8,0:0:0:0:
256,192,81514,1,8,0:0:0:0:
256,192,81602,1,0,0:0:0:0:
256,192,81690,1,8,0:0:0:0:
256,192,81779,1,8,0:0:0:0:
256,192,81867,1,8,0:0:0:0:
256,192,81955,1,8,0:0:0:0:
256,192,82043,1,0,0:0:0:0:
256,192,82131,1,0,0:0:0:0:
256,192,82220,1,8,0:0:0:0:
256,192,82308,1,8,0:0:0:0:
256,192,82396,1,0,0:0:0:0:
256,192,82484,1,0,0:0:0:0:
256,192,82573,1,8,0:0:0:0:
256,192,82661,1,0,0:0:0:0:
256,192,82749,1,8,0:0:0:0:
256,192,82837,1,8,0:0:0:0:
256,192,82926,1,8,0:0:0:0:
256,192,83014,1,0,0:0:0:0:
256,192,83102,1,8,0:0:0:0:
256,192,83190,1,8,0:0:0:0:
256,192,83279,1,8,0:0:0:0:
256,192,83367,1,8,0:0:0:0:
256,192,83455,1,0,0:0:0:0:
256,192,83543,1,0,0:0:0:0:
256,192,83631,1,8,0:0:0:0:
256,192,83720,1,8,0:0:0:0:
256,192,83808,1,0,0:0:0:0:
256,192,83896,1,0,0:0:0:0:
256,192,83984,1,8,0:0:0:0:
256,192,84073,1,0,0:0:0:0:
256,192,84161,1,8,0:0:0:0:
256,192,84249,1,8,0:0:0:0:
256,192,84337,1,8,0:0:0:0:
256,192,84426,1,0,0:0:0:0:
256,192,84514,1,8,0:0:0:0:
256,192,84602,1,8,0:0:0:0:
256,192,84690,1,8,0:0:0:0:
256,192,84779,1,8,0:0:0:0:
256,192,84867,1,0,0:0:0:0:
256,192,84955,1,0,0:0:0:0:
256,192,85043,1,8,0:0:0:0:
256,192,85131,1,8,0:0:0:0:
256,192,85220,1,0,0:0:0:0:
256,192,85308,1,0,0:0:0:0:
256,192,85396,1,8,0:0:0:0:
256,192,85484,1,0,0:0:0:0:
256,192,85573,1,8,0:0:0:0:
256,192,85661,1,8,0:0:0:0:
256,192,85749,1,8,0:0:0:0:
256,192,85837,1,0,0:0:0:0:
256,192,85926,1,8,0:0:0:0:
256,192,86014,1,0,0:0:0:0:
256,192,86102,1,8,0:0:0:0:
256,192,86190,1,8,0:0:0:0:
256,192,86279,1,0,0:0:0:0:
256,192,86367,1,8,0:0:0:0:
256,192,86455,1,0,0:0:0:0:
256,192,86543,1,8,0:0:0:0:
256,192,86631,1,8,0:0:0:0:
256,192,86720,1,0,0:0:0:0:
256,192,86808,1,8,0:0:0:0:
256,192,86896,1,8,0:0:0:0:
256,192,86984,1,0,0:0:0:0:
256,192,87073,1,0,0:0:0:0:
256,192,87161,1,8,0:0:0:0:
256,192,87249,1,0,0:0:0:0:
256,256,87337,1,12,0:0:0:0:
256,192,87514,1,0,0:0:0:0:
256,192,87602,1,0,0:0:0:0:
256,192,87690,1,0,0:0:0:0:
256,256,87867,1,12,0:0:0:0:
256,192,88043,1,0,0:0:0:0:
256,192,88220,1,8,0:0:0:0:
256,192,88308,1,0,0:0:0:0:
256,192,88396,1,8,0:0:0:0:
256,192,88484,1,8,0:0:0:0:
256,192,88573,1,0,0:0:0:0:
256,192,88661,1,0,0:0:0:0:
256,256,88749,1,12,0:0:0:0:
256,192,88926,1,0,0:0:0:0:
256,192,89014,1,0,0:0:0:0:
256,192,89102,1,0,0:0:0:0:
256,256,89279,1,12,0:0:0:0:
256,192,89455,1,0,0:0:0:0:
256,192,89631,1,8,0:0:0:0:
256,192,89720,1,8,0:0:0:0:
256,192,89808,1,8,0:0:0:0:
256,192,89896,1,8,0:0:0:0:
256,256,89984,1,4,0:0:0:0:
256,256,90161,1,12,0:0:0:0:
256,192,90337,1,8,0:0:0:0:
256,192,90426,1,8,0:0:0:0:
256,192,90514,1,0,0:0:0:0:
256,192,90602,1,0,0:0:0:0:
256,256,90690,1,12,0:0:0:0:
256,192,90867,1,8,0:0:0:0:
256,192,90955,1,8,0:0:0:0:
256,192,91043,1,0,0:0:0:0:
256,192,91131,1,0,0:0:0:0:
256,192,91220,1,8,0:0:0:0:
256,192,91279,1,8,0:0:0:0:
256,192,91337,1,8,0:0:0:0:
256,192,91396,1,0,0:0:0:0:
256,192,91484,1,0,0:0:0:0:
256,192,91573,1,8,0:0:0:0:
256,192,91631,1,8,0:0:0:0:
256,192,91690,1,8,0:0:0:0:
256,192,91749,1,0,0:0:0:0:
256,192,91837,1,0,0:0:0:0:
256,192,91926,1,8,0:0:0:0:
256,192,92014,1,0,0:0:0:0:
256,192,92102,1,8,0:0:0:0:
256,192,92161,1,0,0:0:0:0:
256,192,92220,1,0,0:0:0:0:
256,192,92279,1,8,0:0:0:0:
256,192,92367,1,8,0:0:0:0:
256,192,92455,1,0,0:0:0:0:
256,192,92543,1,0,0:0:0:0:
256,192,92631,1,8,0:0:0:0:
256,256,92984,1,4,0:0:0:0:
256,192,93337,1,8,0:0:0:0:
256,192,93426,1,0,0:0:0:0:
256,192,93602,1,0,0:0:0:0:
256,192,93690,1,8,0:0:0:0:
256,192,93779,1,0,0:0:0:0:
256,192,93867,1,0,0:0:0:0:
256,192,93955,1,0,0:0:0:0:
256,192,94043,1,8,0:0:0:0:
256,192,94220,1,0,0:0:0:0:
256,192,94308,1,0,0:0:0:0:
256,192,94396,1,8,0:0:0:0:
256,192,94573,1,0,0:0:0:0:
256,192,94661,1,0,0:0:0:0:
256,192,94749,1,8,0:0:0:0:
256,192,94837,1,0,0:0:0:0:
256,192,95014,1,0,0:0:0:0:
256,192,95102,1,8,0:0:0:0:
256,192,95190,1,0,0:0:0:0:
256,192,95279,1,0,0:0:0:0:
256,192,95367,1,0,0:0:0:0:
256,192,95455,1,8,0:0:0:0:
256,192,95543,1,8,0:0:0:0:
256,192,95631,1,0,0:0:0:0:
256,192,95720,1,0,0:0:0:0:
256,192,95808,1,8,0:0:0:0:
256,192,96161,1,8,0:0:0:0:
256,192,96249,1,0,0:0:0:0:
256,192,96426,1,0,0:0:0:0:
256,192,96514,1,8,0:0:0:0:
256,192,96602,1,0,0:0:0:0:
256,192,96690,1,0,0:0:0:0:
256,192,96779,1,0,0:0:0:0:
256,192,96867,1,8,0:0:0:0:
256,192,97043,1,8,0:0:0:0:
256,192,97131,1,8,0:0:0:0:
256,192,97220,1,0,0:0:0:0:
256,192,97396,1,0,0:0:0:0:
256,192,97484,1,0,0:0:0:0:
256,192,97573,1,8,0:0:0:0:
256,192,97661,1,0,0:0:0:0:
256,192,97837,1,0,0:0:0:0:
256,192,97926,1,8,0:0:0:0:
256,192,98014,1,0,0:0:0:0:
256,192,98102,1,0,0:0:0:0:
256,192,98190,1,0,0:0:0:0:
256,192,98279,1,8,0:0:0:0:
256,192,98367,1,8,0:0:0:0:
256,192,98455,1,0,0:0:0:0:
256,192,98543,1,0,0:0:0:0:
256,256,98631,1,12,0:0:0:0:
256,192,98984,1,8,0:0:0:0:
256,192,99073,1,0,0:0:0:0:
256,192,99249,1,0,0:0:0:0:
256,192,99337,1,8,0:0:0:0:
256,192,99426,1,8,0:0:0:0:
256,192,99514,1,0,0:0:0:0:
256,192,99602,1,0,0:0:0:0:
256,192,99690,1,8,0:0:0:0:
256,192,99867,1,8,0:0:0:0:
256,192,99955,1,8,0:0:0:0:
256,192,100043,1,0,0:0:0:0:
256,192,100220,1,0,0:0:0:0:
256,192,100308,1,0,0:0:0:0:
256,192,100396,1,8,0:0:0:0:
256,192,100484,1,0,0:0:0:0:
256,192,100661,1,0,0:0:0:0:
256,192,100749,1,8,0:0:0:0:
256,192,100837,1,8,0:0:0:0:
256,192,100926,1,0,0:0:0:0:
256,192,101014,1,0,0:0:0:0:
256,192,101102,1,8,0:0:0:0:
256,192,101190,1,0,0:0:0:0:
256,192,101279,1,0,0:0:0:0:
256,192,101367,1,0,0:0:0:0:
256,192,101455,1,8,0:0:0:0:
256,192,101808,1,8,0:0:0:0:
256,192,101896,1,0,0:0:0:0:
256,192,102073,1,0,0:0:0:0:
256,192,102161,1,8,0:0:0:0:
256,192,102249,1,8,0:0:0:0:
256,192,102337,1,0,0:0:0:0:
256,192,102426,1,0,0:0:0:0:
256,192,102514,1,8,0:0:0:0:
256,192,102690,1,0,0:0:0:0:
256,192,102779,1,0,0:0:0:0:
256,192,102867,1,8,0:0:0:0:
256,192,103043,1,0,0:0:0:0:
256,192,103131,1,0,0:0:0:0:
256,192,103220,1,8,0:0:0:0:
256,192,103308,1,8,0:0:0:0:
256,192,103396,1,0,0:0:0:0:
256,192,103484,1,0,0:0:0:0:
256,192,103573,1,8,0:0:0:0:
256,192,103661,1,8,0:0:0:0:
256,192,103749,1,8,0:0:0:0:
256,192,103837,1,8,0:0:0:0:
256,192,103926,1,0,0:0:0:0:
256,192,104014,1,0,0:0:0:0:
256,192,104102,1,0,0:0:0:0:
256,192,104190,1,0,0:0:0:0:
256,256,104279,1,12,0:0:0:0:
256,192,104631,1,8,0:0:0:0:
256,192,104720,1,0,0:0:0:0:
256,192,104896,1,0,0:0:0:0:
256,192,104984,1,8,0:0:0:0:
256,192,105073,1,0,0:0:0:0:
256,192,105161,1,0,0:0:0:0:
256,192,105249,1,0,0:0:0:0:
256,192,105337,1,8,0:0:0:0:
256,192,105514,1,0,0:0:0:0:
256,192,105602,1,0,0:0:0:0:
256,192,105690,1,8,0:0:0:0:
256,192,105867,1,0,0:0:0:0:
256,192,105955,1,0,0:0:0:0:
256,192,106043,1,8,0:0:0:0:
256,192,106131,1,0,0:0:0:0:
256,192,106308,1,0,0:0:0:0:
256,192,106396,1,8,0:0:0:0:
256,192,106484,1,0,0:0:0:0:
256,192,106573,1,0,0:0:0:0:
256,192,106661,1,0,0:0:0:0:
256,192,106749,1,8,0:0:0:0:
256,192,106837,1,8,0:0:0:0:
256,192,106926,1,0,0:0:0:0:
256,192,107014,1,0,0:0:0:0:
256,192,107102,1,8,0:0:0:0:
256,192,107455,1,8,0:0:0:0:
256,192,107543,1,0,0:0:0:0:
256,192,107720,1,0,0:0:0:0:
256,192,107808,1,8,0:0:0:0:
256,192,107896,1,0,0:0:0:0:
256,192,107984,1,0,0:0:0:0:
256,192,108073,1,0,0:0:0:0:
256,192,108161,1,8,0:0:0:0:
256,192,108337,1,8,0:0:0:0:
256,192,108426,1,8,0:0:0:0:
256,192,108514,1,0,0:0:0:0:
256,192,108690,1,0,0:0:0:0:
256,192,108779,1,0,0:0:0:0:
256,192,108867,1,8,0:0:0:0:
256,192,108955,1,0,0:0:0:0:
256,192,109131,1,0,0:0:0:0:
256,192,109220,1,8,0:0:0:0:
256,192,109308,1,0,0:0:0:0:
256,192,109396,1,0,0:0:0:0:
256,192,109484,1,0,0:0:0:0:
256,192,109573,1,8,0:0:0:0:
256,192,109661,1,8,0:0:0:0:
256,192,109749,1,0,0:0:0:0:
256,192,109837,1,0,0:0:0:0:
256,256,109926,1,12,0:0:0:0:
256,192,110102,1,0,0:0:0:0:
256,192,110190,1,0,0:0:0:0:
256,192,110279,1,8,0:0:0:0:
256,192,110367,1,8,0:0:0:0:
256,192,110455,1,0,0:0:0:0:
256,192,110543,1,0,0:0:0:0:
256,192,110631,1,8,0:0:0:0:
256,192,110720,1,8,0:0:0:0:
256,192,110808,1,8,0:0:0:0:
256,192,110896,1,0,0:0:0:0:
256,192,110984,1,8,0:0:0:0:
256,192,111073,1,0,0:0:0:0:
256,192,111161,1,0,0:0:0:0:
256,192,111249,1,0,0:0:0:0:
256,256,111337,1,12,0:0:0:0:
256,192,111514,1,0,0:0:0:0:
256,192,111602,1,0,0:0:0:0:
256,192,111690,1,8,0:0:0:0:
256,192,111779,1,0,0:0:0:0:
256,192,111867,1,0,0:0:0:0:
256,192,111955,1,0,0:0:0:0:
256,192,112043,1,8,0:0:0:0:
256,192,112131,1,0,0:0:0:0:
256,192,112220,1,8,0:0:0:0:
256,192,112308,1,0,0:0:0:0:
256,192,112396,1,8,0:0:0:0:
256,192,112440,1,8,0:0:0:0:
256,192,112749,1,8,0:0:0:0:
256,192,112837,1,8,0:0:0:0:
256,192,112926,1,8,0:0:0:0:
256,192,113014,1,0,0:0:0:0:
256,192,113102,1,8,0:0:0:0:
256,192,113190,1,8,0:0:0:0:
256,192,113279,1,8,0:0:0:0:
256,192,113367,1,8,0:0:0:0:
256,192,113455,1,0,0:0:0:0:
256,192,113543,1,0,0:0:0:0:
256,192,113631,1,0,0:0:0:0:
256,192,113720,1,0,0:0:0:0:
256,192,113808,1,8,0:0:0:0:
256,192,113896,1,8,0:0:0:0:
256,192,113984,1,0,0:0:0:0:
256,192,114073,1,0,0:0:0:0:
256,256,114161,1,12,0:0:0:0:
256,192,114514,1,8,0:0:0:0:
256,192,114690,1,0,0:0:0:0:
256,192,114867,1,8,0:0:0:0:
256,192,114955,1,0,0:0:0:0:
256,192,115043,1,0,0:0:0:0:
256,192,115131,1,0,0:0:0:0:
256,256,115220,1,12,0:0:0:0:
256,192,115396,1,8,0:0:0:0:
256,192,115484,1,8,0:0:0:0:
256,192,115573,1,0,0:0:0:0:
256,192,115661,1,0,0:0:0:0:
256,192,115749,1,0,0:0:0:0:
256,192,115926,1,0,0:0:0:0:
256,192,116014,1,0,0:0:0:0:
256,192,116102,1,0,0:0:0:0:
256,192,116279,1,8,0:0:0:0:
256,192,116455,1,0,0:0:0:0:
256,192,116543,1,0,0:0:0:0:
256,192,116631,1,0,0:0:0:0:
256,192,116808,1,0,0:0:0:0:
256,192,116867,1,0,0:0:0:0:
256,192,116926,1,0,0:0:0:0:
256,192,116984,1,0,0:0:0:0:
256,192,117161,1,8,0:0:0:0:
256,192,117249,1,8,0:0:0:0:
256,192,117337,1,0,0:0:0:0:
256,192,117426,1,0,0:0:0:0:
256,192,117514,1,0,0:0:0:0:
256,192,117602,1,0,0:0:0:0:
256,192,117690,1,8,0:0:0:0:
256,192,117867,1,0,0:0:0:0:
256,192,117955,1,8,0:0:0:0:
256,192,118131,1,0,0:0:0:0:
256,192,118220,1,8,0:0:0:0:
256,192,118308,1,0,0:0:0:0:
256,192,118484,1,0,0:0:0:0:
256,192,118573,1,0,0:0:0:0:
256,192,118661,1,8,0:0:0:0:
256,192,118749,1,0,0:0:0:0:
256,192,118837,1,8,0:0:0:0:
256,192,118926,1,8,0:0:0:0:
256,192,119014,1,0,0:0:0:0:
256,192,119102,1,8,0:0:0:0:
256,192,119279,1,8,0:0:0:0:
256,192,119367,1,0,0:0:0:0:
256,192,119455,1,8,0:0:0:0:
256,192,119543,1,0,0:0:0:0:
256,192,119631,1,8,0:0:0:0:
256,192,119690,1,8,0:0:0:0:
256,192,119749,1,8,0:0:0:0:
256,192,119808,1,0,0:0:0:0:
256,192,119984,1,0,0:0:0:0:
256,192,120043,1,0,0:0:0:0:
256,192,120102,1,0,0:0:0:0:
256,192,120161,1,0,0:0:0:0:
256,192,120337,1,0,0:0:0:0:
256,192,120426,1,0,0:0:0:0:
256,192,120514,1,8,0:0:0:0:
256,192,120631,1,0,0:0:0:0:
256,192,120749,1,0,0:0:0:0:
256,192,120867,1,8,0:0:0:0:
256,192,120984,1,8,0:0:0:0:
256,192,121102,1,8,0:0:0:0:
256,192,121220,1,0,0:0:0:0:
256,192,121308,1,0,0:0:0:0:
256,192,121396,1,0,0:0:0:0:
256,192,121573,1,0,0:0:0:0:
256,192,121661,1,0,0:0:0:0:
256,192,121749,1,0,0:0:0:0:
256,192,121926,1,8,0:0:0:0:
256,192,122102,1,0,0:0:0:0:
256,192,122190,1,0,0:0:0:0:
256,192,122279,1,0,0:0:0:0:
256,192,122455,1,0,0:0:0:0:
256,192,122514,1,0,0:0:0:0:
256,192,122573,1,0,0:0:0:0:
256,192,122631,1,0,0:0:0:0:
256,192,122808,1,8,0:0:0:0:
256,192,122896,1,0,0:0:0:0:
256,192,122984,1,0,0:0:0:0:
256,192,123073,1,8,0:0:0:0:
256,192,123161,1,8,0:0:0:0:
256,192,123249,1,0,0:0:0:0:
256,192,123337,1,8,0:0:0:0:
256,192,123514,1,0,0:0:0:0:
256,192,123602,1,0,0:0:0:0:
256,192,123779,1,8,0:0:0:0:
256,192,123867,1,0,0:0:0:0:
256,192,123955,1,0,0:0:0:0:
256,192,124131,1,8,0:0:0:0:
256,192,124220,1,0,0:0:0:0:
256,192,124308,1,8,0:0:0:0:
256,192,124396,1,8,0:0:0:0:
256,192,124484,1,0,0:0:0:0:
256,192,124573,1,0,0:0:0:0:
256,192,124661,1,0,0:0:0:0:
256,192,124749,1,8,0:0:0:0:
256,192,124926,1,8,0:0:0:0:
256,192,125014,1,0,0:0:0:0:
256,192,125102,1,0,0:0:0:0:
256,192,125190,1,8,0:0:0:0:
256,192,125279,1,8,0:0:0:0:
256,192,125367,1,0,0:0:0:0:
256,192,125455,1,8,0:0:0:0:
256,192,125631,1,0,0:0:0:0:
256,192,125720,1,0,0:0:0:0:
256,192,125808,1,8,0:0:0:0:
256,192,125896,1,8,0:0:0:0:
256,192,125984,1,0,0:0:0:0:
256,192,126073,1,0,0:0:0:0:
256,192,126161,1,8,0:0:0:0:
256,192,126249,1,0,0:0:0:0:
256,192,126337,1,8,0:0:0:0:
256,192,126396,1,0,0:0:0:0:
256,192,126455,1,0,0:0:0:0:
256,192,126514,1,8,0:0:0:0:
256,192,126602,1,0,0:0:0:0:
256,192,126690,1,8,0:0:0:0:
256,192,126749,1,8,0:0:0:0:
256,192,126808,1,8,0:0:0:0:
256,192,126867,1,0,0:0:0:0:
256,192,126955,1,0,0:0:0:0:
256,192,127043,1,0,0:0:0:0:
256,192,127220,1,0,0:0:0:0:
256,192,127308,1,0,0:0:0:0:
256,192,127396,1,0,0:0:0:0:
256,192,127573,1,8,0:0:0:0:
256,192,127749,1,0,0:0:0:0:
256,192,127837,1,0,0:0:0:0:
256,192,127926,1,0,0:0:0:0:
256,192,128102,1,0,0:0:0:0:
256,192,128161,1,0,0:0:0:0:
256,192,128220,1,0,0:0:0:0:
256,192,128279,1,0,0:0:0:0:
256,192,128455,1,8,0:0:0:0:
256,192,128543,1,8,0:0:0:0:
256,192,128631,1,0,0:0:0:0:
256,192,128720,1,0,0:0:0:0:
256,192,128808,1,8,0:0:0:0:
256,192,128896,1,0,0:0:0:0:
256,192,128984,1,8,0:0:0:0:
256,192,129161,1,8,0:0:0:0:
256,192,129249,1,0,0:0:0:0:
256,192,129426,1,0,0:0:0:0:
256,192,129514,1,0,0:0:0:0:
256,192,129602,1,8,0:0:0:0:
256,192,129779,1,8,0:0:0:0:
256,192,129867,1,8,0:0:0:0:
256,192,129955,1,0,0:0:0:0:
256,192,130131,1,8,0:0:0:0:
256,192,130220,1,8,0:0:0:0:
256,192,130308,1,0,0:0:0:0:
256,192,130396,1,8,0:0:0:0:
256,192,130573,1,0,0:0:0:0:
256,192,130661,1,8,0:0:0:0:
256,192,130749,1,0,0:0:0:0:
256,192,130837,1,8,0:0:0:0:
256,192,130926,1,0,0:0:0:0:
256,192,130984,1,0,0:0:0:0:
256,192,131043,1,0,0:0:0:0:
256,192,131102,1,8,0:0:0:0:
256,192,131279,1,0,0:0:0:0:
256,192,131337,1,0,0:0:0:0:
256,192,131396,1,0,0:0:0:0:
256,192,131455,1,8,0:0:0:0:
256,192,131631,1,8,0:0:0:0:
256,192,131720,1,0,0:0:0:0:
256,192,131808,1,8,0:0:0:0:
256,192,131926,1,0,0:0:0:0:
256,192,132043,1,0,0:0:0:0:
256,192,132161,1,8,0:0:0:0:
256,192,132279,1,8,0:0:0:0:
256,192,132396,1,8,0:0:0:0:
256,192,132514,1,0,0:0:0:0:
256,192,132602,1,0,0:0:0:0:
256,192,132690,1,0,0:0:0:0:
256,192,132867,1,0,0:0:0:0:
256,192,132955,1,0,0:0:0:0:
256,192,133043,1,0,0:0:0:0:
256,192,133220,1,8,0:0:0:0:
256,192,133396,1,0,0:0:0:0:
256,192,133484,1,0,0:0:0:0:
256,192,133573,1,0,0:0:0:0:
256,192,133749,1,0,0:0:0:0:
256,192,133808,1,0,0:0:0:0:
256,192,133867,1,0,0:0:0:0:
256,192,133926,1,0,0:0:0:0:
256,192,134102,1,8,0:0:0:0:
256,192,134190,1,8,0:0:0:0:
256,192,134279,1,0,0:0:0:0:
256,192,134367,1,0,0:0:0:0:
256,192,134455,1,8,0:0:0:0:
256,192,134543,1,0,0:0:0:0:
256,192,134631,1,8,0:0:0:0:
256,192,134808,1,0,0:0:0:0:
256,192,134896,1,0,0:0:0:0:
256,192,135073,1,8,0:0:0:0:
256,192,135161,1,0,0:0:0:0:
256,192,135249,1,0,0:0:0:0:
256,192,135426,1,8,0:0:0:0:
256,192,135514,1,0,0:0:0:0:
256,192,135602,1,8,0:0:0:0:
256,192,135690,1,8,0:0:0:0:
256,192,135779,1,0,0:0:0:0:
256,192,135867,1,0,0:0:0:0:
256,192,135955,1,0,0:0:0:0:
256,192,136043,1,8,0:0:0:0:
256,192,136220,1,8,0:0:0:0:
256,192,136308,1,0,0:0:0:0:
256,192,136396,1,8,0:0:0:0:
256,192,136484,1,8,0:0:0:0:
256,192,136573,1,0,0:0:0:0:
256,192,136661,1,0,0:0:0:0:
256,192,136749,1,8,0:0:0:0:
256,192,136926,1,8,0:0:0:0:
256,192,137014,1,0,0:0:0:0:
256,192,137102,1,8,0:0:0:0:
256,192,137190,1,8,0:0:0:0:
256,192,137279,1,0,0:0:0:0:
256,192,137367,1,0,0:0:0:0:
256,192,137455,1,8,0:0:0:0:
256,192,137543,1,0,0:0:0:0:
256,192,137631,1,8,0:0:0:0:
256,192,137690,1,0,0:0:0:0:
256,192,137749,1,0,0:0:0:0:
256,192,137808,1,8,0:0:0:0:
256,192,137896,1,0,0:0:0:0:
256,192,137984,1,8,0:0:0:0:
256,192,138043,1,0,0:0:0:0:
256,192,138102,1,0,0:0:0:0:
256,256,138161,1,12,0:0:0:0:
256,192,140808,1,8,0:0:0:0:
256,192,140896,1,8,0:0:0:0:
256,192,140984,1,8,0:0:0:0:
256,192,141337,1,8,0:0:0:0:
256,192,141514,1,8,0:0:0:0:
256,192,142043,1,8,0:0:0:0:
256,192,142573,1,8,0:0:0:0:
256,192,143279,1,0,0:0:0:0:
256,192,143337,1,0,0:0:0:0:
256,192,143396,1,0,0:0:0:0:
256,192,143455,1,8,0:0:0:0:
256,192,143631,1,0,0:0:0:0:
256,256,143808,1,12,0:0:0:0:
256,192,144161,1,0,0:0:0:0:
256,192,144514,1,0,0:0:0:0:
256,192,144867,1,0,0:0:0:0:
256,192,145220,1,0,0:0:0:0:
256,192,145573,1,0,0:0:0:0:
256,192,145926,1,0,0:0:0:0:
256,192,146279,1,0,0:0:0:0:
256,192,146631,1,8,0:0:0:0:
256,192,146808,1,8,0:0:0:0:
256,192,146984,1,8,0:0:0:0:
256,192,147161,1,8,0:0:0:0:
256,192,147337,1,8,0:0:0:0:
256,192,147514,1,8,0:0:0:0:
256,192,147690,1,8,0:0:0:0:
256,192,147867,1,0,0:0:0:0:
256,192,147955,1,0,0:0:0:0:
256,256,148043,1,12,0:0:0:0:
256,256,148220,1,12,0:0:0:0:
256,192,148573,1,0,0:0:0:0:
256,192,148631,1,0,0:0:0:0:
256,192,148690,1,0,0:0:0:0:
256,192,148749,1,8,0:0:0:0:
256,192,148837,1,8,0:0:0:0:
256,192,148926,1,0,0:0:0:0:
256,192,149014,1,0,0:0:0:0:
256,192,149102,1,0,0:0:0:0:
256,192,149190,1,0,0:0:0:0:
256,192,149279,1,0,0:0:0:0:
256,192,149367,1,0,0:0:0:0:
256,256,149455,1,12,0:0:0:0:
256,192,149984,1,0,0:0:0:0:
256,192,150043,1,0,0:0:0:0:
256,192,150102,1,0,0:0:0:0:
256,192,150161,1,8,0:0:0:0:
256,192,150396,1,0,0:0:0:0:
256,192,150661,1,8,0:0:0:0:
256,192,150896,1,0,0:0:0:0:
256,192,151141,1,8,0:0:0:0:
256,192,151396,1,0,0:0:0:0:
256,192,151779,1,8,0:0:0:0:
256,192,152279,1,0,0:0:0:0:
256,192,152808,1,8,0:0:0:0:
256,192,152896,1,0,0:0:0:0:
256,192,152984,1,8,0:0:0:0:
256,192,153073,1,8,0:0:0:0:
256,192,153161,1,8,0:0:0:0:
256,192,153249,1,0,0:0:0:0:
256,192,153337,1,8,0:0:0:0:
256,192,153426,1,8,0:0:0:0:
256,192,153514,1,0,0:0:0:0:
256,192,153602,1,8,0:0:0:0:
256,192,153690,1,0,0:0:0:0:
256,192,154220,1,8,0:0:0:0:
256,192,154279,1,0,0:0:0:0:
256,192,154337,1,0,0:0:0:0:
256,192,154396,1,8,0:0:0:0:
256,192,154749,1,8,0:0:0:0:
256,192,155102,1,0,0:0:0:0:
256,192,155631,1,0,0:0:0:0:
256,192,155720,1,0,0:0:0:0:
256,192,155808,1,8,0:0:0:0:
256,192,156161,1,0,0:0:0:0:
256,192,156337,1,0,0:0:0:0:
256,192,156690,1,0,0:0:0:0:
256,192,156867,1,0,0:0:0:0:
256,192,157043,1,0,0:0:0:0:
256,192,157102,1,0,0:0:0:0:
256,192,157161,1,0,0:0:0:0:
256,192,157220,1,8,0:0:0:0:
256,192,157749,1,8,0:0:0:0:
256,192,157837,1,0,0:0:0:0:
256,192,157926,1,8,0:0:0:0:
256,192,158279,1,0,0:0:0:0:
256,192,158455,1,0,0:0:0:0:
256,192,158543,1,0,0:0:0:0:
256,192,158631,1,8,0:0:0:0:
256,192,158984,1,0,0:0:0:0:
256,192,159161,1,0,0:0:0:0:
256,192,159337,1,8,0:0:0:0:
256,192,159514,1,0,0:0:0:0:
256,192,159690,1,0,0:0:0:0:
256,192,159867,1,0,0:0:0:0:
256,192,159926,1,0,0:0:0:0:
256,192,159984,1,0,0:0:0:0:
256,192,160043,1,8,0:0:0:0:
256,192,160220,1,8,0:0:0:0:
256,192,160308,1,8,0:0:0:0:
256,192,160484,1,0,0:0:0:0:
256,192,160573,1,0,0:0:0:0:
256,192,160749,1,8,0:0:0:0:
256,192,160837,1,0,0:0:0:0:
256,192,160926,1,8,0:0:0:0:
256,192,161014,1,8,0:0:0:0:
256,192,161102,1,0,0:0:0:0:
256,192,161190,1,0,0:0:0:0:
256,192,161279,1,8,0:0:0:0:
256,192,161367,1,0,0:0:0:0:
256,192,161455,1,8,0:0:0:0:
256,192,161543,1,8,0:0:0:0:
256,192,161631,1,0,0:0:0:0:
256,192,161720,1,0,0:0:0:0:
256,192,161808,1,8,0:0:0:0:
256,192,161896,1,0,0:0:0:0:
256,192,161984,1,8,0:0:0:0:
256,192,162073,1,8,0:0:0:0:
256,192,162161,1,0,0:0:0:0:
256,192,162249,1,0,0:0:0:0:
256,192,162337,1,8,0:0:0:0:
256,192,162426,1,0,0:0:0:0:
256,192,162514,1,8,0:0:0:0:
256,192,162602,1,8,0:0:0:0:
256,192,162690,1,0,0:0:0:0:
256,192,162779,1,0,0:0:0:0:
256,192,162867,1,8,0:0:0:0:
256,192,162955,1,0,0:0:0:0:
256,192,163043,1,8,0:0:0:0:
256,192,163131,1,8,0:0:0:0:
256,192,163220,1,0,0:0:0:0:
256,192,163308,1,0,0:0:0:0:
256,192,163396,1,8,0:0:0:0:
256,192,163484,1,8,0:0:0:0:
256,192,163572,1,8,0:0:0:0:
256,192,163660,1,0,0:0:0:0:
256,192,163749,1,8,0:0:0:0:
256,192,163837,1,0,0:0:0:0:
256,192,163925,1,8,0:0:0:0:
256,192,164013,1,8,0:0:0:0:
256,192,164101,1,8,0:0:0:0:
256,192,164190,1,0,0:0:0:0:
256,192,164278,1,8,0:0:0:0:
256,192,164366,1,0,0:0:0:0:
256,192,164454,1,8,0:0:0:0:
256,192,164543,1,8,0:0:0:0:
256,192,164631,1,8,0:0:0:0:
256,192,164719,1,0,0:0:0:0:
256,192,164807,1,8,0:0:0:0:
256,192,164896,1,0,0:0:0:0:
256,192,164984,1,8,0:0:0:0:
256,192,165249,1,8,0:0:0:0:
256,192,165514,1,8,0:0:0:0:
256,192,165573,1,0,0:0:0:0:
256,192,165631,1,0,0:0:0:0:
256,192,165690,1,8,0:0:0:0:
256,192,165867,1,8,0:0:0:0:
256,256,166043,1,4,0:0:0:0:
256,192,166220,1,8,0:0:0:0:
256,256,166396,1,4,0:0:0:0:
256,192,166573,1,8,0:0:0:0:
256,192,166661,1,8,0:0:0:0:
256,192,166749,1,0,0:0:0:0:
256,192,166926,1,0,0:0:0:0:
256,192,167014,1,0,0:0:0:0:
256,192,167102,1,8,0:0:0:0:
256,192,167455,1,0,0:0:0:0:
256,192,167631,1,0,0:0:0:0:
256,192,167984,1,8,0:0:0:0:
256,192,168161,1,0,0:0:0:0:
256,192,168337,1,0,0:0:0:0:
256,192,168396,1,0,0:0:0:0:
256,192,168455,1,0,0:0:0:0:
256,192,168514,1,8,0:0:0:0:
256,192,169043,1,8,0:0:0:0:
256,192,169131,1,0,0:0:0:0:
256,192,169220,1,8,0:0:0:0:
256,192,169308,1,8,0:0:0:0:
256,192,169396,1,0,0:0:0:0:
256,192,169484,1,0,0:0:0:0:
256,192,169573,1,8,0:0:0:0:
256,192,169661,1,8,0:0:0:0:
256,192,169749,1,0,0:0:0:0:
256,192,169837,1,0,0:0:0:0:
256,192,169926,1,8,0:0:0:0:
256,192,170014,1,0,0:0:0:0:
256,192,170102,1,8,0:0:0:0:
256,192,170190,1,8,0:0:0:0:
256,192,170279,1,0,0:0:0:0:
256,192,170367,1,8,0:0:0:0:
256,192,170455,1,0,0:0:0:0:
256,192,170543,1,0,0:0:0:0:
256,192,170631,1,8,0:0:0:0:
256,192,170720,1,0,0:0:0:0:
256,192,170808,1,0,0:0:0:0:
256,192,170896,1,8,0:0:0:0:
256,192,170984,1,0,0:0:0:0:
256,192,171073,1,0,0:0:0:0:
256,192,171161,1,8,0:0:0:0:
256,192,171249,1,0,0:0:0:0:
256,192,171337,1,8,0:0:0:0:
256,192,171426,1,8,0:0:0:0:
256,192,171514,1,8,0:0:0:0:
256,192,171602,1,0,0:0:0:0:
256,192,171690,1,8,0:0:0:0:
256,192,171779,1,8,0:0:0:0:
256,192,171867,1,0,0:0:0:0:
256,192,171955,1,0,0:0:0:0:
256,256,172043,1,12,0:0:0:0:
256,192,172396,1,8,0:0:0:0:
256,192,172484,1,0,0:0:0:0:
256,192,172661,1,0,0:0:0:0:
256,192,172749,1,8,0:0:0:0:
256,192,172837,1,0,0:0:0:0:
256,192,172926,1,0,0:0:0:0:
256,192,173014,1,0,0:0:0:0:
256,192,173102,1,8,0:0:0:0:
256,192,173279,1,8,0:0:0:0:
256,192,173367,1,0,0:0:0:0:
256,192,173455,1,8,0:0:0:0:
256,192,173543,1,8,0:0:0:0:
256,192,173631,1,0,0:0:0:0:
256,192,173720,1,0,0:0:0:0:
256,192,173808,1,8,0:0:0:0:
256,192,173896,1,8,0:0:0:0:
256,192,173984,1,8,0:0:0:0:
256,192,174073,1,0,0:0:0:0:
256,192,174161,1,8,0:0:0:0:
256,192,174249,1,8,0:0:0:0:
256,192,174337,1,0,0:0:0:0:
256,192,174426,1,0,0:0:0:0:
256,192,174514,1,8,0:0:0:0:
256,192,174602,1,0,0:0:0:0:
256,192,174690,1,0,0:0:0:0:
256,192,174779,1,0,0:0:0:0:
256,192,174867,1,8,0:0:0:0:
256,192,175220,1,8,0:0:0:0:
256,192,175308,1,0,0:0:0:0:
256,192,175484,1,0,0:0:0:0:
256,192,175573,1,8,0:0:0:0:
256,192,175661,1,0,0:0:0:0:
256,192,175749,1,0,0:0:0:0:
256,192,175837,1,0,0:0:0:0:
256,192,175926,1,8,0:0:0:0:
256,192,176102,1,8,0:0:0:0:
256,192,176190,1,0,0:0:0:0:
256,192,176279,1,8,0:0:0:0:
256,192,176455,1,0,0:0:0:0:
256,192,176631,1,8,0:0:0:0:
256,192,176720,1,0,0:0:0:0:
256,192,176896,1,0,0:0:0:0:
256,192,176984,1,8,0:0:0:0:
256,192,177073,1,0,0:0:0:0:
256,192,177161,1,0,0:0:0:0:
256,192,177249,1,0,0:0:0:0:
256,192,177337,1,8,0:0:0:0:
256,192,177426,1,8,0:0:0:0:
256,192,177514,1,0,0:0:0:0:
256,192,177602,1,0,0:0:0:0:
256,256,177690,1,12,0:0:0:0:
256,192,177867,1,0,0:0:0:0:
256,192,177926,1,0,0:0:0:0:
256,192,177984,1,0,0:0:0:0:
256,192,178043,1,0,0:0:0:0:
256,192,178220,1,8,0:0:0:0:
256,192,178308,1,0,0:0:0:0:
256,192,178396,1,8,0:0:0:0:
256,192,178455,1,8,0:0:0:0:
256,192,178514,1,8,0:0:0:0:
256,192,178573,1,0,0:0:0:0:
256,192,178661,1,0,0:0:0:0:
256,192,178749,1,8,0:0:0:0:
256,192,178837,1,8,0:0:0:0:
256,192,178926,1,0,0:0:0:0:
256,192,179014,1,0,0:0:0:0:
256,256,179102,1,12,0:0:0:0:
256,192,179279,1,0,0:0:0:0:
256,192,179455,1,0,0:0:0:0:
256,192,179543,1,0,0:0:0:0:
256,192,179631,1,8,0:0:0:0:
256,192,179720,1,0,0:0:0:0:
256,192,179808,1,8,0:0:0:0:
256,192,179867,1,8,0:0:0:0:
256,192,179926,1,8,0:0:0:0:
256,192,179984,1,0,0:0:0:0:
256,192,180073,1,0,0:0:0:0:
256,256,180161,1,8,0:0:0:0:
256,192,180249,1,8,0:0:0:0:
256,192,180337,1,8,0:0:0:0:
256,192,180426,1,0,0:0:0:0:
256,192,180514,1,8,0:0:0:0:
256,192,180602,1,8,0:0:0:0:
256,192,180690,1,0,0:0:0:0:
256,192,180779,1,0,0:0:0:0:
256,192,180867,1,8,0:0:0:0:
256,192,180955,1,8,0:0:0:0:
256,192,181043,1,0,0:0:0:0:
256,192,181131,1,0,0:0:0:0:
256,192,181220,1,8,0:0:0:0:
256,192,181308,1,8,0:0:0:0:
256,192,181396,1,0,0:0:0:0:
256,192,181484,1,0,0:0:0:0:
256,192,181573,1,8,0:0:0:0:
256,192,181661,1,8,0:0:0:0:
256,192,181749,1,8,0:0:0:0:
256,192,181837,1,8,0:0:0:0:
256,256,181926,1,4,0:0:0:0:
256,192,183337,1,0,0:0:0:0:
256,192,183867,1,0,0:0:0:0:
256,192,184573,1,0,0:0:0:0:
256,192,184661,1,0,0:0:0:0:
256,192,184749,1,0,0:0:0:0:
256,192,185279,1,0,0:0:0:0:
256,192,185984,1,0,0:0:0:0:
256,192,186073,1,0,0:0:0:0:
256,192,186161,1,0,0:0:0:0:
256,192,186690,1,0,0:0:0:0:
256,192,187396,1,0,0:0:0:0:
256,192,187484,1,0,0:0:0:0:
256,192,187573,1,0,0:0:0:0:
256,192,188102,1,0,0:0:0:0:
256,192,188631,1,0,0:0:0:0:
256,192,188984,1,0,0:0:0:0:
256,192,189514,1,0,0:0:0:0:
256,192,190220,1,0,0:0:0:0:
256,192,190308,1,0,0:0:0:0:
256,192,190396,1,0,0:0:0:0:
256,192,190926,1,0,0:0:0:0:
256,192,191631,1,0,0:0:0:0:
256,192,191720,1,0,0:0:0:0:
256,192,191808,1,0,0:0:0:0:
256,192,192337,1,0,0:0:0:0:
256,192,193043,1,0,0:0:0:0:
256,192,193102,1,0,0:0:0:0:
256,192,193161,1,0,0:0:0:0:
256,192,193220,1,8,0:0:0:0:
256,192,193573,1,0,0:0:0:0:
256,192,193631,1,0,0:0:0:0:
256,192,193690,1,0,0:0:0:0:
256,192,193749,1,8,0:0:0:0:
256,192,194102,1,0,0:0:0:0:
256,192,194161,1,0,0:0:0:0:
256,192,194220,1,0,0:0:0:0:
256,192,194279,1,8,0:0:0:0:
256,192,194367,1,8,0:0:0:0:
256,192,194455,1,0,0:0:0:0:
256,192,194543,1,0,0:0:0:0:
256,256,194631,1,12,0:0:0:0:
256,192,194984,1,0,0:0:0:0:
256,256,195161,1,12,0:0:0:0:
256,192,195779,1,8,0:0:0:0:
256,192,195867,1,8,0:0:0:0:
256,192,195955,1,8,0:0:0:0:
256,256,196043,1,4,0:0:0:0:
256,192,196396,1,0,0:0:0:0:
256,192,196573,1,4,0:0:0:0:
256,192,197102,1,8,0:0:0:0:
256,192,197161,1,8,0:0:0:0:
256,192,197220,1,8,0:0:0:0:
256,192,197279,1,0,0:0:0:0:
256,192,197367,1,0,0:0:0:0:
256,256,197455,1,12,0:0:0:0:
256,192,197808,1,0,0:0:0:0:
256,256,197984,1,12,0:0:0:0:
256,192,198337,1,0,0:0:0:0:
256,192,198396,1,0,0:0:0:0:
256,192,198455,1,0,0:0:0:0:
256,192,198514,1,8,0:0:0:0:
256,192,198690,1,0,0:0:0:0:
256,192,198867,1,8,0:0:0:0:
256,192,198955,1,8,0:0:0:0:
256,192,199043,1,0,0:0:0:0:
256,192,199131,1,0,0:0:0:0:
256,192,199220,1,8,0:0:0:0:
256,192,199308,1,8,0:0:0:0:
256,192,199396,1,8,0:0:0:0:
256,192,199484,1,0,0:0:0:0:
256,192,199573,1,8,0:0:0:0:
256,192,199661,1,0,0:0:0:0:
256,192,199749,1,0,0:0:0:0:
256,192,199837,1,0,0:0:0:0:
256,192,199926,1,8,0:0:0:0:
256,192,200014,1,8,0:0:0:0:
256,192,200102,1,0,0:0:0:0:
256,192,200190,1,0,0:0:0:0:
256,256,200279,1,12,0:0:0:0:
256,192,200631,1,0,0:0:0:0:
256,256,200808,1,12,0:0:0:0:
256,192,201426,1,8,0:0:0:0:
256,192,201514,1,0,0:0:0:0:
256,192,201602,1,0,0:0:0:0:
256,256,201690,1,12,0:0:0:0:
256,192,202043,1,0,0:0:0:0:
256,256,202220,1,12,0:0:0:0:
256,192,202573,1,0,0:0:0:0:
256,192,202661,1,0,0:0:0:0:
256,256,202749,1,8,0:0:0:0:
256,256,202926,1,8,0:0:0:0:
256,192,203102,1,8,0:0:0:0:
256,192,203161,1,8,0:0:0:0:
256,192,203220,1,8,0:0:0:0:
256,192,203279,1,0,0:0:0:0:
256,192,203367,1,0,0:0:0:0:
256,192,203455,1,8,0:0:0:0:
256,192,203514,1,0,0:0:0:0:
256,192,203573,1,0,0:0:0:0:
256,192,203631,1,8,0:0:0:0:
256,192,203720,1,0,0:0:0:0:
256,192,203808,1,8,0:0:0:0:
256,192,203867,1,8,0:0:0:0:
256,192,203926,1,8,0:0:0:0:
256,192,203984,1,0,0:0:0:0:
256,192,204073,1,0,0:0:0:0:
256,192,204161,1,8,0:0:0:0:
256,192,204220,1,0,0:0:0:0:
256,192,204279,1,0,0:0:0:0:
256,192,204337,1,8,0:0:0:0:
256,192,204426,1,0,0:0:0:0:
256,256,204514,1,12,0:0:0:0:
256,256,205926,1,4,0:0:0:0:
256,192,206279,1,8,0:0:0:0:
256,192,206455,1,0,0:0:0:0:
256,192,206631,1,8,0:0:0:0:
256,192,206808,1,0,0:0:0:0:
256,192,206984,1,8,0:0:0:0:
256,192,207161,1,8,0:0:0:0:
256,192,207337,1,0,0:0:0:0:
256,192,207514,1,0,0:0:0:0:
256,192,207690,1,8,0:0:0:0:
256,192,207867,1,8,0:0:0:0:
256,192,208043,1,8,0:0:0:0:
256,192,208220,1,0,0:0:0:0:
256,192,208396,1,8,0:0:0:0:
256,192,208573,1,8,0:0:0:0:
256,192,208749,1,0,0:0:0:0:
256,192,208926,1,0,0:0:0:0:
256,192,209102,1,8,0:0:0:0:
256,192,209279,1,0,0:0:0:0:
256,192,209455,1,8,0:0:0:0:
256,192,209631,1,0,0:0:0:0:
256,192,209808,1,8,0:0:0:0:
256,192,209984,1,8,0:0:0:0:
256,192,210161,1,0,0:0:0:0:
256,192,210337,1,0,0:0:0:0:
256,192,210514,1,8,0:0:0:0:
256,192,210690,1,0,0:0:0:0:
256,192,210779,1,0,0:0:0:0:
256,192,210867,1,8,0:0:0:0:
256,192,210955,1,8,0:0:0:0:
256,192,211043,1,0,0:0:0:0:
256,192,211220,1,8,0:0:0:0:
256,192,211308,1,0,0:0:0:0:
256,192,211396,1,0,0:0:0:0:
256,192,211484,1,0,0:0:0:0:
256,256,211573,1,12,0:0:0:0:
256,192,211926,1,0,0:0:0:0:
256,192,212102,1,0,0:0:0:0:
256,192,212279,1,0,0:0:0:0:
256,192,212455,1,0,0:0:0:0:
256,192,212631,1,0,0:0:0:0:
256,192,212808,1,0,0:0:0:0:
256,192,212984,1,8,0:0:0:0:
256,192,213161,1,8,0:0:0:0:
256,192,213337,1,8,0:0:0:0:
256,192,213514,1,8,0:0:0:0:
256,192,213690,1,8,0:0:0:0:
256,192,213867,1,8,0:0:0:0:
256,192,214043,1,8,0:0:0:0:
256,192,214220,1,8,0:0:0:0:
256,192,214396,1,8,0:0:0:0:
256,192,214573,1,0,0:0:0:0:
256,192,214749,1,8,0:0:0:0:
256,192,214926,1,8,0:0:0:0:
256,192,215102,1,0,0:0:0:0:
256,192,215279,1,0,0:0:0:0:
256,192,215455,1,8,0:0:0:0:
256,192,215543,1,8,0:0:0:0:
256,192,215631,1,0,0:0:0:0:
256,192,215720,1,0,0:0:0:0:
256,256,215808,1,12,0:0:0:0:
256,192,216161,1,8,0:0:0:0:
256,192,216337,1,0,0:0:0:0:
256,192,216396,1,0,0:0:0:0:
256,192,216455,1,0,0:0:0:0:
256,192,216514,1,8,0:0:0:0:
256,192,216602,1,8,0:0:0:0:
256,192,216690,1,0,0:0:0:0:
256,192,216779,1,0,0:0:0:0:
256,192,216867,1,8,0:0:0:0:
256,192,217220,1,8,0:0:0:0:
256,192,217308,1,8,0:0:0:0:
256,192,217396,1,8,0:0:0:0:
256,192,217484,1,0,0:0:0:0:
256,192,217573,1,0,0:0:0:0:
256,192,217661,1,0,0:0:0:0:
256,192,217749,1,8,0:0:0:0:
256,192,217837,1,8,0:0:0:0:
256,192,217926,1,0,0:0:0:0:
256,192,218014,1,0,0:0:0:0:
256,192,218102,1,8,0:0:0:0:
256,192,218190,1,0,0:0:0:0:
256,192,218279,1,8,0:0:0:0:
256,192,218367,1,8,0:0:0:0:
256,192,218455,1,0,0:0:0:0:
256,192,218543,1,0,0:0:0:0:
256,192,218631,1,8,0:0:0:0:
256,192,218720,1,8,0:0:0:0:
256,192,218808,1,8,0:0:0:0:
256,192,218896,1,0,0:0:0:0:
256,192,218984,1,0,0:0:0:0:
256,192,219073,1,0,0:0:0:0:
256,192,219161,1,8,0:0:0:0:
256,192,219249,1,8,0:0:0:0:
256,192,219337,1,0,0:0:0:0:
256,192,219426,1,0,0:0:0:0:
256,192,219514,1,8,0:0:0:0:
256,192,219602,1,0,0:0:0:0:
256,192,219690,1,8,0:0:0:0:
256,192,219779,1,8,0:0:0:0:
256,192,219867,1,0,0:0:0:0:
256,192,219955,1,0,0:0:0:0:
256,192,220043,1,8,0:0:0:0:
256,192,220131,1,8,0:0:0:0:
256,192,220220,1,8,0:0:0:0:
256,192,220308,1,0,0:0:0:0:
256,192,220396,1,0,0:0:0:0:
256,192,220484,1,0,0:0:0:0:
256,192,220573,1,8,0:0:0:0:
256,192,220661,1,8,0:0:0:0:
256,192,220749,1,0,0:0:0:0:
256,192,220837,1,0,0:0:0:0:
256,192,220926,1,8,0:0:0:0:
256,192,221014,1,0,0:0:0:0:
256,192,221102,1,8,0:0:0:0:
256,192,221190,1,8,0:0:0:0:
256,192,221279,1,8,0:0:0:0:
256,192,221367,1,0,0:0:0:0:
256,192,221455,1,8,0:0:0:0:
256,192,221543,1,8,0:0:0:0:
256,192,221631,1,0,0:0:0:0:
256,192,221720,1,0,0:0:0:0:
256,192,221808,1,0,0:0:0:0:
256,192,221896,1,0,0:0:0:0:
256,192,221984,1,8,0:0:0:0:
256,192,222073,1,8,0:0:0:0:
256,192,222161,1,0,0:0:0:0:
256,192,222249,1,0,0:0:0:0:
256,192,222337,1,8,0:0:0:0:
256,192,222426,1,8,0:0:0:0:
256,192,222514,1,8,0:0:0:0:
256,192,222602,1,0,0:0:0:0:
256,192,222690,1,8,0:0:0:0:
256,192,222779,1,0,0:0:0:0:
256,192,222867,1,8,0:0:0:0:
256,192,222955,1,8,0:0:0:0:
256,192,223043,1,8,0:0:0:0:
256,192,223131,1,0,0:0:0:0:
256,192,223220,1,0,0:0:0:0:
256,192,223308,1,0,0:0:0:0:
256,192,223396,1,8,0:0:0:0:
256,192,223484,1,8,0:0:0:0:
256,192,223573,1,0,0:0:0:0:
256,192,223661,1,0,0:0:0:0:
256,192,223749,1,8,0:0:0:0:
256,192,223837,1,0,0:0:0:0:
256,192,223926,1,8,0:0:0:0:
256,192,224014,1,8,0:0:0:0:
256,192,224102,1,0,0:0:0:0:
256,192,224190,1,0,0:0:0:0:
256,192,224279,1,8,0:0:0:0:
256,192,224367,1,8,0:0:0:0:
256,192,224455,1,8,0:0:0:0:
256,192,224543,1,0,0:0:0:0:
256,192,224631,1,0,0:0:0:0:
256,192,224720,1,0,0:0:0:0:
256,192,224808,1,8,0:0:0:0:
256,192,224896,1,8,0:0:0:0:
256,192,224984,1,0,0:0:0:0:
256,192,225073,1,0,0:0:0:0:
256,192,225161,1,8,0:0:0:0:
256,192,225249,1,0,0:0:0:0:
256,192,225337,1,8,0:0:0:0:
256,192,225426,1,8,0:0:0:0:
256,192,225514,1,0,0:0:0:0:
256,192,225602,1,0,0:0:0:0:
256,192,225690,1,8,0:0:0:0:
256,192,225779,1,8,0:0:0:0:
256,192,225867,1,8,0:0:0:0:
256,192,225955,1,0,0:0:0:0:
256,192,226043,1,8,0:0:0:0:
256,192,226131,1,0,0:0:0:0:
256,192,226220,1,8,0:0:0:0:
256,192,226308,1,8,0:0:0:0:
256,192,226396,1,0,0:0:0:0:
256,192,226484,1,0,0:0:0:0:
256,192,226573,1,8,0:0:0:0:
256,192,226661,1,0,0:0:0:0:
256,192,226749,1,8,0:0:0:0:
256,192,226837,1,0,0:0:0:0:
256,192,226926,1,8,0:0:0:0:
256,192,227014,1,8,0:0:0:0:
256,192,227102,1,8,0:0:0:0:
256,192,227190,1,0,0:0:0:0:
256,192,227279,1,8,0:0:0:0:
256,192,227367,1,8,0:0:0:0:
256,192,227455,1,0,0:0:0:0:
256,192,227543,1,8,0:0:0:0:
256,192,227631,1,8,0:0:0:0:
256,192,227720,1,0,0:0:0:0:
256,192,227808,1,8,0:0:0:0:
256,192,227896,1,8,0:0:0:0:
256,192,227984,1,0,0:0:0:0:
256,192,228073,1,8,0:0:0:0:
256,192,228161,1,8,0:0:0:0:
256,192,228249,1,0,0:0:0:0:
256,192,228337,1,8,0:0:0:0:
256,192,228426,1,0,0:0:0:0:
256,192,228514,1,8,0:0:0:0:
256,192,228602,1,8,0:0:0:0:
256,192,228690,1,8,0:0:0:0:
256,192,228779,1,0,0:0:0:0:
256,192,228867,1,0,0:0:0:0:
256,192,228955,1,0,0:0:0:0:
256,192,229043,1,8,0:0:0:0:
256,192,229131,1,8,0:0:0:0:
256,192,229220,1,0,0:0:0:0:
256,192,229308,1,0,0:0:0:0:
256,192,229396,1,8,0:0:0:0:
256,192,229484,1,0,0:0:0:0:
256,192,229573,1,8,0:0:0:0:
256,192,229661,1,8,0:0:0:0:
256,192,229749,1,0,0:0:0:0:
256,192,229837,1,0,0:0:0:0:
256,192,229926,1,8,0:0:0:0:
256,192,230014,1,8,0:0:0:0:
256,192,230102,1,8,0:0:0:0:
256,192,230190,1,0,0:0:0:0:
256,192,230279,1,0,0:0:0:0:
256,192,230367,1,0,0:0:0:0:
256,192,230455,1,8,0:0:0:0:
256,192,230543,1,8,0:0:0:0:
256,192,230631,1,0,0:0:0:0:
256,192,230720,1,0,0:0:0:0:
256,192,230808,1,8,0:0:0:0:
256,192,230896,1,0,0:0:0:0:
256,192,230984,1,8,0:0:0:0:
256,192,231073,1,8,0:0:0:0:
256,192,231161,1,0,0:0:0:0:
256,192,231249,1,0,0:0:0:0:
256,192,231337,1,8,0:0:0:0:
256,192,231426,1,8,0:0:0:0:
256,192,231514,1,8,0:0:0:0:
256,192,231602,1,0,0:0:0:0:
256,192,231690,1,0,0:0:0:0:
256,192,231779,1,0,0:0:0:0:
256,192,231867,1,8,0:0:0:0:
256,192,231955,1,8,0:0:0:0:
256,192,232043,1,0,0:0:0:0:
256,192,232131,1,0,0:0:0:0:
256,192,232220,1,8,0:0:0:0:
256,192,232308,1,0,0:0:0:0:
256,192,232396,1,8,0:0:0:0:
256,192,232484,1,8,0:0:0:0:
256,192,232573,1,0,0:0:0:0:
256,192,232661,1,8,0:0:0:0:
256,192,232749,1,0,0:0:0:0:
256,192,232808,1,0,0:0:0:0:
256,192,232867,1,0,0:0:0:0:
256,192,232926,1,8,0:0:0:0:
256,192,233014,1,0,0:0:0:0:
256,192,233102,1,8,0:0:0:0:
256,192,233190,1,8,0:0:0:0:
256,192,233279,1,0,0:0:0:0:
256,192,233337,1,0,0:0:0:0:
256,192,233396,1,0,0:0:0:0:
256,192,233455,1,8,0:0:0:0:
256,192,233543,1,0,0:0:0:0:
256,192,233631,1,8,0:0:0:0:
256,192,233720,1,8,0:0:0:0:
256,192,233808,1,0,0:0:0:0:
256,192,233896,1,0,0:0:0:0:
256,192,233984,1,8,0:0:0:0:
256,192,234073,1,0,0:0:0:0:
256,256,234161,1,12,0:0:0:0:
256,192,234337,1,0,0:0:0:0:
256,192,234426,1,0,0:0:0:0:
256,192,234514,1,0,0:0:0:0:
256,192,234602,1,0,0:0:0:0:
256,256,234690,1,12,0:0:0:0:
256,192,234867,1,0,0:0:0:0:
256,192,234955,1,0,0:0:0:0:
256,192,235043,1,8,0:0:0:0:
256,192,235131,1,8,0:0:0:0:
256,192,235220,1,8,0:0:0:0:
256,192,235308,1,8,0:0:0:0:
256,192,235396,1,0,0:0:0:0:
256,192,235484,1,0,0:0:0:0:
256,256,235573,1,12,0:0:0:0:
256,192,235749,1,0,0:0:0:0:
256,192,235837,1,0,0:0:0:0:
256,192,235926,1,0,0:0:0:0:
256,192,236014,1,0,0:0:0:0:
256,256,236102,1,12,0:0:0:0:
256,192,236279,1,0,0:0:0:0:
256,192,236367,1,0,0:0:0:0:
256,192,236455,1,8,0:0:0:0:
256,192,236543,1,8,0:0:0:0:
256,192,236631,1,8,0:0:0:0:
256,192,236720,1,8,0:0:0:0:
256,256,236808,1,4,0:0:0:0:
256,256,236984,1,12,0:0:0:0:
256,256,237161,1,8,0:0:0:0:
256,192,237249,1,8,0:0:0:0:
256,192,237337,1,0,0:0:0:0:
256,192,237426,1,0,0:0:0:0:
256,256,237514,1,12,0:0:0:0:
256,192,237690,1,8,0:0:0:0:
256,192,237779,1,8,0:0:0:0:
256,192,237867,1,0,0:0:0:0:
256,192,237955,1,0,0:0:0:0:
256,192,238043,1,8,0:0:0:0:
256,192,238102,1,8,0:0:0:0:
256,192,238161,1,8,0:0:0:0:
256,192,238220,1,0,0:0:0:0:
256,192,238308,1,0,0:0:0:0:
256,192,238396,1,8,0:0:0:0:
256,192,238455,1,0,0:0:0:0:
256,192,238514,1,0,0:0:0:0:
256,192,238573,1,8,0:0:0:0:
256,192,238661,1,0,0:0:0:0:
256,192,238749,1,8,0:0:0:0:
256,192,238808,1,8,0:0:0:0:
264,185,238867,1,8,0:0:0:0:
256,192,238926,1,0,0:0:0:0:
256,192,239014,1,0,0:0:0:0:
256,192,239102,1,8,0:0:0:0:
256,192,239161,1,0,0:0:0:0:
256,192,239220,1,0,0:0:0:0:
256,192,239279,1,8,0:0:0:0:
256,192,239367,1,0,0:0:0:0:
256,192,239455,1,8,0:0:0:0:
256,192,239808,1,8,0:0:0:0:
256,192,239896,1,0,0:0:0:0:
256,192,239984,1,0,0:0:0:0:
256,192,240073,1,0,0:0:0:0:
256,192,240161,1,8,0:0:0:0:
256,192,240249,1,0,0:0:0:0:
256,192,240337,1,0,0:0:0:0:
256,192,240426,1,0,0:0:0:0:
256,192,240514,1,8,0:0:0:0:
256,192,240602,1,8,0:0:0:0:
256,192,240690,1,0,0:0:0:0:
256,192,240779,1,0,0:0:0:0:
256,192,240867,1,8,0:0:0:0:
256,192,240955,1,8,0:0:0:0:
256,192,241043,1,0,0:0:0:0:
256,192,241131,1,0,0:0:0:0:
256,192,241220,1,8,0:0:0:0:
256,192,241308,1,0,0:0:0:0:
256,192,241396,1,0,0:0:0:0:
256,192,241484,1,0,0:0:0:0:
256,192,241573,1,8,0:0:0:0:
256,192,241661,1,0,0:0:0:0:
256,192,241749,1,0,0:0:0:0:
256,192,241837,1,0,0:0:0:0:
256,192,241926,1,8,0:0:0:0:
256,192,242014,1,8,0:0:0:0:
256,192,242102,1,0,0:0:0:0:
256,192,242190,1,0,0:0:0:0:
256,192,242279,1,8,0:0:0:0:
256,192,242367,1,8,0:0:0:0:
256,192,242455,1,0,0:0:0:0:
256,192,242543,1,0,0:0:0:0:
256,192,242631,1,8,0:0:0:0:
256,192,242720,1,0,0:0:0:0:
256,192,242808,1,0,0:0:0:0:
256,192,242896,1,0,0:0:0:0:
256,192,242984,1,8,0:0:0:0:
256,192,243073,1,8,0:0:0:0:
256,192,243161,1,8,0:0:0:0:
256,192,243249,1,0,0:0:0:0:
256,192,243337,1,8,0:0:0:0:
256,192,243426,1,0,0:0:0:0:
256,192,243514,1,0,0:0:0:0:
256,192,243602,1,0,0:0:0:0:
256,192,243690,1,8,0:0:0:0:
256,192,243779,1,0,0:0:0:0:
256,192,243867,1,8,0:0:0:0:
256,192,243955,1,8,0:0:0:0:
256,192,244043,1,0,0:0:0:0:
256,192,244131,1,0,0:0:0:0:
256,192,244220,1,8,0:0:0:0:
256,192,244308,1,0,0:0:0:0:
256,192,244396,1,8,0:0:0:0:
256,192,244484,1,0,0:0:0:0:
256,192,244573,1,0,0:0:0:0:
256,192,244661,1,0,0:0:0:0:
256,192,244749,1,8,0:0:0:0:
256,192,244837,1,8,0:0:0:0:
256,192,244926,1,0,0:0:0:0:
256,192,245014,1,0,0:0:0:0:
256,192,245102,1,8,0:0:0:0:
256,192,245190,1,8,0:0:0:0:
256,192,245279,1,0,0:0:0:0:
256,192,245367,1,0,0:0:0:0:
256,192,245455,1,8,0:0:0:0:
256,192,245543,1,0,0:0:0:0:
256,192,245631,1,0,0:0:0:0:
256,192,245720,1,0,0:0:0:0:
256,192,245808,1,8,0:0:0:0:
256,192,245896,1,0,0:0:0:0:
256,192,245984,1,0,0:0:0:0:
256,192,246073,1,0,0:0:0:0:
256,192,246161,1,8,0:0:0:0:
256,192,246249,1,8,0:0:0:0:
256,192,246337,1,0,0:0:0:0:
256,192,246426,1,0,0:0:0:0:
256,192,246514,1,8,0:0:0:0:
256,192,246602,1,8,0:0:0:0:
256,192,246690,1,0,0:0:0:0:
256,192,246779,1,0,0:0:0:0:
256,192,246867,1,8,0:0:0:0:
256,192,246955,1,0,0:0:0:0:
256,192,247043,1,0,0:0:0:0:
256,192,247131,1,0,0:0:0:0:
256,192,247220,1,8,0:0:0:0:
256,192,247308,1,0,0:0:0:0:
256,192,247396,1,0,0:0:0:0:
256,192,247484,1,0,0:0:0:0:
256,192,247573,1,8,0:0:0:0:
256,192,247661,1,8,0:0:0:0:
256,192,247749,1,0,0:0:0:0:
256,192,247837,1,0,0:0:0:0:
256,192,247926,1,8,0:0:0:0:
256,192,248014,1,8,0:0:0:0:
256,192,248102,1,0,0:0:0:0:
256,192,248190,1,0,0:0:0:0:
256,192,248279,1,8,0:0:0:0:
256,192,248455,1,8,0:0:0:0:
256,192,248514,1,0,0:0:0:0:
256,192,248573,1,0,0:0:0:0:
256,192,248631,1,0,0:0:0:0:
256,256,248808,1,12,0:0:0:0:
256,192,248984,1,8,0:0:0:0:
256,192,249043,1,0,0:0:0:0:
256,192,249102,1,0,0:0:0:0:
256,192,249161,1,8,0:0:0:0:
256,256,249337,1,12,0:0:0:0:
256,192,249514,1,8,0:0:0:0:
256,192,249573,1,8,0:0:0:0:
256,192,249631,1,8,0:0:0:0:
256,192,249690,1,0,0:0:0:0:
256,256,249867,1,12,0:0:0:0:
256,256,250043,1,12,0:0:0:0:
256,192,250220,1,0,0:0:0:0:
256,192,250308,1,0,0:0:0:0:
256,192,250396,1,8,0:0:0:0:
256,192,250484,1,8,0:0:0:0:
256,192,250573,1,8,0:0:0:0:
256,192,250661,1,0,0:0:0:0:
256,192,250749,1,8,0:0:0:0:
256,192,250837,1,8,0:0:0:0:
256,192,250926,1,8,0:0:0:0:
256,192,251014,1,0,0:0:0:0:
256,192,251102,1,8,0:0:0:0:
256,192,251190,1,0,0:0:0:0:
256,192,251279,1,8,0:0:0:0:
256,192,251367,1,8,0:0:0:0:
256,192,251455,1,0,0:0:0:0:
256,192,251543,1,0,0:0:0:0:
256,192,251631,1,8,0:0:0:0:
256,192,251720,1,0,0:0:0:0:
256,192,251808,1,8,0:0:0:0:
256,192,251896,1,8,0:0:0:0:
256,192,251984,1,8,0:0:0:0:
256,192,252073,1,0,0:0:0:0:
256,192,252161,1,8,0:0:0:0:
256,192,252249,1,8,0:0:0:0:
256,192,252337,1,8,0:0:0:0:
256,192,252426,1,0,0:0:0:0:
256,192,252514,1,8,0:0:0:0:
256,192,252602,1,0,0:0:0:0:
256,192,252690,1,8,0:0:0:0:
256,192,252779,1,8,0:0:0:0:
256,192,252867,1,0,0:0:0:0:
256,192,252955,1,0,0:0:0:0:
256,192,253043,1,8,0:0:0:0:
256,192,253131,1,0,0:0:0:0:
256,192,253220,1,8,0:0:0:0:
256,192,253308,1,8,0:0:0:0:
256,192,253396,1,8,0:0:0:0:
256,192,253484,1,0,0:0:0:0:
256,192,253573,1,8,0:0:0:0:
256,192,253661,1,8,0:0:0:0:
256,192,253749,1,8,0:0:0:0:
256,192,253837,1,0,0:0:0:0:
256,192,253926,1,8,0:0:0:0:
256,192,254014,1,8,0:0:0:0:
256,192,254102,1,8,0:0:0:0:
256,192,254190,1,8,0:0:0:0:
256,192,254279,1,0,0:0:0:0:
256,192,254367,1,0,0:0:0:0:
256,192,254455,1,0,0:0:0:0:
256,192,254543,1,0,0:0:0:0:
256,192,254631,1,8,0:0:0:0:
256,192,254720,1,8,0:0:0:0:
256,192,254808,1,0,0:0:0:0:
256,192,254896,1,0,0:0:0:0:
256,192,254984,1,8,0:0:0:0:
256,192,255073,1,0,0:0:0:0:
256,192,255161,1,8,0:0:0:0:
256,192,255249,1,8,0:0:0:0:
256,192,255337,1,8,0:0:0:0:
256,192,255426,1,0,0:0:0:0:
256,192,255514,1,8,0:0:0:0:
256,192,255602,1,0,0:0:0:0:
256,192,255690,1,8,0:0:0:0:
256,192,255779,1,8,0:0:0:0:
256,192,255867,1,8,0:0:0:0:
256,192,255955,1,0,0:0:0:0:
256,192,256043,1,8,0:0:0:0:
256,192,256131,1,0,0:0:0:0:
256,192,256220,1,0,0:0:0:0:
256,192,256308,1,0,0:0:0:0:
256,192,256396,1,8,0:0:0:0:
256,192,256484,1,8,0:0:0:0:
256,192,256573,1,8,0:0:0:0:
256,192,256661,1,0,0:0:0:0:
256,192,256749,1,8,0:0:0:0:
256,192,256837,1,0,0:0:0:0:
256,192,256926,1,8,0:0:0:0:
256,192,257014,1,8,0:0:0:0:
256,192,257102,1,0,0:0:0:0:
256,192,257190,1,0,0:0:0:0:
256,192,257279,1,8,0:0:0:0:
256,192,257367,1,0,0:0:0:0:
256,192,257455,1,8,0:0:0:0:
256,192,257543,1,8,0:0:0:0:
256,192,257631,1,8,0:0:0:0:
256,192,257720,1,0,0:0:0:0:
256,192,257808,1,8,0:0:0:0:
256,192,257896,1,8,0:0:0:0:
256,192,257984,1,8,0:0:0:0:
256,192,258073,1,0,0:0:0:0:
256,192,258161,1,8,0:0:0:0:
256,192,258249,1,0,0:0:0:0:
256,192,258337,1,8,0:0:0:0:
256,192,258426,1,8,0:0:0:0:
256,192,258514,1,0,0:0:0:0:
256,192,258602,1,0,0:0:0:0:
256,192,258690,1,8,0:0:0:0:
256,192,258779,1,0,0:0:0:0:
256,192,258867,1,8,0:0:0:0:
256,192,258955,1,8,0:0:0:0:
256,192,259043,1,8,0:0:0:0:
256,192,259131,1,0,0:0:0:0:
256,192,259220,1,8,0:0:0:0:
256,192,259308,1,8,0:0:0:0:
256,192,259396,1,0,0:0:0:0:
256,192,259484,1,0,0:0:0:0:
256,192,259573,1,8,0:0:0:0:
256,192,259661,1,8,0:0:0:0:
256,192,259749,1,8,0:0:0:0:
256,192,259837,1,8,0:0:0:0:
256,192,259926,1,0,0:0:0:0:
256,192,260014,1,0,0:0:0:0:
256,192,260102,1,0,0:0:0:0:
256,192,260190,1,0,0:0:0:0:
256,192,260279,1,8,0:0:0:0:
256,192,260367,1,8,0:0:0:0:
256,192,260455,1,8,0:0:0:0:
256,192,260543,1,0,0:0:0:0:
256,192,260631,1,8,0:0:0:0:
256,192,260720,1,8,0:0:0:0:
256,192,260808,1,0,0:0:0:0:
256,192,260896,1,0,0:0:0:0:
256,256,260984,1,12,0:0:0:0:
256,192,262396,1,4,0:0:0:0:
256,192,262573,8,0,264867,0:0:0:0:
256,192,265220,5,0,0:0:0:0:
256,192,265396,1,0,0:0:0:0:
256,192,265573,1,8,0:0:0:0:
256,192,265749,1,0,0:0:0:0:
256,192,265926,1,8,0:0:0:0:
256,192,266102,1,0,0:0:0:0:
256,192,266279,1,8,0:0:0:0:
256,192,266455,1,8,0:0:0:0:
256,192,266631,1,0,0:0:0:0:
256,192,266808,1,8,0:0:0:0:
256,192,266984,1,8,0:0:0:0:
256,192,267161,1,0,0:0:0:0:
256,192,267337,1,8,0:0:0:0:
256,192,267514,1,0,0:0:0:0:
256,192,267690,1,8,0:0:0:0:
256,192,267867,1,8,0:0:0:0:
256,192,268043,1,8,0:0:0:0:
256,192,268220,1,0,0:0:0:0:
256,192,268396,1,8,0:0:0:0:
256,192,268573,1,0,0:0:0:0:
256,192,268749,1,8,0:0:0:0:
256,192,268926,1,8,0:0:0:0:
256,192,269102,1,0,0:0:0:0:
256,192,269279,1,0,0:0:0:0:
256,192,269455,1,8,0:0:0:0:
256,192,269631,1,0,0:0:0:0:
256,192,269808,1,8,0:0:0:0:
256,192,269984,1,8,0:0:0:0:
256,192,270161,1,8,0:0:0:0:
256,192,270337,1,0,0:0:0:0:
256,192,270514,1,8,0:0:0:0:
256,192,270690,1,0,0:0:0:0:
256,192,270867,1,8,0:0:0:0:
256,192,271043,1,8,0:0:0:0:
256,192,271220,1,0,0:0:0:0:
256,192,271396,1,0,0:0:0:0:
256,192,271573,1,8,0:0:0:0:
256,192,271749,1,0,0:0:0:0:
256,192,271926,1,8,0:0:0:0:
256,192,272102,1,8,0:0:0:0:
256,192,272279,1,0,0:0:0:0:
256,192,272455,1,0,0:0:0:0:
256,192,272631,1,8,0:0:0:0:
256,192,272808,1,0,0:0:0:0:
256,192,272984,1,8,0:0:0:0:
256,192,273161,1,8,0:0:0:0:
256,192,273337,1,0,0:0:0:0:
256,192,273514,1,8,0:0:0:0:
