osu file format v14

[General]
AudioFilename: audio.mp3
AudioLeadIn: 0
PreviewTime: 106660
Countdown: 0
SampleSet: Soft
StackLeniency: 0.7
Mode: 0
LetterboxInBreaks: 0
WidescreenStoryboard: 1

[Editor]
Bookmarks: 41079,63405,71428,74567,96893,108056,130381,152707,158288
DistanceSpacing: 1.4
BeatDivisor: 4
GridSize: 32
TimelineZoom: 2.999999

[Metadata]
Title:Introduction - ENTRANS OF DA JUNGLE
TitleUnicode:Introduction - ENTRANS OF DA JUNGLE
Artist:Camellia
ArtistUnicode:かめりあ
Creator:-PC
Version:Hard
Source:
Tags:cxu arbane dnb drumstep cametek kamelcamellia invaidas from da jungle the invaders entrance
BeatmapID:1522919
BeatmapSetID:700968

[Difficulty]
HPDrainRate:6
CircleSize:4
OverallDifficulty:6
ApproachRate:8
SliderMultiplier:1.6
SliderTickRate:1

[Events]
//Background and Video events
0,0,"bg.jpg",0,0
//Break Periods
2,96893,101724
//Storyboard Layer 0 (Background)
//Storyboard Layer 1 (Fail)
//Storyboard Layer 2 (Pass)
//Storyboard Layer 3 (Foreground)
//Storyboard Sound Samples

[TimingPoints]
18754,348.837209302326,4,2,0,55,1,0
41079,-125,4,2,0,55,0,0
63405,-111.111111111111,4,2,0,55,0,0
63579,-111.111111111111,4,2,0,60,0,0
68986,-100,4,2,0,65,0,0
69160,-100,4,2,0,60,0,0
71777,-100,4,2,0,60,0,0
71864,-100,4,2,0,5,0,0
71951,-100,4,2,0,60,0,0
72038,-100,4,2,0,5,0,0
72126,-100,4,2,0,60,0,0
72213,-100,4,2,0,5,0,0
72300,-100,4,2,0,60,0,0
72387,-100,4,2,0,5,0,0
72474,-100,4,2,0,55,0,0
72562,-100,4,2,0,5,0,0
72649,-100,4,2,0,55,0,0
72736,-100,4,2,0,5,0,0
72823,-100,4,2,0,50,0,0
72910,-100,4,2,0,5,0,0
72998,-100,4,2,0,50,0,0
73085,-100,4,2,0,5,0,0
73172,-166.666666666667,4,2,0,40,0,0
73259,-166.666666666667,4,2,0,30,0,0
73347,-166.666666666667,4,2,0,39,0,0
73434,-166.666666666667,4,2,0,28,0,0
73521,-166.666666666667,4,2,0,38,0,0
73608,-166.666666666667,4,2,0,26,0,0
73695,-166.666666666667,4,2,0,37,0,0
73783,-166.666666666667,4,2,0,24,0,0
73870,-166.666666666667,4,2,0,36,0,0
73957,-166.666666666667,4,2,0,22,0,0
74131,-166.666666666667,4,2,0,34,0,0
74219,-166.666666666667,4,2,0,60,0,0
74393,-166.666666666667,4,2,0,5,0,0
74567,-100,4,2,0,70,0,1
96195,-200,4,2,0,30,0,0
96544,-100,4,2,0,35,0,0
96893,-100,4,2,0,60,0,0
102474,-111.111111111111,4,2,0,60,0,0
105352,-111.111111111111,4,2,0,5,0,0
105439,-111.111111111111,4,2,0,60,0,0
105526,-111.111111111111,4,2,0,5,0,0
105614,-100,4,2,0,62,0,0
105701,-100,4,2,0,5,0,0
105788,-100,4,2,0,62,0,0
105875,-100,4,2,0,5,0,0
105962,-100,4,2,0,64,0,0
106050,-100,4,2,0,5,0,0
106137,-100,4,2,0,64,0,0
106224,-100,4,2,0,5,0,0
106311,-100,4,2,0,66,0,0
106398,-100,4,2,0,5,0,0
106486,-100,4,2,0,66,0,0
106573,-100,4,2,0,5,0,0
106660,-100,4,2,0,50,0,0
106747,-100,4,2,0,30,0,0
106835,-100,4,2,0,51,0,0
106922,-100,4,2,0,28,0,0
107009,-100,4,2,0,52,0,0
107096,-100,4,2,0,26,0,0
107183,-100,4,2,0,53,0,0
107271,-100,4,2,0,24,0,0
107358,-100,4,2,0,54,0,0
107445,-100,4,2,0,22,0,0
107619,-100,4,2,0,40,0,0
107707,-100,4,2,0,70,0,0
108056,-100,4,2,0,70,0,1
118826,-100,4,2,0,5,0,1
118870,-100,4,2,0,70,0,1
129160,-100,4,2,0,70,0,1
130381,-100,4,2,0,70,0,0
149219,-100,4,2,0,60,0,0
149306,-100,4,2,0,5,0,0
149393,-100,4,2,0,60,0,0
149480,-100,4,2,0,5,0,0
149567,-100,4,2,0,60,0,0
149655,-100,4,2,0,5,0,0
149742,-100,4,2,0,60,0,0
149829,-100,4,2,0,5,0,0
149916,-100,4,2,0,65,0,0
150004,-100,4,2,0,5,0,0
150091,-100,4,2,0,65,0,0
150178,-100,4,2,0,5,0,0
150265,-100,4,2,0,65,0,0
150352,-100,4,2,0,5,0,0
150440,-100,4,2,0,65,0,0
150527,-100,4,2,0,5,0,0
150614,-100,4,2,0,70,0,0
150701,-100,4,2,0,5,0,0
150788,-100,4,2,0,70,0,0
150876,-100,4,2,0,5,0,0
150963,-100,4,2,0,70,0,0
151050,-100,4,2,0,5,0,0
151137,-100,4,2,0,70,0,0
151224,-100,4,2,0,5,0,0
151312,-100,4,2,0,60,0,0
151486,-100,4,2,0,50,0,0
151660,-100,4,2,0,40,0,0
151835,-100,4,2,0,35,0,0
152009,-100,4,2,0,55,0,0
158114,-100,4,2,0,25,0,0

[Colours]
Combo1 : 78,143,50
Combo2 : 244,134,34
Combo3 : 15,208,131
Combo4 : 248,44,7

[HitObjects]
84,150,41079,6,0,P|147:164|181:216,1,128,0|2,1:0|0:0,0:0:0:0:
165,289,41602,2,0,P|134:307|96:306,2,64,0|0|2,1:0|0:0|0:0,0:0:0:0:
240,269,42126,1,0,1:0:0:0:
313,291,42300,1,2,1:2:0:0:
353,356,42474,5,2,1:2:0:0:
415,310,42649,2,0,L|422:181,1,128,0|2,1:0|0:0,0:0:0:0:
424,105,43172,1,0,1:0:0:0:
266,313,43521,1,0,0:0:0:0:
239,241,43695,1,0,1:0:0:0:
162,242,43870,6,0,P|143:177|192:118,1,128,0|2,1:0|0:0,0:0:0:0:
240,92,44393,2,0,L|304:90,1,64,0|0,1:0|0:0,0:0:0:0:
391,152,44742,1,2,0:0:0:0:
391,152,44829,1,2,0:0:0:0:
391,152,44916,1,0,1:0:0:0:
446,98,45091,1,2,1:2:0:0:
487,162,45265,5,2,1:2:0:0:
444,228,45440,2,0,B|389:231|389:231|376:244|376:244|321:248,1,128,0|2,1:0|0:0,0:0:0:0:
242,334,45963,2,0,P|178:338|131:297,1,128,0|0,1:0|0:0,0:0:0:0:
157,207,46486,1,0,1:0:0:0:
242,249,46660,6,0,L|232:122,1,128,0|2,1:0|0:0,0:0:0:0:
246,45,47184,2,0,P|276:30|298:7,2,64,0|0|2,1:0|0:0|0:0,0:0:0:0:
170,58,47707,1,0,1:0:0:0:
100,26,47881,1,2,1:2:0:0:
38,72,48056,5,2,1:2:0:0:
38,148,48230,2,0,P|85:187|150:179,1,128,0|2,1:0|0:0,0:0:0:0:
211,130,48754,1,0,1:0:0:0:
353,332,49102,1,0,0:0:0:0:
280,309,49277,1,0,1:0:0:0:
241,374,49451,6,0,L|110:358,1,128,0|2,1:0|0:0,0:0:0:0:
62,306,49974,2,0,L|69:241,1,64,0|0,1:0|0:0,0:0:0:0:
83,153,50323,1,2,0:0:0:0:
83,153,50410,1,2,0:0:0:0:
83,153,50498,1,0,1:0:0:0:
158,139,50672,1,2,1:2:0:0:
153,217,50847,5,2,1:2:0:0:
225,190,51021,2,0,B|281:188|281:188|294:201|294:201|354:198,1,128,0|2,1:0|0:0,0:0:0:0:
390,320,51544,2,0,P|334:326|287:273,1,128,0|0,1:0|0:0,0:0:0:0:
356,208,52067,1,0,1:0:0:0:
328,116,52242,6,0,L|199:110,1,128,0|2,1:0|0:0,0:0:0:0:
133,74,52765,2,0,P|128:39|136:8,2,64,0|0|2,1:0|0:0|0:0,0:0:0:0:
135,151,53288,1,0,1:0:0:0:
95,217,53463,1,2,1:2:0:0:
18,224,53637,5,2,1:2:0:0:
5,300,53812,2,0,L|132:314,1,128,0|2,1:0|0:0,0:0:0:0:
207,325,54335,1,0,1:0:0:0:
418,266,54684,1,0,0:0:0:0:
465,329,54858,1,0,1:0:0:0:
496,257,55033,6,0,P|486:195|437:156,1,128,0|2,1:0|0:0,0:0:0:0:
360,157,55556,2,0,L|350:91,1,64,0|0,1:0|0:0,0:0:0:0:
340,6,55905,1,2,0:0:0:0:
340,6,55992,1,2,0:0:0:0:
340,6,56079,1,0,1:0:0:0:
275,48,56254,1,2,1:2:0:0:
284,124,56428,5,2,1:2:0:0:
238,185,56602,2,0,B|185:181|185:181|168:191|168:191|109:187,1,128,0|2,1:0|0:0,0:0:0:0:
21,93,57126,2,0,L|150:104,1,128,0|0,1:0|0:0,0:0:0:0:
247,114,57649,1,0,1:0:0:0:
286,203,57823,6,0,P|285:265|243:311,1,128,0|2,1:0|0:0,0:0:0:0:
166,326,58347,2,0,P|125:320|103:306,2,64,0|0|2,1:0|0:0|0:0,0:0:0:0:
193,254,58870,1,0,1:0:0:0:
151,189,59044,1,2,1:2:0:0:
73,191,59219,5,2,1:2:0:0:
27,127,59393,2,0,P|31:75|95:31,1,128,0|2,1:0|0:0,0:0:0:0:
167,34,59916,1,0,1:0:0:0:
281,184,60265,1,0,0:0:0:0:
270,107,60440,1,0,1:0:0:0:
341,76,60614,6,0,L|471:68,1,128,0|2,1:0|0:0,0:0:0:0:
498,139,61137,2,0,L|428:144,1,64,0|0,1:0|0:0,0:0:0:0:
378,223,61486,1,2,0:0:0:0:
378,223,61573,1,2,0:0:0:0:
378,223,61660,1,0,1:0:0:0:
426,282,61835,1,2,1:2:0:0:
360,317,62009,5,2,1:2:0:0:
294,275,62184,2,0,B|291:222|291:222|300:206|300:206|297:149,1,128,0|2,1:0|0:0,0:0:0:0:
142,89,62707,2,0,P|164:147|220:175,1,128,0|0,1:0|0:0,0:0:0:0:
305,131,63230,1,0,1:0:0:0:
260,30,63405,6,0,P|237:56|227:90,1,71.9999978027344,4|0,1:0|0:2,0:0:0:0:
289,209,63754,2,0,L|324:206,3,35.9999989013672,2|0|2|0,0:0|0:0|1:2|0:0,0:0:0:0:
342,204,64102,2,0,P|351:238|374:265,1,71.9999978027344,2|2,0:2|0:2,0:0:0:0:
497,285,64451,2,0,L|507:177,1,107.999996704102,0|0,1:0|0:0,0:0:0:0:
508,161,64800,5,2,1:2:0:0:
427,192,64974,1,0,1:0:0:0:
432,319,65149,2,0,L|432:354,3,35.9999989013672,2|0|2|0,0:0|0:0|1:2|0:0,0:0:0:0:
433,371,65498,2,0,L|361:360,1,71.9999978027344,2|2,1:2|0:2,0:0:0:0:
284,346,65847,1,2,0:0:0:0:
121,338,66195,6,0,P|103:303|102:270,1,71.9999978027344,0|0,1:0|0:0,0:0:0:0:
160,154,66544,2,0,L|200:152,3,35.9999989013672,2|0|2|0,0:0|0:0|1:2|0:0,0:0:0:0:
213,151,66893,2,0,P|215:115|232:83,1,71.9999978027344,2|2,0:2|0:0,0:0:0:0:
340,21,67242,2,0,P|393:21|442:42,1,107.999996704102,0|0,1:0|0:0,0:0:0:0:
455,54,67591,5,2,1:2:0:0:
379,94,67765,1,0,1:0:0:0:
486,172,67940,2,0,L|482:212,3,35.9999989013672,2|0|2|0,0:0|0:0|1:2|0:0,0:0:0:0:
481,224,68288,2,0,L|405:213,1,71.9999978027344,2|2,1:2|0:2,0:0:0:0:
334,207,68637,1,2,0:0:0:0:
295,345,68986,6,0,P|254:331|223:307,1,80,0|0,1:0|0:0,0:0:0:0:
106,290,69335,2,0,P|115:275|131:261,3,40,2|0|2|0,1:2|0:0|0:0|0:0,0:0:0:0:
142,245,69684,6,0,P|141:200|154:165,1,80,0|0,1:0|0:0,0:0:0:0:
136,47,70033,2,0,P|153:51|172:61,3,40,2|0|2|0,1:2|0:0|0:0|0:0,0:0:0:0:
185,78,70381,6,0,P|225:64|264:65,1,80,0|0,1:0|0:0,0:0:0:0:
369,13,70730,2,0,P|369:30|365:51,3,40,2|0|2|0,1:2|0:0|0:0|0:0,0:0:0:0:
362,70,71079,6,0,P|386:104|397:141,1,80,0|0,1:0|0:0,0:0:0:0:
481,224,71428,2,0,P|463:230|442:231,3,40,2|0|2|0,1:2|0:0|0:0|0:0,0:0:0:0:
424,233,71777,5,0,1:0:0:0:
432,312,71951,1,0,1:2:0:0:
359,344,72126,1,0,1:2:0:0:
306,286,72300,1,0,1:0:0:0:
345,216,72474,5,0,1:0:0:0:
291,157,72649,1,0,1:2:0:0:
218,190,72823,1,0,1:2:0:0:
227,269,72998,1,0,1:0:0:0:
153,238,73172,5,2,1:2:0:0:
256,192,73259,12,4,74219,0:2:0:0:
306,174,74567,6,0,B|263:171|263:171|233:190|233:190|189:187,1,120,4|0,1:0|0:0,0:0:0:0:
172,200,74916,1,8,1:0:0:0:
83,66,75091,2,0,B|162:47|162:47|209:115,1,160,0|8,1:0|1:0,0:0:0:0:
298,53,75614,2,0,L|304:11,2,40,2|0|2,3:2|3:0|3:2,0:0:0:0:
357,106,75963,6,0,L|439:97,1,80,0|0,1:0|0:0,0:0:0:0:
503,207,76312,1,8,1:0:0:0:
439,255,76486,2,0,B|360:236|360:236|313:304,1,160,0|8,1:0|1:0,0:0:0:0:
273,368,77009,1,2,0:0:0:0:
171,309,77184,1,2,0:0:0:0:
171,309,77271,1,0,0:0:0:0:
171,309,77358,6,0,P|108:304|49:320,1,120,0|0,1:0|0:0,0:0:0:0:
36,326,77707,1,10,1:0:0:0:
6,239,77881,1,2,1:0:0:0:
93,209,78056,1,0,0:1:0:0:
126,86,78230,2,0,L|287:104,1,160,10|2,1:0|0:1,0:0:0:0:
381,211,78754,6,0,P|418:228|457:222,1,80,0|2,1:0|0:1,0:0:0:0:
506,147,79102,1,8,1:0:0:0:
457,69,79277,2,0,P|418:62|382:79,1,80,2|2,1:0|0:0,0:0:0:0:
254,76,79626,2,0,L|94:93,1,160,8|2,1:0|3:2,0:0:0:0:
40,152,80149,6,0,B|42:195|42:195|67:217|67:217|70:266,1,120,4|0,1:0|0:0,0:0:0:0:
63,281,80498,1,8,1:0:0:0:
177,347,80672,2,0,B|213:279|213:279|296:291,1,160,0|8,1:0|1:0,0:0:0:0:
400,303,81195,2,0,L|426:263,2,40,2|0|2,3:2|3:0|3:2,0:0:0:0:
338,156,81544,6,0,L|347:244,1,80,0|0,1:0|0:0,0:0:0:0:
357,363,81893,1,8,1:0:0:0:
437,373,82067,2,0,B|504:336|504:336|492:253,1,160,0|8,1:0|1:0,0:0:0:0:
478,175,82591,1,2,0:0:0:0:
366,228,82765,1,2,0:0:0:0:
366,228,82852,1,0,0:0:0:0:
366,228,82940,6,0,P|336:172|336:106,1,120,0|0,1:0|0:0,0:0:0:0:
338,97,83288,1,8,1:0:0:0:
306,23,83463,1,2,1:0:0:0:
226,15,83637,1,0,0:0:0:0:
183,82,83812,1,10,1:0:0:0:
105,100,83986,2,0,P|58:87|27:60,1,80,2|2,3:2|3:2,0:0:0:0:
157,170,84335,6,0,P|169:216|161:257,1,80,0|2,1:0|0:1,0:0:0:0:
126,317,84684,1,8,1:0:0:0:
178,376,84858,1,2,1:0:0:0:
253,348,85033,2,0,P|314:342|378:348,1,120,0|0,0:0|0:0,0:0:0:0:
393,350,85381,2,0,P|434:337|465:304,1,80,0|2,3:0|3:1,0:0:0:0:
450,192,85730,6,0,B|447:150|447:150|474:124|474:124|471:81,1,120,4|0,1:0|0:0,0:0:0:0:
460,69,86079,1,8,1:0:0:0:
296,12,86254,2,0,B|313:91|313:91|390:102,1,160,0|8,1:0|1:0,0:0:0:0:
464,186,86777,2,0,L|516:176,2,40,2|0|2,3:2|3:0|3:2,0:0:0:0:
417,251,87126,6,0,L|334:241,1,80,0|0,1:0|0:0,0:0:0:0:
265,347,87474,1,8,1:0:0:0:
193,310,87649,2,0,B|176:231|176:231|97:219,1,160,0|8,1:0|1:0,0:0:0:0:
18,209,88172,1,2,0:0:0:0:
63,93,88347,1,2,0:0:0:0:
63,93,88434,1,0,0:0:0:0:
63,93,88521,6,0,P|114:76|181:74,1,120,0|0,1:0|0:0,0:0:0:0:
201,76,88870,1,10,1:0:0:0:
214,168,89044,1,2,1:0:0:0:
306,155,89219,1,0,0:1:0:0:
379,50,89393,2,0,L|392:220,1,160,10|2,1:0|3:1,0:0:0:0:
329,305,89916,6,0,P|338:344|374:372,1,80,0|2,1:0|0:1,0:0:0:0:
449,326,90265,1,10,1:0:0:0:
443,234,90440,2,0,P|404:222|362:239,1,80,2|2,1:0|0:1,0:0:0:0:
261,350,90788,2,0,L|101:340,1,160,10|2,1:0|3:2,0:0:0:0:
45,282,91312,6,0,B|49:239|49:239|31:208|31:208|36:164,1,120,4|0,1:0|0:0,0:0:0:0:
24,148,91660,1,8,1:0:0:0:
161,63,91835,2,0,B|177:142|177:142|107:187,1,160,0|8,1:0|1:0,0:0:0:0:
153,278,92358,2,0,L|160:322,2,40,2|0|2,3:2|3:0|3:2,0:0:0:0:
207,219,92707,6,0,L|291:228,1,80,0|0,1:0|0:0,0:0:0:0:
379,115,93056,1,8,1:0:0:0:
312,70,93230,2,0,B|295:149|295:149|365:194,1,160,0|8,1:0|1:0,0:0:0:0:
432,230,93754,1,2,0:0:0:0:
393,356,93928,1,2,0:0:0:0:
393,356,94015,1,0,0:0:0:0:
393,356,94102,6,0,B|321:351|321:351|309:359|309:359|232:353,1,160,0|8,1:0|1:0,0:0:0:0:
104,274,94626,2,0,B|71:202|71:202|127:139,1,160,0|8,1:0|1:0,0:0:0:0:
204,258,95149,6,0,B|276:253|276:253|288:261|288:261|365:255,1,160,0|8,1:0|1:0,0:0:0:0:
493,176,95672,2,0,B|526:104|526:104|470:41,1,160,0|8,1:0|1:0,0:0:0:0:
338,92,96195,6,0,P|324:111|352:97,1,80,2|2,1:2|0:0,0:0:0:0:
216,314,102474,6,0,P|252:293|292:289,1,71.9999978027344,0|0,1:0|0:0,0:0:0:0:
408,343,102823,2,0,P|402:325|380:302,3,35.9999989013672,2|0|2|0,1:2|0:0|0:0|0:0,0:0:0:0:
380,298,103172,6,0,P|359:262|355:222,1,71.9999978027344,0|0,1:0|0:0,0:0:0:0:
407,105,103521,2,0,P|389:111|366:133,3,35.9999989013672,2|0|2|0,1:2|0:0|0:0|0:0,0:0:0:0:
364,134,103870,6,0,P|328:155|288:159,1,71.9999978027344,0|0,1:0|0:0,0:0:0:0:
172,106,104219,2,0,P|178:124|200:147,3,35.9999989013672,2|0|2|0,1:2|0:0|3:2|3:0,0:0:0:0:
200,150,104567,6,0,P|221:186|225:226,1,71.9999978027344,0|0,1:2|3:2,0:0:0:0:
280,334,104916,2,0,P|300:297|333:274,1,71.9999978027344,2|2,1:2|3:2,0:0:0:0:
458,276,105265,5,0,1:0:0:0:
467,196,105440,1,0,1:0:0:0:
411,138,105614,1,0,1:0:0:0:
332,141,105788,1,0,1:0:0:0:
283,207,105963,5,0,1:0:0:0:
203,210,106137,1,0,1:0:0:0:
148,151,106312,1,0,1:0:0:0:
157,72,106486,1,0,1:0:0:0:
84,104,106660,5,2,1:2:0:0:
256,192,106748,12,6,107707,1:2:0:0:
297,274,108056,6,0,B|264:258|250:238|250:238|224:253|191:252,1,120,4|0,1:0|0:0,0:0:0:0:
180,269,108405,1,8,1:0:0:0:
258,164,108579,2,0,B|269:123|257:96|257:96|274:80|274:80|263:53|277:9,1,160,4|0,0:2|1:0,0:0:0:0:
388,69,109102,2,0,P|372:105|340:128,1,80,8|2,1:0|3:2,0:0:0:0:
180,131,109451,5,0,1:0:0:0:
130,69,109626,1,2,0:0:0:0:
58,104,109800,1,8,1:0:0:0:
138,207,109974,2,0,L|297:190,1,160,2|2,3:2|1:2,0:0:0:0:
368,227,110498,2,0,P|387:273|380:307,1,80,8|2,1:0|0:0,0:0:0:0:
266,347,110847,6,0,P|200:345|142:330,1,120,0|0,1:0|0:0,0:0:0:0:
134,319,111195,1,10,1:1:0:0:
46,347,111370,1,2,0:1:0:0:
18,259,111544,1,2,0:0:0:0:
123,185,111719,1,2,1:0:0:0:
123,185,111806,1,0,1:0:0:0:
123,185,111893,2,0,L|206:189,1,80,8|2,1:0|0:1,0:0:0:0:
330,188,112242,6,0,P|317:229|328:270,1,80,2|2,1:2|0:1,0:0:0:0:
394,323,112591,1,8,1:0:0:0:
473,273,112765,2,0,P|482:234|472:195,1,80,2|2,0:1|0:2,0:0:0:0:
401,128,113114,1,0,1:0:0:0:
377,33,113288,2,0,P|325:33|281:44,1,80,8|2,1:0|3:2,0:0:0:0:
227,73,113637,6,0,B|225:109|213:130|213:130|237:148|250:178,1,120,4|0,1:0|0:0,0:0:0:0:
268,180,113986,1,8,1:0:0:0:
197,281,114160,2,0,B|155:284|131:269|131:269|112:282|112:282|88:266|45:269,1,160,4|0,0:2|1:0,0:0:0:0:
120,374,114684,2,0,P|165:368|199:351,1,80,8|2,1:0|3:2,0:0:0:0:
344,286,115033,5,0,1:0:0:0:
386,353,115207,1,2,0:0:0:0:
461,327,115381,1,8,1:0:0:0:
391,219,115556,2,0,L|231:206,1,160,2|2,3:2|1:2,0:0:0:0:
177,265,116079,2,0,P|140:281|100:283,1,80,8|2,1:0|0:0,0:0:0:0:
74,133,116428,6,0,P|131:126|163:174,1,120,0|0,1:0|0:0,0:0:0:0:
162,188,116777,1,8,1:0:0:0:
249,159,116951,1,2,0:1:0:0:
278,246,117126,1,2,0:0:0:0:
171,310,117300,1,2,1:0:0:0:
171,310,117387,1,0,1:0:0:0:
171,310,117474,2,0,L|80:300,1,80,8|2,1:0|3:2,0:0:0:0:
27,161,117823,6,0,P|11:124|11:84,1,80,0|2,1:0|0:1,0:0:0:0:
128,31,118172,2,0,P|143:67|141:119,1,80,8|0,1:0|0:1,0:0:0:0:
139,122,118434,2,0,B|193:117|193:117|202:122|202:122|260:116,1,120,2|2,0:1|1:1,0:0:0:0:
420,99,118870,1,8,1:0:0:0:
332,20,119044,1,2,3:1:0:0:
360,157,119219,6,0,B|356:193|343:213|343:213|366:232|377:263,1,120,4|0,1:0|0:0,0:0:0:0:
367,280,119567,1,8,1:0:0:0:
475,372,119742,2,0,B|434:361|407:373|407:373|391:356|391:356|364:367|324:354,1,160,4|0,0:2|1:0,0:0:0:0:
446,290,120265,2,0,P|461:253|465:211,1,80,8|2,1:0|3:2,0:0:0:0:
349,102,120614,5,0,1:0:0:0:
396,165,120788,1,2,0:0:0:0:
468,129,120963,1,8,1:0:0:0:
394,25,121137,2,0,L|233:45,1,160,2|0,3:2|1:0,0:0:0:0:
169,91,121660,2,0,P|152:133|156:174,1,80,8|2,1:0|0:0,0:0:0:0:
228,271,122009,6,0,P|165:254|105:258,1,120,0|0,1:0|0:0,0:0:0:0:
92,262,122358,1,10,1:0:0:0:
105,353,122533,1,2,0:1:0:0:
196,340,122707,1,2,0:0:0:0:
299,215,122881,1,2,1:0:0:0:
299,215,122969,1,0,1:0:0:0:
299,215,123056,2,0,L|380:226,1,80,8|2,1:0|0:1,0:0:0:0:
485,87,123405,6,0,P|453:117|414:129,1,80,0|2,1:0|0:1,0:0:0:0:
320,137,123754,1,10,1:0:0:0:
354,48,123928,2,0,P|322:17|283:5,1,80,2|2,0:1|0:1,0:0:0:0:
192,0,124277,1,2,1:0:0:0:
207,93,124451,2,0,P|144:90|120:86,1,80,8|2,1:0|3:2,0:0:0:0:
42,76,124800,6,0,B|45:112|58:132|58:132|35:151|24:182,1,120,4|0,1:0|0:0,0:0:0:0:
7,191,125149,1,8,1:0:0:0:
111,200,125323,2,0,B|153:204|174:225|174:225|195:215|195:215|216:235|262:237,1,160,4|0,0:2|1:0,0:0:0:0:
361,144,125847,2,0,P|317:151|284:171,1,80,8|2,1:0|3:2,0:0:0:0:
231,309,126195,5,0,1:0:0:0:
187,376,126370,1,2,0:0:0:0:
119,334,126544,1,8,1:0:0:0:
201,233,126719,2,0,L|369:257,1,160,2|0,3:2|1:0,0:0:0:0:
438,239,127242,2,0,P|456:203|459:161,1,80,8|2,1:0|0:0,0:0:0:0:
321,72,127591,6,0,P|328:119|402:135,1,120,0|0,1:0|0:0,0:0:0:0:
402,125,127940,1,8,1:0:0:0:
436,40,128114,1,2,0:0:0:0:
352,4,128288,1,0,0:0:0:0:
245,72,128463,1,0,1:0:0:0:
245,72,128550,1,0,1:0:0:0:
245,72,128637,2,0,B|163:66,1,80,8|2,1:0|0:0,0:0:0:0:
89,206,128986,5,8,1:0:0:0:
60,299,129160,2,0,P|81:334|118:351,1,80,0|0,1:0|1:0,0:0:0:0:
224,260,129509,1,8,1:0:0:0:
162,185,129684,2,0,P|121:185|87:209,1,80,0|0,1:0|1:0,0:0:0:0:
207,334,130033,2,0,P|226:298|223:257,1,80,8|0,1:0|1:0,0:0:0:0:
142,270,130381,6,0,L|312:259,1,160,4|8,1:0|1:0,0:0:0:0:
268,341,130905,2,0,B|363:321|324:379|425:358,1,160,4|0,0:0|1:0,0:0:0:0:
493,322,131428,1,8,1:0:0:0:
379,90,131777,6,0,B|336:159|336:159|255:142,1,160,0|8,1:0|1:0,0:0:0:0:
187,174,132300,2,0,L|173:266,2,80,2|2|0,0:0|0:0|1:0,0:0:0:0:
145,105,132823,2,0,P|108:92|62:93,1,80,8|2,1:0|0:0,0:0:0:0:
16,269,133172,6,0,L|176:253,1,160,0|8,1:0|1:0,0:0:0:0:
282,327,133695,1,2,0:0:0:0:
282,327,133783,2,0,P|319:342|406:334,1,120,2|2,0:0|1:2,0:0:0:0:
414,327,134131,1,0,0:0:0:0:
420,309,134219,2,0,L|412:226,1,80,8|2,1:0|0:0,0:0:0:0:
284,103,134567,6,0,B|287:148|287:148|266:176|266:176|270:220,1,120,0|2,1:0|0:0,0:0:0:0:
273,233,134916,2,0,L|181:226,1,80,8|2,1:0|0:0,0:0:0:0:
139,343,135265,2,0,L|134:389,2,40,2|0|2,0:0|0:0|1:2,0:0:0:0:
57,308,135614,2,0,P|26:282|13:245,1,80,8|2,1:0|0:0,0:0:0:0:
32,157,135963,6,0,L|212:149,1,160,0|8,1:0|1:0,0:0:0:0:
147,76,136486,2,0,B|247:77|197:28|294:28,1,160,4|0,0:0|1:0,0:0:0:0:
373,39,137009,1,8,1:0:0:0:
445,276,137358,6,0,B|367:259|367:259|346:180,1,160,0|8,1:0|1:0,0:0:0:0:
271,153,137881,2,0,L|190:161,2,80,2|2|0,0:0|0:0|1:0,0:0:0:0:
280,233,138405,2,0,P|265:269|236:297,1,80,8|2,1:0|0:0,0:0:0:0:
44,311,138754,6,0,L|38:147,1,160,0|8,1:0|1:0,0:0:0:0:
36,27,139277,1,2,0:0:0:0:
36,27,139364,2,0,P|94:25|151:53,1,120,2|0,0:0|1:0,0:0:0:0:
160,65,139713,1,2,0:0:0:0:
165,83,139800,2,0,L|246:88,1,80,8|0,1:0|0:0,0:0:0:0:
411,187,140149,6,0,B|368:183|368:183|337:203|337:203|296:200,1,120,0|0,1:0|0:0,0:0:0:0:
278,199,140498,2,0,L|193:192,1,80,8|2,1:0|0:0,0:0:0:0:
180,191,140759,2,0,P|158:238|92:265,1,120,2|2,0:0|1:2,0:0:0:0:
19,178,141195,1,8,1:0:0:0:
1,308,141370,1,2,0:0:0:0:
159,356,141544,6,0,L|169:196,1,160,4|8,1:0|1:0,0:0:0:0:
242,244,142067,2,0,B|235:144|287:191|282:94,1,160,4|0,0:0|1:0,0:0:0:0:
255,19,142591,1,8,1:0:0:0:
349,238,142940,6,0,B|422:260|422:260|469:191,1,160,0|8,1:0|1:0,0:0:0:0:
486,113,143463,2,0,L|474:29,2,80,2|2|0,0:0|0:0|1:0,0:0:0:0:
408,134,143986,2,0,P|363:136|328:151,1,80,8|2,1:0|0:0,0:0:0:0:
251,286,144335,6,0,L|240:126,1,160,0|8,1:0|1:0,0:0:0:0:
140,46,144858,1,2,0:0:0:0:
140,46,144945,2,0,P|75:57|31:94,1,120,2|2,0:0|1:2,0:0:0:0:
27,108,145294,1,0,0:0:0:0:
26,127,145381,2,0,L|32:212,1,80,8|2,1:0|0:0,0:0:0:0:
138,316,145730,6,0,B|179:311|179:311|200:281|200:281|241:277,1,120,0|2,1:0|0:0,0:0:0:0:
261,275,146079,2,0,L|253:193,1,80,8|2,1:0|0:0,0:0:0:0:
204,81,146428,2,0,L|164:83,2,40,2|0|2,0:0|0:0|1:2,0:0:0:0:
282,42,146777,2,0,P|330:34|367:49,1,80,8|2,1:0|0:0,0:0:0:0:
436,89,147126,6,0,B|418:138|422:180|450:218|450:218|420:254|420:254|441:277|443:312,1,240,0|0,1:0|0:0,0:0:0:0:
418,381,147823,1,8,1:0:0:0:
264,301,147998,2,0,B|195:265|195:265|126:324,2,160,0|0|2,0:0|0:0|0:0,0:0:0:0:
333,341,148870,6,0,P|343:306|331:261,1,80,0|0,1:0|0:0,0:0:0:0:
205,177,149219,2,0,P|230:203|275:215,1,80,8|0,1:0|0:0,0:0:0:0:
413,150,149567,2,0,P|377:158|344:191,1,80,0|0,0:0|0:0,0:0:0:0:
177,108,149916,6,0,P|141:90|96:90,1,80,0|0,1:0|0:0,0:0:0:0:
65,170,150265,2,0,P|37:198|23:240,1,80,0|0,0:0|0:0,0:0:0:0:
91,295,150614,2,0,P|109:329|145:356,1,80,8|0,1:0|0:0,0:0:0:0:
219,307,150963,2,0,P|257:300|294:274,1,80,0|0,0:0|0:0,0:0:0:0:
269,188,151312,5,2,0:0:0:0:
340,152,151486,1,2,0:0:0:0:
408,193,151660,1,2,0:0:0:0:
408,273,151835,1,2,0:0:0:0:
338,312,152009,2,0,L|215:306,2,120,0|4|0,0:0|0:2|0:0,0:0:0:0:
483,324,152707,5,4,1:0:0:0:
256,192,152794,12,6,158114,1:2:0:0:
