osu file format v14

[General]
AudioFilename: audio.mp3
AudioLeadIn: 0
PreviewTime: 106660
Countdown: 0
SampleSet: Soft
StackLeniency: 0.7
Mode: 0
LetterboxInBreaks: 0
WidescreenStoryboard: 1

[Editor]
Bookmarks: 41079,63405,74567,96893,108056,130381,152707,158288
DistanceSpacing: 1.1
BeatDivisor: 4
GridSize: 32
TimelineZoom: 1.9

[Metadata]
Title:Introduction - ENTRANS OF DA JUNGLE
TitleUnicode:Introduction - ENTRANS OF DA JUNGLE
Artist:Camellia
ArtistUnicode:かめりあ
Creator:-PC
Version:Easy
Source:
Tags:cxu arbane dnb drumstep cametek kamelcamellia invaidas from da jungle the invaders entrance
BeatmapID:1525364
BeatmapSetID:700968

[Difficulty]
HPDrainRate:2
CircleSize:3
OverallDifficulty:1
ApproachRate:3
SliderMultiplier:0.799999999999999
SliderTickRate:1

[Events]
//Background and Video events
0,0,"bg.jpg",0,0
//Break Periods
2,96893,101034
//Storyboard Layer 0 (Background)
//Storyboard Layer 1 (Fail)
//Storyboard Layer 2 (Pass)
//Storyboard Layer 3 (Foreground)
//Storyboard Sound Samples

[TimingPoints]
18754,348.837209302326,4,2,0,55,1,0
63405,-100,4,2,0,55,0,0
63579,-100,4,2,0,60,0,0
68986,-100,4,2,0,65,0,0
69160,-100,4,2,0,60,0,0
72474,-100,4,2,0,55,0,0
72823,-100,4,2,0,50,0,0
73172,-100,4,2,0,40,0,0
73259,-100,4,2,0,30,0,0
73347,-100,4,2,0,39,0,0
73434,-100,4,2,0,28,0,0
73521,-100,4,2,0,38,0,0
73608,-100,4,2,0,26,0,0
73695,-100,4,2,0,37,0,0
73783,-100,4,2,0,24,0,0
73870,-100,4,2,0,36,0,0
73957,-100,4,2,0,22,0,0
74131,-100,4,2,0,34,0,0
74219,-100,4,2,0,60,0,0
74567,-100,4,2,0,70,0,1
96195,-100,4,2,0,30,0,0
102474,-100,4,2,0,60,0,0
105614,-100,4,2,0,62,0,0
105962,-100,4,2,0,64,0,0
106311,-100,4,2,0,66,0,0
106660,-100,4,2,0,50,0,0
106747,-100,4,2,0,30,0,0
106835,-100,4,2,0,51,0,0
106922,-100,4,2,0,28,0,0
107009,-100,4,2,0,52,0,0
107096,-100,4,2,0,26,0,0
107183,-100,4,2,0,53,0,0
107271,-100,4,2,0,24,0,0
107358,-100,4,2,0,54,0,0
107445,-100,4,2,0,22,0,0
107619,-100,4,2,0,40,0,0
107707,-100,4,2,0,70,0,0
108056,-100,4,2,0,70,0,1
130381,-100,4,2,0,70,0,0
149219,-100,4,2,0,60,0,0
149916,-100,4,2,0,65,0,0
150614,-100,4,2,0,70,0,0
151312,-100,4,2,0,60,0,0
152009,-100,4,2,0,55,0,0
158114,-100,4,2,0,20,0,0

[Colours]
Combo1 : 78,143,50
Combo2 : 244,134,34
Combo3 : 15,208,131
Combo4 : 248,44,7

[HitObjects]
113,260,41079,6,0,P|189:231|346:258,1,240,0|0,1:0|1:0,0:0:0:0:
420,296,42474,2,0,P|459:232|451:141,1,160,2|0,1:2|1:0,0:0:0:0:
282,113,43870,6,0,B|202:121|202:121|128:85,2,160,0|0|2,1:0|0:0|1:2,0:0:0:0:
456,87,45963,1,0,1:0:0:0:
462,262,46660,6,0,P|362:233|271:319,1,240,0|0,1:0|1:0,0:0:0:0:
200,372,48056,2,0,P|134:369|70:304,1,160,2|0,1:2|1:0,0:0:0:0:
66,129,49451,6,0,L|225:140,1,160,0|0,1:0|0:0,0:0:0:0:
284,206,50498,1,0,1:0:0:0:
214,259,50847,2,0,L|49:247,1,160,2|0,1:2|1:0,0:0:0:0:
68,72,52242,6,0,P|157:115|295:117,1,240,0|0,1:0|1:0,0:0:0:0:
375,78,53637,2,0,P|422:140|417:219,1,160,2|0,1:2|1:0,0:0:0:0:
259,295,55033,6,0,B|177:314|177:314|97:291,2,160,0|0|2,1:0|0:0|1:2,0:0:0:0:
385,172,57126,1,0,1:0:0:0:
228,91,57823,6,0,P|146:93|79:130,1,160,0|0,1:0|0:0,0:0:0:0:
29,203,58870,1,0,1:0:0:0:
39,290,59219,2,0,P|103:351|233:294,1,240,2|0,1:2|0:0,0:0:0:0:
258,217,60614,6,0,P|364:198|465:116,1,240,0|0,1:0|1:0,0:0:0:0:
427,37,62009,2,0,P|349:15|270:17,1,160,2|0,1:2|1:0,0:0:0:0:
107,85,63405,6,0,B|59:152|59:152|102:220,1,160,4|2,1:0|0:2,0:0:0:0:
170,271,64451,1,0,1:0:0:0:
256,254,64800,2,0,B|348:176|238:127|330:39,1,240,2|2,1:2|0:0,0:0:0:0:
405,85,66195,6,0,B|452:152|452:152|409:220,1,160,0|2,1:0|0:2,0:0:0:0:
342,271,67241,1,0,1:0:0:0:
256,254,67590,2,0,B|163:176|273:127|181:39,1,240,2|2,1:2|0:0,0:0:0:0:
95,61,68986,6,0,L|82:228,1,160,0|0,1:0|1:0,0:0:0:0:
249,278,70381,2,0,L|236:119,1,160,0|0,1:0|1:0,0:0:0:0:
407,73,71777,6,0,L|400:153,1,79.9999999999999,0|0,1:0|1:2,0:0:0:0:
390,240,72474,2,0,L|383:319,1,79.9999999999999,0|0,1:0|1:2,0:0:0:0:
256,192,73172,12,4,74567,1:0:0:0:
205,195,75963,6,0,P|127:178|73:191,2,120,0|0|2,1:0|1:0|0:0,0:0:0:0:
251,269,77358,6,0,L|413:255,1,160,0|0,1:0|0:1,0:0:0:0:
492,287,78405,1,2,3:2:0:0:
502,199,78754,2,0,P|428:149|327:183,1,200,0|8,1:0|1:0,0:0:0:0:
238,286,80149,6,0,P|142:318|62:264,1,200,4|8,1:0|1:0,0:0:0:0:
57,149,81544,2,0,P|53:91|8:50,2,120,0|0|2,1:0|1:0|0:0,0:0:0:0:
12,225,82940,5,0,1:0:0:0:
83,276,83288,2,0,P|70:313|74:359,2,79.9999999999999,8|0|2,1:0|0:0|3:2,0:0:0:0:
157,228,84335,2,0,L|333:240,1,160,0|0,1:0|0:0,0:0:0:0:
366,311,85381,1,0,3:0:0:0:
453,304,85730,6,0,P|487:212|436:131,1,200,4|8,1:0|1:0,0:0:0:0:
306,154,87126,2,0,P|281:208|230:252,2,120,0|0|2,1:0|1:0|0:0,0:0:0:0:
314,66,88521,6,0,L|152:75,1,160,0|0,1:0|0:1,0:0:0:0:
75,35,89567,1,2,3:2:0:0:
57,120,89916,2,0,P|126:176|230:150,1,200,0|10,1:0|1:0,0:0:0:0:
376,83,91312,6,0,P|325:155|357:257,1,200,4|8,1:0|1:0,0:0:0:0:
472,316,92707,2,0,L|484:197,2,120,0|0|2,1:0|1:0|0:0,0:0:0:0:
388,344,94102,6,0,B|342:340|342:340|324:348|324:348|268:344,1,120,0|0,1:0|1:0,0:0:0:0:
273,212,95149,2,0,B|323:215|323:215|335:208|335:208|392:210,1,120,0|0,1:0|1:0,0:0:0:0:
503,278,96195,1,2,1:2:0:0:
336,70,102474,6,0,L|177:59,1,160,0|0,1:0|1:0,0:0:0:0:
79,206,103870,2,0,L|238:195,1,160,0|0,1:0|1:2,0:0:0:0:
362,320,105265,6,0,P|400:326|439:315,1,79.9999999999999,0|0,1:0|1:0,0:0:0:0:
435,227,105963,2,0,P|396:220|358:232,1,79.9999999999999,0|0,1:0|1:0,0:0:0:0:
256,192,106660,12,4,108056,1:0:0:0:
227,103,109451,6,0,B|195:176|195:176|230:247,1,160,0|2,1:0|3:2,0:0:0:0:
292,310,110498,1,8,1:0:0:0:
370,269,110847,6,0,B|368:238|394:213|394:213|385:194|385:194|405:162|392:118,1,160,0|2,1:0|0:0,0:0:0:0:
341,49,111893,1,8,1:0:0:0:
272,103,112242,2,0,L|147:93,2,120,0|2|8,1:0|0:1|1:0,0:0:0:0:
324,173,113637,6,0,P|321:230|271:263,1,120,4|4,1:0|0:2,0:0:0:0:
147,223,114684,1,8,1:0:0:0:
65,257,115033,2,0,L|58:95,1,160,0|2,1:0|3:2,0:0:0:0:
54,9,116079,1,8,1:0:0:0:
132,49,116428,5,0,1:0:0:0:
173,126,116777,2,0,B|207:110|207:110|246:123,2,79.9999999999999,8|2|8,1:0|0:0|1:0,0:0:0:0:
121,197,117823,2,0,B|102:235|114:273|114:273|135:297|187:307,1,160,0|0,1:0|0:0,0:0:0:0:
273,313,118870,1,8,1:0:0:0:
355,281,119219,6,0,P|387:229|375:173,1,120,4|4,1:0|0:2,0:0:0:0:
244,169,120265,1,8,1:0:0:0:
302,102,120614,6,0,B|377:75|377:75|455:110,1,160,0|2,1:0|3:2,0:0:0:0:
504,176,121660,1,8,1:0:0:0:
445,240,122009,6,0,B|405:251|373:230|373:230|354:240|354:240|328:213|297:215,1,160,0|2,1:0|0:0,0:0:0:0:
209,222,123056,1,8,1:0:0:0:
176,304,123405,2,0,L|55:312,2,120,0|2|8,1:0|0:1|1:0,0:0:0:0:
264,295,124800,6,0,P|299:270|366:296,1,120,4|4,1:0|0:2,0:0:0:0:
470,376,125847,1,8,1:0:0:0:
497,292,126195,2,0,L|483:131,1,160,0|2,1:0|3:2,0:0:0:0:
474,44,127242,1,8,1:0:0:0:
405,99,127591,5,0,1:0:0:0:
238,154,128288,2,0,B|198:158|198:158|166:132,1,79.9999999999999,0|8,0:0|1:0,0:0:0:0:
88,92,128986,6,0,B|34:194|34:194|91:304,1,240,8|8,1:0|1:0,0:0:0:0:
176,282,130381,6,0,B|242:288|273:339|273:339|333:315|392:344,1,240,4|8,1:0|1:0,0:0:0:0:
475,372,131777,2,0,L|467:133,1,240,0|8,1:0|1:0,0:0:0:0:
400,74,133172,6,0,P|292:63|277:171,1,240,0|8,1:0|1:0,0:0:0:0:
335,238,134567,2,0,P|277:290|199:281,1,160,0|2,1:0|0:0,0:0:0:0:
151,209,135614,1,8,1:0:0:0:
226,163,135963,6,0,B|288:172|335:133|335:133|379:169|452:155,1,240,0|8,1:0|1:0,0:0:0:0:
501,228,137358,2,0,P|472:341|365:363,1,240,0|8,1:0|1:0,0:0:0:0:
298,304,138754,6,0,L|56:311,1,240,0|8,1:0|1:0,0:0:0:0:
39,225,140149,2,0,P|34:167|7:109,2,120,0|2|8,1:0|0:0|1:0,0:0:0:0:
126,229,141544,6,0,B|139:163|193:133|193:133|174:79|214:16,1,240,4|8,1:0|1:0,0:0:0:0:
298,4,142940,2,0,P|373:18|388:162,1,240,0|8,1:0|1:0,0:0:0:0:
319,210,144335,6,0,P|236:215|106:134,1,240,0|8,1:0|1:0,0:0:0:0:
66,57,145730,2,0,P|21:114|42:196,1,160,0|2,1:0|0:0,0:0:0:0:
107,250,146777,1,8,1:0:0:0:
159,179,147126,6,0,B|227:181|227:181|242:199|242:199|309:199,1,160,0|8,1:0|1:0,0:0:0:0:
464,284,148521,2,0,P|489:244|495:213,1,79.9999999999999,0|0,0:0|1:0,0:0:0:0:
495,124,149219,1,8,1:0:0:0:
331,59,149916,6,0,B|250:52|250:52|177:106,2,160,0|8|2,1:0|1:0|0:0,0:0:0:0:
388,225,152009,2,0,L|383:284,1,59.9999999999999,0|4,0:0|0:2,0:0:0:0:
256,192,152707,12,6,158114,1:2:0:0:
