osu file format v14

[General]
AudioFilename: audio.mp3
AudioLeadIn: 0
PreviewTime: 106660
Countdown: 0
SampleSet: Soft
StackLeniency: 0.5
Mode: 0
LetterboxInBreaks: 0
WidescreenStoryboard: 0

[Editor]
Bookmarks: 41079,63405,74567,96893,108056,130381,152707,158288
DistanceSpacing: 0.2
BeatDivisor: 4
GridSize: 4
TimelineZoom: 2.999999

[Metadata]
Title:Introduction - ENTRANS OF DA JUNGLE
TitleUnicode:Introduction - ENTRANS OF DA JUNGLE
Artist:Camellia
ArtistUnicode:かめりあ
Creator:-PC
Version:Arbane's Insane
Source:
Tags:cxu arbane dnb drumstep cametek kamelcamellia invaidas from da jungle the invaders entrance
BeatmapID:1483764
BeatmapSetID:700968

[Difficulty]
HPDrainRate:6
CircleSize:4
OverallDifficulty:8
ApproachRate:9
SliderMultiplier:1.8
SliderTickRate:1

[Events]
//Background and Video events
0,0,"bg.jpg",0,0
//Break Periods
2,97092,101874
//Storyboard Layer 0 (Background)
//Storyboard Layer 1 (Fail)
//Storyboard Layer 2 (Pass)
//Storyboard Layer 3 (Foreground)
//Storyboard Sound Samples

[TimingPoints]
18754,348.837209302326,4,2,0,40,1,0
41079,-133.333333333333,4,2,0,40,0,0
63405,-80,4,2,0,50,0,0
63666,-100,4,2,0,50,0,0
64800,-80,4,2,0,50,0,0
65062,-100,4,2,0,50,0,0
66195,-80,4,2,0,50,0,0
66457,-100,4,2,0,50,0,0
67591,-80,4,2,0,50,0,0
67852,-100,4,2,0,50,0,0
71777,-133.333333333333,4,2,0,50,0,0
73172,-133.333333333333,4,2,0,40,0,0
74567,-66.6666666666667,4,2,0,60,0,1
75091,-80,4,2,0,60,0,1
75614,-100,4,2,0,60,0,1
76312,-66.6666666666667,4,2,0,60,0,1
76486,-100,4,2,0,60,0,1
76835,-66.6666666666667,4,2,0,60,0,1
77009,-200,4,2,0,60,0,1
77358,-100,4,2,0,60,0,1
77707,-66.6666666666667,4,2,0,60,0,1
77881,-100,4,2,0,60,0,1
78230,-66.6666666666667,4,2,0,60,0,1
78405,-100,4,2,0,60,0,1
79102,-66.6666666666667,4,2,0,60,0,1
79277,-100,4,2,0,60,0,1
79626,-74.0740740740741,4,2,0,60,0,1
80149,-66.6666666666667,4,2,0,60,0,1
80672,-80,4,2,0,60,0,1
81195,-100,4,2,0,60,0,1
82416,-66.6666666666667,4,2,0,60,0,1
82591,-200,4,2,0,60,0,1
82940,-80,4,2,0,60,0,1
85730,-66.6666666666667,4,2,0,60,0,1
86254,-80,4,2,0,60,0,1
86777,-100,4,2,0,60,0,1
87998,-66.6666666666667,4,2,0,60,0,1
88172,-200,4,2,0,60,0,1
88521,-100,4,2,0,60,0,1
88870,-66.6666666666667,4,2,0,60,0,1
89044,-100,4,2,0,60,0,1
89393,-66.6666666666667,4,2,0,60,0,1
89567,-100,4,2,0,60,0,1
90265,-66.6666666666667,4,2,0,60,0,1
90440,-100,4,2,0,60,0,1
90788,-74.0740740740741,4,2,0,60,0,1
91312,-66.6666666666667,4,2,0,60,0,1
91835,-80,4,2,0,60,0,1
92358,-100,4,2,0,60,0,1
93579,-66.6666666666667,4,2,0,60,0,1
93754,-200,4,2,0,60,0,1
94102,-100,4,2,0,60,0,1
94451,-66.6666666666667,4,2,0,60,0,1
94626,-100,4,2,0,60,0,1
94974,-66.6666666666667,4,2,0,60,0,1
95149,-100,4,2,0,60,0,1
95498,-66.6666666666667,4,2,0,60,0,1
95672,-100,4,2,0,60,0,1
96021,-66.6666666666667,4,2,0,60,0,1
96195,-400,4,2,0,60,0,0
102474,-100,4,2,0,50,0,0
108056,-80,4,2,0,70,0,1
108579,-66.6666666666667,4,2,0,70,0,1
109974,-80,4,2,0,70,0,1
110498,-74.0740740740741,4,2,0,70,0,1
110847,-66.6666666666667,4,2,0,70,0,1
111370,-80,4,2,0,70,0,1
112591,-66.6666666666667,4,2,0,70,0,1
113288,-100,4,2,0,70,0,1
113637,-80,4,2,0,70,0,1
114160,-66.6666666666667,4,2,0,70,0,1
115556,-80,4,2,0,70,0,1
116428,-66.6666666666667,4,2,0,70,0,1
116777,-80,4,2,0,70,0,1
117823,-66.6666666666667,4,2,0,70,0,1
118870,-80,4,2,0,70,0,1
119742,-66.6666666666667,4,2,0,70,0,1
121137,-80,4,2,0,70,0,1
121660,-74.0740740740741,4,2,0,70,0,1
122009,-66.6666666666667,4,2,0,70,0,1
122533,-80,4,2,0,70,0,1
123754,-66.6666666666667,4,2,0,70,0,1
124451,-100,4,2,0,70,0,1
124800,-80,4,2,0,70,0,1
125323,-66.6666666666667,4,2,0,70,0,1
126719,-80,4,2,0,70,0,1
127242,-74.0740740740741,4,2,0,70,0,1
127591,-66.6666666666667,4,2,0,70,0,1
128114,-80,4,2,0,70,0,1
130381,-90.9090909090909,4,2,0,60,0,0
130905,-80,4,2,0,60,0,0
131428,-90.9090909090909,4,2,0,60,0,0
136486,-80,4,2,0,60,0,0
137009,-90.9090909090909,4,2,0,60,0,0
142067,-80,4,2,0,60,0,0
142591,-90.9090909090909,4,2,0,60,0,0
147126,-100,4,2,0,60,0,0
149219,-133.333333333333,4,2,0,60,0,0
152707,-200,4,2,0,60,0,0
158114,-200,4,2,0,30,0,0

[Colours]
Combo1 : 78,143,50
Combo2 : 244,134,34
Combo3 : 15,208,131
Combo4 : 248,44,7

[HitObjects]
207,263,41079,6,0,L|346:271,1,135.000005149842,0|2,1:0|0:3,0:0:0:0:
148,203,41602,5,0,1:0:0:0:
221,180,41777,1,2,0:0:0:0:
167,129,41951,1,2,0:0:0:0:
237,183,42126,5,2,0:3:0:0:
135,215,42301,1,2,0:3:0:0:
162,112,42475,1,2,0:3:0:0:
19,180,42649,6,0,L|14:263,2,67.5000025749208,0|2|2,1:0|0:0|0:3,0:0:0:0:
143,294,43172,2,0,L|138:211,2,67.5000025749208,0|2|2,1:0|0:3|0:0,0:0:0:0:
239,163,43695,5,0,1:0:0:0:
386,212,43870,1,0,1:0:0:0:
300,228,44044,1,2,0:0:0:0:
327,144,44219,1,2,0:3:0:0:
360,297,44393,6,0,P|341:340|251:346,1,135.000005149842,0|0,1:0|0:0,0:0:0:0:
253,346,44829,1,0,0:0:0:0:
251,335,44916,2,0,L|263:253,2,67.5000025749208,2|2|2,1:3|0:3|0:3,0:0:0:0:
130,369,45440,5,0,1:0:0:0:
52,327,45614,1,2,0:0:0:0:
127,283,45788,1,2,0:3:0:0:
3,253,45963,5,0,1:0:0:0:
78,209,46137,1,2,0:3:0:0:
0,167,46312,1,2,0:0:0:0:
124,135,46486,5,0,1:0:0:0:
36,41,46660,2,0,P|95:51|194:48,1,135.000005149842,0|2,1:0|0:3,0:0:0:0:
353,17,47184,5,0,1:0:0:0:
296,68,47359,1,2,0:0:0:0:
367,92,47533,1,2,0:0:0:0:
279,72,47708,5,2,0:3:0:0:
358,0,47883,1,2,0:3:0:0:
377,104,48057,1,2,0:3:0:0:
197,30,48230,6,0,L|110:39,2,67.5000025749208,0|2|2,1:0|0:0|0:3,0:0:0:0:
83,130,48754,2,0,L|170:139,2,67.5000025749208,0|2|2,1:0|0:3|0:0,0:0:0:0:
224,213,49277,5,0,1:0:0:0:
131,320,49451,1,0,1:0:0:0:
71,264,49626,1,2,0:0:0:0:
148,240,49800,1,2,0:3:0:0:
273,361,49974,6,0,B|356:374|322:333|406:348,1,135.000005149842,0|0,1:0|0:0,0:0:0:0:
413,350,50410,1,0,0:0:0:0:
421,355,50498,2,0,P|455:359|502:342,2,67.5000025749208,2|2|2,1:3|0:3|0:3,0:0:0:0:
302,274,51021,5,0,1:0:0:0:
330,191,51195,1,2,0:0:0:0:
387,257,51370,1,2,0:3:0:0:
198,238,51544,5,0,1:0:0:0:
283,221,51719,1,2,0:3:0:0:
226,155,51893,1,2,0:0:0:0:
115,243,52067,5,0,1:0:0:0:
188,365,52242,2,0,P|243:348|342:351,1,135.000005149842,0|2,1:0|0:3,0:0:0:0:
493,346,52765,5,0,1:0:0:0:
436,294,52940,1,2,0:0:0:0:
419,366,53114,1,2,0:0:0:0:
430,278,53289,5,2,0:3:0:0:
509,350,53464,1,2,0:3:0:0:
406,378,53638,1,2,0:3:0:0:
491,215,53812,6,0,L|485:138,2,67.5000025749208,0|2|2,1:0|0:0|0:3,0:0:0:0:
359,119,54335,2,0,L|353:196,2,67.5000025749208,0|2|2,1:0|0:3|0:0,0:0:0:0:
270,253,54858,5,0,1:0:0:0:
140,167,55033,1,0,1:0:0:0:
227,174,55207,1,2,0:0:0:0:
180,248,55381,1,2,0:3:0:0:
20,195,55556,6,0,P|12:128|69:79,1,135.000005149842,0|0,1:0|0:0,0:0:0:0:
66,82,55992,1,0,0:0:0:0:
75,85,56079,2,0,L|84:172,2,67.5000025749208,2|2|2,1:3|0:3|0:3,0:0:0:0:
203,11,56602,5,0,1:0:0:0:
268,70,56777,1,2,0:0:0:0:
184,95,56951,1,2,0:3:0:0:
350,108,57126,5,0,1:0:0:0:
285,167,57300,1,2,0:3:0:0:
369,192,57474,1,2,0:0:0:0:
245,285,57649,5,0,1:0:0:0:
97,239,57823,2,0,P|88:173|86:92,1,135.000005149842,0|2,1:0|0:3,0:0:0:0:
40,293,58347,5,0,1:0:0:0:
113,316,58522,1,2,0:0:0:0:
59,367,58696,1,2,0:0:0:0:
129,312,58871,5,2,0:3:0:0:
27,280,59046,1,2,0:3:0:0:
54,383,59220,1,2,0:3:0:0:
102,195,59393,6,0,L|98:116,2,67.5000025749208,0|2|2,1:0|0:0|0:3,0:0:0:0:
199,281,59916,2,0,L|195:360,2,67.5000025749208,0|2|2,1:0|0:3|0:0,0:0:0:0:
274,136,60440,5,0,1:0:0:0:
419,207,60614,1,0,1:0:0:0:
352,253,60788,1,2,0:0:0:0:
345,171,60963,1,2,0:3:0:0:
324,331,61137,6,0,P|281:346|208:293,1,135.000005149842,0|0,1:0|0:0,0:0:0:0:
209,290,61573,1,0,0:0:0:0:
210,279,61660,2,0,L|236:200,2,67.5000025749208,2|2|2,1:3|0:3|0:3,0:0:0:0:
34,333,62184,5,0,1:0:0:0:
52,247,62358,1,2,0:0:0:0:
116,306,62533,1,2,0:3:0:0:
186,175,62707,5,0,1:0:0:0:
168,89,62881,1,2,0:3:0:0:
104,148,63056,1,2,0:0:0:0:
204,261,63230,1,0,1:0:0:0:
248,33,63405,6,0,B|291:34|291:34|315:26|315:26|370:28,1,112.5,4|0,1:3|0:0,0:0:0:0:
402,38,63666,1,0,0:0:0:0:
431,72,63754,2,0,L|423:141,1,45,8|0,0:0|0:0,0:0:0:0:
367,166,63928,2,0,L|375:235,1,45,0|0,1:0|0:0,0:0:0:0:
409,282,64102,6,0,B|443:253|443:253|465:293,1,90
349,361,64451,2,0,B|294:357|294:357|274:347|274:347|206:343,1,135,0|0,1:0|0:0,0:0:0:0:
142,338,64800,6,0,B|110:309|110:309|116:214,1,112.5,0|0,0:0|1:0,0:0:0:0:
123,195,65062,1,0,0:0:0:0:
157,166,65149,2,0,L|223:170,1,45
263,215,65323,2,0,L|308:213,1,45
354,150,65498,6,0,B|336:108|336:108|300:135,1,90,0|0,1:0|0:0,0:0:0:0:
297,292,65847,2,0,B|331:333|331:333|421:328,1,135
470,283,66195,6,0,B|468:235|468:235|471:218|471:218|469:162,1,112.5,0|0,1:0|0:0,0:0:0:0:
456,127,66457,1,0,0:0:0:0:
419,100,66544,2,0,L|349:105,1,45,8|0,0:0|0:0,0:0:0:0:
311,147,66719,2,0,L|267:144,1,45,0|0,1:0|0:0,0:0:0:0:
162,86,66893,6,0,B|175:44|175:44|214:68,1,90
221,219,67242,2,0,B|166:220|166:220|146:229|146:229|78:231,1,135,0|0,1:0|0:0,0:0:0:0:
25,184,67591,6,0,B|5:144|5:144|21:59,1,112.5,0|0,0:0|1:0,0:0:0:0:
44,41,67852,1,0,0:0:0:0:
88,32,67940,2,0,B|173:48,1,45,0|0,0:0|0:0,0:0:0:0:
191,93,68114,2,0,B|276:77,1,45
307,25,68288,6,0,B|333:62|333:62|322:120,1,90,0|0,1:0|0:0,0:0:0:0:
371,203,68637,1,0,0:0:0:0:
435,115,68812,1,0,1:0:0:0:
431,341,68986,5,0,1:0:0:0:
266,272,69160,1,0,0:0:0:0:
172,330,69335,1,0,1:0:0:0:
143,309,69422,1,0,0:0:0:0:
109,296,69509,1,0,0:0:0:0:
74,289,69597,1,0,0:0:0:0:
39,292,69684,5,0,1:0:0:0:
204,223,69858,1,0,0:0:0:0:
298,281,70033,1,0,1:0:0:0:
327,260,70120,1,0,0:0:0:0:
361,247,70207,1,0,0:0:0:0:
396,240,70295,1,0,0:0:0:0:
431,243,70381,5,0,1:0:0:0:
266,174,70555,1,0,0:0:0:0:
172,232,70730,1,0,1:0:0:0:
143,211,70817,1,0,0:0:0:0:
109,198,70904,1,0,0:0:0:0:
74,191,70992,1,0,0:0:0:0:
39,194,71079,5,0,1:0:0:0:
204,125,71253,1,0,0:0:0:0:
298,183,71428,1,0,1:0:0:0:
327,162,71515,1,0,0:0:0:0:
361,149,71602,1,0,0:0:0:0:
396,142,71690,1,0,0:0:0:0:
431,145,71777,6,0,L|436:200,1,33.7500012874604,0|0,1:0|0:0,0:0:0:0:
359,254,71951,2,0,L|304:249,1,33.7500012874604,0|0,1:0|0:0,0:0:0:0:
259,119,72126,6,0,L|264:174,1,33.7500012874604,0|0,1:0|0:0,0:0:0:0:
187,228,72300,2,0,L|132:223,1,33.7500012874604,0|0,1:0|0:0,0:0:0:0:
25,114,72474,6,0,L|22:81,1,33.7500012874604,0|0,1:0|0:0,0:0:0:0:
0,263,72649,2,0,L|3:296,1,33.7500012874604,0|0,1:0|0:0,0:0:0:0:
136,148,72823,6,0,L|132:114,1,33.7500012874604,0|0,1:0|0:0,0:0:0:0:
110,296,72998,2,0,L|113:329,1,33.7500012874604,0|0,1:0|0:0,0:0:0:0:
207,239,73172,5,0,1:0:0:0:
223,237,73259,1,0,1:0:0:0:
207,235,73347,1,0,1:0:0:0:
222,240,73434,1,0,1:0:0:0:
209,232,73521,1,0,1:0:0:0:
220,243,73608,1,0,1:0:0:0:
211,230,73695,1,0,1:0:0:0:
218,245,73783,1,0,1:0:0:0:
214,229,73870,2,0,L|220:179,4,33.7500012874604,2|0|0|0|2,1:2|1:0|1:0|1:0|0:0,1:0:0:0:
150,171,74567,6,0,P|207:123|289:206,1,202.500007724762,4|0,1:0|0:0,0:0:0:0:
305,207,74916,2,0,P|297:164|317:114,1,67.5000025749208,8|0,1:0|0:0,0:0:0:0:
404,13,75091,2,0,B|447:-1|468:27|468:27|446:204,1,225,4|8,1:3|1:0,0:0:0:0:
470,320,75614,5,2,0:0:0:0:
469,306,75701,1,2,0:0:0:0:
468,292,75788,1,2,0:0:0:0:
467,278,75876,1,2,0:0:0:0:
466,264,75963,2,0,B|436:250|397:263|397:263|369:289|369:289|330:304|291:285,1,180,0|8,1:0|1:0,0:0:0:0:
159,139,76486,6,0,P|206:169|187:252,1,135,4|0,1:3|0:0,0:0:0:0:
183,253,76835,2,0,P|143:260|104:230,1,67.5000025749208,8|0,1:0|0:0,0:0:0:0:
72,139,77009,2,0,L|75:101,3,22.5,2|2|2|2,0:0|0:0|0:0|0:0,0:0:0:0:
23,205,77358,6,0,L|31:346,1,135,4|0,1:3|0:0,0:0:0:0:
33,360,77707,2,0,P|68:370|115:351,1,67.5000025749208,8|0,1:0|0:0,0:0:0:0:
220,223,77881,2,0,L|228:82,1,135,4|0,1:3|0:0,0:0:0:0:
230,68,78230,2,0,P|265:58|312:77,1,67.5000025749208,8|0,1:0|0:0,0:0:0:0:
379,179,78405,5,2,0:0:0:0:
365,181,78492,1,2,0:0:0:0:
351,180,78579,1,2,0:0:0:0:
337,177,78666,1,2,0:0:0:0:
325,171,78754,6,0,P|341:124|435:140,1,135,4|0,1:3|0:0,0:0:0:0:
431,132,79102,2,0,P|440:169|422:205,1,67.5000025749208,8|0,1:0|0:0,0:0:0:0:
244,270,79277,2,0,L|87:259,1,135,4|0,1:3|0:0,0:0:0:0:
32,255,79626,2,0,B|186:197|176:333|324:271,1,303.750001158714,8|0,1:0|0:0,0:0:0:0:
401,221,80149,6,0,P|354:136|295:220,1,202.500007724762,4|0,1:3|0:0,0:0:0:0:
275,198,80498,2,0,P|280:163|265:123,1,67.5000025749208,8|0,1:0|0:0,0:0:0:0:
133,13,80672,2,0,B|62:42|62:42|79:216,1,225,4|8,1:3|1:0,0:0:0:0:
189,263,81195,5,2,0:0:0:0:
176,256,81283,1,2,0:0:0:0:
162,253,81370,1,2,0:0:0:0:
148,253,81457,1,2,0:0:0:0:
134,256,81544,2,0,P|114:324|218:335,1,180,0|8,1:0|1:0,0:0:0:0:
302,167,82067,6,0,P|288:220|311:326,1,135,4|0,1:3|0:0,0:0:0:0:
310,315,82416,2,0,P|351:323|402:311,1,67.5000025749208,8|0,1:0|0:0,0:0:0:0:
480,252,82591,2,0,L|484:218,3,22.5,2|2|2|2,0:0|0:0|0:0|0:0,0:0:0:0:
442,162,82940,6,0,B|374:164|374:164|346:189|346:189|250:192,1,168.75,4|0,1:3|0:0,0:0:0:0:
255,193,83288,2,0,P|245:158|246:125,1,56.25,8|0,1:0|0:0,0:0:0:0:
212,302,83463,2,0,P|202:337|203:370,1,56.25,4|0,1:3|0:0,0:0:0:0:
143,213,83637,2,0,L|69:209,1,56.25
5,230,83812,1,8,1:0:0:0:
34,98,83986,2,0,P|106:62|153:139,1,168.75
154,137,84335,6,0,L|228:133,1,56.25,4|0,1:3|0:0,0:0:0:0:
351,93,84509,2,0,L|277:89,1,56.25
218,226,84684,2,0,L|222:300,1,56.25,8|0,1:0|0:0,0:0:0:0:
210,133,84858,1,4,1:3:0:0:
307,206,85033,1,0,0:0:0:0:
323,204,85120,1,0,0:0:0:0:
339,202,85207,1,8,1:0:0:0:
355,200,85294,1,0,0:0:0:0:
387,207,85381,6,0,P|388:240|371:277,1,56.25,2|0,0:3|0:0,0:0:0:0:
294,89,85556,2,0,P|293:56|310:19,1,56.25,2|0,0:3|0:0,0:0:0:0:
236,278,85730,6,0,P|191:304|158:191,1,202.500007724762,4|0,1:3|0:0,0:0:0:0:
163,190,86079,2,0,P|199:186|228:204,1,67.5000025749208,8|0,1:0|0:0,0:0:0:0:
383,363,86254,2,0,B|360:381|318:373|318:373|301:331|303:254|366:219,1,225,4|8,1:3|1:0,0:0:0:0:
486,178,86777,5,2,0:0:0:0:
474,185,86864,1,2,0:0:0:0:
461,189,86951,1,2,0:0:0:0:
447,191,87038,1,2,0:0:0:0:
433,190,87126,2,0,P|387:159|422:50,1,180,0|8,1:0|1:0,0:0:0:0:
292,190,87649,6,0,B|202:198|250:161|160:167,1,135,4|0,1:3|0:0,0:0:0:0:
142,170,87998,2,0,P|159:146|158:89,1,67.5000025749208,8|0,1:0|0:0,0:0:0:0:
130,0,88172,2,0,L|94:-1,3,22.5,2|2|2|2,0:0|0:0|0:0|0:0,0:0:0:0:
211,38,88521,6,0,L|369:32,1,135,4|0,1:3|0:0,0:0:0:0:
366,32,88870,2,0,L|358:120,1,67.5000025749208,8|0,1:0|0:0,0:0:0:0:
309,240,89044,2,0,L|151:234,1,135,4|0,1:3|0:0,0:0:0:0:
154,234,89393,2,0,L|169:312,1,67.5000025749208,8|0,1:0|0:0,0:0:0:0:
94,374,89567,5,2,0:0:0:0:
81,373,89654,1,2,0:0:0:0:
68,372,89741,1,2,0:0:0:0:
54,372,89828,1,2,0:0:0:0:
41,371,89916,2,0,P|6:326|34:236,1,135,4|0,1:3|0:0,0:0:0:0:
34,240,90265,2,0,L|113:245,1,67.5000025749208,8|0,1:0|0:0,0:0:0:0:
294,287,90440,6,0,P|275:345|221:320,1,135,4|0,1:3|0:0,0:0:0:0:
188,303,90788,2,0,P|290:377|303:252,1,303.750001158714,8|0,1:0|0:0,0:0:0:0:
217,206,91312,6,0,P|272:227|282:118,1,202.500007724762,4|0,1:3|0:0,0:0:0:0:
268,116,91660,2,0,P|257:155|260:191,1,67.5000025749208,8|0,1:0|0:0,0:0:0:0:
374,343,91835,2,0,B|425:352|445:309|445:309|433:143,1,225,4|8,1:3|1:0,0:0:0:0:
375,39,92358,5,2,0:0:0:0:
363,46,92445,1,2,0:0:0:0:
350,50,92533,1,2,0:0:0:0:
336,53,92620,1,2,0:0:0:0:
322,53,92707,2,0,B|215:26|262:96|136:61,1,180,0|8,1:0|1:0,0:0:0:0:
0,187,93230,6,0,L|20:338,1,135,4|0,1:3|0:0,0:0:0:0:
23,340,93579,2,0,P|58:353|101:341,1,67.5000025749208,8|0,1:0|0:0,0:0:0:0:
170,250,93754,2,0,L|168:212,3,22.5,2|2|2|2,0:0|0:0|0:0|0:0,0:0:0:0:
225,310,94102,6,0,P|303:316|338:254,1,135,4|0,1:3|0:0,0:0:0:0:
336,257,94451,2,0,P|315:206|290:192,1,67.5000025749208,8|0,1:0|0:0,0:0:0:0:
117,139,94626,6,0,P|110:217|172:252,1,135,4|0,1:3|0:0,0:0:0:0:
170,250,94975,2,0,P|220:229|234:204,1,67.5000025749208,8|0,1:0|0:0,0:0:0:0:
288,31,95149,6,0,P|209:24|174:86,1,135,4|0,1:3|0:0,0:0:0:0:
177,84,95498,2,0,P|197:134|222:148,1,67.5000025749208,8|0,1:0|0:0,0:0:0:0:
396,202,95672,6,0,P|402:123|340:88,1,135,4|0,1:3|0:0,0:0:0:0:
343,91,96021,2,0,P|292:111|278:136,1,67.5000025749208,8|0,1:0|0:0,0:0:0:0:
294,328,96195,6,0,L|387:335,1,90,0|4,1:0|1:0,1:0:0:0:
0,195,102474,5,0,1:0:0:0:
162,165,102649,1,0,0:0:0:0:
74,129,102823,1,0,1:0:0:0:
79,164,102910,1,0,0:0:0:0:
85,200,102998,1,0,0:0:0:0:
92,234,103085,1,0,0:0:0:0:
98,270,103172,5,0,1:0:0:0:
260,300,103347,1,0,0:0:0:0:
172,336,103521,1,0,1:0:0:0:
177,301,103608,1,0,0:0:0:0:
183,265,103695,1,0,0:0:0:0:
190,231,103783,1,0,0:0:0:0:
196,195,103870,5,0,1:0:0:0:
358,165,104044,1,0,0:0:0:0:
270,129,104219,1,0,1:0:0:0:
275,164,104306,1,0,0:0:0:0:
281,200,104393,1,0,0:0:0:0:
288,234,104480,1,0,0:0:0:0:
294,270,104567,5,0,1:0:0:0:
456,300,104742,1,0,0:0:0:0:
368,336,104916,1,0,1:0:0:0:
373,301,105004,1,0,0:0:0:0:
379,265,105091,1,0,0:0:0:0:
386,231,105178,1,0,0:0:0:0:
392,195,105265,6,0,L|385:127,1,45,0|0,1:0|0:0,0:0:0:0:
313,88,105440,2,0,L|245:95,1,45,0|0,1:0|0:0,0:0:0:0:
220,216,105614,6,0,L|213:148,1,45,0|0,1:0|0:0,0:0:0:0:
141,109,105788,2,0,L|73:116,1,45,0|0,1:0|0:0,0:0:0:0:
0,211,105963,6,0,L|68:218,1,45,0|0,1:0|0:0,0:0:0:0:
79,30,106137,2,0,L|11:37,1,45,0|0,1:0|0:0,0:0:0:0:
62,290,106312,6,0,L|130:297,1,45,0|0,1:0|0:0,0:0:0:0:
141,109,106486,2,0,L|73:116,1,45,0|0,1:0|0:0,0:0:0:0:
205,279,106660,5,0,1:0:0:0:
209,313,106748,1,0,1:0:0:0:
211,279,106835,1,0,1:0:0:0:
201,311,106922,1,0,1:0:0:0:
217,282,107009,1,0,1:0:0:0:
195,308,107097,1,0,1:0:0:0:
223,288,107184,1,0,1:0:0:0:
189,302,107271,1,0,1:0:0:0:
224,297,107358,1,2,1:2:0:0:
189,295,107445,1,0,1:0:0:0:
222,304,107533,1,0,1:0:0:0:
190,287,107620,1,0,1:0:0:0:
217,309,107707,1,2,1:2:0:0:
80,360,108056,6,0,B|127:356|127:356|190:388|190:388|270:382,1,168.75,4|0,1:0|0:0,0:0:0:0:
285,379,108405,2,0,P|301:344|295:304,1,56.25,8|0,1:0|0:0,0:0:0:0:
224,102,108579,6,2,B|174:137|187:222|187:222|162:140|95:130,1,270.000010299683,2|0,0:1|1:0,0:1:0:0:
226,21,109102,1,8,1:0:0:0:
266,27,109190,1,2,0:0:0:0:
293,56,109277,1,2,0:0:0:0:
320,85,109364,1,2,0:0:0:0:
359,91,109451,1,0,1:0:0:0:
475,4,109626,5,8,0:3:0:0:
359,91,109800,1,8,1:0:0:0:
418,224,109974,2,0,B|446:187|446:187|366:191|366:191|336:205|336:205|250:198,1,225,8|0,0:3|1:0,0:0:0:0:
51,173,110498,2,0,P|32:106|117:41,1,182.250000695229,8|0,1:0|0:0,0:0:0:0:
163,50,110847,6,2,B|180:100|143:145|143:145|172:162|184:200|184:200|137:237|155:306,1,270.000010299683,2|8,1:0|1:0,0:1:0:0:
277,384,111370,1,4,0:3:0:0:
277,384,111457,2,0,B|393:370|393:370|327:346,1,168.75,8|0,0:3|1:0,0:0:0:0:
333,349,111806,1,0,1:0:0:0:
359,313,111893,5,8,1:0:0:0:
366,268,111980,1,2,0:0:0:0:
352,225,112067,1,2,0:0:0:0:
316,196,112155,1,2,0:0:0:0:
271,188,112242,1,0,1:0:0:0:
180,288,112416,2,0,P|205:263|210:229,1,56.25,8|0,0:3|0:0,0:0:0:0:
165,47,112591,6,0,B|117:31|117:31|130:147,1,135.000005149842,10|2,1:0|0:3,0:0:0:0:
161,146,112852,1,2,0:3:0:0:
207,136,112940,1,2,0:3:0:0:
297,0,113114,1,0,1:0:0:0:
309,113,113288,2,0,B|313:148|313:148|317:152|317:152|314:156|314:156|323:260,1,135,8|0,1:0|0:0,0:0:0:0:
309,287,113637,6,0,B|262:281|262:281|198:311|198:311|118:302,1,168.75,4|0,1:2|0:0,0:0:0:0:
102,300,113986,2,0,P|84:266|87:224,1,56.25,8|0,1:0|0:0,0:0:0:0:
126,29,114160,2,2,B|189:-1|235:75|189:142|78:143|36:59,1,270.000010299683,2|0,0:1|1:0,0:1:0:0:
154,206,114684,1,8,1:0:0:0:
193,212,114771,1,2,0:0:0:0:
233,207,114858,1,2,0:0:0:0:
268,188,114945,1,2,0:0:0:0:
293,156,115033,1,0,1:0:0:0:
247,0,115207,5,8,0:3:0:0:
293,156,115381,1,8,1:0:0:0:
445,113,115556,2,0,B|451:76|451:76|398:94|398:94|418:173|418:173|414:228,1,225,8|0,0:3|1:0,0:0:0:0:
335,349,116079,1,8,1:0:0:0:
323,347,116166,1,2,0:0:0:0:
311,345,116254,1,2,0:0:0:0:
299,343,116341,1,2,0:0:0:0:
287,341,116428,6,2,B|219:345|219:345|190:335|190:335|163:349|163:349|79:355,1,202.500007724762,2|0,1:0|0:0,0:1:0:0:
44,360,116777,2,0,L|51:282,1,56.25,8|0,1:0|0:0,0:0:0:0:
176,220,116951,2,0,P|149:235|117:233,1,56.25,2|0,0:0|0:0,0:0:0:0:
66,153,117126,2,0,L|73:75,1,56.25,2|0,0:0|0:0,0:0:0:0:
177,0,117300,1,2,1:2:0:0:
209,7,117387,1,0,1:0:0:0:
232,31,117474,2,0,B|264:98|221:175|154:130|181:66|241:117,1,168.75,8|0,1:0|0:0,0:0:0:0:
285,164,117823,6,2,P|278:241|198:262,1,135.000005149842,2|0,1:0|0:0,0:1:0:0:
163,223,118085,1,2,0:1:0:0:
163,223,118172,2,0,P|195:197|244:204,1,67.5000025749208,8|0,1:0|0:0,0:0:0:0:
357,326,118347,6,2,P|307:385|229:356,1,135.000005149842,2|0,0:1|0:0,0:1:0:0:
222,303,118609,1,2,0:1:0:0:
222,303,118696,2,0,P|263:300|299:333,1,67.5000025749208,0|0,1:0|0:0,0:0:0:0:
453,384,118870,6,0,L|456:313,1,56.25,8|0,1:0|0:0,0:0:0:0:
351,244,119044,2,0,L|348:187,1,56.25,2|0,0:3|0:0,0:0:0:0:
512,31,119219,6,0,B|464:28|464:28|402:65|402:65|334:61,1,168.75,4|0,1:0|0:0,0:0:0:0:
308,59,119567,2,0,L|219:52,1,56.25,8|0,1:0|0:0,0:0:0:0:
17,35,119742,6,2,B|65:57|111:23|111:23|30:87|69:198,1,270.000010299683,2|0,0:1|1:0,0:1:0:0:
170,295,120265,1,8,1:0:0:0:
209,294,120352,1,2,0:0:0:0:
243,315,120440,1,2,0:0:0:0:
277,336,120527,1,2,0:0:0:0:
318,333,120614,1,0,1:0:0:0:
460,231,120788,5,8,0:3:0:0:
318,333,120963,1,8,1:0:0:0:
233,175,121137,2,0,B|256:35|256:35|299:5|337:45,1,225,8|0,0:3|1:0,0:0:0:0:
280,248,121660,2,0,P|204:259|147:149,1,182.250000695229,8|0,1:0|0:0,0:0:0:0:
138,129,122009,6,2,B|61:108|61:108|69:189|69:189|44:226|44:226|60:310,1,270.000010299683,2|8,1:0|1:0,0:1:0:0:
201,384,122533,1,4,0:3:0:0:
201,384,122620,2,0,B|315:376|315:376|356:331,1,168.75,8|0,0:3|1:0,0:0:0:0:
359,327,122969,1,0,1:0:0:0:
314,331,123056,5,8,1:0:0:0:
273,311,123143,1,2,0:0:0:0:
252,271,123230,1,2,0:0:0:0:
254,226,123317,1,2,0:0:0:0:
281,189,123405,1,0,1:0:0:0:
404,235,123579,2,0,P|373:244|331:236,1,56.25,8|0,0:3|0:0,0:0:0:0:
214,133,123754,6,0,B|232:102|232:102|296:94|296:94|334:127,1,135.000005149842,8|2,1:0|0:3,0:0:0:0:
321,164,124015,1,2,0:3:0:0:
281,189,124102,1,2,0:3:0:0:
90,144,124277,1,0,1:0:0:0:
174,215,124451,2,0,B|178:250|178:250|182:254|182:254|179:258|179:258|188:362,1,135,8|0,1:0|0:0,0:0:0:0:
217,380,124800,6,0,B|264:386|264:386|328:356|328:356|408:365,1,168.75,4|0,1:2|0:0,0:0:0:0:
423,368,125149,2,0,P|441:334|438:292,1,56.25,8|0,1:0|0:0,0:0:0:0:
417,112,125323,2,2,B|354:82|308:158|354:225|465:226|507:142,1,270.000010299683,2|0,0:1|1:0,0:1:0:0:
381,32,125847,1,8,1:0:0:0:
341,41,125934,1,2,0:0:0:0:
309,64,126021,1,2,0:0:0:0:
286,98,126108,1,2,0:0:0:0:
278,137,126195,1,0,1:0:0:0:
332,275,126370,5,8,0:3:0:0:
278,137,126544,1,8,1:0:0:0:
138,189,126719,2,0,B|110:226|110:226|190:222|190:222|221:209|221:209|306:215,1,225,8|0,0:3|1:0,0:0:0:0:
489,230,127242,2,0,P|517:148|431:92,1,182.250000695229,8|0,1:0|0:0,0:0:0:0:
398,89,127591,6,2,B|366:127|380:173|380:173|404:197|406:233|406:233|377:268|377:268|406:303|383:360,1,270.000010299683,2|8,1:0|1:0,0:1:0:0:
224,384,128114,1,4,0:3:0:0:
224,384,128201,2,0,B|147:378|147:378|135:373|135:373|51:367,1,168.75,8|0,0:3|1:0,0:0:0:0:
45,366,128550,1,0,1:0:0:0:
77,335,128637,5,8,1:0:0:0:
97,294,128724,1,2,0:0:0:0:
102,250,128811,1,2,0:0:0:0:
92,206,128898,1,2,0:0:0:0:
69,168,128986,5,8,1:0:0:0:
302,198,129160,1,0,1:0:0:0:
302,198,129335,1,0,1:0:0:0:
104,69,129509,5,8,1:0:0:0:
231,267,129683,1,0,1:0:0:0:
231,267,129858,1,0,1:0:0:0:
339,55,130033,5,8,1:0:0:0:
140,182,130207,1,0,1:0:0:0:
423,234,130381,6,0,P|486:194|461:82,1,198.000006042481,4|8,1:2|1:0,0:0:0:0:
350,138,130905,2,2,B|264:162|272:82|178:110,1,168.75,2|0,0:1|0:0,0:1:0:0:
164,119,131254,1,0,1:0:0:0:
268,275,131428,2,0,P|241:354|154:359,1,148.50000453186,8|0,1:0|0:0,0:0:0:0:
160,364,131777,6,0,B|170:249,1,99.0000030212403,0|0,1:0|0:0,0:0:0:0:
346,216,132126,2,0,B|354:314,1,99.0000030212403,8|0,1:0|0:0,0:0:0:0:
361,338,132387,1,0,0:0:0:0:
361,338,132474,1,0,0:0:0:0:
455,262,132649,1,0,1:0:0:0:
338,119,132823,2,0,P|252:132|193:179,1,148.50000453186,8|0,1:0|0:0,0:0:0:0:
191,188,133172,2,0,L|76:183,1,99.0000030212403,0|0,1:0|0:0,0:0:0:0:
253,312,133521,1,8,1:0:0:0:
364,277,133695,5,4,0:3:0:0:
364,277,133783,2,0,P|330:225|345:119,1,148.50000453186,8|0,1:3|1:0,0:0:0:0:
358,110,134131,1,0,1:0:0:0:
396,100,134219,2,0,L|504:115,1,99.0000030212403,8|0,1:0|0:0,0:0:0:0:
273,30,134567,6,0,P|239:82|254:188,1,148.50000453186,8|0,1:3|1:0,0:0:0:0:
219,176,134916,2,0,P|170:142|119:148,1,99.0000030212403,8|2,1:0|0:3,0:0:0:0:
97,162,135178,1,2,0:3:0:0:
80,197,135265,1,2,0:3:0:0:
128,316,135440,1,0,1:0:0:0:
303,258,135614,2,0,L|465:271,1,148.50000453186,8|0,1:0|0:0,0:0:0:0:
475,271,135963,6,0,P|510:203|435:96,1,198.000006042481,0|8,1:0|1:0,0:0:0:0:
323,162,136486,2,2,B|237:138|245:218|151:190,1,168.75,2|0,0:1|0:0,0:1:0:0:
136,187,136835,1,0,1:0:0:0:
223,38,137009,2,0,L|394:58,1,148.50000453186,8|0,1:0|0:0,0:0:0:0:
395,58,137358,6,0,P|404:111|403:173,1,99.0000030212403,0|0,1:0|0:0,0:0:0:0:
307,285,137707,2,0,P|298:232|299:170,1,99.0000030212403,8|0,1:0|0:0,0:0:0:0:
304,162,137969,1,0,0:0:0:0:
304,162,138056,1,0,0:0:0:0:
395,252,138230,1,0,1:0:0:0:
270,374,138405,2,0,L|111:368,1,148.50000453186,8|0,1:0|0:0,0:0:0:0:
96,367,138754,2,0,P|112:318|105:244,1,99.0000030212403,0|0,1:0|0:0,0:0:0:0:
56,82,139102,1,8,1:0:0:0:
42,205,139277,5,4,0:3:0:0:
42,205,139364,2,0,P|94:178|198:225,1,148.50000453186,0|0,0:3|1:0,0:0:0:0:
206,228,139713,1,0,1:0:0:0:
217,265,139800,2,0,L|210:376,1,99.0000030212403,8|0,1:0|0:0,0:0:0:0:
400,320,140149,6,0,B|396:248|396:248|399:239|399:239|395:160,1,148.50000453186,0|0,1:0|0:0,0:0:0:0:
394,147,140498,2,0,P|353:112|288:130,1,99.0000030212403,8|0,1:0|0:0,0:0:0:0:
295,133,140759,2,0,P|255:161|207:154,1,99.0000030212403
188,138,141021,1,0,1:0:0:0:
251,260,141195,1,8,1:0:0:0:
129,327,141370,2,0,L|52:317,1,49.5000015106202
10,283,141544,6,0,B|4:132|4:132|66:177,1,198.000006042481,4|8,1:0|1:0,0:0:0:0:
141,239,142067,2,2,B|227:263|219:183|313:211,1,168.75,2|0,0:1|0:0,0:1:0:0:
327,220,142416,1,0,1:0:0:0:
209,355,142591,2,0,L|59:348,1,148.50000453186,8|0,1:0|0:0,0:0:0:0:
35,346,142940,6,0,L|28:243,1,99.0000030212403,0|0,1:0|0:0,0:0:0:0:
217,154,143288,2,0,L|210:257,1,99.0000030212403,8|0,1:0|0:0,0:0:0:0:
213,277,143550,1,0,0:0:0:0:
213,277,143637,1,0,0:0:0:0:
118,193,143812,1,0,1:0:0:0:
223,42,143986,2,0,P|281:52|355:113,1,148.50000453186,8|0,1:0|0:0,0:0:0:0:
359,129,144335,6,0,L|351:255,1,99.0000030212403,0|0,1:0|0:0,0:0:0:0:
199,356,144684,1,8,1:0:0:0:
227,235,144858,1,4,0:3:0:0:
227,235,144945,2,0,P|172:281|72:255,1,148.50000453186,8|0,0:3|0:0,0:0:0:0:
67,250,145294,1,0,0:0:0:0:
57,211,145381,2,0,L|65:106,1,99.0000030212403,8|0,1:0|0:0,0:0:0:0:
225,28,145730,6,0,P|261:82|238:181,1,148.50000453186,8|0,1:3|0:0,0:0:0:0:
270,178,146079,2,0,L|390:173,1,99.0000030212403,8|2,1:0|0:3,0:0:0:0:
408,180,146341,1,2,0:3:0:0:
446,187,146428,1,2,0:3:0:0:
350,271,146602,1,0,1:0:0:0:
184,181,146777,2,0,L|25:189,1,148.50000453186,8|0,1:0|0:0,0:0:0:0:
13,190,147126,6,0,P|31:287|103:299,1,180
218,240,147649,2,0,P|204:271|205:296,1,45,2|0,0:0|0:0,0:0:0:0:
291,381,147823,2,0,P|306:327|299:278,1,90,8|2,1:0|0:3,0:0:0:0:
371,217,148172,2,0,L|427:227,3,45,0|2|0|2,0:0|0:3|0:0|0:3,0:0:0:0:
437,229,148521,2,0,L|432:128,1,90
288,24,148870,2,0,P|238:71|248:143,1,135,0|0,1:0|0:0,0:0:0:0:
256,152,149219,6,0,L|336:149,1,67.5000025749208,8|0,1:0|0:0,0:0:0:0:
194,216,149567,2,0,L|126:213,1,67.5000025749208
281,241,149916,5,0,1:0:0:0:
285,267,150091,1,0,0:0:0:0:
395,191,150265,5,0,0:0:0:0:
387,243,150440,1,0,0:0:0:0:
269,163,150614,5,8,1:0:0:0:
281,241,150789,1,0,0:0:0:0:
413,74,150963,5,0,0:0:0:0:
395,191,151138,1,0,0:0:0:0:
258,76,151312,6,0,L|167:83,2,67.5000025749208,0|0|0,1:0|0:0|0:0,0:0:0:0:
339,108,151835,1,0,0:0:0:0:
269,163,152009,2,0,L|159:157,1,101.250003862381
80,6,152707,6,0,B|149:176|-19:178|47:346|47:346|38:256|120:180|233:218|260:311|228:370|228:370|151:363|107:287|132:186|168:157|168:157|238:164|330:233|315:353|315:353|366:291|436:316,1,1395,4|0,1:0|0:0,0:0:0:0:
