osu file format v14

[General]
AudioFilename: audio.mp3
AudioLeadIn: 0
PreviewTime: 209368
Countdown: 1
SampleSet: Normal
StackLeniency: 0.3
Mode: 0
LetterboxInBreaks: 0
WidescreenStoryboard: 0

[Editor]
Bookmarks: 145094
DistanceSpacing: 0.8
BeatDivisor: 4
GridSize: 4
TimelineZoom: 2

[Metadata]
Title:Introduction / NEURO-CLOUD-9
TitleUnicode:Introduction / NEURO-CLOUD-9
Artist:Camellia
ArtistUnicode:かめりあ
Creator:Zel
Version:Neurological Downpour
Source:
Tags:edm camellia jumps technical
BeatmapID:1252916
BeatmapSetID:592131

[Difficulty]
HPDrainRate:6
CircleSize:4.4
OverallDifficulty:9.2
ApproachRate:9.7
SliderMultiplier:1.7
SliderTickRate:1

[Events]
//Background and Video events
0,0,"1472074999284.png",0,0
//Break Periods
2,28084,38553
2,168815,187855
2,300143,320413
//Storyboard Layer 0 (Background)
//Storyboard Layer 1 (Fail)
//Storyboard Layer 2 (Pass)
//Storyboard Layer 3 (Foreground)
//Storyboard Sound Samples

[TimingPoints]
1374,348.837209302326,4,2,0,100,1,0
5385,-100,4,2,0,5,0,0
5560,-200,4,2,0,50,0,0
5603,-200,4,2,0,5,0,0
9571,-133.333333333333,4,2,0,50,0,0
11141,-200,4,2,0,50,0,0
11185,-200,4,2,0,5,0,0
15153,-200,4,2,0,50,0,0
15327,-133.333333333333,4,2,0,50,0,0
16374,-100,4,2,0,50,0,0
16722,-200,4,2,0,50,0,0
16766,-200,4,2,0,5,0,0
19339,-200,4,2,0,50,0,0
19513,-133.333333333333,4,2,0,50,0,0
22304,-200,4,2,0,50,0,0
24397,-133.333333333333,4,2,0,50,0,0
27536,-200,4,2,0,50,0,0
39048,-200,4,2,0,75,0,0
61374,-100,4,1,0,70,0,0
72362,-100,4,1,0,5,0,0
72536,-76.9230769230769,4,1,0,75,0,1
117187,-133.333333333333,4,1,0,75,0,0
117275,-133.333333333333,4,1,0,5,0,0
122420,-200,4,1,0,75,0,0
122769,-200,4,1,0,75,0,0
122812,-200,4,1,0,5,0,0
125560,-200,4,1,0,75,0,0
125603,-200,4,1,0,5,0,0
128350,-200,4,1,0,75,0,0
128394,-200,4,1,0,5,0,0
131141,-200,4,1,0,75,0,0
131185,-200,4,1,0,5,0,0
133932,-200,4,1,0,75,0,0
133975,-200,4,1,0,5,0,0
136722,-200,4,1,0,100,0,0
144920,-76.9230769230769,4,1,0,5,0,0
145094,-100,4,2,0,40,0,0
145792,-200,4,2,0,40,0,0
146490,-50,4,2,0,40,0,0
147536,-100,4,2,0,40,0,0
147885,-200,4,2,0,40,0,0
149280,-50,4,2,0,40,0,0
150327,-133.333333333333,4,2,0,40,0,0
150676,-100,4,2,0,40,0,0
151373,-200,4,2,0,40,0,0
152071,-35,4,2,0,40,0,0
153118,-66.6666666666667,4,2,0,40,0,0
153467,-200,4,2,0,40,0,0
155560,-166.666666666667,4,2,0,40,0,0
156257,-100,4,2,0,40,0,0
157653,-50,4,2,0,40,0,0
158699,-100,4,2,0,40,0,0
159048,-100,4,2,0,40,0,0
160443,-50,4,2,0,40,0,0
161141,-66.6666666666667,4,2,0,40,0,0
161839,-100,4,2,0,40,0,0
162536,-200,4,2,0,40,0,0
163234,-50,4,2,0,40,0,0
164280,-100,4,2,0,40,0,0
164629,-100,4,2,0,40,0,0
165327,-200,4,2,0,40,0,0
188350,-100,4,1,0,40,0,0
193932,-100,4,1,0,45,0,0
194280,-133.333333333333,4,1,0,45,0,0
194629,-100,4,1,0,45,0,0
194978,-133.333333333333,4,1,0,45,0,0
196025,-100,4,1,0,50,0,0
196374,-133.333333333333,4,1,0,50,0,0
198118,-100,4,1,0,60,0,0
198467,-133.333333333333,4,1,0,60,0,0
198815,-100,4,1,0,60,0,0
199164,-133.333333333333,4,1,0,60,0,0
199513,-100,4,1,0,60,0,0
205094,-100,4,1,0,70,0,0
207885,-100,4,1,0,80,0,0
208932,-50,4,1,0,80,0,0
209280,-100,4,1,0,80,0,0
210065,-100,4,1,0,5,0,0
210153,-100,4,3,0,60,0,0
210676,-66.6666666666667,4,1,0,90,0,1
211025,-200,4,1,0,90,0,1
211548,-100,4,1,0,90,0,1
211722,-50,4,1,0,90,0,1
212071,-66.6666666666667,4,1,0,90,0,1
212420,-200,4,1,0,90,0,1
213467,-66.6666666666667,4,1,0,90,0,1
213815,-200,4,1,0,90,0,1
214339,-100,4,1,0,90,0,1
214513,-50,4,1,0,90,0,1
214862,-66.6666666666667,4,1,0,90,0,1
215211,-200,4,1,0,90,0,1
215996,-100,4,1,0,90,0,1
216257,-66.6666666666667,4,1,0,90,0,1
216606,-200,4,1,0,90,0,1
217129,-100,4,1,0,90,0,1
217304,-50,4,1,0,90,0,1
217653,-66.6666666666667,4,1,0,90,0,1
218001,-200,4,1,0,90,0,1
219048,-66.6666666666667,4,1,0,90,0,1
219397,-200,4,1,0,90,0,1
220094,-100,4,1,0,90,0,1
221141,-100,4,1,0,90,0,1
221490,-50,4,1,0,90,0,1
221839,-66.6666666666667,4,1,0,90,0,1
222187,-200,4,1,0,90,0,1
222711,-100,4,1,0,90,0,1
222885,-50,4,1,0,90,0,1
223234,-66.6666666666667,4,1,0,90,0,1
223583,-200,4,1,0,90,0,1
224629,-66.6666666666667,4,1,0,90,0,1
224978,-200,4,1,0,90,0,1
225501,-100,4,1,0,90,0,1
225676,-50,4,1,0,90,0,1
226025,-66.6666666666667,4,1,0,90,0,1
226374,-200,4,1,0,90,0,1
226635,-100,4,1,0,90,0,1
227071,-50,4,1,0,90,0,1
227420,-66.6666666666667,4,1,0,90,0,1
229164,-50,4,1,0,90,0,1
233001,-66.6666666666667,4,1,0,90,0,1
235443,-50,4,1,0,90,0,1
235792,-66.6666666666667,4,1,0,90,0,1
236839,-50,4,1,0,90,0,1
237187,-66.6666666666667,4,1,0,90,0,1
238583,-66.6666666666667,4,1,0,90,0,1
241025,-50,4,1,0,90,0,1
241374,-66.6666666666667,4,1,0,90,0,1
244164,-66.6666666666667,4,1,0,90,0,1
246606,-50,4,1,0,90,0,1
246955,-66.6666666666667,4,1,0,90,0,1
248001,-50,4,1,0,90,0,1
248350,-66.6666666666667,4,1,0,90,0,1
249397,-30,4,1,0,90,0,1
249746,-66.6666666666667,4,1,0,90,0,1
253932,-66.6666666666667,4,1,0,90,0,0
254717,-66.6666666666667,4,1,0,5,0,0
254804,-66.6666666666667,4,3,0,60,0,0
255327,-66.6666666666667,4,1,0,90,0,1
255676,-200,4,1,0,90,0,1
256374,-50,4,1,0,90,0,1
256722,-66.6666666666667,4,1,0,90,0,1
257071,-200,4,1,0,90,0,1
257769,-50,4,1,0,90,0,1
258118,-66.6666666666667,4,1,0,90,0,1
258467,-200,4,1,0,90,0,1
259164,-50,4,1,0,90,0,1
259513,-66.6666666666667,4,1,0,90,0,1
259862,-200,4,1,0,90,0,1
260560,-50,4,1,0,90,0,1
260908,-66.6666666666667,4,1,0,90,0,1
261257,-200,4,1,0,90,0,1
261955,-50,4,1,0,90,0,1
262304,-66.6666666666667,4,1,0,90,0,1
263699,-50,4,1,0,75,0,0
266490,-66.6666666666667,4,1,0,90,0,1
267536,-50,4,1,0,90,0,1
267885,-66.6666666666667,4,1,0,90,0,1
270327,-50,4,1,0,90,0,1
270676,-66.6666666666667,4,1,0,90,0,1
272071,-50,4,1,0,90,0,1
276257,-30,4,1,0,90,0,1
277653,-100,4,1,0,90,0,1
278699,-50,4,1,0,90,0,1
279048,-100,4,1,0,90,0,1
281490,-50,4,1,0,90,0,1
282187,-100,4,1,0,90,0,1
284280,-50,4,1,0,90,0,1
284629,-100,4,1,0,90,0,1
287071,-50,4,1,0,90,0,1
287420,-100,4,1,0,90,0,1
288467,-50,4,1,0,90,0,1
288815,-100,4,1,0,90,0,1
289862,-50,4,1,0,90,0,1
290211,-100,4,1,0,90,0,1
292653,-50,4,1,0,90,0,1
293001,-100,4,1,0,90,0,1
294397,-66.6666666666667,4,1,0,90,0,1
298583,-50,4,1,0,50,0,1
298932,-40,4,1,0,50,0,1
299281,279.06976744186,4,1,0,50,1,0
299281,-20,4,1,0,50,0,0
299978,348.837209302326,4,1,0,100,1,0
320908,-133.333333333333,4,3,0,50,0,0
322303,-100,4,1,0,60,0,0
333466,-100,4,1,0,70,0,0
336257,-100,4,1,0,75,0,0
339047,-100,4,1,0,80,0,0
339396,-83.3333333333333,4,1,0,90,0,0
339745,-71.4285714285714,4,1,0,90,0,0
340094,-62.5,4,1,0,90,0,0
340443,-55.5555555555556,4,1,0,90,0,0
340791,-50,4,1,0,90,0,0
341140,-40,4,1,0,90,0,0
341489,-30,4,1,0,90,0,0
341838,-20,4,1,0,90,0,0
342187,-15,4,1,0,90,0,0
342536,-5,4,1,0,100,0,0
342884,-1,4,1,0,100,0,0
343233,-100,4,2,0,50,0,0
343931,-100,4,3,0,70,0,0
344629,-100,4,1,0,100,0,1
345239,-83.3333333333333,4,1,0,100,0,1
345501,-71.4285714285714,4,1,0,100,0,1
345762,-62.5,4,1,0,100,0,1
346024,-66.6666666666667,4,1,0,100,0,1
347419,-66.6666666666667,4,1,0,100,0,1
347768,-100,4,1,0,100,0,1
348466,-50,4,1,0,100,0,1
348815,-66.6666666666667,4,1,0,100,0,1
349164,-100,4,1,0,100,0,1
349861,-50,4,1,0,100,0,1
350210,-66.6666666666667,4,1,0,100,0,1
350559,-100,4,1,0,100,0,1
351257,-50,4,1,0,100,0,1
351605,-66.6666666666667,4,1,0,100,0,1
351954,-200,4,1,0,100,0,1
352652,-50,4,1,0,100,0,1
353001,-66.6666666666667,4,1,0,100,0,1
354047,-50,4,1,0,100,0,1
354396,-66.6666666666667,4,1,0,100,0,1
355791,-66.6666666666667,4,1,0,100,0,1
356140,-100,4,1,0,100,0,1
356838,-50,4,1,0,100,0,1
358582,-66.6666666666667,4,1,0,100,0,1
358931,-200,4,1,0,100,0,1
359629,-50,4,1,0,100,0,1
359978,-66.6666666666667,4,1,0,100,0,1
360326,-100,4,1,0,100,0,1
361024,-50,4,1,0,100,0,1
361373,-66.6666666666667,4,1,0,100,0,1
362071,-50,4,1,0,100,0,1
366954,-66.6666666666667,4,1,0,100,0,1
367303,-100,4,1,0,100,0,1
368001,-50,4,1,0,100,0,1
368350,-100,4,1,0,100,0,1
369396,-50,4,1,0,100,0,1
369745,-66.6666666666667,4,1,0,100,0,1
370094,-100,4,1,0,100,0,1
370791,-50,4,1,0,100,0,1
371140,-66.6666666666667,4,1,0,100,0,1
371489,-100,4,1,0,100,0,1
372187,-50,4,1,0,100,0,1
372536,-66.6666666666667,4,1,0,100,0,1
372884,-100,4,1,0,100,0,1
374978,-50,4,1,0,100,0,1
375326,-66.6666666666667,4,1,0,100,0,1
376024,-50,4,1,0,100,0,1
376373,-100,4,1,0,100,0,1
376722,-50,4,1,0,100,0,1
377419,-30,4,1,0,100,0,1
377768,-50,4,1,0,100,0,1
378117,-66.6666666666667,4,1,0,100,0,1
378466,-100,4,1,0,100,0,1
379164,-50,4,1,0,100,0,1
379512,-66.6666666666667,4,1,0,100,0,1
379861,-100,4,1,0,100,0,1
380559,-50,4,1,0,100,0,1
380908,-66.6666666666667,4,1,0,100,0,1
381257,-100,4,1,0,100,0,1
381954,-50,4,1,0,100,0,1
382303,-66.6666666666667,4,1,0,100,0,1
382652,-100,4,1,0,100,0,1
383088,-50,4,1,0,100,0,1
383698,-66.6666666666667,4,1,0,100,0,1
384745,-50,4,1,0,100,0,1
386489,-30,4,1,0,100,0,1
388582,-50,4,1,0,100,0,1
388931,-100,4,1,0,100,0,1
389280,-200,4,2,0,50,0,0
389323,-200,4,2,0,5,0,0
392071,-200,4,2,0,50,0,0
392114,-200,4,2,0,5,0,0
394861,-200,4,2,0,50,0,0
394905,-200,4,2,0,5,0,0
397652,-200,4,2,0,50,0,0
397696,-200,4,2,0,5,0,0
400443,-200,4,2,0,50,0,0
400486,-200,4,2,0,5,0,0
403233,-200,4,2,0,50,0,0
403277,-200,4,2,0,5,0,0
406024,-300,4,2,0,50,0,0
406068,-300,4,2,0,5,0,0
411605,-300,4,2,0,20,0,0
412303,-300,4,2,0,10,0,0
413001,-300,4,2,0,8,0,0
413698,-300,4,2,0,5,0,0

[HitObjects]
256,192,1374,12,0,5385,0:0:0:0:
76,80,5560,6,0,B|147:140|176:230|122:341|122:341|160:276|249:210|300:192|355:202|377:231|374:262|329:306|278:279|258:252|254:229|254:229|268:194|272:166|267:135|267:135|300:156|330:157|365:149|393:130|402:100,1,935,6|0,0:0|0:0,0:0:0:0:
309,11,9571,1,0,0:0:0:0:
309,11,9658,1,0,0:0:0:0:
309,11,9746,2,0,P|325:58|325:85,1,63.7500024318696,0|0,0:0|0:0,0:0:0:0:
314,236,10094,1,0,0:0:0:0:
126,128,10269,6,0,P|173:144|200:144,1,63.7500024318696,0|0,0:0|0:0,0:0:0:0:
325,71,10618,1,0,0:0:0:0:
227,15,10792,6,0,P|243:62|243:89,1,63.7500024318696,0|0,0:0|0:0,0:0:0:0:
211,224,11141,6,0,B|204:278|187:315|166:347|166:347|215:311|297:282|376:282|376:282|345:287|314:305|292:335|292:335|304:296|311:252|315:196|304:158|275:146|275:146|271:178|337:225|392:215|440:167|440:167|407:178|370:170,1,935,6|0,0:0|0:0,0:0:0:0:
409,87,15153,1,0,0:0:0:0:
409,87,15240,1,0,0:0:0:0:
409,87,15327,6,0,P|385:78|372:78,3,31.8750012159348
321,121,15676,2,0,L|280:126,3,31.8750012159348
221,57,16025,2,0,L|262:62,3,31.8750012159348,0|0|0|0,0:0|0:0|0:0|0:0,0:0:0:0:
141,61,16374,6,0,P|167:117|230:135,1,127.5
131,137,16722,6,0,B|89:141|43:134|12:111|12:111|55:163|81:251|81:251|89:320|34:334|3:291|24:250|73:226|73:226|108:267|179:274|220:237,1,616.25,6|0,0:0|0:0,0:0:0:0:
212,169,19339,1,0,0:0:0:0:
212,169,19426,1,0,0:0:0:0:
212,169,19514,2,0,P|255:152|278:152,1,63.7500024318696,0|0,0:0|0:0,0:0:0:0:
379,248,19862,1,0,0:0:0:0:
353,123,20036,5,0,0:0:0:0:
358,96,20124,1,0,0:0:0:0:
363,70,20211,2,0,P|406:53|429:53,1,63.7500024318696,0|0,0:0|0:0,0:0:0:0:
305,197,20560,1,0,0:0:0:0:
305,197,20647,1,0,0:0:0:0:
305,197,20734,1,0,0:0:0:0:
438,267,20908,6,0,P|409:252|376:247,1,63.7500024318696,0|0,0:0|0:0,0:0:0:0:
306,281,21170,1,0,0:0:0:0:
299,296,21257,2,0,P|305:317|306:338,3,31.8750012159348,0|0|0|0,0:0|0:0|0:0|0:0,0:0:0:0:
220,252,21606,5,0,0:0:0:0:
215,225,21694,1,0,0:0:0:0:
210,199,21780,1,0,0:0:0:0:
168,314,21955,2,0,P|211:330|234:330,1,63.7500024318696,0|0,0:0|0:0,0:0:0:0:
302,195,22304,6,0,B|317:69|317:69|332:115,2,170,6|0|0,0:0|0:0|0:0,0:0:0:0:
373,170,24048,1,0,0:0:0:0:
269,284,24222,1,0,0:0:0:0:
269,284,24309,1,0,0:0:0:0:
269,284,24397,2,0,P|312:267|335:267,1,63.7500024318696
408,245,24746,6,0,P|429:253|443:255,3,31.8750012159348,0|0|0|0,0:0|0:0|0:0|0:0,0:0:0:0:
445,175,25094,5,0,0:0:0:0:
442,164,25181,1,0,0:0:0:0:
440,153,25268,1,0,0:0:0:0:
439,143,25355,1,0,0:0:0:0:
448,119,25443,2,0,P|422:104|366:103,1,63.7500024318696,0|0,0:0|0:0,0:0:0:0:
269,159,25792,1,0,0:0:0:0:
90,199,25967,6,0,P|116:214|172:215,1,63.7500024318696,0|0,0:0|0:0,0:0:0:0:
269,159,26316,1,0,0:0:0:0:
148,134,26490,5,0,0:0:0:0:
148,134,26664,1,0,0:0:0:0:
242,245,26839,2,0,P|281:249|313:239,1,63.7500024318696,0|0,0:0|0:0,0:0:0:0:
296,75,27187,2,0,P|264:70|233:76,1,63.7500024318696,0|0,0:0|0:0,0:0:0:0:
269,159,27536,6,0,L|355:153,1,85,0|6,0:0|0:0,0:0:0:0:
77,56,39048,5,0,0:0:0:0:
77,56,39397,1,8,0:0:0:0:
77,56,39746,1,0,0:0:0:0:
77,56,40094,1,8,0:0:0:0:
77,56,40443,1,0,0:0:0:0:
77,56,40792,1,8,0:0:0:0:
77,56,41141,1,0,0:0:0:0:
77,56,41489,1,8,0:0:0:0:
137,107,41839,5,0,0:0:0:0:
145,108,42187,1,8,0:0:0:0:
153,109,42536,1,0,0:0:0:0:
161,110,42885,1,8,0:0:0:0:
169,110,43234,1,0,0:0:0:0:
177,111,43583,1,8,0:0:0:0:
185,112,43932,1,0,0:0:0:0:
193,112,44280,1,8,0:0:0:0:
107,160,44629,5,0,0:0:0:0:
107,175,44978,1,8,0:0:0:0:
103,192,45326,1,0,0:0:0:0:
97,208,45675,1,8,0:0:0:0:
87,223,46024,1,0,0:0:0:0:
75,235,46373,1,8,0:0:0:0:
60,245,46722,1,0,0:0:0:0:
44,252,47070,1,8,0:0:0:0:
168,263,47420,5,0,0:0:0:0:
168,263,47769,1,8,0:0:0:0:
168,263,48118,1,0,0:0:0:0:
168,263,48466,1,8,0:0:0:0:
168,263,48815,1,0,0:0:0:0:
168,263,49164,1,8,0:0:0:0:
168,263,49513,2,0,P|209:279|245:277,1,63.75,0|0,0:0|0:0,0:0:0:0:
261,208,49862,2,0,L|216:210,1,42.5,8|0,0:0|0:0,0:0:0:0:
359,308,50211,5,0,0:0:0:0:
359,308,50385,1,0,0:0:0:0:
337,118,50560,1,0,0:0:0:0:
261,208,50734,1,0,0:0:0:0:
443,152,50908,1,0,0:0:0:0:
261,208,51083,1,0,0:0:0:0:
348,214,51257,1,0,0:0:0:0:
236,110,51432,6,0,P|188:88|141:83,1,85,0|0,0:0|0:0,0:0:0:0:
3,154,51955,1,0,0:0:0:0:
114,188,52129,1,0,0:0:0:0:
48,42,52304,1,0,0:0:0:0:
156,83,52478,1,0,0:0:0:0:
39,241,52653,2,0,P|53:280|72:301,1,63.75
138,338,53001,5,0,0:0:0:0:
138,338,53176,1,0,0:0:0:0:
327,320,53350,1,0,0:0:0:0:
228,261,53525,1,0,0:0:0:0:
330,159,53699,1,0,0:0:0:0:
427,266,53874,1,0,0:0:0:0:
238,169,54048,1,0,0:0:0:0:
422,148,54222,6,0,P|434:106|429:59,1,85
271,45,54746,1,0,0:0:0:0:
345,97,54920,1,0,0:0:0:0:
156,80,55094,1,0,0:0:0:0:
345,97,55269,1,0,0:0:0:0:
143,163,55443,2,0,B|128:175|124:180|124:180|114:177|98:161|98:161|77:154,1,63.75
4,181,55792,5,0,0:0:0:0:
4,181,55967,1,0,0:0:0:0:
189,189,56141,1,0,0:0:0:0:
93,251,56315,1,0,0:0:0:0:
43,75,56490,1,0,0:0:0:0:
156,80,56664,1,0,0:0:0:0:
4,181,56839,1,0,0:0:0:0:
189,189,57013,6,0,P|234:217|272:221,1,85,0|0,0:0|0:0,0:0:0:0:
276,79,57536,1,0,0:0:0:0:
156,80,57711,1,0,0:0:0:0:
327,160,57885,1,0,0:0:0:0:
276,79,58060,1,0,0:0:0:0:
155,187,58234,2,0,B|168:205|167:222|167:222|157:238|160:253,1,63.75
190,333,58583,5,0,0:0:0:0:
190,333,58757,1,0,0:0:0:0:
54,229,58932,1,0,0:0:0:0:
160,247,59106,1,0,0:0:0:0:
6,329,59280,1,0,0:0:0:0:
120,171,59455,1,0,0:0:0:0:
93,306,59629,1,0,0:0:0:0:
46,140,59804,6,0,P|47:95|35:67,1,63.75
17,45,60153,1,0,0:0:0:0:
185,15,60327,1,0,0:0:0:0:
155,130,60501,1,0,0:0:0:0:
292,35,60676,1,0,0:0:0:0:
262,150,60850,1,0,0:0:0:0:
399,55,61025,1,0,0:0:0:0:
369,170,61199,1,0,0:0:0:0:
470,251,61374,6,0,B|426:259|417:256|417:256|380:270,1,85,2|0,0:0|0:0,0:0:0:0:
42,251,61722,2,0,B|86:259|95:256|95:256|132:270,1,85,2|0,0:0|0:0,0:0:0:0:
369,170,62071,6,0,P|331:190|306:227,1,85,2|0,0:0|0:0,0:0:0:0:
143,170,62420,2,0,P|181:190|206:227,1,85,2|0,0:0|0:0,0:0:0:0:
471,74,62769,6,0,B|427:66|418:69|418:69|381:55,1,85,2|0,0:0|0:0,0:0:0:0:
43,74,63117,2,0,B|87:66|96:69|96:69|133:55,1,85,2|0,0:0|0:0,0:0:0:0:
369,214,63467,6,0,P|331:194|306:157,1,85,2|0,0:0|0:0,0:0:0:0:
143,214,63816,2,0,P|181:194|206:157,1,85,2|0,0:0|0:0,0:0:0:0:
356,298,64164,6,0,L|369:208,1,85,2|0,0:0|0:0,0:0:0:0:
156,298,64513,2,0,L|143:208,1,85,2|0,0:0|0:0,0:0:0:0:
452,160,64862,6,0,L|399:83,1,85,2|0,0:0|0:0,0:0:0:0:
60,160,65211,2,0,L|113:83,1,85,2|0,0:0|0:0,0:0:0:0:
432,4,65560,6,0,L|340:10,1,85,2|0,0:0|0:0,0:0:0:0:
80,4,65908,2,0,L|172:10,1,85,2|0,0:0|0:0,0:0:0:0:
369,214,66257,6,0,P|331:194|306:157,1,85,2|0,0:0|0:0,0:0:0:0:
143,214,66606,2,0,P|181:194|206:157,1,85,2|0,0:0|0:0,0:0:0:0:
33,186,66955,5,8,0:0:0:0:
48,281,67129,1,2,0:0:0:0:
158,119,67304,5,8,0:0:0:0:
143,214,67478,1,2,0:0:0:0:
246,262,67653,5,8,0:0:0:0:
261,357,67827,1,2,0:0:0:0:
371,195,68002,5,8,0:0:0:0:
356,290,68176,1,2,0:0:0:0:
265,138,68350,5,8,0:0:0:0:
485,126,68525,1,2,0:0:0:0:
371,195,68699,5,8,0:0:0:0:
293,2,68874,1,2,0:0:0:0:
437,0,69048,5,8,0:0:0:0:
291,215,69223,1,2,0:0:0:0:
205,93,69397,5,8,0:0:0:0:
369,329,69572,1,2,0:0:0:0:
291,215,69746,5,2,0:0:0:0:
270,209,69833,1,2,0:0:0:0:
249,206,69920,1,2,0:0:0:0:
228,204,70007,1,2,0:0:0:0:
205,206,70094,1,10,0:0:0:0:
179,208,70181,1,2,0:0:0:0:
154,214,70268,1,2,0:0:0:0:
131,224,70355,1,2,0:0:0:0:
110,245,70443,5,10,0:0:0:0:
94,274,70530,1,2,0:0:0:0:
91,316,70618,1,2,0:0:0:0:
120,357,70705,1,2,0:0:0:0:
177,372,70792,1,10,0:0:0:0:
242,355,70879,1,2,0:0:0:0:
275,285,70967,2,0,P|307:273|335:271,1,42.5,2|0,0:0|0:0,0:0:0:0:
256,192,71141,12,0,72362,0:0:0:0:
369,59,72536,5,6,0:0:0:0:
369,59,72711,1,0,0:0:0:0:
247,99,72885,1,8,0:0:0:0:
443,162,73060,1,0,0:0:0:0:
247,226,73234,1,2,0:0:0:0:
369,266,73408,1,2,0:0:0:0:
247,99,73583,1,8,0:0:0:0:
282,316,73757,6,0,B|254:309|231:330|231:330|205:316|176:328,1,110.499994941712,0|2,0:0|0:0,0:0:0:0:
93,375,74106,1,0,0:0:0:0:
81,159,74280,1,8,0:0:0:0:
216,326,74455,1,0,0:0:0:0:
8,271,74629,1,0,0:0:0:0:
210,194,74804,1,2,0:0:0:0:
93,375,74978,2,0,P|131:334|134:274,1,110.499994941712,8|2,0:0|0:0,0:0:0:0:
81,159,75327,5,2,0:0:0:0:
81,159,75501,1,0,0:0:0:0:
121,37,75676,1,8,0:0:0:0:
184,233,75851,1,0,0:0:0:0:
248,37,76025,1,0,0:0:0:0:
288,159,76199,1,2,0:0:0:0:
121,37,76374,1,8,0:0:0:0:
339,75,76548,6,0,B|374:90|374:90|395:79|402:102|402:102|440:121,1,110.499994941712,0|2,0:0|0:0,0:0:0:0:
469,216,76897,1,0,0:0:0:0:
278,269,77071,1,8,0:0:0:0:
469,216,77245,1,0,0:0:0:0:
278,269,77420,1,2,0:0:0:0:
505,337,77594,1,2,0:0:0:0:
351,156,77769,2,0,P|297:163|252:133,1,110.499994941712,8|2,0:0|0:0,0:0:0:0:
140,72,78118,5,2,0:0:0:0:
140,72,78292,1,0,0:0:0:0:
4,209,78467,1,8,0:0:0:0:
190,259,78641,1,0,0:0:0:0:
4,209,78815,1,0,0:0:0:0:
140,72,78990,1,2,0:0:0:0:
112,180,79164,1,8,0:0:0:0:
234,29,79339,6,0,B|282:57|282:57|303:115,1,110.499994941712,0|2,0:0|0:0,0:0:0:0:
362,243,79687,1,0,0:0:0:0:
226,106,79862,1,8,0:0:0:0:
412,56,80036,1,0,0:0:0:0:
226,106,80210,1,0,0:0:0:0:
362,243,80385,1,2,0:0:0:0:
412,56,80560,2,0,P|359:69|309:40,1,110.499994941712,8|0,0:0|0:0,0:0:0:0:
270,196,80908,5,2,0:0:0:0:
270,196,81083,1,0,0:0:0:0:
416,370,81257,1,8,0:0:0:0:
256,356,81432,1,0,0:0:0:0:
429,210,81606,1,0,0:0:0:0:
416,370,81780,1,2,0:0:0:0:
256,356,81955,1,8,0:0:0:0:
270,196,82129,6,0,B|247:180|215:185|215:185|196:162|168:150,1,110.499994941712,0|2,0:0|0:0,0:0:0:0:
99,284,82478,1,0,0:0:0:0:
257,271,82653,1,8,0:0:0:0:
243,113,82827,1,0,0:0:0:0:
85,126,83001,1,2,0:0:0:0:
243,113,83176,1,2,0:0:0:0:
257,271,83350,1,8,0:0:0:0:
99,284,83525,1,2,0:0:0:0:
169,194,83699,5,6,0:0:0:0:
169,194,83874,1,0,0:0:0:0:
191,380,84048,1,8,0:0:0:0:
341,267,84222,1,0,0:0:0:0:
191,380,84397,1,0,0:0:0:0:
276,181,84571,1,2,0:0:0:0:
126,293,84745,1,8,0:0:0:0:
298,366,84920,6,0,P|356:376|405:350,1,110.499994941712,0|2,0:0|0:0,0:0:0:0:
382,167,85269,1,0,0:0:0:0:
235,281,85443,1,8,0:0:0:0:
341,267,85618,1,0,0:0:0:0:
171,197,85792,1,0,0:0:0:0:
362,258,85967,1,2,0:0:0:0:
145,287,86141,6,0,B|115:298|115:298|91:270|69:294|43:267,1,110.499994941712,8|2,0:0|0:0,0:0:0:0:
54,113,86490,5,2,0:0:0:0:
54,113,86664,1,0,0:0:0:0:
237,24,86839,1,8,0:0:0:0:
144,206,87013,1,0,0:0:0:0:
113,3,87187,1,0,0:0:0:0:
259,150,87362,1,2,0:0:0:0:
54,113,87536,1,8,0:0:0:0:
305,76,87711,6,0,B|363:73|363:73|405:40,1,110.499994941712,0|2,0:0|0:0,0:0:0:0:
431,226,88060,1,0,0:0:0:0:
292,212,88234,1,8,0:0:0:0:
305,76,88408,1,0,0:0:0:0:
443,88,88583,1,2,0:0:0:0:
292,212,88757,1,2,0:0:0:0:
261,20,88932,1,8,0:0:0:0:
261,20,89106,1,2,0:0:0:0:
193,176,89280,5,2,0:0:0:0:
193,176,89455,1,0,0:0:0:0:
121,332,89629,1,8,0:0:0:0:
291,317,89804,1,0,0:0:0:0:
193,176,89978,1,0,0:0:0:0:
210,373,90153,1,2,0:0:0:0:
282,218,90328,1,8,0:0:0:0:
111,233,90501,6,0,P|58:219|27:169,1,110.499994941712,0|2,0:0|0:0,0:0:0:0:
82,24,90850,1,0,0:0:0:0:
185,148,91025,1,8,0:0:0:0:
246,61,91199,1,0,0:0:0:0:
349,185,91374,1,0,0:0:0:0:
473,82,91548,1,2,0:0:0:0:
413,0,91722,1,8,0:0:0:0:
413,0,91897,1,0,0:0:0:0:
349,185,92071,5,2,0:0:0:0:
349,185,92246,1,0,0:0:0:0:
461,222,92420,1,8,0:0:0:0:
461,339,92594,1,0,0:0:0:0:
349,375,92769,1,0,0:0:0:0:
281,280,92943,1,2,0:0:0:0:
461,339,93118,1,8,0:0:0:0:
260,363,93292,6,0,B|205:358|205:358|190:368|147:373,1,110.499994941712,0|2,0:0|0:0,0:0:0:0:
60,320,93641,5,0,0:0:0:0:
38,290,93728,1,0,0:0:0:0:
33,254,93815,1,0,0:0:0:0:
45,219,93902,1,0,0:0:0:0:
72,194,93989,1,0,0:0:0:0:
107,184,94077,1,0,0:0:0:0:
143,192,94164,5,0,0:0:0:0:
178,150,94251,1,0,0:0:0:0:
178,96,94338,1,0,0:0:0:0:
142,55,94425,1,0,0:0:0:0:
89,47,94513,5,0,0:0:0:0:
114,36,94600,1,0,0:0:0:0:
140,28,94687,1,0,0:0:0:0:
167,23,94774,1,0,0:0:0:0:
195,24,94862,5,6,0:0:0:0:
195,24,95036,1,0,0:0:0:0:
238,101,95211,1,0,0:0:0:0:
326,3,95385,1,0,0:0:0:0:
383,123,95560,1,8,0:0:0:0:
426,46,95734,1,0,0:0:0:0:
481,189,95908,1,0,0:0:0:0:
337,202,96083,6,0,P|272:204|232:232,1,110.499994941712,0|2,0:0|0:0,0:0:0:0:
214,359,96432,1,0,0:0:0:0:
137,316,96607,1,0,0:0:0:0:
235,228,96781,1,0,0:0:0:0:
115,171,96956,1,8,0:0:0:0:
192,128,97130,1,0,0:0:0:0:
49,73,97304,2,0,P|104:50|160:45,1,110.499994941712,0|0,0:0|0:0,0:0:0:0:
320,84,97653,5,6,0:0:0:0:
320,84,97827,1,0,0:0:0:0:
192,128,98001,1,0,0:0:0:0:
269,171,98176,1,0,0:0:0:0:
171,259,98350,1,8,0:0:0:0:
291,316,98525,1,0,0:0:0:0:
214,359,98699,1,0,0:0:0:0:
331,235,98874,6,0,P|383:211|442:221,1,110.499994941712,0|2,0:0|0:0,0:0:0:0:
480,292,99222,1,0,0:0:0:0:
331,235,99397,1,0,0:0:0:0:
404,186,99571,1,0,0:0:0:0:
255,129,99746,1,8,0:0:0:0:
468,88,99920,1,0,0:0:0:0:
331,235,100094,2,0,P|287:266|222:262,1,110.499994941712,0|0,0:0|0:0,0:0:0:0:
118,217,100443,5,6,0:0:0:0:
118,217,100618,1,0,0:0:0:0:
84,97,100792,1,0,0:0:0:0:
162,139,100967,1,0,0:0:0:0:
6,55,101141,1,8,0:0:0:0:
160,51,101315,1,0,0:0:0:0:
118,217,101490,1,0,0:0:0:0:
162,139,101664,6,0,P|221:139|270:115,1,110.499994941712,0|2,0:0|0:0,0:0:0:0:
308,39,102013,1,0,0:0:0:0:
365,193,102187,1,0,0:0:0:0:
426,128,102362,1,0,0:0:0:0:
277,225,102536,1,8,0:0:0:0:
451,213,102711,1,0,0:0:0:0:
296,140,102885,2,0,P|236:124|184:126,1,110.499994941712,0|0,0:0|0:0,0:0:0:0:
71,209,103234,5,6,0:0:0:0:
71,209,103408,1,0,0:0:0:0:
207,294,103583,1,0,0:0:0:0:
125,328,103757,1,0,0:0:0:0:
289,260,103932,1,8,0:0:0:0:
218,206,104106,1,0,0:0:0:0:
277,346,104280,1,0,0:0:0:0:
304,169,104455,6,0,P|356:144|416:141,1,110.499994941712,0|2,0:0|0:0,0:0:0:0:
486,296,104804,1,0,0:0:0:0:
503,173,104978,1,0,0:0:0:0:
417,238,105153,1,0,0:0:0:0:
501,277,105327,1,8,0:0:0:0:
474,231,105501,1,2,0:0:0:0:
466,268,105676,2,0,P|495:239|495:156,1,110.499994941712,2|2,0:0|0:0,0:0:0:0:
394,72,106025,5,6,0:0:0:0:
394,72,106199,1,0,0:0:0:0:
292,205,106374,1,0,0:0:0:0:
251,126,106548,1,0,0:0:0:0:
162,282,106722,1,8,0:0:0:0:
120,203,106897,1,0,0:0:0:0:
208,205,107071,1,0,0:0:0:0:
34,223,107246,6,0,P|58:170|53:104,1,110.499994941712,0|2,0:0|0:0,0:0:0:0:
177,49,107594,1,0,0:0:0:0:
120,203,107768,1,0,0:0:0:0:
59,138,107943,1,0,0:0:0:0:
208,235,108117,1,8,0:0:0:0:
34,223,108292,1,0,0:0:0:0:
189,150,108466,2,0,P|249:134|301:136,1,110.499994941712,0|0,0:0|0:0,0:0:0:0:
394,224,108815,5,6,0:0:0:0:
394,224,108990,1,0,0:0:0:0:
485,55,109164,1,0,0:0:0:0:
418,113,109339,1,0,0:0:0:0:
256,2,109513,1,8,0:0:0:0:
342,17,109687,1,0,0:0:0:0:
193,63,109862,1,0,0:0:0:0:
418,113,110036,6,0,P|360:141|296:146,1,110.499994941712,0|2,0:0|0:0,0:0:0:0:
276,67,110385,1,0,0:0:0:0:
174,219,110560,1,0,0:0:0:0:
141,137,110734,1,0,0:0:0:0:
307,275,110908,1,8,0:0:0:0:
219,292,111083,1,0,0:0:0:0:
227,142,111257,1,0,0:0:0:0:
227,142,111432,1,0,0:0:0:0:
460,243,111606,5,12,0:0:0:0:
219,292,111780,1,2,0:0:0:0:
219,292,111955,1,2,0:0:0:0:
352,151,112129,5,8,0:0:0:0:
273,384,112303,1,2,0:0:0:0:
273,384,112478,1,2,0:0:0:0:
297,90,112653,5,8,0:0:0:0:
376,323,112827,1,2,0:0:0:0:
373,74,113001,5,8,0:0:0:0:
140,153,113175,1,2,0:0:0:0:
140,153,113350,1,2,0:0:0:0:
250,10,113525,5,8,0:0:0:0:
298,251,113699,1,2,0:0:0:0:
298,251,113874,1,2,0:0:0:0:
158,49,114048,5,8,0:0:0:0:
110,290,114222,1,2,0:0:0:0:
334,177,114397,5,12,0:0:0:0:
60,118,114571,1,2,0:0:0:0:
60,118,114746,1,2,0:0:0:0:
407,99,114920,5,8,0:0:0:0:
122,193,115094,1,2,0:0:0:0:
122,193,115269,1,2,0:0:0:0:
387,9,115443,5,8,0:0:0:0:
228,263,115617,1,2,0:0:0:0:
225,134,115792,6,0,P|259:115|283:111,1,55.2499974708558,10|2,0:0|0:0,0:0:0:0:
382,170,115967,2,0,P|416:189|440:193,1,55.2499974708558,2|0,0:0|0:0,0:0:0:0:
495,322,116141,6,0,P|461:341|437:345,1,55.2499974708558,10|2,0:0|0:0,0:0:0:0:
277,285,116316,2,0,P|243:266|219:262,1,55.2499974708558,2|0,0:0|0:0,0:0:0:0:
55,242,116490,5,10,0:0:0:0:
34,272,116577,1,2,0:0:0:0:
28,308,116664,1,2,0:0:0:0:
38,343,116751,1,2,0:0:0:0:
95,300,116839,5,8,0:0:0:0:
69,275,116926,1,0,0:0:0:0:
55,241,117013,1,0,0:0:0:0:
57,206,117100,1,0,0:0:0:0:
72,181,117187,6,0,B|30:107|113:87|95:18|95:18|137:102|200:45|221:100|250:123|265:90|267:59|254:37|223:51|218:81|218:81|224:148|233:172|249:213|304:234|362:220|405:166|401:108|372:63|320:52|320:52|328:95|304:125|304:125|324:115|412:127|479:188|489:233|488:311|466:347|466:347|456:306|429:260|389:245|389:245|339:280|283:284|230:265|202:232|202:232|228:335|316:362|316:362|362:353|403:370|403:370|400:337|374:312,1,1880.62507174015,6|0,0:0|0:0,0:0:0:0:
290,273,122420,2,0,P|262:268|233:255,1,42.5
123,248,122769,6,0,P|64:227|212:217,1,637.5,6|0,0:0|0:0,0:0:0:0:
132,129,125560,6,0,B|190:64|269:97|313:154|418:143|459:88|459:88|397:104|337:56|337:56|361:100|363:161|324:199,1,637.5
206,214,128350,6,0,P|238:282|244:111,1,637.5,2|0,0:0|0:0,0:0:0:0:
139,209,131141,6,0,B|124:273|133:335|147:360|147:360|119:323|73:290|12:263|12:263|54:261|96:273|96:273|68:208|74:132|83:95|83:95|91:130|105:149,1,637.5,2|0,0:0|0:0,0:0:0:0:
175,88,133932,6,0,B|217:116|265:109|311:49|395:21|461:72|477:147|462:194|399:221|332:216|305:158|291:102|289:88|289:88|279:36|240:-5|197:0,1,637.5,2|0,0:0|0:0,0:0:0:0:
256,192,136722,12,0,144920,0:0:0:0:
49,74,145094,6,0,B|102:107|102:107|165:92,2,127.5,2|2|2,0:0|0:0|0:0,0:0:0:0:
226,54,145792,6,0,B|253:43|253:43|236:84|236:84|255:128|255:128|225:121,1,148.75,0|0,0:0|0:0,0:0:0:0:
239,204,146490,6,0,P|285:203|318:173,1,85,0|0,0:0|0:0,0:0:0:0:
357,182,146664,2,0,P|339:219|302:238,1,85,0|0,0:0|0:0,0:0:0:0:
291,270,146839,6,0,P|337:269|370:239,1,85,0|0,0:0|0:0,0:0:0:0:
409,248,147013,2,0,P|391:285|354:304,1,85,0|0,0:0|0:0,0:0:0:0:
347,336,147187,6,0,P|393:335|426:305,1,85,0|0,0:0|0:0,0:0:0:0:
465,314,147361,2,0,P|447:351|410:370,1,85,0|0,0:0|0:0,0:0:0:0:
437,382,147536,6,0,B|480:359|506:357|506:357|493:315|491:284,1,127.5,0|0,0:0|0:0,0:0:0:0:
504,235,147885,2,0,B|509:199|509:199|499:165|499:165|500:140|505:124|505:124|492:106|488:81,1,148.75,0|0,0:0|0:0,0:0:0:0:
425,62,148583,2,0,B|420:98|420:98|430:132|430:132|429:157|424:173|424:173|437:191|441:216,1,148.75,0|0,0:0|0:0,0:0:0:0:
411,269,149280,6,0,B|387:266|371:252|371:252|352:261|328:258,1,85,0|0,0:0|0:0,0:0:0:0:
231,242,149455,2,0,B|254:239|270:225|270:225|289:234|313:231,1,85,0|0,0:0|0:0,0:0:0:0:
413,176,149629,6,0,B|381:172|361:153|361:153|336:165|305:161,1,113.333333333333
231,137,149862,2,0,B|262:133|282:114|282:114|307:126|338:122,1,113.333333333333
411,96,150094,2,0,B|379:92|359:73|359:73|334:85|303:81,1,113.333333333333
322,12,150327,6,0,B|296:12|278:-2|278:-2|258:7|231:3,1,95.6250036478044
105,15,150676,6,0,B|120:58|120:58|104:149,2,127.5,2|2|2,0:0|0:0|0:0,0:0:0:0:
74,179,151373,2,0,B|73:195|61:210|61:210|114:197|114:197|101:167|107:126,1,148.75
190,155,152071,6,0,B|191:178|191:178|202:152|202:152|193:123|193:95,1,80.9523809523809
257,221,152187,2,0,B|256:198|256:198|245:224|245:224|254:253|254:281,1,80.9523809523809
265,107,152304,6,0,B|266:130|266:130|277:104|277:104|268:75|268:47,1,80.9523809523809
332,173,152420,2,0,B|331:150|331:150|320:176|320:176|329:205|329:233,1,80.9523809523809
342,58,152536,6,0,B|343:81|343:81|354:55|354:55|345:26|345:-2,1,80.9523809523809
409,124,152652,2,0,B|408:101|408:101|397:127|397:127|406:156|406:184,1,80.9523809523809
442,28,152769,6,0,B|419:29|419:29|445:40|445:40|474:31|502:31,1,80.9523809523809
409,124,152885,2,0,B|432:123|432:123|406:112|406:112|377:121|349:121,1,80.9523809523809
377,223,153001,2,0,B|354:224|354:224|380:235|380:235|409:226|437:226,1,80.9523809523809
265,107,153118,6,0,B|271:90|271:90|280:113|280:113|244:143|254:201,1,127.500004863739
402,304,153467,6,0,P|405:349|442:301,1,141.666666666667,0|0,0:0|0:0,0:0:0:0:
318,327,154164,2,0,P|270:329|318:367,1,141.666666666667,0|0,0:0|0:0,0:0:0:0:
291,245,154862,2,0,P|286:197|248:245,1,141.666666666667,0|0,0:0|0:0,0:0:0:0:
377,223,155560,2,0,P|424:217|374:178,1,135.99999584961
273,172,156170,5,0,0:0:0:0:
257,159,156257,2,0,B|243:67|243:67|258:32,2,127.5,2|2|2,0:0|0:0|0:0,0:0:0:0:
182,133,156955,1,8,0:0:0:0:
173,127,157042,1,0,0:0:0:0:
163,122,157129,1,0,0:0:0:0:
154,117,157216,1,0,0:0:0:0:
128,119,157303,1,0,0:0:0:0:
117,115,157391,1,0,0:0:0:0:
107,113,157478,1,0,0:0:0:0:
97,111,157565,1,0,0:0:0:0:
70,131,157653,6,0,B|77:194|77:194|62:173,1,85,0|0,0:0|0:0,0:0:0:0:
28,290,157827,2,0,B|21:227|21:227|36:248,1,85,0|0,0:0|0:0,0:0:0:0:
147,160,158001,6,0,B|154:223|154:223|139:202,1,85,2|0,0:0|0:0,0:0:0:0:
105,319,158175,2,0,B|98:256|98:256|113:277,1,85,0|0,0:0|0:0,0:0:0:0:
224,189,158350,6,0,B|231:252|231:252|216:231,1,85,8|0,0:0|0:0,0:0:0:0:
182,348,158524,2,0,B|175:285|175:285|190:306,1,85,0|0,0:0|0:0,0:0:0:0:
300,242,158699,6,0,B|289:334|289:334|274:299,1,127.5,0|0,0:0|0:0,0:0:0:0:
377,292,159048,6,0,P|440:286|484:237,2,127.5,2|2|2,0:0|0:0|0:0,0:0:0:0:
389,168,159746,1,8,0:0:0:0:
393,181,159833,1,0,0:0:0:0:
397,194,159920,1,0,0:0:0:0:
402,208,160007,1,0,0:0:0:0:
387,198,160094,1,0,0:0:0:0:
376,167,160181,1,0,0:0:0:0:
367,140,160268,1,0,0:0:0:0:
359,112,160355,1,0,0:0:0:0:
370,44,160443,6,0,B|392:46|403:39|403:39|365:36|348:26|348:26|323:29,1,113.333333333333
254,81,160676,2,0,B|276:78|287:85|287:85|249:88|232:98|232:98|207:95,1,113.333333333333
136,50,160908,2,0,B|113:52|102:45|102:45|140:42|157:32|157:32|182:35,1,113.333333333333
127,130,161141,2,0,B|109:166|89:184|89:184|30:127|35:58,1,170.000006484986
194,207,161490,6,0,L|181:295,2,85.0000032424928
97,331,161839,6,0,B|146:293|146:293|157:226,2,127.5,2|2|2,0:0|0:0|0:0,0:0:0:0:
223,234,162536,6,0,P|259:227|224:283,1,148.75,8|0,0:0|0:0,0:0:0:0:
260,94,163234,6,0,L|268:149,1,56.6666666666667
301,218,163350,2,0,L|309:161,1,56.6666666666667
329,90,163467,6,0,L|337:145,1,56.6666666666667
370,214,163583,2,0,L|378:157,1,56.6666666666667
398,86,163699,6,0,L|406:141,1,56.6666666666667
439,210,163815,2,0,L|447:153,1,56.6666666666667
471,105,163932,6,0,L|488:217,1,113.333333333333,8|0,0:0|0:0,0:0:0:0:
504,290,164106,2,0,L|514:221,1,56.6666666666667
480,28,164222,5,0,0:0:0:0:
462,36,164280,2,0,B|447:120|447:120|473:103,1,113.333333333333
398,118,164629,6,0,P|359:71|285:69,2,127.5,2|2|2,0:0|0:0|0:0,0:0:0:0:
322,142,165327,2,0,P|331:187|261:154,1,170,8|2,0:0|0:0,0:0:0:0:
256,192,166112,12,4,167420,0:0:0:0:
76,35,188350,5,2,0:0:0:0:
77,43,188437,1,0,0:0:0:0:
78,51,188525,1,0,0:0:0:0:
147,20,188699,2,0,P|186:-1|232:1,1,85,0|0,0:0|0:0,0:0:0:0:
250,87,189048,5,0,0:0:0:0:
239,83,189135,1,0,0:0:0:0:
229,80,189222,1,0,0:0:0:0:
219,77,189309,1,0,0:0:0:0:
209,74,189397,2,0,P|248:95|294:93,1,85,0|0,0:0|0:0,0:0:0:0:
353,48,189746,5,0,0:0:0:0:
352,56,189833,1,0,0:0:0:0:
351,64,189921,1,0,0:0:0:0:
398,165,190094,2,0,L|392:118,2,42.5,0|0|0,0:0|0:0|0:0,0:0:0:0:
290,193,190443,5,0,0:0:0:0:
301,189,190530,1,0,0:0:0:0:
311,186,190617,1,0,0:0:0:0:
321,183,190704,1,0,0:0:0:0:
331,180,190792,2,0,P|292:201|246:199,1,85,0|0,0:0|0:0,0:0:0:0:
180,161,191141,5,2,0:0:0:0:
180,171,191228,1,0,0:0:0:0:
181,182,191315,1,0,0:0:0:0:
182,192,191402,1,0,0:0:0:0:
174,214,191490,2,0,L|170:260,2,42.5,2|2|2,0:0|0:0|0:0,0:0:0:0:
228,314,191839,5,2,0:0:0:0:
238,303,191926,1,2,0:0:0:0:
250,297,192013,1,2,0:0:0:0:
264,292,192100,1,2,0:0:0:0:
298,309,192187,2,0,P|322:317|345:315,2,42.5,2|2|2,0:0|0:0|0:0,0:0:0:0:
293,218,192536,5,2,0:0:0:0:
303,229,192623,1,2,0:0:0:0:
315,235,192710,1,2,0:0:0:0:
329,240,192797,1,2,0:0:0:0:
363,223,192885,2,0,P|387:215|409:215,2,42.5,10|2|2,0:0|0:0|0:0,0:0:0:0:
449,146,193234,5,2,0:0:0:0:
439,135,193321,1,2,0:0:0:0:
427,129,193408,1,2,0:0:0:0:
413,124,193495,1,2,0:0:0:0:
379,141,193582,2,0,P|355:149|332:147,2,42.5,10|2|2,0:0|0:0|0:0,0:0:0:0:
243,83,193932,6,0,P|215:76|200:74,3,42.5,2|2|2|2,0:0|0:0|0:0|0:0,0:0:0:0:
119,137,194280,2,0,L|159:132,3,31.8750012159348,10|2|2|2,0:0|0:0|0:0|0:0,0:0:0:0:
32,262,194629,6,0,P|60:269|75:271,3,42.5,2|2|2|2,0:0|0:0|0:0|0:0,0:0:0:0:
156,208,194978,2,0,L|116:213,3,31.8750012159348,10|2|2|2,0:0|0:0|0:0|0:0,0:0:0:0:
162,295,195327,5,2,0:0:0:0:
189,289,195414,1,2,0:0:0:0:
212,274,195501,1,2,0:0:0:0:
230,253,195588,1,2,0:0:0:0:
241,227,195675,1,10,0:0:0:0:
242,200,195763,1,2,0:0:0:0:
234,173,195850,1,2,0:0:0:0:
218,150,195937,1,2,0:0:0:0:
158,96,196025,6,0,P|185:91|201:85,3,42.5,2|2|2|2,0:0|0:0|0:0|0:0,0:0:0:0:
312,105,196374,2,0,L|276:98,3,31.8750012159348,10|2|2|2,0:0|0:0|0:0|0:0,0:0:0:0:
328,29,196722,5,2,0:0:0:0:
357,41,196809,1,2,0:0:0:0:
379,64,196896,1,2,0:0:0:0:
390,93,196983,1,2,0:0:0:0:
388,125,197070,1,10,0:0:0:0:
374,153,197158,1,2,0:0:0:0:
350,174,197245,1,2,0:0:0:0:
320,183,197332,1,2,0:0:0:0:
261,201,197420,5,2,0:0:0:0:
289,186,197507,1,2,0:0:0:0:
320,183,197594,1,2,0:0:0:0:
351,192,197681,1,2,0:0:0:0:
381,204,197768,1,10,0:0:0:0:
412,209,197856,1,2,0:0:0:0:
442,200,197943,1,2,0:0:0:0:
469,182,198030,1,2,0:0:0:0:
396,84,198118,6,0,P|400:112|404:127,3,42.5,2|2|2|2,0:0|0:0|0:0|0:0,0:0:0:0:
351,192,198467,2,0,L|350:236,3,31.8750012159348,10|2|2|2,0:0|0:0|0:0|0:0,0:0:0:0:
428,302,198815,6,0,P|400:306|385:310,3,42.5,2|2|2|2,0:0|0:0|0:0|0:0,0:0:0:0:
265,290,199164,2,0,L|306:294,3,31.8750012159348,10|2|2|2,0:0|0:0|0:0|0:0,0:0:0:0:
282,215,199513,5,2,0:0:0:0:
272,210,199600,1,2,0:0:0:0:
262,206,199687,1,2,0:0:0:0:
252,202,199774,1,2,0:0:0:0:
242,199,199861,1,10,0:0:0:0:
232,197,199949,1,2,0:0:0:0:
221,195,200036,1,2,0:0:0:0:
210,194,200123,1,2,0:0:0:0:
192,211,200211,5,2,0:0:0:0:
182,215,200298,1,2,0:0:0:0:
172,219,200385,1,2,0:0:0:0:
162,223,200472,1,2,0:0:0:0:
152,226,200559,1,10,0:0:0:0:
142,228,200647,1,2,0:0:0:0:
131,230,200734,1,2,0:0:0:0:
120,231,200821,1,2,0:0:0:0:
98,215,200908,5,2,0:0:0:0:
96,202,200995,1,2,0:0:0:0:
95,190,201082,1,2,0:0:0:0:
94,178,201169,1,2,0:0:0:0:
93,166,201256,1,10,0:0:0:0:
92,154,201344,1,2,0:0:0:0:
91,142,201431,1,2,0:0:0:0:
90,130,201518,1,2,0:0:0:0:
86,50,201606,5,2,0:0:0:0:
107,49,201693,1,2,0:0:0:0:
125,59,201780,1,2,0:0:0:0:
136,77,201867,1,2,0:0:0:0:
137,98,201954,1,10,0:0:0:0:
128,117,202042,1,2,0:0:0:0:
111,128,202129,1,2,0:0:0:0:
90,130,202216,1,2,0:0:0:0:
125,59,202304,5,2,0:0:0:0:
138,50,202391,1,2,0:0:0:0:
153,45,202478,1,2,0:0:0:0:
169,41,202565,1,2,0:0:0:0:
184,40,202652,1,10,0:0:0:0:
200,41,202740,1,2,0:0:0:0:
216,45,202827,1,2,0:0:0:0:
231,51,202914,1,2,0:0:0:0:
267,79,203001,5,2,0:0:0:0:
254,99,203088,1,2,0:0:0:0:
246,122,203175,1,2,0:0:0:0:
244,146,203262,1,2,0:0:0:0:
248,170,203349,1,10,0:0:0:0:
257,192,203437,1,2,0:0:0:0:
272,212,203524,1,2,0:0:0:0:
290,228,203611,1,2,0:0:0:0:
342,179,203699,5,2,0:0:0:0:
325,158,203786,1,2,0:0:0:0:
323,132,203873,1,2,0:0:0:0:
336,109,203960,1,2,0:0:0:0:
359,97,204047,1,10,0:0:0:0:
385,99,204135,1,2,0:0:0:0:
405,116,204222,1,2,0:0:0:0:
413,141,204309,1,2,0:0:0:0:
408,215,204397,6,0,L|416:260,3,42.5,2|2|2|2,0:0|0:0|0:0|0:0,0:0:0:0:
421,343,204746,2,0,L|413:388,3,42.5,10|2|2|2,0:0|0:0|0:0|0:0,0:0:0:0:
340,323,205094,5,2,0:0:0:0:
331,324,205182,1,2,0:0:0:0:
322,325,205269,2,0,L|280:329,1,42.5,2|2,0:0|0:0,0:0:0:0:
169,277,205443,5,10,0:0:0:0:
178,278,205531,1,2,0:0:0:0:
187,279,205618,2,0,L|229:283,1,42.5,2|2,0:0|0:0,0:0:0:0:
389,227,205792,5,2,0:0:0:0:
380,228,205880,1,2,0:0:0:0:
371,229,205967,2,0,L|329:233,1,42.5,2|2,0:0|0:0,0:0:0:0:
152,187,206141,5,10,0:0:0:0:
161,188,206229,1,2,0:0:0:0:
170,189,206316,2,0,L|212:193,1,42.5,2|2,0:0|0:0,0:0:0:0:
438,131,206490,5,2,0:0:0:0:
429,132,206578,1,2,0:0:0:0:
420,133,206665,2,0,L|378:137,1,42.5,2|0,0:0|0:0,0:0:0:0:
135,97,206839,5,10,0:0:0:0:
144,98,206927,1,2,0:0:0:0:
153,99,207014,2,0,L|195:103,1,42.5,2|0,0:0|0:0,0:0:0:0:
465,41,207187,5,2,0:0:0:0:
456,42,207275,1,2,0:0:0:0:
447,43,207362,2,0,L|405:47,1,42.5,2|2,0:0|0:0,0:0:0:0:
114,13,207536,5,10,0:0:0:0:
123,14,207624,1,2,0:0:0:0:
132,15,207711,2,0,L|174:19,1,42.5,2|2,0:0|0:0,0:0:0:0:
256,36,207885,6,0,L|280:36,1,21.25,8|0,0:0|0:0,0:0:0:0:
256,60,207972,2,0,L|280:60,1,21.25,0|0,0:0|0:0,0:0:0:0:
256,84,208060,2,0,L|280:84,1,21.25,0|0,0:0|0:0,0:0:0:0:
256,108,208147,2,0,L|280:108,1,21.25,0|0,0:0|0:0,0:0:0:0:
256,136,208234,6,0,L|232:136,1,21.25,8|0,0:0|0:0,0:0:0:0:
256,160,208321,2,0,L|232:160,1,21.25,0|0,0:0|0:0,0:0:0:0:
256,184,208409,2,0,L|232:184,1,21.25,0|0,0:0|0:0,0:0:0:0:
256,208,208496,2,0,L|232:208,1,21.25,0|0,0:0|0:0,0:0:0:0:
274,250,208583,6,0,L|277:273,7,21.25,8|0|0|0|0|0|0|0,0:0|0:0|0:0|0:0|0:0|0:0|0:0|0:0,0:0:0:0:
345,294,208932,6,0,L|356:314,14,21.25,8|0|0|0|0|0|0|0|0|0|0|0|0|0|0,0:0|0:0|0:0|0:0|0:0|0:0|0:0|0:0|0:0|0:0|0:0|0:0|0:0|0:0|0:0,0:0:0:0:
428,319,209280,1,2,0:0:0:0:
256,192,209368,12,0,210065,0:0:0:0:
232,70,210153,5,0,0:0:0:0:
190,62,210240,1,0,0:0:0:0:
135,67,210327,1,0,0:0:0:0:
81,101,210414,1,0,0:0:0:0:
63,166,210501,1,0,0:0:0:0:
92,237,210589,1,0,0:0:0:0:
50,314,210676,6,0,B|132:289|190:299|190:299|183:332|161:352,1,191.250007295609,6|0,0:0|0:0,0:0:0:0:
177,225,211025,6,0,L|234:215,1,42.5,8|0,0:0|0:0,0:0:0:0:
374,67,211286,2,0,L|353:120,1,42.5,2|0,0:0|0:0,0:0:0:0:
412,317,211548,2,0,L|374:272,1,42.5,2|0,0:0|0:0,0:0:0:0:
421,185,211722,6,0,B|444:170|463:128|463:128|452:203|457:276|475:305|499:313|526:297|526:267|518:239|506:236|490:232|483:233,1,255,8|0,0:0|0:0,0:0:0:0:
295,204,212071,6,0,B|206:227|158:223|158:223|156:201|166:167,1,191.250007295609,2|0,0:0|0:0,0:0:0:0:
264,109,212420,6,0,L|226:147,1,42.5,8|0,0:0|0:0,0:0:0:0:
291,315,212682,2,0,L|251:276,1,42.5,2|0,0:0|0:0,0:0:0:0:
83,343,212944,2,0,L|120:302,1,42.5,2|8,0:0|0:0,0:0:0:0:
57,134,213205,2,0,L|97:170,1,42.5,0|0,0:0|0:0,0:0:0:0:
178,281,213467,6,0,B|215:261|246:252|246:252|262:282|291:315|291:315|298:302|325:284,1,191.250007295609,2|0,0:0|0:0,0:0:0:0:
460,321,213815,6,0,P|438:320|415:313,1,42.5,8|0,0:0|0:0,0:0:0:0:
247,147,214077,2,0,P|269:148|292:155,1,42.5,2|0,0:0|0:0,0:0:0:0:
303,384,214339,2,0,P|281:383|258:376,1,42.5,2|0,0:0|0:0,0:0:0:0:
351,252,214513,6,0,B|426:245|476:217|477:175|436:103|364:151,1,255,8|0,0:0|0:0,0:0:0:0:
347,44,214862,6,0,B|290:59|267:74|267:74|240:33|201:13|201:13|156:29,1,191.250007295609
106,120,215211,6,0,L|116:176,1,42.5,8|0,0:0|0:0,0:0:0:0:
24,359,215472,2,0,L|67:321,1,42.5,2|0,0:0|0:0,0:0:0:0:
272,309,215734,2,0,L|242:298,1,21.25,2|8,0:0|0:0,0:0:0:0:
20,193,215908,1,0,0:0:0:0:
31,176,215996,2,0,P|70:161|126:164,1,85
237,225,216257,6,0,B|278:239|278:239|253:124|253:124|232:155,1,191.250007295609,6|0,0:0|0:0,0:0:0:0:
136,99,216606,6,0,L|185:93,1,42.5,8|0,0:0|0:0,0:0:0:0:
417,65,216868,2,0,L|368:71,1,42.5,2|0,0:0|0:0,0:0:0:0:
144,82,217129,2,0,L|193:76,1,42.5,2|0,0:0|0:0,0:0:0:0:
338,139,217304,2,0,B|360:169|389:190|389:190|351:239|372:310|372:310|374:280|397:251,1,255,8|0,0:0|0:0,0:0:0:0:
444,310,217653,6,0,B|402:298|356:290|356:290|313:300|299:307|299:307|262:311|246:310,1,191.250007295609,2|0,0:0|0:0,0:0:0:0:
157,309,218001,6,0,L|151:267,1,42.5,8|0,0:0|0:0,0:0:0:0:
21,264,218263,2,0,L|59:245,1,42.5,2|0,0:0|0:0,0:0:0:0:
21,124,218525,2,0,L|50:154,1,42.5,2|8,0:0|0:0,0:0:0:0:
238,194,218786,2,0,L|196:186,1,42.5,0|0,0:0|0:0,0:0:0:0:
157,80,219048,6,0,B|141:65|110:55|110:55|169:64|216:51|216:51|233:47|275:56,1,191.250007295609,2|0,0:0|0:0,0:0:0:0:
368,70,219397,2,0,P|376:92|374:122,1,42.5,8|0,0:0|0:0,0:0:0:0:
267,277,219746,5,0,0:0:0:0:
280,267,219833,1,0,0:0:0:0:
294,260,219920,1,2,0:0:0:0:
309,255,220007,1,0,0:0:0:0:
349,269,220094,2,0,P|368:275|395:277,2,42.5,8|0|0,0:0|0:0|0:0,0:0:0:0:
455,211,220443,5,2,0:0:0:0:
458,239,220530,1,0,0:0:0:0:
461,267,220617,1,0,0:0:0:0:
464,295,220704,1,0,0:0:0:0:
380,198,220792,5,8,0:0:0:0:
388,171,220879,1,0,0:0:0:0:
406,150,220966,1,0,0:0:0:0:
432,138,221053,1,0,0:0:0:0:
495,200,221141,6,0,P|468:210|450:211,1,42.5,0|0,0:0|0:0,0:0:0:0:
309,158,221315,2,0,P|282:148|264:147,1,42.5,0|0,0:0|0:0,0:0:0:0:
136,216,221490,2,0,B|154:243|156:277|156:277|179:245|169:170|125:147|162:76,1,255,8|0,0:0|0:0,0:0:0:0:
293,51,221839,6,0,B|260:38|239:7|239:7|157:23|157:23|90:4,1,191.250007295609
19,39,222187,6,0,P|14:63|14:87,1,42.5,8|0,0:0|0:0,0:0:0:0:
154,91,222449,2,0,P|129:93|106:101,1,42.5,2|0,0:0|0:0,0:0:0:0:
147,236,222711,2,0,P|136:213|122:194,1,42.5,2|0,0:0|0:0,0:0:0:0:
7,273,222885,6,0,B|21:229|20:197|20:197|43:250|52:310|30:371,1,255,8|0,0:0|0:0,0:0:0:0:
222,271,223234,6,0,B|245:260|255:243|258:237|258:237|269:224|289:224|300:237|300:237|290:250|269:250|258:237|258:237|254:229|243:215|216:207,1,191.250007295609,2|0,0:0|0:0,0:0:0:0:
293,108,223583,6,0,P|282:138|281:156,1,42.5,8|0,0:0|0:0,0:0:0:0:
453,227,223844,2,0,P|449:206|440:186,1,42.5,2|0,0:0|0:0,0:0:0:0:
222,271,224106,2,0,P|211:301|210:319,1,42.5,2|8,0:0|0:0,0:0:0:0:
496,366,224368,2,0,P|492:345|483:325,1,42.5,0|0,0:0|0:0,0:0:0:0:
339,238,224629,6,0,B|306:300|327:370|327:370|352:373|385:360,1,191.250007295609,2|0,0:0|0:0,0:0:0:0:
449,269,224978,6,0,P|428:279|400:283,1,42.5,8|0,0:0|0:0,0:0:0:0:
229,185,225240,2,0,P|249:189|268:198,1,42.5,2|0,0:0|0:0,0:0:0:0:
444,79,225501,2,0,P|423:89|395:93,1,42.5,2|0,0:0|0:0,0:0:0:0:
275,78,225676,6,0,B|224:87|199:45|199:45|147:21|69:57|96:152,1,255,8|0,0:0|0:0,0:0:0:0:
133,212,226025,6,0,B|137:234|155:248|155:248|199:206|197:142|164:112,1,191.250007295609,2|0,0:0|0:0,0:0:0:0:
9,207,226374,6,0,L|53:204,1,42.5,8|0,0:0|0:0,0:0:0:0:
186,76,226635,2,0,L|166:115,1,42.5,2|0,0:0|0:0,0:0:0:0:
209,296,226810,2,0,L|184:259,2,42.5,0|0|0,0:0|0:0|0:0,0:0:0:0:
266,172,227071,1,8,0:0:0:0:
280,162,227158,2,0,P|356:173|410:249,1,170
302,272,227420,6,0,P|317:308|319:261,1,127.500004863739,6|0,0:0|0:0,0:0:0:0:
420,373,227682,1,0,0:0:0:0:
441,382,227769,2,0,P|418:325|433:249,1,127.500004863739,8|0,0:0|0:0,0:0:0:0:
498,146,228030,1,0,0:0:0:0:
512,154,228118,6,0,P|483:166|449:170,1,63.7500024318696,2|0,0:0|0:0,0:0:0:0:
344,107,228292,2,0,P|315:95|281:91,1,63.7500024318696,0|0,0:0|0:0,0:0:0:0:
230,220,228467,6,0,P|201:232|167:236,1,63.7500024318696,8|0,0:0|0:0,0:0:0:0:
62,173,228641,2,0,P|33:161|-1:157,1,63.7500024318696,0|0,0:0|0:0,0:0:0:0:
60,369,228815,5,2,0:0:0:0:
76,341,228902,1,0,0:0:0:0:
82,310,228989,1,0,0:0:0:0:
78,279,229076,1,0,0:0:0:0:
43,247,229164,6,0,P|7:233|14:272,1,85,8|0,0:0|0:0,0:0:0:0:
196,151,229339,5,0,0:0:0:0:
237,143,229426,1,0,0:0:0:0:
276,159,229513,1,2,0:0:0:0:
301,192,229600,1,0,0:0:0:0:
285,234,229687,6,0,P|280:271|307:249,1,85,0|0,0:0|0:0,0:0:0:0:
388,142,229862,5,8,0:0:0:0:
391,184,229949,1,0,0:0:0:0:
395,226,230036,1,0,0:0:0:0:
399,269,230123,1,0,0:0:0:0:
402,311,230210,5,2,0:0:0:0:
475,114,230385,1,2,0:0:0:0:
285,234,230560,5,8,0:0:0:0:
475,130,230734,1,2,0:0:0:0:
220,118,230908,5,2,0:0:0:0:
475,146,231083,1,2,0:0:0:0:
167,2,231257,5,8,0:0:0:0:
475,162,231432,1,2,0:0:0:0:
341,0,231606,5,2,0:0:0:0:
340,8,231693,1,2,0:0:0:0:
339,16,231780,2,0,L|330:102,1,85,2|2,0:0|0:0,0:0:0:0:
286,271,231955,5,8,0:0:0:0:
285,263,232042,1,2,0:0:0:0:
284,255,232129,2,0,L|275:169,1,85,2|2,0:0|0:0,0:0:0:0:
175,16,232304,5,2,0:0:0:0:
174,24,232391,1,2,0:0:0:0:
173,32,232478,2,0,L|164:118,1,85,2|2,0:0|0:0,0:0:0:0:
116,310,232653,5,8,0:0:0:0:
115,302,232740,1,0,0:0:0:0:
114,294,232827,2,0,L|105:208,1,85,0|0,0:0|0:0,0:0:0:0:
38,99,233001,6,0,B|65:76|92:67|92:67|112:106|154:129|205:111,1,191.250007295609,6|0,0:0|0:0,0:0:0:0:
355,24,233350,6,0,P|349:49|348:64,1,31.8750012159348,0|0,0:0|0:0,0:0:0:0:
416,307,233525,2,0,P|410:292|403:277,1,31.8750012159348,0|0,0:0|0:0,0:0:0:0:
200,112,233699,2,0,P|213:120|227:127,1,31.8750012159348,8|0,0:0|0:0,0:0:0:0:
487,143,233874,2,0,P|471:143|455:146,1,31.8750012159348,0|0,0:0|0:0,0:0:0:0:
237,287,234048,2,0,P|249:277|260:265,1,31.8750012159348,4|0,0:0|0:0,0:0:0:0:
328,191,234222,2,0,L|286:187,1,31.8750012159348
204,299,234397,6,0,L|169:308,1,31.8750012159348,0|0,0:0|0:0,0:0:0:0:
8,141,234571,2,0,L|16:110,1,31.8750012159348,0|0,0:0|0:0,0:0:0:0:
60,278,234746,2,0,L|37:255,1,31.8750012159348,2|0,0:0|0:0,0:0:0:0:
99,28,234920,2,0,L|129:20,1,31.8750012159348,0|0,0:0|0:0,0:0:0:0:
296,187,235094,2,0,L|287:217,1,31.8750012159348,8|0,0:0|0:0,0:0:0:0:
243,51,235269,2,0,L|265:73,1,31.8750012159348,0|0,0:0|0:0,0:0:0:0:
204,184,235443,6,0,P|142:215|203:145,1,255,0|0,0:0|0:0,0:0:0:0:
403,169,235792,6,0,B|437:185|437:185|391:222|336:220|289:182,1,191.250007295609,0|0,0:0|0:0,0:0:0:0:
378,93,236141,1,0,0:0:0:0:
440,88,236228,1,0,0:0:0:0:
493,121,236315,1,0,0:0:0:0:
512,180,236402,1,0,0:0:0:0:
497,240,236490,6,0,P|484:285|487:333,3,63.7500024318696,8|0|0|0,0:0|0:0|0:0|0:0,0:0:0:0:
416,342,236839,2,0,P|374:354|343:329,3,85
275,298,237187,6,0,B|240:297|224:298|224:298|197:329|163:352|163:352|143:351|104:364,1,191.250007295609,0|0,0:0|0:0,0:0:0:0:
21,383,237536,5,2,0:0:0:0:
24,348,237623,1,0,0:0:0:0:
28,313,237710,1,0,0:0:0:0:
32,279,237797,1,0,0:0:0:0:
36,244,237884,1,0,0:0:0:0:
40,210,237972,1,0,0:0:0:0:
44,175,238059,1,0,0:0:0:0:
48,141,238146,1,0,0:0:0:0:
52,106,238233,1,0,0:0:0:0:
56,72,238320,1,0,0:0:0:0:
60,37,238408,1,0,0:0:0:0:
64,2,238495,1,0,0:0:0:0:
133,25,238583,6,0,B|178:49|240:61|240:61|182:89|156:122,1,191.250007295609,6|0,0:0|0:0,0:0:0:0:
129,168,238932,6,0,P|127:194|130:210,1,31.8750012159348,0|0,0:0|0:0,0:0:0:0:
162,357,239106,2,0,P|186:366|202:369,1,31.8750012159348,0|0,0:0|0:0,0:0:0:0:
297,77,239280,2,0,P|281:80|266:86,1,31.8750012159348,8|0,0:0|0:0,0:0:0:0:
351,384,239455,2,0,P|363:372|371:359,1,31.8750012159348,0|0,0:0|0:0,0:0:0:0:
435,211,239629,2,0,P|427:196|417:184,1,31.8750012159348,2|0,0:0|0:0,0:0:0:0:
129,168,239804,2,0,P|127:194|130:210,1,31.8750012159348,0|0,0:0|0:0,0:0:0:0:
361,365,239978,6,0,P|352:377|339:388,1,31.8750012159348,0|0,0:0|0:0,0:0:0:0:
132,184,240152,2,0,P|133:168|137:153,1,31.8750012159348,0|0,0:0|0:0,0:0:0:0:
423,195,240327,2,0,P|431:208|438:223,1,31.8750012159348
181,358,240501,2,0,P|167:352|153:344,1,31.8750012159348,0|0,0:0|0:0,0:0:0:0:
281,84,240675,2,0,P|296:79|312:78,1,31.8750012159348,8|0,0:0|0:0,0:0:0:0:
361,365,240850,2,0,P|352:377|339:388,1,31.8750012159348,0|0,0:0|0:0,0:0:0:0:
282,170,241025,6,0,B|323:283|323:283|213:274|213:274|235:243,1,255,0|0,0:0|0:0,0:0:0:0:
347,123,241374,6,0,P|368:119|392:106,1,31.8750012159348,2|0,0:0|0:0,0:0:0:0:
512,8,241548,2,0,L|479:4,2,31.8750012159348,0|0|0,0:0|0:0|0:0,0:0:0:0:
266,87,241722,6,0,P|245:91|221:104,1,31.8750012159348
41,163,241896,2,0,L|74:167,2,31.8750012159348,2|0|0,0:0|0:0|0:0,0:0:0:0:
148,224,242071,2,0,L|115:228,4,31.8750012159348,8|0|0|0|0,0:0|0:0|0:0|0:0|0:0,0:0:0:0:
29,359,242420,6,0,P|50:355|74:342,1,31.8750012159348,2|0,0:0|0:0,0:0:0:0:
245,266,242594,2,0,L|212:262,2,31.8750012159348,0|0|0,0:0|0:0|0:0,0:0:0:0:
295,192,242769,6,0,P|316:196|340:209,1,31.8750012159348,0|0,0:0|0:0,0:0:0:0:
460,307,242943,2,0,L|427:311,2,31.8750012159348,2|0|0,0:0|0:0|0:0,0:0:0:0:
322,367,243118,6,0,P|326:346|339:322,1,31.8750012159348,2|0,0:0|0:0,0:0:0:0:
446,140,243292,2,0,L|450:173,2,31.8750012159348,0|0|0,0:0|0:0|0:0,0:0:0:0:
358,113,243467,5,8,0:0:0:0:
337,88,243554,1,0,0:0:0:0:
322,60,243641,1,2,0:0:0:0:
314,29,243728,1,2,0:0:0:0:
246,66,243815,5,0,0:0:0:0:
198,107,243902,1,2,0:0:0:0:
136,112,243989,1,2,0:0:0:0:
83,80,244076,1,0,0:0:0:0:
160,18,244164,6,0,B|170:173|170:173|155:142,1,191.250007295609,6|0,0:0|0:0,0:0:0:0:
4,185,244513,6,0,P|32:178|46:175,1,31.8750012159348,0|0,0:0|0:0,0:0:0:0:
246,66,244687,2,0,P|238:93|233:107,1,31.8750012159348,0|0,0:0|0:0,0:0:0:0:
226,335,244862,2,0,P|205:314|196:303,1,31.8750012159348,8|0,0:0|0:0,0:0:0:0:
90,56,245036,2,0,P|110:76|119:87,1,31.8750012159348,0|0,0:0|0:0,0:0:0:0:
314,206,245210,2,0,P|286:213|272:216,1,31.8750012159348,6|0,0:0|0:0,0:0:0:0:
71,323,245385,2,0,P|79:295|83:282,1,31.8750012159348,0|0,0:0|0:0,0:0:0:0:
244,66,245560,6,0,P|237:94|232:107,1,31.8750012159348,0|0,0:0|0:0,0:0:0:0:
227,335,245734,2,0,P|206:314|197:304,1,31.8750012159348,0|0,0:0|0:0,0:0:0:0:
4,183,245909,2,0,P|32:176|46:173,1,31.8750012159348,2|0,0:0|0:0,0:0:0:0:
313,205,246083,2,0,P|285:212|271:215,1,31.8750012159348,0|0,0:0|0:0,0:0:0:0:
71,324,246257,2,0,P|79:296|83:283,1,31.8750012159348,8|0,0:0|0:0,0:0:0:0:
91,55,246432,2,0,P|111:76|120:87,1,31.8750012159348,0|0,0:0|0:0,0:0:0:0:
104,216,246606,6,0,P|142:243|102:176,1,255,0|0,0:0|0:0,0:0:0:0:
254,131,246955,6,0,B|290:152|327:160|327:160|374:111|428:97,1,191.250007295609,2|0,0:0|0:0,0:0:0:0:
479,43,247304,5,0,0:0:0:0:
502,89,247391,1,0,0:0:0:0:
490,140,247478,1,0,0:0:0:0:
449,172,247565,1,0,0:0:0:0:
398,224,247653,5,8,0:0:0:0:
377,277,247740,1,0,0:0:0:0:
392,333,247827,1,0,0:0:0:0:
427,377,247914,1,0,0:0:0:0:
484,331,248001,6,0,P|453:296|458:259,3,85
421,195,248350,6,0,B|363:180|272:198|272:198|287:218|286:246,1,191.250007295609
206,243,248699,1,2,0:0:0:0:
187,183,248786,1,0,0:0:0:0:
138,146,248873,1,0,0:0:0:0:
75,149,248960,1,0,0:0:0:0:
28,189,249047,1,0,0:0:0:0:
16,250,249135,1,0,0:0:0:0:
44,306,249222,1,0,0:0:0:0:
101,331,249309,1,0,0:0:0:0:
130,257,249397,6,0,P|123:213|105:265,3,141.666666666667
184,323,249746,6,0,B|202:334|213:351|213:351|246:357|279:336|279:336|288:286|331:274,1,191.250007295609,6|0,0:0|0:0,0:0:0:0:
453,322,250094,6,0,L|448:355,1,31.8750012159348,8|0,0:0|0:0,0:0:0:0:
407,92,250269,2,0,L|412:125,1,31.8750012159348,0|0,0:0|0:0,0:0:0:0:
349,341,250443,6,0,L|344:374,1,31.8750012159348,2|0,0:0|0:0,0:0:0:0:
300,69,250618,2,0,L|305:102,1,31.8750012159348,0|0,0:0|0:0,0:0:0:0:
184,323,250792,6,0,L|188:354,1,31.8750012159348,8|0,0:0|0:0,0:0:0:0:
129,66,250967,2,0,L|124:97,1,31.8750012159348,0|0,0:0|0:0,0:0:0:0:
80,304,251141,6,0,L|84:335,1,31.8750012159348,2|0,0:0|0:0,0:0:0:0:
22,89,251316,2,0,L|17:120,1,31.8750012159348,0|0,0:0|0:0,0:0:0:0:
269,32,251490,6,0,L|267:64,1,31.8750012159348,8|0,0:0|0:0,0:0:0:0:
242,351,251664,2,0,L|244:319,1,31.8750012159348,0|0,0:0|0:0,0:0:0:0:
79,176,251839,6,0,L|114:179,1,31.8750012159348,2|0,0:0|0:0,0:0:0:0:
432,207,252013,2,0,L|397:204,1,31.8750012159348,0|0,0:0|0:0,0:0:0:0:
120,305,252187,6,0,L|147:282,1,31.8750012159348,8|0,0:0|0:0,0:0:0:0:
391,78,252361,2,0,L|364:101,1,31.8750012159348,0|0,0:0|0:0,0:0:0:0:
256,192,252536,5,8,0:0:0:0:
208,194,252623,1,2,0:0:0:0:
168,170,252710,1,2,0:0:0:0:
146,128,252797,1,0,0:0:0:0:
151,82,252885,1,8,0:0:0:0:
184,116,252972,1,2,0:0:0:0:
229,128,253059,1,2,0:0:0:0:
275,115,253146,1,2,0:0:0:0:
232,44,253234,5,8,0:0:0:0:
193,83,253321,1,2,0:0:0:0:
178,136,253408,1,2,0:0:0:0:
189,190,253495,1,2,0:0:0:0:
225,232,253583,1,8,0:0:0:0:
287,226,253670,1,2,0:0:0:0:
336,265,253757,1,2,0:0:0:0:
344,331,253844,1,2,0:0:0:0:
297,384,253931,5,2,0:0:0:0:
256,192,254019,12,0,254717,0:0:0:0:
304,68,254804,5,0,0:0:0:0:
324,63,254891,1,0,0:0:0:0:
368,65,254978,1,0,0:0:0:0:
424,94,255065,1,0,0:0:0:0:
450,161,255152,1,0,0:0:0:0:
423,237,255240,1,0,0:0:0:0:
462,314,255327,6,0,B|380:289|322:299|322:299|326:331|340:360,1,191.250007295609,6|0,0:0|0:0,0:0:0:0:
349,223,255676,2,0,L|322:215,1,21.25,8|0,0:0|0:0,0:0:0:0:
163,161,255850,1,0,0:0:0:0:
163,161,255937,1,2,0:0:0:0:
163,161,256025,6,0,L|169:188,1,21.25,0|0,0:0|0:0,0:0:0:0:
203,354,256199,1,2,0:0:0:0:
203,354,256286,1,0,0:0:0:0:
203,354,256374,6,0,B|183:279|222:217|279:193|279:193|247:179|238:143,1,255,8|0,0:0|0:0,0:0:0:0:
174,67,256722,6,0,B|182:132|163:205|163:205|142:178|165:158,1,191.250007295609,2|0,0:0|0:0,0:0:0:0:
249,77,257071,5,8,0:0:0:0:
264,88,257158,1,0,0:0:0:0:
178,104,257246,5,0,0:0:0:0:
163,93,257333,1,2,0:0:0:0:
121,26,257420,5,0,0:0:0:0:
142,24,257507,1,0,0:0:0:0:
163,22,257594,1,2,0:0:0:0:
184,20,257681,1,0,0:0:0:0:
250,0,257769,6,0,P|237:41|258:91,3,85,8|0|0|0,0:0|0:0|0:0|0:0,0:0:0:0:
283,182,258118,6,0,B|322:192|352:192|352:192|347:178|330:177|330:177|364:223|363:293,1,191.250007295609,2|0,0:0|0:0,0:0:0:0:
276,272,258467,2,0,L|249:279,1,21.25,8|0,0:0|0:0,0:0:0:0:
91,309,258641,1,0,0:0:0:0:
91,309,258728,1,2,0:0:0:0:
91,309,258815,6,0,L|98:282,1,21.25,0|0,0:0|0:0,0:0:0:0:
128,124,258990,1,2,0:0:0:0:
128,124,259077,1,0,0:0:0:0:
128,124,259164,6,0,B|144:148|151:179|151:179|169:114|169:67|157:16|157:16|155:35|152:56,1,255,8|0,0:0|0:0,0:0:0:0:
248,72,259513,6,0,B|315:69|315:69|367:40|367:40|384:69|384:108,1,191.250007295609,2|0,0:0|0:0,0:0:0:0:
301,178,259862,5,8,0:0:0:0:
305,159,259949,1,0,0:0:0:0:
335,289,260036,5,0,0:0:0:0:
349,301,260123,1,2,0:0:0:0:
222,263,260211,5,0,0:0:0:0:
208,267,260298,1,0,0:0:0:0:
195,272,260385,1,2,0:0:0:0:
181,276,260472,1,0,0:0:0:0:
159,343,260560,6,0,P|191:324|180:360,3,85,8|0|0|0,0:0|0:0|0:0|0:0,0:0:0:0:
269,323,260908,6,0,B|297:334|305:340|305:340|345:326|368:307|368:307|388:290|447:290,1,191.250007295609,6|0,0:0|0:0,0:0:0:0:
512,172,261257,2,0,L|477:182,1,21.25,8|0,0:0|0:0,0:0:0:0:
315,216,261432,1,0,0:0:0:0:
315,216,261519,1,2,0:0:0:0:
315,216,261606,6,0,L|299:190,1,21.25,0|0,0:0|0:0,0:0:0:0:
392,103,261780,1,2,0:0:0:0:
410,109,261868,1,0,0:0:0:0:
430,120,261955,6,0,B|395:137|355:141|355:141|305:127|275:91|275:91|231:113|180:112,1,255,8|0,0:0|0:0,0:0:0:0:
131,0,262304,6,0,B|143:25|146:54|146:54|136:90|109:112|109:112|125:144|125:181,1,191.250007295609,2|0,0:0|0:0,0:0:0:0:
84,340,262653,5,8,0:0:0:0:
79,360,262740,1,0,0:0:0:0:
46,217,262827,5,0,0:0:0:0:
31,204,262914,1,2,0:0:0:0:
170,246,263002,5,0,0:0:0:0:
185,241,263089,1,0,0:0:0:0:
199,235,263176,1,2,0:0:0:0:
214,231,263263,1,0,0:0:0:0:
203,234,263350,5,8,0:0:0:0:
195,236,263437,1,0,0:0:0:0:
188,239,263524,1,0,0:0:0:0:
180,242,263611,1,0,0:0:0:0:
197,254,263699,5,2,0:0:0:0:
214,265,263786,1,0,0:0:0:0:
235,271,263873,1,0,0:0:0:0:
256,273,263960,1,2,0:0:0:0:
297,264,264048,2,0,P|325:235|335:187,1,85
371,55,264222,2,0,B|365:91|365:91|381:149,1,85,8|0,0:0|0:0,0:0:0:0:
512,255,264397,6,0,P|464:224|427:215,1,85,0|0,0:0|0:0,0:0:0:0:
281,343,264571,2,0,P|233:374|196:383,1,85,2|0,0:0|0:0,0:0:0:0:
218,245,264746,2,0,B|239:193|239:193|97:225|97:225|137:258,1,255
225,79,265094,5,2,0:0:0:0:
209,69,265181,1,0,0:0:0:0:
190,63,265268,1,0,0:0:0:0:
172,61,265355,1,0,0:0:0:0:
121,78,265443,2,0,B|99:100|99:100|83:155,1,85,0|0,0:0|0:0,0:0:0:0:
57,313,265618,2,0,B|35:291|35:291|19:236,1,85,2|0,0:0|0:0,0:0:0:0:
159,188,265792,6,0,P|185:225|224:248,1,85,8|0,0:0|0:0,0:0:0:0:
449,120,265967,2,0,L|361:124,1,85,0|0,0:0|0:0,0:0:0:0:
175,338,266141,2,0,B|216:352|216:352|217:352|218:352|218:352|231:341|239:324|239:324|284:307|337:316|373:337|373:337|353:336|332:340,1,255,0|0,0:0|0:0,0:0:0:0:
299,240,266490,6,0,B|303:192|308:170|308:170|274:129|250:117|250:117|262:109|290:101,1,191.250007295609,6|0,0:0|0:0,0:0:0:0:
359,49,266839,5,0,0:0:0:0:
363,74,266926,1,0,0:0:0:0:
368,99,267013,1,0,0:0:0:0:
373,124,267100,1,0,0:0:0:0:
454,158,267187,5,0,0:0:0:0:
444,181,267274,1,0,0:0:0:0:
436,205,267361,1,0,0:0:0:0:
428,229,267448,1,0,0:0:0:0:
332,323,267536,6,0,B|360:297|376:291|376:291|325:298|258:290|236:283|236:283|257:282|297:270,1,255,8|0,0:0|0:0,0:0:0:0:
95,349,267885,6,0,B|129:339|189:339|189:339|221:354|251:356|251:356|227:359|207:360,1,191.250007295609,2|0,0:0|0:0,0:0:0:0:
155,251,268234,5,8,0:0:0:0:
151,230,268321,1,0,0:0:0:0:
148,209,268408,1,0,0:0:0:0:
145,188,268495,1,2,0:0:0:0:
226,211,268583,5,0,0:0:0:0:
233,191,268670,1,0,0:0:0:0:
241,171,268757,1,2,0:0:0:0:
248,151,268844,1,0,0:0:0:0:
306,211,268932,5,8,0:0:0:0:
322,197,269019,1,0,0:0:0:0:
338,183,269106,1,0,0:0:0:0:
355,170,269193,1,0,0:0:0:0:
318,78,269280,6,0,B|277:71|215:71|215:71|170:85|147:86|147:86|118:79,1,191.250007295609,2|0,0:0|0:0,0:0:0:0:
31,229,269629,5,8,0:0:0:0:
59,219,269717,1,0,0:0:0:0:
131,278,269804,5,0,0:0:0:0:
154,298,269892,1,2,0:0:0:0:
145,188,269978,5,0,0:0:0:0:
152,159,270066,1,0,0:0:0:0:
59,219,270153,5,2,0:0:0:0:
31,229,270241,1,0,0:0:0:0:
131,278,270327,6,0,B|154:298|177:324|177:324|206:289|228:231|229:212|229:212|262:220|296:217,1,255,8|0,0:0|0:0,0:0:0:0:
479,234,270676,6,0,B|432:239|390:216|390:216|343:237|288:214,1,191.250007295609,2|0,0:0|0:0,0:0:0:0:
342,112,271025,5,8,0:0:0:0:
358,113,271112,1,0,0:0:0:0:
455,122,271199,5,0,0:0:0:0:
447,109,271286,1,2,0:0:0:0:
407,19,271374,5,0,0:0:0:0:
400,30,271461,1,0,0:0:0:0:
342,112,271548,5,2,0:0:0:0:
350,104,271635,1,0,0:0:0:0:
359,99,271722,1,8,0:0:0:0:
369,97,271809,1,0,0:0:0:0:
399,82,271897,6,0,P|366:87|324:70,1,63.7500024318696,0|0,0:0|0:0,0:0:0:0:
251,18,272071,6,0,B|259:49|259:49|253:109,1,85,6|0,0:0|0:0,0:0:0:0:
209,252,272246,2,0,P|192:224|138:209,1,85,0|0,0:0|0:0,0:0:0:0:
34,140,272420,2,0,B|65:148|65:148|125:142,1,85,8|0,0:0|0:0,0:0:0:0:
34,269,272594,2,0,L|41:358,1,85,0|2,0:0|0:0,0:0:0:0:
236,168,272769,6,0,P|294:158|346:175,1,85,0|0,0:0|0:0,0:0:0:0:
422,370,272943,2,0,L|335:382,1,85,2|0,0:0|0:0,0:0:0:0:
242,321,273118,2,0,L|155:309,1,85,8|0,0:0|0:0,0:0:0:0:
236,168,273292,6,0,P|294:158|346:175,1,85,0|0,0:0|0:0,0:0:0:0:
422,370,273466,2,0,L|335:382,1,85,2|0,0:0|0:0,0:0:0:0:
242,321,273641,2,0,L|155:309,1,85,0|0,0:0|0:0,0:0:0:0:
236,168,273815,6,0,P|294:158|346:175,1,85,8|0,0:0|0:0,0:0:0:0:
422,370,273989,2,0,L|335:382,1,85,0|2,0:0|0:0,0:0:0:0:
242,321,274164,2,0,L|155:309,1,85,0|0,0:0|0:0,0:0:0:0:
236,168,274339,6,0,P|294:158|346:175,1,85,2|0,0:0|0:0,0:0:0:0:
422,370,274513,2,0,L|335:382,1,85,8|0,0:0|0:0,0:0:0:0:
242,321,274688,2,0,L|155:309,1,85,0|0,0:0|0:0,0:0:0:0:
37,207,274862,6,0,P|85:218|127:214,1,85,2|0,0:0|0:0,0:0:0:0:
245,41,275036,2,0,L|154:51,1,85,0|0,0:0|0:0,0:0:0:0:
299,108,275211,2,0,L|390:118,1,85,8|0,0:0|0:0,0:0:0:0:
37,207,275385,6,0,P|85:218|127:214,1,85,0|2,0:0|0:0,0:0:0:0:
245,41,275559,2,0,L|154:51,1,85,0|0,0:0|0:0,0:0:0:0:
299,108,275734,2,0,L|390:118,1,85,2|0,0:0|0:0,0:0:0:0:
37,207,275908,6,0,P|85:218|127:214,1,85,8|0,0:0|0:0,0:0:0:0:
245,41,276082,2,0,L|154:51,1,85,0|0,0:0|0:0,0:0:0:0:
281,178,276257,6,0,B|382:189|382:189|331:203,1,141.666666666667,8|0,0:0|0:0,0:0:0:0:
196,328,276432,2,0,P|252:365|295:307,1,141.666666666667,2|0,0:0|0:0,0:0:0:0:
198,122,276606,6,0,B|96:133|96:133|148:147,1,141.666666666667,2|0,0:0|0:0,0:0:0:0:
493,94,276780,2,0,P|437:57|394:115,1,141.666666666667,8|0,0:0|0:0,0:0:0:0:
295,318,276955,2,0,P|340:364|394:327,1,141.666666666667,2|0,0:0|0:0,0:0:0:0:
133,143,277129,6,0,L|118:284,1,141.666666666667,2|0,0:0|0:0,0:0:0:0:
348,265,277304,2,0,P|348:204|267:183,1,141.666666666667,8|0,0:0|0:0,0:0:0:0:
377,78,277478,2,0,B|278:96|278:96|334:61,1,141.666666666667,2|0,0:0|0:0,0:0:0:0:
168,45,277653,5,6,0:0:0:0:
146,47,277740,1,0,0:0:0:0:
125,45,277827,1,0,0:0:0:0:
105,39,277914,1,0,0:0:0:0:
48,5,278001,6,0,B|25:9|25:9|-3:23,1,42.5,8|0,0:0|0:0,0:0:0:0:
14,198,278176,2,0,B|37:194|37:194|65:180,1,42.5,0|2,0:0|0:0,0:0:0:0:
171,116,278350,6,0,B|148:120|148:120|120:134,1,42.5,0|0,0:0|0:0,0:0:0:0:
112,295,278525,2,0,B|135:291|135:291|163:277,1,42.5,2|0,0:0|0:0,0:0:0:0:
296,211,278699,6,0,B|333:203|333:203|312:297|312:297|191:223,1,255
257,106,279048,5,2,0:0:0:0:
280,122,279135,1,0,0:0:0:0:
306,131,279222,1,0,0:0:0:0:
335,132,279309,1,0,0:0:0:0:
319,51,279397,6,0,B|338:45|338:45|360:47,1,42.5,8|0,0:0|0:0,0:0:0:0:
439,178,279571,2,0,B|420:184|420:184|398:182,1,42.5,0|2,0:0|0:0,0:0:0:0:
471,23,279746,6,0,B|478:46|478:46|475:74,1,42.5,0|0,0:0|0:0,0:0:0:0:
312,172,279920,2,0,B|304:148|304:148|307:120,1,42.5,2|0,0:0|0:0,0:0:0:0:
447,193,280094,5,8,0:0:0:0:
445,214,280181,1,0,0:0:0:0:
443,235,280268,1,0,0:0:0:0:
441,256,280355,1,0,0:0:0:0:
377,333,280443,5,0,0:0:0:0:
349,332,280530,1,0,0:0:0:0:
321,325,280617,1,0,0:0:0:0:
296,311,280704,1,2,0:0:0:0:
191,332,280792,6,0,P|156:337|136:348,1,42.5,8|0,0:0|0:0,0:0:0:0:
88,231,280967,2,0,P|53:226|33:215,1,42.5,0|2,0:0|0:0,0:0:0:0:
167,182,281141,6,0,P|202:187|222:198,1,42.5,0|0,0:0|0:0,0:0:0:0:
270,81,281316,2,0,P|305:76|325:65,1,42.5,2|0,0:0|0:0,0:0:0:0:
435,21,281490,6,0,B|464:-7|464:-7|442:81|442:81|436:116|406:144|406:144|405:174|384:199,1,255,8|0,0:0|0:0,0:0:0:0:
257,171,281839,5,2,0:0:0:0:
285,173,281926,1,0,0:0:0:0:
311,164,282013,1,0,0:0:0:0:
333,145,282100,1,0,0:0:0:0:
273,53,282187,6,0,P|273:87|282:107,1,42.5,8|0,0:0|0:0,0:0:0:0:
390,190,282362,2,0,P|390:224|381:244,1,42.5,0|2,0:0|0:0,0:0:0:0:
268,249,282536,6,0,P|247:253|226:251,1,42.5
350,67,282711,2,0,P|384:67|404:76,1,42.5,2|0,0:0|0:0,0:0:0:0:
203,116,282885,5,8,0:0:0:0:
181,118,282972,1,0,0:0:0:0:
160,121,283059,1,0,0:0:0:0:
139,124,283146,1,0,0:0:0:0:
45,167,283234,5,6,0:0:0:0:
56,192,283321,1,0,0:0:0:0:
76,212,283408,1,0,0:0:0:0:
102,222,283495,1,0,0:0:0:0:
206,190,283583,6,0,B|228:187|228:187|249:174,1,42.5,8|0,0:0|0:0,0:0:0:0:
438,165,283757,2,0,B|415:167|415:167|392:156,1,42.5,0|2,0:0|0:0,0:0:0:0:
193,43,283932,6,0,B|215:40|215:40|238:51,1,42.5,0|0,0:0|0:0,0:0:0:0:
426,27,284106,2,0,B|403:29|403:29|382:42,1,42.5,2|0,0:0|0:0,0:0:0:0:
316,136,284280,2,0,B|333:324|333:324|311:293|275:275,1,255,8|0,0:0|0:0,0:0:0:0:
214,141,284629,5,2,0:0:0:0:
180,167,284716,1,0,0:0:0:0:
141,182,284803,1,0,0:0:0:0:
98,185,284890,1,0,0:0:0:0:
8,225,284978,6,0,P|34:228|65:239,1,42.5,8|0,0:0|0:0,0:0:0:0:
93,367,285153,2,0,P|119:364|150:353,1,42.5,0|2,0:0|0:0,0:0:0:0:
209,237,285327,6,0,P|235:240|266:251,1,42.5,0|0,0:0|0:0,0:0:0:0:
294,379,285502,2,0,P|320:376|351:365,1,42.5,2|0,0:0|0:0,0:0:0:0:
402,244,285676,5,8,0:0:0:0:
380,245,285763,1,0,0:0:0:0:
360,252,285850,1,0,0:0:0:0:
341,262,285937,1,0,0:0:0:0:
440,286,286025,5,2,0:0:0:0:
402,244,286112,1,0,0:0:0:0:
389,189,286199,1,0,0:0:0:0:
402,135,286286,1,0,0:0:0:0:
512,187,286374,6,0,B|494:195|494:195|468:198,1,42.5,8|0,0:0|0:0,0:0:0:0:
306,147,286548,2,0,B|283:144|283:144|265:136,1,42.5,0|2,0:0|0:0,0:0:0:0:
512,117,286722,6,0,B|494:125|494:125|468:128,1,42.5,0|0,0:0|0:0,0:0:0:0:
306,77,286896,2,0,B|283:74|283:74|265:66,1,42.5,2|0,0:0|0:0,0:0:0:0:
377,17,287071,2,0,B|400:3|417:-13|417:-13|379:82|389:200,1,255,8|0,0:0|0:0,0:0:0:0:
306,147,287420,5,2,0:0:0:0:
287,157,287507,1,0,0:0:0:0:
267,163,287594,1,0,0:0:0:0:
245,165,287681,1,0,0:0:0:0:
146,119,287769,5,8,0:0:0:0:
137,174,287856,1,0,0:0:0:0:
157,226,287943,1,0,0:0:0:0:
200,262,288030,1,0,0:0:0:0:
288,246,288118,6,0,P|310:246|336:253,1,42.5,0|0,0:0|0:0,0:0:0:0:
448,111,288292,2,0,P|427:115|406:115,1,42.5,2|0,0:0|0:0,0:0:0:0:
285,82,288467,2,0,P|217:53|267:155,1,255,8|0,0:0|0:0,0:0:0:0:
129,18,288815,5,6,0:0:0:0:
79,85,288902,1,0,0:0:0:0:
75,137,288989,1,0,0:0:0:0:
92,188,289076,1,0,0:0:0:0:
128,217,289164,2,0,P|166:220|187:226,3,42.5,8|0|0|0,0:0|0:0|0:0|0:0,0:0:0:0:
328,313,289513,5,2,0:0:0:0:
378,246,289600,1,0,0:0:0:0:
382,194,289687,1,0,0:0:0:0:
365,143,289774,1,0,0:0:0:0:
332,105,289862,2,0,B|277:80|213:76|213:76|265:112|285:140|285:140|257:148|239:178,1,255,8|0,0:0|0:0,0:0:0:0:
155,365,290211,5,2,0:0:0:0:
115,311,290298,1,0,0:0:0:0:
111,270,290385,1,0,0:0:0:0:
125,229,290472,1,0,0:0:0:0:
142,206,290560,2,0,P|158:211|189:212,3,42.5,8|0|0|0,0:0|0:0|0:0|0:0,0:0:0:0:
291,159,290908,5,2,0:0:0:0:
321,199,290995,1,0,0:0:0:0:
324,231,291082,1,0,0:0:0:0:
313,262,291169,1,0,0:0:0:0:
297,280,291257,2,0,P|281:275|250:274,3,42.5,8|0|0|0,0:0|0:0|0:0|0:0,0:0:0:0:
145,358,291606,5,2,0:0:0:0:
110,301,291693,1,0,0:0:0:0:
109,260,291780,1,0,0:0:0:0:
127,220,291867,1,0,0:0:0:0:
146,199,291955,2,0,P|161:205|192:209,3,42.5,8|0|0|0,0:0|0:0|0:0|0:0,0:0:0:0:
298,165,292303,5,2,0:0:0:0:
325,208,292390,1,0,0:0:0:0:
325,240,292477,1,0,0:0:0:0:
311,270,292564,1,0,0:0:0:0:
293,287,292653,2,0,B|253:283|218:297|218:297|253:299|276:313|276:313|275:395|190:380,1,255,8|0,0:0|0:0,0:0:0:0:
138,349,293001,5,2,0:0:0:0:
110,301,293088,1,0,0:0:0:0:
109,260,293175,1,0,0:0:0:0:
127,220,293262,1,0,0:0:0:0:
146,199,293350,2,0,P|161:205|192:209,3,42.5,8|0|0|0,0:0|0:0|0:0|0:0,0:0:0:0:
305,173,293698,5,0,0:0:0:0:
325,208,293785,1,0,0:0:0:0:
325,240,293874,1,0,0:0:0:0:
311,270,293961,1,0,0:0:0:0:
294,286,294048,2,0,P|278:280|247:276,3,42.5
200,112,294397,5,2,0:0:0:0:
208,121,294484,1,0,0:0:0:0:
216,130,294571,2,0,L|137:137,1,63.7500024318696,2|0,0:0|0:0,0:0:0:0:
17,33,294746,5,8,0:0:0:0:
9,24,294833,1,0,0:0:0:0:
1,15,294920,2,0,L|80:8,1,63.7500024318696,2|0,0:0|0:0,0:0:0:0:
266,0,295094,5,2,0:0:0:0:
258,9,295181,1,0,0:0:0:0:
250,18,295268,2,0,L|329:25,1,63.7500024318696,0|0,0:0|0:0,0:0:0:0:
415,161,295443,5,8,0:0:0:0:
423,152,295530,1,0,0:0:0:0:
431,143,295617,2,0,L|352:136,1,63.7500024318696,2|0,0:0|0:0,0:0:0:0:
200,272,295792,5,2,0:0:0:0:
208,263,295879,1,0,0:0:0:0:
216,254,295966,2,0,L|137:247,1,63.7500024318696,2|0,0:0|0:0,0:0:0:0:
17,351,296141,5,8,0:0:0:0:
9,360,296228,1,0,0:0:0:0:
1,369,296315,2,0,L|80:376,1,63.7500024318696,2|0,0:0|0:0,0:0:0:0:
266,384,296489,5,2,0:0:0:0:
258,375,296576,1,0,0:0:0:0:
250,366,296663,2,0,L|329:359,1,63.7500024318696,0|0,0:0|0:0,0:0:0:0:
415,223,296838,5,8,0:0:0:0:
423,232,296925,1,0,0:0:0:0:
431,241,297012,2,0,L|352:248,1,63.7500024318696,0|0,0:0|0:0,0:0:0:0:
387,33,297188,5,2,0:0:0:0:
458,22,297275,1,2,0:0:0:0:
512,69,297362,1,2,0:0:0:0:
511,141,297449,1,10,0:0:0:0:
456,187,297536,1,2,0:0:0:0:
385,175,297624,1,2,0:0:0:0:
329,144,297711,1,2,0:0:0:0:
266,131,297798,1,0,0:0:0:0:
215,133,297885,5,2,0:0:0:0:
163,158,297972,1,2,0:0:0:0:
140,204,298060,1,2,0:0:0:0:
149,247,298147,1,2,0:0:0:0:
175,274,298234,1,10,0:0:0:0:
205,281,298321,1,2,0:0:0:0:
223,276,298408,1,2,0:0:0:0:
233,269,298496,1,2,0:0:0:0:
238,263,298583,6,0,L|229:222,7,42.5,2|0|0|0|0|0|0|0,0:0|0:0|0:0|0:0|0:0|0:0|0:0|0:0,0:0:0:0:
284,177,298932,6,0,L|297:114,7,53.125,0|0|0|0|0|0|0|0,0:0|0:0|0:0|0:0|0:0|0:0|0:0|0:0,0:0:0:0:
348,77,299281,6,0,P|353:31|330:68,19,106.25
181,66,320908,6,0,P|145:62|114:48,1,63.7500024318696,2|0,0:0|0:0,0:0:0:0:
194,82,321257,2,0,B|186:146|186:146|195:184,2,95.6250036478044,8|8|8,0:0|0:0|0:0,0:0:0:0:
193,176,321954,6,0,P|229:180|260:194,1,63.7500024318696,0|0,0:0|0:0,0:0:0:0:
299,314,322303,6,0,L|208:324,1,85,2|2,0:0|0:0,0:0:0:0:
326,236,322652,2,0,L|417:246,1,85,8|2,0:0|0:0,0:0:0:0:
441,175,323001,1,2,0:0:0:0:
330,105,323175,1,2,0:0:0:0:
326,236,323350,1,8,0:0:0:0:
330,105,323524,1,2,0:0:0:0:
252,50,323698,6,0,L|158:60,1,85,2|2,0:0|0:0,0:0:0:0:
36,111,324047,2,0,L|130:121,1,85,8|2,0:0|0:0,0:0:0:0:
176,175,324396,1,2,0:0:0:0:
176,175,324571,1,2,0:0:0:0:
61,261,324745,1,8,0:0:0:0:
61,261,324919,1,2,0:0:0:0:
166,284,325094,6,0,L|253:295,1,85,2|2,0:0|0:0,0:0:0:0:
271,198,325443,2,0,L|358:187,1,85,8|2,0:0|0:0,0:0:0:0:
438,201,325791,1,2,0:0:0:0:
487,270,325966,1,2,0:0:0:0:
452,347,326140,1,8,0:0:0:0:
367,354,326315,1,2,0:0:0:0:
487,270,326489,6,0,L|477:178,1,85,2|2,0:0|0:0,0:0:0:0:
412,117,326838,2,0,L|422:25,1,85,8|2,0:0|0:0,0:0:0:0:
344,70,327187,1,2,0:0:0:0:
269,28,327361,1,2,0:0:0:0:
211,120,327536,1,8,0:0:0:0:
136,78,327710,1,2,0:0:0:0:
84,194,327884,6,0,B|68:234|68:234|64:281,1,85,2|2,0:0|0:0,0:0:0:0:
174,351,328233,2,0,B|189:310|189:310|193:263,1,85,8|2,0:0|0:0,0:0:0:0:
263,202,328582,1,2,0:0:0:0:
370,194,328757,1,2,0:0:0:0:
379,299,328931,1,8,0:0:0:0:
273,310,329105,1,2,0:0:0:0:
446,196,329280,6,0,B|461:155|461:155|465:108,1,85,2|2,0:0|0:0,0:0:0:0:
356,39,329629,2,0,B|340:79|340:79|336:126,1,85,8|2,0:0|0:0,0:0:0:0:
240,12,329978,1,2,0:0:0:0:
240,12,330152,1,2,0:0:0:0:
191,158,330326,1,8,0:0:0:0:
191,158,330501,1,2,0:0:0:0:
52,80,330675,6,0,B|92:64|92:64|139:60,1,85,2|2,0:0|0:0,0:0:0:0:
103,219,331024,2,0,B|62:234|62:234|15:238,1,85,8|2,0:0|0:0,0:0:0:0:
246,208,331373,1,2,0:0:0:0:
255,347,331548,1,2,0:0:0:0:
117,359,331722,1,8,0:0:0:0:
103,219,331896,1,2,0:0:0:0:
336,267,332071,6,0,L|427:275,1,85,2|2,0:0|0:0,0:0:0:0:
454,114,332419,2,0,L|363:122,1,85,8|2,0:0|0:0,0:0:0:0:
314,56,332768,1,2,0:0:0:0:
246,208,332943,1,2,0:0:0:0:
205,38,333117,1,8,0:0:0:0:
165,126,333292,1,2,0:0:0:0:
76,44,333466,6,0,P|85:72|87:94,1,42.5,10|2,0:0|0:0,0:0:0:0:
42,151,333640,2,0,P|33:179|31:201,1,42.5,2|2,0:0|0:0,0:0:0:0:
63,273,333815,6,0,L|111:269,1,42.5,10|2,0:0|0:0,0:0:0:0:
95,308,333989,2,0,L|143:304,1,42.5,2|2,0:0|0:0,0:0:0:0:
205,218,334164,6,0,P|233:209|255:207,1,42.5,10|2,0:0|0:0,0:0:0:0:
312,252,334338,2,0,P|340:261|362:263,1,42.5,2|2,0:0|0:0,0:0:0:0:
462,220,334512,6,0,L|466:172,1,42.5,10|2,0:0|0:0,0:0:0:0:
427,188,334686,2,0,L|431:140,1,42.5,2|2,0:0|0:0,0:0:0:0:
308,30,334861,6,0,P|299:58|297:80,1,42.5,10|2,0:0|0:0,0:0:0:0:
342,137,335035,2,0,P|351:165|353:187,1,42.5,2|2,0:0|0:0,0:0:0:0:
216,120,335210,6,0,L|168:124,1,42.5,10|2,0:0|0:0,0:0:0:0:
184,85,335384,2,0,L|136:89,1,42.5,2|2,0:0|0:0,0:0:0:0:
32,88,335559,6,0,P|35:108|42:128,1,42.5,10|2,0:0|0:0,0:0:0:0:
123,204,335733,2,0,P|119:224|112:244,1,42.5,2|2,0:0|0:0,0:0:0:0:
0,369,335908,6,0,L|48:373,1,42.5,10|2,0:0|0:0,0:0:0:0:
32,334,336082,2,0,L|80:338,1,42.5,2|2,0:0|0:0,0:0:0:0:
179,308,336257,5,10,0:0:0:0:
194,312,336344,1,2,0:0:0:0:
210,313,336431,1,2,0:0:0:0:
226,312,336518,1,2,0:0:0:0:
241,307,336605,1,10,0:0:0:0:
255,300,336693,1,2,0:0:0:0:
268,291,336780,1,2,0:0:0:0:
278,279,336867,1,2,0:0:0:0:
272,226,336954,5,10,0:0:0:0:
290,236,337041,1,2,0:0:0:0:
310,241,337128,1,2,0:0:0:0:
332,239,337215,1,2,0:0:0:0:
352,233,337302,1,10,0:0:0:0:
372,227,337390,1,2,0:0:0:0:
393,223,337477,1,2,0:0:0:0:
414,225,337564,1,2,0:0:0:0:
462,262,337652,5,10,0:0:0:0:
435,247,337739,1,2,0:0:0:0:
414,225,337826,1,2,0:0:0:0:
400,198,337913,1,2,0:0:0:0:
394,169,338000,1,10,0:0:0:0:
396,138,338088,1,2,0:0:0:0:
406,110,338175,1,2,0:0:0:0:
424,86,338262,1,2,0:0:0:0:
469,144,338350,5,10,0:0:0:0:
433,138,338437,1,2,0:0:0:0:
396,138,338524,1,2,0:0:0:0:
360,143,338611,1,2,0:0:0:0:
325,154,338698,1,10,0:0:0:0:
293,170,338786,1,2,0:0:0:0:
262,190,338873,1,2,0:0:0:0:
236,215,338960,1,2,0:0:0:0:
213,260,339047,6,0,L|203:226,7,21.25,10|2|2|2|2|2|2|0,0:0|0:0|0:0|0:0|0:0|0:0|0:0|0:0,0:0:0:0:
154,189,339396,2,0,L|164:155,7,25.4999992218018,10|2|2|2|2|2|2|0,0:0|0:0|0:0|0:0|0:0|0:0|0:0|0:0,0:0:0:0:
223,120,339745,2,0,L|213:86,7,29.7499990921021,10|2|2|2|2|2|2|0,0:0|0:0|0:0|0:0|0:0|0:0|0:0|0:0,0:0:0:0:
151,47,340094,2,0,L|161:13,7,34,10|2|2|2|2|2|2|0,0:0|0:0|0:0|0:0|0:0|0:0|0:0|0:0,0:0:0:0:
85,97,340443,6,0,P|52:107|34:108,7,38.2499988327027,10|2|2|2|2|2|2|2,0:0|0:0|0:0|0:0|0:0|0:0|0:0|0:0,0:0:0:0:
19,197,340791,6,0,P|52:186|70:185,7,42.5,10|2|2|2|2|2|2|2,0:0|0:0|0:0|0:0|0:0|0:0|0:0|0:0,0:0:0:0:
121,240,341140,6,0,L|113:298,7,53.125,10|2|2|2|2|2|2|2,0:0|0:0|0:0|0:0|0:0|0:0|0:0|0:0,0:0:0:0:
203,335,341489,6,0,L|192:261,7,70.8333333333333,10|2|2|2|2|2|2|2,0:0|0:0|0:0|0:0|0:0|0:0|0:0|0:0,0:0:0:0:
276,245,341838,6,0,P|333:232|355:192,7,106.25,8|0|0|0|0|0|0|0,0:0|0:0|0:0|0:0|0:0|0:0|0:0|0:0,0:0:0:0:
286,174,342187,6,0,B|261:76|261:76|251:120,7,141.666666666667,8|0|0|0|0|0|0|0,0:0|0:0|0:0|0:0|0:0|0:0|0:0|0:0,0:0:0:0:
343,98,342536,6,0,P|380:88|342:66,14,106.25,8|0|0|0|0|0|0|0|0|0|0|0|0|0|0,0:0|0:0|0:0|0:0|0:0|0:0|0:0|0:0|0:0|0:0|0:0|0:0|0:0|0:0|0:0,0:0:0:0:
411,110,342884,6,0,B|428:191|428:191|439:141,14,106.25,8|0|0|0|0|0|0|0|0|0|0|0|0|0|0,0:0|0:0|0:0|0:0|0:0|0:0|0:0|0:0|0:0|0:0|0:0|0:0|0:0|0:0|0:0,0:0:0:0:
364,217,343233,6,0,P|389:250|435:260,1,85,2|2,0:0|0:0,0:0:0:0:
500,225,343582,1,0,0:0:0:0:
498,300,343757,2,0,P|503:327|511:346,1,42.5,0|0,0:0|0:0,0:0:0:0:
414,358,343931,6,0,L|365:351,1,42.5,0|0,0:0|0:0,0:0:0:0:
272,314,344105,1,0,0:0:0:0:
267,315,344193,1,0,0:0:0:0:
255,319,344280,1,0,0:0:0:0:
234,333,344367,1,0,0:0:0:0:
189,348,344454,1,0,0:0:0:0:
121,339,344541,1,0,0:0:0:0:
73,278,344629,5,4,0:0:0:0:
73,278,344978,2,0,P|118:258|131:222,1,85,0|0,0:0|0:0,0:0:0:0:
10,140,345239,2,0,P|20:185|71:214,1,101.999996887207,0|0,0:0|0:0,0:0:0:0:
185,133,345501,2,0,P|127:118|75:148,1,118.999996368408,0|0,0:0|0:0,0:0:0:0:
189,302,345762,2,0,P|139:250|142:177,1,136,0|0,0:0|0:0,0:0:0:0:
219,221,346024,5,8,0:0:0:0:
234,222,346111,1,2,0:0:0:0:
250,219,346198,1,2,0:0:0:0:
267,190,346286,5,8,0:0:0:0:
297,181,346373,1,2,0:0:0:0:
329,184,346460,1,2,0:0:0:0:
375,254,346547,5,8,0:0:0:0:
345,263,346634,1,2,0:0:0:0:
313,260,346721,1,2,0:0:0:0:
329,184,346809,5,8,0:0:0:0:
339,140,346896,1,2,0:0:0:0:
317,100,346983,1,2,0:0:0:0:
224,130,347071,5,8,0:0:0:0:
267,174,347158,1,2,0:0:0:0:
329,184,347245,1,2,0:0:0:0:
387,160,347332,1,2,0:0:0:0:
400,77,347419,6,0,B|338:100|293:97|280:86|280:86|280:52|313:26,1,191.250007295609,2|0,0:0|0:0,0:0:0:0:
211,51,347768,2,0,P|174:77|130:77,1,85,8|0,0:0|0:0,0:0:0:0:
6,0,348030,2,0,L|13:85,1,85,2|0,0:0|0:0,0:0:0:0:
24,252,348291,1,2,0:0:0:0:
93,140,348466,2,0,B|75:221|105:292|134:312|134:312|128:276|140:233,1,255,8|0,0:0|0:0,0:0:0:0:
355,289,348815,6,0,B|325:276|325:276|299:284|280:283|280:283|267:271|243:263|243:263|222:280|204:282|204:282|218:283|233:285,1,191.250007295609,2|0,0:0|0:0,0:0:0:0:
423,342,349164,2,0,P|439:299|428:252,1,85,8|0,0:0|0:0,0:0:0:0:
252,188,349425,2,0,L|344:182,1,85,2|0,0:0|0:0,0:0:0:0:
506,169,349687,1,2,0:0:0:0:
352,22,349861,5,8,0:0:0:0:
379,30,349948,2,0,P|418:130|408:196,1,170,0|0,0:0|0:0,0:0:0:0:
158,100,350210,6,0,B|186:122|206:132|206:132|240:94|283:74|283:74|305:83|322:89,1,191.250007295609,6|0,0:0|0:0,0:0:0:0:
127,26,350559,2,0,P|89:55|75:106,1,85,8|0,0:0|0:0,0:0:0:0:
114,281,350821,2,0,L|120:196,1,85,2|0,0:0|0:0,0:0:0:0:
127,26,351082,1,2,0:0:0:0:
8,131,351257,5,8,0:0:0:0:
16,158,351344,2,0,P|116:197|182:187,1,170,0|0,0:0|0:0,0:0:0:0:
284,33,351605,6,0,B|275:74|275:104|275:104|310:148|329:215,1,191.250007295609,2|0,0:0|0:0,0:0:0:0:
241,304,351954,2,0,P|234:283|249:290,1,42.5,8|0,0:0|0:0,0:0:0:0:
339,346,352216,2,0,P|318:353|325:338,1,42.5,2|0,0:0|0:0,0:0:0:0:
410,273,352478,2,0,P|417:294|413:294,1,21.25,2|0,0:0|0:0,0:0:0:0:
339,241,352652,6,0,B|354:203|411:162|411:162|424:193|430:203|430:203|424:162|457:108,1,255,8|0,0:0|0:0,0:0:0:0:
453,21,353001,6,0,P|417:29|390:49,1,63.7500024318696,2|0,0:0|0:0,0:0:0:0:
289,103,353175,2,0,P|253:95|226:75,1,63.7500024318696,0|0,0:0|0:0,0:0:0:0:
104,20,353350,6,0,L|111:89,1,63.7500024318696,8|0,0:0|0:0,0:0:0:0:
32,139,353524,2,0,L|39:208,1,63.7500024318696,0|0,0:0|0:0,0:0:0:0:
109,288,353698,6,0,P|138:262|139:236,1,63.7500024318696,0|0,0:0|0:0,0:0:0:0:
173,132,353873,2,0,P|178:162|203:180,1,63.7500024318696,2|0,0:0|0:0,0:0:0:0:
269,286,354047,2,0,B|282:322|304:350|304:350|355:295|354:235|312:172,1,255,8|0,0:0|0:0,0:0:0:0:
385,112,354396,6,0,P|393:148|413:175,1,63.7500024318696,2|0,0:0|0:0,0:0:0:0:
501,286,354570,2,0,P|493:322|473:349,1,63.7500024318696,0|0,0:0|0:0,0:0:0:0:
269,286,354745,6,0,P|277:250|297:223,1,63.7500024318696,8|0,0:0|0:0,0:0:0:0:
385,112,354919,2,0,P|377:76|357:49,1,63.7500024318696,0|0,0:0|0:0,0:0:0:0:
220,17,355094,6,0,L|228:87,1,63.7500024318696,0|0,0:0|0:0,0:0:0:0:
76,80,355268,2,0,L|84:150,1,63.7500024318696,2|0,0:0|0:0,0:0:0:0:
75,303,355443,6,0,L|67:233,1,63.7500024318696,8|0,0:0|0:0,0:0:0:0:
160,268,355617,2,0,L|152:198,1,63.7500024318696,0|0,0:0|0:0,0:0:0:0:
220,344,355791,6,0,B|259:375|322:368|333:302|333:302|309:320|275:313,1,191.250007295609,6|0,0:0|0:0,0:0:0:0:
322,187,356140,2,0,P|370:188|405:209,1,85,8|0,0:0|0:0,0:0:0:0:
489,376,356402,2,0,L|402:368,1,85,2|0,0:0|0:0,0:0:0:0:
215,348,356664,1,2,0:0:0:0:
451,298,356838,5,8,0:0:0:0:
470,288,356925,2,0,P|483:190|470:116,1,170,0|0,0:0|0:0,0:0:0:0:
414,32,357187,6,0,B|358:46|358:46|300:40|300:40|245:54,1,170,2|0,0:0|0:0,0:0:0:0:
111,115,357448,1,0,0:0:0:0:
103,139,357536,2,0,P|179:186|251:149,1,170,8|0,0:0|0:0,0:0:0:0:
194,79,357797,1,2,0:0:0:0:
182,101,357884,2,0,B|176:159|176:159|183:183|183:183|172:213|172:213|168:271,1,170,0|2,0:0|0:0,0:0:0:0:
67,334,358146,5,0,0:0:0:0:
52,352,358233,2,0,B|135:344|135:344|149:356|149:356|206:351|206:351|228:325|228:325|293:319|293:319,1,255,8|0,0:0|0:0,0:0:0:0:
471,318,358582,6,0,B|466:354|443:377|443:377|390:324|414:234,1,191.250007295609,2|0,0:0|0:0,0:0:0:0:
411,130,358931,6,0,P|430:133|411:148,1,42.5,8|0,0:0|0:0,0:0:0:0:
268,103,359193,2,0,P|261:84|284:93,1,42.5,2|0,0:0|0:0,0:0:0:0:
317,240,359454,2,0,P|309:248|299:234,1,21.25,2|0,0:0|0:0,0:0:0:0:
328,158,359629,6,0,B|322:93|322:93|318:50|318:50|299:35|299:35|258:39|258:39|243:57|243:57|246:90|246:90|264:102|264:102|292:99,1,255,8|0,0:0|0:0,0:0:0:0:
231,181,359978,6,0,B|203:176|175:159|175:159|174:171|174:171|160:169|160:169|159:182|159:182|145:181|145:181|144:194|144:194|131:193|131:193|130:207|130:207|106:202|68:229,1,191.250007295609,2|0,0:0|0:0,0:0:0:0:
14,332,360326,2,0,P|52:355|108:350,1,85,8|0,0:0|0:0,0:0:0:0:
273,289,360588,2,0,L|184:276,1,85,2|0,0:0|0:0,0:0:0:0:
328,158,360850,1,2,0:0:0:0:
336,206,360937,1,0,0:0:0:0:
344,255,361024,6,0,B|355:284|353:319|353:319|385:224|415:169|469:188|461:249|416:237|426:205,1,255,8|0,0:0|0:0,0:0:0:0:
453,363,361373,6,0,P|441:326|440:294,1,63.7500024318696,6|0,0:0|0:0,0:0:0:0:
498,158,361547,2,0,P|510:121|511:89,1,63.7500024318696,0|0,0:0|0:0,0:0:0:0:
371,26,361722,6,0,L|302:34,1,63.7500024318696,8|0,0:0|0:0,0:0:0:0:
337,57,361896,2,0,L|268:65,1,63.7500024318696,0|0,0:0|0:0,0:0:0:0:
184,184,362071,6,0,P|139:185|102:163,1,85,2|0,0:0|0:0,0:0:0:0:
56,51,362245,2,0,L|143:60,1,85,0|0,0:0|0:0,0:0:0:0:
308,140,362419,5,8,0:0:0:0:
308,140,362507,1,0,0:0:0:0:
308,140,362594,2,0,P|309:185|287:222,1,85,0|0,0:0|0:0,0:0:0:0:
175,268,362768,2,0,L|184:181,1,85,2|0,0:0|0:0,0:0:0:0:
417,351,362943,5,0,0:0:0:0:
417,351,363031,1,0,0:0:0:0:
417,351,363118,2,0,P|372:352|335:330,1,85,8|0,0:0|0:0,0:0:0:0:
289,218,363292,2,0,L|376:227,1,85,0|0,0:0|0:0,0:0:0:0:
447,46,363466,5,2,0:0:0:0:
447,46,363554,1,0,0:0:0:0:
447,46,363641,2,0,P|403:35|362:49,1,85,0|0,0:0|0:0,0:0:0:0:
294,149,363815,2,0,L|380:158,1,85,8|0,0:0|0:0,0:0:0:0:
235,86,363989,5,0,0:0:0:0:
235,86,364076,1,0,0:0:0:0:
235,86,364164,5,2,0:0:0:0:
180,287,364338,1,2,0:0:0:0:
133,67,364512,5,8,0:0:0:0:
193,300,364686,1,2,0:0:0:0:
11,115,364861,5,2,0:0:0:0:
208,316,365035,1,2,0:0:0:0:
192,0,365210,5,8,0:0:0:0:
223,331,365384,1,2,0:0:0:0:
304,161,365559,6,0,B|293:153|293:153|315:146|315:146|336:155|369:147,1,85,2|2,0:0|0:0,0:0:0:0:
510,200,365733,2,0,B|520:192|520:192|498:185|498:185|477:194|444:186,1,85,2|2,0:0|0:0,0:0:0:0:
264,245,365908,6,0,B|253:237|253:237|275:230|275:230|296:239|329:231,1,85,10|2,0:0|0:0,0:0:0:0:
478,281,366082,2,0,B|488:273|488:273|466:266|466:266|445:275|412:267,1,85,2|2,0:0|0:0,0:0:0:0:
223,334,366257,6,0,B|212:326|212:326|234:319|234:319|255:328|288:320,1,85,2|2,0:0|0:0,0:0:0:0:
498,366,366431,2,0,B|508:358|508:358|486:351|486:351|465:360|432:352,1,85,2|2,0:0|0:0,0:0:0:0:
264,245,366605,1,8,0:0:0:0:
243,289,366692,1,0,0:0:0:0:
223,334,366780,2,0,P|172:351|135:346,1,85,0|0,0:0|0:0,0:0:0:0:
40,211,366954,6,0,B|67:76|67:76|77:131,1,191.250007295609,6|0,0:0|0:0,0:0:0:0:
233,80,367303,2,0,P|186:62|142:65,1,85,8|0,0:0|0:0,0:0:0:0:
293,174,367565,2,0,L|381:163,1,85,2|0,0:0|0:0,0:0:0:0:
352,36,367826,2,0,P|337:56|332:95,1,42.5,2|0,0:0|0:0,0:0:0:0:
377,163,368001,5,8,0:0:0:0:
392,180,368088,2,0,P|407:271|378:347,1,170,0|0,0:0|0:0,0:0:0:0:
247,311,368350,6,0,P|203:311|163:343,1,85,2|0,0:0|0:0,0:0:0:0:
79,252,368611,2,0,P|101:213|93:163,1,85,0|0,0:0|0:0,0:0:0:0:
37,85,368873,1,0,0:0:0:0:
55,65,368960,2,0,P|130:63|188:104,1,127.5,0|2,0:0|0:0,0:0:0:0:
217,9,369309,5,0,0:0:0:0:
231,27,369396,2,0,B|275:85|366:92|393:21|393:21|365:42|319:36,1,255,8|0,0:0|0:0,0:0:0:0:
407,138,369745,6,0,B|410:182|410:182|428:196|428:196|433:245|433:245|417:262|417:262|423:316,1,191.250007295609,2|0,0:0|0:0,0:0:0:0:
317,369,370094,2,0,P|272:371|237:346,1,85,8|0,0:0|0:0,0:0:0:0:
296,203,370355,2,0,L|300:289,1,85,2|0,0:0|0:0,0:0:0:0:
244,137,370617,2,0,P|261:125|282:120,1,42.5,2|0,0:0|0:0,0:0:0:0:
204,223,370791,6,0,B|131:252|68:239|40:174|40:174|67:145|112:152,1,255,8|0,0:0|0:0,0:0:0:0:
181,46,371140,6,0,B|120:51|120:51|93:38|93:38|71:59|71:59|3:68,1,191.250007295609,0|0,0:0|0:0,0:0:0:0:
195,63,371489,2,0,P|187:108|199:150,1,85,8|0,0:0|0:0,0:0:0:0:
89,226,371751,2,0,L|4:208,1,85,2|0,0:0|0:0,0:0:0:0:
145,323,372012,1,2,0:0:0:0:
163,333,372100,1,0,0:0:0:0:
197,336,372187,5,8,0:0:0:0:
214,346,372274,2,0,P|297:363|381:331,1,170,0|0,0:0|0:0,0:0:0:0:
449,231,372536,6,0,B|418:228|418:228|404:239|404:239|367:236|367:236|356:222|345:209|345:209|314:206|314:206|300:218|300:218|298:245,1,191.250007295609,6|0,0:0|0:0,0:0:0:0:
397,123,372884,2,0,B|400:79|400:79|357:75,1,85,8|0,0:0|0:0,0:0:0:0:
253,22,373146,2,0,B|249:65|249:65|292:69,1,85,2|0,0:0|0:0,0:0:0:0:
375,0,373408,2,0,B|331:-3|331:-3|327:39,1,85,2|8,0:0|0:0,0:0:0:0:
274,144,373670,2,0,B|317:147|317:147|321:104,1,85,0|0,0:0|0:0,0:0:0:0:
200,168,373931,6,0,B|214:229|152:207,1,85,2|0,0:0|0:0,0:0:0:0:
60,260,374193,1,0,0:0:0:0:
41,243,374280,2,0,B|26:181|88:203,1,85,8|0,0:0|0:0,0:0:0:0:
176,272,374541,1,2,0:0:0:0:
160,288,374629,2,0,B|124:272|124:244,1,42.5,0|0,0:0|0:0,0:0:0:0:
80,122,374803,2,0,B|116:138|116:166,1,42.5,2|0,0:0|0:0,0:0:0:0:
114,223,374978,6,0,B|114:243|96:268|31:238|45:136|155:130|202:223|159:264|92:284,1,255,8|0,0:0|0:0,0:0:0:0:
19,359,375326,6,0,L|82:375,1,63.7500024318696,2|0,0:0|0:0,0:0:0:0:
226,216,375501,2,0,L|289:200,1,63.7500024318696,0|0,0:0|0:0,0:0:0:0:
402,342,375675,6,0,L|460:313,1,63.7500024318696,8|0,0:0|0:0,0:0:0:0:
467,98,375850,2,0,L|504:45,1,63.7500024318696,0|2,0:0|0:0,0:0:0:0:
376,20,376024,6,0,B|328:25|328:25|293:40,1,85,0|0,0:0|0:0,0:0:0:0:
166,153,376198,2,0,B|99:143|99:143|123:129,1,85,2|0,0:0|0:0,0:0:0:0:
268,135,376373,2,0,B|303:166|306:231|338:265,1,127.5,8|0,0:0|0:0,0:0:0:0:
373,357,376722,6,0,P|323:368|286:364,1,85,2|0,0:0|0:0,0:0:0:0:
76,275,376896,2,0,P|126:264|163:268,1,85,0|0,0:0|0:0,0:0:0:0:
408,239,377071,6,0,P|358:250|321:246,1,85,8|0,0:0|0:0,0:0:0:0:
82,160,377245,2,0,P|132:149|169:153,1,85,0|0,0:0|0:0,0:0:0:0:
345,131,377419,2,0,P|389:94|334:86,1,141.666666666667,8|0,0:0|0:0,0:0:0:0:
152,54,377594,2,0,P|108:17|163:9,1,141.666666666667,2|0,0:0|0:0,0:0:0:0:
251,137,377768,6,0,B|231:262|246:320|246:320|288:324|322:282,1,255,0|0,0:0|0:0,0:0:0:0:
500,217,378117,6,0,B|476:242|444:227|444:227|437:190|404:179|404:179|378:209|330:211,1,191.250007295609,6|2,0:0|0:0,0:0:0:0:
386,384,378466,2,0,L|386:298,1,85,8|2,0:0|0:0,0:0:0:0:
348,123,378728,2,0,L|348:209,1,85,0|2,0:0|0:0,0:0:0:0:
439,73,378989,2,0,L|439:29,1,42.5,0|0,0:0|0:0,0:0:0:0:
256,56,379164,6,0,L|256:312,1,255,8|0,0:0|0:0,0:0:0:0:
48,247,379512,6,0,B|-3:323|17:392|17:392|45:382|59:348,1,191.250007295609,6|2,0:0|0:0,0:0:0:0:
131,357,379861,2,0,L|131:271,1,85,8|2,0:0|0:0,0:0:0:0:
169,96,380123,2,0,L|169:182,1,85,0|2,0:0|0:0,0:0:0:0:
78,46,380384,2,0,L|78:2,1,42.5,0|0,0:0|0:0,0:0:0:0:
256,56,380559,6,0,L|256:312,1,255,8|0,0:0|0:0,0:0:0:0:
512,278,380908,6,0,B|450:260|450:260|413:265|385:272|385:272|348:275|313:254,1,191.250007295609,6|0,0:0|0:0,0:0:0:0:
206,135,381257,2,0,L|292:135,1,85,8|2,0:0|0:0,0:0:0:0:
459,189,381519,2,0,L|373:189,1,85,0|2,0:0|0:0,0:0:0:0:
343,0,381780,2,0,L|386:0,1,42.5,0|0,0:0|0:0,0:0:0:0:
512,68,381954,6,0,L|256:68,1,255,8|0,0:0|0:0,0:0:0:0:
120,212,382303,6,0,B|82:262|88:325|88:325|168:315|189:290,1,191.250007295609,6|2,0:0|0:0,0:0:0:0:
288,158,382652,2,0,L|202:158,1,85,8|2,0:0|0:0,0:0:0:0:
25,18,383001,5,2,0:0:0:0:
43,34,383088,2,0,P|93:52|133:50,1,85,2|0,0:0|0:0,0:0:0:0:
317,70,383262,2,0,P|390:108|280:143,1,255,8|8,0:0|0:0,0:0:0:0:
206,43,383698,6,0,P|218:109|193:164,1,127.500004863739,6|0,0:0|0:0,0:0:0:0:
21,233,384047,2,0,P|72:189|132:183,1,127.500004863739,8|2,0:0|0:0,0:0:0:0:
167,191,384309,1,0,0:0:0:0:
180,228,384396,2,0,P|218:278|278:298,1,127.500004863739,0|2,0:0|0:0,0:0:0:0:
346,254,384658,5,0,0:0:0:0:
367,236,384745,2,0,B|365:200|342:180|333:158|333:158|318:179|284:187|279:233,1,170,8|0,0:0|0:0,0:0:0:0:
482,297,385094,6,0,P|453:259|450:210,1,85,6|0,0:0|0:0,0:0:0:0:
463,70,385268,2,0,P|460:117|431:157,1,85,2|0,0:0|0:0,0:0:0:0:
300,282,385443,2,0,P|332:246|380:235,1,85,2|0,0:0|0:0,0:0:0:0:
384,88,385617,2,0,P|344:73|302:80,1,85,0|0,0:0|0:0,0:0:0:0:
188,167,385791,6,0,P|228:191|277:187,1,85,0|0,0:0|0:0,0:0:0:0:
112,121,385966,2,0,P|112:74|84:33,1,85,2|0,0:0|0:0,0:0:0:0:
113,202,386140,2,0,P|72:224|51:269,1,85,8|0,0:0|0:0,0:0:0:0:
150,357,386315,2,0,P|190:334|211:289,1,85,2|0,0:0|0:0,0:0:0:0:
288,220,386489,6,0,B|391:226|391:226|326:207,1,141.666666666667,6|2,0:0|0:0,0:0:0:0:
440,295,386664,2,0,B|337:289|337:289|402:308,1,141.666666666667,2|2,0:0|0:0,0:0:0:0:
425,166,386838,6,0,P|435:111|367:64,1,141.666666666667,2|2,0:0|0:0,0:0:0:0:
317,28,387012,2,0,P|307:83|375:130,1,141.666666666667,0|2,0:0|0:0,0:0:0:0:
256,136,387187,6,0,B|226:72|226:72|188:136,1,141.666666666667,0|2,0:0|0:0,0:0:0:0:
219,197,387361,2,0,B|189:261|189:261|151:197,1,141.666666666667,2|2,0:0|0:0,0:0:0:0:
82,131,387536,6,0,B|87:197|87:197|76:273,1,141.666666666667,8|2,0:0|0:0,0:0:0:0:
213,337,387710,2,0,B|208:271|208:271|219:195,1,141.666666666667,0|2,0:0|0:0,0:0:0:0:
320,166,387884,6,0,P|353:161|377:127,7,70.8333333333333,0|0|0|0|0|0|0|0,0:0|0:0|0:0|0:0|0:0|0:0|0:0|0:0,0:0:0:0:
324,236,388233,2,0,B|392:245|392:245|366:225,5,94.4444444444445,0|0|0|0|0|0,0:0|0:0|0:0|0:0|0:0|0:0,0:0:0:0:
454,279,388582,6,0,P|427:309|385:316,3,85,0|0|0|0,0:0|0:0|0:0|0:0,0:0:0:0:
455,206,388931,2,0,P|436:186|428:156,2,56.6666666666667,0|0|0,0:0|0:0|0:0,0:0:0:0:
286,77,389280,6,0,B|330:51|378:90|356:126|335:190|254:175|221:145|209:110|206:78|206:78|210:120|201:189|165:204|109:221|56:193|15:139|46:82|117:55|107:149,1,637.5,4|0,0:0|0:0,0:0:0:0:
185,314,392071,6,0,B|170:247|220:194|289:189|357:266|340:331|269:376|237:358|237:358|256:333|250:294|250:294|284:316|361:302|396:242|386:208|386:208|372:224|359:230,1,637.5,0|0,0:0|0:0,0:0:0:0:
328,167,394861,6,0,B|305:57|402:-2|402:-2|474:80|450:183|450:183|443:154|426:134|391:107|391:107|446:126|503:102|512:69,1,637.5,0|0,0:0|0:0,0:0:0:0:
327,166,397652,6,0,P|121:294|208:68,1,637.5,0|0,0:0|0:0,0:0:0:0:
202,197,400443,6,0,B|254:211|280:267|262:309|262:309|324:297|371:320|390:380|390:380|460:349|464:274|434:214|396:178|396:178|411:227|384:276,1,637.5,0|0,0:0|0:0,0:0:0:0:
310,186,403233,6,0,B|312:100|212:110|171:28|171:28|173:117|86:148|106:232|106:232|130:194|166:173|211:167|240:178|240:178|217:183|200:199,1,637.5
276,295,406024,6,0,P|330:343|299:193,1,425,0|0,0:0|0:0,0:0:0:0:
256,192,408815,12,0,411518,0:0:0:0:
218,167,411605,6,0,L|214:142,40,14.1666666666667
