osu file format v14

[General]
AudioFilename: audio.mp3
AudioLeadIn: 0
PreviewTime: 210676
Countdown: 0
SampleSet: Soft
StackLeniency: 0.2
Mode: 0
LetterboxInBreaks: 0
WidescreenStoryboard: 1

[Editor]
Bookmarks: 5560,27885,50211,72536,94862,117187,145094,166112,188350,210676,233001,255327,277653,298583,322303,344629,366954,389280,415094
DistanceSpacing: 0.9
BeatDivisor: 4
GridSize: 16
TimelineZoom: 2

[Metadata]
Title:Introduction / NEURO-CLOUD-9
TitleUnicode:Introduction / NEURO-CLOUD-9
Artist:Camellia
ArtistUnicode:かめりあ
Creator:Metronome
Version:Frenzy
Source:mazzerin
Tags:kamelcamellia neurofunk introduction insane inflame metronome bloggle smolboi turquoise kkipalt unappreciative thearchist silent over_loadcode zhuriel pishifat
BeatmapID:1816026
BeatmapSetID:868882

[Difficulty]
HPDrainRate:4.8
CircleSize:4.8
OverallDifficulty:8.8
ApproachRate:9.8
SliderMultiplier:1.8
SliderTickRate:1

[Events]
//Background and Video events
0,0,"nanomor.png",0,0
//Break Periods
2,122969,136243
2,167620,187871
//Storyboard Layer 0 (Background)
//Storyboard Layer 1 (Fail)
//Storyboard Layer 2 (Pass)
//Storyboard Layer 3 (Foreground)
//Storyboard Sound Samples

[TimingPoints]
1374,348.837209302326,4,2,1,50,1,0
5560,-133.333333333333,4,2,1,50,0,0
11141,-142.857142857143,4,2,1,50,0,0
15153,-125,4,2,1,50,0,0
16722,-128.205128205128,4,2,1,50,0,0
21606,-100,4,2,1,45,0,0
27885,-85.7142906122452,4,2,1,45,0,0
28408,-171.428571428581,4,2,1,45,0,0
29106,-128.57142857143,4,2,1,45,0,0
30676,-85.7142906122452,4,2,1,45,0,0
31199,-171.428571428581,4,2,1,45,0,0
31897,-128.571428571441,4,2,1,45,0,0
33467,-85.4700854700855,4,2,1,45,0,0
33990,-172.413793103448,4,2,1,45,0,0
34687,-128.205128205128,4,2,1,45,0,0
36257,-85.4700854700855,4,2,1,45,0,0
36780,-172.413793103448,4,2,1,45,0,0
37478,-128.205128205128,4,2,1,45,0,0
39048,-100,4,2,1,45,0,0
49513,-66.6666666666667,4,2,1,45,0,0
49687,-100,4,2,1,45,0,0
49862,-66.6666666666667,4,2,1,45,0,0
50211,-100,4,2,1,60,0,0
51693,-100,4,2,1,15,0,0
51780,-100,4,2,1,60,0,0
52914,-100,4,2,1,15,0,0
53001,-100,4,2,1,60,0,0
54484,-100,4,2,1,15,0,0
54571,-100,4,2,1,60,0,0
55705,-100,4,2,1,15,0,0
55792,-100,4,2,1,60,0,0
57275,-100,4,2,1,15,0,0
57362,-100,4,2,1,60,0,0
58496,-100,4,2,1,15,0,0
58583,-100,4,2,1,60,0,0
60065,-100,4,2,1,15,0,0
60153,-100,4,2,1,60,0,0
61374,-100,4,3,1,60,0,0
66955,-100,4,3,1,65,0,0
71141,-125,4,3,1,30,0,0
71403,-125,4,3,1,15,0,0
71839,-250,4,3,1,30,0,0
72187,-500,4,3,1,30,0,0
72536,-50,4,2,1,75,0,1
72885,-66.6666666666667,4,2,1,75,0,1
75327,-50,4,2,1,75,0,1
75676,-66.6666666666667,4,2,1,75,0,1
78118,-50,4,2,1,75,0,1
78467,-66.6666666666667,4,2,1,75,0,1
80908,-50,4,2,1,75,0,1
81257,-66.6666666666667,4,2,1,75,0,1
83699,-40,4,2,1,75,0,1
84048,-66.6666666666667,4,2,1,75,0,1
86490,-50,4,2,1,75,0,1
86839,-66.6666666666667,4,2,1,75,0,1
89280,-50,4,2,1,75,0,1
89629,-66.6666666666667,4,2,1,75,0,1
92071,-50,4,2,1,75,0,1
92420,-66.6666666666667,4,2,1,75,0,1
94775,-66.6666666666667,4,2,1,75,0,0
94862,-100,4,2,0,70,0,0
96344,-100,4,2,0,5,0,0
96432,-100,4,2,0,70,0,0
97565,-100,4,2,0,5,0,0
97653,-100,4,2,0,70,0,0
99135,-100,4,2,0,5,0,0
99223,-100,4,2,0,70,0,0
100356,-100,4,2,0,5,0,0
100443,-100,4,2,0,70,0,0
101925,-100,4,2,0,5,0,0
102013,-100,4,2,0,70,0,0
103146,-100,4,2,0,5,0,0
103234,-100,4,2,0,70,0,0
104716,-100,4,2,0,5,0,0
104804,-100,4,2,0,70,0,0
106025,-100,4,2,0,70,0,0
107507,-100,4,2,0,5,0,0
107595,-100,4,2,0,70,0,0
108728,-100,4,2,0,5,0,0
108816,-100,4,2,0,70,0,0
110298,-100,4,2,0,5,0,0
110386,-100,4,2,0,70,0,0
111519,-100,4,2,0,5,0,0
111607,-100,4,2,0,70,0,0
115792,-50,4,2,0,70,0,0
117187,-400,4,2,0,70,0,0
122071,-200,4,2,0,70,0,0
122420,-133.333333333333,4,2,0,70,0,0
145094,-50,4,2,0,70,0,0
145618,-33.3333333333333,4,2,0,70,0,0
145792,-400,4,2,0,70,0,0
146490,-100,4,2,0,70,0,0
147536,-400,4,2,0,70,0,0
149280,-100,4,2,0,70,0,0
150327,-149.925037481259,4,2,0,70,0,0
150676,-50,4,2,0,70,0,0
151199,-33.3333333333333,4,2,0,70,0,0
151374,-476.190476190476,4,2,0,70,0,0
152187,-100,4,2,0,70,0,0
153118,-200,4,2,0,70,0,0
153467,-200,4,2,0,70,0,0
154862,-200,4,2,0,70,0,0
156257,-50,4,2,0,70,0,0
156780,-33.3333333333333,4,2,0,70,0,0
156955,-133.333333333333,4,2,0,70,0,0
157653,-66.6666666666667,4,2,0,70,0,0
159397,-50,4,2,0,70,0,0
159746,-133.333333333333,4,2,0,70,0,0
160443,-100,4,2,0,70,0,0
161839,-50,4,2,0,70,0,0
162362,-33.3333333333333,4,2,0,70,0,0
162536,-133.333333333333,4,2,0,70,0,0
163234,-75.187969924812,4,2,0,70,0,0
164280,-50,4,2,0,70,0,0
164629,-40,4,2,0,70,0,0
165327,-133.333333333333,4,2,0,70,0,0
165676,-100,4,2,0,50,0,0
193932,-90.9090909090909,4,2,0,40,0,0
195327,-83.3333333333333,4,2,0,60,0,0
196722,-71.4285714285714,4,2,0,80,0,0
198118,-62.5,4,2,0,70,0,0
207885,-333.333333333333,4,2,0,70,0,0
209280,-55.5555555555556,4,2,0,70,0,0
210937,-100,4,2,0,70,0,0
211810,-40,4,2,0,70,0,0
212333,-100,4,2,0,70,0,0
213030,-100,4,2,0,70,0,0
213379,-55.5555555555556,4,2,0,70,0,0
213728,-100,4,2,0,70,0,0
214426,-40,4,2,0,70,0,0
215124,-100,4,2,0,70,0,0
215908,-55.5555555555556,4,2,0,70,0,0
216519,-100,4,2,0,70,0,0
217391,-40,4,2,0,70,0,0
217914,-100,4,2,0,70,0,0
218961,-55.5555555555556,4,2,0,70,0,0
219135,-45.4545454545455,4,2,0,70,0,0
219484,-41.6666666666667,4,2,0,70,0,0
219833,-55.5555555555556,4,2,0,70,0,0
222100,-100,4,2,0,70,0,0
222798,-40,4,2,0,70,0,0
223496,-100,4,2,0,70,0,0
224542,-55.5555555555556,4,2,0,70,0,0
224891,-100,4,2,0,70,0,0
225763,-40,4,2,0,70,0,0
226286,-100,4,2,0,70,0,0
226635,-55.5555555555556,4,2,0,70,0,0
228030,-83.3333333333333,4,2,0,70,0,0
231606,-55.5555555555556,4,2,0,70,0,0
232565,-333.333333333333,4,2,0,70,0,0
233001,-66.6666666666667,4,2,0,70,0,0
235443,-50,4,2,0,70,0,0
236141,-133.333333333333,4,2,0,70,0,0
237187,-50,4,2,0,70,0,0
249746,-66.6666666666667,4,2,0,70,0,0
250443,-62.5,4,2,0,70,0,0
251141,-58.8235294117647,4,2,0,70,0,0
251839,-55.5555555555556,4,2,0,70,0,0
255937,-40,4,2,0,70,0,0
258118,-55.5555555555556,4,2,0,70,0,0
258728,-40,4,2,0,70,0,0
259862,-55.5555555555556,4,2,0,70,0,0
262129,-40,4,2,0,70,0,0
262653,-55.5555555555556,4,2,0,70,0,0
264222,-33.3333333333333,4,2,0,70,0,0
264746,-100,4,2,0,70,0,0
265094,-55.5555555555556,4,2,0,70,0,0
266141,-200,4,2,0,70,0,0
266490,-55.5555555555556,4,2,0,70,0,0
267711,-40,4,2,0,70,0,0
268496,-55.5555555555556,4,2,0,70,0,0
269891,-40,4,2,0,70,0,0
271025,-55.5555555555556,4,2,0,70,0,0
272420,-100,4,2,0,70,0,0
272943,-166.666666666667,4,2,0,70,0,0
273118,-83.3333333333333,4,2,0,70,0,0
273467,-100,4,2,0,70,0,0
274077,-166.666666666667,4,2,0,70,0,0
274251,-83.3333333333333,4,2,0,70,0,0
274862,-100,4,2,0,70,0,0
275472,-166.666666666667,4,2,0,70,0,0
275734,-83.3333333333333,4,2,0,70,0,0
276432,-333.333333333333,4,2,0,70,0,0
277653,-35.7142857142857,4,2,1,60,0,0
278001,-66.6666666666667,4,2,1,60,0,0
278525,-90.9090909090909,4,2,1,60,0,0
278699,-181.818181818182,4,2,1,60,0,0
279048,-33.3333333333333,4,2,1,60,0,0
279571,-66.6666666666667,4,2,1,60,0,0
279746,-83.3333333333333,4,2,1,60,0,0
280443,-500,4,2,1,60,0,0
280792,-50,4,2,1,60,0,0
281141,-133.333333333333,4,2,1,60,0,0
281490,-40,4,2,1,60,0,0
281839,-100,4,2,1,60,0,0
282100,-200,4,2,1,60,0,0
282362,-66.6666666666667,4,2,1,60,0,0
282972,-52.6315789473684,4,2,1,60,0,0
283234,-40,4,2,1,60,0,0
283583,-133.333333333333,4,2,1,60,0,0
283757,-76.9230769230769,4,2,1,60,0,0
284280,-100,4,2,1,60,0,0
284455,-50,4,2,1,60,0,0
284629,-43.4782608695652,4,2,1,60,0,0
284978,-100,4,2,1,60,0,0
285676,-66.6666666666667,4,2,1,60,0,0
286025,-133.333333333333,4,2,1,60,0,0
286374,-50,4,2,1,60,0,0
286635,-55.5555555555556,4,2,1,60,0,0
287071,-333.333333333333,4,2,1,60,0,0
287246,-100,4,2,1,60,0,0
287420,-50,4,2,1,60,0,0
287769,-55.5555555555556,4,2,1,60,0,0
288030,-100,4,2,1,60,0,0
288292,-133.333333333333,4,2,1,60,0,0
288467,-200,4,2,1,60,0,0
288641,-333.333333333333,4,2,1,60,0,0
288815,-40.4040404040404,4,2,1,60,0,0
289164,-41.6666666666667,4,2,1,60,0,0
289513,-43.4782608695652,4,2,1,60,0,0
289862,-45.4545454545455,4,2,1,60,0,0
290211,-63.4920634920635,4,2,1,60,0,0
290560,-66.6666666666667,4,2,1,60,0,0
290908,-71.4285714285714,4,2,1,60,0,0
291257,-76.9230769230769,4,2,1,60,0,0
291606,-102.564102564103,4,2,1,60,0,0
291955,-111.111111111111,4,2,1,60,0,0
292304,-125,4,2,1,60,0,0
292653,-142.857142857143,4,2,1,60,0,0
293001,-166.666666666667,4,2,1,60,0,0
293350,-200,4,2,1,60,0,0
293699,-250,4,2,1,60,0,0
294048,-100,4,2,1,60,0,0
294222,-50,4,2,1,60,0,0
298583,-133.333333333333,4,2,1,60,0,0
299280,-66.6666666666667,4,2,1,40,0,1
299281,279.06976744186,4,2,1,40,1,1
299978,348.837209302326,4,2,1,100,1,0
301024,-200,4,2,0,100,0,0
301373,-100,4,2,0,100,0,0
302419,-200,4,2,0,100,0,0
302768,-100,4,2,0,100,0,0
306605,-200,4,2,0,100,0,0
306954,-100,4,2,0,100,0,0
308001,-200,4,2,0,100,0,0
308350,-100,4,2,0,100,0,0
312187,-200,4,2,0,100,0,0
312536,-100,4,2,0,100,0,0
313582,-200,4,2,0,100,0,0
313931,-100,4,2,0,100,0,0
317768,-200,4,2,0,100,0,0
318117,-100,4,2,0,100,0,0
319164,-200,4,2,0,100,0,0
319512,-100,4,2,0,100,0,0
319861,-125,4,2,0,100,0,0
320210,-166.666666666667,4,2,0,100,0,0
320559,-250,4,2,0,100,0,0
320908,-100,4,2,0,100,0,0
322303,-125,4,2,1,60,0,0
333466,-125,4,3,1,70,0,0
343233,-125,4,2,1,70,0,0
344105,-100,4,3,1,70,0,0
346024,-333.333333333333,4,2,1,100,0,0
346286,-125,4,2,1,100,0,0
347071,-58.8235294117647,4,2,1,100,0,0
347419,-43.4782608695652,4,2,1,100,0,0
347767,-133.333333333333,4,2,1,100,0,0
348030,-58.8235294117647,4,2,1,100,0,0
348291,-45.4545454545455,4,2,1,100,0,0
348466,-133.333333333333,4,2,1,100,0,0
348640,-33.3333333333333,4,2,1,100,0,0
349164,-133.333333333333,4,2,1,100,0,0
349425,-58.8235294117647,4,2,1,100,0,0
349687,-45.4545454545455,4,2,1,100,0,0
349861,-41.6666666666667,4,2,1,100,0,0
350210,-35.7142857142857,4,2,1,100,0,0
350559,-133.333333333333,4,2,1,100,0,0
350821,-58.8235294117647,4,2,1,100,0,0
351082,-45.4545454545455,4,2,1,100,0,0
351257,-66.6666666666667,4,2,1,100,0,0
351605,-200,4,2,1,100,0,0
351954,-66.6666666666667,4,2,1,100,0,0
352216,-58.8235294117647,4,2,1,100,0,0
352478,-43.4782608695652,4,2,1,100,0,0
353001,-133.333333333333,4,2,1,100,0,0
353524,-33.3333333333333,4,2,1,100,0,0
354396,-66.6666666666667,4,2,1,100,0,0
355137,-66.6666666666667,4,2,1,5,0,0
355181,-66.6666666666667,4,2,1,100,0,0
355225,-66.6666666666667,4,2,1,5,0,0
355268,-66.6666666666667,4,2,1,100,0,0
355312,-66.6666666666667,4,2,1,5,0,0
355355,-66.6666666666667,4,2,1,100,0,0
355399,-66.6666666666667,4,2,1,5,0,0
355443,-66.6666666666667,4,2,1,100,0,0
355791,-31.25,4,2,1,100,0,0
356140,-133.333333333333,4,2,1,100,0,0
356402,-58.8235294117647,4,2,1,100,0,0
356664,-43.4782608695652,4,2,1,100,0,0
356838,-333.333333333333,4,2,1,100,0,0
357187,-50,4,2,1,100,0,0
357536,-133.333333333333,4,2,1,100,0,0
357797,-58.8235294117647,4,2,1,100,0,0
358059,-43.4782608695652,4,2,1,100,0,0
358233,-100,4,2,1,100,0,0
358582,-50,4,2,1,100,0,0
358931,-133.333333333333,4,2,1,100,0,0
359193,-58.8235294117647,4,2,1,100,0,0
359454,-43.4782608695652,4,2,1,100,0,0
359629,-133.333333333333,4,2,1,100,0,0
359803,-33.3333333333333,4,2,1,100,0,0
360326,-133.333333333333,4,2,1,100,0,0
360588,-58.8235294117647,4,2,1,100,0,0
360850,-43.4782608695652,4,2,1,100,0,0
361024,-41.6666666666667,4,2,1,100,0,0
361373,-333.333333333333,4,2,1,100,0,0
361722,-250,4,2,1,100,0,0
362071,-142.857142857143,4,2,1,100,0,0
362419,-111.111111111111,4,2,1,100,0,0
362768,-100,4,2,1,100,0,0
362943,-90.9090909090909,4,2,1,100,0,0
363117,-83.3333333333333,4,2,1,100,0,0
363291,-76.9230769230769,4,2,1,100,0,0
363466,-71.4285714285714,4,2,1,100,0,0
363640,-66.6666666666667,4,2,1,100,0,0
363815,-62.5,4,2,1,100,0,0
363989,-58.8235294117647,4,2,1,100,0,0
364164,-50,4,2,1,100,0,0
364338,-47.6190476190476,4,2,1,100,0,0
364512,-45.4545454545455,4,2,1,100,0,0
364687,-43.4782608695652,4,2,1,100,0,0
364861,-41.6666666666667,4,2,1,100,0,0
365210,-40,4,2,1,100,0,0
366954,-133.333333333333,4,2,1,100,0,0
367303,-55.5555555555556,4,2,1,100,0,0
368350,-55.5555555555556,4,2,1,100,0,0
369396,-100,4,2,1,100,0,0
369745,-33.3333333333333,4,2,1,100,0,0
370094,-55.5555555555556,4,2,1,100,0,0
370617,-100,4,2,1,100,0,0
370791,-55.5555555555556,4,2,1,100,0,0
371751,-41.6666666666667,4,2,1,100,0,0
372012,-100,4,2,1,100,0,0
372274,-45.4545454545455,4,2,1,100,0,0
372536,-38.4615384615385,4,2,1,100,0,0
372884,-62.5,4,2,1,100,0,0
373931,-133.333333333333,4,2,1,100,0,0
374214,-62.5,4,2,1,100,0,0
374978,-100,4,2,1,100,0,0
375326,-66.6666666666667,4,2,1,100,0,0
377419,-50,4,2,1,100,0,0
377768,-80,4,2,1,100,0,0
378117,-62.5,4,2,1,100,0,0
378640,-45.4545454545455,4,2,1,100,0,0
379164,-50,4,2,1,100,0,0
379512,-58.8235294117647,4,2,1,100,0,0
380036,-43.4782608695652,4,2,1,100,0,0
380559,-47.6190476190476,4,2,1,100,0,0
380908,-33.3333333333333,4,2,1,100,0,0
381148,-55.5555555555556,4,2,1,100,0,0
381954,-100,4,2,1,100,0,0
382303,-50,4,2,1,100,0,0
383262,-66.6666666666667,4,2,1,100,0,0
383524,-100,4,2,1,100,0,0
383698,-55.5555555555556,4,2,1,100,0,0
389280,-200,4,2,1,40,0,0
405588,-200,4,2,1,30,0,0
405850,-200,4,2,1,20,0,0
406111,-200,4,2,1,10,0,0
406198,-200,4,2,1,60,0,0
406547,-200,4,2,1,55,0,0
406722,-200,4,2,1,70,0,0
406896,-200,4,2,1,55,0,0
407071,-200,4,2,1,70,0,0
407245,-200,4,2,1,55,0,0
407420,-200,4,2,1,70,0,0
407594,-200,4,2,1,55,0,0
407769,-200,4,2,1,70,0,0
407943,-200,4,2,1,55,0,0
408118,-200,4,2,1,70,0,0
408292,-200,4,2,1,55,0,0
408467,-200,4,2,1,70,0,0
408815,-200,4,2,1,40,0,0
409164,-200,4,2,1,35,0,0
409339,-200,4,2,1,50,0,0
409513,-200,4,2,1,35,0,0
409688,-200,4,2,1,50,0,0
409861,-200,4,2,1,35,0,0
410036,-200,4,2,1,50,0,0
410210,-200,4,2,1,35,0,0
410385,-200,4,2,1,50,0,0
410559,-200,4,2,1,35,0,0
410734,-200,4,2,1,50,0,0
410908,-200,4,2,1,35,0,0
411083,-125,4,2,1,50,0,0
412478,-200,4,2,1,48,0,0
412565,-200,4,2,1,45,0,0
412652,-200,4,2,1,42,0,0
412696,-200,4,2,1,39,0,0
412739,-200,4,2,1,36,0,0
412783,-200,4,2,1,33,0,0
412826,-200,4,2,1,30,0,0
412870,-200,4,2,1,27,0,0
412914,-200,4,2,1,24,0,0
412957,-200,4,2,1,21,0,0
413001,-200,4,2,1,18,0,0
413044,-200,4,2,1,16,0,0
413088,-200,4,2,1,14,0,0
413132,-200,4,2,1,10,0,0
413175,-200,4,2,1,9,0,0
413698,-200,4,2,1,9,0,0
414091,-200,4,2,1,8,0,0
414353,-200,4,2,1,8,0,0
414789,-200,4,2,1,7,0,0
415137,-200,4,2,1,6,0,0
415268,-200,4,2,1,5,0,0

[Colours]
Combo1 : 255,32,32
Combo2 : 255,128,32

[HitObjects]
256,192,1374,12,0,5472,0:0:0:0:
113,93,5560,6,0,B|180:43|180:43|258:71|258:71|33:236|33:236|185:151|341:236|341:236|315:317|118:258|89:353|89:353|178:405|258:227|381:278|381:278|346:225|363:160|407:129,1,1518.75005793572
472,216,9571,5,4,3:0:0:0:
472,232,9658,1,4,3:0:0:0:
472,248,9746,1,6,3:0:0:0:
282,280,9920,1,4,3:0:0:0:
349,99,10094,1,4,3:0:0:0:
472,264,10269,5,6,3:0:0:0:
280,245,10443,1,4,3:0:0:0:
391,88,10617,1,4,3:0:0:0:
472,280,10792,5,4,3:0:0:0:
286,335,10967,1,4,3:0:0:0:
323,151,11141,2,0,B|387:193|363:295|363:295|314:291|286:334|286:334|306:185|186:153|120:227|120:227|186:254|201:270|201:270|208:198|254:131|254:131|174:89|101:85|101:85|178:92|216:48|295:30|295:30|387:57|391:88|391:88|346:39|265:68,1,1385.99995770264,2|0,0:0|0:0,0:0:0:0:
391,87,15153,5,4,3:0:0:0:
405,99,15211,1,4,3:0:0:0:
417,113,15269,1,4,3:0:0:0:
427,129,15327,2,4,P|441:161|447:192,1,36,6|4,3:0|3:0,3:0:0:0:
367,213,15501,1,4,3:0:0:0:
375,230,15560,1,4,3:0:0:0:
387,244,15676,2,4,P|399:258|432:273,2,48,4|4|4,3:0|3:0|3:0,3:0:0:0:
512,232,16025,6,4,P|523:273|517:308,1,72,6|4,3:0|3:0,3:0:0:0:
420,355,16374,1,4,3:0:0:0:
391,352,16461,1,4,3:0:0:0:
363,342,16548,1,4,3:0:0:0:
337,329,16635,1,4,3:0:0:0:
310,338,16722,6,0,B|269:371|205:360|205:360|240:274|169:223|169:223|219:153|329:163|329:163|230:139|230:58|230:58|172:148|91:150|91:150|121:217|68:256|68:256|167:283|131:353,1,1017.90003417023,2|0,0:0|0:0,0:0:0:0:
216,296,19339,1,4,3:0:0:0:
234,294,19397,1,4,3:0:0:0:
252,291,19455,1,4,3:0:0:0:
270,286,19513,2,4,P|294:279|311:271,2,35.1000011782837,6|4|4,3:0|3:0|3:0,3:0:0:0:
170,223,19862,5,4,3:0:0:0:
328,163,20036,2,4,L|389:141,2,35.1000011782837,6|4|4,3:0|3:0|3:0,3:0:0:0:
213,56,20385,5,4,3:0:0:0:
300,329,20560,2,4,L|316:381,2,35.1000011782837,6|4|4,3:0|3:0|3:0,3:0:0:0:
47,103,20908,5,6,3:0:0:0:
349,214,21083,1,4,3:0:0:0:
342,197,21141,1,4,3:0:0:0:
335,180,21199,1,4,3:0:0:0:
328,163,21257,1,6,3:0:0:0:
229,132,21432,5,4,3:0:0:0:
238,149,21490,1,4,3:0:0:0:
246,166,21548,1,4,3:0:0:0:
257,187,21606,2,4,L|280:231,1,45,6|4,3:0|3:0,3:0:0:0:
320,145,21780,2,4,L|297:96,1,45,4|4,3:0|3:0,3:0:0:0:
239,58,21955,5,6,3:0:0:0:
198,59,22042,1,4,3:0:0:0:
167,85,22129,1,4,3:0:0:0:
153,123,22217,1,4,3:0:0:0:
158,163,22304,2,0,B|174:238|264:274|264:274|241:344|155:362|155:362|85:323|75:254|75:254|225:209|276:133|276:133|294:216|423:207|423:207|352:212|320:242,1,945,2|0,0:0|0:0,0:0:0:0:
263,274,24222,5,4,3:0:0:0:
244,289,24280,1,4,3:0:0:0:
228,307,24339,1,4,3:0:0:0:
218,329,24397,1,6,3:0:0:0:
348,314,24746,5,4,3:0:0:0:
383,308,24833,1,4,3:0:0:0:
414,290,24920,1,4,3:0:0:0:
436,261,25007,1,4,3:0:0:0:
443,216,25094,5,6,3:0:0:0:
434,171,25182,1,4,3:0:0:0:
450,129,25269,1,4,3:0:0:0:
406,141,25356,1,4,3:0:0:0:
362,130,25443,1,6,3:0:0:0:
292,72,25618,5,4,3:0:0:0:
269,33,25705,1,4,3:0:0:0:
229,12,25792,1,4,3:0:0:0:
184,9,25879,1,4,3:0:0:0:
142,26,25967,1,6,3:0:0:0:
205,89,26141,5,4,3:0:0:0:
225,133,26228,1,4,3:0:0:0:
219,182,26315,1,4,3:0:0:0:
264,203,26403,1,4,3:0:0:0:
298,238,26490,1,6,3:0:0:0:
312,373,26664,5,4,3:0:0:0:
219,182,26839,1,4,3:0:0:0:
430,196,27013,5,4,3:0:0:0:
424,231,27100,1,4,3:0:0:0:
405,261,27187,2,4,P|365:301|299:317,1,120,4|4,3:0|3:0,3:0:0:0:
146,261,27711,1,4,3:0:0:0:
146,261,27798,1,4,3:0:0:0:
146,261,27885,6,0,B|231:271|231:271|274:252|274:252|351:259,1,210.000008010865
362,382,28408,1,0,0:0:0:0:
362,382,28757,2,0,P|351:330|353:321,1,52.5000020027161
493,206,29106,6,0,P|489:257|387:292,1,140
350,259,29629,1,0,0:0:0:0:
419,222,29804,1,0,0:0:0:0:
421,211,29978,1,0,0:0:0:0:
326,154,30153,1,0,0:0:0:0:
347,250,30327,1,0,0:0:0:0:
424,200,30501,1,0,0:0:0:0:
430,94,30676,6,0,B|383:117|383:117|269:108|269:108|234:80,1,210.000008010865
147,146,31199,2,0,P|197:162|204:168,1,52.499999332428
102,83,31548,2,0,P|154:72|163:74,1,52.5000020027161
74,153,31897,1,0,0:0:0:0:
74,153,32246,5,0,0:0:0:0:
81,189,32420,1,0,0:0:0:0:
0,219,32594,1,0,0:0:0:0:
3,209,32768,1,0,0:0:0:0:
89,231,32943,1,0,0:0:0:0:
88,118,33118,1,0,0:0:0:0:
7,199,33292,1,0,0:0:0:0:
98,269,33467,6,0,B|265:287|265:287|310:273,1,210.600000803375
276,160,33990,2,0,P|263:183|260:209,1,52.499999332428
386,281,34339,2,0,P|369:230|363:223,1,52.499999332428
338,346,34687,6,0,P|401:359|413:357,1,70.2000023565675
512,194,35036,2,0,P|477:190|442:192,2,70.2000023565675
458,302,35560,1,0,0:0:0:0:
512,204,35734,1,0,0:0:0:0:
370,231,35908,2,0,B|363:193|363:193|376:119,1,105.300003534851
418,68,36257,6,0,P|362:107|225:72,1,210.600000803375
166,38,36780,1,0,0:0:0:0:
166,38,37129,2,0,P|155:90|157:99,1,52.5000020027161
8,250,37478,6,0,P|40:234|74:229,1,70.2000023565675
166,167,37827,2,0,P|131:161|101:144,2,70.2000023565675
123,291,38350,1,0,0:0:0:0:
123,291,38525,2,0,L|119:371,1,70.2000023565675
250,284,38873,1,0,0:0:0:0:
250,284,39048,6,0,L|345:277,1,90
510,266,39397,1,0,0:0:0:0:
490,343,39571,1,0,0:0:0:0:
493,333,39746,1,0,0:0:0:0:
378,212,39920,1,0,0:0:0:0:
487,353,40094,1,0,0:0:0:0:
307,200,40269,1,0,0:0:0:0:
304,190,40444,5,0,0:0:0:0:
448,226,40618,1,0,0:0:0:0:
310,210,40792,1,0,0:0:0:0:
448,133,40967,1,0,0:0:0:0:
448,133,41141,2,0,L|358:140,1,90
223,256,41490,2,0,L|231:156,1,90
232,153,41839,6,0,L|137:160,1,90
16,166,42187,1,0,0:0:0:0:
121,237,42362,1,0,0:0:0:0:
124,227,42537,1,0,0:0:0:0:
160,91,42711,1,0,0:0:0:0:
28,211,42885,1,0,0:0:0:0:
3,124,43060,1,0,0:0:0:0:
0,114,43235,5,0,0:0:0:0:
234,153,43408,1,0,0:0:0:0:
94,159,43583,1,0,0:0:0:0:
207,327,43758,1,0,0:0:0:0:
207,327,43932,2,0,L|199:237,1,90
28,384,44280,2,0,L|35:294,1,90
36,281,44629,6,0,L|125:288,1,90
299,302,44978,1,0,0:0:0:0:
149,372,45153,1,0,0:0:0:0:
146,362,45328,1,0,0:0:0:0:
248,240,45501,1,0,0:0:0:0:
152,382,45676,1,0,0:0:0:0:
225,327,45850,1,0,0:0:0:0:
228,317,46025,5,0,0:0:0:0:
99,183,46199,1,0,0:0:0:0:
222,337,46373,1,0,0:0:0:0:
331,231,46548,2,0,L|324:122,1,90
477,219,46897,2,0,L|474:264,1,45
341,222,47071,2,0,L|334:113,1,90
345,123,47420,6,0,L|255:131,1,90
147,244,47769,2,0,B|191:236|191:236|229:212,1,90
425,140,48118,2,0,L|335:131,1,90
227,19,48467,2,0,B|271:26|271:26|309:50,1,90
177,141,48815,6,0,L|87:149,1,90
0,166,49164,1,0,0:0:0:0:
3,156,49338,1,0,0:0:0:0:
147,343,49513,2,0,P|154:288|142:231,1,101.250003862381
137,232,49687,2,0,L|80:227,1,45
26,311,49862,2,0,B|63:323|63:323|255:308,1,202.500007724762
307,304,50211,5,0,0:0:0:0:
448,226,50385,1,0,0:0:0:0:
309,142,50560,1,0,0:0:0:0:
452,64,50734,1,0,0:0:0:0:
368,204,50908,1,0,0:0:0:0:
370,40,51083,1,0,0:0:0:0:
511,123,51257,1,0,0:0:0:0:
368,204,51432,2,8,B|325:228|325:228|276:229|276:229|227:258|227:258,1,135
170,280,51780,5,0,0:0:0:0:
31,163,51955,1,0,0:0:0:0:
201,101,52129,1,0,0:0:0:0:
84,239,52304,1,0,0:0:0:0:
116,60,52478,1,0,0:0:0:0:
172,231,52653,2,2,B|196:281|196:281|197:330|197:330|221:373,1,135
273,277,53001,5,0,0:0:0:0:
462,217,53176,1,0,0:0:0:0:
269,175,53350,1,0,0:0:0:0:
402,29,53525,1,0,0:0:0:0:
359,221,53699,1,0,0:0:0:0:
301,34,53874,1,0,0:0:0:0:
491,77,54048,1,0,0:0:0:0:
359,221,54222,2,8,B|323:255|323:255|276:268|276:268|236:309|236:309,1,135
172,357,54571,5,0,0:0:0:0:
34,189,54746,1,0,0:0:0:0:
164,17,54920,1,0,0:0:0:0:
22,179,55094,1,0,0:0:0:0:
160,347,55269,1,0,0:0:0:0:
344,235,55443,2,12,B|383:213|383:213|396:201|396:201|411:191|411:191|443:178|443:178|462:164|462:164,1,135,14|14,0:0|0:0,0:0:0:0:
353,139,55792,5,0,0:0:0:0:
141,89,55967,1,0,0:0:0:0:
203,298,56141,1,0,0:0:0:0:
253,89,56315,1,0,0:0:0:0:
105,245,56490,1,0,0:0:0:0:
311,183,56664,1,0,0:0:0:0:
101,133,56839,1,0,0:0:0:0:
257,281,57013,2,8,B|294:313|294:313|311:358|311:358|355:395|355:395,1,135
355,265,57362,5,0,0:0:0:0:
414,39,57536,1,0,0:0:0:0:
236,219,57711,1,0,0:0:0:0:
476,265,57885,1,0,0:0:0:0:
310,100,58060,1,0,0:0:0:0:
371,325,58234,2,2,B|358:266|358:266|318:236|318:236|308:193,1,135
298,338,58583,5,0,0:0:0:0:
47,323,58757,1,0,0:0:0:0:
185,113,58932,1,0,0:0:0:0:
170,363,59106,1,0,0:0:0:0:
58,139,59280,1,0,0:0:0:0:
266,276,59455,1,0,0:0:0:0:
17,261,59629,1,0,0:0:0:0:
240,149,59804,2,8,B|280:121|280:121|329:116|329:116|375:82|375:82,1,135
470,16,60153,5,0,0:0:0:0:
427,281,60327,1,0,0:0:0:0:
176,376,60501,1,0,0:0:0:0:
220,112,60676,1,0,0:0:0:0:
446,288,60850,1,0,0:0:0:0:
239,119,61025,1,0,0:0:0:0:
471,18,61199,1,0,0:0:0:0:
323,200,61374,6,0,L|257:275,1,90
0,151,61722,2,0,L|59:83,1,90
345,122,62071,2,0,L|285:189,1,90
5,117,62420,2,0,L|64:49,1,90
111,334,62769,6,0,L|36:268,1,90
160,12,63117,2,0,L|227:71,1,90
189,356,63466,2,0,L|121:296,1,90
194,16,63815,2,0,L|261:75,1,90
465,279,64164,6,0,L|399:354,1,90
143,230,64512,2,0,L|202:163,1,90
487,201,64861,2,0,L|427:269,1,90
147,196,65210,2,0,L|206:129,1,90
394,40,65560,6,0,L|469:106,1,90
345,362,65908,2,0,L|278:303,1,90
316,18,66257,2,0,L|384:78,1,90
311,358,66606,2,0,L|244:299,1,90
102,310,66955,5,0,0:0:0:0:
102,310,67129,1,0,0:0:0:0:
335,234,67304,5,0,0:0:0:0:
335,234,67478,1,0,0:0:0:0:
88,187,67653,5,0,0:0:0:0:
88,187,67827,1,0,0:0:0:0:
337,141,68001,5,0,0:0:0:0:
337,141,68175,1,0,0:0:0:0:
238,342,68350,5,0,0:0:0:0:
238,342,68524,1,0,0:0:0:0:
108,119,68699,5,0,0:0:0:0:
108,119,68873,1,0,0:0:0:0:
334,150,69048,5,0,0:0:0:0:
334,150,69222,1,0,0:0:0:0:
38,121,69397,5,0,0:0:0:0:
38,121,69571,1,0,0:0:0:0:
498,272,69746,5,0,0:0:0:0:
479,252,69833,1,0,0:0:0:0:
453,243,69920,1,0,0:0:0:0:
426,245,70007,1,0,0:0:0:0:
391,265,70094,5,0,0:0:0:0:
350,270,70182,1,0,0:0:0:0:
310,260,70269,1,0,0:0:0:0:
276,238,70356,1,0,0:0:0:0:
279,184,70443,6,0,L|218:189,3,45
302,110,70792,6,0,L|362:115,3,45
149,247,71141,6,0,B|172:277|172:277|209:287|209:287|239:319,1,108
167,353,71490,2,0,B|123:364|123:364|92:356,1,72
8,310,71839,2,0,L|8:268,1,36
9,209,72187,6,0,L|9:192,1,18
32,73,72536,6,0,L|115:121,1,90
208,144,72711,2,0,L|130:99,1,90
323,63,72885,6,0,P|290:71|265:93,1,67.5000025749208
205,225,73060,1,0,0:0:0:0:
198,255,73147,1,0,0:0:0:0:
208,288,73234,2,0,P|233:309|265:318,1,67.5000025749208
461,276,73408,1,0,0:0:0:0:
202,303,73583,2,0,P|232:317|265:317,1,67.5000025749208
504,186,73757,6,0,B|465:145|412:157|417:167|368:182|311:117,1,202.500007724762
323,63,74106,2,0,P|313:95|320:128,1,67.5000025749208
348,300,74280,2,0,P|357:267|350:234,1,67.5000025749208
179,160,74455,1,0,0:0:0:0:
149,176,74542,1,0,0:0:0:0:
130,203,74629,2,0,P|120:235|127:268,1,67.5000025749208
348,300,74804,1,0,0:0:0:0:
126,267,74978,2,0,P|140:185|270:186,1,202.500007724762
126,267,75327,6,0,L|98:162,1,90
100,72,75501,2,0,L|123:158,1,90
306,75,75676,6,0,P|273:86|240:83,1,67.5000025749208
91,59,75850,1,0,0:0:0:0:
60,72,75937,1,0,0:0:0:0:
39,98,76025,2,0,P|27:129|30:162,1,67.5000025749208
144,336,76199,1,0,0:0:0:0:
22,98,76374,2,0,P|18:131|30:162,1,67.5000025749208
282,287,76548,6,0,B|318:299|322:251|268:231|268:151|306:103,1,202.500007724762
361,86,76897,2,0,P|327:91|300:111,1,67.5000025749208
388,320,77071,2,0,P|399:287|396:254,1,67.5000025749208
130,203,77246,1,0,0:0:0:0:
126,267,77333,1,0,0:0:0:0:
164,320,77420,2,0,P|196:331|229:328,1,67.5000025749208
372,176,77594,5,0,0:0:0:0:
77,270,77769,2,0,L|64:223,1,33.7500012874604
126,267,77856,2,0,L|101:225,1,33.7500012874604
167,238,77943,2,0,L|133:204,1,33.7500012874604
187,192,78030,2,0,L|145:168,1,33.7500012874604
180,143,78118,6,0,L|250:72,1,90
292,0,78292,2,0,L|228:63,1,90
359,188,78467,6,0,P|341:158|339:125,1,67.5000025749208
440,0,78641,1,0,0:0:0:0:
469,16,78728,1,0,0:0:0:0:
487,44,78815,2,0,P|484:77|467:106,1,67.5000025749208
260,128,78990,1,0,0:0:0:0:
502,51,79164,2,0,P|490:82|467:106,1,67.5000025749208
208,68,79339,6,0,B|170:106|171:167|218:197|218:197|252:216|252:255,1,202.500007724762
280,295,79687,2,0,P|258:269|249:237,1,67.5000025749208
448,196,79862,2,0,P|439:228|417:253,1,67.5000025749208
359,74,80036,1,0,0:0:0:0:
388,59,80123,1,0,0:0:0:0:
422,58,80211,2,0,P|449:76|466:105,1,67.5000025749208
416,253,80385,1,0,0:0:0:0:
422,58,80560,2,0,P|448:160|354:154,1,202.500007724762
404,116,80908,6,0,L|305:90,1,90
208,52,81083,2,0,L|294:75,1,90
103,193,81257,6,0,P|134:181|158:158,1,67.5000025749208
104,8,81432,1,0,0:0:0:0:
75,25,81519,1,0,0:0:0:0:
55,52,81606,2,0,P|46:84|51:117,1,67.5000025749208
148,288,81780,1,0,0:0:0:0:
37,53,81955,2,0,P|37:86|51:117,1,67.5000025749208
304,208,82129,6,0,P|236:132|296:48,1,202.500007724762
340,24,82478,1,0,0:0:0:0:
188,260,82653,1,0,0:0:0:0:
399,271,82827,1,0,0:0:0:0:
424,208,82914,1,0,0:0:0:0:
404,144,83001,2,0,P|384:116|355:99,1,67.5000025749208
116,88,83176,5,0,0:0:0:0:
188,260,83350,1,0,0:0:0:0:
102,195,83525,1,0,0:0:0:0:
308,225,83699,6,0,L|247:120,1,112.5
176,12,83874,2,0,L|232:109,1,112.5
404,9,84048,6,0,P|373:22|339:23,1,67.5000025749208
146,31,84223,1,0,0:0:0:0:
124,55,84310,1,0,0:0:0:0:
116,88,84397,2,0,P|128:119|152:143,1,67.5000025749208
332,244,84571,1,0,0:0:0:0:
102,99,84746,2,0,P|122:125|151:143,1,67.5000025749208
482,231,84920,6,0,B|449:164|397:166|400:177|346:175|319:126,1,202.500007724762
323,63,85269,2,0,P|313:95|320:128,1,67.5000025749208
400,324,85443,2,0,P|410:292|403:259,1,67.5000025749208
135,260,85618,1,0,0:0:0:0:
157,284,85705,1,0,0:0:0:0:
189,295,85792,2,0,P|221:287|246:265,1,67.5000025749208
116,88,85967,1,0,0:0:0:0:
189,295,86141,2,0,B|248:295|274:233|251:242|269:191|348:180,1,202.500007724762
336,264,86490,6,0,L|422:213,1,90
512,196,86664,2,0,L|434:241,1,90
418,85,86839,6,0,P|388:100|354:98,1,67.5000025749208
168,12,87013,1,0,0:0:0:0:
201,13,87100,1,0,0:0:0:0:
229,31,87187,2,0,P|227:64|209:92,1,67.5000025749208
32,204,87362,1,0,0:0:0:0:
244,38,87536,2,0,P|233:69|209:92,1,67.5000025749208
120,332,87711,6,0,B|145:360|172:320|135:276|175:207|232:184,1,202.500007724762
288,191,88060,2,0,P|256:181|223:187,1,67.5000025749208
34,318,88234,2,0,P|41:285|64:260,1,67.5000025749208
335,286,88408,1,0,0:0:0:0:
390,252,88496,1,0,0:0:0:0:
390,187,88583,2,0,P|377:156|350:135,1,67.5000025749208
164,44,88757,1,0,0:0:0:0:
251,247,88932,2,0,L|277:201,1,33.7500012874604
286,282,89019,2,0,L|299:231,1,33.7500012874604
335,286,89106,2,0,L|335:233,1,33.7500012874604
376,258,89193,2,0,L|362:207,1,33.7500012874604
390,211,89280,6,0,L|380:107,1,90
352,12,89455,2,0,L|359:101,1,90
208,30,89629,6,0,P|237:44|271:43,1,67.5000025749208
420,12,89804,1,0,0:0:0:0:
452,19,89891,1,0,0:0:0:0:
477,41,89978,2,0,P|491:70|490:104,1,67.5000025749208
396,276,90153,1,0,0:0:0:0:
493,39,90327,2,0,P|500:72|490:104,1,67.5000025749208
223,187,90501,6,0,B|207:127|67:279|31:147,1,202.500007724762
0,126,90850,2,0,P|27:144|43:174,1,67.5000025749208
163,380,91025,2,0,P|135:361|119:331,1,67.5000025749208
302,112,91199,1,0,0:0:0:0:
329,130,91286,1,0,0:0:0:0:
345,160,91374,2,0,P|334:191|309:214,1,67.5000025749208
112,96,91548,1,0,0:0:0:0:
345,160,91722,2,0,P|253:211|234:119,1,202.500007724762
345,160,92071,6,0,L|335:273,1,90
308,360,92246,2,0,L|315:270,1,90
91,156,92420,6,0,P|122:166|145:191,1,67.5000025749208
163,380,92594,1,0,0:0:0:0:
131,369,92681,1,0,0:0:0:0:
108,344,92769,2,0,P|97:312|104:279,1,67.5000025749208
244,124,92943,1,0,0:0:0:0:
91,342,93118,2,0,P|89:309|104:279,1,67.5000025749208
365,288,93292,2,0,B|373:320|333:356|277:332|265:280|285:232|333:188,1,202.500007724762
345,160,93641,5,0,0:0:0:0:
329,130,93728,1,0,0:0:0:0:
368,64,93815,5,0,0:0:0:0:
384,94,93902,1,0,0:0:0:0:
313,100,93990,5,0,0:0:0:0:
297,70,94077,1,0,0:0:0:0:
200,62,94164,5,0,0:0:0:0:
272,96,94251,1,0,0:0:0:0:
208,96,94339,1,0,0:0:0:0:
244,113,94426,1,0,0:0:0:0:
176,152,94513,5,0,0:0:0:0:
122,177,94600,1,0,0:0:0:0:
172,176,94687,1,0,0:0:0:0:
145,188,94774,1,0,0:0:0:0:
164,200,94862,6,0,L|168:289,1,90
139,29,95211,1,0,0:0:0:0:
50,193,95385,1,0,0:0:0:0:
139,29,95560,1,0,0:0:0:0:
255,157,95734,1,0,0:0:0:0:
139,29,95908,1,0,0:0:0:0:
52,341,96083,2,0,B|33:278|33:278|47:208,1,135
49,192,96432,5,0,0:0:0:0:
255,246,96606,2,0,L|254:149,1,90
155,316,96955,1,0,0:0:0:0:
362,326,97129,1,0,0:0:0:0:
464,251,97304,2,0,B|483:188|483:188|469:118,1,135
465,105,97653,6,0,L|370:111,1,90
257,138,98002,1,0,0:0:0:0:
237,319,98176,1,0,0:0:0:0:
257,138,98351,1,0,0:0:0:0:
132,208,98525,1,0,0:0:0:0:
237,319,98699,1,0,0:0:0:0:
190,75,98874,2,0,B|253:56|253:56|323:70,1,135
340,72,99222,5,0,0:0:0:0:
499,19,99397,1,0,0:0:0:0:
506,102,99571,5,0,0:0:0:0:
349,58,99746,1,0,0:0:0:0:
346,166,99920,5,0,0:0:0:0:
507,116,100094,2,0,B|521:184|521:184|502:247,1,135
495,267,100443,6,0,L|388:265,1,90
258,336,100792,1,0,0:0:0:0:
86,294,100966,1,0,0:0:0:0:
258,336,101141,1,0,0:0:0:0:
287,162,101315,1,0,0:0:0:0:
258,336,101489,1,0,0:0:0:0:
163,96,101664,2,0,B|149:163|149:163|168:226,1,135
258,336,102013,5,0,0:0:0:0:
375,242,102187,2,0,L|272:245,1,90
161,234,102536,1,0,0:0:0:0:
451,214,102710,1,0,0:0:0:0:
97,295,102885,2,0,B|78:232|78:232|92:165,1,135
97,150,103234,6,0,L|204:152,1,90
334,81,103583,1,0,0:0:0:0:
457,197,103757,1,0,0:0:0:0:
334,81,103932,1,0,0:0:0:0:
259,246,104106,1,0,0:0:0:0:
334,81,104280,1,0,0:0:0:0:
356,307,104455,2,0,B|369:239|369:239|350:176,1,135
346,156,104804,5,0,0:0:0:0:
269,313,104978,1,0,0:0:0:0:
152,194,105153,1,0,0:0:0:0:
415,139,105327,5,0,0:0:0:0:
152,194,105501,1,0,0:0:0:0:
279,375,105676,1,0,0:0:0:0:
242,73,105850,1,0,0:0:0:0:
325,145,106025,6,0,L|428:137,1,90
494,135,106374,1,0,0:0:0:0:
365,75,106548,1,0,0:0:0:0:
494,135,106723,1,0,0:0:0:0:
365,75,106897,1,0,0:0:0:0:
383,252,107071,1,0,0:0:0:0:
425,14,107246,2,0,B|357:0|357:0|294:19,1,135
289,27,107594,5,0,0:0:0:0:
150,55,107769,1,0,0:0:0:0:
225,147,107943,1,0,0:0:0:0:
355,117,108118,1,0,0:0:0:0:
225,147,108292,1,0,0:0:0:0:
61,173,108467,2,0,B|47:105|47:105|66:42,1,135
78,26,108815,6,0,L|181:34,1,90
411,44,109164,1,0,0:0:0:0:
294,39,109338,1,0,0:0:0:0:
319,211,109513,1,0,0:0:0:0:
294,39,109687,1,0,0:0:0:0:
434,107,109861,1,0,0:0:0:0:
237,168,110036,2,0,B|223:235|223:235|242:298,1,135
238,321,110385,5,0,0:0:0:0:
113,356,110560,1,0,0:0:0:0:
104,262,110734,5,0,0:0:0:0:
247,187,110909,1,0,0:0:0:0:
247,295,111083,5,0,0:0:0:0:
104,248,111257,2,0,B|90:180|90:180|109:117,1,135
120,107,111606,5,0,0:0:0:0:
256,192,111781,1,0,0:0:0:0:
256,207,111955,1,0,0:0:0:0:
392,107,112129,5,0,0:0:0:0:
256,223,112304,1,0,0:0:0:0:
256,239,112478,1,0,0:0:0:0:
256,56,112653,5,0,0:0:0:0:
256,56,112827,1,0,0:0:0:0:
98,209,113001,5,0,0:0:0:0:
256,255,113176,1,0,0:0:0:0:
256,271,113350,1,0,0:0:0:0:
414,209,113525,5,0,0:0:0:0:
256,287,113699,1,0,0:0:0:0:
256,303,113874,1,0,0:0:0:0:
256,40,114048,5,0,0:0:0:0:
256,40,114222,1,0,0:0:0:0:
77,311,114397,5,0,0:0:0:0:
256,319,114571,1,0,0:0:0:0:
256,335,114746,1,0,0:0:0:0:
435,311,114920,5,0,0:0:0:0:
256,351,115094,1,0,0:0:0:0:
256,367,115269,1,0,0:0:0:0:
256,24,115443,5,0,0:0:0:0:
256,24,115617,1,0,0:0:0:0:
30,122,115792,5,0,0:0:0:0:
86,81,115879,1,0,0:0:0:0:
156,75,115967,1,0,0:0:0:0:
217,108,116054,1,0,0:0:0:0:
248,135,116141,1,0,0:0:0:0:
288,144,116228,1,0,0:0:0:0:
329,136,116315,1,0,0:0:0:0:
366,115,116403,1,0,0:0:0:0:
390,129,116490,1,0,0:0:0:0:
415,139,116577,1,0,0:0:0:0:
443,130,116664,1,0,0:0:0:0:
465,113,116751,1,0,0:0:0:0:
490,101,116839,6,0,L|378:114,1,90
479,79,117013,2,0,L|367:92,1,90
29,122,117187,6,0,B|60:158|60:158|87:170|87:170|104:226|104:226|129:240|129:240|161:277,1,210
212,331,118932,6,0,B|231:312|231:312|241:281|241:281|276:274|276:274|297:257,1,123.75
351,205,119978,6,0,B|373:232|373:232|372:273,1,67.5
444,283,120676,6,0,B|456:250|456:250|492:230,1,67.5
431,152,121374,6,0,L|428:175,1,22.5
372,264,121722,2,0,L|373:233,1,22.5
337,114,122071,6,0,B|328:138|328:138|308:150,1,45
188,49,122420,2,0,B|215:67|215:67|249:64,1,67.5000025749208
413,51,122769,5,0,0:0:0:0:
256,192,136722,12,0,144920,0:0:0:0:
99,333,145094,6,0,B|140:305|140:305|153:260|153:260|231:305,1,180
236,226,145356,6,0,B|154:179|154:179|134:131|134:131|153:85,1,180
187,30,145618,6,0,B|223:53|223:53|245:150|245:150|212:131,1,180
75,64,145792,6,0,P|111:83|146:99,1,78.75
212,127,146490,6,0,L|253:143,1,45
413,51,146664,2,0,L|375:78,1,45
236,226,146839,2,0,L|284:223,1,45
448,28,147013,2,0,L|437:76,1,45
299,304,147187,2,0,L|341:280,1,45
479,0,147362,2,0,L|478:48,1,45
388,347,147536,6,0,L|414:312,1,33.75
480,269,147885,6,0,L|421:352,1,101.25
388,346,148757,6,0,L|425:295,1,56.25
439,203,149280,6,0,B|456:191|456:191|481:193,1,45
350,186,149455,2,0,B|359:153|359:153|384:132,1,67.5
283,241,149673,2,0,B|265:211|265:211|268:179,1,67.5
298,325,149891,2,0,B|264:328|264:328|236:313,1,67.5
389,317,150109,2,0,B|385:352|385:352|367:378,1,67.5
350,187,150327,2,0,B|307:203|307:203|283:241,1,90
194,236,150676,6,0,B|258:142|258:142|321:118,1,180
435,155,150937,2,0,B|401:186|401:186|350:187|350:187|307:203|307:203|283:241,1,180
148,317,151199,2,0,B|237:310|237:310|287:234,1,180.000006866455
293,129,151374,2,0,B|258:142|258:142|236:173,1,75.5999976928712
193,236,152187,5,0,0:0:0:0:
101,237,152304,1,0,0:0:0:0:
148,153,152420,1,0,0:0:0:0:
171,276,152536,5,0,0:0:0:0:
65,208,152653,1,0,0:0:0:0:
169,112,152769,1,0,0:0:0:0:
150,317,152885,5,0,0:0:0:0:
51,165,153001,1,0,0:0:0:0:
191,71,153118,2,0,L|226:9,1,67.5
163,120,153467,6,0,L|191:71,1,56.25
113,208,153990,6,0,L|163:120,1,101.25
256,192,154862,12,0,156170,0:0:0:0:
348,264,156257,6,0,B|318:303|318:303|305:346|305:346|346:335|346:335|393:341,1,180
471,347,156519,6,0,B|456:289|456:289|421:252|421:252|421:177,1,180
410,90,156780,6,0,B|389:113|389:113|348:127|348:127|337:186|337:186|295:202,1,180.000006866455
202,223,156955,5,0,0:0:0:0:
168,222,157042,1,0,0:0:0:0:
136,214,157129,1,0,0:0:0:0:
107,196,157216,1,0,0:0:0:0:
83,172,157304,5,0,0:0:0:0:
117,171,157391,1,0,0:0:0:0:
147,157,157478,1,0,0:0:0:0:
171,134,157565,1,0,0:0:0:0:
184,103,157653,2,0,B|196:67|196:67|186:22,1,67.5000025749208
61,99,157827,2,0,B|94:81|94:81|110:56,1,67.5000025749208
276,39,158001,6,0,B|282:67|282:67|271:104,1,67.5000025749208
350,139,158176,2,0,B|334:163|334:163|300:181,1,67.5000025749208
83,172,158350,6,0,B|117:161|117:161|151:171,1,67.5000025749208
251,358,158525,2,0,B|228:336|228:336|220:301,1,67.5000025749208
350,139,158699,2,0,B|334:163|334:163|300:181,1,67.5000025749208
219,216,158874,5,0,0:0:0:0:
219,216,158961,1,0,0:0:0:0:
219,216,159048,2,0,B|156:239|156:239|127:307,1,135.000005149842
220,301,159310,5,0,0:0:0:0:
220,301,159397,2,0,B|264:293|264:293|291:272|291:272|353:272,1,120
442,346,159571,6,0,B|411:338|411:338|378:348|378:348|323:348,1,120
297,196,159746,5,0,0:0:0:0:
329,188,159833,1,0,0:0:0:0:
362,194,159920,1,0,0:0:0:0:
390,213,160007,1,0,0:0:0:0:
408,241,160094,5,0,0:0:0:0:
408,207,160181,1,0,0:0:0:0:
414,174,160268,1,0,0:0:0:0:
426,142,160355,1,0,0:0:0:0:
444,114,160443,2,0,L|478:57,1,45
348,109,160618,2,0,L|375:48,1,45
408,241,160792,6,0,L|441:183,1,45
307,246,160967,2,0,L|316:191,1,45
467,75,161141,6,0,L|444:114,1,45
366,67,161315,1,0,0:0:0:0:
366,67,161403,2,0,L|348:109,1,45
251,60,161577,1,0,0:0:0:0:
251,60,161664,2,0,L|236:109,1,45
212,190,161839,6,0,B|198:245|198:245|207:304|207:304|176:291|176:291|102:291,1,180
59,293,162100,6,0,B|85:245|85:245|119:216|119:216|121:177|121:177|146:134,1,180
129,40,162362,6,0,B|75:61|75:61|42:114|42:114|41:173,1,180.000006866455
141,140,162536,5,0,0:0:0:0:
165,116,162623,1,0,0:0:0:0:
196,104,162710,1,0,0:0:0:0:
229,104,162797,1,0,0:0:0:0:
260,117,162885,5,0,0:0:0:0:
284,93,162972,1,0,0:0:0:0:
315,81,163059,1,0,0:0:0:0:
348,81,163146,1,0,0:0:0:0:
379,94,163234,1,0,0:0:0:0:
432,153,163350,1,0,0:0:0:0:
451,230,163466,1,0,0:0:0:0:
342,332,163583,5,0,0:0:0:0:
361,247,163699,1,0,0:0:0:0:
329,166,163815,1,0,0:0:0:0:
172,91,163932,5,0,0:0:0:0:
238,164,164048,1,0,0:0:0:0:
261,260,164164,1,0,0:0:0:0:
170,375,164280,6,0,B|135:316|135:316|164:226|164:226|205:257|205:257|286:260,1,270
361,247,164629,6,0,B|396:238|396:238|330:167|330:167|236:164,1,225
84,219,164891,6,0,B|106:169|106:169|156:146|156:146|173:91|173:91|230:85,1,225
432,161,165153,6,0,B|364:91|364:91|308:87,1,150
82,92,165327,1,0,0:0:0:0:
68,122,165414,1,0,0:0:0:0:
63,156,165501,1,0,0:0:0:0:
69,189,165588,1,0,0:0:0:0:
84,219,165676,5,0,0:0:0:0:
123,197,165763,1,0,0:0:0:0:
166,185,165850,1,0,0:0:0:0:
211,183,165937,1,0,0:0:0:0:
255,191,166024,1,0,0:0:0:0:
256,192,166112,12,0,167420,0:0:0:0:
0,192,188350,5,8,0:0:0:0:
0,192,188525,1,0,0:0:0:0:
132,224,188699,2,0,B|180:234|180:234|251:204,1,90
336,132,189048,6,0,L|241:117,3,60
512,192,189746,5,0,0:0:0:0:
492,254,189862,1,0,0:0:0:0:
426,260,189978,1,0,0:0:0:0:
392,316,190094,2,0,B|339:337|339:337|271:305,1,120
247,253,190443,5,0,0:0:0:0:
289,201,190560,1,0,0:0:0:0:
244,152,190676,1,0,0:0:0:0:
283,99,190792,1,0,0:0:0:0:
106,168,191141,6,0,L|166:178,3,60
289,201,191664,1,0,0:0:0:0:
170,282,191839,2,0,L|101:326,2,60
409,121,192187,1,0,0:0:0:0:
268,152,192420,5,0,0:0:0:0:
216,112,192536,1,0,0:0:0:0:
162,150,192652,1,0,0:0:0:0:
181,213,192769,1,0,0:0:0:0:
247,214,192885,2,0,L|325:214,1,60
373,215,193118,5,0,0:0:0:0:
438,215,193234,1,0,0:0:0:0:
457,278,193350,1,0,0:0:0:0:
404,316,193467,1,0,0:0:0:0:
351,276,193583,2,0,L|211:276,1,135
141,198,193932,6,0,L|78:170,7,49.5000015106202
46,129,194629,6,0,L|109:101,7,49.5000015106202
156,133,195327,6,0,L|221:162,7,53.9999983520508
266,108,196025,6,0,L|315:85,7,53.9999983520508
376,149,196722,6,0,L|441:178,7,62.9999980773926
358,221,197420,6,0,L|295:251,7,62.9999980773926
240,166,198118,6,0,L|171:137,7,72
188,237,198815,6,0,L|270:272,1,72
338,322,198990,1,0,0:0:0:0:
338,322,199077,2,0,B|369:298|369:298|386:247,1,72,0|0,3:0|0:0,0:0:0:0:
321,184,199251,1,0,0:0:0:0:
321,184,199339,2,0,B|331:152|331:152|362:128,1,72,0|0,3:0|0:0,0:0:0:0:
451,174,199513,5,0,0:0:0:0:
456,194,199600,1,0,0:0:0:0:
455,215,199687,1,0,0:0:0:0:
449,236,199775,1,0,0:0:0:0:
439,255,199862,1,0,0:0:0:0:
425,271,199949,1,0,0:0:0:0:
407,283,200036,1,0,0:0:0:0:
385,288,200124,1,0,0:0:0:0:
360,284,200211,5,0,0:0:0:0:
335,277,200298,1,0,0:0:0:0:
310,272,200385,1,0,0:0:0:0:
284,270,200472,1,0,0:0:0:0:
258,272,200560,1,0,0:0:0:0:
233,278,200647,1,0,0:0:0:0:
211,291,200734,1,0,0:0:0:0:
189,304,200821,1,0,0:0:0:0:
194,275,200908,5,0,0:0:0:0:
197,246,200996,1,0,0:0:0:0:
190,218,201083,1,0,0:0:0:0:
173,194,201170,1,0,0:0:0:0:
159,168,201257,1,0,0:0:0:0:
154,139,201344,1,0,0:0:0:0:
159,110,201432,1,0,0:0:0:0:
175,86,201519,1,0,0:0:0:0:
201,67,201606,5,0,0:0:0:0:
233,63,201693,1,0,0:0:0:0:
263,74,201780,1,0,0:0:0:0:
293,86,201868,1,0,0:0:0:0:
324,92,201955,1,0,0:0:0:0:
356,92,202042,1,0,0:0:0:0:
387,83,202129,1,0,0:0:0:0:
414,65,202217,1,0,0:0:0:0:
406,100,202304,5,0,0:0:0:0:
397,134,202391,1,0,0:0:0:0:
396,169,202478,1,0,0:0:0:0:
402,204,202565,1,0,0:0:0:0:
414,238,202653,1,0,0:0:0:0:
418,273,202740,1,0,0:0:0:0:
400,304,202827,1,0,0:0:0:0:
364,311,202914,1,0,0:0:0:0:
330,290,203001,5,0,0:0:0:0:
294,271,203089,1,0,0:0:0:0:
255,262,203176,1,0,0:0:0:0:
215,262,203263,1,0,0:0:0:0:
177,273,203350,1,0,0:0:0:0:
140,288,203437,1,0,0:0:0:0:
100,295,203525,1,0,0:0:0:0:
66,274,203612,1,0,0:0:0:0:
108,267,203699,5,0,0:0:0:0:
145,245,203786,1,0,0:0:0:0:
166,207,203874,1,0,0:0:0:0:
161,164,203961,1,0,0:0:0:0:
154,121,204048,1,0,0:0:0:0:
172,82,204135,1,0,0:0:0:0:
204,54,204222,1,0,0:0:0:0:
247,54,204310,1,0,0:0:0:0:
286,78,204397,5,0,0:0:0:0:
308,119,204484,1,0,0:0:0:0:
295,163,204571,1,0,0:0:0:0:
262,196,204658,1,0,0:0:0:0:
227,227,204746,1,0,0:0:0:0:
222,273,204833,1,0,0:0:0:0:
249,310,204920,1,0,0:0:0:0:
295,312,205007,1,0,0:0:0:0:
266,270,205094,5,0,0:0:0:0:
283,222,205182,1,0,0:0:0:0:
327,198,205269,1,0,0:0:0:0:
375,212,205356,1,0,0:0:0:0:
348,164,205443,5,0,0:0:0:0:
296,149,205530,1,0,0:0:0:0:
241,154,205618,1,0,0:0:0:0:
193,180,205705,1,0,0:0:0:0:
216,127,205792,5,0,0:0:0:0:
263,95,205879,1,0,0:0:0:0:
299,49,205967,1,0,0:0:0:0:
297,0,206054,1,0,0:0:0:0:
258,42,206141,5,0,0:0:0:0:
204,62,206228,1,0,0:0:0:0:
151,84,206315,1,0,0:0:0:0:
109,125,206403,1,0,0:0:0:0:
84,177,206490,1,0,0:0:0:0:
85,234,206577,1,0,0:0:0:0:
107,286,206664,1,0,0:0:0:0:
155,316,206751,1,0,0:0:0:0:
220,316,206839,5,0,0:0:0:0:
279,291,206926,1,0,0:0:0:0:
314,237,207013,1,0,0:0:0:0:
316,172,207100,1,0,0:0:0:0:
294,110,207187,1,0,0:0:0:0:
303,45,207275,1,0,0:0:0:0:
351,2,207362,1,0,0:0:0:0:
415,9,207449,1,0,0:0:0:0:
460,59,207536,5,0,0:0:0:0:
423,122,207624,5,0,0:0:0:0:
461,190,207711,5,0,0:0:0:0:
428,261,207798,5,0,0:0:0:0:
470,327,207885,6,0,L|464:335,15,6.74999979400635
428,261,208583,6,0,L|423:255,15,6.74999979400635
341,77,210153,5,0,0:0:0:0:
277,112,210240,5,0,0:0:0:0:
205,99,210327,5,0,0:0:0:0:
176,32,210414,5,0,0:0:0:0:
104,19,210501,5,0,0:0:0:0:
38,52,210589,5,0,0:0:0:0:
22,123,210676,6,0,P|83:144|22:68,1,242.999992584229
197,215,211025,6,0,B|193:171|193:171|170:227,1,90
71,290,211286,2,0,B|75:246|75:246|98:302,1,90
161,369,211548,5,0,0:0:0:0:
350,200,211722,5,0,0:0:0:0:
435,120,211810,1,0,0:0:0:0:
353,113,211897,2,0,P|380:159|459:187,1,112.5
370,18,212071,6,0,L|241:29,1,112.5
135,35,212246,2,0,L|263:46,1,112.5
171,189,212420,6,0,B|167:233|167:233|144:177,1,90
45,114,212681,2,0,B|49:158|49:158|72:102,1,90
135,35,212943,5,0,0:0:0:0:
365,93,213118,5,0,0:0:0:0:
291,84,213205,1,0,0:0:0:0:
218,75,213292,2,0,L|213:123,1,45
382,236,213467,6,0,B|370:176|370:176|410:125|410:125|389:60|389:60|374:119,1,242.999992584229
367,315,213815,6,0,P|418:308|455:257,1,90
322,379,214077,2,0,P|271:372|234:321,1,90
212,234,214339,5,0,0:0:0:0:
394,120,214513,5,0,0:0:0:0:
498,69,214600,1,0,0:0:0:0:
428,27,214687,2,0,L|408:139,1,112.5
279,277,214862,6,0,P|329:260|407:292,1,112.5
501,290,215036,2,0,P|451:307|373:275,1,112.5
208,189,215211,6,0,B|212:233|212:233|235:177,1,90
334,114,215472,2,0,B|330:158|330:158|307:102,1,90
244,35,215734,5,0,0:0:0:0:
88,116,215908,5,0,0:0:0:0:
0,76,215996,2,0,B|72:81|72:81|80:88|80:88|167:93,1,161.999995056153
65,293,216257,6,0,P|7:264|103:254,1,242.999992584229
326,129,216606,6,0,B|322:85|322:85|299:141,1,90
200,204,216867,2,0,B|204:160|204:160|227:216,1,90
290,283,217129,5,0,0:0:0:0:
427,181,217304,5,0,0:0:0:0:
512,101,217392,1,0,0:0:0:0:
430,94,217479,2,0,P|457:140|536:168,1,112.5
447,0,217652,6,0,L|318:11,1,112.5
212,17,217827,2,0,L|340:28,1,112.5
248,171,218001,6,0,B|244:215|244:215|221:159,1,90
122,96,218262,2,0,B|126:140|126:140|149:84,1,90
212,17,218524,5,0,0:0:0:0:
322,256,218699,5,0,0:0:0:0:
331,182,218786,1,0,0:0:0:0:
340,109,218873,2,0,L|292:104,1,45
114,273,219048,6,0,B|228:268|228:268|184:250,1,161.999995056153
43,250,219310,6,0,P|50:327|112:269,1,198.000006042481
107,89,219571,6,0,L|116:198,1,107.999996704102
176,327,219746,5,0,0:0:0:0:
243,299,219833,2,0,L|340:290,1,80.9999975280763,0|0,0:3|0:3,0:3:0:0:
195,175,220007,5,0,0:0:0:0:
262,147,220094,2,0,B|329:152|329:152|366:127|366:127|402:152|402:152|495:146,1,242.999992584229,0|0,0:3|0:3,0:3:0:0:
124,162,220443,6,0,P|122:221|171:279,1,121.499996292114
184,65,220618,6,0,P|131:92|106:164,1,121.499996292114
299,70,220792,6,0,P|248:38|174:52,1,121.499996292114
332,143,220967,6,0,P|333:84|302:43,1,80.9999975280763
273,297,221141,5,0,0:0:0:0:
224,242,221228,2,0,P|223:183|254:142,1,80.9999975280763
300,380,221403,5,0,0:0:0:0:
349,325,221490,2,0,P|337:227|286:317,1,242.999992584229
146,384,221839,6,0,B|120:362|76:377|76:377|53:319|75:284|75:284|81:277|81:277|73:268|73:268|84:234|70:205,1,242.999992584229
277,100,222187,6,0,P|328:93|365:42,1,90
232,164,222449,2,0,P|181:157|144:106,1,90
122,19,222711,5,0,0:0:0:0:
350,0,222885,5,0,0:0:0:0:
435,80,222973,1,0,0:0:0:0:
353,87,223060,2,0,P|380:41|459:13,1,112.5
445,219,223234,6,0,L|316:230,1,112.5
210,236,223409,2,0,L|338:247,1,112.5
512,337,223583,6,0,P|461:330|424:279,1,90
296,378,223844,2,0,P|347:371|384:320,1,90
445,219,224106,5,0,0:0:0:0:
228,89,224280,5,0,0:0:0:0:
219,163,224367,1,0,0:0:0:0:
210,236,224454,2,0,L|258:241,1,45
439,100,224629,6,0,B|394:72|336:100|336:100|326:82|326:82|271:113|206:72,1,242.999992584229
135,240,224978,6,0,B|131:284|131:284|108:228,1,90
9,165,225239,2,0,B|13:209|13:209|36:153,1,90
99,86,225501,5,0,0:0:0:0:
317,174,225676,5,0,0:0:0:0:
421,225,225763,1,0,0:0:0:0:
351,267,225850,2,0,L|331:155,1,112.5
181,26,226025,6,0,P|231:9|309:41,1,112.5
403,39,226199,2,0,P|353:56|275:24,1,112.5
95,130,226374,6,0,B|99:86|99:86|122:142,1,90
185,209,226636,5,0,0:0:0:0:
113,214,226722,1,0,0:0:0:0:
130,342,226810,6,0,P|134:318|132:297,1,40.4999987640381
152,316,226897,6,0,P|137:296|121:282,1,40.4999987640381
150,285,226984,6,0,P|125:281|104:282,1,40.4999987640381
45,249,227071,5,0,0:0:0:0:
51,322,227158,1,0,0:0:0:0:
197,215,227420,6,0,B|235:215|235:215|182:246|182:246|108:226|108:226|45:249,1,242.999992584229
188,168,227769,5,0,0:0:0:0:
186,216,227856,1,0,0:0:0:0:
184,264,227943,1,0,0:0:0:0:
183,312,228030,1,0,0:0:0:0:
230,378,228118,6,0,P|257:377|298:345,1,53.9999983520508
363,313,228292,2,0,P|390:313|431:345,1,53.9999983520508
494,263,228467,5,0,0:0:0:0:
480,239,228554,1,0,0:0:0:0:
478,212,228641,1,0,0:0:0:0:
488,186,228728,1,0,0:0:0:0:
462,93,228815,6,0,L|389:86,1,53.9999983520508
328,32,228990,2,0,L|255:38,1,53.9999983520508
161,100,229164,5,0,0:0:0:0:
188,99,229251,1,0,0:0:0:0:
213,111,229338,1,0,0:0:0:0:
230,133,229425,1,0,0:0:0:0:
263,231,229513,6,0,P|236:230|195:198,1,53.9999983520508
130,166,229687,2,0,P|103:166|62:198,1,53.9999983520508
5,288,229862,5,0,0:0:0:0:
3,240,229949,1,0,0:0:0:0:
1,192,230036,1,0,0:0:0:0:
0,144,230123,1,0,0:0:0:0:
77,113,230211,6,0,L|65:179,1,53.9999983520508
128,291,230385,6,0,L|116:224,1,53.9999983520508
92,98,230560,6,0,L|78:174,1,53.9999983520508
150,302,230734,6,0,L|136:225,1,53.9999983520508
106,88,230908,6,0,P|133:89|174:121,1,53.9999983520508
239,153,231082,2,0,P|266:153|307:121,1,53.9999983520508
106,69,231257,6,0,P|137:70|184:106,1,53.9999983520508
259,144,231431,2,0,P|290:144|337:107,1,53.9999983520508
453,222,231606,5,0,0:0:0:0:
431,210,231693,1,0,0:0:0:0:
406,208,231780,1,0,0:0:0:0:
382,214,231868,1,0,0:0:0:0:
357,255,231955,5,0,0:0:0:0:
314,278,232042,1,0,0:0:0:0:
265,274,232129,1,0,0:0:0:0:
222,249,232217,1,0,0:0:0:0:
205,178,232304,5,0,0:0:0:0:
144,137,232391,1,0,0:0:0:0:
71,139,232478,1,0,0:0:0:0:
24,195,232565,1,0,0:0:0:0:
29,273,232653,6,0,L|35:270,6,6.74999979400635
97,230,233001,2,0,P|164:269|199:168,1,202.500007724762,8|0,0:0|0:0,0:0:0:0:
107,77,233350,5,0,0:0:0:0:
386,137,233525,1,0,0:0:0:0:
151,177,233699,5,0,0:0:0:0:
388,148,233874,1,0,0:0:0:0:
242,256,234048,5,0,0:0:0:0:
388,162,234222,1,0,0:0:0:0:
373,267,234397,5,0,0:0:0:0:
387,177,234571,1,0,0:0:0:0:
491,227,234746,5,0,0:0:0:0:
221,89,234920,1,0,0:0:0:0:
501,111,235094,5,0,0:0:0:0:
242,256,235269,1,0,0:0:0:0:
260,165,235443,6,0,B|217:181|178:173|178:173|163:207|125:240|125:240|92:237|27:254|27:254|124:230|97:110|97:110,1,360
337,204,236141,5,0,0:0:0:0:
312,266,236228,1,0,0:0:0:0:
247,285,236315,1,0,0:0:0:0:
180,269,236403,1,0,0:0:0:0:
149,208,236490,1,0,0:0:0:0:
168,143,236577,1,0,0:0:0:0:
227,112,236664,1,0,0:0:0:0:
290,133,236751,1,0,0:0:0:0:
358,132,236839,1,0,0:0:0:0:
414,95,236926,1,0,0:0:0:0:
437,31,237013,1,0,0:0:0:0:
150,38,237187,6,0,B|204:77|243:42|243:42|227:94|270:128|270:128|227:98|175:128,1,270
120,151,237536,5,0,0:0:0:0:
118,196,237624,1,0,0:0:0:0:
131,238,237711,1,0,0:0:0:0:
159,272,237798,1,0,0:0:0:0:
207,294,237885,5,0,0:0:0:0:
260,302,237972,1,0,0:0:0:0:
306,273,238060,1,0,0:0:0:0:
359,265,238147,1,0,0:0:0:0:
385,207,238234,5,0,0:0:0:0:
388,144,238321,1,0,0:0:0:0:
440,109,238408,1,0,0:0:0:0:
432,45,238496,1,0,0:0:0:0:
375,0,238583,5,0,0:0:0:0:
293,318,238932,5,0,0:0:0:0:
68,149,239106,1,0,0:0:0:0:
373,182,239280,5,0,0:0:0:0:
58,325,239455,1,0,0:0:0:0:
379,303,239629,5,0,0:0:0:0:
80,146,239804,1,0,0:0:0:0:
272,81,239978,5,0,0:0:0:0:
68,332,240153,1,0,0:0:0:0:
115,47,240327,5,0,0:0:0:0:
371,312,240501,1,0,0:0:0:0:
279,72,240676,5,0,0:0:0:0:
72,320,240850,1,0,0:0:0:0:
323,227,241025,2,0,B|260:209|187:217|187:217|260:209|335:143,1,270
336,144,241374,5,0,0:0:0:0:
141,108,241548,1,0,0:0:0:0:
110,172,241635,1,0,0:0:0:0:
77,235,241722,1,0,0:0:0:0:
173,45,241897,5,0,0:0:0:0:
336,144,242071,1,0,0:0:0:0:
369,207,242158,1,0,0:0:0:0:
402,271,242246,1,0,0:0:0:0:
302,79,242420,5,0,0:0:0:0:
77,235,242594,1,0,0:0:0:0:
144,260,242682,1,0,0:0:0:0:
212,282,242769,1,0,0:0:0:0:
141,188,242943,5,0,0:0:0:0:
209,207,243030,1,0,0:0:0:0:
276,233,243118,1,0,0:0:0:0:
196,133,243292,5,0,0:0:0:0:
264,156,243379,1,0,0:0:0:0:
331,184,243467,1,0,0:0:0:0:
464,237,243641,6,0,P|445:284|447:338,1,90
446,124,243903,2,0,P|430:167|399:207,1,90
512,36,244164,1,0,0:0:0:0:
202,12,244513,5,0,0:0:0:0:
470,136,244687,1,0,0:0:0:0:
116,59,244862,5,0,0:0:0:0:
420,59,245036,1,0,0:0:0:0:
53,130,245211,5,0,0:0:0:0:
349,3,245385,1,0,0:0:0:0:
31,216,245560,5,0,0:0:0:0:
260,14,245734,1,0,0:0:0:0:
112,258,245908,5,0,0:0:0:0:
206,75,246083,1,0,0:0:0:0:
204,232,246257,5,0,0:0:0:0:
127,127,246432,1,0,0:0:0:0:
68,245,246606,2,0,B|162:274|215:348|215:348|151:310|88:331|88:331|115:323|129:290,1,360
419,310,247304,5,0,0:0:0:0:
391,248,247391,1,0,0:0:0:0:
343,199,247478,1,0,0:0:0:0:
278,179,247565,1,0,0:0:0:0:
210,189,247653,1,0,0:0:0:0:
142,191,247740,1,0,0:0:0:0:
79,166,247827,1,0,0:0:0:0:
43,108,247914,1,0,0:0:0:0:
55,41,248001,1,0,0:0:0:0:
114,8,248089,1,0,0:0:0:0:
180,17,248176,1,0,0:0:0:0:
279,108,248350,6,0,L|420:301,1,180
281,340,248699,5,0,0:0:0:0:
236,347,248786,1,0,0:0:0:0:
191,338,248874,1,0,0:0:0:0:
157,308,248961,1,0,0:0:0:0:
128,252,249048,5,0,0:0:0:0:
190,256,249135,1,0,0:0:0:0:
236,213,249222,1,0,0:0:0:0:
246,150,249310,1,0,0:0:0:0:
232,79,249397,5,0,0:0:0:0:
161,90,249484,1,0,0:0:0:0:
108,40,249571,1,0,0:0:0:0:
36,42,249658,1,0,0:0:0:0:
75,102,249746,6,0,P|76:152|34:297,1,202.500007724762
99,199,250094,1,0,0:0:0:0:
212,336,250443,6,0,P|191:182|224:84,1,216
171,238,250792,1,0,0:0:0:0:
74,101,251141,6,0,P|67:215|20:319,1,229.500004377365
95,219,251489,1,0,0:0:0:0:
212,336,251839,6,0,P|187:218|217:101,1,242.999992584229
161,217,252188,1,0,0:0:0:0:
50,304,252536,5,0,0:0:0:0:
34,257,252624,1,0,0:0:0:0:
20,210,252711,1,0,0:0:0:0:
1,165,252798,1,0,0:0:0:0:
73,163,252885,5,0,0:0:0:0:
92,215,252972,1,0,0:0:0:0:
113,268,253060,1,0,0:0:0:0:
131,321,253147,1,0,0:0:0:0:
184,260,253234,5,0,0:0:0:0:
160,199,253321,1,0,0:0:0:0:
138,138,253408,1,0,0:0:0:0:
114,76,253496,1,0,0:0:0:0:
194,77,253583,5,0,0:0:0:0:
223,143,253670,1,0,0:0:0:0:
250,210,253757,1,0,0:0:0:0:
279,276,253844,1,0,0:0:0:0:
329,211,253932,5,0,0:0:0:0:
343,311,254804,5,0,0:0:0:0:
279,276,254891,5,0,0:0:0:0:
207,289,254978,5,0,0:0:0:0:
178,356,255065,5,0,0:0:0:0:
106,369,255152,5,0,0:0:0:0:
40,336,255240,5,0,0:0:0:0:
24,265,255327,6,0,P|85:244|24:320,1,242.999992584229
189,171,255676,5,0,0:0:0:0:
259,156,255763,1,0,0:0:0:0:
330,143,255850,1,0,0:0:0:0:
345,72,255937,6,0,P|359:113|350:184,2,112.5
422,234,256199,5,0,0:0:0:0:
352,219,256286,1,0,0:0:0:0:
281,206,256374,1,0,0:0:0:0:
196,286,256461,5,0,0:0:0:0:
278,293,256548,2,0,P|251:247|172:219,1,112.5
0,358,256722,6,0,L|129:369,1,112.5
235,375,256897,2,0,L|107:386,1,112.5
60,275,257071,5,0,0:0:0:0:
28,209,257159,1,0,0:0:0:0:
60,143,257246,1,0,0:0:0:0:
35,74,257333,6,0,L|24:203,2,112.5
132,213,257594,5,0,0:0:0:0:
153,208,257682,1,0,0:0:0:0:
174,203,257769,1,0,0:0:0:0:
243,145,257856,5,0,0:0:0:0:
175,86,257943,1,0,0:0:0:0:
253,130,258030,1,0,0:0:0:0:
165,105,258118,2,0,B|143:136|143:136|197:288|197:288|180:331,1,242.999992584229
432,377,258467,5,0,0:0:0:0:
362,362,258554,1,0,0:0:0:0:
291,349,258641,1,0,0:0:0:0:
274,278,258728,6,0,P|260:237|269:166,2,112.5
197,116,258990,5,0,0:0:0:0:
267,131,259077,1,0,0:0:0:0:
338,144,259165,1,0,0:0:0:0:
423,64,259252,5,0,0:0:0:0:
341,57,259339,2,0,P|368:103|447:131,1,112.5
450,288,259513,6,0,P|476:241|461:159,1,112.5,0|0,0:3|0:3,0:3:0:0:
419,129,259687,2,0,P|392:175|407:257,1,112.5,0|0,0:3|0:3,0:3:0:0:
461,298,259862,5,0,0:0:0:0:
400,256,259949,1,0,0:0:0:0:
361,317,260036,1,0,0:0:0:0:
512,350,260124,5,0,0:0:0:0:
482,283,260211,1,0,0:0:0:0:
474,354,260298,1,0,0:0:0:0:
365,300,260385,5,0,0:0:0:0:
395,233,260472,1,0,0:0:0:0:
403,304,260559,1,0,0:0:0:0:
389,221,260647,6,0,B|331:216|331:216|327:207|327:207|319:215|319:215|273:211|273:211|295:250,1,161.999995056153
227,122,260908,6,0,B|168:112|168:112|153:178|153:178|141:187|141:187|151:196|151:196|148:249|148:249|174:222,1,242.999992584229
359,137,261257,6,0,L|373:56,2,80.9999975280763
212,42,261519,6,0,L|226:122,2,80.9999975280763
94,123,261780,5,0,0:0:0:0:
103,195,261868,1,0,0:0:0:0:
112,267,261955,1,0,0:0:0:0:
43,238,262042,1,0,0:0:0:0:
171,224,262129,2,0,P|193:239|243:312,1,112.5
190,368,262304,6,0,L|70:346,1,112.5,0|0,2:0|2:0,2:0:0:0:
0,384,262478,2,0,L|119:362,1,112.5,0|0,2:0|2:0,2:0:0:0:
241,308,262653,6,0,L|255:228,2,80.9999975280763
388,213,262914,6,0,L|402:292,2,80.9999975280763
453,130,263176,5,0,0:0:0:0:
432,125,263264,1,0,0:0:0:0:
411,120,263351,1,0,0:0:0:0:
311,145,263438,5,0,0:0:0:0:
379,204,263525,1,0,0:0:0:0:
301,160,263612,1,0,0:0:0:0:
389,185,263699,2,0,P|413:256|416:342,1,161.999995056153
322,280,263961,2,0,P|272:336|199:381,1,161.999995056153
180,230,264222,6,0,B|175:184|175:184|166:180|166:180|174:174|174:174|168:105,1,135.000005149842
94,149,264397,1,0,0:0:0:0:
254,192,264484,2,0,B|300:197|300:197|304:206|304:206|310:198|310:198|379:204,1,135.000005149842
100,168,264658,1,0,0:0:0:0:
260,211,264746,2,0,B|306:216|306:216|310:225|310:225|316:217|316:217|385:223,1,135.000005149842
492,132,265094,6,0,P|455:101|353:142,1,161.999995056153
302,0,265356,6,0,P|256:16|241:125,1,161.999995056153
310,225,265618,1,0,0:0:0:0:
107,159,265792,6,0,P|60:121|4:147,1,121.499996292114
8,141,265967,6,0,P|52:178|106:158,1,121.499996292114
106,157,266141,6,0,L|112:81,1,67.5
236,118,266490,6,0,P|297:139|236:63,1,242.999992584229
238,235,266839,5,0,0:0:0:0:
310,225,266926,1,0,0:0:0:0:
382,214,267013,1,0,0:0:0:0:
416,277,267100,6,0,L|424:184,2,80.9999975280763
337,335,267362,5,0,0:0:0:0:
310,267,267449,1,0,0:0:0:0:
284,199,267536,1,0,0:0:0:0:
238,256,267624,1,0,0:0:0:0:
387,283,267711,2,0,P|433:256|461:177,1,112.5
512,70,267885,6,0,L|383:81,1,112.5
277,87,268060,2,0,L|405:98,1,112.5
184,57,268234,5,0,0:0:0:0:
189,36,268322,1,0,0:0:0:0:
194,15,268409,1,0,0:0:0:0:
121,20,268496,6,0,P|107:61|116:132,2,80.9999975280763
187,143,268757,5,0,0:0:0:0:
163,149,268844,1,0,0:0:0:0:
122,210,268932,5,0,0:0:0:0:
194,216,269019,1,0,0:0:0:0:
266,222,269106,1,0,0:0:0:0:
226,283,269193,1,0,0:0:0:0:
234,154,269280,2,0,B|316:158|316:158|371:195|371:195|481:194,1,242.999992584229
472,59,269629,5,0,0:0:0:0:
402,74,269716,1,0,0:0:0:0:
331,87,269803,1,0,0:0:0:0:
316,158,269891,6,0,P|302:117|311:46,2,112.5
335,244,270153,5,0,0:0:0:0:
265,229,270240,1,0,0:0:0:0:
194,216,270327,1,0,0:0:0:0:
241,305,270414,5,0,0:0:0:0:
270,208,270501,2,0,P|241:175|175:147,1,112.5
0,82,270676,6,0,L|129:71,1,112.5
235,65,270851,2,0,L|107:54,1,112.5
48,256,271025,6,0,L|41:176,2,80.9999975280763
155,352,271286,5,0,0:0:0:0:
123,287,271374,1,0,0:0:0:0:
242,237,271460,6,0,P|223:252|204:261,1,40.4999987640381
231,269,271548,6,0,P|206:266|186:259,1,40.4999987640381
203,283,271635,6,0,P|187:263|177:244,1,40.4999987640381
119,210,271722,5,0,0:0:0:0:
185,179,271810,1,0,0:0:0:0:
349,130,272071,6,0,B|276:137|276:137|201:93|201:93|117:107,1,242.999992584229
276,136,272420,2,0,P|290:96|289:45,1,90
201,94,272682,2,0,P|173:61|128:37,1,90
19,170,272943,6,0,P|39:161|56:159,1,26.9999991760254
132,195,273118,2,0,P|142:206|155:243,1,53.9999983520508
139,338,273292,2,0,P|130:351|98:373,1,53.9999983520508
231,304,273467,6,0,L|321:296,1,90
391,227,273728,1,0,0:0:0:0:
391,227,273815,2,0,L|481:234,1,90
512,85,274077,6,0,L|507:141,1,53.9999983520508
355,30,274339,2,0,L|426:17,1,53.9999983520508
287,120,274513,2,0,L|215:107,1,53.9999983520508
364,42,274687,2,0,L|435:29,1,53.9999983520508
243,192,274862,6,0,P|229:232|230:283,1,90
313,348,275124,1,0,0:0:0:0:
313,348,275211,2,0,P|327:308|326:257,1,90
147,369,275472,6,0,P|171:357|205:360,1,53.9999983520508
54,357,275734,2,0,P|35:339|23:315,1,53.9999983520508
0,216,275908,2,0,P|12:192|32:175,1,53.9999983520508
132,279,276083,2,0,P|106:272|84:258,1,53.9999983520508
203,210,276257,6,0,P|195:184|197:158,1,53.9999983520508
282,76,276432,6,0,L|260:77,1,13.4999995880127
379,23,276606,6,0,L|400:24,1,13.4999995880127
214,25,276780,6,0,L|192:26,1,13.4999995880127
447,74,276955,6,0,L|468:72,3,13.4999995880127
197,157,277304,6,0,L|175:155,3,13.4999995880127
75,275,277653,6,0,B|64:240|64:240|57:234|57:234|44:183|44:183|119:154|179:201|179:201|223:249|339:214,1,377.999988464356
451,196,278001,2,0,P|455:238|446:269,1,67.5000025749208
249,366,278176,5,0,3:0:0:0:
246,347,278263,1,0,3:0:0:0:
241,325,278350,1,0,0:0:0:0:
308,331,278437,1,0,0:0:0:0:
375,338,278525,2,0,L|365:266,1,49.5000015106202
290,172,278699,2,0,B|201:158,1,74.2500022659302
44,160,279048,6,0,B|228:145|228:145|246:138|246:138|487:118,1,405.000015449525
396,367,279397,1,0,0:0:0:0:
404,286,279484,1,0,0:0:0:0:
412,206,279571,2,0,L|322:219,1,67.5000025749208
128,22,279746,6,0,L|182:31,1,53.9999983520508
305,54,279920,2,0,L|251:45,1,53.9999983520508
147,129,280094,5,0,0:0:0:0:
144,110,280181,1,0,0:0:0:0:
163,136,280269,1,0,3:0:0:0:
131,139,280356,1,0,3:0:0:0:
63,229,280443,6,0,L|92:226,1,27
305,54,280792,2,0,B|356:81|356:81|339:229,1,180
197,286,281054,1,0,0:0:0:0:
204,295,281141,1,0,0:0:0:0:
244,291,281228,1,0,0:0:0:0:
285,288,281315,2,0,L|292:339,1,33.7500012874604
57,67,281490,5,0,0:0:0:0:
129,39,281577,2,0,B|182:104|137:181|137:181|48:156,1,225
217,213,281839,6,0,L|324:206,1,90
490,48,282100,1,0,0:0:0:0:
499,55,282187,2,0,L|463:50,1,22.5
339,20,282362,5,0,0:0:0:0:
326,11,282449,1,0,0:0:0:0:
334,71,282536,1,0,0:0:0:0:
342,131,282624,2,0,L|432:122,2,67.5000025749208
268,245,282885,5,0,0:0:0:0:
299,333,282972,2,0,B|252:365|252:365|263:205,1,170.999995433807
240,112,283234,6,0,B|172:60|70:80|43:181|43:181|92:146|139:164,1,337.5
330,65,283583,2,0,L|324:116,1,33.7500012874604
370,313,283757,5,0,0:0:0:0:
362,266,283844,1,0,0:0:0:0:
332,232,283931,1,0,0:0:0:0:
289,219,284018,1,0,0:0:0:0:
272,232,284106,2,0,L|265:309,1,58.4999973220826
187,384,284280,2,0,L|180:313,1,45
29,250,284455,2,0,B|78:244|78:244|118:282,1,90
62,139,284629,6,0,B|123:66|218:104|218:104|175:158|175:158|185:249,1,310.500005922318
251,310,284978,2,0,L|320:317,1,45
363,162,285153,5,0,0:0:0:0:
367,195,285240,1,0,0:0:0:0:
371,228,285327,1,0,0:0:0:0:
375,262,285414,1,0,0:0:0:0:
377,276,285501,2,0,L|458:268,1,45
413,69,285676,2,0,L|312:57,1,67.5000025749208
244,141,285850,5,0,0:0:0:0:
244,141,285937,1,0,0:0:0:0:
244,141,286025,2,0,L|182:151,2,33.7500012874604
285,212,286286,1,0,0:0:0:0:
143,90,286374,2,0,B|77:119|77:119|98:253,1,180
6,323,286635,6,0,B|71:330|71:330|87:349|87:349|173:359,1,161.999995056153
242,336,286897,2,0,L|150:347,1,80.9999975280763
376,343,287071,2,0,L|378:321,1,13.4999995880127
450,367,287246,2,0,L|454:314,1,45
450,203,287420,6,0,B|464:155|464:155|434:100,1,90
273,218,287594,2,0,L|385:235,1,90
181,31,287769,2,0,B|153:78|153:78|220:131|313:69,1,161.999995056153
360,20,288030,6,0,L|257:8,1,90
399,91,288292,2,0,L|457:83,1,33.7500012874604
378,168,288467,6,0,L|349:165,1,22.5
369,237,288641,2,0,L|346:235,1,13.4999995880127
84,246,288815,5,0,0:0:0:0:
89,260,288990,1,0,0:0:0:0:
131,44,289164,5,0,0:0:0:0:
167,238,289339,1,0,0:0:0:0:
239,200,289513,5,0,0:0:0:0:
245,215,289688,1,0,0:0:0:0:
295,42,289862,5,0,0:0:0:0:
323,192,290037,1,0,0:0:0:0:
85,321,290211,5,0,0:0:0:0:
85,321,290385,1,0,0:0:0:0:
164,321,290560,1,0,0:0:0:0:
175,333,290734,1,0,0:0:0:0:
258,301,290908,5,0,0:0:0:0:
258,301,291082,1,0,0:0:0:0:
337,301,291257,1,0,0:0:0:0:
348,313,291431,1,0,0:0:0:0:
345,49,291606,6,0,P|366:85|378:144,1,87.7500003347397
472,135,291955,2,0,P|451:171|406:211,1,80.9999975280763,0|0,3:0|3:0,3:0:0:0:
468,285,292304,2,0,P|426:285|374:269,1,72,0|0,3:0|3:0,3:0:0:0:
342,365,292653,2,0,P|321:329|314:292,1,62.9999980773926,0|0,3:0|3:0,3:0:0:0:
45,237,293001,6,0,L|121:231,1,53.9999983520508
170,227,293350,2,0,L|246:221,1,45
250,118,293699,2,0,L|298:122,1,36
398,66,294048,6,0,L|409:126,1,45
495,3,294222,2,0,L|483:114,1,90
456,190,294397,5,0,3:0:0:0:
149,155,294571,1,0,3:0:0:0:
277,99,294746,5,0,3:0:0:0:
308,366,294920,1,0,3:0:0:0:
357,120,295095,5,0,3:0:0:0:
393,317,295269,1,0,0:0:0:0:
366,134,295444,5,0,3:0:0:0:
381,308,295618,1,0,0:0:0:0:
201,161,295793,5,0,0:0:0:0:
201,161,295967,1,0,0:0:0:0:
124,261,296142,5,0,0:0:0:0:
124,261,296316,1,0,0:0:0:0:
34,260,296490,5,0,0:0:0:0:
34,260,296664,1,0,0:0:0:0:
1,243,296839,5,0,0:0:0:0:
1,243,297013,1,0,0:0:0:0:
303,249,297187,5,0,0:0:0:0:
302,243,297274,1,0,0:0:0:0:
301,237,297361,1,0,0:0:0:0:
300,232,297448,1,0,0:0:0:0:
299,226,297535,1,0,0:0:0:0:
299,221,297623,1,0,0:0:0:0:
298,215,297710,1,0,0:0:0:0:
297,210,297797,1,0,0:0:0:0:
296,200,297885,5,0,0:0:0:0:
340,205,297972,1,0,0:0:0:0:
390,195,298060,5,0,0:0:0:0:
354,199,298147,1,0,0:0:0:0:
281,177,298234,5,0,0:0:0:0:
344,189,298321,1,0,0:0:0:0:
419,172,298409,5,0,0:0:0:0:
353,185,298496,1,0,0:0:0:0:
344,173,298583,6,0,L|347:143,6,16.8750006437302
279,66,298932,2,0,L|282:94,6,16.8750006437302
198,222,299281,5,0,3:0:0:0:
192,230,299350,1,0,3:0:0:0:
183,235,299420,1,0,3:0:0:0:
173,236,299490,1,0,3:0:0:0:
164,232,299560,1,0,3:0:0:0:
157,224,299629,1,0,3:0:0:0:
155,214,299699,1,0,3:0:0:0:
157,205,299769,1,0,3:0:0:0:
164,197,299839,1,0,3:0:0:0:
173,193,299908,1,0,3:0:0:0:
183,193,299978,5,0,3:0:0:0:
204,83,300152,1,0,0:0:0:0:
183,193,300326,1,0,0:0:0:0:
204,83,300501,1,0,0:0:0:0:
238,74,300588,1,0,0:0:0:0:
272,64,300675,1,0,0:0:0:0:
307,70,300762,1,0,0:0:0:0:
342,75,300850,2,0,L|401:77,1,45
474,81,301024,6,0,L|476:22,1,45
490,110,301286,1,0,0:0:0:0:
431,176,301373,5,0,3:0:0:0:
452,286,301547,1,0,0:0:0:0:
431,176,301721,1,0,0:0:0:0:
354,312,301896,1,0,0:0:0:0:
319,301,301983,1,0,0:0:0:0:
284,292,302070,1,0,0:0:0:0:
249,303,302157,1,0,0:0:0:0:
215,317,302245,2,0,L|156:315,1,45
46,307,302419,6,0,L|48:366,1,45
37,284,302681,1,0,0:0:0:0:
93,229,302768,5,0,3:0:0:0:
87,117,302942,1,0,0:0:0:0:
93,229,303116,1,0,0:0:0:0:
9,81,303291,1,0,0:0:0:0:
32,53,303378,1,0,0:0:0:0:
65,39,303465,1,0,0:0:0:0:
100,40,303552,1,0,0:0:0:0:
134,51,303640,2,0,L|193:53,1,45
336,151,303815,2,0,L|418:146,2,67.5
264,143,304164,5,0,0:0:0:0:
261,120,304251,1,0,0:0:0:0:
259,98,304338,1,0,0:0:0:0:
257,75,304425,1,0,0:0:0:0:
255,53,304512,1,0,0:0:0:0:
182,126,304687,5,0,0:0:0:0:
184,148,304774,1,0,0:0:0:0:
186,171,304861,1,0,0:0:0:0:
188,193,304948,1,0,0:0:0:0:
191,216,305036,2,0,L|195:289,1,45
268,329,305210,2,0,L|197:335,1,45
147,365,305384,1,0,0:0:0:0:
93,278,305559,5,0,3:0:0:0:
147,365,305733,1,0,0:0:0:0:
93,278,305907,1,0,0:0:0:0:
147,365,306082,1,0,0:0:0:0:
179,380,306169,1,0,0:0:0:0:
215,381,306257,1,0,0:0:0:0:
250,373,306344,1,0,0:0:0:0:
282,358,306431,2,0,L|340:351,1,45
474,340,306605,6,0,L|476:399,1,45
490,311,306867,1,0,0:0:0:0:
397,286,306954,5,0,0:0:0:0:
410,171,307129,1,0,0:0:0:0:
397,286,307303,1,0,0:0:0:0:
326,212,307478,1,0,0:0:0:0:
292,200,307565,1,0,0:0:0:0:
257,189,307652,1,0,0:0:0:0:
222,197,307739,1,0,0:0:0:0:
190,206,307826,2,0,L|123:214,1,45
76,276,308001,6,0,L|74:335,1,45
60,247,308263,1,0,0:0:0:0:
109,172,308350,5,0,3:0:0:0:
81,59,308524,1,0,0:0:0:0:
109,172,308698,1,0,0:0:0:0:
174,105,308873,1,0,0:0:0:0:
209,97,308960,1,0,0:0:0:0:
244,89,309047,1,0,0:0:0:0:
279,94,309134,1,0,0:0:0:0:
314,99,309222,2,0,L|387:111,1,45
413,173,309397,2,0,L|495:168,2,67.5
350,221,309746,5,0,0:0:0:0:
327,224,309833,1,0,0:0:0:0:
305,226,309920,1,0,0:0:0:0:
282,228,310007,1,0,0:0:0:0:
260,230,310094,1,0,0:0:0:0:
247,323,310269,5,0,0:0:0:0:
225,325,310356,1,0,0:0:0:0:
202,327,310443,1,0,0:0:0:0:
180,329,310530,1,0,0:0:0:0:
157,332,310618,2,0,L|82:339,1,45
38,384,310791,2,0,L|31:309,1,45
14,167,310966,1,0,0:0:0:0:
22,260,311141,5,0,0:0:0:0:
14,167,311315,1,0,3:0:0:0:
22,260,311489,1,0,0:0:0:0:
72,110,311664,1,0,0:0:0:0:
104,95,311751,1,0,0:0:0:0:
140,94,311839,1,0,0:0:0:0:
175,102,311926,1,0,0:0:0:0:
207,117,312013,2,0,L|265:124,1,45
316,167,312187,6,0,L|318:226,1,45
332,138,312449,1,0,0:0:0:0:
393,185,312536,5,0,0:0:0:0:
502,174,312710,1,0,0:0:0:0:
393,185,312884,1,0,0:0:0:0:
389,72,313059,1,0,0:0:0:0:
356,56,313146,1,0,0:0:0:0:
319,53,313234,1,0,0:0:0:0:
285,65,313321,1,0,0:0:0:0:
252,80,313408,2,0,L|194:87,1,45
118,82,313582,6,0,L|120:23,1,45
134,111,313844,1,0,0:0:0:0:
68,182,313931,5,0,0:0:0:0:
100,286,314105,1,0,0:0:0:0:
68,182,314280,1,0,0:0:0:0:
58,362,314454,1,0,0:0:0:0:
93,369,314541,1,0,0:0:0:0:
129,365,314629,1,0,0:0:0:0:
163,354,314716,1,0,0:0:0:0:
188,328,314803,2,0,L|205:259,1,45
259,107,314978,2,0,L|254:25,2,67.5
309,375,315326,5,0,0:0:0:0:
312,352,315413,1,0,0:0:0:0:
314,330,315500,1,0,0:0:0:0:
316,307,315587,1,0,0:0:0:0:
318,285,315674,1,0,0:0:0:0:
411,272,315849,5,0,0:0:0:0:
413,250,315936,1,0,0:0:0:0:
415,227,316023,1,0,0:0:0:0:
417,205,316110,1,0,0:0:0:0:
420,182,316198,2,0,L|427:107,1,45
472,63,316373,2,0,L|392:56,1,45
255,39,316546,1,0,0:0:0:0:
234,149,316722,5,0,3:0:0:0:
255,39,316896,1,0,0:0:0:0:
234,149,317070,1,0,0:0:0:0:
169,62,317245,1,0,0:0:0:0:
141,85,317332,1,0,0:0:0:0:
127,118,317419,1,0,0:0:0:0:
128,153,317506,1,0,0:0:0:0:
139,187,317594,2,0,L|141:246,1,45
130,333,317768,6,0,L|128:392,1,45
114,304,318030,1,0,0:0:0:0:
40,345,318117,5,0,0:0:0:0:
215,317,318291,1,0,3:0:0:0:
40,345,318465,1,0,0:0:0:0:
215,317,318640,1,0,0:0:0:0:
246,299,318727,1,0,0:0:0:0:
281,292,318814,1,0,0:0:0:0:
315,300,318901,1,0,0:0:0:0:
346,317,318989,2,0,L|390:318,1,45
466,307,319164,6,0,L|464:366,1,45
475,284,319425,1,0,0:0:0:0:
414,251,319512,6,0,L|408:146,1,90
379,96,319774,1,0,0:0:0:0:
343,228,319861,6,0,L|338:148,1,72
379,96,320123,1,0,0:0:0:0:
274,198,320210,6,0,L|270:131,1,53.9999983520508
312,83,320472,1,0,0:0:0:0:
206,168,320559,6,0,L|204:125,1,36
245,69,320821,1,0,0:0:0:0:
133,135,320908,5,0,0:0:0:0:
204,132,321257,5,0,0:0:0:0:
245,69,321344,2,0,L|243:24,1,45
270,144,321518,5,0,0:0:0:0:
311,81,321605,2,0,L|309:36,1,45
338,156,321780,5,0,0:0:0:0:
379,96,321867,2,0,L|377:51,1,45
412,187,322041,1,0,0:0:0:0:
413,204,322128,1,0,0:0:0:0:
414,222,322215,1,0,0:0:0:0:
413,242,322303,6,0,B|411:287|411:287|396:310,2,72,8|0|0,0:0|0:0|0:0,0:0:0:0:
412,187,323001,2,0,B|412:157|412:157|407:138,2,48
414,222,323350,1,0,0:0:0:0:
346,317,323698,6,0,B|316:317|316:317|297:312,2,48
381,319,324047,2,0,B|436:318|436:318|478:290,1,96
496,274,324396,6,0,B|496:244|496:244|491:225,2,48
470,295,324745,1,0,0:0:0:0:
386,114,325094,6,0,B|356:114|356:114|337:119,2,48,8|0|0,0:0|0:0|0:0,0:0:0:0:
407,139,325443,2,0,B|405:182|405:182|381:216,1,72
313,318,325791,2,0,B|280:318|280:318|260:312,2,48
346,317,326140,1,0,0:0:0:0:
324,179,326489,6,0,B|291:179|291:179|271:185,2,48
340,201,326838,2,0,B|354:205|354:205|387:205,2,48
318,232,327187,2,0,B|285:232|285:232|265:238,2,48
334,254,327536,2,0,B|352:267|352:267|432:266,1,96
455,280,327884,6,8,B|466:260|466:260|464:186,1,72
462,102,328233,1,0,0:0:0:0:
301,205,328582,1,0,0:0:0:0:
239,168,328698,1,0,0:0:0:0:
178,127,328815,1,0,0:0:0:0:
178,127,328931,2,0,B|143:169|143:169|132:217,1,96
129,242,329280,5,0,0:0:0:0:
190,288,329396,1,0,0:0:0:0:
250,335,329512,1,0,0:0:0:0:
313,379,329629,2,0,B|319:325|319:325|288:284,1,96
269,267,329978,1,0,0:0:0:0:
206,214,330094,1,0,0:0:0:0:
143,161,330210,1,0,0:0:0:0:
79,109,330326,1,0,0:0:0:0:
323,88,330675,5,8,0:0:0:0:
263,150,330791,1,0,0:0:0:0:
206,214,330908,1,0,0:0:0:0:
150,279,331024,2,0,B|175:311|175:311|222:312,1,72
336,312,331373,1,0,0:0:0:0:
394,242,331489,1,0,0:0:0:0:
450,170,331605,1,0,0:0:0:0:
501,93,331722,1,0,0:0:0:0:
270,266,332071,5,0,0:0:0:0:
196,204,332187,1,0,0:0:0:0:
122,142,332303,1,0,0:0:0:0:
47,81,332419,1,0,0:0:0:0:
61,176,332536,1,0,0:0:0:0:
76,270,332652,1,0,0:0:0:0:
90,364,332768,1,0,0:0:0:0:
145,285,332884,1,0,0:0:0:0:
196,204,333001,1,0,0:0:0:0:
247,123,333117,2,0,B|213:88|213:88|151:84,1,96
47,81,333466,5,0,0:0:0:0:
51,116,333553,1,0,0:0:0:0:
56,152,333640,1,0,0:0:0:0:
60,188,333727,1,0,0:0:0:0:
130,223,333815,5,0,0:0:0:0:
125,187,333902,1,0,0:0:0:0:
120,151,333989,1,0,0:0:0:0:
116,115,334076,1,0,0:0:0:0:
181,72,334164,5,0,0:0:0:0:
185,107,334251,1,0,0:0:0:0:
190,143,334338,1,0,0:0:0:0:
194,179,334425,1,0,0:0:0:0:
269,204,334512,5,0,0:0:0:0:
263,164,334599,1,0,0:0:0:0:
258,125,334686,1,0,0:0:0:0:
253,86,334773,1,0,0:0:0:0:
319,52,334861,5,0,0:0:0:0:
323,91,334948,1,0,0:0:0:0:
327,130,335035,1,0,0:0:0:0:
331,170,335122,1,0,0:0:0:0:
405,188,335210,5,0,0:0:0:0:
400,148,335297,1,0,0:0:0:0:
395,109,335384,1,0,0:0:0:0:
391,70,335471,1,0,0:0:0:0:
455,41,335559,5,0,0:0:0:0:
459,80,335646,1,0,0:0:0:0:
464,119,335733,1,0,0:0:0:0:
469,158,335820,1,0,0:0:0:0:
405,188,335908,5,0,0:0:0:0:
362,193,335995,1,0,0:0:0:0:
319,199,336082,1,0,0:0:0:0:
276,204,336169,1,0,0:0:0:0:
231,278,336257,5,0,0:0:0:0:
273,271,336344,1,0,0:0:0:0:
316,265,336431,1,0,0:0:0:0:
359,259,336518,1,0,0:0:0:0:
380,331,336605,5,0,0:0:0:0:
337,336,336692,1,0,0:0:0:0:
294,342,336779,1,0,0:0:0:0:
251,348,336866,1,0,0:0:0:0:
231,278,336954,5,0,0:0:0:0:
225,231,337041,1,0,0:0:0:0:
220,184,337128,1,0,0:0:0:0:
215,138,337215,1,0,0:0:0:0:
144,105,337303,5,0,0:0:0:0:
149,151,337390,1,0,0:0:0:0:
154,198,337477,1,0,0:0:0:0:
159,244,337564,1,0,0:0:0:0:
97,286,337652,5,0,0:0:0:0:
92,240,337739,1,0,0:0:0:0:
87,193,337826,1,0,0:0:0:0:
82,147,337913,1,0,0:0:0:0:
11,130,338001,5,0,0:0:0:0:
17,180,338088,1,0,0:0:0:0:
23,230,338175,1,0,0:0:0:0:
29,280,338262,1,0,0:0:0:0:
92,240,338350,5,0,0:0:0:0:
141,232,338437,1,0,0:0:0:0:
191,225,338524,1,0,0:0:0:0:
241,218,338611,1,0,0:0:0:0:
275,143,338698,5,0,0:0:0:0:
225,150,338785,1,0,0:0:0:0:
175,157,338872,1,0,0:0:0:0:
125,164,338959,1,0,0:0:0:0:
17,180,339047,6,0,L|35:158,31,18
52,156,340443,6,0,L|40:169,31,18
92,99,341838,6,0,L|102:108,15,9
174,98,342187,6,0,L|166:82,11,12
240,37,342536,2,0,L|240:53,15,9
308,104,342884,2,0,L|307:95,15,9
309,9,343233,5,0,0:0:0:0:
350,205,343408,1,0,0:0:0:0:
240,37,343582,1,0,0:0:0:0:
395,154,343757,1,0,0:0:0:0:
414,183,343844,1,0,0:0:0:0:
415,219,343931,1,0,0:0:0:0:
361,349,344105,5,0,0:0:0:0:
332,371,344192,5,0,0:0:0:0:
298,382,344279,1,0,0:0:0:0:
263,377,344367,5,0,0:0:0:0:
191,340,344454,1,0,0:0:0:0:
110,336,344541,1,0,0:0:0:0:
35,365,344628,5,0,0:0:0:0:
32,341,346024,5,0,0:0:0:0:
85,265,346111,2,0,L|82:241,1,13.4999995880127
107,24,346286,5,0,0:0:0:0:
158,161,346373,2,0,L|153:214,1,36
138,367,346547,5,0,0:0:0:0:
176,362,346634,1,0,0:0:0:0:
214,358,346721,1,0,0:0:0:0:
227,345,346809,5,0,0:0:0:0:
283,349,346896,1,0,0:0:0:0:
339,354,346983,1,0,0:0:0:0:
414,384,347071,6,0,L|403:290,1,76.5000014591217
399,28,347245,2,0,L|388:122,1,76.5000014591217
464,209,347419,6,0,B|403:175|345:198|378:208|302:245|246:204|246:204|289:170|291:127,1,310.500005922318
126,51,347768,2,0,L|208:43,1,67.5000025749208
136,319,348030,6,0,P|93:242|151:134,1,153.000002918243
150,133,348291,2,0,P|115:175|105:217,1,99.0000030212403
231,273,348466,6,0,B|265:268,1,33.7500012874604
404,300,348640,2,0,B|252:275,1,135.000005149842
40,263,348815,5,0,0:0:0:0:
36,303,348902,1,0,0:0:0:0:
37,277,348989,5,0,0:0:0:0:
39,288,349076,1,0,0:0:0:0:
127,102,349164,6,0,L|209:111,1,67.5000025749208
412,160,349425,6,0,P|323:161|259:265,1,153.000002918243
262,264,349686,2,0,P|280:212|310:188,1,76.5000014591217
296,362,349861,5,0,0:0:0:0:
215,330,349948,2,0,B|275:362|338:328|309:317|364:296|424:313,1,215.999993408203
40,294,350210,6,0,B|31:258|31:258|22:250|22:250|27:240|27:240|17:199|17:199|95:172|166:225,1,251.999992309571
161,236,350472,1,0,0:0:0:0:
284,103,350559,6,0,L|294:179,1,67.5000025749208
342,327,350821,6,0,P|265:370|157:312,1,153.000002918243
160,313,351082,2,0,P|202:348|244:358,1,99.0000030212403
367,216,351257,5,0,0:0:0:0:
447,310,351344,2,0,L|435:149,1,135.000005149842
236,157,351605,6,0,L|265:152,1,22.5
358,134,351780,2,0,L|329:139,1,22.5
160,200,351954,2,0,B|135:172|135:172|156:113,1,67.5000025749208,0|0,0:0|0:0,3:0:0:0:
334,336,352129,5,0,0:0:0:0:
362,152,352216,2,0,P|405:229|347:337,1,153.000002918243
349,331,352478,2,0,P|384:289|394:239,1,103.500001974106
345,71,352652,6,0,L|395:61,6,51.7500009870529
203,25,353001,6,0,B|276:31,1,67.5000025749208,0|0,3:0|3:0,3:0:0:0:
196,98,353262,2,0,B|269:104,1,67.5000025749208,0|0,3:0|3:0,3:0:0:0:
355,339,353524,6,0,B|346:220|346:220|353:199|353:199|343:46,1,270.000010299683
431,355,353786,2,0,B|422:236|422:236|429:215|429:215|419:62,1,270.000010299683
508,379,354047,2,0,B|526:347|526:347|500:299,6,67.5000025749208
132,232,354396,5,0,0:0:0:0:
132,232,354483,2,0,L|230:212,1,67.5000025749208
150,379,354658,1,0,0:0:0:0:
150,379,354745,2,0,L|101:319,1,67.5000025749208,0|0,3:0|3:0,3:0:0:0:
270,294,354919,2,0,L|242:364,1,67.5000025749208
241,108,355094,6,0,L|284:114,1,33.7500012874604
399,136,355181,2,0,L|343:129,1,33.7500012874604
245,112,355268,6,0,L|288:118,1,33.7500012874604
403,140,355355,2,0,L|347:133,1,33.7500012874604
332,56,355443,5,0,0:0:0:0:
334,42,355530,1,0,0:0:0:0:
336,28,355617,1,0,0:0:0:0:
339,14,355704,1,0,0:0:0:0:
225,193,355791,6,0,B|145:183|114:96|114:96|128:224|12:232|12:232|18:208|18:208|11:193|11:193|22:183|22:183|30:152,1,432
12,76,356140,2,0,L|25:156,1,67.5000025749208
14,347,356402,6,0,P|102:350|172:249,1,153.000002918243,0|0,2:0|2:0,2:0:0:0:
199,246,356663,2,0,P|186:282|162:311,1,76.5000014591217,0|0,2:0|2:0,2:0:0:0:
133,128,356838,6,0,L|130:81,1,40.4999987640381
36,135,357187,5,0,0:0:0:0:
123,149,357303,5,0,0:0:0:0:
210,163,357419,5,0,0:0:0:0:
308,105,357536,2,0,L|312:56,2,33.7500012874604
243,254,357797,6,0,P|311:198|427:236,1,153.000002918243
430,237,358059,2,0,P|382:209|331:208,1,103.500001974106
367,383,358233,6,0,L|376:317,1,45
405,112,358408,1,0,0:0:0:0:
405,112,358582,6,0,B|392:91|392:91|369:114,6,45
200,68,358931,2,0,L|293:61,1,67.5000025749208
198,161,359193,6,0,P|167:78|47:53,1,153.000002918243
44,52,359455,2,0,P|99:51|144:76,1,103.500001974106
285,239,359629,6,0,B|251:234,1,33.7500012874604
112,266,359803,2,0,B|264:241,1,135.000005149842
262,79,359978,5,0,0:0:0:0:
302,75,360065,1,0,0:0:0:0:
276,76,360152,5,0,0:0:0:0:
287,78,360239,1,0,0:0:0:0:
434,40,360326,6,0,L|424:112,1,67.5000025749208
325,304,360588,6,0,P|356:221|476:196,1,153.000002918243
479,195,360850,2,0,P|424:194|379:219,1,103.500001974106
259,359,361024,5,0,0:0:0:0:
341,314,361111,2,0,B|275:358|215:329|215:329|192:284|136:285,1,215.999993408203
22,378,361373,6,0,L|25:344,1,26.9999991760254
31,281,361722,2,0,L|34:244,1,36
101,102,362071,6,0,L|106:164,1,62.9999980773926
182,86,362419,2,0,L|192:186,1,80.9999975280763
283,337,362768,6,0,L|275:283,1,45
336,188,362943,2,0,L|343:242,1,49.5000015106202
279,341,363117,6,0,L|262:289,1,53.9999983520508
340,184,363292,2,0,L|359:247,1,58.4999973220826
256,273,363466,5,0,0:0:0:0:
256,273,363553,1,0,0:0:0:0:
361,253,363640,5,0,0:0:0:0:
361,253,363728,1,0,0:0:0:0:
183,242,363815,6,0,L|101:229,1,72
432,285,363989,2,0,L|514:298,1,76.5000014591217
337,169,364164,6,0,B|280:172|280:172|254:160|254:160|197:164,1,135
203,152,364338,2,0,B|257:148|257:148|285:161|285:161|349:158,1,141.749995674133
349,147,364512,6,0,B|286:150|286:150|258:137|258:137|196:141,1,148.50000453186
199,130,364687,2,0,B|258:126|258:126|286:139|286:139|362:136,1,155.250002961159
453,98,364861,6,0,L|440:207,1,107.999996704102
391,374,365036,2,0,L|378:265,1,107.999996704102
362,35,365210,6,0,L|348:149,1,112.5
297,326,365385,2,0,L|283:211,1,112.5
141,56,365559,5,0,0:0:0:0:
154,51,365646,1,0,0:0:0:0:
214,166,365733,5,0,0:0:0:0:
207,177,365820,1,0,0:0:0:0:
90,120,365908,5,0,0:0:0:0:
89,106,365995,1,0,0:0:0:0:
217,84,366082,5,0,0:0:0:0:
226,95,366169,1,0,0:0:0:0:
135,188,366257,5,0,3:0:0:0:
122,184,366344,1,0,3:0:0:0:
157,118,366431,5,0,0:0:0:0:
162,118,366518,1,0,0:0:0:0:
165,123,366605,1,0,0:0:0:0:
162,127,366693,1,0,0:0:0:0:
157,127,366780,1,0,0:0:0:0:
154,123,366867,1,0,0:0:0:0:
109,267,366954,5,0,0:0:0:0:
288,93,368350,6,0,B|267:136|267:136|275:211|336:243,1,161.999995056153
344,238,368611,5,0,0:0:0:0:
443,205,368698,2,0,L|435:285,1,80.9999975280763,0|0,3:0|0:0,0:0:0:0:
342,248,368873,5,0,0:0:0:0:
451,203,368960,2,0,L|443:283,1,80.9999975280763,0|0,3:0|0:0,0:0:0:0:
341,257,369134,5,0,0:0:0:0:
459,200,369222,2,0,L|451:280,1,80.9999975280763,0|0,3:0|0:0,0:0:0:0:
312,357,369396,6,0,P|368:329|407:378,1,135,0|0,3:0|0:0,0:0:0:0:
133,269,369745,6,0,L|137:234,14,33.7500012874604
255,298,370094,6,0,B|201:303|201:303|164:288|164:288|97:294,1,161.999995056153
54,139,370355,2,0,B|48:179|48:179|61:220,1,80.9999975280763
152,364,370530,1,0,0:0:0:0:
2,347,370617,2,0,L|50:351,1,45
218,231,370791,2,0,B|215:199|215:199|219:184|219:184|213:174|213:174|203:112|203:112|190:92|190:92|230:138|292:111,1,242.999992584229
253,44,371140,5,0,0:0:0:0:
473,221,371315,1,0,0:0:0:0:
376,203,371402,1,0,0:0:0:0:
488,224,371489,2,0,B|533:234|533:234|404:267,1,161.999995056153
239,314,371751,2,0,B|157:293|157:293|120:311,2,107.999996704102
397,384,372012,2,0,L|393:339,1,45
376,203,372187,1,0,0:0:0:0:
331,290,372274,6,0,B|340:124|340:124|368:98,1,198.000006042481
483,33,372536,6,0,B|545:74|545:74|432:66|432:66|398:31|398:31|264:23,1,350.999983932496
91,39,372884,6,0,P|158:22|212:67,1,144,0|0,3:0|3:0,3:0:0:0:
142,102,373146,5,0,0:0:0:0:
135,174,373233,2,0,L|142:94,1,72
315,290,373408,2,0,L|308:219,1,72
299,143,373582,5,0,0:0:0:0:
287,271,373669,2,0,B|282:385|282:385|315:352,1,144
439,349,373931,6,0,B|402:336|402:336|372:339,1,67.5000025749208
203,359,374192,5,8,0:0:0:0:
120,367,374279,2,8,L|40:375,1,72,8|8,3:0|0:0,0:0:0:0:
208,350,374454,5,8,0:0:0:0:
125,358,374541,2,8,L|45:366,1,72,8|8,3:0|0:0,0:0:0:0:
213,340,374716,5,8,0:0:0:0:
130,348,374803,2,8,L|50:356,1,72,8|8,3:0|0:0,0:0:0:0:
42,233,374978,5,0,0:0:0:0:
44,251,375065,1,0,0:0:0:0:
46,270,375152,2,0,L|103:272,1,56.25
98,89,375326,6,0,L|169:83,1,67.5000025749208
345,54,375501,1,0,0:0:0:0:
359,60,375588,1,0,0:0:0:0:
281,28,375675,6,0,L|278:97,1,67.5000025749208,8|0,3:0|0:0,0:0:0:0:
213,340,375850,5,0,0:0:0:0:
223,326,375937,1,0,0:0:0:0:
269,265,376024,6,0,P|275:237|269:203,1,45.0000017166138
225,163,376140,2,0,P|241:178|260:189,1,45.0000017166138
335,175,376257,2,0,P|313:181|288:197,1,45.0000017166138
200,236,376373,5,0,0:0:0:0:
512,340,376547,1,0,0:0:0:0:
189,164,376722,6,0,L|180:264,1,101.250003862381,0|0,3:0|3:0,3:0:0:0:
135,325,376896,2,8,P|101:328|71:315,1,67.5000025749208
111,44,377071,6,0,L|119:144,1,101.250003862381,0|0,3:0|3:0,3:0:0:0:
203,136,377245,1,0,0:0:0:0:
197,150,377332,1,0,0:0:0:0:
233,65,377419,6,0,P|288:101|354:115,1,135
420,114,377594,6,0,P|353:124|288:108,1,135
312,177,377768,6,0,P|369:119|471:109,1,168.75
508,167,378117,6,0,L|512:310,1,144
302,246,378379,5,0,0:0:0:0:
373,217,378466,2,0,B|377:251|377:251|368:288,1,72
141,339,378640,6,0,B|76:347|76:347|32:332,2,99.0000030212403
299,318,378902,2,0,B|364:310|364:310|408:325,2,99.0000030212403
208,305,379164,2,0,B|197:266|197:266|216:172|216:172|191:100,1,180
189,61,379512,6,0,L|194:227,1,153.000002918243
25,246,379775,5,0,0:0:0:0:
96,275,379861,2,0,B|100:241|100:241|93:200,1,76.5000014591217
22,103,380036,6,0,B|14:37|14:37|28:-5,2,103.500001974106
163,184,380297,2,0,B|175:244|175:244|166:299,2,103.500001974106
91,52,380559,6,0,B|239:59|239:59|275:41,1,188.999994232178
226,132,380908,6,0,L|230:97,8,33.7500012874604
455,188,381169,5,0,0:0:0:0:
385,225,381256,2,0,B|380:184|380:184|389:139,1,80.9999975280763
457,202,381431,5,0,0:0:0:0:
375,226,381518,2,0,B|370:185|370:185|379:140,1,80.9999975280763
460,215,381693,5,0,0:0:0:0:
305,244,381780,2,0,L|214:252,1,80.9999975280763
63,272,381954,6,0,P|142:266|142:330,1,135
93,380,382303,6,0,L|89:345,8,33.7500012874604
0,172,382652,6,0,B|56:183|56:183|88:176,1,90
221,124,382826,5,0,0:0:0:0:
235,130,382913,1,0,0:0:0:0:
224,53,383001,5,0,0:0:0:0:
247,135,383088,2,0,L|249:277,1,135
255,369,383262,2,0,L|272:199,1,168.750006437302
387,251,383524,2,0,L|302:259,1,67.5
248,269,383698,5,0,0:0:0:0:
511,235,383873,1,0,0:0:0:0:
128,285,384047,1,0,0:0:0:0:
406,96,384222,2,0,L|397:182,1,80.9999975280763
455,308,384396,5,0,0:0:0:0:
453,291,384483,1,0,0:0:0:0:
385,268,384570,5,0,0:0:0:0:
387,251,384657,1,0,0:0:0:0:
397,176,384745,5,0,0:0:0:0:
347,184,384832,1,0,0:0:0:0:
314,220,384919,1,0,0:0:0:0:
309,269,385006,1,0,0:0:0:0:
346,332,385094,6,0,B|325:319|325:319|259:323,1,80.9999975280763
0,350,385268,2,0,B|19:334|19:334|85:332,1,80.9999975280763
246,175,385443,5,0,0:0:0:0:
244,158,385530,1,0,0:0:0:0:
225,89,385617,2,0,L|216:169,1,80.9999975280763
168,351,385791,5,0,0:0:0:0:
166,334,385878,1,0,0:0:0:0:
122,270,385966,5,0,0:0:0:0:
124,253,386053,1,0,0:0:0:0:
80,240,386140,1,0,0:0:0:0:
35,227,386228,5,0,0:0:0:0:
0,154,386315,2,0,B|39:158|39:158|78:145,1,80.9999975280763
357,15,386489,5,0,0:0:0:0:
314,38,386576,1,0,0:0:0:0:
306,86,386663,1,0,0:0:0:0:
339,122,386750,1,0,0:0:0:0:
388,118,386838,1,0,0:0:0:0:
431,141,386925,1,0,0:0:0:0:
439,189,387012,1,0,0:0:0:0:
406,225,387100,5,0,0:0:0:0:
395,223,387187,1,0,0:0:0:0:
385,222,387274,1,0,0:0:0:0:
348,295,387361,5,0,0:0:0:0:
388,292,387448,1,0,0:0:0:0:
428,290,387535,1,0,0:0:0:0:
460,366,387623,5,0,0:0:0:0:
432,363,387710,1,0,0:0:0:0:
401,361,387797,1,0,0:0:0:0:
311,355,387884,6,0,B|285:353|285:353|249:362,5,53.9999983520508
204,271,388233,6,0,L|199:311,3,40.4999987640381
130,325,388408,2,0,L|136:378,2,53.9999983520508,8|0|8,0:0|0:0|0:0,0:0:0:0:
210,202,388582,6,0,L|205:163,10,26.9999991760254
191,107,388931,5,0,0:0:0:0:
210,103,389018,1,0,0:0:0:0:
230,107,389105,1,0,0:0:0:0:
248,116,389192,1,0,0:0:0:0:
263,130,389280,6,0,P|292:175|275:255,1,135
243,325,390326,2,0,P|216:304|198:264,2,67.5
325,318,391111,1,0,0:0:0:0:
359,243,391373,2,0,L|373:188,1,45
311,176,391634,2,0,L|306:120,1,45
359,243,392071,6,0,L|381:157,2,67.5
311,176,393117,2,0,L|303:88,2,67.5
228,184,393902,2,0,L|233:162,1,22.5
193,259,394164,2,0,L|177:316,1,45
242,322,394425,1,0,0:0:0:0:
240,326,394512,2,0,L|242:359,3,22.5
131,341,394861,6,0,L|115:283,1,45
88,262,395123,1,0,0:0:0:0:
88,262,395210,2,0,L|91:226,1,22.5
24,190,395384,1,0,0:0:0:0:
24,190,395472,2,0,L|39:157,3,22.5
233,162,395908,6,0,L|182:175,1,45
260,135,396169,2,0,L|209:122,1,45
287,108,396431,1,0,0:0:0:0:
287,108,396518,2,0,L|306:119,1,22.5
368,96,396693,1,0,0:0:0:0:
368,96,396780,2,0,L|387:107,1,22.5
376,173,396954,1,0,0:0:0:0:
376,173,397041,2,0,L|356:184,1,22.5
299,181,397216,1,0,0:0:0:0:
299,181,397303,2,0,L|279:192,3,22.5
177,217,397652,6,0,L|190:166,1,45
204,244,397914,1,0,0:0:0:0:
204,244,398001,2,0,L|192:263,1,22.5
216,325,398176,1,0,0:0:0:0:
216,325,398263,2,0,L|204:344,3,22.5
89,239,398698,6,0,L|102:188,1,45
127,156,398960,2,0,L|117:100,1,45
184,79,399221,1,0,0:0:0:0:
184,79,399309,2,0,L|166:47,1,22.5
279,90,399483,1,0,0:0:0:0:
279,90,399571,2,0,L|253:64,1,22.5
316,177,399745,1,0,0:0:0:0:
316,177,399832,2,0,L|284:158,1,22.5
259,252,400007,1,0,0:0:0:0:
259,251,400094,2,0,L|224:242,3,22.5
295,337,400442,6,0,L|316:289,1,45
346,261,400704,1,0,0:0:0:0:
346,261,400791,2,0,L|346:219,1,22.5
416,194,400965,1,0,0:0:0:0:
416,194,401053,2,0,L|403:159,3,22.5
297,48,401489,6,0,L|278:89,1,45
212,72,401751,2,0,L|193:113,1,45
127,96,402012,2,0,L|108:137,1,45
42,120,402274,2,0,L|23:161,1,45
86,221,402536,1,0,0:0:0:0:
86,221,402623,2,0,L|101:188,1,22.5
148,280,402797,1,0,0:0:0:0:
148,280,402884,2,0,L|163:247,3,22.5
210,339,403233,6,0,L|240:273,2,67.5
292,196,404280,2,0,L|263:257,2,67.5
352,256,405065,1,0,0:0:0:0:
433,234,405326,6,0,P|416:200|384:176,3,67.5
256,192,406286,12,0,411432,0:0:0:0:
103,226,411518,6,0,L|142:180,11,36
195,258,412565,2,0,L|203:284,7,22.5
226,183,413262,2,0,L|189:171,13,22.5
