osu file format v14

[General]
AudioFilename: audio.mp3
AudioLeadIn: 0
PreviewTime: 209281
Countdown: 0
SampleSet: Soft
StackLeniency: 0.2
Mode: 0
LetterboxInBreaks: 0
WidescreenStoryboard: 0

[Editor]
Bookmarks: 5560,27885,50211,61374,66955,72536,94862,111606,122769,145094,156257,167420,188350,210676,233001,255327,277653
DistanceSpacing: 0.5
BeatDivisor: 4
GridSize: 4
TimelineZoom: 1.6

[Metadata]
Title:Introduction / NEURO-CLOUD-9
TitleUnicode:Introduction / NEURO-CLOUD-9
Artist:Camellia
ArtistUnicode:かめりあ
Creator:Mazzerin
Version:Schizophrenia
Source:
Tags:INSANE INFLAME introduction neurofunk
BeatmapID:1057141
BeatmapSetID:496656

[Difficulty]
HPDrainRate:7
CircleSize:4.1
OverallDifficulty:9
ApproachRate:9
SliderMultiplier:2.1
SliderTickRate:1

[Events]
//Background and Video events
0,0,"neurocloud9.jpg",0,0
//Break Periods
2,28085,48913
2,167621,187751
//Storyboard Layer 0 (Background)
//Storyboard Layer 1 (Fail)
//Storyboard Layer 2 (Pass)
//Storyboard Layer 3 (Foreground)
//Storyboard Sound Samples

[TimingPoints]
1374,348.837209302326,4,2,1,5,1,0
5560,-200,4,2,5,60,0,0
9484,-200,4,2,5,5,0,0
9571,-200,4,1,5,60,0,0
9746,-200,4,1,2,60,0,0
9920,-200,4,1,5,60,0,0
10094,-200,4,1,3,60,0,0
10269,-200,4,1,2,60,0,0
10443,-200,4,1,3,60,0,0
11141,-200,4,2,5,60,0,0
15065,-200,4,2,5,5,0,0
15153,-200,4,1,5,60,0,0
15327,-200,4,1,2,60,0,0
15560,-200,4,1,3,60,0,0
15676,-200,4,1,2,60,0,0
15792,-200,4,1,3,60,0,0
16025,-200,4,1,2,60,0,0
16199,-200,4,1,3,60,0,0
16374,-200,4,1,2,60,0,0
16461,-200,4,1,3,60,0,0
16722,-200,4,2,5,60,0,0
19251,-200,4,2,5,5,0,0
19339,-200,4,1,5,60,0,0
19513,-200,4,1,2,60,0,0
19600,-200,4,1,5,60,0,0
20036,-200,4,1,2,60,0,0
20124,-200,4,1,5,60,0,0
20560,-200,4,1,2,60,0,0
20647,-200,4,1,5,60,0,0
21083,-200,4,1,2,60,0,0
21257,-200,4,1,5,60,0,0
21432,-200,4,1,4,60,0,0
21606,-200,4,1,2,60,0,0
21780,-200,4,1,5,60,0,0
21955,-200,4,1,2,60,0,0
22042,-200,4,2,1,30,0,0
22304,-200,4,2,5,60,0,0
23961,-200,4,2,5,5,0,0
24048,-200,4,1,5,60,0,0
24397,-200,4,1,2,60,0,0
24746,-200,4,1,4,60,0,0
25094,-200,4,1,5,60,0,0
25182,-200,4,1,4,60,0,0
25443,-200,4,1,2,60,0,0
25618,-200,4,1,4,60,0,0
25792,-200,4,1,5,60,0,0
25967,-200,4,1,2,60,0,0
26141,-200,4,1,5,60,0,0
26490,-200,4,1,2,60,0,0
27013,-200,4,1,5,60,0,0
27885,-200,4,2,5,60,0,0
50124,-200,4,2,5,5,0,0
50211,-200,4,2,5,60,0,0
51693,-200,4,2,5,5,0,0
51780,-200,4,2,5,60,0,0
52914,-200,4,1,5,5,0,0
53001,-200,4,2,5,60,0,0
54484,-200,4,2,5,5,0,0
54571,-200,4,2,5,60,0,0
55487,-200,4,2,5,20,0,0
55792,-200,4,2,5,60,0,0
57275,-200,4,2,5,5,0,0
57362,-200,4,2,5,60,0,0
58496,-200,4,2,5,5,0,0
58583,-200,4,2,5,60,0,0
60065,-200,4,2,5,5,0,0
60153,-200,4,2,5,60,0,0
69746,-100,4,2,5,60,0,0
72449,-100,4,2,5,5,0,0
72536,-100,4,2,1,60,0,1
93641,-100,4,1,2,60,0,1
94862,-80,4,2,1,60,0,1
97304,-200,4,2,1,60,0,1
97565,-200,4,2,1,5,0,1
97653,-80,4,2,1,60,0,1
100094,-200,4,2,1,60,0,1
100356,-200,4,2,1,5,0,1
100443,-80,4,2,1,60,0,1
102885,-200,4,2,1,60,0,1
103147,-80,4,2,1,5,0,1
103234,-80,4,2,1,60,0,1
108467,-200,4,2,1,60,0,1
108728,-80,4,2,1,5,0,1
108815,-80,4,2,1,60,0,1
111257,-200,4,2,1,60,0,1
111519,-80,4,2,1,5,0,1
111606,-80,4,2,1,60,0,1
115792,-100,4,2,1,60,0,1
116839,-33.3333333333333,4,2,1,60,0,1
116926,-33.3333333333333,4,2,1,5,0,1
117013,-33.3333333333333,4,2,1,60,0,1
117100,-33.3333333333333,4,2,1,5,0,1
117187,-200,4,2,1,60,0,0
122333,-200,4,2,1,5,0,0
122420,-200,4,2,0,35,0,0
122770,-200,4,2,1,60,0,0
122857,-200,4,2,1,60,0,0
125647,-200,4,2,0,5,0,0
125735,-200,4,2,0,60,0,0
125996,-200,4,2,1,60,0,0
128264,-200,4,2,0,5,0,0
128351,-200,4,2,0,60,0,0
128438,-200,4,2,1,60,0,0
131054,-200,4,2,0,5,0,0
131142,-200,4,2,0,60,0,0
131229,-200,4,2,1,60,0,0
133845,-200,4,2,0,5,0,0
133932,-200,4,2,0,60,0,0
134020,-200,4,2,1,60,0,0
136636,-200,4,2,0,5,0,0
136723,-200,4,2,0,60,0,0
145008,-100,4,2,0,5,0,0
145095,-66.6666666666667,4,2,5,60,0,0
145270,-66.6666666666667,4,2,5,5,0,0
145357,-66.6666666666667,4,2,5,60,0,0
145531,-66.6666666666667,4,2,5,5,0,0
145618,-66.6666666666667,4,2,5,60,0,0
145706,-66.6666666666667,4,2,5,5,0,0
145793,-400,4,2,5,60,0,0
146403,-400,4,2,5,5,0,0
146490,-66.6666666666667,4,2,5,60,0,0
146665,-66.6666666666667,4,2,5,5,0,0
146708,-50,4,2,5,60,0,0
146796,-50,4,2,5,5,0,0
146839,-50,4,2,5,60,0,0
146970,-50,4,2,5,5,0,0
147014,-50,4,2,5,60,0,0
147101,-50,4,2,5,5,0,0
147145,-50,4,2,5,60,0,0
147275,-50,4,2,5,5,0,0
147319,-66.6666666666667,4,2,5,60,0,0
147493,-50,4,2,5,5,0,0
147537,-200,4,2,5,60,0,0
147842,-200,4,2,5,5,0,0
147886,-400,4,2,5,60,0,0
148714,-400,4,2,5,5,0,0
148758,-400,4,2,5,60,0,0
149238,-400,4,2,5,5,0,0
149281,-50,4,2,5,60,0,0
149456,-50,4,2,5,5,0,0
149499,-57.1428571428571,4,2,5,60,0,0
149630,-57.1428571428571,4,2,5,5,0,0
149674,-66.6666666666667,4,2,5,60,0,0
149848,-57.1428571428571,4,2,5,5,0,0
149892,-80,4,2,5,60,0,0
150022,-57.1428571428571,4,2,5,5,0,0
150066,-100,4,2,5,60,0,0
150197,-100,4,2,5,5,0,0
150240,-100,4,2,5,60,0,0
150328,-200,4,2,5,60,0,0
150633,-100,4,2,5,5,0,0
150676,-66.6666666666667,4,2,5,60,0,0
150851,-66.6666666666667,4,2,5,5,0,0
150938,-57.1428571428571,4,2,5,60,0,0
151113,-57.1428571428571,4,2,5,5,0,0
151200,-57.1428571428571,4,2,5,60,0,0
151287,-57.1428571428571,4,2,5,5,0,0
151374,-400,4,2,5,60,0,0
151396,-400,4,2,5,15,0,0
152072,-100,4,2,5,60,0,0
152159,-100,4,2,5,5,0,0
152203,-100,4,2,5,60,0,0
152290,-100,4,2,5,5,0,0
152333,-100,4,2,5,60,0,0
152508,-100,4,2,5,5,0,0
152551,-100,4,2,5,60,0,0
152726,-100,4,2,5,5,0,0
152770,-100,4,2,5,60,0,0
152857,-100,4,2,5,5,0,0
152900,-100,4,2,5,60,0,0
152988,-100,4,2,5,5,0,0
153031,-200,4,2,5,60,0,0
153380,-200,4,2,5,5,0,0
153467,-133.333333333333,4,2,5,60,0,0
154078,-133.333333333333,4,2,5,5,0,0
154165,-133.333333333333,4,2,5,60,0,0
154775,-133.333333333333,4,2,5,5,0,0
154863,-100,4,2,5,60,0,0
155473,-100,4,2,5,5,0,0
155560,-80,4,2,5,60,0,0
156171,-80,4,2,5,5,0,0
156258,-66.6666666666667,4,2,5,60,0,0
156956,-100,4,2,1,60,0,0
161839,-66.6666666666667,4,2,1,60,0,0
162537,-100,4,2,1,60,0,0
164630,-80,4,2,1,60,0,0
165328,-100,4,2,1,60,0,0
166025,-400,4,2,5,60,0,0
166287,-400,4,2,5,5,0,0
166374,-400,4,2,5,60,0,0
166396,-400,4,2,5,15,0,0
167421,-400,4,2,5,60,0,0
188351,-133.333333333333,4,2,5,60,0,0
191142,-200,4,2,5,15,0,0
192537,-133.333333333333,4,2,5,20,0,0
193932,-133.333333333333,4,2,5,25,0,0
195328,-133.333333333333,4,2,5,30,0,0
196723,-133.333333333333,4,2,5,35,0,0
198118,-133.333333333333,4,2,5,40,0,0
198990,-133.333333333333,4,2,5,70,0,0
199078,-133.333333333333,4,2,5,40,0,0
199252,-133.333333333333,4,2,5,70,0,0
199339,-133.333333333333,4,2,5,40,0,0
199514,-133.333333333333,4,2,5,70,0,0
199601,-133.333333333333,4,2,5,45,0,0
200909,-133.333333333333,4,2,5,50,0,0
202304,-133.333333333333,4,2,5,55,0,0
203700,-133.333333333333,4,2,5,60,0,0
207886,-133.333333333333,4,2,5,40,0,0
208235,-133.333333333333,4,2,5,35,0,0
208583,-133.333333333333,4,2,5,30,0,0
208932,-133.333333333333,4,2,5,25,0,0
209281,-133.333333333333,4,2,5,60,0,0
210153,-100,4,1,2,60,0,0
210240,-100,4,1,3,60,0,0
210415,-100,4,1,4,60,0,0
210589,-100,4,1,2,60,0,0
210676,-50,4,2,1,60,0,1
210938,-66.6666666666667,4,2,1,5,0,1
211025,-100,4,2,1,60,0,1
211810,-33.3333333333333,4,2,1,60,0,1
211985,-50,4,2,1,5,0,1
212072,-66.6666666666667,4,2,1,60,0,1
212421,-100,4,2,1,60,0,1
213467,-66.6666666666667,4,2,1,60,0,1
213642,-100,4,2,1,60,0,1
214601,-33.3333333333333,4,2,1,60,0,1
214863,-100,4,2,1,60,0,1
215909,-66.6666666666667,4,2,1,60,0,1
216171,-66.6666666666667,4,2,1,5,0,1
216258,-50,4,2,1,60,0,1
216520,-100,4,2,1,5,0,1
216607,-100,4,2,1,60,0,1
217392,-33.3333333333333,4,2,1,60,0,1
217566,-66.6666666666667,4,2,1,5,0,1
217653,-100,4,2,1,60,0,1
219746,-66.6666666666667,4,2,1,60,0,1
220095,-50,4,2,1,60,0,1
220357,-50,4,2,1,5,0,1
220444,-100,4,2,1,60,0,1
220575,-100,4,2,1,5,0,1
220618,-100,4,2,1,60,0,1
220749,-100,4,2,1,5,0,1
220793,-100,4,2,1,60,0,1
220924,-100,4,2,1,5,0,1
220967,-100,4,2,1,60,0,1
221098,-100,4,2,1,5,0,1
221142,-66.6666666666667,4,2,1,60,0,1
221490,-50,4,2,1,60,0,1
221752,-50,4,2,1,5,0,1
221839,-50,4,2,1,60,0,1
222101,-50,4,2,1,5,0,1
222188,-100,4,2,1,60,0,1
222973,-33.3333333333333,4,2,1,60,0,1
223147,-100,4,2,1,5,0,1
223235,-100,4,2,1,60,0,1
224630,-66.6666666666667,4,2,1,60,0,1
224804,-100,4,2,1,60,0,1
225764,-33.3333333333333,4,2,1,60,0,1
225938,-66.6666666666667,4,2,1,5,0,1
226025,-100,4,2,1,60,0,1
227072,-66.6666666666667,4,2,1,60,0,1
227333,-66.6666666666667,4,2,1,5,0,1
227421,-50,4,2,1,60,0,1
227682,-50,4,2,1,5,0,1
227770,-66.6666666666667,4,2,1,60,0,1
227988,-200,4,2,1,60,0,1
228118,-100,4,2,1,60,0,1
228293,-66.6666666666667,4,2,1,60,0,1
228467,-100,4,2,1,60,0,1
230560,-50,4,2,1,60,0,1
230735,-100,4,2,1,60,0,1
231258,-50,4,2,1,60,0,1
231432,-100,4,2,1,60,0,1
233002,-50,4,2,1,60,0,1
233176,-50,4,2,1,5,0,1
233351,-100,4,2,1,60,0,1
233700,-66.6666666666667,4,2,1,60,0,1
233961,-66.6666666666667,4,2,1,5,0,1
234049,-100,4,2,1,60,0,1
235444,-200,4,2,1,60,0,1
235560,-50,4,2,1,60,0,1
235793,-200,4,2,1,60,0,1
236142,-100,4,2,1,60,0,1
236926,-66.6666666666667,4,2,1,60,0,1
237188,-100,4,2,1,60,0,1
238583,-50,4,2,1,60,0,1
238845,-50,4,2,1,5,0,1
238932,-50,4,2,1,60,0,1
239107,-100,4,2,1,60,0,1
241025,-200,4,2,1,60,0,1
241142,-50,4,2,1,60,0,1
241374,-100,4,2,1,60,0,1
244165,-50,4,2,1,60,0,1
244339,-50,4,2,1,5,0,1
244514,-100,4,2,1,60,0,1
244863,-66.6666666666667,4,2,1,60,0,1
245124,-66.6666666666667,4,2,1,5,0,1
245211,-100,4,2,1,60,0,1
246607,-200,4,2,1,60,0,1
246723,-50,4,2,1,60,0,1
246897,-50,4,2,1,5,0,1
246956,-200,4,2,1,60,0,1
247304,-100,4,2,1,60,0,1
248089,-66.6666666666667,4,2,1,60,0,1
248351,-100,4,2,1,60,0,1
248700,-100,4,2,1,60,0,1
249485,-66.6666666666667,4,2,1,60,0,1
249746,-200,4,2,1,60,0,1
250444,-133.333333333333,4,2,1,60,0,1
251142,-100,4,2,1,60,0,1
251839,-80,4,2,1,60,0,1
252537,-100,4,2,1,60,0,1
253932,-100,4,2,1,60,0,0
254717,-100,4,2,1,5,0,0
254804,-100,4,1,2,60,0,0
254892,-100,4,1,3,60,0,0
255066,-100,4,1,4,60,0,0
255240,-100,4,1,2,60,0,0
255327,-50,4,2,1,60,0,1
255589,-50,4,2,1,5,0,1
255676,-100,4,2,1,60,0,1
256490,-33.3333333333333,4,2,1,60,0,1
256635,-66.6666666666667,4,2,1,5,0,1
256723,-100,4,2,1,60,0,1
258118,-66.6666666666667,4,2,1,60,0,1
258380,-66.6666666666667,4,2,1,5,0,1
258467,-100,4,2,1,60,0,1
259281,-33.3333333333333,4,2,1,60,0,1
259426,-66.6666666666667,4,2,1,5,0,1
259514,-100,4,2,1,60,0,1
260647,-66.6666666666667,4,2,1,60,0,1
260822,-66.6666666666667,4,2,1,5,0,1
260909,-50,4,2,1,60,0,1
261171,-50,4,2,1,5,0,1
261258,-100,4,2,1,60,0,1
262072,-33.3333333333333,4,2,1,60,0,1
262217,-66.6666666666667,4,2,1,5,0,1
262304,-100,4,2,1,60,0,1
264746,-50,4,2,1,60,0,1
265008,-50,4,2,1,5,0,1
265095,-100,4,2,1,60,0,1
265793,-50,4,2,1,60,0,1
266752,-50,4,2,1,5,0,1
266839,-100,4,2,1,60,0,1
267653,-33.3333333333333,4,2,1,60,0,1
267798,-66.6666666666667,4,2,1,5,0,1
267886,-100,4,2,1,60,0,1
269281,-66.6666666666667,4,2,1,60,0,1
269630,-100,4,2,1,60,0,1
270328,-33.3333333333333,4,2,1,60,0,1
270589,-66.6666666666667,4,2,1,5,0,1
270676,-100,4,2,1,60,0,1
271723,-66.6666666666667,4,2,1,60,0,1
272072,-50,4,2,1,60,0,1
272421,-100,4,2,1,60,0,1
273467,-50,4,2,1,60,0,1
273990,-100,4,2,1,60,0,1
274863,-50,4,2,1,60,0,1
275386,-100,4,2,1,60,0,1
277653,-50,4,2,1,60,0,1
277915,-50,4,2,1,5,0,1
278002,-100,4,2,1,60,0,1
278787,-33.3333333333333,4,2,1,60,0,1
278961,-33.3333333333333,4,2,1,5,0,1
279049,-100,4,2,1,60,0,1
280444,-66.6666666666667,4,2,1,60,0,1
280706,-66.6666666666667,4,2,1,5,0,1
280793,-100,4,2,1,60,0,1
281621,-33.3333333333333,4,2,1,60,0,1
281751,-66.6666666666667,4,2,1,5,0,1
281839,-100,4,2,1,60,0,1
282886,-66.6666666666667,4,2,1,60,0,1
283235,-50,4,2,1,60,0,1
283496,-100,4,2,1,5,0,1
283583,-100,4,2,1,60,0,1
284281,-33.3333333333333,4,2,1,60,0,1
284542,-33.3333333333333,4,2,1,5,0,1
284630,-100,4,2,1,60,0,1
287072,-50,4,2,1,60,0,1
287333,-50,4,2,1,5,0,1
287421,-100,4,2,1,60,0,1
288467,-50,4,2,1,60,0,1
288729,-50,4,2,1,5,0,1
288816,-50,4,2,1,60,0,1
289165,-100,4,2,1,60,0,1
289514,-133.333333333333,4,2,1,60,0,1
289863,-50,4,2,1,60,0,1
290211,-133.333333333333,4,2,1,60,0,1
291607,-158.730158730159,4,2,1,60,0,1
292784,-55.5555555555556,4,2,1,60,0,1
293002,-200,4,2,1,60,0,1
294049,-100,4,2,1,60,0,1
294397,-133.333333333333,4,2,1,60,0,1
294746,-66.6666666666667,4,2,1,60,0,1
294921,-133.333333333333,4,2,1,60,0,1
295444,-66.6666666666667,4,2,1,60,0,1
295618,-133.333333333333,4,2,1,60,0,1
296142,-66.6666666666667,4,2,1,60,0,1
296316,-133.333333333333,4,2,1,60,0,1
296839,-66.6666666666667,4,2,1,60,0,1
297014,-133.333333333333,4,2,1,60,0,1
297188,-100,4,2,1,60,0,1
298627,-100,4,2,1,30,0,1
298758,-100,4,2,1,60,0,1
298801,-100,4,2,1,30,0,1
299020,-100,4,2,1,60,0,1
299063,-100,4,2,1,30,0,1
299281,279.06976744186,4,2,1,40,1,1
299978,348.837209302326,4,2,1,100,1,0
299979,-200,4,1,1,40,0,0
319512,-200,4,1,1,50,0,0
319861,-200,4,1,1,40,0,0
320210,-200,4,1,1,30,0,0
320559,-200,4,1,1,20,0,0
320908,-100,4,2,1,60,0,0
321257,-80,4,2,1,60,0,0
321518,-66.6666666666667,4,2,1,60,0,0
321780,-57.1428571428571,4,2,1,60,0,0
322041,-50,4,2,1,60,0,0
322216,-100,4,2,1,60,0,0
322652,-50,4,2,1,60,0,0
322826,-100,4,2,1,60,0,0
323350,-50,4,2,1,60,0,0
323524,-100,4,2,1,60,0,0
324047,-50,4,2,1,60,0,0
324222,-100,4,2,1,60,0,0
324745,-50,4,2,1,60,0,0
324919,-100,4,2,1,60,0,0
325443,-50,4,2,1,60,0,0
325617,-100,4,2,1,60,0,0
326140,-50,4,2,1,60,0,0
326315,-100,4,2,1,60,0,0
326838,-50,4,2,1,60,0,0
327012,-100,4,2,1,60,0,0
327536,-50,4,2,1,60,0,0
327710,-100,4,2,1,60,0,0
328233,-50,4,2,1,60,0,0
328408,-100,4,2,1,60,0,0
328931,-50,4,2,1,60,0,0
329105,-100,4,2,1,60,0,0
329629,-50,4,2,1,60,0,0
329803,-100,4,2,1,60,0,0
330326,-50,4,2,1,60,0,0
330501,-100,4,2,1,60,0,0
331024,-50,4,2,1,60,0,0
331198,-100,4,2,1,60,0,0
331722,-50,4,2,1,60,0,0
331896,-100,4,2,1,60,0,0
332419,-50,4,2,1,60,0,0
332594,-100,4,2,1,60,0,0
333117,-50,4,2,1,60,0,0
333291,-100,4,2,1,60,0,0
340443,-114.942528735632,4,2,1,50,0,0
340791,-133.333333333333,4,2,1,40,0,0
341140,-158.730158730159,4,2,1,30,0,0
341489,-200,4,2,1,20,0,0
343233,-200,4,1,1,40,0,0
344018,-100,4,1,2,40,0,0
344105,-100,4,1,2,60,0,0
344193,-100,4,1,3,60,0,0
344367,-100,4,1,4,60,0,0
344541,-100,4,1,2,60,0,0
344629,-50,4,2,1,60,0,1
344890,-50,4,2,1,5,0,1
344978,-200,4,2,0,60,0,0
345152,-200,4,2,0,5,0,0
345239,-133.333333333333,4,2,0,60,0,0
345414,-133.333333333333,4,2,0,5,0,0
345501,-100,4,2,0,60,0,0
345675,-100,4,2,0,5,0,0
345762,-80,4,2,0,60,0,0
345937,-80,4,2,0,5,0,0
346024,-100,4,2,5,60,0,0
347419,-66.6666666666667,4,2,1,60,0,1
347594,-100,4,2,1,60,0,1
347768,-66.6666666666667,4,2,1,60,0,1
348553,-25,4,2,1,60,0,1
348728,-66.6666666666667,4,2,1,5,0,1
348815,-66.6666666666667,4,2,1,60,0,1
349948,-50,4,2,1,60,0,1
350123,-50,4,2,1,5,0,1
350210,-40,4,2,1,60,0,1
350472,-40,4,2,1,5,0,1
350559,-66.6666666666667,4,2,1,60,0,1
351605,-66.6666666666667,4,2,1,60,0,1
352652,-50,4,2,1,60,0,1
353001,-100,4,2,1,60,0,1
353698,-66.6666666666667,4,2,1,60,0,1
354047,-50,4,2,1,60,0,1
354309,-50,4,2,1,5,0,1
354396,-100,4,2,1,60,0,1
354527,-100,4,2,1,5,0,1
354571,-100,4,2,1,60,0,1
354701,-100,4,2,1,5,0,1
354745,-100,4,2,1,60,0,1
354876,-100,4,2,1,5,0,1
354919,-100,4,2,1,60,0,1
355050,-100,4,2,1,5,0,1
355094,-100,4,2,1,60,0,1
355791,-40,4,2,1,60,0,1
356053,-40,4,2,1,5,0,1
356140,-66.6666666666667,4,2,1,60,0,1
358233,-50,4,2,1,60,0,1
358582,-200,4,2,1,60,0,1
358931,-66.6666666666667,4,2,1,60,0,1
359629,-25,4,2,1,60,0,1
359890,-50,4,2,1,5,0,1
359978,-66.6666666666667,4,2,1,60,0,1
361024,-50,4,2,1,60,0,1
361286,-50,4,2,1,5,0,1
361373,-40,4,2,1,60,0,1
361634,-40,4,2,1,5,0,1
361722,-100,4,2,1,60,0,1
362245,-66.6666666666667,4,2,1,60,0,1
362419,-100,4,2,1,60,0,1
364512,-50,4,2,1,60,0,1
364687,-100,4,2,1,60,0,1
365210,-50,4,2,1,60,0,1
365384,-100,4,2,1,60,0,1
366954,-50,4,2,1,60,0,1
367216,-50,4,2,1,5,0,1
367303,-66.6666666666667,4,2,1,60,0,1
367565,-57.1428571428571,4,2,1,60,0,1
367826,-50,4,2,1,60,0,1
368088,-44.4444444444445,4,2,1,60,0,1
368350,-40,4,2,1,60,0,1
368873,-57.1428571428571,4,2,1,60,0,1
369134,-44.4444444444445,4,2,1,60,0,1
369745,-200,4,2,1,60,0,1
370094,-66.6666666666667,4,2,1,60,0,1
370791,-25,4,2,1,60,0,1
371053,-50,4,2,1,5,0,1
371140,-50,4,2,1,60,0,1
371489,-66.6666666666667,4,2,1,60,0,1
372274,-50,4,2,1,60,0,1
372448,-50,4,2,1,5,0,1
372536,-40,4,2,1,60,0,1
372797,-40,4,2,1,5,0,1
372884,-66.6666666666667,4,2,1,60,0,1
374978,-50,4,2,1,60,0,1
375326,-100,4,2,1,60,0,1
376373,-50,4,2,1,60,0,1
376634,-50,4,2,1,5,0,1
376722,-100,4,2,1,60,0,1
376853,-100,4,2,1,5,0,1
376896,-100,4,2,1,60,0,1
377027,-100,4,2,1,5,0,1
377071,-100,4,2,1,60,0,1
377201,-100,4,2,1,5,0,1
377245,-100,4,2,1,60,0,1
377376,-100,4,2,1,5,0,1
377419,-50,4,2,1,60,0,1
378291,-50,4,2,1,5,0,1
378379,-66.6666666666667,4,2,1,60,0,1
379512,-57.1428571428571,4,2,1,60,0,1
380559,-44.4444444444445,4,2,1,60,0,1
380908,-200,4,2,1,60,0,1
381257,-50,4,2,1,60,0,1
381954,-25,4,2,1,60,0,1
382216,-50,4,2,1,5,0,1
382303,-50,4,2,1,60,0,1
382652,-44.4444444444445,4,2,1,60,0,1
383088,-200,4,2,1,60,0,1
383175,-200,4,2,1,5,0,1
383262,-400,4,2,1,60,0,1
383437,-400,4,2,1,5,0,1
383524,-200,4,2,1,60,0,1
383698,-33.3333333333333,4,2,1,60,0,1
383960,-33.3333333333333,4,2,1,5,0,1
384047,-40,4,2,1,60,0,1
385094,-38.0228136882129,4,2,1,60,0,1
386489,-36.3636363636364,4,2,1,60,0,1
387884,-100,4,1,0,40,0,1
389280,-100,4,2,1,60,0,0

[Colours]
Combo1 : 255,153,0
Combo2 : 159,0,0
Combo3 : 225,84,43
Combo4 : 255,6,6

[HitObjects]
256,192,1374,12,0,5472,0:0:0:0:
45,232,5560,6,0,B|101:205|101:205|121:241|121:241|176:203|240:228|240:228|286:206|286:206|332:221|332:221|329:136|387:142|466:157|414:248|414:248|504:257|504:257|533:179|500:95|407:71|407:71|351:320|351:320|422:331,1,1181.25,6|0,0:0|0:0,0:0:0:0:
322,344,9571,5,0,0:0:0:0:
317,334,9658,1,0,0:0:0:0:
313,324,9746,1,0,0:0:0:0:
313,324,9920,1,0,0:0:0:0:
337,221,10094,5,0,0:0:0:0:
92,366,10269,1,0,0:0:0:0:
203,341,10443,1,0,0:0:0:0:
127,260,10618,5,0,0:0:0:0:
209,187,10792,1,0,0:0:0:0:
134,104,10967,1,0,0:0:0:0:
264,267,11141,6,0,B|300:241|307:188|307:188|337:237|389:240|389:240|406:299|406:299|329:318|329:318|272:380|195:335|188:291|188:291|77:333|77:333|80:281|80:281|126:258|126:258|85:186|133:104|133:104|211:84|211:84|286:91|286:91|217:111|209:188,1,1181.25,6|0,0:0|0:0,0:0:0:0:
307,188,15153,5,0,0:0:0:0:
313,186,15211,1,0,0:0:0:0:
319,184,15269,1,0,0:0:0:0:
325,182,15327,2,0,L|338:147,1,35
392,145,15501,1,0,0:0:0:0:
390,137,15560,1,0,0:0:0:0:
463,224,15676,6,0,L|454:273,2,35
353,284,16025,6,0,L|297:304,1,52.5
213,364,16374,5,0,0:0:0:0:
209,353,16461,1,0,0:0:0:0:
206,342,16548,1,0,0:0:0:0:
203,331,16635,1,0,0:0:0:0:
199,320,16722,6,0,B|214:364|214:364|160:356|160:356|140:279|140:279|189:278|189:278|166:210|205:163|205:163|128:139|128:139|93:203|107:273|107:273|271:272|271:272|262:229,1,761.25,6|0,0:0|0:0,0:0:0:0:
276,230,19339,5,0,0:0:0:0:
279,236,19397,1,0,0:0:0:0:
282,242,19455,1,0,0:0:0:0:
285,248,19513,2,0,L|318:237,2,26.25
379,298,19862,5,0,0:0:0:0:
311,81,20036,1,0,0:0:0:0:
321,78,20124,1,0,0:0:0:0:
331,75,20211,1,0,0:0:0:0:
367,178,20385,1,0,0:0:0:0:
88,247,20560,1,0,0:0:0:0:
98,244,20648,1,0,0:0:0:0:
108,241,20735,1,0,0:0:0:0:
141,337,20908,1,0,0:0:0:0:
254,190,21083,5,0,0:0:0:0:
249,217,21141,1,0,0:0:0:0:
245,244,21199,1,0,0:0:0:0:
241,271,21257,1,0,0:0:0:0:
362,316,21432,5,0,0:0:0:0:
375,313,21490,1,0,0:0:0:0:
388,310,21548,1,0,0:0:0:0:
401,307,21606,6,0,L|410:274,1,26.25
506,275,21780,2,0,L|515:242,1,26.25
241,271,21955,1,0,0:0:0:0:
237,261,22042,1,0,0:0:0:0:
233,251,22129,1,0,0:0:0:0:
229,241,22217,1,0,0:0:0:0:
225,231,22304,6,0,B|179:207|179:207|210:287|210:287|289:250|289:250|285:204|317:173|317:173|181:92|181:92|195:123,1,498.75,6|0,0:0|0:0,0:0:0:0:
106,144,24048,5,0,0:0:0:0:
230,122,24222,1,0,0:0:0:0:
224,118,24280,1,0,0:0:0:0:
217,114,24339,1,0,0:0:0:0:
211,110,24397,1,0,0:0:0:0:
211,110,24746,5,0,0:0:0:0:
247,125,24833,1,0,0:0:0:0:
285,132,24920,1,0,0:0:0:0:
325,130,25007,1,0,0:0:0:0:
308,177,25094,5,0,0:0:0:0:
347,171,25181,1,0,0:0:0:0:
385,174,25268,1,0,0:0:0:0:
423,186,25355,1,0,0:0:0:0:
411,137,25443,5,0,0:0:0:0:
190,271,25618,5,0,0:0:0:0:
192,263,25705,1,0,0:0:0:0:
193,255,25792,5,0,0:0:0:0:
155,267,25879,1,0,0:0:0:0:
167,218,25967,5,0,0:0:0:0:
291,299,26141,5,0,0:0:0:0:
319,304,26228,1,0,0:0:0:0:
348,308,26315,1,0,0:0:0:0:
376,312,26402,1,0,0:0:0:0:
355,349,26490,5,0,0:0:0:0:
403,87,26664,1,0,0:0:0:0:
152,179,26839,1,0,0:0:0:0:
287,223,27013,5,0,0:0:0:0:
289,215,27100,1,0,0:0:0:0:
291,207,27187,2,0,L|366:204,1,70
64,75,27711,5,0,0:0:0:0:
62,67,27798,1,0,0:0:0:0:
60,59,27885,5,6,0:0:0:0:
129,214,49513,6,0,B|200:201|200:201|238:212|238:212|324:197,1,183.75
285,289,50211,5,0,0:0:0:0:
308,199,50385,1,0,0:0:0:0:
361,332,50560,5,0,0:0:0:0:
274,117,50734,1,0,0:0:0:0:
285,289,50908,5,0,0:0:0:0:
393,245,51083,1,0,0:0:0:0:
308,199,51257,1,0,0:0:0:0:
253,375,51432,6,0,B|315:381|315:381|301:349,1,78.75
285,289,51780,1,0,0:0:0:0:
308,199,51955,5,0,0:0:0:0:
402,384,52129,1,0,0:0:0:0:
393,245,52304,5,0,0:0:0:0:
285,289,52478,1,0,0:0:0:0:
476,280,52653,6,0,B|482:238|482:238|467:183,1,78.75
409,133,53001,5,0,0:0:0:0:
393,245,53176,1,0,0:0:0:0:
229,153,53350,5,0,0:0:0:0:
472,202,53525,1,0,0:0:0:0:
326,172,53699,5,0,0:0:0:0:
409,133,53874,1,0,0:0:0:0:
393,245,54048,1,0,0:0:0:0:
235,95,54222,6,0,B|282:87|282:87|284:84|284:84|320:79,1,78.75
170,27,54571,5,0,0:0:0:0:
326,172,54746,1,0,0:0:0:0:
384,0,54920,1,0,0:0:0:0:
187,32,55094,5,0,0:0:0:0:
321,157,55269,1,0,0:0:0:0:
371,9,55443,2,0,L|386:19,6,13.125
478,13,55792,5,0,0:0:0:0:
429,94,55967,1,0,0:0:0:0:
478,13,56141,5,0,0:0:0:0:
508,229,56315,1,0,0:0:0:0:
381,169,56490,5,0,0:0:0:0:
500,147,56664,1,0,0:0:0:0:
429,94,56839,1,0,0:0:0:0:
346,254,57013,6,0,B|387:257|387:257|433:249,1,78.75
381,169,57362,1,0,0:0:0:0:
288,334,57536,5,0,0:0:0:0:
381,169,57711,1,0,0:0:0:0:
255,195,57885,5,0,0:0:0:0:
381,169,58060,1,0,0:0:0:0:
175,244,58234,6,0,B|192:303|192:303|159:295,1,78.75
109,384,58583,5,0,0:0:0:0:
70,307,58757,1,0,0:0:0:0:
255,195,58932,5,0,0:0:0:0:
70,307,59106,1,0,0:0:0:0:
162,310,59280,5,0,0:0:0:0:
70,307,59455,1,0,0:0:0:0:
109,384,59629,1,0,0:0:0:0:
79,201,59804,6,0,B|121:205|121:205|171:193,1,78.75
109,384,60153,5,0,0:0:0:0:
115,122,60327,1,0,0:0:0:0:
350,236,60501,1,0,0:0:0:0:
115,122,60676,5,0,0:0:0:0:
350,236,60850,1,0,0:0:0:0:
109,384,61025,5,0,0:0:0:0:
115,122,61199,1,0,0:0:0:0:
190,228,61374,6,0,L|188:303,1,52.5,2|0,0:0|0:0,0:0:0:0:
19,232,61722,2,0,L|20:179,1,52.5,2|0,0:0|0:0,0:0:0:0:
192,254,62071,6,0,L|170:325,1,52.5,2|0,0:0|0:0,0:0:0:0:
8,207,62420,2,0,L|22:156,1,52.5,2|0,0:0|0:0,0:0:0:0:
186,273,62769,6,0,L|146:336,1,52.5,2|0,0:0|0:0,0:0:0:0:
20,179,63118,2,0,L|47:134,1,52.5,2|0,0:0|0:0,0:0:0:0:
177,292,63467,6,0,L|122:343,1,52.5,2|0,0:0|0:0,0:0:0:0:
40,158,63816,2,0,L|78:121,1,52.5,2|0,0:0|0:0,0:0:0:0:
423,252,64164,6,0,B|423:286|423:286|440:318,1,52.5,2|0,0:0|0:0,0:0:0:0:
430,68,64513,2,0,L|431:143,1,52.5,2|0,0:0|0:0,0:0:0:0:
292,334,64862,6,0,B|292:368|292:368|275:400,1,52.5,2|0,0:0|0:0,0:0:0:0:
285,150,65211,2,0,L|284:225,1,52.5,2|0,0:0|0:0,0:0:0:0:
491,225,65560,6,0,B|499:257|499:257|524:284,1,52.5,2|0,0:0|0:0,0:0:0:0:
450,45,65909,2,0,L|470:117,1,52.5,2|0,0:0|0:0,0:0:0:0:
216,310,66257,6,0,B|207:342|207:342|182:369,1,52.5,2|0,0:0|0:0,0:0:0:0:
256,130,66606,2,0,L|235:202,1,52.5,2|0,0:0|0:0,0:0:0:0:
385,317,66955,5,8,0:0:0:0:
385,317,67129,1,2,0:0:0:0:
0,244,67304,5,8,0:0:0:0:
0,244,67478,1,2,0:0:0:0:
512,179,67653,5,8,0:0:0:0:
512,179,67827,1,2,0:0:0:0:
0,244,68001,5,8,0:0:0:0:
0,244,68175,1,2,0:0:0:0:
512,179,68350,5,8,0:0:0:0:
512,179,68524,1,2,0:0:0:0:
0,244,68699,5,8,0:0:0:0:
0,244,68873,1,2,0:0:0:0:
512,179,69048,5,8,0:0:0:0:
512,179,69222,1,2,0:0:0:0:
0,244,69397,5,8,0:0:0:0:
0,244,69571,1,2,0:0:0:0:
512,179,69746,5,2,0:0:0:0:
459,185,69833,1,2,0:0:0:0:
407,191,69920,1,2,0:0:0:0:
355,198,70007,1,2,0:0:0:0:
400,183,70094,5,10,0:0:0:0:
406,236,70181,1,2,0:0:0:0:
412,288,70268,1,2,0:0:0:0:
419,340,70355,1,2,0:0:0:0:
422,292,70443,5,10,0:0:0:0:
370,298,70530,1,2,0:0:0:0:
318,305,70617,1,2,0:0:0:0:
266,311,70704,1,2,0:0:0:0:
312,320,70792,5,10,0:0:0:0:
305,267,70879,1,2,0:0:0:0:
299,215,70966,1,2,0:0:0:0:
256,192,71054,12,0,72449,0:0:0:0:
140,251,72536,5,6,0:0:0:0:
140,251,72711,1,0,0:0:0:0:
409,214,72885,5,8,0:0:0:0:
140,251,73060,1,0,0:0:0:0:
395,206,73234,5,2,0:0:0:0:
153,240,73409,1,2,0:0:0:0:
243,22,73583,1,8,0:0:0:0:
278,275,73757,6,0,L|264:164,1,105,0|2,0:0|0:0,0:0:0:0:
264,170,74106,1,0,0:0:0:0:
140,251,74280,5,8,0:0:0:0:
409,214,74455,1,0,0:0:0:0:
264,170,74629,5,0,0:0:0:0:
264,170,74804,1,2,0:0:0:0:
339,298,74978,6,0,L|228:313,1,105,8|2,0:0|0:0,0:0:0:0:
157,370,75327,5,2,0:0:0:0:
157,370,75501,1,0,0:0:0:0:
112,124,75676,5,8,0:0:0:0:
157,370,75850,1,0,0:0:0:0:
105,136,76025,5,0,0:0:0:0:
145,357,76199,1,2,0:0:0:0:
367,207,76374,1,8,0:0:0:0:
70,259,76548,6,0,L|181:240,1,105,0|2,0:0|0:0,0:0:0:0:
105,136,76897,5,0,0:0:0:0:
145,357,77071,1,8,0:0:0:0:
367,207,77246,1,0,0:0:0:0:
112,124,77420,5,2,0:0:0:0:
157,370,77594,1,2,0:0:0:0:
386,203,77769,5,8,0:0:0:0:
385,202,77943,1,2,0:0:0:0:
136,243,78118,5,2,0:0:0:0:
136,243,78292,1,0,0:0:0:0:
265,43,78467,5,8,0:0:0:0:
136,243,78641,1,0,0:0:0:0:
251,45,78815,5,0,0:0:0:0:
135,226,78989,1,2,0:0:0:0:
397,246,79164,1,8,0:0:0:0:
150,104,79339,6,0,L|247:160,1,105,0|2,0:0|0:0,0:0:0:0:
240,156,79687,1,0,0:0:0:0:
260,41,79862,5,8,0:0:0:0:
136,243,80036,1,0,0:0:0:0:
240,156,80211,5,0,0:0:0:0:
240,156,80385,1,2,0:0:0:0:
152,48,80560,6,0,L|80:158,1,105,8|0,0:0|0:0,0:0:0:0:
136,243,80908,5,2,0:0:0:0:
136,243,81083,1,0,0:0:0:0:
45,26,81257,5,8,0:0:0:0:
136,243,81432,1,0,0:0:0:0:
55,33,81606,5,0,0:0:0:0:
137,229,81780,1,2,0:0:0:0:
313,50,81955,1,8,0:0:0:0:
44,149,82129,6,0,L|151:111,1,105,0|2,0:0|0:0,0:0:0:0:
151,7,82478,5,0,0:0:0:0:
137,229,82653,1,8,0:0:0:0:
334,130,82827,1,0,0:0:0:0:
151,7,83001,5,2,0:0:0:0:
137,229,83176,1,2,0:0:0:0:
356,244,83350,1,8,0:0:0:0:
372,24,83525,1,2,0:0:0:0:
58,110,83699,5,6,0:0:0:0:
58,110,83874,1,0,0:0:0:0:
243,96,84048,5,8,0:0:0:0:
80,290,84222,1,0,0:0:0:0:
244,114,84397,5,0,0:0:0:0:
97,288,84571,1,2,0:0:0:0:
358,319,84746,1,8,0:0:0:0:
133,173,84920,6,0,L|242:244,1,105,0|2,0:0|0:0,0:0:0:0:
220,230,85269,1,0,0:0:0:0:
243,96,85443,5,8,0:0:0:0:
80,290,85618,1,0,0:0:0:0:
220,230,85792,5,0,0:0:0:0:
220,230,85967,1,2,0:0:0:0:
127,97,86141,6,0,L|58:180,1,105,8|2,0:0|0:0,0:0:0:0:
80,290,86490,5,2,0:0:0:0:
80,290,86664,1,0,0:0:0:0:
344,214,86839,5,8,0:0:0:0:
80,290,87013,1,0,0:0:0:0:
327,205,87187,5,0,0:0:0:0:
89,273,87362,1,2,0:0:0:0:
160,37,87536,1,8,0:0:0:0:
224,281,87711,6,0,L|194:165,1,105,0|2,0:0|0:0,0:0:0:0:
327,205,88060,5,0,0:0:0:0:
89,273,88234,1,8,0:0:0:0:
160,37,88408,1,0,0:0:0:0:
340,208,88583,5,2,0:0:0:0:
78,283,88757,1,2,0:0:0:0:
156,23,88931,5,8,0:0:0:0:
156,23,89106,1,2,0:0:0:0:
229,295,89280,5,2,0:0:0:0:
229,295,89455,1,0,0:0:0:0:
288,55,89629,5,8,0:0:0:0:
229,295,89804,1,0,0:0:0:0:
296,69,89978,5,0,0:0:0:0:
242,285,90153,1,2,0:0:0:0:
493,222,90327,1,8,0:0:0:0:
194,163,90501,6,0,L|304:185,1,105,0|2,0:0|0:0,0:0:0:0:
296,183,90850,1,0,0:0:0:0:
296,69,91025,5,8,0:0:0:0:
242,285,91199,1,0,0:0:0:0:
296,183,91374,5,0,0:0:0:0:
296,183,91548,1,2,0:0:0:0:
183,95,91722,6,0,L|154:205,1,105,8|0,0:0|0:0,0:0:0:0:
242,285,92071,5,2,0:0:0:0:
242,285,92246,1,0,0:0:0:0:
59,103,92420,5,8,0:0:0:0:
242,285,92594,1,0,0:0:0:0:
77,105,92769,5,0,0:0:0:0:
241,268,92943,1,2,0:0:0:0:
293,18,93118,1,8,0:0:0:0:
110,241,93292,6,0,L|187:150,1,105,0|2,0:0|0:0,0:0:0:0:
11,216,93641,5,0,0:0:0:0:
11,267,93728,1,0,0:0:0:0:
36,313,93815,1,0,0:0:0:0:
80,340,93902,1,0,0:0:0:0:
132,342,93989,1,0,0:0:0:0:
179,318,94077,1,0,0:0:0:0:
199,274,94164,5,0,0:0:0:0:
218,340,94251,1,0,0:0:0:0:
153,359,94338,1,0,0:0:0:0:
134,293,94425,1,0,0:0:0:0:
222,302,94513,5,0,0:0:0:0:
189,362,94600,1,0,0:0:0:0:
129,330,94687,1,0,0:0:0:0:
162,270,94774,1,0,0:0:0:0:
179,318,94862,6,0,L|199:171,1,131.25,6|0,0:0|0:0,0:0:0:0:
59,235,95211,5,0,0:0:0:0:
76,105,95385,1,0,0:0:0:0:
312,378,95560,5,8,0:0:0:0:
329,248,95734,1,0,0:0:0:0:
436,319,95908,1,0,0:0:0:0:
179,318,96083,6,0,B|134:316|134:316|96:298|96:298|47:298,1,131.25,0|2,0:0|0:0,0:0:0:0:
51,298,96432,1,0,0:0:0:0:
114,200,96606,5,0,0:0:0:0:
80,384,96780,1,0,0:0:0:0:
361,114,96955,5,8,0:0:0:0:
327,298,97129,1,0,0:0:0:0:
441,184,97304,6,0,B|431:245|431:245|451:238,1,78.75
124,225,97653,5,6,0:0:0:0:
124,225,97827,1,0,0:0:0:0:
90,41,98001,5,0,0:0:0:0:
124,225,98176,1,0,0:0:0:0:
361,114,98350,5,8,0:0:0:0:
327,298,98525,1,0,0:0:0:0:
442,223,98699,1,0,0:0:0:0:
215,219,98874,6,0,B|150:216|150:216|83:182,1,131.25,0|2,0:0|0:0,0:0:0:0:
170,128,99222,5,0,0:0:0:0:
175,329,99397,1,0,0:0:0:0:
3,249,99571,1,0,0:0:0:0:
347,84,99746,5,8,0:0:0:0:
352,285,99921,1,0,0:0:0:0:
180,205,100094,6,0,B|179:153|179:153|165:114,1,78.75
500,106,100443,5,6,0:0:0:0:
500,106,100618,1,0,0:0:0:0:
448,199,100792,5,0,0:0:0:0:
424,37,100967,1,0,0:0:0:0:
156,367,101141,5,8,0:0:0:0:
180,205,101316,1,0,0:0:0:0:
58,277,101490,1,0,0:0:0:0:
257,299,101664,6,0,B|341:312|311:277|412:301,1,131.25,0|2,0:0|0:0,0:0:0:0:
386,295,102013,1,0,0:0:0:0:
489,221,102187,5,0,0:0:0:0:
464,371,102362,1,0,0:0:0:0:
128,102,102536,5,8,0:0:0:0:
153,252,102711,1,0,0:0:0:0:
44,161,102885,6,0,B|54:221|54:221|17:201,1,78.75
366,115,103234,5,6,0:0:0:0:
366,115,103408,1,0,0:0:0:0:
424,217,103583,5,0,0:0:0:0:
479,71,103757,1,0,0:0:0:0:
182,320,103932,5,8,0:0:0:0:
127,174,104106,1,0,0:0:0:0:
54,287,104280,1,0,0:0:0:0:
261,203,104455,6,0,B|242:158|242:158|241:131|241:131|215:70,1,131.25,0|2,0:0|0:0,0:0:0:0:
143,153,104804,5,0,0:0:0:0:
354,132,104978,1,0,0:0:0:0:
258,320,105153,1,0,0:0:0:0:
234,35,105327,5,8,0:0:0:0:
407,276,105501,1,2,0:0:0:0:
111,292,105676,1,2,0:0:0:0:
234,35,105850,1,2,0:0:0:0:
258,320,106025,5,6,0:0:0:0:
258,320,106199,1,0,0:0:0:0:
313,222,106374,5,0,0:0:0:0:
353,373,106548,1,0,0:0:0:0:
234,35,106722,5,8,0:0:0:0:
194,186,106896,1,0,0:0:0:0:
101,77,107071,1,0,0:0:0:0:
313,120,107246,6,0,B|381:102|381:102|455:112,1,131.25,0|2,0:0|0:0,0:0:0:0:
441,110,107594,1,0,0:0:0:0:
413,15,107769,5,0,0:0:0:0:
384,201,107943,1,0,0:0:0:0:
101,77,108118,5,8,0:0:0:0:
130,263,108292,1,0,0:0:0:0:
31,212,108467,6,0,B|22:155|22:155|4:181,1,78.75
384,201,108815,5,6,0:0:0:0:
384,201,108990,1,0,0:0:0:0:
303,127,109164,5,0,0:0:0:0:
353,297,109339,1,0,0:0:0:0:
172,7,109513,5,8,0:0:0:0:
122,177,109688,1,0,0:0:0:0:
28,59,109862,1,0,0:0:0:0:
231,122,110036,6,0,B|293:107|293:107|382:117,1,131.25,0|2,0:0|0:0,0:0:0:0:
399,17,110385,5,0,0:0:0:0:
299,204,110560,1,0,0:0:0:0:
175,32,110734,1,0,0:0:0:0:
406,154,110908,5,8,0:0:0:0:
306,341,111083,1,0,0:0:0:0:
182,169,111257,6,0,L|232:240,1,78.75
81,72,111606,5,12,0:0:0:0:
67,202,111780,1,2,0:0:0:0:
54,333,111954,1,2,0:0:0:0:
406,62,112129,5,8,0:0:0:0:
419,192,112303,1,2,0:0:0:0:
432,323,112477,1,2,0:0:0:0:
245,81,112653,5,8,0:0:0:0:
243,313,112827,1,2,0:0:0:0:
64,59,113001,5,8,0:0:0:0:
50,203,113175,1,2,0:0:0:0:
35,346,113349,1,2,0:0:0:0:
422,48,113524,5,8,0:0:0:0:
436,191,113698,1,2,0:0:0:0:
450,335,113874,1,2,0:0:0:0:
245,69,114048,5,8,0:0:0:0:
242,324,114222,1,2,0:0:0:0:
46,45,114397,5,12,0:0:0:0:
30,203,114571,1,2,0:0:0:0:
15,361,114745,1,2,0:0:0:0:
440,33,114920,5,8,0:0:0:0:
455,190,115094,1,2,0:0:0:0:
471,349,115268,1,2,0:0:0:0:
245,56,115444,5,8,0:0:0:0:
242,337,115618,1,2,0:0:0:0:
30,203,115792,5,10,0:0:0:0:
82,203,115879,1,2,0:0:0:0:
134,204,115966,1,2,0:0:0:0:
187,204,116053,1,2,0:0:0:0:
239,257,116141,5,10,0:0:0:0:
186,257,116228,1,2,0:0:0:0:
134,258,116315,1,2,0:0:0:0:
81,258,116402,1,2,0:0:0:0:
25,193,116490,5,10,0:0:0:0:
77,193,116577,1,2,0:0:0:0:
129,194,116664,1,2,0:0:0:0:
182,194,116751,1,2,0:0:0:0:
248,268,116839,6,0,L|70:269,1,157.5,8|0,0:0|0:0,0:0:0:0:
239,257,117013,2,0,L|61:258,1,157.5
228,242,117187,6,0,B|71:242|71:242|102:167|102:167|289:168|289:168|468:147|346:-3|261:57|261:57|268:259|268:259|378:273|462:175|462:175|500:240|487:272|487:272|404:353|274:348|274:348|268:247,1,1548.75,6|0,0:0|0:0,0:0:0:0:
154,291,122420,5,0,0:0:0:0:
149,278,122507,1,0,0:0:0:0:
144,265,122594,1,0,0:0:0:0:
139,252,122682,1,0,0:0:0:0:
59,283,122770,6,0,B|114:286|139:252|139:252|138:301|138:301|181:275|228:283|228:283|239:269|239:269|294:258|339:278|339:278|424:232|424:232|321:153|201:192|201:192|143:142|82:187|82:187|97:160|88:123,1,866.25,6|0,0:0|0:0,0:0:0:0:
9,147,125735,5,2,0:0:0:0:
9,147,125909,2,0,B|-11:202|17:241|17:241|18:347|18:347|95:316|95:316|95:220|95:220|95:200|82:187|82:187|94:167|91:139|91:139|129:115|128:61|128:61|152:99|201:104|201:104|190:153|166:177,1,708.75,2|0,0:0|0:0,0:0:0:0:
45,70,128351,6,0,B|91:80|129:62|129:62|153:100|202:105|202:105|243:152|322:120|322:120|310:221|310:221|261:213|261:213|323:309|176:345|151:260|186:215|186:215|96:225|96:225|95:268,1,813.75,2|0,0:0|0:0,0:0:0:0:
35,158,131142,6,0,B|201:142|201:142|175:177|186:215|186:215|96:224|96:224|104:76|104:76|234:65|234:65|305:120|260:194|260:194|269:225|250:259,1,813.75,2|0,0:0|0:0,0:0:0:0:
185,292,133932,6,0,B|77:302|77:302|99:328|96:357|96:357|139:330|202:328|202:328|273:367|331:312|331:312|384:343|461:316|461:316|375:335|335:377|335:377|266:361|198:382,1,813.75,2|0,0:0|0:0,0:0:0:0:
256,245,136723,5,2,0:0:0:0:
256,192,136810,12,0,145008,0:0:0:0:
35,286,145095,6,0,B|121:266|121:266|240:284,1,157.500006008148,2|0,0:0|0:0,0:0:0:0:
44,303,145357,6,0,B|130:283|130:283|249:301,1,157.500006008148,2|0,0:0|0:0,0:0:0:0:
53,318,145618,6,0,L|136:299,1,78.7500030040742,2|0,0:0|0:0,0:0:0:0:
277,351,145793,6,0,B|314:343|314:343|318:348|318:348|367:339,1,91.875
486,254,146490,6,0,B|449:267|449:267|465:183|465:183|425:200,1,157.500006008148
434,195,146708,6,0,B|390:220|390:220|407:142,1,105
379,87,146839,6,0,B|423:62|423:62|400:171,1,157.5
434,195,147014,6,0,B|390:220|390:220|407:142,1,105
379,87,147145,6,0,B|423:62|423:62|400:171,1,157.5
401,166,147319,6,0,B|378:270|378:270|451:229,1,157.500006008148
422,245,147537,6,0,B|466:220|466:220|456:268,1,91.875
457,260,147886,6,0,B|442:323|442:323|498:293,1,124.6875
495,294,148758,6,0,L|479:364,1,72.1875
443,379,149281,6,0,B|369:354|302:378|302:378|320:290,1,210
271,247,149499,6,0,B|331:237|331:237|315:315,1,137.812501314282
395,367,149674,6,0,B|303:376|303:376|317:307,1,157.500006008148
374,257,149892,6,0,B|326:263|326:263|312:327,1,98.4375
274,363,150066,6,0,B|306:356|306:356|320:294,1,78.75
374,257,150240,5,0,0:0:0:0:
374,257,150328,2,0,L|355:352,1,91.875
389,364,150676,6,0,P|346:313|334:375,1,157.500006008148,2|0,0:0|0:0,0:0:0:0:
394,369,150938,6,0,P|351:306|335:385,1,183.750001752377,2|0,0:0|0:0,0:0:0:0:
399,375,151200,6,0,P|404:339|368:299,1,91.8750008761883,2|0,0:0|0:0,0:0:0:0:
468,260,151374,6,0,L|471:258,28,3.28125
351,137,152072,6,0,L|368:200,1,52.5
378,238,152203,2,0,L|361:175,1,52.5
290,195,152333,5,0,0:0:0:0:
290,195,152421,2,0,L|303:245,1,52.5
317,296,152551,1,0,0:0:0:0:
317,296,152639,2,0,L|303:245,1,52.5
206,180,152770,6,0,L|223:243,1,52.5
233,281,152901,2,0,L|216:218,1,52.5
143,272,153031,6,0,P|105:269|143:277,1,105
167,258,153467,6,0,P|80:250|169:280,1,275.62501051426
122,272,154165,6,0,B|205:238|205:238|257:262|257:262|299:200|299:200|240:172,1,275.62501051426
306,322,154863,6,0,B|394:193|394:193|394:245|394:245|244:173,1,367.5
254,261,155560,6,0,B|158:214|158:214|130:280|130:280|221:328|221:328|166:368|166:368|227:227,1,459.375
250,176,156258,6,0,B|157:130|157:130|228:123,1,157.500006008148,2|0,0:0|0:0,0:0:0:0:
245,155,156520,6,0,B|152:109|152:109|223:102,1,157.500006008148,2|0,0:0|0:0,0:0:0:0:
240,135,156781,6,0,L|157:94,1,78.7500030040742,2|0,0:0|0:0,0:0:0:0:
72,68,156956,5,8,0:0:0:0:
75,94,157043,1,0,0:0:0:0:
78,120,157130,1,0,0:0:0:0:
82,146,157217,1,0,0:0:0:0:
34,123,157304,1,0,0:0:0:0:
240,135,157479,1,0,0:0:0:0:
114,241,157653,6,0,L|47:237,3,52.5
11,299,158002,1,2,0:0:0:0:
34,123,158176,1,0,0:0:0:0:
205,237,158351,5,8,0:0:0:0:
178,235,158438,1,0,0:0:0:0:
152,233,158525,1,0,0:0:0:0:
126,231,158612,1,0,0:0:0:0:
146,279,158700,1,0,0:0:0:0:
169,103,158874,1,0,0:0:0:0:
90,347,159049,6,0,B|143:366|143:366|199:350,1,105,2|0,0:0|0:0,0:0:0:0:
89,338,159310,6,0,B|142:357|142:357|198:341,1,105,2|0,0:0|0:0,0:0:0:0:
88,329,159572,6,0,L|144:349,1,52.5,2|0,0:0|0:0,0:0:0:0:
54,157,159746,5,8,0:0:0:0:
50,183,159833,1,0,0:0:0:0:
47,209,159920,1,0,0:0:0:0:
44,235,160007,1,0,0:0:0:0:
6,197,160095,1,0,0:0:0:0:
218,275,160270,1,0,0:0:0:0:
68,143,160444,6,0,L|77:82,3,52.5
146,57,160793,5,2,0:0:0:0:
111,253,160967,1,0,0:0:0:0:
269,191,161142,5,8,0:0:0:0:
242,189,161229,1,0,0:0:0:0:
216,188,161316,1,0,0:0:0:0:
190,186,161403,1,0,0:0:0:0:
220,143,161490,1,0,0:0:0:0:
185,339,161664,1,0,0:0:0:0:
151,118,161839,6,0,B|220:145|220:145|317:116,1,157.500006008148,2|0,0:0|0:0,0:0:0:0:
150,132,162101,6,0,B|219:159|219:159|316:130,1,157.500006008148,2|0,0:0|0:0,0:0:0:0:
149,146,162363,6,0,L|236:181,1,78.7500030040742,2|0,0:0|0:0,0:0:0:0:
397,126,162537,5,8,0:0:0:0:
394,152,162624,1,0,0:0:0:0:
391,178,162711,1,0,0:0:0:0:
388,204,162799,1,0,0:0:0:0:
438,188,162886,1,0,0:0:0:0:
239,261,163060,1,0,0:0:0:0:
435,283,163235,6,0,L|385:300,3,52.5
380,378,163583,1,2,0:0:0:0:
391,178,163758,1,0,0:0:0:0:
235,235,163932,5,8,0:0:0:0:
239,261,164019,1,0,0:0:0:0:
244,287,164106,1,0,0:0:0:0:
248,312,164193,1,0,0:0:0:0:
199,290,164281,1,0,0:0:0:0:
199,290,164630,6,0,B|247:312|247:312|230:197,1,131.25,2|0,0:0|0:0,0:0:0:0:
209,305,164892,6,0,B|257:327|257:327|240:212,1,131.25,2|0,0:0|0:0,0:0:0:0:
266,334,165153,6,0,L|256:269,1,65.625,2|0,0:0|0:0,0:0:0:0:
366,294,165328,5,8,0:0:0:0:
362,319,165415,1,0,0:0:0:0:
358,345,165502,1,0,0:0:0:0:
355,371,165589,1,0,0:0:0:0:
404,353,165676,1,0,0:0:0:0:
433,157,165851,1,0,0:0:0:0:
340,293,166025,6,0,L|347:243,1,39.375,2|0,0:0|0:0,0:0:0:0:
292,187,166374,6,0,L|287:189,44,3.28125
321,96,167421,5,4,0:0:0:0:
117,93,188351,5,2,0:0:0:0:
117,93,188525,1,0,0:0:0:0:
117,93,188700,2,0,L|111:193,1,78.7500030040742
81,284,189049,6,0,L|27:298,2,52.5000020027161
104,259,189397,2,0,L|98:359,1,78.7500030040742
199,318,189746,5,0,0:0:0:0:
199,318,189921,1,0,0:0:0:0:
289,354,190095,1,0,0:0:0:0:
289,354,190270,1,0,0:0:0:0:
403,314,190444,6,0,L|470:304,2,52.5000020027161
385,331,190793,2,0,L|389:252,1,78.7500030040742
427,152,191142,6,0,L|459:144,7,26.25,2|2|2|2|2|2|2|2,0:0|0:0|0:0|0:0|0:0|0:0|0:0|0:0,0:0:0:0:
340,99,191839,6,0,L|308:91,7,26.25,2|2|2|2|2|2|2|2,0:0|0:0|0:0|0:0|0:0|0:0|0:0|0:0,0:0:0:0:
345,201,192537,5,2,0:0:0:0:
341,198,192624,1,2,0:0:0:0:
337,197,192711,1,2,0:0:0:0:
333,195,192798,1,2,0:0:0:0:
330,193,192885,1,10,0:0:0:0:
326,193,192973,1,2,0:0:0:0:
322,192,193060,1,2,0:0:0:0:
318,191,193147,1,2,0:0:0:0:
314,190,193235,5,2,0:0:0:0:
308,188,193322,1,2,0:0:0:0:
302,189,193409,1,2,0:0:0:0:
296,188,193496,1,2,0:0:0:0:
290,189,193583,1,10,0:0:0:0:
284,190,193671,1,2,0:0:0:0:
279,192,193758,1,2,0:0:0:0:
273,194,193845,1,2,0:0:0:0:
266,197,193932,5,2,0:0:0:0:
259,201,194020,1,2,0:0:0:0:
253,206,194106,1,2,0:0:0:0:
247,212,194193,1,2,0:0:0:0:
243,218,194280,1,10,0:0:0:0:
240,225,194368,1,2,0:0:0:0:
237,233,194455,1,2,0:0:0:0:
236,240,194542,1,2,0:0:0:0:
237,248,194630,5,2,0:0:0:0:
239,257,194717,1,2,0:0:0:0:
239,267,194804,1,2,0:0:0:0:
238,277,194891,1,2,0:0:0:0:
236,286,194978,1,10,0:0:0:0:
232,295,195066,1,2,0:0:0:0:
227,304,195153,1,2,0:0:0:0:
221,311,195240,1,2,0:0:0:0:
214,318,195328,5,2,0:0:0:0:
203,323,195415,1,2,0:0:0:0:
192,328,195502,1,2,0:0:0:0:
181,330,195589,1,2,0:0:0:0:
169,330,195676,1,10,0:0:0:0:
157,329,195764,1,2,0:0:0:0:
146,325,195851,1,2,0:0:0:0:
136,319,195938,1,2,0:0:0:0:
127,312,196025,5,2,0:0:0:0:
118,301,196112,1,2,0:0:0:0:
111,289,196199,1,2,0:0:0:0:
107,276,196286,1,2,0:0:0:0:
106,262,196373,1,10,0:0:0:0:
109,248,196461,1,2,0:0:0:0:
114,236,196548,1,2,0:0:0:0:
121,224,196635,1,2,0:0:0:0:
131,215,196723,5,2,0:0:0:0:
144,206,196810,1,2,0:0:0:0:
155,195,196897,1,2,0:0:0:0:
162,181,196984,1,2,0:0:0:0:
165,166,197071,1,10,0:0:0:0:
163,150,197159,1,2,0:0:0:0:
158,135,197246,1,2,0:0:0:0:
148,123,197333,1,2,0:0:0:0:
136,113,197421,5,2,0:0:0:0:
119,107,197508,1,2,0:0:0:0:
101,106,197595,1,2,0:0:0:0:
84,111,197682,1,2,0:0:0:0:
70,121,197769,1,10,0:0:0:0:
59,135,197857,1,2,0:0:0:0:
52,151,197944,1,2,0:0:0:0:
51,169,198031,1,2,0:0:0:0:
56,186,198118,5,2,0:0:0:0:
68,200,198205,1,2,0:0:0:0:
84,211,198292,1,2,0:0:0:0:
103,217,198379,1,2,0:0:0:0:
123,218,198466,1,10,0:0:0:0:
142,213,198554,1,2,0:0:0:0:
159,203,198641,1,2,0:0:0:0:
172,189,198728,1,2,0:0:0:0:
181,172,198815,5,2,0:0:0:0:
181,150,198903,1,2,0:0:0:0:
173,129,198990,2,0,L|220:151,1,39.3750015020371,2|2,0:0|0:0,0:0:0:0:
315,189,199165,1,10,0:0:0:0:
307,185,199252,2,0,L|354:207,1,39.3750015020371,2|2,0:0|0:0,0:0:0:0:
439,241,199426,1,2,0:0:0:0:
452,259,199514,5,2,0:0:0:0:
460,280,199601,1,2,0:0:0:0:
462,304,199688,1,2,0:0:0:0:
455,326,199775,1,2,0:0:0:0:
442,345,199862,1,10,0:0:0:0:
422,359,199950,1,2,0:0:0:0:
400,366,200037,1,2,0:0:0:0:
376,365,200124,1,2,0:0:0:0:
355,356,200212,5,2,0:0:0:0:
335,339,200299,1,2,0:0:0:0:
322,317,200386,1,2,0:0:0:0:
319,292,200473,1,2,0:0:0:0:
324,267,200560,1,10,0:0:0:0:
338,246,200647,1,2,0:0:0:0:
359,231,200735,1,2,0:0:0:0:
383,224,200822,1,2,0:0:0:0:
408,227,200909,5,2,0:0:0:0:
434,236,200996,1,2,0:0:0:0:
461,236,201083,1,2,0:0:0:0:
486,225,201170,1,2,0:0:0:0:
503,203,201257,1,10,0:0:0:0:
509,177,201345,1,2,0:0:0:0:
503,150,201432,1,2,0:0:0:0:
486,129,201519,1,2,0:0:0:0:
461,117,201606,5,2,0:0:0:0:
431,117,201694,1,2,0:0:0:0:
405,132,201781,1,2,0:0:0:0:
383,151,201868,1,2,0:0:0:0:
355,161,201955,1,10,0:0:0:0:
326,159,202042,1,2,0:0:0:0:
300,145,202129,1,2,0:0:0:0:
282,123,202217,1,2,0:0:0:0:
274,94,202304,5,2,0:0:0:0:
258,66,202391,1,2,0:0:0:0:
231,50,202478,1,2,0:0:0:0:
200,50,202565,1,2,0:0:0:0:
173,64,202652,1,10,0:0:0:0:
156,90,202740,1,2,0:0:0:0:
154,121,202827,1,2,0:0:0:0:
167,149,202914,1,2,0:0:0:0:
193,167,203001,5,2,0:0:0:0:
223,181,203089,1,2,0:0:0:0:
244,206,203176,1,2,0:0:0:0:
253,238,203263,1,2,0:0:0:0:
248,271,203350,1,10,0:0:0:0:
230,299,203438,1,2,0:0:0:0:
202,316,203525,1,2,0:0:0:0:
169,320,203612,1,2,0:0:0:0:
137,310,203699,5,2,0:0:0:0:
110,287,203787,1,2,0:0:0:0:
96,255,203874,1,2,0:0:0:0:
98,220,203961,1,2,0:0:0:0:
114,188,204048,1,10,0:0:0:0:
142,167,204136,1,2,0:0:0:0:
176,160,204223,1,2,0:0:0:0:
210,168,204310,1,2,0:0:0:0:
237,190,204397,5,2,0:0:0:0:
260,220,204484,1,2,0:0:0:0:
293,236,204571,1,2,0:0:0:0:
330,236,204658,1,2,0:0:0:0:
363,219,204745,1,10,0:0:0:0:
385,189,204833,5,2,0:0:0:0:
391,153,204920,1,2,0:0:0:0:
380,117,205007,1,2,0:0:0:0:
354,91,205095,5,2,0:0:0:0:
358,130,205182,1,2,0:0:0:0:
362,169,205269,1,2,0:0:0:0:
365,208,205356,1,2,0:0:0:0:
369,247,205443,5,10,0:0:0:0:
330,232,205531,1,2,0:0:0:0:
289,227,205618,1,2,0:0:0:0:
249,233,205705,1,2,0:0:0:0:
211,249,205792,5,2,0:0:0:0:
248,271,205880,1,2,0:0:0:0:
290,281,205967,1,2,0:0:0:0:
333,279,206054,1,2,0:0:0:0:
373,264,206142,5,10,0:0:0:0:
335,238,206229,1,2,0:0:0:0:
292,224,206316,1,2,0:0:0:0:
247,223,206403,1,2,0:0:0:0:
204,234,206490,5,2,0:0:0:0:
213,188,206577,1,2,0:0:0:0:
223,142,206664,1,2,0:0:0:0:
233,96,206751,1,2,0:0:0:0:
243,49,206839,5,10,0:0:0:0:
252,98,206926,1,2,0:0:0:0:
260,146,207013,1,2,0:0:0:0:
269,195,207100,1,2,0:0:0:0:
277,243,207188,5,2,0:0:0:0:
288,193,207275,1,2,0:0:0:0:
299,143,207362,5,2,0:0:0:0:
311,93,207449,1,2,0:0:0:0:
322,43,207537,5,10,0:0:0:0:
329,96,207624,1,2,0:0:0:0:
337,149,207711,1,2,0:0:0:0:
345,201,207798,1,2,0:0:0:0:
353,254,207886,6,0,L|369:222,1,19.6875007510186,8|0,0:0|0:0,0:0:0:0:
356,265,207973,2,0,L|379:238,1,19.6875007510186
357,276,208060,2,0,L|386:256,1,19.6875007510186
356,287,208147,2,0,L|389:275,1,19.6875007510186
329,314,208235,6,0,L|313:346,1,19.6875007510186,8|0,0:0|0:0,0:0:0:0:
326,303,208322,2,0,L|303:330,1,19.6875007510186
325,292,208409,2,0,L|296:312,1,19.6875007510186
326,281,208496,2,0,L|293:293,1,19.6875007510186
308,258,208583,6,0,L|310:230,1,19.6875007510186,8|0,0:0|0:0,0:0:0:0:
296,260,208670,2,0,L|298:232,1,19.6875007510186
284,262,208757,2,0,L|286:234,1,19.6875007510186
272,264,208845,2,0,L|274:236,1,19.6875007510186
243,283,208932,6,0,L|245:311,1,19.6875007510186,8|0,0:0|0:0,0:0:0:0:
231,281,209019,2,0,L|233:309,1,19.6875007510186
219,279,209106,2,0,L|221:307,1,19.6875007510186
207,277,209194,2,0,L|209:305,1,19.6875007510186
187,249,209281,5,2,0:0:0:0:
189,179,210153,5,0,0:0:0:0:
162,121,210240,5,0,0:0:0:0:
174,111,210328,1,0,0:0:0:0:
117,183,210415,5,0,0:0:0:0:
129,173,210502,1,0,0:0:0:0:
189,179,210589,5,0,0:0:0:0:
46,187,210676,6,0,B|162:167|162:167|189:182|189:182|215:159|215:159|367:132,1,315,6|0,0:0|0:0,0:0:0:0:
31,277,211025,6,0,L|134:259,1,105,8|0,0:0|0:0,0:0:0:0:
222,69,211287,2,0,L|325:51,1,105,2|0,0:0|0:0,0:0:0:0:
251,241,211549,2,0,L|330:227,1,52.5,2|0,0:0|0:0,0:0:0:0:
189,179,211723,5,8,0:0:0:0:
383,158,211897,2,0,B|403:234|403:234|373:319,1,157.500006008148
376,308,212072,5,2,0:0:0:0:
319,108,212246,1,0,0:0:0:0:
415,84,212333,1,0,0:0:0:0:
356,56,212421,6,0,L|394:203,1,105,8|0,0:0|0:0,0:0:0:0:
188,181,212682,2,0,L|226:328,1,105,2|0,0:0|0:0,0:0:0:0:
405,264,212944,2,0,L|429:359,1,52.5,2|0,0:0|0:0,0:0:0:0:
127,344,213118,1,8,0:0:0:0:
127,344,213206,1,0,0:0:0:0:
127,344,213293,2,0,L|114:293,1,52.5
136,104,213467,6,0,B|177:92|177:92|232:95,1,78.7500030040742,2|0,0:0|0:0,0:0:0:0:
147,112,213642,2,0,B|176:104|176:104|248:107,1,52.5
69,43,213816,6,0,P|45:91|62:165,1,105,8|0,0:0|0:0,0:0:0:0:
264,171,214078,2,0,P|288:123|271:49,1,105,2|0,0:0|0:0,0:0:0:0:
75,219,214339,2,0,P|49:225|23:222,1,52.5,2|0,0:0|0:0,0:0:0:0:
165,166,214514,5,8,0:0:0:0:
349,197,214687,2,0,P|377:122|352:11,1,157.500006008148
368,46,214863,5,2,0:0:0:0:
409,314,215036,1,0,0:0:0:0:
447,215,215124,1,0,0:0:0:0:
398,256,215211,6,0,B|450:273|450:273|512:262,1,105,8|0,0:0|0:0,0:0:0:0:
322,112,215473,2,0,B|270:95|270:95|208:106,1,105,2|0,0:0|0:0,0:0:0:0:
407,275,215735,2,0,L|464:294,1,52.5,2|0,0:0|0:0,0:0:0:0:
264,171,215909,5,8,0:0:0:0:
189,69,215996,2,0,B|236:77|271:51|271:51|295:80|385:83,1,157.500006008148
117,42,216258,6,0,B|145:74|191:70|191:70|166:138|166:138|177:170|177:170|132:220|161:289,1,315,6|0,0:0|0:0,0:0:0:0:
86,156,216607,6,0,P|66:223|73:280,1,105,8|0,0:0|0:0,0:0:0:0:
264,171,216868,2,0,B|256:138|256:138|281:64,1,105,2|0,0:0|0:0,0:0:0:0:
68,162,217130,2,0,P|57:196|57:223,1,52.5,2|0,0:0|0:0,0:0:0:0:
153,214,217304,5,8,0:0:0:0:
385,251,217478,2,0,B|301:221|306:284|205:246,1,157.500006008148
68,162,217653,5,2,0:0:0:0:
289,302,217827,1,0,0:0:0:0:
279,210,217915,1,0,0:0:0:0:
266,258,218002,6,0,B|311:258|331:226|393:256,1,105,8|0,0:0|0:0,0:0:0:0:
498,90,218264,2,0,B|474:124|474:124|487:228,1,105,2|0,0:0|0:0,0:0:0:0:
353,139,218525,2,0,L|345:82,1,52.5,2|0,0:0|0:0,0:0:0:0:
486,295,218700,1,8,0:0:0:0:
486,295,218787,1,0,0:0:0:0:
486,295,218874,2,0,L|493:347,1,52.5
323,303,219049,6,0,P|356:307|398:333,1,52.5,2|0,0:0|0:0,0:0:0:0:
174,284,219223,2,0,P|204:280|254:291,1,52.5
29,330,219397,1,8,0:0:0:0:
29,330,219485,1,0,0:0:0:0:
29,330,219572,2,0,P|62:312|112:307,1,52.5,0|2,0:0|0:0,0:0:0:0:
176,196,219746,5,0,0:0:0:0:
254,199,219833,2,0,P|213:193|125:212,1,78.7500030040742,0|2,0:0|0:0,0:0:0:0:
88,176,220008,5,0,0:0:0:0:
331,168,220095,2,0,B|300:108|300:108|132:110|132:110|88:176,1,315,8|0,0:0|0:0,0:0:0:0:
159,36,220444,6,0,L|243:34,1,78.75,2|0,0:0|0:0,0:0:0:0:
316,32,220618,2,0,L|237:33,1,78.75
159,29,220793,6,0,L|242:34,1,78.75,8|0,0:0|0:0,0:0:0:0:
316,39,220967,2,0,L|237:34,1,78.75
71,11,221142,5,0,0:0:0:0:
87,86,221229,2,0,B|71:48|71:48|70:-16,1,78.7500030040742,0|2,0:0|0:0,0:0:0:0:
316,39,221403,5,0,0:0:0:0:
286,181,221490,2,0,B|372:186|372:186|336:120|336:120|159:111,1,315,8|0,0:0|0:0,0:0:0:0:
415,73,221839,6,0,B|468:179|468:179|439:253|439:253|504:274|503:352,1,315,6|0,0:0|0:0,0:0:0:0:
323,91,222188,6,0,L|376:197,1,105,8|0,0:0|0:0,0:0:0:0:
56,188,222450,2,0,L|109:294,1,105,2|0,0:0|0:0,0:0:0:0:
211,83,222711,2,0,L|239:139,1,52.5,2|0,0:0|0:0,0:0:0:0:
156,184,222886,5,8,0:0:0:0:
219,321,223060,2,0,B|184:253|184:253|190:249|190:249|152:177,1,157.500006008148
92,58,223235,5,2,0:0:0:0:
245,260,223408,1,0,0:0:0:0:
158,299,223496,1,0,0:0:0:0:
193,260,223583,6,0,B|170:212|170:212|191:124,1,105,8|0,0:0|0:0,0:0:0:0:
465,25,223845,2,0,L|437:140,1,105,2|0,0:0|0:0,0:0:0:0:
273,203,224107,2,0,L|284:151,1,52.5,2|0,0:0|0:0,0:0:0:0:
505,222,224281,1,8,0:0:0:0:
505,222,224368,1,0,0:0:0:0:
505,222,224456,2,0,L|493:273,1,52.5
272,296,224630,6,0,P|229:286|197:254,1,78.7500030040742,2|0,0:0|0:0,0:0:0:0:
253,302,224804,2,0,P|223:293|191:252,1,52.5
416,231,224979,6,0,B|402:292|402:292|420:364,1,105,8|0,0:0|0:0,0:0:0:0:
269,100,225240,2,0,B|283:161|283:161|265:233,1,105,2|0,0:0|0:0,0:0:0:0:
363,335,225502,2,0,L|376:280,1,52.5,2|0,0:0|0:0,0:0:0:0:
378,128,225676,5,8,0:0:0:0:
253,302,225850,2,0,B|211:306|211:306|196:294|196:294|177:309|177:309|60:317,1,157.500006008148
0,226,226025,5,2,0:0:0:0:
182,358,226199,1,0,0:0:0:0:
176,259,226287,1,0,0:0:0:0:
148,310,226374,6,0,L|265:302,1,105,8|0,0:0|0:0,0:0:0:0:
272,290,226636,1,2,0:0:0:0:
344,319,226723,5,0,0:0:0:0:
382,335,226810,1,0,0:0:0:0:
345,322,226897,1,0,0:0:0:0:
383,339,226985,1,0,0:0:0:0:
454,368,227072,5,8,0:0:0:0:
512,93,227159,2,0,B|500:149|500:149|523:188|523:188|510:246,1,157.500006008148
423,110,227421,6,0,B|410:164|410:164|505:159|505:159|433:199|433:199|404:327,1,315,6|0,0:0|0:0,0:0:0:0:
217,324,227770,6,0,B|233:241|233:241|196:160,1,157.500006008148,8|0,0:0|0:0,0:0:0:0:
113,236,227988,6,0,L|109:221,2,13.125
132,245,228118,6,0,L|118:316,1,52.5,2|0,0:0|0:0,0:0:0:0:
312,206,228293,6,0,L|274:127,1,78.7500030040742
146,82,228467,5,8,0:0:0:0:
187,88,228554,1,0,0:0:0:0:
146,77,228642,1,0,0:0:0:0:
187,84,228729,1,0,0:0:0:0:
187,79,228816,6,0,L|176:134,1,52.5,2|0,0:0|0:0,0:0:0:0:
45,96,228990,2,0,L|34:147,1,52.5
301,154,229165,6,0,L|312:209,1,52.5,8|0,0:0|0:0,0:0:0:0:
443,171,229339,2,0,L|453:222,1,52.5
225,359,229514,5,2,0:0:0:0:
211,284,229601,1,0,0:0:0:0:
153,226,229688,5,0,0:0:0:0:
141,153,229775,1,0,0:0:0:0:
210,112,229863,5,8,0:0:0:0:
213,96,229950,1,0,0:0:0:0:
282,73,230037,5,0,0:0:0:0:
285,57,230124,1,0,0:0:0:0:
353,29,230211,6,0,L|365:100,1,52.5,2|0,0:0|0:0,0:0:0:0:
361,80,230386,2,0,L|373:151,1,52.5,2|0,0:0|0:0,0:0:0:0:
213,96,230560,6,0,L|233:216,1,105,8|0,0:0|0:0,0:0:0:0:
223,148,230735,2,0,L|235:219,1,52.5,2|0,0:0|0:0,0:0:0:0:
320,214,230909,6,0,L|308:285,1,52.5,2|0,0:0|0:0,0:0:0:0:
312,265,231083,2,0,L|300:336,1,52.5,2|0,0:0|0:0,0:0:0:0:
127,251,231258,6,0,L|107:371,1,105,8|0,0:0|0:0,0:0:0:0:
117,303,231432,2,0,L|105:374,1,52.5,2|0,0:0|0:0,0:0:0:0:
303,316,231607,5,2,0:0:0:0:
311,264,231694,1,2,0:0:0:0:
320,212,231781,1,2,0:0:0:0:
329,160,231868,1,2,0:0:0:0:
403,287,231956,5,8,0:0:0:0:
411,235,232043,1,2,0:0:0:0:
420,183,232130,1,2,0:0:0:0:
429,131,232217,1,2,0:0:0:0:
438,80,232304,5,2,0:0:0:0:
386,72,232392,1,2,0:0:0:0:
334,63,232479,1,2,0:0:0:0:
282,54,232566,1,2,0:0:0:0:
194,105,232653,5,8,0:0:0:0:
184,64,232740,1,0,0:0:0:0:
191,108,232828,1,0,0:0:0:0:
181,67,232915,1,0,0:0:0:0:
78,126,233002,6,0,B|65:155|65:155|79:170|79:170|53:191|53:191|102:239|57:342,1,210,6|0,0:0|0:0,0:0:0:0:
224,238,233351,5,0,0:0:0:0:
57,311,233525,1,0,0:0:0:0:
267,251,233700,6,0,P|248:200|237:281,1,236.250009012223,8|0,0:0|0:0,0:0:0:0:
448,183,234049,5,4,0:0:0:0:
224,238,234223,1,0,0:0:0:0:
386,270,234397,5,0,0:0:0:0:
216,244,234572,1,0,0:0:0:0:
460,189,234746,5,2,0:0:0:0:
205,253,234921,1,0,0:0:0:0:
402,296,235095,5,8,0:0:0:0:
195,264,235270,1,0,0:0:0:0:
274,140,235444,6,0,L|305:121,1,26.25
315,76,235575,6,0,B|304:163|304:163|312:191|312:191|297:293,1,210
410,203,235793,6,0,L|444:172,3,26.25
304,296,236142,5,0,0:0:0:0:
316,219,236229,1,0,0:0:0:0:
294,143,236316,5,0,0:0:0:0:
306,66,236403,1,0,0:0:0:0:
247,112,236490,5,8,0:0:0:0:
251,127,236578,1,0,0:0:0:0:
212,90,236665,1,0,0:0:0:0:
216,105,236752,1,0,0:0:0:0:
183,70,236839,5,2,0:0:0:0:
316,219,236926,2,0,B|319:165|319:165|330:146|330:146|322:119|322:119|330:46,1,157.500006008148
285,247,237188,6,0,P|289:182|345:249,1,157.5
456,253,237537,5,2,0:0:0:0:
435,258,237624,1,0,0:0:0:0:
367,308,237711,5,0,0:0:0:0:
346,303,237799,1,0,0:0:0:0:
285,247,237886,5,8,0:0:0:0:
264,251,237973,1,0,0:0:0:0:
195,301,238060,5,0,0:0:0:0:
176,297,238147,1,0,0:0:0:0:
117,234,238235,5,0,0:0:0:0:
96,238,238322,1,0,0:0:0:0:
27,288,238409,5,0,0:0:0:0:
8,284,238496,1,0,0:0:0:0:
17,199,238583,6,0,B|37:164|37:164|148:147|148:147|196:199|196:199|240:169|240:169|293:165,1,315,6|0,0:0|0:0,0:0:0:0:
276,197,238932,6,0,P|297:160|251:169,1,105
141,41,239107,1,0,0:0:0:0:
141,41,239194,1,0,0:0:0:0:
141,41,239281,5,8,0:0:0:0:
286,52,239456,1,0,0:0:0:0:
52,82,239630,5,2,0:0:0:0:
291,60,239804,1,0,0:0:0:0:
182,125,239979,5,0,0:0:0:0:
297,69,240153,1,0,0:0:0:0:
123,207,240328,5,2,0:0:0:0:
303,77,240502,1,0,0:0:0:0:
254,206,240676,5,8,0:0:0:0:
309,86,240851,1,0,0:0:0:0:
395,168,241025,6,0,L|365:184,1,26.25
461,216,241156,6,0,B|394:199|394:199|211:208,1,210
400,317,241374,5,2,0:0:0:0:
238,175,241549,1,0,0:0:0:0:
316,171,241636,1,0,0:0:0:0:
395,168,241723,1,0,0:0:0:0:
401,337,241897,5,2,0:0:0:0:
204,163,242072,1,8,0:0:0:0:
287,159,242159,1,0,0:0:0:0:
371,156,242246,1,0,0:0:0:0:
401,360,242421,5,2,0:0:0:0:
174,154,242595,1,0,0:0:0:0:
263,150,242682,1,0,0:0:0:0:
352,147,242770,1,0,0:0:0:0:
144,140,242944,5,2,0:0:0:0:
238,136,243031,1,0,0:0:0:0:
332,133,243118,1,2,0:0:0:0:
110,118,243293,5,0,0:0:0:0:
209,114,243380,1,0,0:0:0:0:
309,111,243467,2,0,L|295:59,1,52.5,8|0,0:0|0:0,0:0:0:0:
459,237,243642,5,2,0:0:0:0:
459,237,243729,2,0,L|473:185,1,52.5,2|0,0:0|0:0,0:0:0:0:
242,293,243903,5,2,0:0:0:0:
242,293,243990,2,0,L|228:241,1,52.5,2|0,0:0|0:0,0:0:0:0:
358,306,244165,6,0,B|340:229|340:229|353:180|353:180|324:92,1,210,6|0,0:0|0:0,0:0:0:0:
116,155,244514,5,0,0:0:0:0:
318,98,244688,1,0,0:0:0:0:
92,195,244863,6,0,P|159:171|71:168,1,236.250009012223,8|0,0:0|0:0,0:0:0:0:
283,298,245211,5,6,0:0:0:0:
116,155,245386,1,0,0:0:0:0:
267,180,245560,5,0,0:0:0:0:
111,145,245735,1,0,0:0:0:0:
371,95,245909,5,2,0:0:0:0:
106,136,246083,1,0,0:0:0:0:
247,46,246258,5,8,0:0:0:0:
101,127,246432,1,0,0:0:0:0:
267,180,246607,6,0,L|256:145,1,26.25
302,134,246738,6,0,B|281:241|281:241|305:348,1,210
372,238,246956,6,0,L|380:202,3,26.25,2|0|0|0,0:0|0:0|0:0|0:0,0:0:0:0:
291,358,247304,5,0,0:0:0:0:
274,280,247392,1,0,0:0:0:0:
269,201,247479,5,0,0:0:0:0:
284,123,247566,1,0,0:0:0:0:
222,194,247653,5,8,0:0:0:0:
239,208,247740,1,0,0:0:0:0:
182,187,247828,1,0,0:0:0:0:
202,201,247915,1,0,0:0:0:0:
147,179,248002,5,2,0:0:0:0:
309,282,248089,6,0,B|304:244|304:244|337:123,1,157.500006008148
364,139,248351,6,0,P|340:98|339:160,1,157.5
462,83,248700,5,2,0:0:0:0:
442,76,248787,1,0,0:0:0:0:
384,132,248874,5,0,0:0:0:0:
364,139,248961,1,0,0:0:0:0:
312,71,249049,5,8,0:0:0:0:
292,64,249136,1,0,0:0:0:0:
227,124,249223,5,0,0:0:0:0:
207,131,249310,1,0,0:0:0:0:
159,63,249397,5,0,0:0:0:0:
292,64,249485,2,0,B|359:86|359:86|364:140|364:140|305:118,1,157.500006008148
455,292,249746,6,0,L|447:205,1,78.75,6|0,0:0|0:0,0:0:0:0:
461,192,250095,2,0,L|453:105,1,78.75,8|0,0:0|0:0,0:0:0:0:
442,318,250444,6,0,L|430:194,1,118.125004506111,2|0,0:0|0:0,0:0:0:0:
447,213,250793,2,0,L|436:85,1,118.125004506111,8|0,0:0|0:0,0:0:0:0:
431,342,251142,6,0,L|413:170,1,157.5,2|0,0:0|0:0,0:0:0:0:
436,235,251490,2,0,L|418:63,1,157.5,8|0,0:0|0:0,0:0:0:0:
416,363,251839,6,0,L|396:158,1,196.875,2|0,0:0|0:0,0:0:0:0:
427,255,252188,2,0,L|407:58,1,196.875,8|0,0:0|0:0,0:0:0:0:
400,375,252537,5,8,0:0:0:0:
394,322,252624,1,2,0:0:0:0:
389,270,252711,1,2,0:0:0:0:
384,218,252799,1,2,0:0:0:0:
301,238,252886,5,8,0:0:0:0:
307,179,252973,1,2,0:0:0:0:
313,122,253060,1,2,0:0:0:0:
318,65,253147,1,2,0:0:0:0:
392,105,253235,5,8,0:0:0:0:
329,110,253322,1,2,0:0:0:0:
267,117,253409,1,2,0:0:0:0:
204,122,253496,1,2,0:0:0:0:
228,202,253583,5,8,0:0:0:0:
158,196,253671,1,2,0:0:0:0:
90,188,253758,1,2,0:0:0:0:
22,183,253845,1,2,0:0:0:0:
16,192,253932,5,2,0:0:0:0:
256,192,254020,12,0,254717,0:0:0:0:
418,246,254804,5,0,0:0:0:0:
340,244,254892,5,0,0:0:0:0:
329,233,254979,1,0,0:0:0:0:
254,216,255066,5,0,0:0:0:0:
243,205,255153,1,0,0:0:0:0:
186,159,255240,5,0,0:0:0:0:
152,240,255328,6,0,B|213:257|253:215|253:215|295:259|350:243|350:243|387:258|387:258|416:246|416:246|470:258,1,315,6|0,0:0|0:0,0:0:0:0:
265,322,255676,5,8,0:0:0:0:
265,322,255764,2,0,P|290:331|357:326,1,52.5
391,168,255938,1,2,0:0:0:0:
391,168,256025,2,0,P|366:159|299:164,1,52.5
265,322,256200,2,0,P|290:331|357:326,1,52.5,2|0,0:0|0:0,0:0:0:0:
327,245,256374,5,8,0:0:0:0:
110,226,256548,6,0,B|132:174|132:174|127:158|127:158|142:149|142:149|171:85,1,157.500006008148
217,0,256723,5,2,0:0:0:0:
66,176,256897,1,0,0:0:0:0:
151,222,256985,1,0,0:0:0:0:
105,214,257072,5,8,0:0:0:0:
105,214,257159,2,0,L|126:166,1,52.5
262,58,257333,1,2,0:0:0:0:
262,58,257421,2,0,L|240:105,1,52.5
105,214,257595,2,0,L|126:166,1,52.5,2|0,0:0|0:0,0:0:0:0:
238,231,257770,5,8,0:0:0:0:
258,225,257857,1,0,0:0:0:0:
335,278,257944,5,0,0:0:0:0:
355,272,258031,1,0,0:0:0:0:
352,191,258118,6,0,B|356:274|356:274|347:270|347:270|350:348|350:348|426:319,1,236.250009012223,2|0,0:0|0:0,0:0:0:0:
258,225,258467,5,8,0:0:0:0:
258,225,258554,2,0,L|255:168,1,52.5
447,182,258729,1,2,0:0:0:0:
447,182,258816,2,0,L|450:239,1,52.5
258,225,258990,2,0,L|255:168,1,52.5,2|0,0:0|0:0,0:0:0:0:
353,202,259165,5,8,0:0:0:0:
174,277,259339,2,0,B|149:207|149:207|168:98,1,157.500006008148
183,17,259514,5,2,0:0:0:0:
232,289,259687,1,0,0:0:0:0:
134,324,259775,1,0,0:0:0:0:
191,326,259863,5,8,0:0:0:0:
191,326,259950,2,0,L|171:271,1,52.5
163,125,260124,1,2,0:0:0:0:
163,125,260211,2,0,L|171:74,1,52.5
191,326,260386,2,0,L|171:271,1,52.5,2|0,0:0|0:0,0:0:0:0:
256,196,260560,5,8,0:0:0:0:
79,61,260647,2,0,B|69:123|69:123|57:116|57:116|37:227,1,157.500006008148
171,73,260909,6,0,B|162:126|162:126|56:118|56:118|139:173|139:173|118:262,1,315,6|0,0:0|0:0,0:0:0:0:
260,120,261258,5,8,0:0:0:0:
260,120,261345,2,0,L|272:51,1,52.5
41,220,261520,1,2,0:0:0:0:
41,220,261607,2,0,L|29:289,1,52.5
260,120,261781,2,0,L|272:51,1,52.5,2|0,0:0|0:0,0:0:0:0:
147,170,261956,5,8,0:0:0:0:
258,217,262129,6,0,B|209:274|209:274|111:296,1,157.500006008148
41,220,262304,5,2,0:0:0:0:
301,229,262478,1,0,0:0:0:0:
236,173,262566,1,0,0:0:0:0:
258,217,262653,5,8,0:0:0:0:
258,217,262740,2,0,L|292:177,1,52.5
129,292,262915,1,2,0:0:0:0:
129,292,263002,2,0,L|77:302,1,52.5
258,217,263176,2,0,L|292:177,1,52.5,2|0,0:0|0:0,0:0:0:0:
229,321,263351,5,8,0:0:0:0:
241,337,263438,1,0,0:0:0:0:
320,354,263525,5,0,0:0:0:0:
332,370,263613,1,0,0:0:0:0:
406,335,263700,6,0,B|437:327|437:327|460:329,1,52.5,2|0,0:0|0:0,0:0:0:0:
258,217,263874,5,0,0:0:0:0:
258,217,263961,2,0,B|227:225|227:225|204:223,1,52.5,2|0,0:0|0:0,0:0:0:0:
422,132,264136,5,0,0:0:0:0:
422,132,264223,2,0,B|453:124|453:124|476:126,1,52.5,8|0,0:0|0:0,0:0:0:0:
379,256,264397,5,0,0:0:0:0:
406,335,264485,1,0,0:0:0:0:
327,363,264572,1,2,0:0:0:0:
300,283,264659,1,0,0:0:0:0:
236,363,264746,6,0,B|195:318|202:272|202:272|150:290|101:258|101:258|98:329|142:390,1,315,8|0,0:0|0:0,0:0:0:0:
32,341,265095,6,0,P|25:312|22:258,1,52.5,2|0,0:0|0:0,0:0:0:0:
164,173,265270,5,0,0:0:0:0:
164,173,265357,2,0,P|164:139|156:83,1,52.5,2|0,0:0|0:0,0:0:0:0:
300,283,265531,5,0,0:0:0:0:
300,283,265618,2,0,P|296:249|310:194,1,52.5,2|0,0:0|0:0,0:0:0:0:
317,380,265793,6,0,B|261:378|261:378|197:335,1,105,8|0,0:0|0:0,0:0:0:0:
273,126,265967,2,0,B|329:128|329:128|393:171,1,105
477,253,266142,6,0,P|465:283|467:246,1,105
409,62,266316,2,0,P|421:32|418:68,1,105
66,137,266490,6,0,B|132:133|132:133|117:166|117:166|135:206|135:206|115:264|115:264|155:311|133:390,1,315,6|0,0:0|0:0,0:0:0:0:
225,201,266839,5,8,0:0:0:0:
225,201,266926,2,0,L|208:250,1,52.5
27,270,267101,1,2,0:0:0:0:
27,270,267188,2,0,L|43:220,1,52.5
225,201,267363,2,0,L|208:250,1,52.5,2|0,0:0|0:0,0:0:0:0:
117,263,267537,5,8,0:0:0:0:
281,323,267711,2,0,B|310:236|310:236|326:224|326:224|320:207|320:207|330:176,1,157.500006008148
407,118,267886,5,2,0:0:0:0:
232,38,268060,1,0,0:0:0:0:
236,133,268147,1,0,0:0:0:0:
257,88,268235,5,8,0:0:0:0:
257,88,268322,2,0,B|225:83|225:83|192:87,1,52.5
361,209,268496,1,2,0:0:0:0:
361,209,268583,2,0,B|393:204|393:204|426:208,1,52.5
257,88,268758,2,0,B|225:83|225:83|192:87,1,52.5,2|0,0:0|0:0,0:0:0:0:
238,218,268932,5,8,0:0:0:0:
225,201,269020,1,0,0:0:0:0:
132,193,269107,5,0,0:0:0:0:
119,176,269194,1,0,0:0:0:0:
73,96,269281,6,0,B|76:158|76:158|116:175|116:175|121:242|121:242|164:187,1,236.250009012223,2|0,0:0|0:0,0:0:0:0:
40,236,269630,5,8,0:0:0:0:
40,236,269717,2,0,L|42:289,1,52.5
161,95,269892,1,2,0:0:0:0:
161,95,269979,2,0,L|159:42,1,52.5
40,236,270153,2,0,L|42:289,1,52.5,2|0,0:0|0:0,0:0:0:0:
118,174,270328,5,8,0:0:0:0:
126,325,270501,2,0,B|122:239|122:239|133:226|133:226|120:202|120:202|117:145,1,157.500006008148
161,95,270676,5,2,0:0:0:0:
74,306,270850,1,0,0:0:0:0:
178,301,270938,1,0,0:0:0:0:
126,325,271025,5,8,0:0:0:0:
126,325,271113,2,0,L|123:263,1,52.5
260,123,271287,1,2,0:0:0:0:
260,123,271374,2,0,L|263:185,1,52.5
126,325,271549,2,0,L|123:263,1,52.5,2|0,0:0|0:0,0:0:0:0:
330,240,271723,6,0,B|357:216|355:171|355:171|381:211|423:211|423:211|419:268|367:308,1,236.250009012223,8|0,0:0|0:0,0:0:0:0:
462,323,272072,6,0,B|515:255|499:150|499:150|415:162|415:162|430:189|419:229,1,315,6|0,0:0|0:0,0:0:0:0:
400,126,272421,5,8,0:0:0:0:
440,137,272508,1,0,0:0:0:0:
397,123,272595,1,0,0:0:0:0:
437,134,272682,1,2,0:0:0:0:
413,94,272770,5,0,0:0:0:0:
419,113,272857,1,0,0:0:0:0:
412,133,272944,1,2,0:0:0:0:
418,152,273031,1,0,0:0:0:0:
383,167,273118,5,8,0:0:0:0:
374,143,273206,1,0,0:0:0:0:
386,120,273293,1,0,0:0:0:0:
377,96,273380,1,0,0:0:0:0:
339,62,273467,6,0,P|310:49|338:57,1,105,2|0,0:0|0:0,0:0:0:0:
479,220,273642,2,0,P|508:207|480:215,1,105
292,157,273816,6,0,P|246:128|224:66,1,105,8|0,0:0|0:0,0:0:0:0:
136,207,273990,5,0,0:0:0:0:
132,203,274078,1,2,0:0:0:0:
172,197,274165,5,0,0:0:0:0:
178,217,274252,1,0,0:0:0:0:
166,234,274339,1,2,0:0:0:0:
172,254,274426,1,0,0:0:0:0:
219,262,274514,5,8,0:0:0:0:
213,236,274601,1,0,0:0:0:0:
224,212,274688,1,0,0:0:0:0:
218,186,274775,1,0,0:0:0:0:
260,148,274863,6,0,P|231:135|259:143,1,105,2|0,0:0|0:0,0:0:0:0:
439,288,275037,2,0,P|468:275|440:283,1,105
253,351,275211,6,0,B|203:344|203:344|102:363,1,105,8|0,0:0|0:0,0:0:0:0:
221,197,275386,5,0,0:0:0:0:
219,192,275473,1,2,0:0:0:0:
181,208,275560,5,0,0:0:0:0:
174,188,275647,1,0,0:0:0:0:
177,252,275735,1,2,0:0:0:0:
170,232,275822,1,0,0:0:0:0:
130,229,275909,5,8,0:0:0:0:
138,253,275996,1,0,0:0:0:0:
134,176,276083,1,0,0:0:0:0:
143,200,276171,1,0,0:0:0:0:
88,177,276258,5,8,0:0:0:0:
124,156,276345,1,0,0:0:0:0:
84,174,276432,1,2,0:0:0:0:
120,153,276520,1,0,0:0:0:0:
81,171,276607,1,2,0:0:0:0:
117,150,276694,1,0,0:0:0:0:
83,116,276781,5,8,0:0:0:0:
102,186,276868,1,0,0:0:0:0:
166,242,276956,5,2,0:0:0:0:
236,223,277043,1,0,0:0:0:0:
297,159,277130,5,2,0:0:0:0:
278,89,277217,1,0,0:0:0:0:
309,129,277304,5,8,0:0:0:0:
268,123,277392,1,0,0:0:0:0:
306,132,277479,1,2,0:0:0:0:
265,126,277566,1,0,0:0:0:0:
236,223,277653,6,0,B|318:235|318:235|383:205|383:205|355:280|355:280|422:267|422:267|410:301,1,315,6|0,0:0|0:0,0:0:0:0:
275,314,278002,5,8,0:0:0:0:
275,314,278089,2,0,L|223:306,1,52.5
242,141,278264,1,2,0:0:0:0:
242,141,278351,2,0,L|293:148,1,52.5
275,314,278525,2,0,L|223:306,1,52.5,2|0,0:0|0:0,0:0:0:0:
257,227,278700,5,8,0:0:0:0:
124,274,278874,2,0,B|135:183|135:183|125:172|125:172|139:158|139:158|144:104,1,157.500006008148
149,0,279048,5,2,0:0:0:0:
189,153,279222,1,0,0:0:0:0:
94,140,279310,1,0,0:0:0:0:
135,178,279397,5,8,0:0:0:0:
135,178,279485,2,0,L|143:121,1,52.5
352,104,279659,1,2,0:0:0:0:
352,104,279746,2,0,L|345:156,1,52.5
135,178,279921,2,0,L|143:127,1,52.5,2|0,0:0|0:0,0:0:0:0:
242,141,280095,5,8,0:0:0:0:
238,161,280182,1,0,0:0:0:0:
277,244,280270,5,0,0:0:0:0:
273,264,280357,1,0,0:0:0:0:
306,344,280444,6,0,B|362:353|362:353|379:283|379:283|256:261,1,236.250009012223,2|0,0:0|0:0,0:0:0:0:
444,360,280793,5,8,0:0:0:0:
444,360,280880,2,0,L|459:297,1,52.5
220,329,281054,1,2,0:0:0:0:
220,329,281142,2,0,L|205:392,1,52.5
444,360,281316,2,0,L|459:297,1,52.5,2|0,0:0|0:0,0:0:0:0:
332,343,281490,5,8,0:0:0:0:
250,221,281664,2,0,B|331:202|331:202|427:222,1,157.500006008148
331,289,281839,5,2,0:0:0:0:
276,92,282013,1,0,0:0:0:0:
366,67,282100,1,0,0:0:0:0:
315,63,282188,5,8,0:0:0:0:
315,63,282275,2,0,L|332:129,1,52.5
331,289,282450,1,2,0:0:0:0:
331,289,282537,2,0,L|314:355,1,52.5
315,63,282711,2,0,L|332:129,1,52.5,2|0,0:0|0:0,0:0:0:0:
323,200,282886,5,8,0:0:0:0:
463,119,282973,2,0,B|485:201|485:201|461:301,1,157.500006008148
451,37,283235,6,0,B|436:96|436:96|464:194|464:194|441:295|441:295|493:277,1,315,6|0,0:0|0:0,0:0:0:0:
374,184,283583,5,8,0:0:0:0:
374,184,283671,2,0,L|356:123,1,52.5
512,362,283845,1,2,0:0:0:0:
512,362,283932,2,0,L|462:379,1,52.5
374,184,284107,2,0,L|356:123,1,52.5,2|0,0:0|0:0,0:0:0:0:
434,274,284281,5,8,0:0:0:0:
275,69,284455,2,0,B|244:51|244:51|272:170,1,157.500006008148
374,184,284629,5,2,0:0:0:0:
202,79,284804,1,0,0:0:0:0:
294,61,284892,1,0,0:0:0:0:
246,52,284979,5,8,0:0:0:0:
246,52,285066,2,0,L|260:117,1,52.5
374,184,285240,1,2,0:0:0:0:
374,184,285328,2,0,L|388:119,1,52.5
246,52,285502,2,0,L|260:117,1,52.5,2|0,0:0|0:0,0:0:0:0:
254,208,285676,5,8,0:0:0:0:
261,227,285764,1,0,0:0:0:0:
178,282,285851,5,0,0:0:0:0:
185,301,285938,1,0,0:0:0:0:
107,355,286025,6,0,B|91:330|91:330|89:287,2,52.5,2|0|0,0:0|0:0|0:0,0:0:0:0:
254,208,286287,1,0,0:0:0:0:
254,208,286374,2,0,B|270:233|270:233|271:255,1,52.5,8|0,0:0|0:0,0:0:0:0:
89,307,286549,2,0,B|91:330|91:330|107:355,1,52.5,0|2,0:0|0:0,0:0:0:0:
225,345,286723,5,0,0:0:0:0:
308,352,286810,1,0,0:0:0:0:
364,290,286897,1,2,0:0:0:0:
447,297,286985,1,0,0:0:0:0:
400,366,287072,6,0,B|365:290|365:290|450:194|450:194|447:309,1,315,8|0,0:0|0:0,0:0:0:0:
324,207,287421,6,0,L|370:155,2,52.5,2|0|0,0:0|0:0|0:0,0:0:0:0:
308,352,287682,1,0,0:0:0:0:
308,352,287770,2,0,L|281:293,1,52.5,8|0,0:0|0:0,0:0:0:0:
447,297,287944,2,0,L|449:226,1,52.5,0|2,0:0|0:0,0:0:0:0:
217,359,288118,5,0,0:0:0:0:
182,281,288206,1,0,0:0:0:0:
212,355,288293,1,2,0:0:0:0:
177,277,288380,1,0,0:0:0:0:
68,269,288467,6,0,B|43:294|43:294|94:310|94:310|108:336|108:336|88:253|88:253|123:220|123:220|121:91,1,315,8|0,0:0|0:0,0:0:0:0:
127,344,288816,6,0,B|105:258|105:258|139:224|139:224|137:123|137:123|82:185,1,315,6|0,0:0|0:0,0:0:0:0:
138,123,289165,5,8,0:0:0:0:
142,126,289252,1,0,0:0:0:0:
146,129,289339,1,0,0:0:0:0:
150,132,289426,1,0,0:0:0:0:
154,135,289514,2,0,L|156:193,2,52.5000020027161,2|0|0,0:0|0:0|0:0,0:0:0:0:
241,170,289863,5,8,0:0:0:0:
66,160,290036,2,0,B|67:210|67:210|94:275,1,105
232,296,290211,6,0,L|213:250,1,39.3750015020371,2|0,0:0|0:0,0:0:0:0:
247,308,290386,2,0,L|228:262,1,39.3750015020371
160,350,290560,5,8,0:0:0:0:
156,350,290647,1,0,0:0:0:0:
152,350,290735,1,0,0:0:0:0:
148,350,290822,1,0,0:0:0:0:
144,350,290909,2,0,B|112:348|112:348|85:360,2,52.5000020027161,2|0|0,0:0|0:0|0:0,0:0:0:0:
68,267,291258,5,8,0:0:0:0:
58,244,291345,1,0,0:0:0:0:
49,221,291432,1,0,0:0:0:0:
170,248,291607,6,0,B|222:254,1,33.0749989906311,2|0,0:0|0:0,0:0:0:0:
179,262,291781,2,0,B|231:268,1,33.0749989906311
293,335,291956,5,8,0:0:0:0:
296,333,292043,1,0,0:0:0:0:
299,331,292130,1,0,0:0:0:0:
302,329,292217,1,0,0:0:0:0:
305,327,292304,2,0,L|380:335,2,44.0999986541748,2|0|0,0:0|0:0|0:0,0:0:0:0:
217,376,292653,5,8,0:0:0:0:
292,247,292827,2,0,L|392:257,1,94.499997116089
471,196,293002,6,0,L|456:154,1,26.25,2|0,0:0|0:0,0:0:0:0:
483,201,293176,2,0,L|468:159,1,26.25
360,152,293351,5,8,0:0:0:0:
363,148,293438,1,0,0:0:0:0:
366,144,293525,1,0,0:0:0:0:
370,140,293613,1,0,0:0:0:0:
374,136,293700,2,0,L|382:94,2,35,2|0|0,0:0|0:0|0:0,0:0:0:0:
469,64,294049,5,8,0:0:0:0:
275,192,294136,2,0,B|284:149|284:149|281:137|281:137|300:53,1,105
187,182,294397,6,0,L|194:233,1,39.3750015020371,2|0,0:0|0:0,0:0:0:0:
192,221,294572,2,0,L|199:272,1,39.3750015020371,2|0,0:0|0:0,0:0:0:0:
384,57,294746,6,0,L|372:142,1,78.7500030040742,8|0,0:0|0:0,0:0:0:0:
379,96,294921,2,0,L|372:147,1,39.3750015020371,2|0,0:0|0:0,0:0:0:0:
150,196,295095,6,0,L|157:247,1,39.3750015020371,2|0,0:0|0:0,0:0:0:0:
155,235,295270,2,0,L|162:286,1,39.3750015020371,2|0,0:0|0:0,0:0:0:0:
420,42,295444,6,0,L|408:127,1,78.7500030040742,8|0,0:0|0:0,0:0:0:0:
415,81,295618,2,0,L|408:132,1,39.3750015020371,2|0,0:0|0:0,0:0:0:0:
113,211,295793,6,0,L|120:262,1,39.3750015020371,2|0,0:0|0:0,0:0:0:0:
118,250,295967,2,0,L|125:301,1,39.3750015020371,2|0,0:0|0:0,0:0:0:0:
457,27,296142,6,0,L|445:112,1,78.7500030040742,8|0,0:0|0:0,0:0:0:0:
452,66,296316,2,0,L|445:117,1,39.3750015020371,2|0,0:0|0:0,0:0:0:0:
77,225,296490,6,0,L|84:276,1,39.3750015020371,2|0,0:0|0:0,0:0:0:0:
82,264,296665,2,0,L|89:315,1,39.3750015020371,2|0,0:0|0:0,0:0:0:0:
493,13,296839,6,0,L|481:98,1,78.7500030040742,8|0,0:0|0:0,0:0:0:0:
488,52,297014,2,0,L|481:103,1,39.3750015020371,2|0,0:0|0:0,0:0:0:0:
78,319,297188,5,2,0:0:0:0:
70,266,297275,1,2,0:0:0:0:
63,214,297363,1,2,0:0:0:0:
56,162,297450,1,2,0:0:0:0:
20,232,297537,5,10,0:0:0:0:
71,224,297624,1,2,0:0:0:0:
123,216,297711,1,2,0:0:0:0:
175,209,297799,1,2,0:0:0:0:
227,201,297886,1,2,0:0:0:0:
279,194,297973,1,2,0:0:0:0:
331,186,298060,1,2,0:0:0:0:
383,178,298147,1,2,0:0:0:0:
333,250,298235,5,10,0:0:0:0:
325,197,298322,1,2,0:0:0:0:
318,145,298409,1,2,0:0:0:0:
311,93,298496,1,2,0:0:0:0:
284,76,298583,6,0,L|291:45,3,26.25,2|0|0|0,0:0|0:0|0:0|0:0,0:0:0:0:
197,109,298758,6,0,L|204:78,5,26.25
108,138,299020,6,0,L|115:107,5,26.25
27,234,299281,5,0,0:0:0:0:
32,232,299350,1,0,0:0:0:0:
37,230,299420,1,0,0:0:0:0:
42,228,299490,1,0,0:0:0:0:
47,226,299560,1,0,0:0:0:0:
77,247,299629,5,0,0:0:0:0:
82,245,299699,1,0,0:0:0:0:
87,243,299769,1,0,0:0:0:0:
92,241,299839,1,0,0:0:0:0:
97,239,299908,1,0,0:0:0:0:
138,252,299978,5,6,0:0:0:0:
102,345,300152,1,2,0:0:0:0:
185,176,300326,5,8,0:0:0:0:
200,189,300413,1,0,0:0:0:0:
213,206,300500,1,0,0:0:0:0:
221,225,300587,1,0,0:0:0:0:
225,246,300675,2,0,L|271:227,1,26.25
328,360,300850,5,2,0:0:0:0:
337,319,300937,1,2,0:0:0:0:
346,278,301024,5,8,0:0:0:0:
325,280,301111,1,0,0:0:0:0:
308,292,301198,1,0,0:0:0:0:
298,310,301285,1,0,0:0:0:0:
297,331,301373,6,0,L|262:320,1,26.25,2|2,0:0|0:0,0:0:0:0:
173,296,301547,1,2,0:0:0:0:
244,131,301722,5,8,0:0:0:0:
245,151,301809,1,0,0:0:0:0:
246,172,301896,1,0,0:0:0:0:
247,193,301983,1,0,0:0:0:0:
248,214,302071,2,0,L|294:200,1,26.25
146,183,302245,5,2,0:0:0:0:
106,195,302332,1,2,0:0:0:0:
66,208,302419,5,8,0:0:0:0:
68,187,302506,1,0,0:0:0:0:
78,169,302593,1,0,0:0:0:0:
96,158,302680,1,0,0:0:0:0:
116,153,302768,6,0,L|110:117,1,26.25,2|2,0:0|0:0,0:0:0:0:
100,32,302943,1,2,0:0:0:0:
303,85,303117,5,8,0:0:0:0:
282,85,303204,1,0,0:0:0:0:
261,86,303291,1,0,0:0:0:0:
240,87,303378,1,0,0:0:0:0:
219,88,303465,1,0,0:0:0:0:
198,89,303553,1,0,0:0:0:0:
218,52,303640,5,2,0:0:0:0:
218,52,303815,1,0,0:0:0:0:
222,180,303989,1,8,0:0:0:0:
226,176,304076,1,0,0:0:0:0:
230,172,304164,2,0,L|232:207,1,26.25
377,203,304338,5,2,0:0:0:0:
418,196,304425,1,2,0:0:0:0:
459,189,304512,5,8,0:0:0:0:
441,177,304599,1,0,0:0:0:0:
421,172,304686,1,0,0:0:0:0:
400,175,304773,1,0,0:0:0:0:
381,185,304860,1,0,0:0:0:0:
367,200,304948,1,0,0:0:0:0:
374,158,305036,5,6,0:0:0:0:
431,275,305210,1,0,0:0:0:0:
301,258,305384,1,8,0:0:0:0:
459,189,305559,5,2,0:0:0:0:
459,189,305733,1,2,0:0:0:0:
356,117,305908,5,8,0:0:0:0:
359,138,305995,1,0,0:0:0:0:
362,159,306082,1,0,0:0:0:0:
364,179,306169,1,0,0:0:0:0:
367,200,306257,2,0,L|322:192,1,26.25
151,173,306431,5,2,0:0:0:0:
192,166,306518,1,2,0:0:0:0:
233,159,306605,5,8,0:0:0:0:
214,148,306692,1,0,0:0:0:0:
194,143,306779,1,0,0:0:0:0:
173,145,306866,1,0,0:0:0:0:
154,153,306954,6,0,L|161:117,1,26.25,2|2,0:0|0:0,0:0:0:0:
172,27,307129,1,2,0:0:0:0:
45,101,307303,5,8,0:0:0:0:
48,121,307390,1,0,0:0:0:0:
51,142,307477,1,0,0:0:0:0:
54,163,307564,1,0,0:0:0:0:
57,184,307652,2,0,L|19:177,1,26.25
236,237,307826,5,2,0:0:0:0:
194,245,307914,1,2,0:0:0:0:
153,254,308001,5,8,0:0:0:0:
166,237,308088,1,0,0:0:0:0:
183,226,308175,1,0,0:0:0:0:
204,221,308262,1,0,0:0:0:0:
224,224,308350,6,0,L|216:187,1,26.25,2|2,0:0|0:0,0:0:0:0:
195,106,308524,1,2,0:0:0:0:
335,167,308698,5,8,0:0:0:0:
333,187,308785,1,0,0:0:0:0:
331,208,308872,1,0,0:0:0:0:
329,229,308959,1,0,0:0:0:0:
327,250,309046,1,0,0:0:0:0:
325,271,309134,1,0,0:0:0:0:
364,258,309221,5,2,0:0:0:0:
364,258,309396,1,0,0:0:0:0:
391,349,309571,5,8,0:0:0:0:
335,167,309745,1,8,0:0:0:0:
173,297,309919,5,0,0:0:0:0:
193,295,310006,1,0,0:0:0:0:
214,294,310093,1,0,0:0:0:0:
235,292,310180,1,0,0:0:0:0:
216,254,310267,1,8,0:0:0:0:
71,202,310443,5,0,0:0:0:0:
91,200,310530,1,0,0:0:0:0:
112,199,310617,1,0,0:0:0:0:
133,197,310704,1,0,0:0:0:0:
114,159,310791,1,8,0:0:0:0:
37,300,310966,5,0,0:0:0:0:
37,300,311053,1,0,0:0:0:0:
37,300,311140,2,0,L|63:297,1,26.25,2|2,0:0|0:0,0:0:0:0:
153,287,311315,1,2,0:0:0:0:
120,118,311489,5,8,0:0:0:0:
117,138,311576,1,0,0:0:0:0:
114,159,311663,1,0,0:0:0:0:
111,180,311750,1,0,0:0:0:0:
109,201,311838,2,0,L|70:189,1,26.25
244,173,312012,5,2,0:0:0:0:
285,166,312100,1,2,0:0:0:0:
326,159,312187,5,8,0:0:0:0:
307,148,312274,1,0,0:0:0:0:
287,143,312361,1,0,0:0:0:0:
266,143,312448,1,0,0:0:0:0:
246,149,312536,6,0,L|257:116,1,26.25,2|2,0:0|0:0,0:0:0:0:
278,39,312710,1,2,0:0:0:0:
81,98,312884,5,8,0:0:0:0:
101,95,312971,1,0,0:0:0:0:
122,92,313058,1,0,0:0:0:0:
143,90,313145,1,0,0:0:0:0:
164,87,313233,2,0,L|174:53,1,26.25
155,234,313408,5,2,0:0:0:0:
118,213,313495,1,2,0:0:0:0:
81,192,313582,5,8,0:0:0:0:
81,212,313669,1,0,0:0:0:0:
89,232,313756,1,0,0:0:0:0:
104,246,313843,1,0,0:0:0:0:
123,255,313931,6,0,L|95:268,1,26.25,2|2,0:0|0:0,0:0:0:0:
24,317,314105,1,2,0:0:0:0:
124,364,314280,5,8,0:0:0:0:
144,362,314367,1,0,0:0:0:0:
165,361,314454,1,0,0:0:0:0:
186,359,314541,1,0,0:0:0:0:
207,358,314628,1,0,0:0:0:0:
228,356,314716,1,0,0:0:0:0:
205,321,314803,5,2,0:0:0:0:
205,321,314978,1,0,0:0:0:0:
331,375,315152,1,0,0:0:0:0:
329,372,315239,1,0,0:0:0:0:
327,369,315326,2,0,L|364:363,1,26.25
407,165,315501,5,2,0:0:0:0:
399,206,315588,1,2,0:0:0:0:
392,247,315675,5,8,0:0:0:0:
374,236,315762,1,0,0:0:0:0:
362,219,315849,1,0,0:0:0:0:
360,198,315936,1,0,0:0:0:0:
368,179,316023,1,0,0:0:0:0:
384,166,316111,1,0,0:0:0:0:
399,206,316198,5,6,0:0:0:0:
378,205,316285,1,0,0:0:0:0:
357,204,316372,1,0,0:0:0:0:
336,203,316459,1,0,0:0:0:0:
315,203,316547,2,0,L|329:158,1,26.25
216,226,316722,6,0,L|202:271,1,26.25,2|2,0:0|0:0,0:0:0:0:
180,339,316896,1,2,0:0:0:0:
11,267,317071,5,8,0:0:0:0:
31,267,317158,1,0,0:0:0:0:
52,268,317245,1,0,0:0:0:0:
73,269,317332,1,0,0:0:0:0:
94,270,317419,2,0,L|85:225,1,26.25
234,145,317594,5,2,0:0:0:0:
225,185,317681,1,2,0:0:0:0:
216,226,317768,5,8,0:0:0:0:
236,224,317855,1,0,0:0:0:0:
257,223,317942,1,0,0:0:0:0:
278,221,318029,1,0,0:0:0:0:
299,220,318117,6,0,L|290:260,1,26.25,2|2,0:0|0:0,0:0:0:0:
274,332,318291,1,2,0:0:0:0:
512,283,318466,5,8,0:0:0:0:
491,284,318553,1,0,0:0:0:0:
470,286,318640,1,0,0:0:0:0:
449,288,318727,1,0,0:0:0:0:
428,289,318814,1,0,0:0:0:0:
407,291,318902,1,0,0:0:0:0:
386,293,318989,5,2,0:0:0:0:
404,255,319076,1,2,0:0:0:0:
423,217,319164,5,8,0:0:0:0:
421,237,319251,1,0,0:0:0:0:
420,258,319338,1,0,0:0:0:0:
419,279,319425,1,0,0:0:0:0:
418,300,319512,2,0,L|455:292,1,26.25,8|0,0:0|0:0,0:0:0:0:
305,315,319687,5,0,0:0:0:0:
305,329,319774,1,0,0:0:0:0:
306,343,319861,2,0,L|280:336,1,26.25,8|0,0:0|0:0,0:0:0:0:
171,247,320036,5,0,0:0:0:0:
171,258,320123,1,0,0:0:0:0:
170,269,320210,2,0,L|197:264,1,26.25,8|0,0:0|0:0,0:0:0:0:
63,310,320384,5,0,0:0:0:0:
63,318,320471,1,0,0:0:0:0:
63,325,320558,2,0,L|36:321,1,26.25,8|0,0:0|0:0,0:0:0:0:
78,198,320733,5,0,0:0:0:0:
77,195,320821,1,0,0:0:0:0:
76,192,320908,6,0,L|11:182,1,52.5,2|0,0:0|0:0,0:0:0:0:
144,226,321082,5,0,0:0:0:0:
142,215,321169,1,0,0:0:0:0:
140,202,321257,2,0,L|53:188,1,65.625,8|0,0:0|0:0,0:0:0:0:
221,230,321431,5,0,0:0:0:0:
217,214,321518,2,0,L|107:196,1,78.7500030040742,8|0,0:0|0:0,0:0:0:0:
313,246,321693,5,0,0:0:0:0:
307,227,321780,2,0,L|191:210,1,91.8750008761883,8|0,0:0|0:0,0:0:0:0:
419,267,321954,5,0,0:0:0:0:
410,241,322041,2,0,L|290:224,1,105,8|0,0:0|0:0,0:0:0:0:
489,225,322216,5,0,0:0:0:0:
461,248,322303,6,0,L|407:240,1,52.5,2|0,0:0|0:0,0:0:0:0:
410,241,322478,2,0,L|356:233,1,52.5,2|0,0:0|0:0,0:0:0:0:
360,340,322652,6,0,L|249:323,1,105,8|0,0:0|0:0,0:0:0:0:
308,332,322827,2,0,L|254:324,1,52.5,2|0,0:0|0:0,0:0:0:0:
248,213,323001,6,0,L|194:205,1,52.5,2|0,0:0|0:0,0:0:0:0:
196,205,323176,2,0,L|142:197,1,52.5,2|0,0:0|0:0,0:0:0:0:
147,305,323350,6,0,L|36:288,1,105,8|0,0:0|0:0,0:0:0:0:
95,297,323525,2,0,L|41:289,1,52.5,2|0,0:0|0:0,0:0:0:0:
40,179,323698,6,0,L|22:129,1,52.5,2|0,0:0|0:0,0:0:0:0:
102,103,323873,2,0,L|84:53,1,52.5,2|0,0:0|0:0,0:0:0:0:
181,78,324047,6,0,B|195:116|195:116|293:131,1,105,8|0,0:0|0:0,0:0:0:0:
206,118,324222,2,0,L|258:125,1,52.5,2|0,0:0|0:0,0:0:0:0:
332,64,324396,6,0,L|384:71,1,52.5,2|0,0:0|0:0,0:0:0:0:
424,149,324571,2,0,L|476:156,1,52.5,2|0,0:0|0:0,0:0:0:0:
373,259,324745,6,0,B|359:221|359:221|261:206,1,105,8|0,0:0|0:0,0:0:0:0:
348,219,324920,2,0,L|296:212,1,52.5,2|0,0:0|0:0,0:0:0:0:
234,283,325094,6,0,L|286:290,1,52.5,2|0,0:0|0:0,0:0:0:0:
424,149,325268,2,0,L|476:156,1,52.5,2|0,0:0|0:0,0:0:0:0:
389,348,325443,6,0,L|501:364,1,105,8|0,0:0|0:0,0:0:0:0:
439,355,325617,2,0,L|491:362,1,52.5,2|0,0:0|0:0,0:0:0:0:
287,374,325791,6,0,L|235:367,1,52.5,2|0,0:0|0:0,0:0:0:0:
258,125,325966,2,0,L|310:132,1,52.5,2|0,0:0|0:0,0:0:0:0:
373,259,326140,6,0,L|228:240,1,105,8|0,0:0|0:0,0:0:0:0:
321,253,326315,2,0,L|269:246,1,52.5,2|0,0:0|0:0,0:0:0:0:
431,96,326489,6,0,L|424:148,1,52.5,2|0,0:0|0:0,0:0:0:0:
160,218,326664,2,0,L|153:270,1,52.5,2|0,0:0|0:0,0:0:0:0:
291,40,326838,6,0,L|276:150,1,105,8|0,0:0|0:0,0:0:0:0:
284,91,327012,2,0,L|277:143,1,52.5,2|0,0:0|0:0,0:0:0:0:
180,49,327187,6,0,L|173:101,1,52.5,2|0,0:0|0:0,0:0:0:0:
401,264,327361,2,0,L|394:316,1,52.5,2|0,0:0|0:0,0:0:0:0:
254,350,327536,6,0,L|269:240,1,105,8|0,0:0|0:0,0:0:0:0:
261,299,327710,2,0,L|268:247,1,52.5,2|0,0:0|0:0,0:0:0:0:
144,369,327884,6,0,L|137:317,1,52.5,2|0,0:0|0:0,0:0:0:0:
401,264,328059,2,0,L|408:212,1,52.5,2|0,0:0|0:0,0:0:0:0:
144,369,328233,6,0,L|129:259,1,105,8|0,0:0|0:0,0:0:0:0:
408,211,328408,2,0,L|415:159,1,52.5,2|0,0:0|0:0,0:0:0:0:
129,264,328582,6,0,L|122:212,1,52.5,2|0,0:0|0:0,0:0:0:0:
415,158,328757,2,0,L|422:106,1,52.5,2|0,0:0|0:0,0:0:0:0:
129,264,328931,6,0,L|114:154,1,105,8|0,0:0|0:0,0:0:0:0:
422,105,329105,2,0,L|429:53,1,52.5,2|0,0:0|0:0,0:0:0:0:
285,24,329280,6,0,L|292:76,1,52.5,2|0,0:0|0:0,0:0:0:0:
28,129,329455,2,0,L|21:181,1,52.5,2|0,0:0|0:0,0:0:0:0:
285,24,329629,6,0,L|300:134,1,105,8|0,0:0|0:0,0:0:0:0:
21,182,329804,2,0,L|14:234,1,52.5,2|0,0:0|0:0,0:0:0:0:
300,129,329978,6,0,L|307:181,1,52.5,2|0,0:0|0:0,0:0:0:0:
14,235,330153,2,0,L|7:287,1,52.5,2|0,0:0|0:0,0:0:0:0:
300,129,330327,6,0,L|315:239,1,105,8|0,0:0|0:0,0:0:0:0:
7,288,330501,2,0,L|0:340,1,52.5,2|0,0:0|0:0,0:0:0:0:
341,332,330675,6,0,L|289:325,1,52.5,2|0,0:0|0:0,0:0:0:0:
59,295,330850,2,0,L|7:288,1,52.5,2|0,0:0|0:0,0:0:0:0:
456,236,331024,6,0,L|346:251,1,105,8|0,0:0|0:0,0:0:0:0:
59,295,331198,2,0,L|7:302,1,52.5,2|0,0:0|0:0,0:0:0:0:
351,250,331373,6,0,L|299:243,1,52.5,2|0,0:0|0:0,0:0:0:0:
69,213,331548,2,0,L|17:206,1,52.5,2|0,0:0|0:0,0:0:0:0:
466,154,331722,6,0,L|356:169,1,105,8|0,0:0|0:0,0:0:0:0:
69,213,331896,2,0,L|17:220,1,52.5,2|0,0:0|0:0,0:0:0:0:
251,191,332071,6,0,L|244:243,1,52.5,2|0,0:0|0:0,0:0:0:0:
233,332,332246,2,0,L|226:384,1,52.5,2|0,0:0|0:0,0:0:0:0:
190,7,332419,6,0,L|205:117,1,105,8|0,0:0|0:0,0:0:0:0:
233,332,332594,2,0,L|240:384,1,52.5,2|0,0:0|0:0,0:0:0:0:
161,191,332768,6,0,L|154:243,1,52.5,2|0,0:0|0:0,0:0:0:0:
143,332,332943,2,0,L|136:384,1,52.5,2|0,0:0|0:0,0:0:0:0:
100,7,333117,6,0,L|115:117,1,105,8|0,0:0|0:0,0:0:0:0:
143,332,333291,2,0,L|150:384,1,52.5,2|0,0:0|0:0,0:0:0:0:
60,264,333466,5,10,0:0:0:0:
101,232,333553,1,2,0:0:0:0:
152,224,333640,1,2,0:0:0:0:
201,241,333727,1,2,0:0:0:0:
237,279,333815,5,10,0:0:0:0:
285,295,333902,1,2,0:0:0:0:
330,270,333989,1,2,0:0:0:0:
343,220,334076,1,2,0:0:0:0:
315,178,334163,5,10,0:0:0:0:
300,128,334251,1,2,0:0:0:0:
324,83,334338,1,2,0:0:0:0:
372,66,334425,1,2,0:0:0:0:
419,88,334512,5,10,0:0:0:0:
437,135,334600,1,2,0:0:0:0:
418,183,334687,1,2,0:0:0:0:
369,203,334774,1,2,0:0:0:0:
319,185,334861,5,10,0:0:0:0:
274,153,334948,1,2,0:0:0:0:
220,150,335035,1,2,0:0:0:0:
172,175,335122,1,2,0:0:0:0:
144,222,335209,5,10,0:0:0:0:
96,246,335297,1,2,0:0:0:0:
44,232,335384,1,2,0:0:0:0:
14,187,335471,1,2,0:0:0:0:
22,134,335558,5,10,0:0:0:0:
64,99,335646,1,2,0:0:0:0:
118,101,335733,1,2,0:0:0:0:
155,143,335821,1,2,0:0:0:0:
155,197,335908,5,10,0:0:0:0:
185,241,335995,1,2,0:0:0:0:
237,256,336082,1,2,0:0:0:0:
286,234,336169,1,2,0:0:0:0:
310,186,336256,5,10,0:0:0:0:
354,151,336344,1,2,0:0:0:0:
409,160,336431,1,2,0:0:0:0:
441,207,336518,1,2,0:0:0:0:
428,261,336605,5,10,0:0:0:0:
379,289,336693,1,2,0:0:0:0:
324,277,336780,1,2,0:0:0:0:
295,229,336867,1,2,0:0:0:0:
308,175,336954,5,10,0:0:0:0:
294,120,337041,1,2,0:0:0:0:
245,93,337128,1,2,0:0:0:0:
192,111,337215,1,2,0:0:0:0:
169,162,337302,5,10,0:0:0:0:
190,214,337390,1,2,0:0:0:0:
163,263,337477,1,2,0:0:0:0:
108,273,337564,1,2,0:0:0:0:
65,237,337652,5,10,0:0:0:0:
61,178,337739,1,2,0:0:0:0:
103,137,337826,1,2,0:0:0:0:
161,142,337913,1,2,0:0:0:0:
195,190,338001,5,10,0:0:0:0:
177,246,338088,1,2,0:0:0:0:
202,299,338175,1,2,0:0:0:0:
257,321,338262,1,2,0:0:0:0:
311,299,338349,5,10,0:0:0:0:
336,245,338437,1,2,0:0:0:0:
316,188,338524,1,2,0:0:0:0:
261,163,338611,1,2,0:0:0:0:
203,179,338698,5,10,0:0:0:0:
144,173,338785,1,2,0:0:0:0:
111,125,338872,1,2,0:0:0:0:
125,68,338959,1,2,0:0:0:0:
177,42,339047,6,0,L|171:12,1,26.25,10|2,0:0|0:0,0:0:0:0:
188,43,339134,2,0,L|182:13,1,26.25,2|2,0:0|0:0,0:0:0:0:
198,44,339221,2,0,L|192:14,1,26.25,2|2,0:0|0:0,0:0:0:0:
209,44,339309,2,0,L|203:14,1,26.25,2|2,0:0|0:0,0:0:0:0:
245,69,339396,6,0,L|239:99,1,26.25,10|2,0:0|0:0,0:0:0:0:
256,68,339483,2,0,L|250:98,1,26.25,2|2,0:0|0:0,0:0:0:0:
266,67,339570,2,0,L|260:97,1,26.25,2|2,0:0|0:0,0:0:0:0:
277,67,339657,2,0,L|271:97,1,26.25,2|2,0:0|0:0,0:0:0:0:
305,49,339745,6,0,L|299:19,1,26.25,10|2,0:0|0:0,0:0:0:0:
316,50,339832,2,0,L|310:20,1,26.25,2|2,0:0|0:0,0:0:0:0:
326,51,339919,2,0,L|320:21,1,26.25,2|2,0:0|0:0,0:0:0:0:
337,51,340006,2,0,L|331:21,1,26.25,2|2,0:0|0:0,0:0:0:0:
374,76,340094,6,0,L|368:106,1,26.25,10|2,0:0|0:0,0:0:0:0:
385,75,340181,2,0,L|379:105,1,26.25,2|2,0:0|0:0,0:0:0:0:
395,74,340268,2,0,L|389:104,1,26.25,2|2,0:0|0:0,0:0:0:0:
406,74,340355,2,0,L|400:104,1,26.25,2|2,0:0|0:0,0:0:0:0:
442,94,340443,6,0,L|477:90,1,22.8375001916599,10|2,0:0|0:0,0:0:0:0:
441,98,340530,2,0,L|476:94,1,22.8375001916599,2|2,0:0|0:0,0:0:0:0:
440,102,340617,2,0,L|475:98,1,22.8375001916599,2|2,0:0|0:0,0:0:0:0:
439,106,340704,2,0,L|474:102,1,22.8375001916599,2|2,0:0|0:0,0:0:0:0:
429,141,340791,6,0,L|394:137,1,19.6875007510186,10|2,0:0|0:0,0:0:0:0:
430,145,340878,2,0,L|395:141,1,19.6875007510186,2|2,0:0|0:0,0:0:0:0:
431,149,340965,2,0,L|396:145,1,19.6875007510186,2|2,0:0|0:0,0:0:0:0:
432,153,341053,2,0,L|397:149,1,19.6875007510186,2|2,0:0|0:0,0:0:0:0:
445,183,341140,6,0,L|476:179,1,16.5374994953156,10|2,0:0|0:0,0:0:0:0:
444,186,341227,2,0,L|475:182,1,16.5374994953156,2|2,0:0|0:0,0:0:0:0:
443,190,341314,2,0,L|474:186,1,16.5374994953156,2|2,0:0|0:0,0:0:0:0:
442,193,341402,2,0,L|473:189,1,16.5374994953156,2|2,0:0|0:0,0:0:0:0:
434,231,341489,6,0,L|411:228,1,13.125,10|2,0:0|0:0,0:0:0:0:
434,233,341576,2,0,L|411:230,1,13.125,2|2,0:0|0:0,0:0:0:0:
435,235,341663,2,0,L|412:232,1,13.125,2|2,0:0|0:0,0:0:0:0:
436,238,341750,2,0,L|413:235,1,13.125,2|2,0:0|0:0,0:0:0:0:
451,273,341838,6,0,L|456:295,7,13.125,8|0|0|0|0|0|0|0,0:0|0:0|0:0|0:0|0:0|0:0|0:0|0:0,0:0:0:0:
360,317,342187,6,0,L|355:339,7,13.125,8|0|0|0|0|0|0|0,0:0|0:0|0:0|0:0|0:0|0:0|0:0|0:0,0:0:0:0:
263,287,342536,6,0,L|265:296,14,6.5625,8|0|0|0|0|0|0|0|0|0|0|0|0|0|0,0:0|0:0|0:0|0:0|0:0|0:0|0:0|0:0|0:0|0:0|0:0|0:0|0:0|0:0|0:0,0:0:0:0:
181,341,342884,6,0,L|179:350,14,6.5625,8|0|0|0|0|0|0|0|0|0|0|0|0|0|0,0:0|0:0|0:0|0:0|0:0|0:0|0:0|0:0|0:0|0:0|0:0|0:0|0:0|0:0|0:0,0:0:0:0:
93,299,343233,5,2,0:0:0:0:
93,299,343408,1,2,0:0:0:0:
164,130,343582,5,0,0:0:0:0:
165,148,343669,1,0,0:0:0:0:
166,166,343756,1,0,0:0:0:0:
168,184,343843,1,0,0:0:0:0:
169,203,343930,1,0,0:0:0:0:
218,183,344018,5,0,0:0:0:0:
214,130,344105,1,0,0:0:0:0:
165,148,344193,5,0,0:0:0:0:
166,166,344280,1,0,0:0:0:0:
114,170,344367,5,0,0:0:0:0:
115,188,344454,1,0,0:0:0:0:
67,188,344541,5,0,0:0:0:0:
218,183,344629,6,0,B|213:130|213:130|67:188|67:188|138:268,1,315,4|0,0:0|0:0,0:0:0:0:
125,275,344978,6,0,P|137:254|127:277,1,52.5
126,272,345239,6,0,P|138:249|128:274,1,78.7500030040742
123,274,345501,6,0,P|139:245|125:276,1,105
119,277,345762,6,0,P|140:240|122:280,1,131.25
196,314,346024,5,8,0:0:0:0:
227,311,346111,1,2,0:0:0:0:
258,309,346198,1,2,0:0:0:0:
290,307,346286,5,8,0:0:0:0:
260,296,346373,1,2,0:0:0:0:
230,285,346460,1,2,0:0:0:0:
201,274,346547,5,8,0:0:0:0:
207,305,346634,1,2,0:0:0:0:
212,336,346721,1,2,0:0:0:0:
218,367,346809,5,8,0:0:0:0:
242,347,346896,1,2,0:0:0:0:
266,326,346983,1,2,0:0:0:0:
290,307,347071,5,8,0:0:0:0:
258,308,347158,1,2,0:0:0:0:
227,310,347245,1,2,0:0:0:0:
195,312,347332,1,2,0:0:0:0:
123,353,347419,6,0,L|236:347,1,78.7500030040742,2|0,0:0|0:0,0:0:0:0:
137,363,347594,2,0,L|227:358,1,52.5
482,300,347768,6,0,B|353:305|353:305|386:213,1,157.500006008148,8|0,0:0|0:0,0:0:0:0:
406,133,348030,2,0,B|426:72|426:72|493:85|493:85|475:137,1,157.500006008148,2|0,0:0|0:0,0:0:0:0:
422,315,348291,2,0,L|341:318,1,78.7500030040742,2|0,0:0|0:0,0:0:0:0:
455,212,348466,5,8,0:0:0:0:
253,218,348640,2,0,B|281:128|281:128|268:110|268:110|288:107|288:107|312:33,1,210
443,14,348815,5,2,0:0:0:0:
247,80,348989,1,0,0:0:0:0:
340,105,349076,1,0,0:0:0:0:
300,69,349164,6,0,L|248:233,1,157.500006008148,8|0,0:0|0:0,0:0:0:0:
407,362,349425,2,0,L|455:212,1,157.500006008148,2|0,0:0|0:0,0:0:0:0:
285,58,349687,2,0,L|261:133,1,78.7500030040742,2|0,0:0|0:0,0:0:0:0:
340,263,349861,5,8,0:0:0:0:
166,102,349948,2,0,B|139:190|139:190|165:217|165:217|132:308,1,210
31,214,350210,6,0,B|48:169|48:169|146:195|146:195|98:330|98:330|147:346|147:346|172:284,1,393.75,6|0,0:0|0:0,0:0:0:0:
285,58,350559,6,0,L|233:207,1,157.500006008148,8|0,0:0|0:0,0:0:0:0:
512,43,350821,2,0,L|460:192,1,157.500006008148,2|0,0:0|0:0,0:0:0:0:
309,261,351082,2,0,L|283:335,1,78.7500030040742,2|0,0:0|0:0,0:0:0:0:
354,133,351257,1,8,0:0:0:0:
155,139,351344,2,0,L|103:288,1,157.500006008148
268,74,351605,5,2,0:0:0:0:
192,54,351693,2,0,B|316:87,1,78.7500030040742
207,259,351867,1,0,0:0:0:0:
183,334,351954,2,0,L|208:259,1,78.7500030040742,8|0,0:0|0:0,0:0:0:0:
449,204,352129,1,0,0:0:0:0:
423,279,352216,2,0,L|449:205,1,78.7500030040742,2|0,0:0|0:0,0:0:0:0:
428,64,352390,1,0,0:0:0:0:
504,44,352478,2,0,L|402:72,1,78.7500030040742,2|0,0:0|0:0,0:0:0:0:
254,109,352652,2,0,B|159:135|159:135|218:203|218:203|193:333,1,315,8|0,0:0|0:0,0:0:0:0:
310,358,353001,6,0,L|321:300,1,52.5,2|0,0:0|0:0,0:0:0:0:
337,206,353175,2,0,L|348:148,1,52.5
374,52,353350,1,8,0:0:0:0:
374,52,353438,1,0,0:0:0:0:
374,52,353524,2,0,L|385:-6,1,52.5
175,111,353698,5,0,0:0:0:0:
254,109,353786,2,0,L|142:113,1,78.7500030040742,0|2,0:0|0:0,0:0:0:0:
88,137,353960,5,0,0:0:0:0:
340,128,354047,2,0,B|306:184|306:184|117:190|117:190|88:137,1,315,8|0,0:0|0:0,0:0:0:0:
305,271,354396,6,0,L|193:275,1,78.7500030040742,2|0,0:0|0:0,0:0:0:0:
147,276,354571,2,0,L|225:273,1,78.7500030040742
300,283,354745,6,0,L|188:287,1,78.7500030040742,8|0,0:0|0:0,0:0:0:0:
142,288,354920,2,0,L|220:285,1,78.7500030040742
401,321,355094,5,0,0:0:0:0:
397,234,355181,1,0,0:0:0:0:
475,273,355268,1,2,0:0:0:0:
471,186,355355,1,0,0:0:0:0:
390,143,355443,5,8,0:0:0:0:
342,139,355530,1,0,0:0:0:0:
388,139,355617,1,0,0:0:0:0:
341,136,355704,1,0,0:0:0:0:
358,44,355791,6,0,B|340:137|340:137|390:143|390:143|364:295|364:295|257:285,1,393.75,6|0,0:0|0:0,0:0:0:0:
256,43,356140,6,0,L|229:198,1,157.500006008148,8|0,0:0|0:0,0:0:0:0:
20,268,356402,2,0,L|46:112,1,157.500006008148,2|0,0:0|0:0,0:0:0:0:
268,33,356664,2,0,L|251:133,1,78.7500030040742,2|0,0:0|0:0,0:0:0:0:
11,194,356838,1,8,0:0:0:0:
7,178,356925,1,0,0:0:0:0:
5,163,357012,2,0,L|22:263,1,78.7500030040742
204,243,357187,5,2,0:0:0:0:
279,219,357274,2,0,L|160:258,1,78.7500030040742
398,184,357448,1,0,0:0:0:0:
385,262,357536,2,0,L|398:184,1,78.7500030040742,8|0,0:0|0:0,0:0:0:0:
110,275,357710,1,0,0:0:0:0:
123,352,357798,2,0,L|108:264,1,78.7500030040742,2|0,0:0|0:0,0:0:0:0:
85,156,357972,1,0,0:0:0:0:
72,79,358059,2,0,L|87:167,1,78.7500030040742,2|0,0:0|0:0,0:0:0:0:
416,60,358233,2,0,B|399:151|399:151|413:185|413:185|401:243|401:243|380:253|380:253|395:273|395:273|385:327|385:327|411:308,1,315,8|0,0:0|0:0,0:0:0:0:
485,141,358582,6,0,L|495:99,3,26.25,2|0|0|0,0:0|0:0|0:0|0:0,0:0:0:0:
315,92,358931,6,0,L|286:246,1,157.500006008148,8|0,0:0|0:0,0:0:0:0:
51,309,359193,2,0,L|79:154,1,157.500006008148,2|0,0:0|0:0,0:0:0:0:
327,87,359454,2,0,L|308:190,1,78.7500030040742,2|0,0:0|0:0,0:0:0:0:
188,206,359629,5,8,0:0:0:0:
438,135,359803,2,0,B|443:104|443:104|491:95|491:95|469:223,1,210
500,380,359978,5,2,0:0:0:0:
349,206,360152,1,0,0:0:0:0:
340,304,360239,1,0,0:0:0:0:
365,256,360326,6,0,B|284:245|284:245|190:264,1,157.500006008148,8|0,0:0|0:0,0:0:0:0:
65,94,360588,2,0,B|146:105|146:105|240:86,1,157.500006008148,2|0,0:0|0:0,0:0:0:0:
371,271,360850,2,0,L|283:260,1,78.7500030040742,2|0,0:0|0:0,0:0:0:0:
145,188,361024,5,8,0:0:0:0:
372,145,361111,2,0,B|371:273|371:273|465:263,1,210
455,114,361373,6,0,B|453:266|453:266|472:343|472:343|417:300|417:300|304:308,1,393.75,6|0,0:0|0:0,0:0:0:0:
309,227,361722,5,8,0:0:0:0:
350,224,361809,1,0,0:0:0:0:
306,224,361896,1,0,0:0:0:0:
347,221,361983,1,0,0:0:0:0:
345,217,362071,6,0,L|292:219,1,52.5,2|0,0:0|0:0,0:0:0:0:
290,384,362245,2,0,L|379:379,1,78.7500030040742
200,307,362419,5,8,0:0:0:0:
197,266,362506,1,0,0:0:0:0:
197,310,362593,1,0,0:0:0:0:
194,269,362680,1,0,0:0:0:0:
191,273,362768,6,0,L|114:279,1,52.5,2|0,0:0|0:0,0:0:0:0:
71,173,362943,2,0,L|-6:179,1,52.5
242,158,363117,6,0,L|165:164,1,52.5,8|0,0:0|0:0,0:0:0:0:
122,58,363292,2,0,L|45:64,1,52.5
287,41,363466,5,2,0:0:0:0:
367,41,363553,1,0,0:0:0:0:
425,93,363640,5,0,0:0:0:0:
505,93,363727,1,0,0:0:0:0:
448,36,363815,5,8,0:0:0:0:
455,50,363902,1,0,0:0:0:0:
367,41,363989,5,0,0:0:0:0:
374,55,364076,1,0,0:0:0:0:
287,41,364164,6,0,L|304:134,1,52.5,2|0,0:0|0:0,0:0:0:0:
296,92,364338,2,0,L|313:185,1,52.5,2|0,0:0|0:0,0:0:0:0:
137,221,364512,6,0,L|161:355,1,105,8|0,0:0|0:0,0:0:0:0:
145,272,364687,2,0,L|155:324,1,52.5,2|0,0:0|0:0,0:0:0:0:
453,193,364861,6,0,L|470:286,1,52.5,2|0,0:0|0:0,0:0:0:0:
462,244,365036,2,0,L|479:337,1,52.5,2|0,0:0|0:0,0:0:0:0:
13,54,365210,6,0,L|37:188,1,105,8|0,0:0|0:0,0:0:0:0:
21,105,365384,2,0,L|31:157,1,52.5,2|0,0:0|0:0,0:0:0:0:
471,295,365559,5,2,0:0:0:0:
461,243,365646,1,2,0:0:0:0:
452,191,365733,1,2,0:0:0:0:
443,139,365820,1,2,0:0:0:0:
406,347,365908,5,10,0:0:0:0:
416,295,365995,1,2,0:0:0:0:
425,243,366082,1,2,0:0:0:0:
434,191,366169,1,2,0:0:0:0:
443,139,366257,5,2,0:0:0:0:
391,129,366344,1,2,0:0:0:0:
339,120,366431,1,2,0:0:0:0:
287,111,366518,1,2,0:0:0:0:
302,199,366605,5,8,0:0:0:0:
343,209,366693,1,0,0:0:0:0:
305,202,366780,1,0,0:0:0:0:
346,212,366868,1,0,0:0:0:0:
310,296,366954,6,0,B|236:283|236:283|145:318|145:318|176:166,1,315,6|0,0:0|0:0,0:0:0:0:
64,80,367303,6,0,L|30:248,1,157.500006008148,8|0,0:0|0:0,0:0:0:0:
305,202,367565,2,0,B|332:73|332:73|258:117,1,183.750001752377,2|0,0:0|0:0,0:0:0:0:
76,136,367826,2,0,P|54:239|54:239,1,105,2|0,0:0|0:0,0:0:0:0:
295,209,368001,1,8,0:0:0:0:
195,176,368088,2,0,P|208:268|346:302,1,236.250009012223
77,227,368350,6,0,B|208:264|208:264|343:181,1,262.5,2|0,0:0|0:0,0:0:0:0:
508,271,368611,5,0,0:0:0:0:
397,341,368698,2,0,L|518:264,1,131.25,8|0,0:0|0:0,0:0:0:0:
263,198,368873,1,0,0:0:0:0:
186,248,368960,2,0,L|307:171,1,91.8750008761883,2|0,0:0|0:0,0:0:0:0:
329,77,369134,1,0,0:0:0:0:
442,113,369222,2,0,L|309:71,1,118.125004506111,2|0,0:0|0:0,0:0:0:0:
105,14,369396,2,0,B|188:37|188:37|135:70|135:70|110:119|110:119|118:159|118:159|79:221|79:221|66:171,1,354.375013518334,8|0,0:0|0:0,0:0:0:0:
25,103,369745,6,0,L|42:72,3,26.25,2|0|0|0,0:0|0:0|0:0|0:0,0:0:0:0:
199,130,370094,6,0,B|202:179|202:179|128:298,1,157.500006008148,8|0,0:0|0:0,0:0:0:0:
347,314,370355,2,0,L|430:180,1,157.500006008148,2|0,0:0|0:0,0:0:0:0:
182,124,370617,2,0,L|187:212,1,78.7500030040742,2|0,0:0|0:0,0:0:0:0:
285,221,370791,5,8,0:0:0:0:
141,327,370966,2,0,B|78:262|78:262|69:125,1,210
3,75,371140,5,0,0:0:0:0:
177,288,371315,1,0,0:0:0:0:
93,351,371402,1,0,0:0:0:0:
141,327,371489,6,0,B|77:261|77:261|73:177,1,157.500006008148,8|0,0:0|0:0,0:0:0:0:
280,93,371751,2,0,L|288:250,1,157.500006008148,2|0,0:0|0:0,0:0:0:0:
82,341,372012,2,0,L|77:257,1,78.7500030040742,2|0,0:0|0:0,0:0:0:0:
179,222,372187,5,8,0:0:0:0:
373,149,372274,2,0,B|372:86|372:86|431:123|431:123|433:254,1,210
441,33,372536,6,0,B|512:77|512:77|512:266|512:266|433:201|433:201|430:152|430:152,1,393.75,6|0,0:0|0:0,0:0:0:0:
281,50,372884,6,0,L|286:210,1,157.500006008148,8|0,0:0|0:0,0:0:0:0:
64,312,373146,2,0,L|59:152,1,157.500006008148,2|0,0:0|0:0,0:0:0:0:
295,43,373408,2,0,L|298:144,1,78.7500030040742,2|0,0:0|0:0,0:0:0:0:
175,175,373582,1,8,0:0:0:0:
402,78,373669,2,0,L|406:235,1,157.500006008148
268,279,373931,5,2,0:0:0:0:
196,309,374018,2,0,L|282:274,1,78.7500030040742
435,209,374193,1,0,0:0:0:0:
439,288,374280,2,0,L|435:188,1,78.7500030040742,8|0,0:0|0:0,0:0:0:0:
433,78,374454,1,0,0:0:0:0:
430,0,374541,2,0,L|434:100,1,78.7500030040742,2|0,0:0|0:0,0:0:0:0:
218,163,374716,1,0,0:0:0:0:
290,133,374803,2,0,L|218:163,1,78.7500030040742,2|0,0:0|0:0,0:0:0:0:
0,246,374978,2,0,B|96:209|96:209|64:277|64:277|114:266|151:300|151:300|175:254,1,315,8|0,0:0|0:0,0:0:0:0:
164,28,375326,6,0,L|187:74,1,52.5,2|0,0:0|0:0,0:0:0:0:
233,157,375501,2,0,L|256:203,1,52.5
308,293,375675,1,8,0:0:0:0:
308,293,375762,1,0,0:0:0:0:
308,293,375850,2,0,L|331:339,1,52.5,0|2,0:0|0:0,0:0:0:0:
160,187,376024,5,0,0:0:0:0:
233,157,376111,1,0,0:0:0:0:
306,128,376198,1,2,0:0:0:0:
380,100,376285,1,0,0:0:0:0:
299,14,376373,6,0,B|271:57|271:57|249:61|249:61|259:83|259:83|265:152|265:152|240:186|240:186|256:324,1,315,8|0,0:0|0:0,0:0:0:0:
159,238,376722,6,0,L|147:139,1,78.75,2|0,0:0|0:0,0:0:0:0:
141,81,376896,2,0,L|149:159,1,78.75
119,264,377071,6,0,L|107:165,1,78.75,8|0,0:0|0:0,0:0:0:0:
101,107,377245,2,0,L|109:185,1,78.75
124,247,377419,6,0,P|99:265|131:250,1,105,8|0,0:0|0:0,0:0:0:0:
129,229,377594,6,0,P|82:263|143:236,1,210,2|0,0:0|0:0,0:0:0:0:
311,130,377855,5,0,0:0:0:0:
309,140,377943,1,0,0:0:0:0:
307,150,378030,1,0,0:0:0:0:
253,53,378117,6,0,B|288:170|288:170|275:278,1,210,6|0,0:0|0:0,0:0:0:0:
390,210,378379,5,2,0:0:0:0:
399,132,378466,2,0,L|386:255,1,78.7500030040742,8|0,0:0|0:0,0:0:0:0:
181,195,378640,1,2,0:0:0:0:
174,274,378728,2,0,L|182:195,1,78.7500030040742
268,335,378902,1,2,0:0:0:0:
277,257,378990,2,0,L|268:335,1,78.7500030040742
292,100,379164,1,8,0:0:0:0:
276,256,379251,2,0,L|292:100,1,157.500006008148
184,179,379512,5,6,0:0:0:0:
175,88,379600,2,0,L|188:211,1,91.8750008761883
205,384,379774,1,2,0:0:0:0:
196,293,379861,2,0,L|209:416,1,91.8750008761883,8|0,0:0|0:0,0:0:0:0:
391,384,380036,1,2,0:0:0:0:
401,293,380123,2,0,L|388:416,1,91.8750008761883
412,182,380297,1,2,0:0:0:0:
422,91,380384,2,0,L|409:214,1,91.8750008761883
283,229,380559,1,8,0:0:0:0:
173,271,380646,2,0,L|294:226,1,118.125004506111
412,186,380821,1,0,0:0:0:0:
412,186,380908,6,0,L|416:141,3,26.25,6|0|0|0,0:0|0:0|0:0|0:0,0:0:0:0:
351,257,381257,6,0,P|404:278|470:259,1,105,8|0,0:0|0:0,0:0:0:0:
302,222,381431,1,2,0:0:0:0:
273,127,381518,2,0,P|276:183|321:235,1,105
285,66,381693,1,2,0:0:0:0:
360,0,381780,2,0,P|309:27|281:89,1,105
415,130,381954,5,8,0:0:0:0:
135,145,382129,2,0,B|114:177|114:177|118:225|118:225|103:238|103:238|120:248|120:248|123:276|123:276|113:303|113:303|124:375,1,210
196,372,382303,5,6,0:0:0:0:
293,199,382478,1,0,0:0:0:0:
135,145,382565,1,2,0:0:0:0:
206,225,382652,6,0,B|202:195|202:195|225:146|225:146|219:80,1,118.125004506111,8|0,0:0|0:0,0:0:0:0:
118,48,382826,1,2,0:0:0:0:
141,44,382914,1,0,0:0:0:0:
135,145,383001,5,2,0:0:0:0:
112,141,383088,2,0,L|121:188,1,26.25,2|0,0:0|0:0,0:0:0:0:
89,136,383262,6,0,L|98:183,1,26.25,8|0,0:0|0:0,0:0:0:0:
68,131,383524,6,0,L|77:178,1,26.25,8|0,0:0|0:0,0:0:0:0:
4,186,383698,6,0,B|89:175|89:175|123:210|123:210|161:190|161:190|180:202|180:202|234:181|281:199|281:199|301:129|301:129|236:111|167:132,1,472.500018024445,6|0,0:0|0:0,0:0:0:0:
328,60,384047,5,8,0:0:0:0:
198,50,384134,2,0,P|267:49|335:62,1,131.25,0|2,0:0|0:0,0:0:0:0:
423,243,384309,6,0,B|357:106|470:124|411:-8,1,262.5
512,27,384571,6,0,P|506:113|482:167,1,131.25,2|0,0:0|0:0,0:0:0:0:
207,268,384745,1,8,0:0:0:0:
341,310,384832,2,0,P|303:204|348:24,1,262.5
369,143,385094,6,0,B|294:141|294:141|218:84,1,138.075006531258,6|0,0:0|0:0,0:0:0:0:
118,0,385268,2,0,B|123:53|123:53|139:65|139:65|125:79|125:79|132:142,1,138.075006531258,2|0,0:0|0:0,0:0:0:0:
153,364,385443,6,0,B|143:265|143:265|108:308,1,138.075006531258,2|0,0:0|0:0,0:0:0:0:
81,315,385573,2,0,B|140:239|140:239|150:332,1,138.075006531258
180,343,385704,6,0,B|168:240|168:240|199:195|199:195|189:69,1,276.150013062516
86,165,385966,5,2,0:0:0:0:
74,27,386053,2,0,L|86:165,1,138.075006531258,0|8,0:0|0:0,0:0:0:0:
296,100,386228,1,0,0:0:0:0:
308,238,386315,2,0,L|296:100,1,138.075006531258,2|0,0:0|0:0,0:0:0:0:
246,309,386489,6,0,B|311:331|311:331|412:290,1,144.375001376867,6|2,0:0|0:0,0:0:0:0:
357,27,386664,2,0,B|292:5|292:5|191:46,1,144.375001376867,2|2,0:0|0:0,0:0:0:0:
123,262,386838,6,0,B|115:211|115:211|130:177|130:177|122:110,1,144.375001376867,2|2,0:0|0:0,0:0:0:0:
110,108,386969,2,0,B|117:158|117:158|102:192|102:192|110:259,1,144.375001376867
94,205,387100,6,0,B|101:256|101:256|74:284|74:284|121:302|121:302|172:254|172:254|156:125,1,288.750002753735,2|2,0:0|0:0,0:0:0:0:
11,16,387361,5,2,0:0:0:0:
24,122,387448,2,0,B|12:18|12:18|44:50,1,144.375001376867,2|8,0:0|0:0,0:0:0:0:
340,74,387623,6,0,B|302:84|302:84|360:139|360:139|369:211|369:211|351:235|351:235|364:341,1,288.750002753735,2|2,0:0|0:0,0:0:0:0:
281,186,387884,6,0,L|253:153,5,35
238,267,388233,6,0,L|217:245,3,26.25
194,350,388408,6,0,L|170:322,8,35
287,342,388931,5,0,0:0:0:0:
292,340,389018,1,0,0:0:0:0:
297,338,389105,1,0,0:0:0:0:
302,336,389193,1,0,0:0:0:0:
307,334,389280,5,4,0:0:0:0:
