osu file format v14

[General]
AudioFilename: audio.mp3
AudioLeadIn: 0
PreviewTime: 51376
Countdown: 0
SampleSet: Normal
StackLeniency: 0.7
Mode: 1
LetterboxInBreaks: 0
WidescreenStoryboard: 0

[Editor]
Bookmarks: 102598,128198
DistanceSpacing: 0.8
BeatDivisor: 6
GridSize: 32
TimelineZoom: 1.3

[Metadata]
Title:In Black & White
TitleUnicode:In Black & White
Artist:Camellia
ArtistUnicode:かめりあ
Creator:rubies87
Version:Black Keys
Source:osu!
Tags:fa featured artist かめるかめりあ KamelCamellia Cametek Akira Complex Reality Distortion S2TB Recordings electronic and
BeatmapID:2173923
BeatmapSetID:1040093

[Difficulty]
HPDrainRate:5
CircleSize:2
OverallDifficulty:7
ApproachRate:10
SliderMultiplier:1.4
SliderTickRate:1

[Events]
//Background and Video events
0,0,"thumb-1920-4035.jpg",0,0
//Break Periods
//Storyboard Layer 0 (Background)
//Storyboard Layer 1 (Fail)
//Storyboard Layer 2 (Pass)
//Storyboard Layer 3 (Foreground)
//Storyboard Layer 4 (Overlay)
//Storyboard Sound Samples

[TimingPoints]
198,400,4,1,0,75,1,0
198,-66.6666666666667,4,1,0,75,0,0
1798,-100,4,1,0,35,0,0
6598,-66.6666666666667,4,1,0,75,0,0
8198,-100,4,1,0,35,0,0
12998,-90.9090909090909,4,1,0,50,0,0
26198,-100,4,1,0,35,0,0
38598,-90.9090909090909,4,1,0,50,0,0
44998,-90.9090909090909,4,1,0,55,0,0
45798,-90.9090909090909,4,1,0,60,0,0
46598,-90.9090909090909,4,1,0,65,0,0
47398,-90.9090909090909,4,1,0,70,0,0
48198,-90.9090909090909,4,1,0,75,0,0
50798,-57.1428571428571,4,1,0,50,0,0
51398,-57.1428571428571,4,1,0,75,0,1
51798,-66.6666666666667,4,1,0,75,0,1
70598,-66.6666666666667,4,1,0,75,0,0
76998,-66.6666666666667,4,1,0,90,0,0
77798,-66.6666666666667,4,1,0,90,0,1
96998,-66.6666666666667,4,1,0,75,0,0
102998,-80,4,1,0,35,0,0
104198,-100,4,1,0,35,0,0
128198,-90.9090909090909,4,1,0,75,0,0
128398,-90.9090909090909,4,1,0,35,0,0
134598,-90.9090909090909,4,1,0,75,0,0
134798,-90.9090909090909,4,1,0,35,0,0
139998,-90.9090909090909,4,1,0,50,0,0
140998,-90.9090909090909,4,1,0,75,0,0
141398,-100,4,1,0,35,0,0
153798,-90.9090909090909,4,1,0,50,0,0
160198,-90.9090909090909,4,1,0,55,0,0
163398,-90.9090909090909,4,1,0,60,0,0
166598,-90.9090909090909,4,1,0,65,0,0
169798,-90.9090909090909,4,1,0,70,0,0
172198,-90.9090909090909,4,1,0,50,0,0
172998,-83.3333333333333,4,1,0,60,0,0
178798,-48.780487804878,4,1,0,50,0,0
179398,-48.780487804878,4,1,0,75,0,1
179798,-57.1428571428571,4,1,0,75,0,1
192598,-66.6666666666667,4,1,0,75,0,1
198598,-66.6666666666667,4,1,0,75,0,0
204998,-66.6666666666667,4,1,0,90,0,0
205398,-57.1428571428571,4,1,0,90,0,1
224998,-66.6666666666667,4,1,0,35,0,0
230598,-90.9090909090909,4,1,0,50,0,0
243398,-66.6666666666667,4,1,0,75,0,0
244998,-90.9090909090909,4,1,0,35,0,0
249798,-66.6666666666667,4,1,0,75,0,0
251398,-100,4,1,0,35,0,0
257798,-100,4,1,0,32,0,0
259398,-100,4,1,0,30,0,0
260998,-100,4,1,0,27,0,0
262598,-100,4,1,0,25,0,0
264198,-100,4,1,0,22,0,0
265798,-100,4,1,0,20,0,0
267398,-100,4,1,0,17,0,0
268998,-100,4,1,0,15,0,0

[HitObjects]
256,192,198,5,4,0:0:0:0:
256,192,2298,1,0,0:0:0:0:
256,192,2498,1,0,0:0:0:0:
256,192,2598,1,8,0:0:0:0:
256,192,2698,1,8,0:0:0:0:
256,192,2798,1,8,0:0:0:0:
256,192,2998,1,8,0:0:0:0:
256,192,4998,1,0,0:0:0:0:
256,192,5298,1,0,0:0:0:0:
256,192,5598,1,8,0:0:0:0:
256,192,5898,1,8,0:0:0:0:
256,192,6198,1,8,0:0:0:0:
256,192,6598,1,4,0:0:0:0:
256,192,8698,1,0,0:0:0:0:
256,192,8898,1,0,0:0:0:0:
256,192,8998,1,8,0:0:0:0:
256,192,9098,1,8,0:0:0:0:
256,192,9198,1,8,0:0:0:0:
256,192,9398,1,8,0:0:0:0:
256,192,11398,1,8,0:0:0:0:
256,192,11598,1,0,0:0:0:0:
256,192,11798,1,8,0:0:0:0:
256,192,11898,1,0,0:0:0:0:
256,192,12098,1,0,0:0:0:0:
256,192,12198,1,8,0:0:0:0:
256,192,12498,1,0,0:0:0:0:
256,192,12798,1,8,0:0:0:0:
256,192,12998,1,4,0:0:0:0:
256,192,13198,1,8,0:0:0:0:
256,192,13398,1,0,0:0:0:0:
256,192,13498,1,8,0:0:0:0:
256,192,13598,1,8,0:0:0:0:
256,192,13798,1,8,0:0:0:0:
256,192,13998,1,0,0:0:0:0:
256,192,14098,1,8,0:0:0:0:
256,192,14198,1,0,0:0:0:0:
256,192,14398,1,8,0:0:0:0:
256,192,14598,1,0,0:0:0:0:
256,192,14798,1,8,0:0:0:0:
256,192,14998,1,8,0:0:0:0:
256,192,15098,1,0,0:0:0:0:
256,192,15298,1,0,0:0:0:0:
256,192,15398,1,8,0:0:0:0:
256,192,15498,1,8,0:0:0:0:
256,192,15598,1,8,0:0:0:0:
256,192,15798,1,8,0:0:0:0:
256,192,15998,1,8,0:0:0:0:
256,192,16098,1,0,0:0:0:0:
256,192,16198,1,0,0:0:0:0:
256,192,16398,1,8,0:0:0:0:
256,192,16598,1,0,0:0:0:0:
256,192,16698,1,8,0:0:0:0:
256,192,16798,1,8,0:0:0:0:
256,192,16998,1,8,0:0:0:0:
256,192,17198,1,0,0:0:0:0:
256,192,17298,1,8,0:0:0:0:
256,192,17398,1,0,0:0:0:0:
256,192,17598,1,8,0:0:0:0:
256,192,17798,1,0,0:0:0:0:
256,192,17998,1,8,0:0:0:0:
256,192,18098,1,0,0:0:0:0:
256,192,18298,1,0,0:0:0:0:
256,192,18498,1,0,0:0:0:0:
256,192,18548,1,0,0:0:0:0:
256,192,18598,1,8,0:0:0:0:
256,192,18798,1,8,0:0:0:0:
256,192,18898,1,8,0:0:0:0:
256,192,18998,1,0,0:0:0:0:
256,192,19398,1,4,0:0:0:0:
256,192,19598,1,8,0:0:0:0:
256,192,19798,1,0,0:0:0:0:
256,192,19898,1,8,0:0:0:0:
256,192,19998,1,8,0:0:0:0:
256,192,20198,1,8,0:0:0:0:
256,192,20398,1,0,0:0:0:0:
256,192,20498,1,8,0:0:0:0:
256,192,20598,1,0,0:0:0:0:
256,192,20798,1,8,0:0:0:0:
256,192,20998,1,0,0:0:0:0:
256,192,21198,1,8,0:0:0:0:
256,192,21398,1,8,0:0:0:0:
256,192,21498,1,0,0:0:0:0:
256,192,21698,1,0,0:0:0:0:
256,192,21798,1,8,0:0:0:0:
256,192,21898,1,8,0:0:0:0:
256,192,21998,1,8,0:0:0:0:
256,192,22198,1,8,0:0:0:0:
256,192,22398,1,8,0:0:0:0:
256,192,22498,1,0,0:0:0:0:
256,192,22598,1,0,0:0:0:0:
256,192,22798,1,8,0:0:0:0:
256,192,22998,1,0,0:0:0:0:
256,192,23098,1,8,0:0:0:0:
256,192,23198,1,8,0:0:0:0:
256,192,23398,1,8,0:0:0:0:
256,192,23598,1,0,0:0:0:0:
256,192,23698,1,8,0:0:0:0:
256,192,23798,1,0,0:0:0:0:
256,192,23998,1,8,0:0:0:0:
256,192,24198,1,0,0:0:0:0:
256,192,24398,1,8,0:0:0:0:
256,192,24498,1,0,0:0:0:0:
256,192,24698,1,0,0:0:0:0:
256,192,24798,1,8,0:0:0:0:
256,192,24898,1,0,0:0:0:0:
256,192,24948,1,0,0:0:0:0:
256,192,24998,1,8,0:0:0:0:
256,192,25198,1,0,0:0:0:0:
256,192,25298,1,0,0:0:0:0:
256,192,25398,1,8,0:0:0:0:
256,192,25498,1,8,0:0:0:0:
256,192,25598,1,0,0:0:0:0:
256,192,25798,1,4,0:0:0:0:
256,192,26198,1,0,0:0:0:0:
256,192,26598,1,8,0:0:0:0:
256,192,27264,1,8,0:0:0:0:
256,192,27331,1,8,0:0:0:0:
256,192,27398,1,0,0:0:0:0:
256,192,27931,1,8,0:0:0:0:
256,192,28198,1,0,0:0:0:0:
256,192,28748,1,8,0:0:0:0:
256,192,28898,1,8,0:0:0:0:
256,192,28948,1,8,0:0:0:0:
256,192,28998,1,0,0:0:0:0:
256,192,29548,1,8,0:0:0:0:
256,192,29798,1,0,0:0:0:0:
256,192,30198,1,8,0:0:0:0:
256,192,30464,1,8,0:0:0:0:
256,192,30531,1,8,0:0:0:0:
256,192,30598,1,0,0:0:0:0:
256,192,30998,1,0,0:0:0:0:
256,192,31398,1,8,0:0:0:0:
256,192,31798,1,8,0:0:0:0:
256,192,31998,1,8,0:0:0:0:
256,192,32098,1,8,0:0:0:0:
256,192,32148,1,8,0:0:0:0:
256,192,32198,1,0,0:0:0:0:
256,192,32598,1,0,0:0:0:0:
256,192,32998,1,8,0:0:0:0:
256,192,33664,1,8,0:0:0:0:
256,192,33731,1,8,0:0:0:0:
256,192,33798,1,0,0:0:0:0:
256,192,34331,1,8,0:0:0:0:
256,192,34598,1,0,0:0:0:0:
256,192,35131,1,8,0:0:0:0:
256,192,35298,1,8,0:0:0:0:
256,192,35348,1,8,0:0:0:0:
256,192,35398,1,0,0:0:0:0:
256,192,35931,1,8,0:0:0:0:
256,192,36198,1,0,0:0:0:0:
256,192,36464,1,0,0:0:0:0:
256,192,36731,1,8,0:0:0:0:
256,192,36998,1,8,0:0:0:0:
256,192,37264,1,0,0:0:0:0:
256,192,37531,1,8,0:0:0:0:
256,192,37798,1,8,0:0:0:0:
256,192,38064,1,0,0:0:0:0:
256,192,38331,1,8,0:0:0:0:
256,192,38598,1,4,0:0:0:0:
256,192,38798,1,8,0:0:0:0:
256,192,38998,1,0,0:0:0:0:
256,192,39098,1,8,0:0:0:0:
256,192,39198,1,8,0:0:0:0:
256,192,39398,1,0,0:0:0:0:
256,192,39598,1,8,0:0:0:0:
256,192,39698,1,8,0:0:0:0:
256,192,39798,1,0,0:0:0:0:
256,192,39998,1,8,0:0:0:0:
256,192,40198,1,0,0:0:0:0:
256,192,40398,1,8,0:0:0:0:
256,192,40598,1,0,0:0:0:0:
256,192,40698,1,8,0:0:0:0:
256,192,40798,1,8,0:0:0:0:
256,192,40998,1,0,0:0:0:0:
256,192,41098,1,8,0:0:0:0:
256,192,41298,1,8,0:0:0:0:
256,192,41398,1,0,0:0:0:0:
256,192,41598,1,0,0:0:0:0:
256,192,41698,1,8,0:0:0:0:
256,192,41748,1,8,0:0:0:0:
256,192,41798,1,0,0:0:0:0:
256,192,41998,1,8,0:0:0:0:
256,192,42198,1,0,0:0:0:0:
256,192,42298,1,8,0:0:0:0:
256,192,42398,1,8,0:0:0:0:
256,192,42598,1,0,0:0:0:0:
256,192,42798,1,8,0:0:0:0:
256,192,42898,1,8,0:0:0:0:
256,192,42998,1,0,0:0:0:0:
256,192,43198,1,8,0:0:0:0:
256,192,43398,1,0,0:0:0:0:
256,192,43598,1,8,0:0:0:0:
256,192,43798,1,0,0:0:0:0:
256,192,43898,1,8,0:0:0:0:
256,192,43998,1,8,0:0:0:0:
256,192,44198,1,0,0:0:0:0:
256,192,44298,1,8,0:0:0:0:
256,192,44398,1,0,0:0:0:0:
256,192,44498,1,0,0:0:0:0:
256,192,44548,1,0,0:0:0:0:
256,192,44598,1,8,0:0:0:0:
256,192,44698,1,0,0:0:0:0:
256,192,44898,1,0,0:0:0:0:
256,192,44998,1,8,0:0:0:0:
256,192,45198,1,0,0:0:0:0:
256,192,45398,1,8,0:0:0:0:
256,192,45598,1,0,0:0:0:0:
256,192,45798,1,8,0:0:0:0:
256,192,45998,1,0,0:0:0:0:
256,192,46198,1,8,0:0:0:0:
256,192,46398,1,0,0:0:0:0:
256,192,46498,1,0,0:0:0:0:
256,192,46548,1,0,0:0:0:0:
256,192,46598,1,8,0:0:0:0:
256,192,46798,1,0,0:0:0:0:
256,192,46998,1,8,0:0:0:0:
256,192,47198,1,0,0:0:0:0:
256,192,47398,1,8,0:0:0:0:
256,192,47598,1,0,0:0:0:0:
256,192,47798,1,8,0:0:0:0:
256,192,47898,1,0,0:0:0:0:
256,192,47998,1,8,0:0:0:0:
256,192,48098,1,8,0:0:0:0:
256,192,48198,1,0,0:0:0:0:
256,192,48248,1,0,0:0:0:0:
256,192,48298,1,0,0:0:0:0:
256,192,48398,1,8,0:0:0:0:
256,192,48498,1,0,0:0:0:0:
256,192,48548,1,0,0:0:0:0:
256,192,48598,1,0,0:0:0:0:
256,192,48698,1,8,0:0:0:0:
256,192,48798,1,0,0:0:0:0:
256,192,48848,1,0,0:0:0:0:
256,192,48898,1,0,0:0:0:0:
256,192,48998,1,8,0:0:0:0:
256,192,49098,1,0,0:0:0:0:
256,192,49148,1,0,0:0:0:0:
256,192,49198,1,0,0:0:0:0:
256,192,49298,1,8,0:0:0:0:
256,192,49398,1,0,0:0:0:0:
256,192,49448,1,0,0:0:0:0:
256,192,49498,1,8,0:0:0:0:
256,192,49548,1,8,0:0:0:0:
256,192,49598,1,0,0:0:0:0:
256,192,49698,1,8,0:0:0:0:
256,192,49798,1,0,0:0:0:0:
256,192,50798,1,8,0:0:0:0:
256,192,50898,1,0,0:0:0:0:
256,192,50948,1,0,0:0:0:0:
256,192,50998,1,8,0:0:0:0:
256,192,51098,1,8,0:0:0:0:
256,192,51198,1,0,0:0:0:0:
256,192,51398,1,4,0:0:0:0:
256,192,51798,1,8,0:0:0:0:
256,192,51898,1,8,0:0:0:0:
256,192,51998,1,0,0:0:0:0:
256,192,52098,1,0,0:0:0:0:
256,192,52198,1,8,0:0:0:0:
256,192,52298,1,8,0:0:0:0:
256,192,52398,1,8,0:0:0:0:
256,192,52498,1,8,0:0:0:0:
256,192,52598,1,0,0:0:0:0:
256,192,52664,1,0,0:0:0:0:
256,192,52731,1,0,0:0:0:0:
256,192,52798,1,8,0:0:0:0:
256,192,52864,1,8,0:0:0:0:
256,192,52931,1,8,0:0:0:0:
256,192,52998,1,0,0:0:0:0:
256,192,53098,1,0,0:0:0:0:
256,192,53198,1,8,0:0:0:0:
256,192,53298,1,0,0:0:0:0:
256,192,53398,1,8,0:0:0:0:
256,192,53448,1,8,0:0:0:0:
256,192,53498,1,0,0:0:0:0:
256,192,53598,1,8,0:0:0:0:
256,192,53648,1,8,0:0:0:0:
256,192,53698,1,0,0:0:0:0:
256,192,53798,1,8,0:0:0:0:
256,192,53898,1,8,0:0:0:0:
256,192,53998,1,8,0:0:0:0:
256,192,54098,1,8,0:0:0:0:
256,192,54198,1,0,0:0:0:0:
256,192,54398,1,8,0:0:0:0:
256,192,54498,1,0,0:0:0:0:
256,192,54598,1,0,0:0:0:0:
256,192,54798,1,8,0:0:0:0:
256,192,54864,1,0,0:0:0:0:
256,192,54998,1,0,0:0:0:0:
256,192,55064,1,8,0:0:0:0:
256,192,55198,1,8,0:0:0:0:
256,192,55264,1,0,0:0:0:0:
256,192,55398,1,8,0:0:0:0:
256,192,55598,1,0,0:0:0:0:
256,192,55664,1,0,0:0:0:0:
256,192,55798,1,8,0:0:0:0:
256,192,55864,1,8,0:0:0:0:
256,192,55931,1,8,0:0:0:0:
256,192,55998,1,8,0:0:0:0:
256,192,56064,1,8,0:0:0:0:
256,192,56131,1,8,0:0:0:0:
256,192,56198,1,0,0:0:0:0:
256,192,56298,1,8,0:0:0:0:
256,192,56398,1,8,0:0:0:0:
256,192,56498,1,0,0:0:0:0:
256,192,56598,1,8,0:0:0:0:
256,192,56698,1,0,0:0:0:0:
256,192,56798,1,8,0:0:0:0:
256,192,56898,1,0,0:0:0:0:
256,192,56948,1,0,0:0:0:0:
256,192,56998,1,8,0:0:0:0:
256,192,57098,1,8,0:0:0:0:
256,192,57198,1,0,0:0:0:0:
256,192,57298,1,0,0:0:0:0:
256,192,57398,1,8,0:0:0:0:
256,192,57798,1,4,0:0:0:0:
256,192,58198,1,8,0:0:0:0:
256,192,58298,1,8,0:0:0:0:
256,192,58398,1,0,0:0:0:0:
256,192,58498,1,0,0:0:0:0:
256,192,58598,1,8,0:0:0:0:
256,192,58698,1,8,0:0:0:0:
256,192,58798,1,8,0:0:0:0:
256,192,58898,1,8,0:0:0:0:
256,192,58998,1,0,0:0:0:0:
256,192,59064,1,0,0:0:0:0:
256,192,59131,1,0,0:0:0:0:
256,192,59198,1,8,0:0:0:0:
256,192,59264,1,8,0:0:0:0:
256,192,59331,1,8,0:0:0:0:
256,192,59398,1,0,0:0:0:0:
256,192,59498,1,0,0:0:0:0:
256,192,59598,1,8,0:0:0:0:
256,192,59698,1,0,0:0:0:0:
256,192,59798,1,8,0:0:0:0:
256,192,59848,1,8,0:0:0:0:
256,192,59898,1,0,0:0:0:0:
256,192,59998,1,8,0:0:0:0:
256,192,60048,1,8,0:0:0:0:
256,192,60098,1,0,0:0:0:0:
256,192,60198,1,8,0:0:0:0:
256,192,60298,1,8,0:0:0:0:
256,192,60398,1,8,0:0:0:0:
256,192,60498,1,8,0:0:0:0:
256,192,60598,1,0,0:0:0:0:
256,192,60798,1,8,0:0:0:0:
256,192,60898,1,0,0:0:0:0:
256,192,60998,1,0,0:0:0:0:
256,192,61198,1,8,0:0:0:0:
256,192,61264,1,0,0:0:0:0:
256,192,61398,1,0,0:0:0:0:
256,192,61464,1,8,0:0:0:0:
256,192,61598,1,8,0:0:0:0:
256,192,61664,1,0,0:0:0:0:
256,192,61798,1,8,0:0:0:0:
256,192,61998,1,0,0:0:0:0:
256,192,62098,1,0,0:0:0:0:
256,192,62198,1,8,0:0:0:0:
256,192,62398,1,0,0:0:0:0:
256,192,62598,1,12,0:0:0:0:
256,192,62798,1,0,0:0:0:0:
256,192,62898,1,12,0:0:0:0:
256,192,63098,1,12,0:0:0:0:
256,192,63298,1,0,0:0:0:0:
256,192,63348,1,0,0:0:0:0:
256,192,63398,1,8,0:0:0:0:
256,192,63598,1,0,0:0:0:0:
256,192,63698,1,0,0:0:0:0:
256,192,63798,1,8,0:0:0:0:
256,192,63898,1,8,0:0:0:0:
256,192,63998,1,0,0:0:0:0:
256,192,64198,1,4,0:0:0:0:
256,192,64598,1,8,0:0:0:0:
256,192,64698,1,8,0:0:0:0:
256,192,64798,1,0,0:0:0:0:
256,192,64898,1,0,0:0:0:0:
256,192,64998,1,8,0:0:0:0:
256,192,65098,1,8,0:0:0:0:
256,192,65198,1,8,0:0:0:0:
256,192,65298,1,8,0:0:0:0:
256,192,65398,1,0,0:0:0:0:
256,192,65464,1,0,0:0:0:0:
256,192,65531,1,0,0:0:0:0:
256,192,65598,1,8,0:0:0:0:
256,192,65664,1,8,0:0:0:0:
256,192,65731,1,8,0:0:0:0:
256,192,65798,1,0,0:0:0:0:
256,192,65898,1,8,0:0:0:0:
256,192,66098,1,0,0:0:0:0:
256,192,66198,1,8,0:0:0:0:
256,192,66298,1,0,0:0:0:0:
256,192,66498,1,0,0:0:0:0:
256,192,66598,1,8,0:0:0:0:
256,192,66698,1,8,0:0:0:0:
256,192,66798,1,0,0:0:0:0:
256,192,66898,1,0,0:0:0:0:
256,192,66998,1,8,0:0:0:0:
256,192,67198,1,8,0:0:0:0:
256,192,67298,1,0,0:0:0:0:
256,192,67398,1,0,0:0:0:0:
256,192,67598,1,8,0:0:0:0:
256,192,67664,1,0,0:0:0:0:
256,192,67798,1,8,0:0:0:0:
256,192,67864,1,0,0:0:0:0:
256,192,67998,1,8,0:0:0:0:
256,192,68064,1,0,0:0:0:0:
256,192,68198,1,8,0:0:0:0:
256,192,68398,1,0,0:0:0:0:
256,192,68464,1,0,0:0:0:0:
256,192,68598,1,8,0:0:0:0:
256,192,68664,1,8,0:0:0:0:
256,192,68731,1,8,0:0:0:0:
256,192,68798,1,8,0:0:0:0:
256,192,68864,1,8,0:0:0:0:
256,192,68931,1,8,0:0:0:0:
256,192,68998,1,0,0:0:0:0:
256,192,69098,1,8,0:0:0:0:
256,192,69198,1,8,0:0:0:0:
256,192,69298,1,0,0:0:0:0:
256,192,69398,1,8,0:0:0:0:
256,192,69498,1,0,0:0:0:0:
256,192,69598,1,8,0:0:0:0:
256,192,69698,1,0,0:0:0:0:
256,192,69748,1,0,0:0:0:0:
256,192,69798,1,8,0:0:0:0:
256,192,69898,1,0,0:0:0:0:
256,192,69998,1,8,0:0:0:0:
256,192,70098,1,8,0:0:0:0:
256,192,70198,1,0,0:0:0:0:
256,192,70598,1,4,0:0:0:0:
256,192,70798,1,0,0:0:0:0:
256,192,70898,1,8,0:0:0:0:
256,192,70998,1,0,0:0:0:0:
256,192,71098,1,0,0:0:0:0:
256,192,71198,1,8,0:0:0:0:
256,192,71398,1,0,0:0:0:0:
256,192,71498,1,8,0:0:0:0:
256,192,71598,1,0,0:0:0:0:
256,192,71798,1,8,0:0:0:0:
256,192,71998,1,8,0:0:0:0:
256,192,72098,1,8,0:0:0:0:
256,192,72198,1,4,0:0:0:0:
256,192,72398,1,0,0:0:0:0:
256,192,72498,1,8,0:0:0:0:
256,192,72598,1,0,0:0:0:0:
256,192,72698,1,0,0:0:0:0:
256,192,72798,1,8,0:0:0:0:
256,192,72998,1,0,0:0:0:0:
256,192,73098,1,8,0:0:0:0:
256,192,73198,1,0,0:0:0:0:
256,192,73398,1,8,0:0:0:0:
256,192,73498,1,0,0:0:0:0:
256,192,73598,1,8,0:0:0:0:
256,192,73698,1,8,0:0:0:0:
256,192,73798,1,0,0:0:0:0:
256,192,74398,1,8,0:0:0:0:
256,192,74498,1,0,0:0:0:0:
256,192,74598,1,8,0:0:0:0:
256,192,74698,1,8,0:0:0:0:
256,192,74798,1,0,0:0:0:0:
256,192,74898,1,0,0:0:0:0:
256,192,74998,1,8,0:0:0:0:
256,192,75098,1,0,0:0:0:0:
256,192,75198,1,8,0:0:0:0:
256,192,75298,1,8,0:0:0:0:
256,192,75398,1,0,0:0:0:0:
256,192,75448,1,0,0:0:0:0:
256,192,75498,1,0,0:0:0:0:
256,192,75598,1,8,0:0:0:0:
256,192,75698,1,0,0:0:0:0:
256,192,75748,1,0,0:0:0:0:
256,192,75798,1,0,0:0:0:0:
256,192,75898,1,8,0:0:0:0:
256,192,75998,1,0,0:0:0:0:
256,192,76048,1,0,0:0:0:0:
256,192,76098,1,0,0:0:0:0:
256,192,76198,1,8,0:0:0:0:
256,192,76298,1,0,0:0:0:0:
256,192,76348,1,0,0:0:0:0:
256,192,76398,1,0,0:0:0:0:
256,192,76498,1,8,0:0:0:0:
256,192,76598,1,0,0:0:0:0:
256,192,76648,1,0,0:0:0:0:
256,192,76698,1,0,0:0:0:0:
256,192,76798,1,8,0:0:0:0:
256,192,76998,1,4,0:0:0:0:
256,192,77798,1,12,0:0:0:0:
256,192,78198,1,8,0:0:0:0:
256,192,78298,1,8,0:0:0:0:
256,192,78398,1,8,0:0:0:0:
256,192,78498,1,8,0:0:0:0:
256,192,78598,1,0,0:0:0:0:
256,192,78698,1,8,0:0:0:0:
256,192,78798,1,8,0:0:0:0:
256,192,78864,1,8,0:0:0:0:
256,192,78931,1,8,0:0:0:0:
256,192,78998,1,8,0:0:0:0:
256,192,79098,1,0,0:0:0:0:
256,192,79198,1,8,0:0:0:0:
256,192,79298,1,0,0:0:0:0:
256,192,79398,1,8,0:0:0:0:
256,192,79498,1,8,0:0:0:0:
256,192,79598,1,8,0:0:0:0:
256,192,79664,1,8,0:0:0:0:
256,192,79731,1,8,0:0:0:0:
256,192,79798,1,8,0:0:0:0:
256,192,79864,1,8,0:0:0:0:
256,192,79931,1,8,0:0:0:0:
256,192,79998,1,8,0:0:0:0:
256,192,80098,1,0,0:0:0:0:
256,192,80198,1,0,0:0:0:0:
256,192,80298,1,8,0:0:0:0:
256,192,80348,1,8,0:0:0:0:
256,192,80398,1,8,0:0:0:0:
256,192,80498,1,0,0:0:0:0:
256,192,80598,1,8,0:0:0:0:
256,192,80698,1,0,0:0:0:0:
256,192,80798,1,0,0:0:0:0:
256,192,80898,1,0,0:0:0:0:
256,192,80998,1,8,0:0:0:0:
256,192,81064,1,8,0:0:0:0:
256,192,81131,1,8,0:0:0:0:
256,192,81198,1,8,0:0:0:0:
256,192,81398,1,8,0:0:0:0:
256,192,81498,1,0,0:0:0:0:
256,192,81564,1,0,0:0:0:0:
256,192,81631,1,0,0:0:0:0:
256,192,81698,1,0,0:0:0:0:
256,192,81798,1,8,0:0:0:0:
256,192,81864,1,8,0:0:0:0:
256,192,81931,1,8,0:0:0:0:
256,192,81998,1,8,0:0:0:0:
256,192,82098,1,0,0:0:0:0:
256,192,82198,1,8,0:0:0:0:
256,192,82298,1,0,0:0:0:0:
256,192,82364,1,0,0:0:0:0:
256,192,82431,1,0,0:0:0:0:
256,192,82498,1,0,0:0:0:0:
256,192,82548,1,0,0:0:0:0:
256,192,82598,1,8,0:0:0:0:
256,192,82798,1,8,0:0:0:0:
256,192,82998,1,0,0:0:0:0:
256,192,83064,1,0,0:0:0:0:
256,192,83131,1,8,0:0:0:0:
256,192,83198,1,8,0:0:0:0:
256,192,83398,1,4,0:0:0:0:
256,192,84198,1,8,0:0:0:0:
256,192,84298,1,8,0:0:0:0:
256,192,84398,1,8,0:0:0:0:
256,192,84498,1,8,0:0:0:0:
256,192,84598,1,8,0:0:0:0:
256,192,84698,1,8,0:0:0:0:
256,192,84798,1,8,0:0:0:0:
256,192,84898,1,8,0:0:0:0:
256,192,84998,1,0,0:0:0:0:
256,192,85098,1,8,0:0:0:0:
256,192,85198,1,8,0:0:0:0:
256,192,85264,1,8,0:0:0:0:
256,192,85331,1,8,0:0:0:0:
256,192,85398,1,8,0:0:0:0:
256,192,85498,1,0,0:0:0:0:
256,192,85598,1,8,0:0:0:0:
256,192,85698,1,0,0:0:0:0:
256,192,85798,1,8,0:0:0:0:
256,192,85998,1,0,0:0:0:0:
256,192,86048,1,0,0:0:0:0:
256,192,86098,1,0,0:0:0:0:
256,192,86148,1,0,0:0:0:0:
256,192,86198,1,8,0:0:0:0:
256,192,86298,1,0,0:0:0:0:
256,192,86398,1,8,0:0:0:0:
256,192,86498,1,8,0:0:0:0:
256,192,86598,1,0,0:0:0:0:
256,192,86998,1,8,0:0:0:0:
256,192,87048,1,8,0:0:0:0:
256,192,87098,1,0,0:0:0:0:
256,192,87198,1,8,0:0:0:0:
256,192,87298,1,0,0:0:0:0:
256,192,87398,1,8,0:0:0:0:
256,192,87448,1,8,0:0:0:0:
256,192,87498,1,0,0:0:0:0:
256,192,87598,1,8,0:0:0:0:
256,192,87698,1,0,0:0:0:0:
256,192,87798,1,8,0:0:0:0:
256,192,87898,1,8,0:0:0:0:
256,192,87998,1,0,0:0:0:0:
256,192,88098,1,8,0:0:0:0:
256,192,88198,1,0,0:0:0:0:
256,192,88248,1,0,0:0:0:0:
256,192,88298,1,0,0:0:0:0:
256,192,88348,1,0,0:0:0:0:
256,192,88398,1,8,0:0:0:0:
256,192,88498,1,0,0:0:0:0:
256,192,88598,1,8,0:0:0:0:
256,192,88698,1,0,0:0:0:0:
256,192,88798,1,8,0:0:0:0:
256,192,88848,1,8,0:0:0:0:
256,192,88898,1,0,0:0:0:0:
256,192,88948,1,0,0:0:0:0:
256,192,88998,1,8,0:0:0:0:
256,192,89098,1,0,0:0:0:0:
256,192,89198,1,8,0:0:0:0:
256,192,89298,1,8,0:0:0:0:
256,192,89398,1,0,0:0:0:0:
256,192,89798,1,4,0:0:0:0:
256,192,90098,1,0,0:0:0:0:
256,192,90148,1,0,0:0:0:0:
256,192,90198,1,8,0:0:0:0:
256,192,90298,1,8,0:0:0:0:
256,192,90398,1,0,0:0:0:0:
256,192,90598,1,12,0:0:0:0:
256,192,90898,1,4,0:0:0:0:
256,192,91198,1,12,0:0:0:0:
256,192,91498,1,4,0:0:0:0:
256,192,91798,1,12,0:0:0:0:
256,192,92098,1,4,0:0:0:0:
256,192,92398,1,12,0:0:0:0:
256,192,92698,1,4,0:0:0:0:
256,192,92998,1,0,0:0:0:0:
256,192,93098,1,8,0:0:0:0:
256,192,93148,1,8,0:0:0:0:
256,192,93198,1,8,0:0:0:0:
256,192,93298,1,0,0:0:0:0:
256,192,93398,1,8,0:0:0:0:
256,192,93498,1,8,0:0:0:0:
256,192,93598,1,0,0:0:0:0:
256,192,93798,1,8,0:0:0:0:
256,192,93864,1,8,0:0:0:0:
256,192,93931,1,8,0:0:0:0:
256,192,93998,1,8,0:0:0:0:
256,192,94198,1,8,0:0:0:0:
256,192,94298,1,0,0:0:0:0:
256,192,94364,1,0,0:0:0:0:
256,192,94431,1,0,0:0:0:0:
256,192,94498,1,0,0:0:0:0:
256,192,94598,1,8,0:0:0:0:
256,192,94664,1,8,0:0:0:0:
256,192,94731,1,8,0:0:0:0:
256,192,94798,1,8,0:0:0:0:
256,192,94898,1,0,0:0:0:0:
256,192,94998,1,8,0:0:0:0:
256,192,95098,1,0,0:0:0:0:
256,192,95164,1,0,0:0:0:0:
256,192,95231,1,0,0:0:0:0:
256,192,95298,1,0,0:0:0:0:
256,192,95348,1,0,0:0:0:0:
256,192,95398,1,8,0:0:0:0:
256,192,95598,1,8,0:0:0:0:
256,192,95798,1,0,0:0:0:0:
256,192,95864,1,0,0:0:0:0:
256,192,95931,1,8,0:0:0:0:
256,192,95998,1,8,0:0:0:0:
256,192,96198,1,4,0:0:0:0:
256,192,96998,1,0,0:0:0:0:
256,192,97098,1,8,0:0:0:0:
256,192,97298,1,0,0:0:0:0:
256,192,97398,1,8,0:0:0:0:
256,192,97498,1,0,0:0:0:0:
256,192,97598,1,0,0:0:0:0:
256,192,97698,1,8,0:0:0:0:
256,192,97898,1,0,0:0:0:0:
256,192,97998,1,8,0:0:0:0:
256,192,98198,1,0,0:0:0:0:
256,192,98298,1,8,0:0:0:0:
256,192,98398,1,8,0:0:0:0:
256,192,98498,1,0,0:0:0:0:
256,192,98598,1,8,0:0:0:0:
256,192,98698,1,0,0:0:0:0:
256,192,98798,1,0,0:0:0:0:
256,192,98898,1,8,0:0:0:0:
256,192,99098,1,0,0:0:0:0:
256,192,99198,1,8,0:0:0:0:
256,192,99398,1,0,0:0:0:0:
256,192,99498,1,8,0:0:0:0:
256,192,99598,1,8,0:0:0:0:
256,192,99698,1,0,0:0:0:0:
256,192,99798,1,8,0:0:0:0:
256,192,99898,1,0,0:0:0:0:
256,192,99998,1,0,0:0:0:0:
256,192,100098,1,8,0:0:0:0:
256,192,100198,1,8,0:0:0:0:
256,192,100298,1,0,0:0:0:0:
256,192,100398,1,8,0:0:0:0:
256,192,100498,1,0,0:0:0:0:
256,192,100598,1,0,0:0:0:0:
256,192,100698,1,8,0:0:0:0:
256,192,100798,1,8,0:0:0:0:
256,192,100898,1,8,0:0:0:0:
256,192,100998,1,0,0:0:0:0:
256,192,101064,1,0,0:0:0:0:
256,192,101131,1,0,0:0:0:0:
256,192,101198,1,0,0:0:0:0:
256,192,101264,1,0,0:0:0:0:
256,192,101331,1,0,0:0:0:0:
256,192,101398,1,8,0:0:0:0:
256,192,101464,1,8,0:0:0:0:
256,192,101531,1,8,0:0:0:0:
256,192,101598,1,8,0:0:0:0:
256,192,101664,1,8,0:0:0:0:
256,192,101731,1,8,0:0:0:0:
256,192,101798,1,0,0:0:0:0:
256,192,102598,1,4,0:0:0:0:
256,192,102998,1,8,0:0:0:0:
256,192,105798,1,0,0:0:0:0:
256,192,106198,1,8,0:0:0:0:
256,192,108998,1,0,0:0:0:0:
256,192,109398,1,8,0:0:0:0:
256,192,112198,1,0,0:0:0:0:
256,192,112598,1,8,0:0:0:0:
256,192,113798,1,0,0:0:0:0:
256,192,114198,1,8,0:0:0:0:
256,192,115398,1,0,0:0:0:0:
256,192,115798,1,8,0:0:0:0:
256,192,116098,1,0,0:0:0:0:
256,192,116198,1,0,0:0:0:0:
256,192,116398,1,8,0:0:0:0:
256,192,116798,1,0,0:0:0:0:
256,192,116998,1,0,0:0:0:0:
256,192,117398,1,8,0:0:0:0:
256,192,117698,1,0,0:0:0:0:
256,192,117798,1,0,0:0:0:0:
256,192,117998,1,0,0:0:0:0:
256,192,118198,1,8,0:0:0:0:
256,192,118598,1,0,0:0:0:0:
256,192,118998,1,8,0:0:0:0:
256,192,119298,1,0,0:0:0:0:
256,192,119398,1,0,0:0:0:0:
256,192,119598,1,8,0:0:0:0:
256,192,119998,1,0,0:0:0:0:
256,192,120198,1,0,0:0:0:0:
256,192,120598,1,8,0:0:0:0:
256,192,120898,1,0,0:0:0:0:
256,192,120998,1,0,0:0:0:0:
256,192,121198,1,0,0:0:0:0:
256,192,121398,1,8,0:0:0:0:
256,192,121598,1,8,0:0:0:0:
256,192,121798,1,0,0:0:0:0:
256,192,122198,1,8,0:0:0:0:
256,192,122498,1,0,0:0:0:0:
256,192,122598,1,0,0:0:0:0:
256,192,122798,1,8,0:0:0:0:
256,192,123198,1,0,0:0:0:0:
256,192,123398,1,0,0:0:0:0:
256,192,123798,1,8,0:0:0:0:
256,192,124098,1,0,0:0:0:0:
256,192,124198,1,0,0:0:0:0:
256,192,124398,1,0,0:0:0:0:
256,192,124598,1,8,0:0:0:0:
256,192,124998,1,0,0:0:0:0:
256,192,125398,1,8,0:0:0:0:
256,192,125698,1,0,0:0:0:0:
256,192,125798,1,0,0:0:0:0:
256,192,125998,1,8,0:0:0:0:
256,192,126398,1,0,0:0:0:0:
256,192,126598,1,0,0:0:0:0:
256,192,126998,1,8,0:0:0:0:
256,192,127198,1,0,0:0:0:0:
256,192,127298,1,0,0:0:0:0:
256,192,127498,1,0,0:0:0:0:
256,192,127598,1,0,0:0:0:0:
256,192,127798,1,8,0:0:0:0:
256,192,127998,1,8,0:0:0:0:
256,192,128198,1,4,0:0:0:0:
256,192,128398,1,8,0:0:0:0:
256,192,128498,1,8,0:0:0:0:
256,192,128598,1,0,0:0:0:0:
256,192,128798,1,8,0:0:0:0:
256,192,128998,1,0,0:0:0:0:
256,192,129098,1,8,0:0:0:0:
256,192,129298,1,8,0:0:0:0:
256,192,129398,1,0,0:0:0:0:
256,192,129598,1,8,0:0:0:0:
256,192,129798,1,0,0:0:0:0:
256,192,129998,1,8,0:0:0:0:
256,192,130098,1,8,0:0:0:0:
256,192,130198,1,0,0:0:0:0:
256,192,130298,1,8,0:0:0:0:
256,192,130498,1,8,0:0:0:0:
256,192,130598,1,8,0:0:0:0:
256,192,130664,1,8,0:0:0:0:
256,192,130731,1,8,0:0:0:0:
256,192,130798,1,8,0:0:0:0:
256,192,130998,1,8,0:0:0:0:
256,192,131198,1,0,0:0:0:0:
256,192,131298,1,8,0:0:0:0:
256,192,131398,1,0,0:0:0:0:
256,192,131498,1,0,0:0:0:0:
256,192,131598,1,8,0:0:0:0:
256,192,131698,1,8,0:0:0:0:
256,192,131798,1,0,0:0:0:0:
256,192,131998,1,8,0:0:0:0:
256,192,132198,1,0,0:0:0:0:
256,192,132298,1,8,0:0:0:0:
256,192,132498,1,8,0:0:0:0:
256,192,132598,1,0,0:0:0:0:
256,192,132798,1,8,0:0:0:0:
256,192,132998,1,0,0:0:0:0:
256,192,133198,1,8,0:0:0:0:
256,192,133298,1,0,0:0:0:0:
256,192,133398,1,0,0:0:0:0:
256,192,133498,1,0,0:0:0:0:
256,192,133598,1,8,0:0:0:0:
256,192,133798,1,0,0:0:0:0:
256,192,133898,1,8,0:0:0:0:
256,192,133998,1,0,0:0:0:0:
256,192,134098,1,0,0:0:0:0:
256,192,134198,1,8,0:0:0:0:
256,192,134298,1,8,0:0:0:0:
256,192,134398,1,0,0:0:0:0:
256,192,134598,1,4,0:0:0:0:
256,192,134798,1,8,0:0:0:0:
256,192,134898,1,8,0:0:0:0:
256,192,134998,1,0,0:0:0:0:
256,192,135198,1,8,0:0:0:0:
256,192,135398,1,0,0:0:0:0:
256,192,135498,1,8,0:0:0:0:
256,192,135698,1,8,0:0:0:0:
256,192,135798,1,0,0:0:0:0:
256,192,135998,1,8,0:0:0:0:
256,192,136198,1,0,0:0:0:0:
256,192,136398,1,8,0:0:0:0:
256,192,136498,1,8,0:0:0:0:
256,192,136598,1,0,0:0:0:0:
256,192,136698,1,8,0:0:0:0:
256,192,136898,1,8,0:0:0:0:
256,192,136998,1,8,0:0:0:0:
256,192,137064,1,8,0:0:0:0:
256,192,137131,1,8,0:0:0:0:
256,192,137198,1,8,0:0:0:0:
256,192,137398,1,8,0:0:0:0:
256,192,137598,1,0,0:0:0:0:
256,192,137698,1,8,0:0:0:0:
256,192,137798,1,0,0:0:0:0:
256,192,137898,1,0,0:0:0:0:
256,192,137998,1,8,0:0:0:0:
256,192,138098,1,8,0:0:0:0:
256,192,138198,1,0,0:0:0:0:
256,192,138398,1,8,0:0:0:0:
256,192,138598,1,0,0:0:0:0:
256,192,138698,1,8,0:0:0:0:
256,192,138898,1,8,0:0:0:0:
256,192,138998,1,0,0:0:0:0:
256,192,139198,1,8,0:0:0:0:
256,192,139398,1,0,0:0:0:0:
256,192,139598,1,8,0:0:0:0:
256,192,139698,1,8,0:0:0:0:
256,192,139798,1,0,0:0:0:0:
256,192,139998,1,8,0:0:0:0:
256,192,140064,1,0,0:0:0:0:
256,192,140131,1,0,0:0:0:0:
256,192,140198,1,8,0:0:0:0:
256,192,140298,1,8,0:0:0:0:
256,192,140398,1,0,0:0:0:0:
256,192,140498,1,0,0:0:0:0:
256,192,140548,1,0,0:0:0:0:
256,192,140598,1,8,0:0:0:0:
256,192,140698,1,8,0:0:0:0:
256,192,140798,1,0,0:0:0:0:
256,192,140998,1,4,0:0:0:0:
256,192,141398,1,0,0:0:0:0:
256,192,141798,1,8,0:0:0:0:
256,192,142464,1,8,0:0:0:0:
256,192,142531,1,8,0:0:0:0:
256,192,142598,1,0,0:0:0:0:
256,192,143131,1,8,0:0:0:0:
256,192,143398,1,0,0:0:0:0:
256,192,143931,1,8,0:0:0:0:
256,192,144098,1,8,0:0:0:0:
256,192,144148,1,8,0:0:0:0:
256,192,144198,1,0,0:0:0:0:
256,192,144731,1,8,0:0:0:0:
256,192,144998,1,0,0:0:0:0:
256,192,145398,1,8,0:0:0:0:
256,192,145664,1,8,0:0:0:0:
256,192,145731,1,8,0:0:0:0:
256,192,145798,1,0,0:0:0:0:
256,192,146198,1,0,0:0:0:0:
256,192,146598,1,8,0:0:0:0:
256,192,146998,1,8,0:0:0:0:
256,192,147198,1,8,0:0:0:0:
256,192,147298,1,8,0:0:0:0:
256,192,147348,1,8,0:0:0:0:
256,192,147398,1,0,0:0:0:0:
256,192,147798,1,0,0:0:0:0:
256,192,148198,1,8,0:0:0:0:
256,192,148864,1,8,0:0:0:0:
256,192,148931,1,8,0:0:0:0:
256,192,148998,1,0,0:0:0:0:
256,192,149531,1,8,0:0:0:0:
256,192,149798,1,0,0:0:0:0:
256,192,150331,1,8,0:0:0:0:
256,192,150498,1,8,0:0:0:0:
256,192,150548,1,8,0:0:0:0:
256,192,150598,1,0,0:0:0:0:
256,192,151131,1,8,0:0:0:0:
256,192,151398,1,0,0:0:0:0:
256,192,151664,1,0,0:0:0:0:
256,192,151931,1,8,0:0:0:0:
256,192,152198,1,8,0:0:0:0:
256,192,152464,1,0,0:0:0:0:
256,192,152731,1,8,0:0:0:0:
256,192,152998,1,8,0:0:0:0:
256,192,153264,1,0,0:0:0:0:
256,192,153531,1,8,0:0:0:0:
256,192,153798,1,4,0:0:0:0:
256,192,153998,1,8,0:0:0:0:
256,192,154198,1,0,0:0:0:0:
256,192,154298,1,8,0:0:0:0:
256,192,154398,1,8,0:0:0:0:
256,192,154598,1,0,0:0:0:0:
256,192,154798,1,8,0:0:0:0:
256,192,154898,1,8,0:0:0:0:
256,192,154998,1,0,0:0:0:0:
256,192,155198,1,8,0:0:0:0:
256,192,155398,1,0,0:0:0:0:
256,192,155598,1,8,0:0:0:0:
256,192,155798,1,0,0:0:0:0:
256,192,155898,1,8,0:0:0:0:
256,192,155998,1,8,0:0:0:0:
256,192,156198,1,0,0:0:0:0:
256,192,156298,1,8,0:0:0:0:
256,192,156498,1,8,0:0:0:0:
256,192,156598,1,0,0:0:0:0:
256,192,156798,1,0,0:0:0:0:
256,192,156898,1,8,0:0:0:0:
256,192,156948,1,8,0:0:0:0:
256,192,156998,1,0,0:0:0:0:
256,192,157198,1,8,0:0:0:0:
256,192,157398,1,0,0:0:0:0:
256,192,157498,1,8,0:0:0:0:
256,192,157598,1,8,0:0:0:0:
256,192,157798,1,0,0:0:0:0:
256,192,157998,1,8,0:0:0:0:
256,192,158098,1,8,0:0:0:0:
256,192,158198,1,0,0:0:0:0:
256,192,158398,1,8,0:0:0:0:
256,192,158598,1,0,0:0:0:0:
256,192,158798,1,8,0:0:0:0:
256,192,158998,1,0,0:0:0:0:
256,192,159098,1,8,0:0:0:0:
256,192,159198,1,8,0:0:0:0:
256,192,159398,1,0,0:0:0:0:
256,192,159498,1,8,0:0:0:0:
256,192,159598,1,0,0:0:0:0:
256,192,159698,1,0,0:0:0:0:
256,192,159748,1,0,0:0:0:0:
256,192,159798,1,8,0:0:0:0:
256,192,159898,1,0,0:0:0:0:
256,192,160098,1,0,0:0:0:0:
256,192,160198,1,8,0:0:0:0:
256,192,160398,1,0,0:0:0:0:
256,192,160598,1,8,0:0:0:0:
256,192,160798,1,0,0:0:0:0:
256,192,160998,1,8,0:0:0:0:
256,192,161198,1,0,0:0:0:0:
256,192,161398,1,8,0:0:0:0:
256,192,161598,1,0,0:0:0:0:
256,192,161698,1,0,0:0:0:0:
256,192,161748,1,0,0:0:0:0:
256,192,161798,1,8,0:0:0:0:
256,192,161998,1,0,0:0:0:0:
256,192,162198,1,8,0:0:0:0:
256,192,162398,1,0,0:0:0:0:
256,192,162598,1,8,0:0:0:0:
256,192,162798,1,0,0:0:0:0:
256,192,162998,1,8,0:0:0:0:
256,192,163198,1,0,0:0:0:0:
256,192,163298,1,0,0:0:0:0:
256,192,163398,1,8,0:0:0:0:
256,192,163598,1,0,0:0:0:0:
256,192,163798,1,8,0:0:0:0:
256,192,163998,1,0,0:0:0:0:
256,192,164198,1,8,0:0:0:0:
256,192,164398,1,0,0:0:0:0:
256,192,164598,1,8,0:0:0:0:
256,192,164798,1,0,0:0:0:0:
256,192,164898,1,0,0:0:0:0:
256,192,164948,1,0,0:0:0:0:
256,192,164998,1,8,0:0:0:0:
256,192,165198,1,0,0:0:0:0:
256,192,165398,1,8,0:0:0:0:
256,192,165598,1,0,0:0:0:0:
256,192,165798,1,8,0:0:0:0:
256,192,165898,1,0,0:0:0:0:
256,192,165998,1,8,0:0:0:0:
256,192,166098,1,0,0:0:0:0:
256,192,166148,1,0,0:0:0:0:
256,192,166198,1,0,0:0:0:0:
256,192,166298,1,0,0:0:0:0:
256,192,166398,1,8,0:0:0:0:
256,192,166598,1,0,0:0:0:0:
256,192,166698,1,8,0:0:0:0:
256,192,166798,1,8,0:0:0:0:
256,192,166898,1,8,0:0:0:0:
256,192,166998,1,0,0:0:0:0:
256,192,167098,1,8,0:0:0:0:
256,192,167198,1,8,0:0:0:0:
256,192,167298,1,8,0:0:0:0:
256,192,167398,1,0,0:0:0:0:
256,192,167498,1,8,0:0:0:0:
256,192,167598,1,8,0:0:0:0:
256,192,167698,1,8,0:0:0:0:
256,192,167798,1,0,0:0:0:0:
256,192,167898,1,8,0:0:0:0:
256,192,167998,1,8,0:0:0:0:
256,192,168098,1,8,0:0:0:0:
256,192,168198,1,0,0:0:0:0:
256,192,168298,1,8,0:0:0:0:
256,192,168398,1,8,0:0:0:0:
256,192,168498,1,8,0:0:0:0:
256,192,168598,1,0,0:0:0:0:
256,192,168698,1,8,0:0:0:0:
256,192,168798,1,8,0:0:0:0:
256,192,168898,1,8,0:0:0:0:
256,192,168998,1,0,0:0:0:0:
256,192,169098,1,8,0:0:0:0:
256,192,169198,1,8,0:0:0:0:
256,192,169298,1,8,0:0:0:0:
256,192,169398,1,0,0:0:0:0:
256,192,169498,1,8,0:0:0:0:
256,192,169598,1,8,0:0:0:0:
256,192,169698,1,8,0:0:0:0:
256,192,169798,1,0,0:0:0:0:
256,192,169898,1,8,0:0:0:0:
256,192,169998,1,8,0:0:0:0:
256,192,170098,1,8,0:0:0:0:
256,192,170198,1,0,0:0:0:0:
256,192,170298,1,8,0:0:0:0:
256,192,170398,1,8,0:0:0:0:
256,192,170498,1,8,0:0:0:0:
256,192,170598,1,0,0:0:0:0:
256,192,170698,1,8,0:0:0:0:
256,192,170798,1,8,0:0:0:0:
256,192,170898,1,8,0:0:0:0:
256,192,170998,1,0,0:0:0:0:
256,192,171098,1,8,0:0:0:0:
256,192,171198,1,8,0:0:0:0:
256,192,171298,1,8,0:0:0:0:
256,192,171398,1,0,0:0:0:0:
256,192,171498,1,8,0:0:0:0:
256,192,171598,1,8,0:0:0:0:
256,192,171698,1,8,0:0:0:0:
256,192,171798,1,0,0:0:0:0:
256,192,171898,1,8,0:0:0:0:
256,192,171998,1,8,0:0:0:0:
256,192,172098,1,8,0:0:0:0:
256,192,172198,1,0,0:0:0:0:
256,192,172298,1,0,0:0:0:0:
256,192,172398,1,8,0:0:0:0:
256,192,172498,1,0,0:0:0:0:
256,192,172548,1,0,0:0:0:0:
256,192,172598,1,0,0:0:0:0:
256,192,172698,1,0,0:0:0:0:
256,192,172798,1,8,0:0:0:0:
256,192,172998,1,0,0:0:0:0:
256,192,173064,1,0,0:0:0:0:
256,192,173131,1,0,0:0:0:0:
256,192,173198,1,8,0:0:0:0:
256,192,173264,1,8,0:0:0:0:
256,192,173331,1,8,0:0:0:0:
256,192,173398,1,0,0:0:0:0:
256,192,173464,1,0,0:0:0:0:
256,192,173531,1,0,0:0:0:0:
256,192,173598,1,8,0:0:0:0:
256,192,173664,1,8,0:0:0:0:
256,192,173731,1,8,0:0:0:0:
256,192,173798,1,0,0:0:0:0:
256,192,173864,1,0,0:0:0:0:
256,192,173931,1,0,0:0:0:0:
256,192,173998,1,8,0:0:0:0:
256,192,174064,1,8,0:0:0:0:
256,192,174131,1,8,0:0:0:0:
256,192,174198,1,0,0:0:0:0:
256,192,174264,1,0,0:0:0:0:
256,192,174331,1,0,0:0:0:0:
256,192,174398,1,8,0:0:0:0:
256,192,174464,1,8,0:0:0:0:
256,192,174531,1,8,0:0:0:0:
256,192,174598,1,0,0:0:0:0:
256,192,174664,1,0,0:0:0:0:
256,192,174731,1,0,0:0:0:0:
256,192,174798,1,8,0:0:0:0:
256,192,174864,1,8,0:0:0:0:
256,192,174931,1,8,0:0:0:0:
256,192,174998,1,0,0:0:0:0:
256,192,175064,1,0,0:0:0:0:
256,192,175131,1,0,0:0:0:0:
256,192,175198,1,8,0:0:0:0:
256,192,175264,1,8,0:0:0:0:
256,192,175331,1,8,0:0:0:0:
256,192,175398,1,0,0:0:0:0:
256,192,175464,1,0,0:0:0:0:
256,192,175531,1,0,0:0:0:0:
256,192,175598,1,8,0:0:0:0:
256,192,175664,1,8,0:0:0:0:
256,192,175731,1,8,0:0:0:0:
256,192,175798,1,0,0:0:0:0:
256,192,175864,1,0,0:0:0:0:
256,192,175931,1,0,0:0:0:0:
256,192,175998,1,8,0:0:0:0:
256,192,176064,1,8,0:0:0:0:
256,192,176131,1,8,0:0:0:0:
256,192,176198,1,0,0:0:0:0:
256,192,176298,1,0,0:0:0:0:
256,192,176398,1,8,0:0:0:0:
256,192,176498,1,8,0:0:0:0:
256,192,176598,1,0,0:0:0:0:
256,192,176698,1,0,0:0:0:0:
256,192,176798,1,8,0:0:0:0:
256,192,176898,1,8,0:0:0:0:
256,192,176998,1,0,0:0:0:0:
256,192,177098,1,0,0:0:0:0:
256,192,177198,1,0,0:0:0:0:
256,192,177298,1,0,0:0:0:0:
256,192,177398,1,8,0:0:0:0:
256,192,177498,1,8,0:0:0:0:
256,192,177598,1,8,0:0:0:0:
256,192,177698,1,8,0:0:0:0:
256,192,177798,1,0,0:0:0:0:
256,192,178798,1,8,0:0:0:0:
256,192,178898,1,0,0:0:0:0:
256,192,178948,1,0,0:0:0:0:
256,192,178998,1,8,0:0:0:0:
256,192,179098,1,8,0:0:0:0:
256,192,179198,1,0,0:0:0:0:
256,192,179398,1,4,0:0:0:0:
256,192,179798,1,0,0:0:0:0:
256,192,179898,1,8,0:0:0:0:
256,192,179998,1,8,0:0:0:0:
256,192,180098,1,8,0:0:0:0:
256,192,180198,1,0,0:0:0:0:
256,192,180298,1,8,0:0:0:0:
256,192,180398,1,8,0:0:0:0:
256,192,180498,1,8,0:0:0:0:
256,192,180598,1,0,0:0:0:0:
256,192,180698,1,8,0:0:0:0:
256,192,180798,1,8,0:0:0:0:
256,192,180864,1,8,0:0:0:0:
256,192,180931,1,8,0:0:0:0:
256,192,180998,1,0,0:0:0:0:
256,192,181098,1,8,0:0:0:0:
256,192,181198,1,8,0:0:0:0:
256,192,181298,1,8,0:0:0:0:
256,192,181398,1,0,0:0:0:0:
256,192,181498,1,8,0:0:0:0:
256,192,181598,1,8,0:0:0:0:
256,192,181664,1,8,0:0:0:0:
256,192,181731,1,8,0:0:0:0:
256,192,181798,1,0,0:0:0:0:
256,192,181898,1,8,0:0:0:0:
256,192,181998,1,8,0:0:0:0:
256,192,182098,1,8,0:0:0:0:
256,192,182198,1,0,0:0:0:0:
256,192,182298,1,0,0:0:0:0:
256,192,182398,1,8,0:0:0:0:
256,192,182448,1,8,0:0:0:0:
256,192,182498,1,8,0:0:0:0:
256,192,182548,1,8,0:0:0:0:
256,192,182598,1,0,0:0:0:0:
256,192,182798,1,8,0:0:0:0:
256,192,182848,1,8,0:0:0:0:
256,192,182898,1,0,0:0:0:0:
256,192,182998,1,0,0:0:0:0:
256,192,183048,1,0,0:0:0:0:
256,192,183098,1,8,0:0:0:0:
256,192,183198,1,8,0:0:0:0:
256,192,183248,1,8,0:0:0:0:
256,192,183298,1,0,0:0:0:0:
256,192,183398,1,0,0:0:0:0:
256,192,183598,1,8,0:0:0:0:
256,192,183648,1,0,0:0:0:0:
256,192,183698,1,0,0:0:0:0:
256,192,183798,1,8,0:0:0:0:
256,192,183864,1,8,0:0:0:0:
256,192,183931,1,0,0:0:0:0:
256,192,183998,1,8,0:0:0:0:
256,192,184064,1,8,0:0:0:0:
256,192,184131,1,8,0:0:0:0:
256,192,184198,1,0,0:0:0:0:
256,192,184298,1,0,0:0:0:0:
256,192,184398,1,8,0:0:0:0:
256,192,184448,1,8,0:0:0:0:
256,192,184498,1,0,0:0:0:0:
256,192,184598,1,8,0:0:0:0:
256,192,184698,1,0,0:0:0:0:
256,192,184798,1,8,0:0:0:0:
256,192,184848,1,8,0:0:0:0:
256,192,184898,1,0,0:0:0:0:
256,192,184998,1,8,0:0:0:0:
256,192,185098,1,8,0:0:0:0:
256,192,185198,1,0,0:0:0:0:
256,192,185248,1,0,0:0:0:0:
256,192,185298,1,0,0:0:0:0:
256,192,185398,1,8,0:0:0:0:
256,192,185464,1,8,0:0:0:0:
256,192,185531,1,8,0:0:0:0:
256,192,185598,1,8,0:0:0:0:
256,192,185798,1,4,0:0:0:0:
256,192,186198,1,0,0:0:0:0:
256,192,186298,1,8,0:0:0:0:
256,192,186398,1,8,0:0:0:0:
256,192,186498,1,8,0:0:0:0:
256,192,186598,1,0,0:0:0:0:
256,192,186698,1,8,0:0:0:0:
256,192,186798,1,8,0:0:0:0:
256,192,186898,1,8,0:0:0:0:
256,192,186998,1,0,0:0:0:0:
256,192,187098,1,8,0:0:0:0:
256,192,187198,1,8,0:0:0:0:
256,192,187264,1,8,0:0:0:0:
256,192,187331,1,8,0:0:0:0:
256,192,187398,1,0,0:0:0:0:
256,192,187498,1,8,0:0:0:0:
256,192,187598,1,8,0:0:0:0:
256,192,187698,1,8,0:0:0:0:
256,192,187798,1,0,0:0:0:0:
256,192,187898,1,8,0:0:0:0:
256,192,187998,1,8,0:0:0:0:
256,192,188064,1,8,0:0:0:0:
256,192,188131,1,8,0:0:0:0:
256,192,188198,1,0,0:0:0:0:
256,192,188298,1,8,0:0:0:0:
256,192,188398,1,8,0:0:0:0:
256,192,188498,1,8,0:0:0:0:
256,192,188598,1,0,0:0:0:0:
256,192,188698,1,0,0:0:0:0:
256,192,188798,1,8,0:0:0:0:
256,192,188848,1,8,0:0:0:0:
256,192,188898,1,8,0:0:0:0:
256,192,188948,1,8,0:0:0:0:
256,192,188998,1,0,0:0:0:0:
256,192,189198,1,8,0:0:0:0:
256,192,189248,1,8,0:0:0:0:
256,192,189298,1,0,0:0:0:0:
256,192,189398,1,0,0:0:0:0:
256,192,189448,1,0,0:0:0:0:
256,192,189498,1,8,0:0:0:0:
256,192,189598,1,8,0:0:0:0:
256,192,189648,1,8,0:0:0:0:
256,192,189698,1,0,0:0:0:0:
256,192,189798,1,0,0:0:0:0:
256,192,189998,1,8,0:0:0:0:
256,192,190023,1,8,0:0:0:0:
256,192,190098,1,0,0:0:0:0:
256,192,190123,1,0,0:0:0:0:
256,192,190198,1,8,0:0:0:0:
256,192,190223,1,8,0:0:0:0:
256,192,190398,1,0,0:0:0:0:
256,192,190598,1,8,0:0:0:0:
256,192,190798,1,0,0:0:0:0:
256,192,190898,1,8,0:0:0:0:
256,192,191098,1,8,0:0:0:0:
256,192,191298,1,0,0:0:0:0:
256,192,191348,1,0,0:0:0:0:
256,192,191398,1,8,0:0:0:0:
256,192,191598,1,0,0:0:0:0:
256,192,191698,1,0,0:0:0:0:
256,192,191798,1,8,0:0:0:0:
256,192,191898,1,8,0:0:0:0:
256,192,191998,1,0,0:0:0:0:
256,192,192198,1,4,0:0:0:0:
256,192,192598,1,8,0:0:0:0:
256,192,192698,1,8,0:0:0:0:
256,192,192798,1,0,0:0:0:0:
256,192,192898,1,0,0:0:0:0:
256,192,192998,1,8,0:0:0:0:
256,192,193098,1,8,0:0:0:0:
256,192,193198,1,8,0:0:0:0:
256,192,193298,1,8,0:0:0:0:
256,192,193398,1,0,0:0:0:0:
256,192,193464,1,0,0:0:0:0:
256,192,193531,1,0,0:0:0:0:
256,192,193598,1,8,0:0:0:0:
256,192,193664,1,8,0:0:0:0:
256,192,193731,1,8,0:0:0:0:
256,192,193798,1,0,0:0:0:0:
256,192,193898,1,8,0:0:0:0:
256,192,194098,1,0,0:0:0:0:
256,192,194198,1,8,0:0:0:0:
256,192,194298,1,0,0:0:0:0:
256,192,194498,1,0,0:0:0:0:
256,192,194598,1,8,0:0:0:0:
256,192,194698,1,8,0:0:0:0:
256,192,194798,1,0,0:0:0:0:
256,192,194898,1,0,0:0:0:0:
256,192,194998,1,8,0:0:0:0:
256,192,195198,1,8,0:0:0:0:
256,192,195298,1,0,0:0:0:0:
256,192,195398,1,0,0:0:0:0:
256,192,195598,1,8,0:0:0:0:
256,192,195664,1,0,0:0:0:0:
256,192,195798,1,8,0:0:0:0:
256,192,195864,1,0,0:0:0:0:
256,192,195998,1,8,0:0:0:0:
256,192,196064,1,0,0:0:0:0:
256,192,196198,1,8,0:0:0:0:
256,192,196398,1,0,0:0:0:0:
256,192,196464,1,0,0:0:0:0:
256,192,196598,1,8,0:0:0:0:
256,192,196664,1,8,0:0:0:0:
256,192,196731,1,8,0:0:0:0:
256,192,196798,1,8,0:0:0:0:
256,192,196864,1,8,0:0:0:0:
256,192,196931,1,8,0:0:0:0:
256,192,196998,1,0,0:0:0:0:
256,192,197098,1,8,0:0:0:0:
256,192,197198,1,8,0:0:0:0:
256,192,197298,1,0,0:0:0:0:
256,192,197398,1,8,0:0:0:0:
256,192,197498,1,0,0:0:0:0:
256,192,197598,1,8,0:0:0:0:
256,192,197698,1,0,0:0:0:0:
256,192,197748,1,0,0:0:0:0:
256,192,197798,1,8,0:0:0:0:
256,192,197898,1,8,0:0:0:0:
256,192,197998,1,0,0:0:0:0:
256,192,198098,1,0,0:0:0:0:
256,192,198198,1,8,0:0:0:0:
256,192,198598,1,4,0:0:0:0:
256,192,198798,1,0,0:0:0:0:
256,192,198898,1,8,0:0:0:0:
256,192,198998,1,0,0:0:0:0:
256,192,199098,1,0,0:0:0:0:
256,192,199198,1,8,0:0:0:0:
256,192,199398,1,0,0:0:0:0:
256,192,199498,1,8,0:0:0:0:
256,192,199598,1,0,0:0:0:0:
256,192,199798,1,0,0:0:0:0:
256,192,199898,1,8,0:0:0:0:
256,192,199998,1,0,0:0:0:0:
256,192,200098,1,0,0:0:0:0:
256,192,200198,1,8,0:0:0:0:
256,192,200264,1,8,0:0:0:0:
256,192,200331,1,8,0:0:0:0:
256,192,200398,1,0,0:0:0:0:
256,192,200498,1,8,0:0:0:0:
256,192,200598,1,0,0:0:0:0:
256,192,200798,1,0,0:0:0:0:
256,192,200898,1,8,0:0:0:0:
256,192,200998,1,0,0:0:0:0:
256,192,201098,1,0,0:0:0:0:
256,192,201198,1,8,0:0:0:0:
256,192,201398,1,0,0:0:0:0:
256,192,201498,1,8,0:0:0:0:
256,192,201548,1,8,0:0:0:0:
256,192,201598,1,8,0:0:0:0:
256,192,201698,1,0,0:0:0:0:
256,192,201798,1,0,0:0:0:0:
256,192,202398,1,8,0:0:0:0:
256,192,202498,1,0,0:0:0:0:
256,192,202598,1,8,0:0:0:0:
256,192,202698,1,8,0:0:0:0:
256,192,202798,1,0,0:0:0:0:
256,192,202898,1,0,0:0:0:0:
256,192,202998,1,8,0:0:0:0:
256,192,203098,1,0,0:0:0:0:
256,192,203198,1,8,0:0:0:0:
256,192,203298,1,8,0:0:0:0:
256,192,203398,1,0,0:0:0:0:
256,192,203448,1,0,0:0:0:0:
256,192,203498,1,0,0:0:0:0:
256,192,203598,1,8,0:0:0:0:
256,192,203698,1,0,0:0:0:0:
256,192,203748,1,0,0:0:0:0:
256,192,203798,1,0,0:0:0:0:
256,192,203898,1,8,0:0:0:0:
256,192,203998,1,0,0:0:0:0:
256,192,204048,1,0,0:0:0:0:
256,192,204098,1,0,0:0:0:0:
256,192,204198,1,8,0:0:0:0:
256,192,204298,1,0,0:0:0:0:
256,192,204348,1,0,0:0:0:0:
256,192,204398,1,0,0:0:0:0:
256,192,204498,1,8,0:0:0:0:
256,192,204598,1,0,0:0:0:0:
256,192,204648,1,0,0:0:0:0:
256,192,204698,1,0,0:0:0:0:
256,192,204798,1,8,0:0:0:0:
256,192,204998,1,4,0:0:0:0:
256,192,205398,1,0,0:0:0:0:
256,192,205498,1,8,0:0:0:0:
256,192,205598,1,8,0:0:0:0:
256,192,205698,1,8,0:0:0:0:
256,192,205798,1,0,0:0:0:0:
256,192,205898,1,8,0:0:0:0:
256,192,205998,1,8,0:0:0:0:
256,192,206098,1,8,0:0:0:0:
256,192,206198,1,8,0:0:0:0:
256,192,206298,1,8,0:0:0:0:
256,192,206398,1,8,0:0:0:0:
256,192,206498,1,8,0:0:0:0:
256,192,206598,1,0,0:0:0:0:
256,192,206698,1,8,0:0:0:0:
256,192,206798,1,8,0:0:0:0:
256,192,206864,1,8,0:0:0:0:
256,192,206931,1,8,0:0:0:0:
256,192,206998,1,8,0:0:0:0:
256,192,207098,1,8,0:0:0:0:
256,192,207198,1,8,0:0:0:0:
256,192,207298,1,8,0:0:0:0:
256,192,207398,1,0,0:0:0:0:
256,192,207498,1,8,0:0:0:0:
256,192,207598,1,8,0:0:0:0:
256,192,207664,1,8,0:0:0:0:
256,192,207731,1,8,0:0:0:0:
256,192,207798,1,8,0:0:0:0:
256,192,207898,1,8,0:0:0:0:
256,192,207998,1,8,0:0:0:0:
256,192,208098,1,8,0:0:0:0:
256,192,208198,1,0,0:0:0:0:
256,192,208298,1,8,0:0:0:0:
256,192,208348,1,8,0:0:0:0:
256,192,208398,1,8,0:0:0:0:
256,192,208498,1,0,0:0:0:0:
256,192,208598,1,8,0:0:0:0:
256,192,208698,1,0,0:0:0:0:
256,192,208798,1,0,0:0:0:0:
256,192,208898,1,0,0:0:0:0:
256,192,208998,1,8,0:0:0:0:
256,192,209064,1,8,0:0:0:0:
256,192,209131,1,8,0:0:0:0:
256,192,209198,1,8,0:0:0:0:
256,192,209398,1,8,0:0:0:0:
256,192,209498,1,0,0:0:0:0:
256,192,209564,1,0,0:0:0:0:
256,192,209631,1,0,0:0:0:0:
256,192,209698,1,0,0:0:0:0:
256,192,209798,1,8,0:0:0:0:
256,192,209864,1,8,0:0:0:0:
256,192,209931,1,8,0:0:0:0:
256,192,209998,1,8,0:0:0:0:
256,192,210098,1,0,0:0:0:0:
256,192,210198,1,8,0:0:0:0:
256,192,210298,1,0,0:0:0:0:
256,192,210364,1,0,0:0:0:0:
256,192,210431,1,0,0:0:0:0:
256,192,210498,1,0,0:0:0:0:
256,192,210548,1,0,0:0:0:0:
256,192,210598,1,8,0:0:0:0:
256,192,210798,1,8,0:0:0:0:
256,192,210998,1,0,0:0:0:0:
256,192,211064,1,0,0:0:0:0:
256,192,211131,1,8,0:0:0:0:
256,192,211198,1,8,0:0:0:0:
256,192,211398,1,4,0:0:0:0:
256,192,211798,1,0,0:0:0:0:
256,192,211898,1,8,0:0:0:0:
256,192,211998,1,8,0:0:0:0:
256,192,212098,1,8,0:0:0:0:
256,192,212198,1,0,0:0:0:0:
256,192,212298,1,8,0:0:0:0:
256,192,212398,1,8,0:0:0:0:
256,192,212498,1,8,0:0:0:0:
256,192,212598,1,8,0:0:0:0:
256,192,212698,1,8,0:0:0:0:
256,192,212798,1,8,0:0:0:0:
256,192,212898,1,8,0:0:0:0:
256,192,212998,1,0,0:0:0:0:
256,192,213098,1,8,0:0:0:0:
256,192,213198,1,8,0:0:0:0:
256,192,213264,1,8,0:0:0:0:
256,192,213331,1,8,0:0:0:0:
256,192,213398,1,8,0:0:0:0:
256,192,213498,1,8,0:0:0:0:
256,192,213598,1,8,0:0:0:0:
256,192,213698,1,8,0:0:0:0:
256,192,213798,1,0,0:0:0:0:
256,192,213998,1,8,0:0:0:0:
256,192,214064,1,8,0:0:0:0:
256,192,214131,1,8,0:0:0:0:
256,192,214198,1,8,0:0:0:0:
256,192,214298,1,8,0:0:0:0:
256,192,214398,1,8,0:0:0:0:
256,192,214498,1,8,0:0:0:0:
256,192,214598,1,0,0:0:0:0:
256,192,214998,1,8,0:0:0:0:
256,192,215048,1,8,0:0:0:0:
256,192,215098,1,0,0:0:0:0:
256,192,215198,1,8,0:0:0:0:
256,192,215298,1,0,0:0:0:0:
256,192,215398,1,8,0:0:0:0:
256,192,215448,1,8,0:0:0:0:
256,192,215498,1,0,0:0:0:0:
256,192,215598,1,8,0:0:0:0:
256,192,215698,1,0,0:0:0:0:
256,192,215798,1,8,0:0:0:0:
256,192,215898,1,8,0:0:0:0:
256,192,215998,1,0,0:0:0:0:
256,192,216098,1,8,0:0:0:0:
256,192,216198,1,0,0:0:0:0:
256,192,216248,1,0,0:0:0:0:
256,192,216298,1,8,0:0:0:0:
256,192,216348,1,0,0:0:0:0:
256,192,216398,1,8,0:0:0:0:
256,192,216448,1,8,0:0:0:0:
256,192,216498,1,0,0:0:0:0:
256,192,216598,1,8,0:0:0:0:
256,192,216698,1,0,0:0:0:0:
256,192,216798,1,8,0:0:0:0:
256,192,216848,1,8,0:0:0:0:
256,192,216898,1,0,0:0:0:0:
256,192,216948,1,0,0:0:0:0:
256,192,216998,1,8,0:0:0:0:
256,192,217098,1,0,0:0:0:0:
256,192,217198,1,8,0:0:0:0:
256,192,217298,1,8,0:0:0:0:
256,192,217398,1,0,0:0:0:0:
256,192,217798,1,4,0:0:0:0:
256,192,218198,1,0,0:0:0:0:
256,192,218298,1,8,0:0:0:0:
256,192,218398,1,8,0:0:0:0:
256,192,218498,1,8,0:0:0:0:
256,192,218598,1,0,0:0:0:0:
256,192,218698,1,8,0:0:0:0:
256,192,218798,1,8,0:0:0:0:
256,192,218898,1,8,0:0:0:0:
256,192,218998,1,8,0:0:0:0:
256,192,219098,1,8,0:0:0:0:
256,192,219198,1,8,0:0:0:0:
256,192,219298,1,8,0:0:0:0:
256,192,219398,1,0,0:0:0:0:
256,192,219498,1,8,0:0:0:0:
256,192,219598,1,8,0:0:0:0:
256,192,219664,1,8,0:0:0:0:
256,192,219731,1,8,0:0:0:0:
256,192,219798,1,8,0:0:0:0:
256,192,219898,1,8,0:0:0:0:
256,192,219998,1,8,0:0:0:0:
256,192,220098,1,8,0:0:0:0:
256,192,220198,1,0,0:0:0:0:
256,192,220298,1,8,0:0:0:0:
256,192,220398,1,8,0:0:0:0:
256,192,220464,1,8,0:0:0:0:
256,192,220531,1,8,0:0:0:0:
256,192,220598,1,8,0:0:0:0:
256,192,220698,1,8,0:0:0:0:
256,192,220798,1,8,0:0:0:0:
256,192,220898,1,8,0:0:0:0:
256,192,220998,1,0,0:0:0:0:
256,192,221098,1,8,0:0:0:0:
256,192,221148,1,8,0:0:0:0:
256,192,221198,1,8,0:0:0:0:
256,192,221298,1,0,0:0:0:0:
256,192,221398,1,8,0:0:0:0:
256,192,221498,1,0,0:0:0:0:
256,192,221598,1,0,0:0:0:0:
256,192,221698,1,0,0:0:0:0:
256,192,221798,1,8,0:0:0:0:
256,192,221864,1,8,0:0:0:0:
256,192,221931,1,8,0:0:0:0:
256,192,221998,1,8,0:0:0:0:
256,192,222198,1,8,0:0:0:0:
256,192,222298,1,0,0:0:0:0:
256,192,222364,1,0,0:0:0:0:
256,192,222431,1,0,0:0:0:0:
256,192,222498,1,0,0:0:0:0:
256,192,222598,1,8,0:0:0:0:
256,192,222664,1,8,0:0:0:0:
256,192,222731,1,8,0:0:0:0:
256,192,222798,1,8,0:0:0:0:
256,192,222898,1,0,0:0:0:0:
256,192,222998,1,8,0:0:0:0:
256,192,223098,1,0,0:0:0:0:
256,192,223164,1,0,0:0:0:0:
256,192,223231,1,0,0:0:0:0:
256,192,223298,1,0,0:0:0:0:
256,192,223348,1,0,0:0:0:0:
256,192,223398,1,8,0:0:0:0:
256,192,223598,1,8,0:0:0:0:
256,192,223798,1,0,0:0:0:0:
256,192,223864,1,0,0:0:0:0:
256,192,223931,1,8,0:0:0:0:
256,192,223998,1,8,0:0:0:0:
256,192,224198,1,4,0:0:0:0:
256,192,224998,1,0,0:0:0:0:
256,192,225098,1,8,0:0:0:0:
256,192,225298,1,0,0:0:0:0:
256,192,225398,1,8,0:0:0:0:
256,192,225498,1,0,0:0:0:0:
256,192,225598,1,0,0:0:0:0:
256,192,225698,1,8,0:0:0:0:
256,192,225898,1,0,0:0:0:0:
256,192,225998,1,8,0:0:0:0:
256,192,226198,1,0,0:0:0:0:
256,192,226298,1,8,0:0:0:0:
256,192,226398,1,8,0:0:0:0:
256,192,226498,1,0,0:0:0:0:
256,192,226598,1,8,0:0:0:0:
256,192,226698,1,0,0:0:0:0:
256,192,226798,1,0,0:0:0:0:
256,192,226898,1,8,0:0:0:0:
256,192,227098,1,0,0:0:0:0:
256,192,227198,1,8,0:0:0:0:
256,192,227398,1,0,0:0:0:0:
256,192,227498,1,8,0:0:0:0:
256,192,227598,1,8,0:0:0:0:
256,192,227698,1,0,0:0:0:0:
256,192,227798,1,8,0:0:0:0:
256,192,227898,1,0,0:0:0:0:
256,192,227998,1,0,0:0:0:0:
256,192,228098,1,8,0:0:0:0:
256,192,228198,1,8,0:0:0:0:
256,192,228298,1,0,0:0:0:0:
256,192,228398,1,8,0:0:0:0:
256,192,228498,1,0,0:0:0:0:
256,192,228598,1,0,0:0:0:0:
256,192,228698,1,8,0:0:0:0:
256,192,228798,1,8,0:0:0:0:
256,192,228898,1,8,0:0:0:0:
256,192,228998,1,0,0:0:0:0:
256,192,229064,1,0,0:0:0:0:
256,192,229131,1,0,0:0:0:0:
256,192,229198,1,0,0:0:0:0:
256,192,229264,1,0,0:0:0:0:
256,192,229331,1,0,0:0:0:0:
256,192,229398,1,8,0:0:0:0:
256,192,229464,1,8,0:0:0:0:
256,192,229531,1,8,0:0:0:0:
256,192,229598,1,8,0:0:0:0:
256,192,229664,1,8,0:0:0:0:
256,192,229731,1,8,0:0:0:0:
256,192,229798,1,0,0:0:0:0:
256,192,230598,1,4,0:0:0:0:
256,192,230798,1,8,0:0:0:0:
256,192,230998,1,0,0:0:0:0:
256,192,231098,1,8,0:0:0:0:
256,192,231198,1,8,0:0:0:0:
256,192,231398,1,8,0:0:0:0:
256,192,231598,1,0,0:0:0:0:
256,192,231698,1,8,0:0:0:0:
256,192,231798,1,0,0:0:0:0:
256,192,231998,1,8,0:0:0:0:
256,192,232198,1,0,0:0:0:0:
256,192,232398,1,8,0:0:0:0:
256,192,232598,1,8,0:0:0:0:
256,192,232698,1,0,0:0:0:0:
256,192,232898,1,0,0:0:0:0:
256,192,232998,1,8,0:0:0:0:
256,192,233098,1,8,0:0:0:0:
256,192,233198,1,8,0:0:0:0:
256,192,233398,1,8,0:0:0:0:
256,192,233598,1,8,0:0:0:0:
256,192,233698,1,0,0:0:0:0:
256,192,233798,1,0,0:0:0:0:
256,192,233998,1,8,0:0:0:0:
256,192,234198,1,0,0:0:0:0:
256,192,234298,1,8,0:0:0:0:
256,192,234398,1,8,0:0:0:0:
256,192,234598,1,8,0:0:0:0:
256,192,234798,1,0,0:0:0:0:
256,192,234898,1,8,0:0:0:0:
256,192,234998,1,0,0:0:0:0:
256,192,235198,1,8,0:0:0:0:
256,192,235398,1,0,0:0:0:0:
256,192,235598,1,8,0:0:0:0:
256,192,235698,1,0,0:0:0:0:
256,192,235898,1,0,0:0:0:0:
256,192,236098,1,0,0:0:0:0:
256,192,236148,1,0,0:0:0:0:
256,192,236198,1,8,0:0:0:0:
256,192,236398,1,8,0:0:0:0:
256,192,236498,1,8,0:0:0:0:
256,192,236598,1,0,0:0:0:0:
256,192,236998,1,4,0:0:0:0:
256,192,237198,1,8,0:0:0:0:
256,192,237398,1,0,0:0:0:0:
256,192,237498,1,8,0:0:0:0:
256,192,237598,1,8,0:0:0:0:
256,192,237798,1,8,0:0:0:0:
256,192,237998,1,0,0:0:0:0:
256,192,238098,1,8,0:0:0:0:
256,192,238198,1,0,0:0:0:0:
256,192,238398,1,8,0:0:0:0:
256,192,238598,1,0,0:0:0:0:
256,192,238798,1,8,0:0:0:0:
256,192,238998,1,8,0:0:0:0:
256,192,239098,1,0,0:0:0:0:
256,192,239298,1,0,0:0:0:0:
256,192,239398,1,8,0:0:0:0:
256,192,239498,1,8,0:0:0:0:
256,192,239598,1,8,0:0:0:0:
256,192,239798,1,8,0:0:0:0:
256,192,239998,1,8,0:0:0:0:
256,192,240098,1,0,0:0:0:0:
256,192,240198,1,0,0:0:0:0:
256,192,240398,1,8,0:0:0:0:
256,192,240598,1,0,0:0:0:0:
256,192,240698,1,8,0:0:0:0:
256,192,240798,1,8,0:0:0:0:
256,192,240998,1,8,0:0:0:0:
256,192,241198,1,0,0:0:0:0:
256,192,241298,1,8,0:0:0:0:
256,192,241398,1,0,0:0:0:0:
256,192,241598,1,8,0:0:0:0:
256,192,241798,1,0,0:0:0:0:
256,192,241998,1,8,0:0:0:0:
256,192,242098,1,0,0:0:0:0:
256,192,242298,1,0,0:0:0:0:
256,192,242398,1,8,0:0:0:0:
256,192,242498,1,0,0:0:0:0:
256,192,242548,1,0,0:0:0:0:
256,192,242598,1,8,0:0:0:0:
256,192,242798,1,0,0:0:0:0:
256,192,242898,1,0,0:0:0:0:
256,192,242998,1,8,0:0:0:0:
256,192,243098,1,8,0:0:0:0:
256,192,243198,1,0,0:0:0:0:
256,192,243398,1,4,0:0:0:0:
256,192,245498,1,0,0:0:0:0:
256,192,245698,1,0,0:0:0:0:
256,192,245798,1,8,0:0:0:0:
256,192,245898,1,8,0:0:0:0:
256,192,245998,1,8,0:0:0:0:
256,192,246198,1,8,0:0:0:0:
256,192,248198,1,0,0:0:0:0:
256,192,248498,1,0,0:0:0:0:
256,192,248798,1,8,0:0:0:0:
256,192,249098,1,8,0:0:0:0:
256,192,249398,1,8,0:0:0:0:
256,192,249798,1,4,0:0:0:0:
256,192,251898,1,0,0:0:0:0:
256,192,252098,1,0,0:0:0:0:
256,192,252198,1,8,0:0:0:0:
256,192,252298,1,8,0:0:0:0:
256,192,252398,1,8,0:0:0:0:
256,192,252598,1,8,0:0:0:0:
256,192,254598,1,8,0:0:0:0:
256,192,254798,1,0,0:0:0:0:
256,192,254998,1,8,0:0:0:0:
256,192,255098,1,0,0:0:0:0:
256,192,255298,1,0,0:0:0:0:
256,192,255398,1,8,0:0:0:0:
256,192,255698,1,0,0:0:0:0:
256,192,255998,1,0,0:0:0:0:
256,192,256198,1,8,0:0:0:0:
256,192,256398,8,0,268998,0:0:0:0:
