osu file format v14

[General]
AudioFilename: audio.mp3
AudioLeadIn: 0
PreviewTime: 51405
Countdown: 0
SampleSet: Soft
StackLeniency: 0.7
Mode: 3
LetterboxInBreaks: 0
SpecialStyle: 0
WidescreenStoryboard: 0

[Editor]
DistanceSpacing: 0.8
BeatDivisor: 4
GridSize: 16
TimelineZoom: 1.4

[Metadata]
Title:In Black & White
TitleUnicode:In Black & White
Artist:Camellia
ArtistUnicode:かめりあ
Creator:-MysticEyes
Version:Allegro
Source:osu!
Tags:Featured Artist FA Mappers' Guild mg Reality Distortion Kametek Kamelcamellia Masaya Oya かめるかめりあ 大箭将也 Akira Complex Electronic Instrumental And
BeatmapID:2134686
BeatmapSetID:1020196

[Difficulty]
HPDrainRate:8.5
CircleSize:4
OverallDifficulty:8
ApproachRate:5
SliderMultiplier:1.4
SliderTickRate:1

[Events]
//Background and Video events
0,0,"shiro.jpg",0,0
//Break Periods
//Storyboard Layer 0 (Background)
//Storyboard Layer 1 (Fail)
//Storyboard Layer 2 (Pass)
//Storyboard Layer 3 (Foreground)
//Storyboard Layer 4 (Overlay)
//Storyboard Sound Samples

[TimingPoints]
205,400,4,2,1,80,1,0
605,-100,4,2,1,20,0,0
6605,-100,4,2,1,80,0,0
7005,-100,4,2,1,20,0,0
13005,-100,4,2,1,80,0,0
51405,-100,4,2,1,80,0,1
77005,-100,4,2,1,80,0,0
77805,-100,4,2,1,80,0,1
102605,-100,4,2,1,80,0,0
104155,-100,4,2,1,20,0,0
128205,-100,4,2,1,80,0,0
128605,-100,4,2,1,20,0,0
134605,-100,4,2,1,80,0,0
135005,-100,4,2,1,20,0,0
141005,-100,4,2,1,80,0,0
179405,-100,4,2,1,80,0,1
230605,-100,4,2,1,80,0,0
243805,-100,4,2,1,20,0,0
249805,-100,4,2,1,80,0,0
250205,-100,4,2,1,20,0,0

[HitObjects]
64,192,205,5,2,0:0:0:0:
320,192,205,1,4,0:0:0:0:
448,192,205,1,0,0:0:0:0:
448,192,605,1,0,0:0:0:0:
64,192,905,1,0,0:0:0:0:
448,192,1305,1,0,0:0:0:0:
192,192,1605,1,0,0:0:0:0:
320,192,1805,1,0,0:0:0:0:
448,192,2105,1,0,0:0:0:0:
192,192,2305,1,0,0:0:0:0:
192,192,2505,1,0,0:0:0:0:
320,192,2605,1,0,0:0:0:0:
192,192,2655,1,0,0:0:0:0:
320,192,2705,1,0,0:0:0:0:
192,192,2805,1,0,0:0:0:0:
192,192,3005,1,0,0:0:0:0:
64,192,3205,1,0,0:0:0:0:
448,192,3805,1,0,0:0:0:0:
64,192,4105,1,0,0:0:0:0:
448,192,4505,1,0,0:0:0:0:
192,192,4805,1,0,0:0:0:0:
64,192,5005,1,0,0:0:0:0:
192,192,5305,1,0,0:0:0:0:
448,192,5605,1,0,0:0:0:0:
448,192,5905,1,0,0:0:0:0:
320,192,6205,1,0,0:0:0:0:
64,192,6605,1,4,0:0:0:0:
320,192,6605,1,2,0:0:0:0:
448,192,6605,1,0,0:0:0:0:
448,192,7005,1,0,0:0:0:0:
64,192,7305,1,0,0:0:0:0:
448,192,7705,1,0,0:0:0:0:
192,192,8005,1,0,0:0:0:0:
320,192,8205,1,0,0:0:0:0:
448,192,8505,1,0,0:0:0:0:
192,192,8705,1,0,0:0:0:0:
192,192,8905,1,0,0:0:0:0:
320,192,9005,1,0,0:0:0:0:
192,192,9055,1,0,0:0:0:0:
320,192,9105,1,0,0:0:0:0:
192,192,9205,1,0,0:0:0:0:
192,192,9405,1,0,0:0:0:0:
64,192,9605,1,0,0:0:0:0:
448,192,10205,1,0,0:0:0:0:
64,192,10505,1,0,0:0:0:0:
448,192,10905,1,0,0:0:0:0:
192,192,11205,1,0,0:0:0:0:
320,192,11405,1,0,0:0:0:0:
64,192,11605,1,0,0:0:0:0:
192,192,11805,1,0,0:0:0:0:
64,192,12105,1,0,0:0:0:0:
448,192,12205,1,0,0:0:0:0:
448,192,12305,1,0,0:0:0:0:
320,192,12505,1,0,0:0:0:0:
64,192,13005,1,4,0:0:0:0:
320,192,13005,1,2,0:0:0:0:
448,192,13005,1,0,0:0:0:0:
448,192,13405,1,0,0:0:0:0:
64,192,13705,1,0,0:0:0:0:
192,192,13805,1,8,0:0:0:0:
448,192,13805,1,0,0:0:0:0:
448,192,14105,1,0,0:0:0:0:
192,192,14405,1,0,0:0:0:0:
320,192,14605,1,2,0:0:0:0:
448,192,14605,1,0,0:0:0:0:
448,192,14905,1,0,0:0:0:0:
64,192,15105,1,2,0:0:0:0:
192,192,15105,1,0,0:0:0:0:
64,192,15305,1,2,0:0:0:0:
192,192,15305,1,0,0:0:0:0:
64,192,15405,1,8,0:0:0:0:
320,192,15405,1,0,0:0:0:0:
192,192,15455,1,0,0:0:0:0:
320,192,15505,1,0,0:0:0:0:
192,192,15605,1,0,0:0:0:0:
192,192,15805,1,0,0:0:0:0:
64,192,16105,1,2,0:0:0:0:
192,192,16105,1,0,0:0:0:0:
64,192,16205,1,2,0:0:0:0:
192,192,16205,1,0,0:0:0:0:
448,192,16605,1,0,0:0:0:0:
64,192,16905,1,0,0:0:0:0:
192,192,17005,1,8,0:0:0:0:
448,192,17005,1,0,0:0:0:0:
448,192,17305,1,0,0:0:0:0:
192,192,17605,1,0,0:0:0:0:
320,192,17805,1,2,0:0:0:0:
448,192,17805,1,0,0:0:0:0:
64,192,18105,1,2,0:0:0:0:
192,192,18105,1,0,0:0:0:0:
64,192,18305,1,2,0:0:0:0:
192,192,18305,1,0,0:0:0:0:
448,192,18405,1,0,0:0:0:0:
320,192,18505,1,2,0:0:0:0:
192,192,18555,1,2,0:0:0:0:
64,192,18605,1,8,0:0:0:0:
320,192,18605,1,0,0:0:0:0:
448,192,18705,1,0,0:0:0:0:
448,192,19005,1,0,0:0:0:0:
320,192,19005,1,2,0:0:0:0:
64,192,19405,1,2,0:0:0:0:
320,192,19405,1,0,0:0:0:0:
448,192,19405,1,0,0:0:0:0:
448,192,19805,1,0,0:0:0:0:
64,192,20105,1,0,0:0:0:0:
192,192,20205,1,8,0:0:0:0:
448,192,20205,1,0,0:0:0:0:
448,192,20505,1,0,0:0:0:0:
192,192,20805,1,0,0:0:0:0:
320,192,21005,1,2,0:0:0:0:
448,192,21005,1,0,0:0:0:0:
448,192,21305,1,0,0:0:0:0:
64,192,21505,1,2,0:0:0:0:
192,192,21505,1,0,0:0:0:0:
64,192,21705,1,2,0:0:0:0:
192,192,21705,1,0,0:0:0:0:
64,192,21805,1,8,0:0:0:0:
320,192,21805,1,0,0:0:0:0:
192,192,21855,1,0,0:0:0:0:
320,192,21905,1,0,0:0:0:0:
192,192,22005,1,0,0:0:0:0:
192,192,22205,1,0,0:0:0:0:
64,192,22505,1,2,0:0:0:0:
192,192,22505,1,0,0:0:0:0:
64,192,22605,1,2,0:0:0:0:
192,192,22605,1,0,0:0:0:0:
448,192,23005,1,0,0:0:0:0:
64,192,23305,1,0,0:0:0:0:
192,192,23405,1,8,0:0:0:0:
448,192,23405,1,0,0:0:0:0:
448,192,23705,1,0,0:0:0:0:
192,192,24005,1,0,0:0:0:0:
320,192,24205,1,2,0:0:0:0:
448,192,24205,1,0,0:0:0:0:
64,192,24405,1,0,0:0:0:0:
320,192,24505,1,2,0:0:0:0:
448,192,24505,1,0,0:0:0:0:
192,192,24605,1,0,0:0:0:0:
320,192,24705,1,2,0:0:0:0:
448,192,24705,1,0,0:0:0:0:
192,192,24805,1,0,0:0:0:0:
320,192,24855,1,0,0:0:0:0:
192,192,24905,1,0,0:0:0:0:
320,192,24955,1,0,0:0:0:0:
64,192,25005,1,8,0:0:0:0:
448,192,25005,1,0,0:0:0:0:
192,192,25105,1,0,0:0:0:0:
192,192,25205,1,0,0:0:0:0:
448,192,25305,1,0,0:0:0:0:
64,192,25355,1,0,0:0:0:0:
320,192,25405,1,2,0:0:0:0:
448,192,25405,1,0,0:0:0:0:
64,192,25505,1,0,0:0:0:0:
64,192,25605,1,0,0:0:0:0:
64,192,25805,1,4,0:0:0:0:
192,192,25805,1,0,0:0:0:50:softdrum.wav
448,192,25805,1,0,0:0:0:0:
448,192,26205,1,0,0:0:0:50:softdrum.wav
448,192,26605,1,0,0:0:0:50:softdrum.wav
448,192,27005,1,0,0:0:0:50:softdrum.wav
448,192,27405,1,0,0:0:0:50:softdrum.wav
448,192,27805,1,0,0:0:0:50:softdrum.wav
448,192,28205,1,0,0:0:0:50:softdrum.wav
448,192,28605,1,0,0:0:0:50:softdrum.wav
448,192,28805,1,0,0:0:0:50:softdrum.wav
64,192,28905,1,0,0:0:0:50:softdrum.wav
448,192,28955,1,0,0:0:0:50:softdrum.wav
64,192,29005,1,0,0:0:0:60:softdrum.wav
64,192,29405,1,0,0:0:0:60:softdrum.wav
64,192,29805,1,0,0:0:0:60:softdrum.wav
64,192,30205,1,0,0:0:0:60:softdrum.wav
64,192,30605,1,0,0:0:0:60:softdrum.wav
64,192,31005,1,0,0:0:0:60:softdrum.wav
64,192,31405,1,0,0:0:0:60:softdrum.wav
64,192,31805,1,0,0:0:0:60:softdrum.wav
64,192,32005,1,0,0:0:0:60:softdrum.wav
448,192,32105,1,0,0:0:0:60:softdrum.wav
64,192,32155,1,0,0:0:0:60:softdrum.wav
192,192,32205,1,0,0:0:0:75:softdrum.wav
448,192,32205,1,0,0:0:0:0:
192,192,32605,1,0,0:0:0:75:softdrum.wav
448,192,32605,1,0,0:0:0:0:
192,192,33005,1,0,0:0:0:75:softdrum.wav
448,192,33005,1,0,0:0:0:0:
192,192,33405,1,0,0:0:0:75:softdrum.wav
448,192,33405,1,0,0:0:0:0:
192,192,33805,1,0,0:0:0:75:softdrum.wav
448,192,33805,1,0,0:0:0:0:
192,192,34205,1,0,0:0:0:75:softdrum.wav
448,192,34205,1,0,0:0:0:0:
192,192,34605,1,0,0:0:0:75:softdrum.wav
448,192,34605,1,0,0:0:0:0:
192,192,35005,1,0,0:0:0:75:softdrum.wav
448,192,35005,1,0,0:0:0:0:
192,192,35205,1,0,0:0:0:75:softdrum.wav
448,192,35205,1,0,0:0:0:0:
64,192,35305,1,0,0:0:0:75:softdrum.wav
448,192,35355,1,0,0:0:0:75:softdrum.wav
64,192,35405,1,0,0:0:0:90:softdrum.wav
320,192,35405,1,0,0:0:0:0:
64,192,35805,1,0,0:0:0:90:softdrum.wav
320,192,35805,1,0,0:0:0:0:
64,192,36205,1,0,0:0:0:90:softdrum.wav
320,192,36205,1,0,0:0:0:0:
64,192,36605,1,0,0:0:0:90:softdrum.wav
320,192,36605,1,0,0:0:0:0:
64,192,37005,1,0,0:0:0:90:softdrum.wav
320,192,37005,1,0,0:0:0:0:
64,192,37405,1,0,0:0:0:90:softdrum.wav
320,192,37405,1,0,0:0:0:0:
64,192,37805,1,0,0:0:0:90:softdrum.wav
320,192,37805,1,0,0:0:0:0:
64,192,38205,1,0,0:0:0:90:softdrum.wav
320,192,38205,1,0,0:0:0:0:
64,192,38405,1,0,0:0:0:90:softdrum.wav
320,192,38405,1,0,0:0:0:0:
320,192,38505,1,0,0:0:0:90:softdrum.wav
64,192,38605,1,4,0:0:0:0:
192,192,38605,1,2,0:0:0:0:
448,192,38605,1,0,0:0:0:0:
448,192,38805,1,0,0:0:0:0:
64,192,39005,1,2,0:0:0:0:
192,192,39005,1,0,0:0:0:0:
448,192,39205,1,0,0:0:0:0:
64,192,39405,1,2,0:0:0:0:
192,192,39405,1,0,0:0:0:0:
448,192,39605,1,0,0:0:0:0:
64,192,39805,1,2,0:0:0:0:
192,192,39805,1,0,0:0:0:0:
448,192,40005,1,0,0:0:0:0:
64,192,40205,1,2,0:0:0:0:
320,192,40205,1,0,0:0:0:0:
448,192,40205,1,0,0:0:0:0:
64,192,40405,1,0,0:0:0:0:
320,192,40605,1,2,0:0:0:0:
448,192,40605,1,0,0:0:0:0:
64,192,40805,1,0,0:0:0:0:
320,192,41005,1,2,0:0:0:0:
448,192,41005,1,0,0:0:0:0:
64,192,41205,1,0,0:0:0:0:
320,192,41405,1,2,0:0:0:0:
448,192,41405,1,0,0:0:0:0:
320,192,41605,1,2,0:0:0:0:
448,192,41605,1,0,0:0:0:0:
192,192,41705,1,2,0:0:0:0:
320,192,41755,1,2,0:0:0:0:
64,192,41805,1,2,0:0:0:0:
192,192,41805,1,0,0:0:0:0:
448,192,41805,1,0,0:0:0:0:
448,192,42005,1,0,0:0:0:0:
64,192,42205,1,2,0:0:0:0:
192,192,42205,1,0,0:0:0:0:
448,192,42405,1,0,0:0:0:0:
64,192,42605,1,2,0:0:0:0:
192,192,42605,1,0,0:0:0:0:
448,192,42805,1,0,0:0:0:0:
64,192,43005,1,2,0:0:0:0:
192,192,43005,1,0,0:0:0:0:
448,192,43205,1,0,0:0:0:0:
64,192,43405,1,2,0:0:0:0:
320,192,43405,1,0,0:0:0:0:
448,192,43405,1,0,0:0:0:0:
64,192,43605,1,0,0:0:0:0:
320,192,43805,1,2,0:0:0:0:
448,192,43805,1,0,0:0:0:0:
64,192,44005,1,0,0:0:0:0:
320,192,44205,1,2,0:0:0:0:
448,192,44205,1,0,0:0:0:0:
320,192,44405,1,2,0:0:0:0:
448,192,44405,1,0,0:0:0:0:
192,192,44505,1,2,0:0:0:0:
320,192,44555,1,2,0:0:0:0:
192,192,44605,1,8,0:0:0:0:
448,192,44605,1,0,0:0:0:0:
320,192,44705,1,2,0:0:0:0:
448,192,44705,1,0,0:0:0:0:
64,192,44805,1,0,0:0:0:0:
64,192,45005,1,8,0:0:0:0:
320,192,45005,1,0,0:0:0:0:
448,192,45005,1,0,0:0:0:0:
64,192,45205,1,2,0:0:0:0:
192,192,45205,1,0,0:0:0:0:
64,192,45405,1,8,0:0:0:0:
320,192,45405,1,0,0:0:0:0:
448,192,45405,1,0,0:0:0:0:
64,192,45605,1,2,0:0:0:0:
192,192,45605,1,0,0:0:0:0:
64,192,45805,1,8,0:0:0:0:
320,192,45805,1,0,0:0:0:0:
448,192,45805,1,0,0:0:0:0:
64,192,46005,1,2,0:0:0:0:
192,192,46005,1,0,0:0:0:0:
64,192,46205,1,8,0:0:0:0:
320,192,46205,1,0,0:0:0:0:
448,192,46205,1,0,0:0:0:0:
320,192,46405,1,2,0:0:0:0:
448,192,46405,1,0,0:0:0:0:
192,192,46505,1,2,0:0:0:0:
320,192,46555,1,2,0:0:0:0:
64,192,46605,1,8,0:0:0:0:
192,192,46605,1,0,0:0:0:0:
448,192,46605,1,0,0:0:0:0:
320,192,46805,1,2,0:0:0:0:
448,192,46805,1,0,0:0:0:0:
64,192,47005,1,8,0:0:0:0:
192,192,47005,1,0,0:0:0:0:
448,192,47005,1,0,0:0:0:0:
320,192,47205,1,2,0:0:0:0:
448,192,47205,1,0,0:0:0:0:
64,192,47405,1,8,0:0:0:0:
192,192,47405,1,0,0:0:0:0:
448,192,47405,1,0,0:0:0:0:
320,192,47605,1,2,0:0:0:0:
448,192,47605,1,0,0:0:0:0:
64,192,47805,1,8,0:0:0:0:
192,192,47805,1,0,0:0:0:0:
448,192,47805,1,0,0:0:0:0:
448,192,47905,1,8,0:0:0:0:
64,192,48005,1,2,0:0:0:0:
192,192,48005,1,0,0:0:0:0:
320,192,48105,1,2,0:0:0:0:
448,192,48105,1,0,0:0:0:0:
192,192,48205,1,2,0:0:0:0:
448,192,48205,1,0,0:0:0:0:
320,192,48255,1,2,0:0:0:0:
192,192,48305,1,2,0:0:0:0:
320,192,48355,1,2,0:0:0:0:
64,192,48405,1,8,0:0:0:0:
448,192,48405,1,0,0:0:0:0:
320,192,48505,1,2,0:0:0:0:
192,192,48555,1,2,0:0:0:0:
320,192,48605,1,2,0:0:0:0:
192,192,48655,1,2,0:0:0:0:
64,192,48705,1,8,0:0:0:0:
448,192,48705,1,0,0:0:0:0:
192,192,48805,1,2,0:0:0:0:
320,192,48855,1,2,0:0:0:0:
192,192,48905,1,2,0:0:0:0:
320,192,48955,1,2,0:0:0:0:
64,192,49005,1,8,0:0:0:0:
448,192,49005,1,0,0:0:0:0:
320,192,49105,1,2,0:0:0:0:
192,192,49155,1,2,0:0:0:0:
320,192,49205,1,2,0:0:0:0:
192,192,49255,1,2,0:0:0:0:
64,192,49305,1,8,0:0:0:0:
448,192,49305,1,0,0:0:0:0:
192,192,49405,1,0,0:0:0:0:
320,192,49455,1,0,0:0:0:0:
192,192,49505,1,0,0:0:0:0:
320,192,49555,1,0,0:0:0:0:
64,192,49605,1,0,0:0:0:0:
448,192,49655,1,0,0:0:0:0:
64,192,49705,1,0,0:0:0:0:
448,192,49755,1,0,0:0:0:0:
64,192,49805,1,2,0:0:0:0:
192,192,49805,1,0,0:0:0:0:
192,192,50005,1,0,0:0:0:0:
192,192,50105,1,0,0:0:0:0:
320,192,50205,1,0,0:0:0:0:
320,192,50305,1,0,0:0:0:0:
448,192,50405,1,0,0:0:0:0:
448,192,50505,1,0,0:0:0:0:
64,192,50605,1,0,0:0:0:0:
320,192,50655,1,0,0:0:0:0:
448,192,50705,1,0,0:0:0:0:
64,192,50755,1,0,0:0:0:0:
320,192,50805,1,0,0:0:0:0:
192,192,50855,1,0,0:0:0:0:
448,192,50905,1,0,0:0:0:0:
64,192,50955,1,0,0:0:0:0:
320,192,51005,1,0,0:0:0:0:
448,192,51055,1,0,0:0:0:0:
64,192,51105,1,0,0:0:0:0:
192,192,51155,1,0,0:0:0:0:
448,192,51205,1,0,0:0:0:0:
64,192,51255,1,0,0:0:0:0:
320,192,51305,1,0,0:0:0:0:
192,192,51355,1,0,0:0:0:0:
64,192,51405,1,4,0:0:0:0:
320,192,51405,1,2,0:0:0:0:
448,192,51405,128,0,51605:0:0:0:0:
64,192,51605,128,0,51805:0:0:0:0:
192,192,51805,1,0,0:0:0:0:
448,192,51805,128,0,51871:0:0:0:0:
192,192,51905,1,0,0:0:0:0:
192,192,52005,1,0,0:0:0:0:
192,192,52105,1,0,0:0:0:0:
64,192,52205,1,8,0:0:0:0:
448,192,52205,1,0,0:0:0:0:
320,192,52305,1,0,0:0:0:0:
320,192,52405,1,0,0:0:0:0:
320,192,52505,1,0,0:0:0:0:
192,192,52605,1,0,0:0:0:0:
448,192,52671,1,0,0:0:0:0:
192,192,52738,1,0,0:0:0:0:
448,192,52805,1,0,0:0:0:0:
192,192,52871,1,0,0:0:0:0:
448,192,52938,1,0,0:0:0:0:
192,192,53005,1,2,0:0:0:0:
320,192,53005,1,0,0:0:0:0:
64,192,53105,1,0,0:0:0:0:
64,192,53205,1,0,0:0:0:0:
64,192,53305,1,0,0:0:0:0:
320,192,53405,1,0,0:0:0:0:
448,192,53455,1,0,0:0:0:0:
64,192,53505,1,2,0:0:0:0:
192,192,53505,1,0,0:0:0:0:
320,192,53605,1,0,0:0:0:0:
448,192,53655,1,0,0:0:0:0:
64,192,53705,1,2,0:0:0:0:
192,192,53705,1,0,0:0:0:0:
64,192,53805,1,8,0:0:0:0:
320,192,53805,1,0,0:0:0:0:
448,192,53905,1,0,0:0:0:0:
448,192,54005,1,0,0:0:0:0:
448,192,54105,1,0,0:0:0:0:
64,192,54205,1,0,0:0:0:0:
192,192,54255,1,0,0:0:0:0:
320,192,54305,1,0,0:0:0:0:
448,192,54405,1,0,0:0:0:0:
320,192,54455,1,0,0:0:0:0:
64,192,54505,1,2,0:0:0:0:
192,192,54505,1,0,0:0:0:0:
64,192,54605,1,2,0:0:0:0:
192,192,54605,1,0,0:0:0:0:
448,192,54805,1,0,0:0:0:0:
320,192,54830,1,0,0:0:0:0:
192,192,55005,1,0,0:0:0:0:
320,192,55030,1,0,0:0:0:0:
448,192,55205,1,0,0:0:0:0:
320,192,55230,1,0,0:0:0:0:
64,192,55405,1,8,0:0:0:0:
320,192,55405,1,0,0:0:0:0:
192,192,55605,1,0,0:0:0:0:
448,192,55630,1,0,0:0:0:0:
448,192,55805,1,0,0:0:0:0:
192,192,55855,1,0,0:0:0:0:
320,192,55905,1,0,0:0:0:0:
448,192,55955,1,0,0:0:0:0:
64,192,56005,1,0,0:0:0:0:
192,192,56055,1,0,0:0:0:0:
320,192,56105,1,0,0:0:0:0:
448,192,56155,1,0,0:0:0:0:
64,192,56205,1,2,0:0:0:0:
192,192,56205,1,0,0:0:0:0:
448,192,56305,1,0,0:0:0:0:
320,192,56330,1,0,0:0:0:0:
192,192,56405,1,0,0:0:0:0:
320,192,56430,1,0,0:0:0:0:
64,192,56505,1,2,0:0:0:0:
192,192,56505,1,0,0:0:0:0:
448,192,56605,1,0,0:0:0:0:
320,192,56630,1,0,0:0:0:0:
64,192,56705,1,2,0:0:0:0:
192,192,56705,1,0,0:0:0:0:
192,192,56805,1,0,0:0:0:0:
320,192,56830,1,0,0:0:0:0:
448,192,56855,1,0,0:0:0:0:
64,192,56905,1,2,0:0:0:0:
320,192,56955,1,2,0:0:0:0:
192,192,57005,1,8,0:0:0:0:
448,192,57005,1,0,0:0:0:0:
320,192,57105,1,0,0:0:0:0:
192,192,57130,1,0,0:0:0:0:
448,192,57205,1,0,0:0:0:0:
64,192,57230,1,0,0:0:0:0:
320,192,57405,1,2,0:0:0:0:
448,192,57405,128,0,57471:0:0:0:0:
64,192,57505,128,0,57771:0:0:0:0:
320,192,57605,128,0,57671:0:0:0:0:
192,192,57705,128,0,57771:0:0:0:0:
320,192,57805,1,2,0:0:0:0:
448,192,57805,128,0,58005:0:0:0:0:
64,192,58005,128,0,58205:0:0:0:0:
192,192,58205,1,0,0:0:0:0:
320,192,58205,128,0,58505:0:0:0:0:
192,192,58305,1,0,0:0:0:0:
192,192,58405,1,0,0:0:0:0:
192,192,58505,1,0,0:0:0:0:
64,192,58605,1,8,0:0:0:0:
448,192,58605,1,0,0:0:0:0:
320,192,58705,1,0,0:0:0:0:
320,192,58805,1,0,0:0:0:0:
320,192,58905,1,0,0:0:0:0:
192,192,59005,1,0,0:0:0:0:
448,192,59071,1,0,0:0:0:0:
192,192,59138,1,0,0:0:0:0:
448,192,59205,1,0,0:0:0:0:
192,192,59271,1,0,0:0:0:0:
448,192,59338,1,0,0:0:0:0:
192,192,59405,1,2,0:0:0:0:
320,192,59405,1,0,0:0:0:0:
64,192,59505,1,0,0:0:0:0:
64,192,59605,1,0,0:0:0:0:
64,192,59705,1,0,0:0:0:0:
320,192,59805,1,0,0:0:0:0:
448,192,59855,1,0,0:0:0:0:
64,192,59905,1,2,0:0:0:0:
192,192,59905,1,0,0:0:0:0:
320,192,60005,1,0,0:0:0:0:
448,192,60055,1,0,0:0:0:0:
64,192,60105,1,2,0:0:0:0:
192,192,60105,1,0,0:0:0:0:
64,192,60205,1,8,0:0:0:0:
320,192,60205,1,0,0:0:0:0:
448,192,60305,1,0,0:0:0:0:
448,192,60405,1,0,0:0:0:0:
448,192,60505,1,0,0:0:0:0:
64,192,60605,1,0,0:0:0:0:
192,192,60655,1,0,0:0:0:0:
320,192,60705,1,0,0:0:0:0:
448,192,60805,1,0,0:0:0:0:
320,192,60855,1,0,0:0:0:0:
64,192,60905,1,2,0:0:0:0:
192,192,60905,1,0,0:0:0:0:
64,192,61005,1,2,0:0:0:0:
192,192,61005,1,0,0:0:0:0:
448,192,61205,1,0,0:0:0:0:
320,192,61230,1,0,0:0:0:0:
192,192,61405,1,0,0:0:0:0:
320,192,61430,1,0,0:0:0:0:
448,192,61605,1,0,0:0:0:0:
320,192,61630,1,0,0:0:0:0:
64,192,61805,1,8,0:0:0:0:
320,192,61805,1,0,0:0:0:0:
192,192,62005,128,0,62055:0:0:0:0:
192,192,62105,128,0,62155:0:0:0:0:
320,192,62205,128,0,62305:0:0:0:0:
448,192,62255,128,0,62305:0:0:0:0:
64,192,62405,128,0,62505:0:0:0:0:
192,192,62455,128,0,62505:0:0:0:0:
320,192,62605,1,2,0:0:0:0:
448,192,62605,1,0,0:0:0:0:
192,192,62705,128,0,62855:0:0:0:0:
320,192,62905,1,2,0:0:0:0:
448,192,62905,1,0,0:0:0:0:
192,192,63005,128,0,63071:0:0:0:0:
320,192,63105,1,2,0:0:0:0:
448,192,63105,1,0,0:0:0:0:
192,192,63205,128,0,63271:0:0:0:0:
320,192,63305,1,0,0:0:0:0:
192,192,63355,1,0,0:0:0:0:
320,192,63405,1,8,0:0:0:0:
448,192,63405,1,0,0:0:0:0:
192,192,63505,1,0,0:0:0:0:
192,192,63605,1,0,0:0:0:0:
448,192,63705,1,0,0:0:0:0:
64,192,63755,1,0,0:0:0:0:
320,192,63805,1,2,0:0:0:0:
448,192,63805,1,0,0:0:0:0:
64,192,63905,1,0,0:0:0:0:
64,192,64005,1,0,0:0:0:0:
320,192,64105,1,0,0:0:0:0:
64,192,64205,1,4,0:0:0:0:
192,192,64205,1,2,0:0:0:0:
448,192,64205,128,0,64405:0:0:0:0:
64,192,64405,128,0,64605:0:0:0:0:
320,192,64605,1,0,0:0:0:0:
320,192,64705,1,0,0:0:0:0:
320,192,64805,1,0,0:0:0:0:
320,192,64905,1,0,0:0:0:0:
64,192,65005,1,8,0:0:0:0:
448,192,65005,1,0,0:0:0:0:
192,192,65105,1,0,0:0:0:0:
192,192,65205,1,0,0:0:0:0:
192,192,65305,1,0,0:0:0:0:
320,192,65405,1,0,0:0:0:0:
64,192,65471,1,0,0:0:0:0:
320,192,65538,1,0,0:0:0:0:
64,192,65605,1,0,0:0:0:0:
320,192,65671,1,0,0:0:0:0:
64,192,65738,1,0,0:0:0:0:
320,192,65805,1,2,0:0:0:0:
448,192,65805,1,0,0:0:0:0:
64,192,65905,1,0,0:0:0:0:
192,192,65955,1,0,0:0:0:0:
448,192,66005,128,0,66071:0:0:0:0:
64,192,66205,128,0,66271:0:0:0:0:
320,192,66305,1,2,0:0:0:0:
448,192,66305,1,0,0:0:0:0:
64,192,66405,1,0,0:0:0:0:
320,192,66505,1,2,0:0:0:0:
448,192,66505,1,0,0:0:0:0:
192,192,66605,1,8,0:0:0:0:
448,192,66605,1,0,0:0:0:0:
64,192,66705,1,0,0:0:0:0:
448,192,66805,1,0,0:0:0:0:
64,192,66905,1,0,0:0:0:0:
64,192,67005,1,0,0:0:0:0:
192,192,67055,1,0,0:0:0:0:
320,192,67105,1,0,0:0:0:0:
448,192,67205,1,0,0:0:0:0:
320,192,67255,1,0,0:0:0:0:
64,192,67305,1,2,0:0:0:0:
192,192,67305,1,0,0:0:0:0:
64,192,67405,1,2,0:0:0:0:
192,192,67405,1,0,0:0:0:0:
192,192,67605,1,0,0:0:0:0:
320,192,67630,1,0,0:0:0:0:
192,192,67805,1,0,0:0:0:0:
320,192,67830,1,0,0:0:0:0:
192,192,68005,1,0,0:0:0:0:
320,192,68030,1,0,0:0:0:0:
64,192,68205,1,8,0:0:0:0:
320,192,68205,1,0,0:0:0:0:
192,192,68405,1,0,0:0:0:0:
448,192,68430,1,0,0:0:0:0:
448,192,68605,1,0,0:0:0:0:
192,192,68655,1,0,0:0:0:0:
320,192,68705,1,0,0:0:0:0:
448,192,68755,1,0,0:0:0:0:
64,192,68805,1,0,0:0:0:0:
192,192,68855,1,0,0:0:0:0:
320,192,68905,1,0,0:0:0:0:
448,192,68955,1,0,0:0:0:0:
64,192,69005,1,2,0:0:0:0:
192,192,69005,1,0,0:0:0:0:
448,192,69105,1,0,0:0:0:0:
320,192,69130,1,0,0:0:0:0:
192,192,69205,1,0,0:0:0:0:
320,192,69230,1,0,0:0:0:0:
64,192,69305,1,2,0:0:0:0:
192,192,69305,1,0,0:0:0:0:
448,192,69405,1,0,0:0:0:0:
320,192,69430,1,0,0:0:0:0:
64,192,69505,1,2,0:0:0:0:
192,192,69505,1,0,0:0:0:0:
192,192,69605,1,0,0:0:0:0:
320,192,69630,1,0,0:0:0:0:
448,192,69655,1,0,0:0:0:0:
64,192,69705,1,2,0:0:0:0:
320,192,69755,1,2,0:0:0:0:
192,192,69805,1,8,0:0:0:0:
448,192,69805,1,0,0:0:0:0:
320,192,69905,1,0,0:0:0:0:
192,192,69930,1,0,0:0:0:0:
448,192,70005,1,0,0:0:0:0:
64,192,70030,1,0,0:0:0:0:
320,192,70205,1,2,0:0:0:0:
448,192,70205,128,0,70271:0:0:0:0:
64,192,70305,128,0,70505:0:0:0:0:
320,192,70405,128,0,70471:0:0:0:0:
192,192,70505,128,0,70571:0:0:0:0:
64,192,70605,1,4,0:0:0:0:
320,192,70605,1,2,0:0:0:0:
448,192,70605,128,0,70805:0:0:0:0:
64,192,70805,128,0,70905:0:0:0:0:
192,192,70905,1,8,0:0:0:0:
448,192,70905,1,0,0:0:0:0:
64,192,71005,1,0,0:0:0:0:
64,192,71105,1,0,0:0:0:0:
192,192,71205,1,8,0:0:0:0:
448,192,71205,1,0,0:0:0:0:
320,192,71305,1,0,0:0:0:0:
320,192,71405,1,0,0:0:0:0:
64,192,71505,1,8,0:0:0:0:
448,192,71505,1,0,0:0:0:0:
192,192,71605,1,2,0:0:0:0:
320,192,71605,1,0,0:0:0:0:
192,192,71705,1,0,0:0:0:0:
64,192,71805,1,8,0:0:0:0:
448,192,71805,1,0,0:0:0:0:
320,192,71905,1,0,0:0:0:0:
320,192,72005,1,0,0:0:0:0:
320,192,72105,1,0,0:0:0:0:
64,192,72205,1,2,0:0:0:0:
192,192,72205,1,4,0:0:0:0:
448,192,72205,128,0,72405:0:0:0:0:
64,192,72405,128,0,72505:0:0:0:0:
192,192,72505,1,8,0:0:0:0:
448,192,72505,1,0,0:0:0:0:
64,192,72605,1,0,0:0:0:0:
64,192,72705,1,0,0:0:0:0:
192,192,72805,1,8,0:0:0:0:
448,192,72805,1,0,0:0:0:0:
320,192,72905,1,0,0:0:0:0:
320,192,73005,1,0,0:0:0:0:
64,192,73105,1,8,0:0:0:0:
448,192,73105,1,0,0:0:0:0:
192,192,73205,1,2,0:0:0:0:
320,192,73205,1,0,0:0:0:0:
192,192,73305,1,0,0:0:0:0:
64,192,73405,1,8,0:0:0:0:
320,192,73405,1,0,0:0:0:0:
448,192,73505,1,0,0:0:0:0:
64,192,73605,1,8,0:0:0:0:
320,192,73605,1,0,0:0:0:0:
64,192,73705,1,8,0:0:0:0:
320,192,73705,1,0,0:0:0:0:
64,192,73805,1,2,0:0:0:0:
192,192,73805,1,0,0:0:0:0:
448,192,73905,128,0,74005:0:0:0:0:
320,192,74005,128,0,74105:0:0:0:0:
192,192,74105,128,0,74205:0:0:0:0:
192,192,74405,1,0,0:0:0:0:
320,192,74505,1,0,0:0:0:0:
448,192,74605,1,0,0:0:0:0:
192,192,74705,1,0,0:0:0:0:
64,192,74805,1,0,0:0:0:0:
448,192,74905,1,0,0:0:0:0:
320,192,75005,1,0,0:0:0:0:
192,192,75105,1,0,0:0:0:0:
64,192,75205,1,0,0:0:0:0:
320,192,75305,1,0,0:0:0:0:
64,192,75405,1,8,0:0:0:0:
448,192,75405,1,0,0:0:0:0:
192,192,75455,1,2,0:0:0:0:
320,192,75505,1,2,0:0:0:0:
192,192,75555,1,2,0:0:0:0:
64,192,75605,1,8,0:0:0:0:
448,192,75605,1,0,0:0:0:0:
320,192,75705,1,2,0:0:0:0:
192,192,75755,1,2,0:0:0:0:
320,192,75805,1,2,0:0:0:0:
192,192,75855,1,2,0:0:0:0:
64,192,75905,1,8,0:0:0:0:
448,192,75905,1,0,0:0:0:0:
192,192,76005,1,2,0:0:0:0:
320,192,76055,1,2,0:0:0:0:
192,192,76105,1,2,0:0:0:0:
320,192,76155,1,2,0:0:0:0:
64,192,76205,1,8,0:0:0:0:
448,192,76205,1,0,0:0:0:0:
320,192,76305,1,2,0:0:0:0:
192,192,76355,1,2,0:0:0:0:
320,192,76405,1,2,0:0:0:0:
192,192,76455,1,2,0:0:0:0:
64,192,76505,1,8,0:0:0:0:
448,192,76505,1,0,0:0:0:0:
192,192,76605,1,2,0:0:0:0:
320,192,76655,1,2,0:0:0:0:
192,192,76705,1,2,0:0:0:0:
320,192,76755,1,2,0:0:0:0:
320,192,77005,1,2,0:0:0:0:
448,192,77005,1,0,0:0:0:0:
64,192,77105,1,0,0:0:0:0:
192,192,77155,1,0,0:0:0:0:
448,192,77205,1,0,0:0:0:0:
64,192,77255,1,0,0:0:0:0:
320,192,77305,1,0,0:0:0:0:
448,192,77355,1,0,0:0:0:0:
192,192,77405,1,0,0:0:0:0:
64,192,77455,1,0,0:0:0:0:
320,192,77505,1,0,0:0:0:0:
192,192,77555,1,0,0:0:0:0:
64,192,77605,1,0,0:0:0:0:
448,192,77655,1,0,0:0:0:0:
320,192,77705,1,0,0:0:0:0:
192,192,77755,1,0,0:0:0:0:
64,192,77805,1,2,0:0:0:0:
320,192,77805,1,4,0:0:0:0:
448,192,77805,1,0,0:0:0:0:
192,192,77905,1,0,0:0:0:0:
192,192,78005,1,0,0:0:0:0:
320,192,78105,1,0,0:0:0:0:
320,192,78205,1,0,0:0:0:0:
192,192,78305,1,0,0:0:0:0:
192,192,78405,1,0,0:0:0:0:
320,192,78505,1,0,0:0:0:0:
320,192,78605,1,2,0:0:0:0:
448,192,78605,1,0,0:0:0:0:
192,192,78705,1,0,0:0:0:0:
192,192,78805,1,0,0:0:0:0:
448,192,78905,1,0,0:0:0:0:
448,192,79005,1,0,0:0:0:0:
64,192,79105,1,2,0:0:0:0:
192,192,79105,1,0,0:0:0:0:
192,192,79205,1,0,0:0:0:0:
320,192,79305,1,2,0:0:0:0:
448,192,79305,1,0,0:0:0:0:
64,192,79405,1,8,0:0:0:0:
448,192,79405,1,0,0:0:0:0:
64,192,79505,1,0,0:0:0:0:
448,192,79605,1,0,0:0:0:0:
448,192,79705,1,0,0:0:0:0:
64,192,79805,1,0,0:0:0:0:
64,192,79905,1,0,0:0:0:0:
448,192,80005,1,0,0:0:0:0:
64,192,80105,1,2,0:0:0:0:
192,192,80105,1,0,0:0:0:0:
64,192,80205,1,2,0:0:0:0:
192,192,80205,1,0,0:0:0:0:
448,192,80305,1,0,0:0:0:0:
64,192,80355,1,0,0:0:0:0:
448,192,80405,1,0,0:0:0:0:
320,192,80505,1,0,0:0:0:0:
320,192,80605,1,0,0:0:0:0:
192,192,80705,1,0,0:0:0:0:
192,192,80805,1,0,0:0:0:0:
320,192,80905,1,0,0:0:0:0:
192,192,81005,1,8,0:0:0:0:
448,192,81005,1,0,0:0:0:0:
64,192,81105,1,0,0:0:0:0:
192,192,81130,1,0,0:0:0:0:
320,192,81155,1,0,0:0:0:0:
448,192,81405,128,0,81471:0:0:0:0:
320,192,81505,1,0,0:0:0:0:
192,192,81530,1,0,0:0:0:0:
64,192,81555,1,0,0:0:0:0:
320,192,81805,1,2,0:0:0:0:
448,192,81805,1,0,0:0:0:0:
64,192,81905,1,0,0:0:0:0:
192,192,81930,1,0,0:0:0:0:
320,192,81955,1,0,0:0:0:0:
320,192,82105,1,2,0:0:0:0:
448,192,82105,1,0,0:0:0:0:
64,192,82205,128,0,82271:0:0:0:0:
320,192,82305,1,2,0:0:0:0:
448,192,82305,1,0,0:0:0:0:
192,192,82405,1,0,0:0:0:0:
64,192,82430,1,0,0:0:0:0:
320,192,82505,1,2,0:0:0:0:
192,192,82555,1,2,0:0:0:0:
64,192,82605,1,8,0:0:0:0:
448,192,82605,1,0,0:0:0:0:
448,192,82805,1,0,0:0:0:0:
64,192,82871,1,0,0:0:0:0:
320,192,83005,1,2,0:0:0:0:
448,192,83005,1,0,0:0:0:0:
64,192,83105,1,0,0:0:0:0:
192,192,83130,1,0,0:0:0:0:
320,192,83155,1,0,0:0:0:0:
320,192,83405,1,2,0:0:0:0:
448,192,83405,1,0,0:0:0:0:
64,192,83505,1,0,0:0:0:0:
192,192,83555,1,0,0:0:0:0:
448,192,83605,1,0,0:0:0:0:
64,192,83655,1,0,0:0:0:0:
320,192,83705,1,0,0:0:0:0:
448,192,83755,1,0,0:0:0:0:
192,192,83805,1,0,0:0:0:0:
64,192,83855,1,0,0:0:0:0:
320,192,83905,1,0,0:0:0:0:
192,192,83955,1,0,0:0:0:0:
64,192,84005,1,0,0:0:0:0:
448,192,84055,1,0,0:0:0:0:
320,192,84105,1,0,0:0:0:0:
192,192,84155,1,0,0:0:0:0:
64,192,84205,1,8,0:0:0:0:
448,192,84205,1,0,0:0:0:0:
192,192,84305,1,0,0:0:0:0:
192,192,84405,1,0,0:0:0:0:
320,192,84505,1,0,0:0:0:0:
320,192,84605,1,0,0:0:0:0:
192,192,84705,1,0,0:0:0:0:
192,192,84805,1,0,0:0:0:0:
320,192,84905,1,0,0:0:0:0:
320,192,85005,1,2,0:0:0:0:
448,192,85005,1,0,0:0:0:0:
192,192,85105,1,0,0:0:0:0:
192,192,85205,1,0,0:0:0:0:
448,192,85305,1,0,0:0:0:0:
448,192,85405,1,0,0:0:0:0:
64,192,85505,1,2,0:0:0:0:
192,192,85505,1,0,0:0:0:0:
192,192,85605,1,0,0:0:0:0:
320,192,85705,1,2,0:0:0:0:
448,192,85705,1,0,0:0:0:0:
192,192,85805,1,8,0:0:0:0:
448,192,85805,1,0,0:0:0:0:
448,192,86005,1,0,0:0:0:0:
64,192,86055,1,0,0:0:0:0:
448,192,86105,1,0,0:0:0:0:
64,192,86155,1,0,0:0:0:0:
320,192,86205,1,0,0:0:0:0:
320,192,86305,1,0,0:0:0:0:
192,192,86405,1,0,0:0:0:0:
192,192,86505,1,0,0:0:0:0:
64,192,86605,1,2,0:0:0:0:
320,192,86605,1,4,0:0:0:0:
448,192,86605,1,0,0:0:0:0:
64,192,86805,1,0,0:0:0:0:
192,192,87005,1,0,0:0:0:0:
448,192,87005,128,0,87071:0:0:0:0:
64,192,87038,1,0,0:0:0:0:
320,192,87205,1,0,0:0:0:0:
64,192,87238,1,0,0:0:0:0:
448,192,87305,1,0,0:0:0:0:
192,192,87338,1,0,0:0:0:0:
64,192,87405,1,8,0:0:0:0:
320,192,87405,1,0,0:0:0:0:
192,192,87605,1,0,0:0:0:0:
448,192,87638,1,0,0:0:0:0:
64,192,87705,1,0,0:0:0:0:
320,192,87738,1,0,0:0:0:0:
64,192,87805,128,0,87871:0:0:0:0:
192,192,87838,1,0,0:0:0:0:
320,192,87905,1,0,0:0:0:0:
448,192,87938,1,0,0:0:0:0:
192,192,88005,1,0,0:0:0:0:
320,192,88038,1,0,0:0:0:0:
64,192,88105,1,0,0:0:0:0:
448,192,88138,1,0,0:0:0:0:
64,192,88205,1,2,0:0:0:0:
192,192,88205,1,0,0:0:0:0:
448,192,88305,128,0,88405:0:0:0:0:
320,192,88405,128,0,88505:0:0:0:0:
64,192,88505,1,2,0:0:0:0:
192,192,88505,1,0,0:0:0:0:
192,192,88605,1,0,0:0:0:0:
448,192,88605,128,0,88671:0:0:0:0:
64,192,88638,1,0,0:0:0:0:
320,192,88705,1,2,0:0:0:0:
320,192,88805,1,0,0:0:0:0:
64,192,88838,1,0,0:0:0:0:
192,192,88905,1,2,0:0:0:0:
320,192,88955,1,2,0:0:0:0:
64,192,89005,1,8,0:0:0:0:
448,192,89005,1,0,0:0:0:0:
192,192,89105,1,0,0:0:0:0:
448,192,89138,1,0,0:0:0:0:
64,192,89205,1,0,0:0:0:0:
320,192,89238,1,0,0:0:0:0:
64,192,89305,1,0,0:0:0:0:
192,192,89338,1,0,0:0:0:0:
320,192,89405,1,2,0:0:0:0:
448,192,89405,1,0,0:0:0:0:
448,192,89505,128,0,89805:0:0:0:0:
64,192,89805,1,2,0:0:0:0:
192,192,89805,1,0,0:0:0:0:
448,192,89905,1,0,0:0:0:0:
64,192,89955,1,0,0:0:0:0:
192,192,90005,1,0,0:0:0:0:
448,192,90055,1,0,0:0:0:0:
320,192,90105,1,0,0:0:0:0:
192,192,90155,1,0,0:0:0:0:
448,192,90205,1,0,0:0:0:0:
448,192,90305,1,0,0:0:0:0:
192,192,90405,1,0,0:0:0:0:
192,192,90505,1,0,0:0:0:0:
64,192,90605,1,8,0:0:0:0:
320,192,90605,1,4,0:0:0:0:
448,192,90605,1,0,0:0:0:0:
192,192,90705,1,0,0:0:0:0:
192,192,90805,1,0,0:0:0:0:
320,192,90905,1,2,0:0:0:0:
448,192,90905,1,0,0:0:0:0:
192,192,91005,1,0,0:0:0:0:
192,192,91105,1,0,0:0:0:0:
64,192,91205,1,8,0:0:0:0:
320,192,91205,1,0,0:0:0:0:
320,192,91305,1,0,0:0:0:0:
192,192,91405,1,0,0:0:0:0:
64,192,91505,1,2,0:0:0:0:
192,192,91505,1,0,0:0:0:0:
448,192,91605,1,0,0:0:0:0:
448,192,91705,1,0,0:0:0:0:
64,192,91805,1,8,0:0:0:0:
320,192,91805,1,0,0:0:0:0:
192,192,91905,1,0,0:0:0:0:
192,192,92005,1,0,0:0:0:0:
320,192,92105,1,2,0:0:0:0:
448,192,92105,1,0,0:0:0:0:
64,192,92205,1,0,0:0:0:0:
64,192,92305,1,0,0:0:0:0:
192,192,92405,1,8,0:0:0:0:
448,192,92405,1,0,0:0:0:0:
448,192,92505,1,0,0:0:0:0:
64,192,92605,1,0,0:0:0:0:
64,192,92705,1,2,0:0:0:0:
192,192,92705,1,0,0:0:0:0:
448,192,92805,1,0,0:0:0:0:
448,192,92905,1,0,0:0:0:0:
64,192,93005,1,2,0:0:0:0:
192,192,93005,1,0,0:0:0:0:
448,192,93105,1,0,0:0:0:0:
64,192,93155,1,0,0:0:0:0:
448,192,93205,1,0,0:0:0:0:
320,192,93305,1,0,0:0:0:0:
320,192,93405,1,0,0:0:0:0:
192,192,93505,1,0,0:0:0:0:
192,192,93605,1,0,0:0:0:0:
320,192,93705,1,0,0:0:0:0:
192,192,93805,1,8,0:0:0:0:
448,192,93805,1,4,0:0:0:0:
64,192,93905,1,0,0:0:0:0:
192,192,93930,1,0,0:0:0:0:
320,192,93955,1,0,0:0:0:0:
448,192,94205,128,0,94271:0:0:0:0:
320,192,94305,1,0,0:0:0:0:
192,192,94330,1,0,0:0:0:0:
64,192,94355,1,0,0:0:0:0:
320,192,94605,1,2,0:0:0:0:
448,192,94605,1,0,0:0:0:0:
64,192,94705,1,0,0:0:0:0:
192,192,94730,1,0,0:0:0:0:
320,192,94755,1,0,0:0:0:0:
320,192,94905,1,2,0:0:0:0:
448,192,94905,1,0,0:0:0:0:
64,192,95005,128,0,95071:0:0:0:0:
320,192,95105,1,2,0:0:0:0:
448,192,95105,1,0,0:0:0:0:
192,192,95205,1,0,0:0:0:0:
64,192,95230,1,0,0:0:0:0:
320,192,95305,1,2,0:0:0:0:
192,192,95355,1,2,0:0:0:0:
64,192,95405,1,8,0:0:0:0:
448,192,95405,1,0,0:0:0:0:
448,192,95605,1,0,0:0:0:0:
64,192,95671,1,0,0:0:0:0:
320,192,95805,1,2,0:0:0:0:
448,192,95805,1,0,0:0:0:0:
64,192,95905,1,0,0:0:0:0:
192,192,95930,1,0,0:0:0:0:
320,192,95955,1,0,0:0:0:0:
320,192,96205,1,2,0:0:0:0:
448,192,96205,1,0,0:0:0:0:
64,192,96305,1,0,0:0:0:0:
192,192,96355,1,0,0:0:0:0:
448,192,96405,1,0,0:0:0:0:
64,192,96455,1,0,0:0:0:0:
320,192,96505,1,0,0:0:0:0:
448,192,96555,1,0,0:0:0:0:
192,192,96605,1,0,0:0:0:0:
64,192,96655,1,0,0:0:0:0:
320,192,96705,1,0,0:0:0:0:
192,192,96755,1,0,0:0:0:0:
64,192,96805,1,0,0:0:0:0:
448,192,96855,1,0,0:0:0:0:
320,192,96905,1,0,0:0:0:0:
192,192,96955,1,0,0:0:0:0:
64,192,97005,1,0,0:0:0:60:softdrum.wav
448,192,97005,1,0,0:0:0:0:
64,192,97205,1,0,0:0:0:60:softdrum.wav
64,192,97305,1,0,0:0:0:60:softdrum.wav
64,192,97505,1,0,0:0:0:60:softdrum.wav
64,192,97605,1,0,0:0:0:60:softdrum.wav
448,192,97805,1,0,0:0:0:60:softdrum.wav
448,192,98005,1,0,0:0:0:60:softdrum.wav
448,192,98105,1,0,0:0:0:60:softdrum.wav
448,192,98305,1,0,0:0:0:60:softdrum.wav
448,192,98405,1,0,0:0:0:60:softdrum.wav
64,192,98605,1,0,0:0:0:60:softdrum.wav
64,192,98805,1,0,0:0:0:60:softdrum.wav
64,192,98905,1,0,0:0:0:60:softdrum.wav
64,192,99105,1,0,0:0:0:60:softdrum.wav
64,192,99205,1,0,0:0:0:60:softdrum.wav
448,192,99405,1,0,0:0:0:70:softdrum.wav
448,192,99505,1,0,0:0:0:70:softdrum.wav
64,192,99605,1,0,0:0:0:70:softdrum.wav
64,192,99705,1,0,0:0:0:70:softdrum.wav
448,192,99805,1,0,0:0:0:75:softdrum.wav
448,192,99905,1,0,0:0:0:75:softdrum.wav
64,192,100005,1,0,0:0:0:75:softdrum.wav
64,192,100105,1,0,0:0:0:75:softdrum.wav
448,192,100205,1,0,0:0:0:80:softdrum.wav
448,192,100305,1,0,0:0:0:80:softdrum.wav
64,192,100405,1,0,0:0:0:80:softdrum.wav
64,192,100505,1,0,0:0:0:80:softdrum.wav
448,192,100605,1,0,0:0:0:85:softdrum.wav
448,192,100705,1,0,0:0:0:85:softdrum.wav
64,192,100805,1,0,0:0:0:85:softdrum.wav
64,192,100905,1,0,0:0:0:85:softdrum.wav
448,192,101005,1,0,0:0:0:95:softdrum.wav
320,192,101055,1,0,0:0:0:95:softdrum.wav
64,192,101105,1,0,0:0:0:95:softdrum.wav
192,192,101155,1,0,0:0:0:95:softdrum.wav
448,192,101205,1,0,0:0:0:95:softdrum.wav
320,192,101255,1,0,0:0:0:95:softdrum.wav
64,192,101305,1,0,0:0:0:95:softdrum.wav
192,192,101355,1,0,0:0:0:95:softdrum.wav
448,192,101405,1,0,0:0:0:95:softdrum.wav
320,192,101455,1,0,0:0:0:95:softdrum.wav
64,192,101505,1,0,0:0:0:95:softdrum.wav
192,192,101555,1,0,0:0:0:95:softdrum.wav
448,192,101605,1,0,0:0:0:95:softdrum.wav
320,192,101655,1,0,0:0:0:95:softdrum.wav
64,192,101705,1,0,0:0:0:95:softdrum.wav
192,192,101755,1,0,0:0:0:95:softdrum.wav
320,192,101805,1,2,0:0:0:0:
448,192,101805,1,0,0:0:0:0:
64,192,102605,1,4,0:0:0:0:
320,192,102605,1,2,0:0:0:0:
448,192,102605,1,0,0:0:0:0:
448,192,104155,1,0,0:0:0:0:
320,192,104205,1,0,0:0:0:0:
320,192,104480,1,0,0:0:0:0:
192,192,104505,1,0,0:0:0:0:
192,192,104805,1,0,0:0:0:0:
64,192,105205,1,0,0:0:0:0:
448,192,105405,1,0,0:0:0:0:
64,192,105805,128,0,105871:0:0:0:0:
320,192,105805,1,0,0:0:0:0:
192,192,106205,128,0,106271:0:0:0:0:
448,192,106205,128,0,106271:0:0:0:0:
320,192,107305,1,0,0:0:0:0:
192,192,107355,1,0,0:0:0:0:
64,192,107405,1,0,0:0:0:0:
448,192,107705,1,0,0:0:0:0:
320,192,108005,1,0,0:0:0:0:
64,192,108405,1,0,0:0:0:0:
192,192,108605,1,0,0:0:0:0:
320,192,108805,1,0,0:0:0:0:
64,192,109005,128,0,109071:0:0:0:0:
192,192,109005,1,0,0:0:0:0:
64,192,109405,128,0,109471:0:0:0:0:
448,192,109405,128,0,109471:0:0:0:0:
448,192,110405,1,0,0:0:0:0:
320,192,110471,1,0,0:0:0:0:
192,192,110538,1,0,0:0:0:0:
64,192,110605,1,0,0:0:0:0:
192,192,110905,1,0,0:0:0:0:
64,192,111205,1,0,0:0:0:0:
320,192,111605,1,0,0:0:0:0:
448,192,111805,1,0,0:0:0:0:
192,192,112205,128,0,112271:0:0:0:0:
192,192,112605,128,0,112671:0:0:0:0:
320,192,112605,128,0,112671:0:0:0:0:
192,192,112805,1,0,0:0:0:0:
320,192,113005,1,0,0:0:0:0:
192,192,113305,1,0,0:0:0:0:
64,192,113605,1,0,0:0:0:0:
320,192,113805,128,0,113871:0:0:0:0:
320,192,114205,128,0,114271:0:0:0:0:
448,192,114205,128,0,114271:0:0:0:0:
64,192,114405,1,0,0:0:0:0:
448,192,114605,1,0,0:0:0:0:
64,192,114905,1,0,0:0:0:0:
448,192,115205,1,0,0:0:0:0:
64,192,115405,128,0,115471:0:0:0:0:
320,192,115405,1,0,0:0:0:0:
64,192,115805,128,0,115871:0:0:0:0:
192,192,115805,128,0,115871:0:0:0:0:
64,192,116905,1,0,0:0:0:0:
448,192,116955,1,0,0:0:0:0:
320,192,117005,1,0,0:0:0:0:
320,192,117280,1,0,0:0:0:0:
192,192,117305,1,0,0:0:0:0:
192,192,117605,1,0,0:0:0:0:
64,192,118005,1,0,0:0:0:0:
448,192,118205,1,0,0:0:0:0:
192,192,118605,128,0,118671:0:0:0:0:
320,192,118605,1,0,0:0:0:0:
192,192,119005,128,0,119071:0:0:0:0:
448,192,119005,128,0,119071:0:0:0:0:
448,192,120005,1,0,0:0:0:0:
320,192,120105,1,0,0:0:0:0:
192,192,120155,1,0,0:0:0:0:
64,192,120205,1,0,0:0:0:0:
448,192,120505,1,0,0:0:0:0:
320,192,120805,1,0,0:0:0:0:
64,192,121205,1,0,0:0:0:0:
192,192,121405,1,0,0:0:0:0:
320,192,121605,1,0,0:0:0:0:
64,192,121805,128,0,121871:0:0:0:0:
192,192,121805,1,0,0:0:0:0:
64,192,122205,128,0,122271:0:0:0:0:
448,192,122205,128,0,122271:0:0:0:0:
448,192,123205,1,0,0:0:0:0:
320,192,123271,1,0,0:0:0:0:
192,192,123338,1,0,0:0:0:0:
64,192,123405,1,0,0:0:0:0:
192,192,123705,1,0,0:0:0:0:
64,192,124005,1,0,0:0:0:0:
320,192,124405,1,0,0:0:0:0:
448,192,124605,1,0,0:0:0:0:
192,192,125005,128,0,125071:0:0:0:0:
448,192,125005,1,0,0:0:0:0:
192,192,125405,128,0,125471:0:0:0:0:
320,192,125405,128,0,125471:0:0:0:0:
64,192,126205,1,0,0:0:0:0:
64,192,126605,128,0,126671:0:0:0:0:
192,192,126605,1,0,0:0:0:0:
320,192,127005,128,0,127071:0:0:0:0:
448,192,127005,128,0,127071:0:0:0:0:
320,192,127405,1,0,0:0:0:0:
64,192,128205,1,4,0:0:0:0:
320,192,128205,1,2,0:0:0:0:
448,192,128205,1,0,0:0:0:0:
448,192,128605,1,0,0:0:0:0:
64,192,128855,1,0,0:0:0:0:
192,192,128905,1,0,0:0:0:0:
448,192,129305,1,0,0:0:0:0:
192,192,129605,1,0,0:0:0:0:
320,192,129805,1,0,0:0:0:0:
448,192,130105,1,0,0:0:0:0:
192,192,130305,1,0,0:0:0:0:
192,192,130505,1,0,0:0:0:0:
320,192,130605,1,0,0:0:0:0:
192,192,130655,1,0,0:0:0:0:
320,192,130705,1,0,0:0:0:0:
192,192,130805,1,0,0:0:0:0:
192,192,131005,1,0,0:0:0:0:
448,192,131805,1,0,0:0:0:0:
64,192,131938,1,0,0:0:0:0:
192,192,132105,1,0,0:0:0:0:
320,192,132205,1,0,0:0:0:0:
448,192,132505,1,0,0:0:0:0:
192,192,132805,1,0,0:0:0:0:
64,192,133005,1,0,0:0:0:0:
192,192,133305,1,0,0:0:0:0:
448,192,133605,1,0,0:0:0:0:
448,192,133905,1,0,0:0:0:0:
320,192,134205,1,0,0:0:0:0:
64,192,134605,1,4,0:0:0:0:
320,192,134605,1,2,0:0:0:0:
448,192,134605,1,0,0:0:0:0:
448,192,135005,1,0,0:0:0:0:
64,192,135305,1,0,0:0:0:0:
448,192,135705,1,0,0:0:0:0:
192,192,136005,1,0,0:0:0:0:
320,192,136205,1,0,0:0:0:0:
448,192,136505,1,0,0:0:0:0:
192,192,136705,1,0,0:0:0:0:
192,192,136905,1,0,0:0:0:0:
320,192,137005,1,0,0:0:0:0:
192,192,137055,1,0,0:0:0:0:
320,192,137105,1,0,0:0:0:0:
192,192,137205,1,0,0:0:0:0:
192,192,137405,1,0,0:0:0:0:
448,192,138205,1,0,0:0:0:0:
320,192,138538,1,0,0:0:0:0:
192,192,138738,1,0,0:0:0:0:
448,192,138905,1,0,0:0:0:0:
192,192,139205,1,0,0:0:0:0:
320,192,139405,1,0,0:0:0:0:
192,192,139605,1,0,0:0:0:0:
448,192,139605,1,0,0:0:0:0:
64,192,139905,1,0,0:0:0:0:
320,192,140005,1,0,0:0:0:0:
192,192,140055,1,0,0:0:0:0:
320,192,140105,1,0,0:0:0:0:
192,192,140155,1,0,0:0:0:0:
320,192,140205,1,0,0:0:0:0:
192,192,140305,1,0,0:0:0:0:
192,192,140405,1,0,0:0:0:0:
448,192,140505,1,0,0:0:0:0:
64,192,140555,1,0,0:0:0:0:
448,192,140605,1,0,0:0:0:0:
64,192,140705,1,0,0:0:0:0:
64,192,140805,1,0,0:0:0:0:
64,192,141005,1,4,0:0:0:0:
192,192,141005,1,0,0:0:0:50:softdrum.wav
448,192,141005,1,0,0:0:0:0:
448,192,141405,1,0,0:0:0:50:softdrum.wav
448,192,141805,1,0,0:0:0:50:softdrum.wav
448,192,142205,1,0,0:0:0:50:softdrum.wav
448,192,142605,1,0,0:0:0:50:softdrum.wav
448,192,143005,1,0,0:0:0:50:softdrum.wav
448,192,143405,1,0,0:0:0:50:softdrum.wav
448,192,143805,1,0,0:0:0:50:softdrum.wav
448,192,144005,1,0,0:0:0:50:softdrum.wav
64,192,144105,1,0,0:0:0:50:softdrum.wav
448,192,144155,1,0,0:0:0:50:softdrum.wav
64,192,144205,1,0,0:0:0:60:softdrum.wav
64,192,144605,1,0,0:0:0:60:softdrum.wav
64,192,145005,1,0,0:0:0:60:softdrum.wav
64,192,145405,1,0,0:0:0:60:softdrum.wav
64,192,145805,1,0,0:0:0:60:softdrum.wav
64,192,146205,1,0,0:0:0:60:softdrum.wav
64,192,146605,1,0,0:0:0:60:softdrum.wav
64,192,147005,1,0,0:0:0:60:softdrum.wav
64,192,147205,1,0,0:0:0:60:softdrum.wav
448,192,147305,1,0,0:0:0:60:softdrum.wav
64,192,147355,1,0,0:0:0:60:softdrum.wav
192,192,147405,1,0,0:0:0:75:softdrum.wav
448,192,147405,1,0,0:0:0:0:
192,192,147805,1,0,0:0:0:75:softdrum.wav
448,192,147805,1,0,0:0:0:0:
192,192,148205,1,0,0:0:0:75:softdrum.wav
448,192,148205,1,0,0:0:0:0:
192,192,148605,1,0,0:0:0:75:softdrum.wav
448,192,148605,1,0,0:0:0:0:
192,192,149005,1,0,0:0:0:75:softdrum.wav
448,192,149005,1,0,0:0:0:0:
192,192,149405,1,0,0:0:0:75:softdrum.wav
448,192,149405,1,0,0:0:0:0:
192,192,149805,1,0,0:0:0:75:softdrum.wav
448,192,149805,1,0,0:0:0:0:
192,192,150205,1,0,0:0:0:75:softdrum.wav
448,192,150205,1,0,0:0:0:0:
192,192,150405,1,0,0:0:0:75:softdrum.wav
448,192,150405,1,0,0:0:0:0:
64,192,150505,1,0,0:0:0:75:softdrum.wav
448,192,150555,1,0,0:0:0:75:softdrum.wav
64,192,150605,1,0,0:0:0:90:softdrum.wav
320,192,150605,1,0,0:0:0:0:
64,192,151005,1,0,0:0:0:90:softdrum.wav
320,192,151005,1,0,0:0:0:0:
64,192,151405,1,0,0:0:0:90:softdrum.wav
320,192,151405,1,0,0:0:0:0:
64,192,151805,1,0,0:0:0:90:softdrum.wav
320,192,151805,1,0,0:0:0:0:
64,192,152205,1,0,0:0:0:90:softdrum.wav
320,192,152205,1,0,0:0:0:0:
64,192,152605,1,0,0:0:0:90:softdrum.wav
320,192,152605,1,0,0:0:0:0:
64,192,153005,1,0,0:0:0:90:softdrum.wav
320,192,153005,1,0,0:0:0:0:
64,192,153405,1,0,0:0:0:90:softdrum.wav
320,192,153405,1,0,0:0:0:0:
64,192,153605,1,0,0:0:0:90:softdrum.wav
320,192,153605,1,0,0:0:0:0:
320,192,153705,1,0,0:0:0:90:softdrum.wav
64,192,153805,1,4,0:0:0:0:
192,192,153805,1,2,0:0:0:0:
448,192,153805,1,0,0:0:0:0:
448,192,154005,1,0,0:0:0:0:
64,192,154205,1,2,0:0:0:0:
192,192,154205,1,0,0:0:0:0:
448,192,154405,1,0,0:0:0:0:
64,192,154605,1,2,0:0:0:0:
192,192,154605,1,0,0:0:0:0:
448,192,154805,1,0,0:0:0:0:
64,192,155005,1,2,0:0:0:0:
192,192,155005,1,0,0:0:0:0:
448,192,155205,1,0,0:0:0:0:
64,192,155405,1,2,0:0:0:0:
320,192,155405,1,0,0:0:0:0:
448,192,155405,1,0,0:0:0:0:
64,192,155605,1,0,0:0:0:0:
320,192,155805,1,2,0:0:0:0:
448,192,155805,1,0,0:0:0:0:
64,192,156005,1,0,0:0:0:0:
320,192,156205,1,2,0:0:0:0:
448,192,156205,1,0,0:0:0:0:
64,192,156405,1,0,0:0:0:0:
320,192,156605,1,2,0:0:0:0:
448,192,156605,1,0,0:0:0:0:
320,192,156805,1,2,0:0:0:0:
448,192,156805,1,0,0:0:0:0:
192,192,156905,1,2,0:0:0:0:
320,192,156955,1,2,0:0:0:0:
64,192,157005,1,2,0:0:0:0:
192,192,157005,1,0,0:0:0:0:
448,192,157005,1,0,0:0:0:0:
448,192,157205,1,0,0:0:0:0:
64,192,157405,1,2,0:0:0:0:
192,192,157405,1,0,0:0:0:0:
448,192,157605,1,0,0:0:0:0:
64,192,157805,1,2,0:0:0:0:
192,192,157805,1,0,0:0:0:0:
448,192,158005,1,0,0:0:0:0:
64,192,158205,1,2,0:0:0:0:
192,192,158205,1,0,0:0:0:0:
448,192,158405,1,0,0:0:0:0:
64,192,158605,1,2,0:0:0:0:
320,192,158605,1,0,0:0:0:0:
448,192,158605,1,0,0:0:0:0:
64,192,158805,1,0,0:0:0:0:
320,192,159005,1,2,0:0:0:0:
448,192,159005,1,0,0:0:0:0:
64,192,159205,1,0,0:0:0:0:
320,192,159405,1,2,0:0:0:0:
448,192,159405,1,0,0:0:0:0:
320,192,159605,1,2,0:0:0:0:
448,192,159605,1,0,0:0:0:0:
192,192,159705,1,2,0:0:0:0:
320,192,159755,1,2,0:0:0:0:
192,192,159805,1,8,0:0:0:0:
448,192,159805,1,0,0:0:0:0:
320,192,159905,1,2,0:0:0:0:
448,192,159905,1,0,0:0:0:0:
64,192,160005,1,0,0:0:0:0:
64,192,160205,1,8,0:0:0:0:
320,192,160205,1,4,0:0:0:0:
448,192,160205,1,0,0:0:0:0:
64,192,160405,1,2,0:0:0:0:
192,192,160405,1,0,0:0:0:0:
64,192,160605,1,8,0:0:0:0:
320,192,160605,1,0,0:0:0:0:
448,192,160605,1,0,0:0:0:0:
64,192,160805,1,2,0:0:0:0:
192,192,160805,1,0,0:0:0:0:
64,192,161005,1,8,0:0:0:0:
320,192,161005,1,0,0:0:0:0:
448,192,161005,1,0,0:0:0:0:
64,192,161205,1,2,0:0:0:0:
192,192,161205,1,0,0:0:0:0:
64,192,161405,1,8,0:0:0:0:
320,192,161405,1,0,0:0:0:0:
320,192,161605,1,2,0:0:0:0:
448,192,161605,1,0,0:0:0:0:
192,192,161705,1,2,0:0:0:0:
320,192,161755,1,2,0:0:0:0:
64,192,161805,1,8,0:0:0:0:
192,192,161805,1,0,0:0:0:0:
448,192,161805,1,0,0:0:0:0:
320,192,162005,1,2,0:0:0:0:
448,192,162005,1,0,0:0:0:0:
64,192,162205,1,8,0:0:0:0:
192,192,162205,1,0,0:0:0:0:
448,192,162205,1,0,0:0:0:0:
320,192,162405,1,2,0:0:0:0:
448,192,162405,1,0,0:0:0:0:
64,192,162605,1,8,0:0:0:0:
192,192,162605,1,0,0:0:0:0:
448,192,162605,1,0,0:0:0:0:
320,192,162805,1,2,0:0:0:0:
448,192,162805,1,0,0:0:0:0:
64,192,163005,1,8,0:0:0:0:
192,192,163005,1,0,0:0:0:0:
448,192,163005,1,0,0:0:0:0:
64,192,163205,1,2,0:0:0:0:
192,192,163205,1,0,0:0:0:0:
320,192,163305,1,2,0:0:0:0:
448,192,163305,1,0,0:0:0:0:
64,192,163405,1,8,0:0:0:0:
320,192,163405,1,0,0:0:0:0:
448,192,163405,1,0,0:0:0:0:
64,192,163605,1,2,0:0:0:0:
192,192,163605,1,0,0:0:0:0:
64,192,163805,1,8,0:0:0:0:
320,192,163805,1,0,0:0:0:0:
448,192,163805,1,0,0:0:0:0:
64,192,164005,1,2,0:0:0:0:
192,192,164005,1,0,0:0:0:0:
64,192,164205,1,8,0:0:0:0:
320,192,164205,1,0,0:0:0:0:
448,192,164205,1,0,0:0:0:0:
64,192,164405,1,2,0:0:0:0:
192,192,164405,1,0,0:0:0:0:
64,192,164605,1,8,0:0:0:0:
320,192,164605,1,0,0:0:0:0:
448,192,164605,1,0,0:0:0:0:
320,192,164805,1,2,0:0:0:0:
448,192,164805,1,0,0:0:0:0:
192,192,164905,1,2,0:0:0:0:
320,192,164955,1,2,0:0:0:0:
64,192,165005,1,8,0:0:0:0:
192,192,165005,1,0,0:0:0:0:
448,192,165005,1,0,0:0:0:0:
320,192,165205,1,2,0:0:0:0:
448,192,165205,1,0,0:0:0:0:
64,192,165405,1,8,0:0:0:0:
192,192,165405,1,0,0:0:0:0:
448,192,165405,1,0,0:0:0:0:
320,192,165605,1,2,0:0:0:0:
448,192,165605,1,0,0:0:0:0:
320,192,165805,1,0,0:0:0:0:
320,192,165905,1,0,0:0:0:0:
192,192,166005,1,0,0:0:0:0:
192,192,166105,1,0,0:0:0:0:
320,192,166155,1,0,0:0:0:0:
448,192,166205,1,0,0:0:0:0:
448,192,166305,1,0,0:0:0:0:
64,192,166405,1,0,0:0:0:0:
64,192,166505,1,0,0:0:0:0:
320,192,166605,1,4,0:0:0:0:
448,192,166605,1,2,0:0:0:0:
320,192,166705,1,2,0:0:0:0:
448,192,166705,1,0,0:0:0:0:
64,192,166805,1,2,0:0:0:0:
192,192,166805,1,0,0:0:0:0:
64,192,166905,1,2,0:0:0:0:
192,192,166905,1,0,0:0:0:0:
320,192,167005,1,2,0:0:0:0:
448,192,167005,1,0,0:0:0:0:
320,192,167105,1,2,0:0:0:0:
448,192,167105,1,0,0:0:0:0:
64,192,167205,1,2,0:0:0:0:
192,192,167205,1,0,0:0:0:0:
64,192,167305,1,2,0:0:0:0:
192,192,167305,1,0,0:0:0:0:
320,192,167405,1,2,0:0:0:0:
448,192,167405,1,0,0:0:0:0:
320,192,167505,1,2,0:0:0:0:
448,192,167505,1,0,0:0:0:0:
64,192,167605,1,2,0:0:0:0:
192,192,167605,1,0,0:0:0:0:
64,192,167705,1,2,0:0:0:0:
192,192,167705,1,0,0:0:0:0:
320,192,167805,1,2,0:0:0:0:
448,192,167805,1,0,0:0:0:0:
320,192,167905,1,2,0:0:0:0:
448,192,167905,1,0,0:0:0:0:
64,192,168005,1,2,0:0:0:0:
192,192,168005,1,0,0:0:0:0:
64,192,168105,1,2,0:0:0:0:
192,192,168105,1,0,0:0:0:0:
320,192,168205,1,2,0:0:0:0:
448,192,168205,1,0,0:0:0:0:
320,192,168305,1,2,0:0:0:0:
448,192,168305,1,0,0:0:0:0:
64,192,168405,1,2,0:0:0:0:
192,192,168405,1,0,0:0:0:0:
64,192,168505,1,2,0:0:0:0:
192,192,168505,1,0,0:0:0:0:
320,192,168605,1,2,0:0:0:0:
448,192,168605,1,0,0:0:0:0:
320,192,168705,1,2,0:0:0:0:
448,192,168705,1,0,0:0:0:0:
64,192,168805,1,2,0:0:0:0:
192,192,168805,1,0,0:0:0:0:
64,192,168905,1,2,0:0:0:0:
192,192,168905,1,0,0:0:0:0:
320,192,169005,1,2,0:0:0:0:
448,192,169005,1,0,0:0:0:0:
320,192,169105,1,2,0:0:0:0:
448,192,169105,1,0,0:0:0:0:
64,192,169205,1,2,0:0:0:0:
192,192,169205,1,0,0:0:0:0:
64,192,169305,1,2,0:0:0:0:
192,192,169305,1,0,0:0:0:0:
320,192,169405,1,2,0:0:0:0:
448,192,169405,1,0,0:0:0:0:
320,192,169505,1,2,0:0:0:0:
448,192,169505,1,0,0:0:0:0:
64,192,169605,1,2,0:0:0:0:
192,192,169605,1,0,0:0:0:0:
64,192,169705,1,2,0:0:0:0:
192,192,169705,1,0,0:0:0:0:
320,192,169805,1,2,0:0:0:0:
448,192,169805,1,0,0:0:0:0:
320,192,169905,1,2,0:0:0:0:
448,192,169905,1,0,0:0:0:0:
64,192,170005,1,2,0:0:0:0:
192,192,170005,1,0,0:0:0:0:
64,192,170105,1,2,0:0:0:0:
192,192,170105,1,0,0:0:0:0:
320,192,170205,1,2,0:0:0:0:
448,192,170205,1,0,0:0:0:0:
320,192,170305,1,2,0:0:0:0:
448,192,170305,1,0,0:0:0:0:
64,192,170405,1,2,0:0:0:0:
192,192,170405,1,0,0:0:0:0:
64,192,170505,1,2,0:0:0:0:
192,192,170505,1,0,0:0:0:0:
320,192,170605,1,2,0:0:0:0:
448,192,170605,1,0,0:0:0:0:
320,192,170705,1,2,0:0:0:0:
448,192,170705,1,0,0:0:0:0:
64,192,170805,1,2,0:0:0:0:
192,192,170805,1,0,0:0:0:0:
64,192,170905,1,2,0:0:0:0:
192,192,170905,1,0,0:0:0:0:
320,192,171005,1,2,0:0:0:0:
448,192,171005,1,0,0:0:0:0:
320,192,171105,1,2,0:0:0:0:
448,192,171105,1,0,0:0:0:0:
64,192,171205,1,2,0:0:0:0:
192,192,171205,1,0,0:0:0:0:
64,192,171305,1,2,0:0:0:0:
192,192,171305,1,0,0:0:0:0:
320,192,171405,1,2,0:0:0:0:
448,192,171405,1,0,0:0:0:0:
320,192,171505,1,2,0:0:0:0:
448,192,171505,1,0,0:0:0:0:
64,192,171605,1,2,0:0:0:0:
192,192,171605,1,0,0:0:0:0:
64,192,171705,1,2,0:0:0:0:
192,192,171705,1,0,0:0:0:0:
320,192,171805,1,2,0:0:0:0:
448,192,171805,1,0,0:0:0:0:
320,192,171905,1,2,0:0:0:0:
448,192,171905,1,0,0:0:0:0:
64,192,172005,1,2,0:0:0:0:
192,192,172005,1,0,0:0:0:0:
64,192,172105,1,2,0:0:0:0:
192,192,172105,1,0,0:0:0:0:
320,192,172205,1,0,0:0:0:0:
320,192,172305,1,0,0:0:0:0:
192,192,172405,1,0,0:0:0:0:
192,192,172505,1,0,0:0:0:0:
320,192,172555,1,0,0:0:0:0:
448,192,172605,1,0,0:0:0:0:
448,192,172705,1,0,0:0:0:0:
64,192,172805,1,0,0:0:0:0:
64,192,172905,1,0,0:0:0:0:
320,192,173005,1,0,0:0:0:0:
448,192,173055,1,0,0:0:0:0:
64,192,173105,1,0,0:0:0:0:
192,192,173155,1,0,0:0:0:0:
448,192,173205,1,0,0:0:0:0:
64,192,173255,1,0,0:0:0:0:
320,192,173305,1,0,0:0:0:0:
448,192,173355,1,0,0:0:0:0:
64,192,173405,1,0,0:0:0:0:
192,192,173455,1,0,0:0:0:0:
448,192,173505,1,0,0:0:0:0:
64,192,173555,1,0,0:0:0:0:
320,192,173605,1,0,0:0:0:0:
448,192,173655,1,0,0:0:0:0:
64,192,173705,1,0,0:0:0:0:
192,192,173755,1,0,0:0:0:0:
448,192,173805,1,0,0:0:0:0:
64,192,173855,1,0,0:0:0:0:
320,192,173905,1,0,0:0:0:0:
448,192,173955,1,0,0:0:0:0:
192,192,174005,1,0,0:0:0:0:
320,192,174055,1,0,0:0:0:0:
448,192,174105,1,0,0:0:0:0:
64,192,174155,1,0,0:0:0:0:
192,192,174205,1,0,0:0:0:0:
320,192,174255,1,0,0:0:0:0:
64,192,174305,1,0,0:0:0:0:
192,192,174355,1,0,0:0:0:0:
448,192,174405,1,0,0:0:0:0:
64,192,174455,1,0,0:0:0:0:
320,192,174505,1,0,0:0:0:0:
448,192,174555,1,0,0:0:0:0:
64,192,174605,1,0,0:0:0:0:
192,192,174655,1,0,0:0:0:0:
448,192,174705,1,0,0:0:0:0:
320,192,174755,1,0,0:0:0:0:
64,192,174805,1,0,0:0:0:0:
192,192,174855,1,0,0:0:0:0:
448,192,174905,1,0,0:0:0:0:
320,192,174955,1,0,0:0:0:0:
64,192,175005,1,0,0:0:0:0:
192,192,175055,1,0,0:0:0:0:
448,192,175105,1,0,0:0:0:0:
320,192,175155,1,0,0:0:0:0:
64,192,175205,1,0,0:0:0:0:
192,192,175255,1,0,0:0:0:0:
448,192,175305,1,0,0:0:0:0:
320,192,175355,1,0,0:0:0:0:
64,192,175405,1,0,0:0:0:0:
192,192,175455,1,0,0:0:0:0:
320,192,175505,1,0,0:0:0:0:
448,192,175555,1,0,0:0:0:0:
64,192,175605,1,0,0:0:0:0:
192,192,175655,1,0,0:0:0:0:
320,192,175705,1,0,0:0:0:0:
448,192,175755,1,0,0:0:0:0:
64,192,175805,1,0,0:0:0:0:
192,192,175855,1,0,0:0:0:0:
320,192,175905,1,0,0:0:0:0:
448,192,175955,1,0,0:0:0:0:
64,192,176005,1,0,0:0:0:0:
192,192,176055,1,0,0:0:0:0:
320,192,176105,1,0,0:0:0:0:
448,192,176155,1,0,0:0:0:0:
64,192,176205,1,0,0:0:0:0:
64,192,176305,1,0,0:0:0:0:
320,192,176405,1,0,0:0:0:0:
320,192,176505,1,0,0:0:0:0:
192,192,176605,1,0,0:0:0:0:
192,192,176705,1,0,0:0:0:0:
448,192,176805,1,0,0:0:0:0:
448,192,176905,1,0,0:0:0:0:
64,192,177005,1,0,0:0:0:0:
64,192,177105,1,0,0:0:0:0:
192,192,177205,1,0,0:0:0:0:
192,192,177305,1,0,0:0:0:0:
320,192,177405,1,2,0:0:0:0:
448,192,177405,1,0,0:0:0:0:
320,192,177505,1,2,0:0:0:0:
448,192,177505,1,0,0:0:0:0:
64,192,177605,1,2,0:0:0:0:
192,192,177605,1,0,0:0:0:0:
64,192,177705,1,2,0:0:0:0:
192,192,177705,1,0,0:0:0:0:
320,192,177805,1,2,0:0:0:0:
448,192,177805,1,0,0:0:0:0:
320,192,178405,1,0,0:0:0:0:
192,192,178455,1,0,0:0:0:0:
320,192,178505,1,0,0:0:0:0:
192,192,178555,1,0,0:0:0:0:
64,192,178605,1,0,0:0:0:0:
320,192,178655,1,0,0:0:0:0:
448,192,178705,1,0,0:0:0:0:
64,192,178755,1,0,0:0:0:0:
320,192,178805,1,0,0:0:0:0:
192,192,178855,1,0,0:0:0:0:
448,192,178905,1,0,0:0:0:0:
64,192,178955,1,0,0:0:0:0:
320,192,179005,1,0,0:0:0:0:
448,192,179055,1,0,0:0:0:0:
64,192,179105,1,0,0:0:0:0:
192,192,179155,1,0,0:0:0:0:
448,192,179205,1,0,0:0:0:0:
64,192,179255,1,0,0:0:0:0:
320,192,179305,1,0,0:0:0:0:
192,192,179355,1,0,0:0:0:0:
64,192,179405,1,4,0:0:0:0:
320,192,179405,1,2,0:0:0:0:
448,192,179405,128,0,179605:0:0:0:0:
64,192,179605,128,0,179705:0:0:0:0:
64,192,179805,1,8,0:0:0:0:
448,192,179805,128,0,179871:0:0:0:0:
64,192,179905,1,0,0:0:0:0:
448,192,180005,1,0,0:0:0:0:
448,192,180105,1,0,0:0:0:0:
64,192,180205,1,2,0:0:0:0:
192,192,180205,1,0,0:0:0:0:
64,192,180305,1,0,0:0:0:0:
448,192,180405,1,0,0:0:0:0:
448,192,180505,1,0,0:0:0:0:
64,192,180605,1,8,0:0:0:0:
320,192,180605,1,0,0:0:0:0:
192,192,180738,1,0,0:0:0:0:
320,192,180805,1,0,0:0:0:0:
192,192,180871,1,0,0:0:0:0:
320,192,180938,1,0,0:0:0:0:
64,192,181005,1,2,0:0:0:0:
192,192,181005,1,0,0:0:0:0:
64,192,181105,1,0,0:0:0:0:
448,192,181205,1,0,0:0:0:0:
448,192,181305,1,0,0:0:0:0:
64,192,181405,1,8,0:0:0:0:
320,192,181405,1,0,0:0:0:0:
192,192,181538,1,0,0:0:0:0:
320,192,181605,1,0,0:0:0:0:
192,192,181671,1,0,0:0:0:0:
320,192,181738,1,0,0:0:0:0:
64,192,181805,1,2,0:0:0:0:
192,192,181805,1,0,0:0:0:0:
64,192,181905,1,0,0:0:0:0:
448,192,182005,1,0,0:0:0:0:
448,192,182105,1,0,0:0:0:0:
64,192,182205,128,8,182271:0:0:0:0:
320,192,182205,1,0,0:0:0:0:
192,192,182305,128,0,182371:0:0:0:0:
320,192,182405,1,0,0:0:0:0:
64,192,182438,1,0,0:0:0:0:
192,192,182505,1,0,0:0:0:0:
448,192,182538,1,0,0:0:0:0:
64,192,182605,1,2,0:0:0:0:
192,192,182605,1,0,0:0:0:0:
448,192,182805,1,0,0:0:0:0:
320,192,182830,1,0,0:0:0:0:
192,192,183005,1,8,0:0:0:0:
448,192,183005,1,0,0:0:0:0:
320,192,183030,1,0,0:0:0:0:
448,192,183205,1,0,0:0:0:0:
320,192,183230,1,0,0:0:0:0:
64,192,183405,1,2,0:0:0:0:
192,192,183405,1,0,0:0:0:0:
192,192,183605,1,0,0:0:0:0:
448,192,183630,1,0,0:0:0:0:
64,192,183805,1,8,0:0:0:0:
448,192,183805,1,0,0:0:0:0:
192,192,183855,1,0,0:0:0:0:
320,192,183905,1,0,0:0:0:0:
448,192,183955,1,0,0:0:0:0:
64,192,184005,1,0,0:0:0:0:
192,192,184055,1,0,0:0:0:0:
320,192,184105,1,0,0:0:0:0:
448,192,184155,1,0,0:0:0:0:
64,192,184205,1,2,0:0:0:0:
192,192,184205,1,0,0:0:0:0:
448,192,184305,1,0,0:0:0:0:
320,192,184330,1,0,0:0:0:0:
192,192,184405,1,0,0:0:0:0:
320,192,184430,1,0,0:0:0:0:
64,192,184605,1,8,0:0:0:0:
320,192,184605,1,0,0:0:0:0:
448,192,184705,1,0,0:0:0:0:
320,192,184730,1,0,0:0:0:0:
192,192,184805,1,0,0:0:0:0:
320,192,184830,1,0,0:0:0:0:
448,192,184855,1,0,0:0:0:0:
64,192,184905,1,0,0:0:0:0:
192,192,184955,1,0,0:0:0:0:
320,192,185005,1,2,0:0:0:0:
448,192,185005,1,0,0:0:0:0:
320,192,185105,1,0,0:0:0:0:
192,192,185130,1,0,0:0:0:0:
448,192,185205,1,0,0:0:0:0:
64,192,185230,1,0,0:0:0:0:
192,192,185405,1,8,0:0:0:0:
448,192,185405,128,0,185471:0:0:0:0:
64,192,185505,128,0,185705:0:0:0:0:
320,192,185605,128,0,185671:0:0:0:0:
192,192,185705,128,0,185771:0:0:0:0:
64,192,185805,1,2,0:0:0:0:
320,192,185805,1,4,0:0:0:0:
448,192,185805,128,0,186005:0:0:0:0:
64,192,186005,128,0,186105:0:0:0:0:
64,192,186205,1,8,0:0:0:0:
320,192,186205,128,0,186505:0:0:0:0:
64,192,186305,1,0,0:0:0:0:
64,192,186405,1,0,0:0:0:0:
64,192,186505,1,0,0:0:0:0:
320,192,186605,1,2,0:0:0:0:
448,192,186605,1,0,0:0:0:0:
192,192,186705,1,0,0:0:0:0:
192,192,186805,1,0,0:0:0:0:
192,192,186905,1,0,0:0:0:0:
64,192,187005,1,8,0:0:0:0:
448,192,187005,1,0,0:0:0:0:
320,192,187071,1,0,0:0:0:0:
64,192,187138,1,0,0:0:0:0:
320,192,187205,1,0,0:0:0:0:
64,192,187271,1,0,0:0:0:0:
320,192,187338,1,0,0:0:0:0:
64,192,187405,1,2,0:0:0:0:
192,192,187405,1,0,0:0:0:0:
320,192,187505,1,0,0:0:0:0:
320,192,187605,1,0,0:0:0:0:
320,192,187705,1,0,0:0:0:0:
64,192,187805,1,8,0:0:0:0:
448,192,187805,1,0,0:0:0:0:
192,192,187871,1,0,0:0:0:0:
448,192,187938,1,0,0:0:0:0:
192,192,188005,1,0,0:0:0:0:
448,192,188071,1,0,0:0:0:0:
192,192,188138,1,0,0:0:0:0:
320,192,188205,1,2,0:0:0:0:
448,192,188205,1,0,0:0:0:0:
192,192,188305,1,0,0:0:0:0:
192,192,188405,1,0,0:0:0:0:
192,192,188505,1,0,0:0:0:0:
320,192,188605,128,8,188671:0:0:0:0:
64,192,188605,1,0,0:0:0:0:
448,192,188705,128,0,188771:0:0:0:0:
320,192,188805,1,0,0:0:0:0:
64,192,188838,1,0,0:0:0:0:
192,192,188905,1,0,0:0:0:0:
448,192,188938,1,0,0:0:0:0:
64,192,189005,1,2,0:0:0:0:
192,192,189005,1,0,0:0:0:0:
448,192,189205,1,0,0:0:0:0:
320,192,189230,1,0,0:0:0:0:
192,192,189405,1,8,0:0:0:0:
448,192,189405,1,0,0:0:0:0:
320,192,189430,1,0,0:0:0:0:
448,192,189605,1,0,0:0:0:0:
320,192,189630,1,0,0:0:0:0:
64,192,189805,1,2,0:0:0:0:
192,192,189805,1,0,0:0:0:0:
192,192,190005,128,0,190055:0:0:0:0:
192,192,190105,128,0,190155:0:0:0:0:
64,192,190205,1,8,0:0:0:0:
320,192,190205,128,0,190305:0:0:0:0:
448,192,190255,128,0,190305:0:0:0:0:
64,192,190405,128,0,190505:0:0:0:0:
192,192,190455,128,0,190505:0:0:0:0:
320,192,190605,1,2,0:0:0:0:
448,192,190605,1,0,0:0:0:0:
192,192,190705,128,0,190805:0:0:0:0:
192,192,190905,128,0,190971:0:0:0:0:
320,192,191005,1,2,0:0:0:0:
448,192,191005,1,0,0:0:0:0:
192,192,191105,128,0,191171:0:0:0:0:
320,192,191205,1,0,0:0:0:0:
192,192,191305,1,0,0:0:0:0:
320,192,191355,1,0,0:0:0:0:
192,192,191405,1,8,0:0:0:0:
448,192,191405,1,0,0:0:0:0:
320,192,191505,1,0,0:0:0:0:
320,192,191605,1,0,0:0:0:0:
448,192,191705,1,0,0:0:0:0:
64,192,191755,1,0,0:0:0:0:
320,192,191805,1,0,0:0:0:0:
64,192,191905,1,0,0:0:0:0:
64,192,192005,1,0,0:0:0:0:
320,192,192105,1,0,0:0:0:0:
64,192,192205,1,2,0:0:0:0:
192,192,192205,1,4,0:0:0:0:
448,192,192205,128,0,192405:0:0:0:0:
64,192,192405,128,0,192605:0:0:0:0:
320,192,192605,1,0,0:0:0:0:
320,192,192705,1,0,0:0:0:0:
320,192,192805,1,0,0:0:0:0:
320,192,192905,1,0,0:0:0:0:
64,192,193005,1,8,0:0:0:0:
448,192,193005,1,0,0:0:0:0:
192,192,193105,1,0,0:0:0:0:
192,192,193205,1,0,0:0:0:0:
192,192,193305,1,0,0:0:0:0:
320,192,193405,1,0,0:0:0:0:
64,192,193471,1,0,0:0:0:0:
320,192,193538,1,0,0:0:0:0:
64,192,193605,1,0,0:0:0:0:
320,192,193671,1,0,0:0:0:0:
64,192,193738,1,0,0:0:0:0:
320,192,193805,1,2,0:0:0:0:
448,192,193805,1,0,0:0:0:0:
64,192,193905,1,0,0:0:0:0:
192,192,193955,1,0,0:0:0:0:
448,192,194005,128,0,194071:0:0:0:0:
64,192,194205,128,0,194271:0:0:0:0:
320,192,194305,1,2,0:0:0:0:
448,192,194305,1,0,0:0:0:0:
64,192,194405,1,0,0:0:0:0:
320,192,194505,1,2,0:0:0:0:
448,192,194505,1,0,0:0:0:0:
192,192,194605,1,8,0:0:0:0:
448,192,194605,1,0,0:0:0:0:
64,192,194705,1,0,0:0:0:0:
448,192,194805,1,0,0:0:0:0:
64,192,194905,1,0,0:0:0:0:
64,192,195005,1,0,0:0:0:0:
192,192,195055,1,0,0:0:0:0:
320,192,195105,1,0,0:0:0:0:
448,192,195205,1,0,0:0:0:0:
320,192,195255,1,0,0:0:0:0:
64,192,195305,1,2,0:0:0:0:
192,192,195305,1,0,0:0:0:0:
64,192,195405,1,2,0:0:0:0:
192,192,195405,1,0,0:0:0:0:
192,192,195605,1,0,0:0:0:0:
320,192,195630,1,0,0:0:0:0:
192,192,195805,1,0,0:0:0:0:
320,192,195830,1,0,0:0:0:0:
192,192,196005,1,0,0:0:0:0:
320,192,196030,1,0,0:0:0:0:
64,192,196205,1,8,0:0:0:0:
320,192,196205,1,0,0:0:0:0:
448,192,196405,1,0,0:0:0:0:
320,192,196430,1,0,0:0:0:0:
448,192,196605,1,0,0:0:0:0:
192,192,196655,1,0,0:0:0:0:
320,192,196705,1,0,0:0:0:0:
448,192,196755,1,0,0:0:0:0:
64,192,196805,1,0,0:0:0:0:
192,192,196855,1,0,0:0:0:0:
320,192,196905,1,0,0:0:0:0:
448,192,196955,1,0,0:0:0:0:
64,192,197005,1,2,0:0:0:0:
192,192,197005,1,0,0:0:0:0:
448,192,197105,1,0,0:0:0:0:
320,192,197130,1,0,0:0:0:0:
192,192,197205,1,0,0:0:0:0:
320,192,197230,1,0,0:0:0:0:
64,192,197305,1,2,0:0:0:0:
192,192,197305,1,0,0:0:0:0:
448,192,197405,1,0,0:0:0:0:
320,192,197430,1,0,0:0:0:0:
64,192,197505,1,2,0:0:0:0:
192,192,197505,1,0,0:0:0:0:
192,192,197605,1,0,0:0:0:0:
320,192,197630,1,0,0:0:0:0:
448,192,197655,1,0,0:0:0:0:
64,192,197705,1,2,0:0:0:0:
320,192,197755,1,2,0:0:0:0:
192,192,197805,1,8,0:0:0:0:
448,192,197805,1,0,0:0:0:0:
320,192,197905,1,0,0:0:0:0:
192,192,197930,1,0,0:0:0:0:
448,192,198005,1,0,0:0:0:0:
64,192,198030,1,0,0:0:0:0:
320,192,198205,1,2,0:0:0:0:
448,192,198205,128,0,198271:0:0:0:0:
64,192,198305,128,0,198505:0:0:0:0:
320,192,198405,128,0,198471:0:0:0:0:
192,192,198505,128,0,198571:0:0:0:0:
64,192,198605,1,2,0:0:0:0:
320,192,198605,1,4,0:0:0:0:
448,192,198605,128,0,198805:0:0:0:0:
64,192,198805,128,0,198905:0:0:0:0:
192,192,198905,1,8,0:0:0:0:
448,192,198905,1,0,0:0:0:0:
64,192,199005,1,0,0:0:0:0:
64,192,199105,1,0,0:0:0:0:
192,192,199205,1,8,0:0:0:0:
448,192,199205,1,0,0:0:0:0:
320,192,199305,1,0,0:0:0:0:
320,192,199405,1,0,0:0:0:0:
192,192,199505,1,8,0:0:0:0:
448,192,199505,1,0,0:0:0:0:
64,192,199605,1,2,0:0:0:0:
320,192,199605,1,4,0:0:0:0:
448,192,199605,1,0,0:0:0:0:
192,192,199705,1,0,0:0:0:0:
192,192,199805,1,0,0:0:0:0:
64,192,199905,1,8,0:0:0:0:
320,192,199905,1,0,0:0:0:0:
448,192,200005,1,0,0:0:0:0:
448,192,200105,1,0,0:0:0:0:
64,192,200205,1,8,0:0:0:0:
320,192,200205,128,0,200405:0:0:0:0:
64,192,200405,128,0,200505:0:0:0:0:
192,192,200505,1,8,0:0:0:0:
448,192,200505,1,0,0:0:0:0:
64,192,200605,1,2,0:0:0:0:
320,192,200605,1,4,0:0:0:0:
448,192,200605,1,0,0:0:0:0:
192,192,200705,1,0,0:0:0:0:
192,192,200805,1,0,0:0:0:0:
64,192,200905,1,8,0:0:0:0:
448,192,200905,1,0,0:0:0:0:
320,192,201005,1,0,0:0:0:0:
320,192,201105,1,0,0:0:0:0:
192,192,201205,1,8,0:0:0:0:
448,192,201205,1,0,0:0:0:0:
64,192,201305,1,0,0:0:0:0:
64,192,201405,1,0,0:0:0:0:
192,192,201505,1,8,0:0:0:0:
448,192,201505,1,0,0:0:0:0:
320,192,201605,1,2,0:0:0:0:
448,192,201605,1,0,0:0:0:0:
64,192,201705,1,2,0:0:0:0:
192,192,201705,1,0,0:0:0:0:
64,192,201805,1,2,0:0:0:0:
192,192,201805,1,0,0:0:0:0:
448,192,201905,128,0,202005:0:0:0:0:
320,192,202005,128,0,202105:0:0:0:0:
192,192,202105,128,0,202205:0:0:0:0:
192,192,202405,1,0,0:0:0:0:
320,192,202505,1,0,0:0:0:0:
448,192,202605,1,0,0:0:0:0:
192,192,202705,1,0,0:0:0:0:
64,192,202805,1,0,0:0:0:0:
448,192,202905,1,0,0:0:0:0:
320,192,203005,1,0,0:0:0:0:
192,192,203105,1,0,0:0:0:0:
64,192,203205,1,0,0:0:0:0:
320,192,203305,1,0,0:0:0:0:
64,192,203405,1,8,0:0:0:0:
448,192,203405,1,0,0:0:0:0:
192,192,203455,1,2,0:0:0:0:
320,192,203505,1,2,0:0:0:0:
192,192,203555,1,2,0:0:0:0:
64,192,203605,1,8,0:0:0:0:
448,192,203605,1,0,0:0:0:0:
320,192,203705,1,2,0:0:0:0:
192,192,203755,1,2,0:0:0:0:
320,192,203805,1,2,0:0:0:0:
192,192,203855,1,2,0:0:0:0:
64,192,203905,1,8,0:0:0:0:
448,192,203905,1,0,0:0:0:0:
192,192,204005,1,2,0:0:0:0:
320,192,204055,1,2,0:0:0:0:
192,192,204105,1,2,0:0:0:0:
320,192,204155,1,2,0:0:0:0:
64,192,204205,1,8,0:0:0:0:
448,192,204205,1,0,0:0:0:0:
320,192,204305,1,2,0:0:0:0:
192,192,204355,1,2,0:0:0:0:
320,192,204405,1,2,0:0:0:0:
192,192,204455,1,2,0:0:0:0:
64,192,204505,1,8,0:0:0:0:
448,192,204505,1,0,0:0:0:0:
192,192,204605,1,2,0:0:0:0:
320,192,204655,1,2,0:0:0:0:
192,192,204705,1,2,0:0:0:0:
320,192,204755,1,2,0:0:0:0:
64,192,205005,1,2,0:0:0:0:
320,192,205005,1,4,0:0:0:0:
448,192,205005,1,0,0:0:0:0:
192,192,205105,1,0,0:0:0:0:
320,192,205155,1,0,0:0:0:0:
448,192,205205,1,0,0:0:0:0:
64,192,205255,1,0,0:0:0:0:
192,192,205305,1,0,0:0:0:0:
448,192,205355,1,0,0:0:0:0:
64,192,205405,1,8,0:0:0:0:
320,192,205405,1,0,0:0:0:0:
64,192,205505,1,0,0:0:0:0:
64,192,205605,1,0,0:0:0:0:
64,192,205705,1,0,0:0:0:0:
320,192,205805,1,2,0:0:0:0:
448,192,205805,1,0,0:0:0:0:
320,192,205905,1,0,0:0:0:0:
192,192,206005,1,0,0:0:0:0:
192,192,206105,1,0,0:0:0:0:
64,192,206205,1,8,0:0:0:0:
320,192,206205,1,0,0:0:0:0:
320,192,206305,1,0,0:0:0:0:
192,192,206405,1,0,0:0:0:0:
192,192,206505,1,0,0:0:0:0:
320,192,206605,1,2,0:0:0:0:
448,192,206605,1,0,0:0:0:0:
448,192,206705,1,0,0:0:0:0:
192,192,206805,1,0,0:0:0:0:
192,192,206905,1,0,0:0:0:0:
64,192,207005,1,8,0:0:0:0:
448,192,207005,1,0,0:0:0:0:
448,192,207105,1,0,0:0:0:0:
192,192,207205,1,0,0:0:0:0:
192,192,207305,1,0,0:0:0:0:
320,192,207405,1,2,0:0:0:0:
448,192,207405,1,0,0:0:0:0:
448,192,207505,1,0,0:0:0:0:
64,192,207605,1,0,0:0:0:0:
64,192,207705,1,0,0:0:0:0:
192,192,207805,1,8,0:0:0:0:
448,192,207805,1,0,0:0:0:0:
448,192,207905,1,0,0:0:0:0:
64,192,208005,1,0,0:0:0:0:
64,192,208105,1,0,0:0:0:0:
448,192,208155,1,0,0:0:0:0:
64,192,208205,1,2,0:0:0:0:
192,192,208205,1,0,0:0:0:0:
448,192,208305,1,0,0:0:0:0:
64,192,208355,1,0,0:0:0:0:
448,192,208405,1,0,0:0:0:0:
320,192,208505,1,0,0:0:0:0:
64,192,208605,1,8,0:0:0:0:
320,192,208605,1,0,0:0:0:0:
192,192,208705,1,0,0:0:0:0:
192,192,208805,1,0,0:0:0:0:
64,192,208905,1,0,0:0:0:0:
320,192,209005,1,2,0:0:0:0:
448,192,209005,1,0,0:0:0:0:
64,192,209105,1,0,0:0:0:0:
192,192,209130,1,0,0:0:0:0:
320,192,209155,1,0,0:0:0:0:
64,192,209405,1,8,0:0:0:0:
448,192,209405,128,0,209471:0:0:0:0:
320,192,209505,1,0,0:0:0:0:
192,192,209530,1,0,0:0:0:0:
64,192,209555,1,0,0:0:0:0:
320,192,209805,1,2,0:0:0:0:
448,192,209805,1,0,0:0:0:0:
64,192,209905,1,0,0:0:0:0:
192,192,209930,1,0,0:0:0:0:
320,192,209955,1,0,0:0:0:0:
448,192,210205,128,8,210271:0:0:0:0:
64,192,210205,1,0,0:0:0:0:
320,192,210305,1,0,0:0:0:0:
192,192,210330,1,0,0:0:0:0:
64,192,210355,1,0,0:0:0:0:
320,192,210605,1,2,0:0:0:0:
448,192,210605,1,0,0:0:0:0:
448,192,210805,1,0,0:0:0:0:
64,192,210871,1,0,0:0:0:0:
192,192,211005,1,8,0:0:0:0:
448,192,211005,1,0,0:0:0:0:
64,192,211105,1,0,0:0:0:0:
192,192,211130,1,0,0:0:0:0:
320,192,211155,1,0,0:0:0:0:
64,192,211405,1,2,0:0:0:0:
320,192,211405,1,4,0:0:0:0:
448,192,211405,1,0,0:0:0:0:
192,192,211505,1,0,0:0:0:0:
320,192,211555,1,0,0:0:0:0:
448,192,211605,1,0,0:0:0:0:
64,192,211655,1,0,0:0:0:0:
192,192,211705,1,0,0:0:0:0:
448,192,211755,1,0,0:0:0:0:
64,192,211805,1,8,0:0:0:0:
320,192,211805,1,0,0:0:0:0:
64,192,211905,1,0,0:0:0:0:
64,192,212005,1,0,0:0:0:0:
64,192,212105,1,0,0:0:0:0:
320,192,212205,1,2,0:0:0:0:
448,192,212205,1,0,0:0:0:0:
320,192,212305,1,0,0:0:0:0:
192,192,212405,1,0,0:0:0:0:
192,192,212505,1,0,0:0:0:0:
64,192,212605,1,8,0:0:0:0:
320,192,212605,1,0,0:0:0:0:
320,192,212705,1,0,0:0:0:0:
192,192,212805,1,0,0:0:0:0:
192,192,212905,1,0,0:0:0:0:
320,192,213005,1,2,0:0:0:0:
448,192,213005,1,0,0:0:0:0:
448,192,213105,1,0,0:0:0:0:
192,192,213205,1,0,0:0:0:0:
192,192,213305,1,0,0:0:0:0:
64,192,213405,1,8,0:0:0:0:
448,192,213405,1,0,0:0:0:0:
448,192,213505,1,0,0:0:0:0:
192,192,213605,1,0,0:0:0:0:
192,192,213705,1,0,0:0:0:0:
64,192,213805,1,8,0:0:0:0:
320,192,213805,1,0,0:0:0:0:
448,192,214005,1,0,0:0:0:0:
64,192,214055,1,0,0:0:0:0:
192,192,214105,1,8,0:0:0:0:
448,192,214105,1,0,0:0:0:0:
64,192,214155,1,0,0:0:0:0:
320,192,214205,1,0,0:0:0:0:
320,192,214305,1,0,0:0:0:0:
192,192,214405,1,8,0:0:0:0:
448,192,214405,1,0,0:0:0:0:
192,192,214505,1,0,0:0:0:0:
64,192,214605,1,2,0:0:0:0:
320,192,214605,1,4,0:0:0:0:
448,192,214605,1,0,0:0:0:0:
64,192,214805,1,0,0:0:0:0:
192,192,215005,1,8,0:0:0:0:
448,192,215005,128,0,215071:0:0:0:0:
320,192,215205,1,0,0:0:0:0:
64,192,215238,1,0,0:0:0:0:
448,192,215305,1,0,0:0:0:0:
192,192,215338,1,0,0:0:0:0:
320,192,215405,1,2,0:0:0:0:
448,192,215405,1,0,0:0:0:0:
192,192,215605,1,0,0:0:0:0:
448,192,215638,1,0,0:0:0:0:
64,192,215705,1,0,0:0:0:0:
320,192,215738,1,0,0:0:0:0:
64,192,215805,128,8,215871:0:0:0:0:
448,192,215805,1,0,0:0:0:0:
320,192,215905,1,0,0:0:0:0:
448,192,215938,1,0,0:0:0:0:
192,192,216005,1,0,0:0:0:0:
320,192,216038,1,0,0:0:0:0:
64,192,216105,1,0,0:0:0:0:
448,192,216138,1,0,0:0:0:0:
64,192,216205,1,2,0:0:0:0:
192,192,216205,128,0,216255:0:0:0:0:
320,192,216305,128,0,216355:0:0:0:0:
192,192,216405,128,0,216455:0:0:0:0:
320,192,216505,128,0,216555:0:0:0:0:
192,192,216605,1,8,0:0:0:0:
448,192,216605,128,0,216671:0:0:0:0:
64,192,216638,1,0,0:0:0:0:
320,192,216805,1,0,0:0:0:0:
64,192,216838,1,0,0:0:0:0:
192,192,216905,1,0,0:0:0:0:
320,192,216938,1,0,0:0:0:0:
64,192,217005,1,2,0:0:0:0:
192,192,217005,1,0,0:0:0:0:
320,192,217105,1,0,0:0:0:0:
64,192,217138,1,0,0:0:0:0:
192,192,217205,1,0,0:0:0:0:
448,192,217238,1,0,0:0:0:0:
64,192,217305,1,0,0:0:0:0:
320,192,217338,1,0,0:0:0:0:
192,192,217405,1,8,0:0:0:0:
448,192,217405,1,0,0:0:0:0:
448,192,217505,128,0,217705:0:0:0:0:
64,192,217805,1,2,0:0:0:0:
320,192,217805,1,4,0:0:0:0:
448,192,217805,1,0,0:0:0:0:
192,192,217905,1,0,0:0:0:0:
320,192,217955,1,0,0:0:0:0:
448,192,218005,1,0,0:0:0:0:
64,192,218055,1,0,0:0:0:0:
192,192,218105,1,0,0:0:0:0:
448,192,218155,1,0,0:0:0:0:
64,192,218205,1,8,0:0:0:0:
320,192,218205,1,0,0:0:0:0:
64,192,218305,1,0,0:0:0:0:
64,192,218405,1,0,0:0:0:0:
64,192,218505,1,0,0:0:0:0:
320,192,218605,1,2,0:0:0:0:
448,192,218605,1,0,0:0:0:0:
320,192,218705,1,0,0:0:0:0:
192,192,218805,1,0,0:0:0:0:
192,192,218905,1,0,0:0:0:0:
64,192,219005,1,8,0:0:0:0:
320,192,219005,1,0,0:0:0:0:
320,192,219105,1,0,0:0:0:0:
192,192,219205,1,0,0:0:0:0:
192,192,219305,1,0,0:0:0:0:
320,192,219405,1,2,0:0:0:0:
448,192,219405,1,0,0:0:0:0:
448,192,219505,1,0,0:0:0:0:
192,192,219605,1,0,0:0:0:0:
192,192,219705,1,0,0:0:0:0:
64,192,219805,1,8,0:0:0:0:
448,192,219805,1,0,0:0:0:0:
448,192,219905,1,0,0:0:0:0:
192,192,220005,1,0,0:0:0:0:
192,192,220105,1,0,0:0:0:0:
320,192,220205,1,2,0:0:0:0:
448,192,220205,1,0,0:0:0:0:
448,192,220305,1,0,0:0:0:0:
64,192,220405,1,0,0:0:0:0:
64,192,220505,1,0,0:0:0:0:
192,192,220605,1,8,0:0:0:0:
448,192,220605,1,0,0:0:0:0:
448,192,220705,1,0,0:0:0:0:
64,192,220805,1,0,0:0:0:0:
64,192,220905,1,0,0:0:0:0:
64,192,221005,1,2,0:0:0:0:
192,192,221005,1,0,0:0:0:0:
448,192,221105,1,0,0:0:0:0:
64,192,221155,1,0,0:0:0:0:
448,192,221205,1,0,0:0:0:0:
320,192,221305,1,0,0:0:0:0:
64,192,221405,1,8,0:0:0:0:
320,192,221405,1,0,0:0:0:0:
192,192,221505,1,0,0:0:0:0:
192,192,221605,1,0,0:0:0:0:
64,192,221705,1,0,0:0:0:0:
320,192,221805,1,2,0:0:0:0:
448,192,221805,1,0,0:0:0:0:
64,192,221905,1,0,0:0:0:0:
192,192,221930,1,0,0:0:0:0:
320,192,221955,1,0,0:0:0:0:
64,192,222205,1,8,0:0:0:0:
448,192,222205,128,0,222271:0:0:0:0:
320,192,222305,1,0,0:0:0:0:
192,192,222330,1,0,0:0:0:0:
64,192,222355,1,0,0:0:0:0:
320,192,222605,1,2,0:0:0:0:
448,192,222605,1,0,0:0:0:0:
64,192,222705,1,0,0:0:0:0:
192,192,222730,1,0,0:0:0:0:
320,192,222755,1,0,0:0:0:0:
448,192,223005,128,8,223071:0:0:0:0:
64,192,223005,1,0,0:0:0:0:
320,192,223105,1,0,0:0:0:0:
192,192,223130,1,0,0:0:0:0:
64,192,223155,1,0,0:0:0:0:
320,192,223405,1,2,0:0:0:0:
448,192,223405,1,0,0:0:0:0:
448,192,223605,1,0,0:0:0:0:
64,192,223671,1,0,0:0:0:0:
192,192,223805,1,8,0:0:0:0:
448,192,223805,1,0,0:0:0:0:
64,192,223905,1,0,0:0:0:0:
192,192,223930,1,0,0:0:0:0:
320,192,223955,1,0,0:0:0:0:
320,192,224205,1,2,0:0:0:0:
448,192,224205,1,4,0:0:0:0:
64,192,224305,1,0,0:0:0:0:
192,192,224355,1,0,0:0:0:0:
448,192,224405,1,0,0:0:0:0:
64,192,224455,1,0,0:0:0:0:
320,192,224505,1,0,0:0:0:0:
448,192,224555,1,0,0:0:0:0:
192,192,224605,1,0,0:0:0:0:
64,192,224655,1,0,0:0:0:0:
320,192,224705,1,0,0:0:0:0:
192,192,224755,1,0,0:0:0:0:
64,192,224805,1,0,0:0:0:0:
448,192,224855,1,0,0:0:0:0:
320,192,224905,1,0,0:0:0:0:
192,192,224955,1,0,0:0:0:0:
64,192,225005,1,0,0:0:0:60:softdrum.wav
448,192,225005,1,0,0:0:0:0:
64,192,225205,1,0,0:0:0:60:softdrum.wav
64,192,225305,1,0,0:0:0:60:softdrum.wav
64,192,225505,1,0,0:0:0:60:softdrum.wav
64,192,225605,1,0,0:0:0:60:softdrum.wav
448,192,225805,1,0,0:0:0:60:softdrum.wav
448,192,226005,1,0,0:0:0:60:softdrum.wav
448,192,226105,1,0,0:0:0:60:softdrum.wav
448,192,226305,1,0,0:0:0:60:softdrum.wav
448,192,226405,1,0,0:0:0:60:softdrum.wav
64,192,226605,1,0,0:0:0:60:softdrum.wav
64,192,226805,1,0,0:0:0:60:softdrum.wav
64,192,226905,1,0,0:0:0:60:softdrum.wav
64,192,227105,1,0,0:0:0:60:softdrum.wav
64,192,227205,1,0,0:0:0:60:softdrum.wav
448,192,227405,1,0,0:0:0:70:softdrum.wav
448,192,227505,1,0,0:0:0:70:softdrum.wav
64,192,227605,1,0,0:0:0:70:softdrum.wav
64,192,227705,1,0,0:0:0:70:softdrum.wav
448,192,227805,1,0,0:0:0:75:softdrum.wav
448,192,227905,1,0,0:0:0:75:softdrum.wav
64,192,228005,1,0,0:0:0:75:softdrum.wav
64,192,228105,1,0,0:0:0:75:softdrum.wav
448,192,228205,1,0,0:0:0:80:softdrum.wav
448,192,228305,1,0,0:0:0:80:softdrum.wav
64,192,228405,1,0,0:0:0:80:softdrum.wav
64,192,228505,1,0,0:0:0:80:softdrum.wav
448,192,228605,1,0,0:0:0:85:softdrum.wav
448,192,228705,1,0,0:0:0:85:softdrum.wav
64,192,228805,1,0,0:0:0:85:softdrum.wav
64,192,228905,1,0,0:0:0:85:softdrum.wav
448,192,229005,1,0,0:0:0:95:softdrum.wav
320,192,229055,1,0,0:0:0:95:softdrum.wav
64,192,229105,1,0,0:0:0:95:softdrum.wav
192,192,229155,1,0,0:0:0:95:softdrum.wav
448,192,229205,1,0,0:0:0:95:softdrum.wav
320,192,229255,1,0,0:0:0:95:softdrum.wav
64,192,229305,1,0,0:0:0:95:softdrum.wav
192,192,229355,1,0,0:0:0:95:softdrum.wav
448,192,229405,1,0,0:0:0:95:softdrum.wav
320,192,229455,1,0,0:0:0:95:softdrum.wav
64,192,229505,1,0,0:0:0:95:softdrum.wav
192,192,229555,1,0,0:0:0:95:softdrum.wav
448,192,229605,1,0,0:0:0:95:softdrum.wav
320,192,229655,1,0,0:0:0:95:softdrum.wav
64,192,229705,1,0,0:0:0:95:softdrum.wav
192,192,229755,1,0,0:0:0:95:softdrum.wav
320,192,229805,1,2,0:0:0:0:
448,192,229805,1,0,0:0:0:0:
64,192,230605,1,4,0:0:0:0:
320,192,230605,1,2,0:0:0:0:
448,192,230605,1,0,0:0:0:0:
448,192,231005,1,0,0:0:0:0:
64,192,231305,1,0,0:0:0:0:
192,192,231405,1,8,0:0:0:0:
448,192,231405,1,0,0:0:0:0:
448,192,231705,1,0,0:0:0:0:
192,192,232005,1,0,0:0:0:0:
320,192,232205,1,2,0:0:0:0:
448,192,232205,1,0,0:0:0:0:
448,192,232505,1,0,0:0:0:0:
64,192,232705,1,2,0:0:0:0:
192,192,232705,1,0,0:0:0:0:
64,192,232905,1,2,0:0:0:0:
192,192,232905,1,0,0:0:0:0:
64,192,233005,1,8,0:0:0:0:
320,192,233005,1,0,0:0:0:0:
192,192,233055,1,0,0:0:0:0:
320,192,233105,1,0,0:0:0:0:
192,192,233205,1,0,0:0:0:0:
192,192,233405,1,0,0:0:0:0:
64,192,233705,1,2,0:0:0:0:
192,192,233705,1,0,0:0:0:0:
64,192,233805,1,2,0:0:0:0:
192,192,233805,1,0,0:0:0:0:
448,192,234205,1,0,0:0:0:0:
64,192,234505,1,0,0:0:0:0:
192,192,234605,1,8,0:0:0:0:
448,192,234605,1,0,0:0:0:0:
448,192,234905,1,0,0:0:0:0:
192,192,235205,1,0,0:0:0:0:
320,192,235405,1,2,0:0:0:0:
448,192,235405,1,0,0:0:0:0:
64,192,235705,1,2,0:0:0:0:
192,192,235705,1,0,0:0:0:0:
64,192,235905,1,2,0:0:0:0:
192,192,235905,1,0,0:0:0:0:
448,192,236005,1,0,0:0:0:0:
320,192,236105,1,2,0:0:0:0:
192,192,236155,1,2,0:0:0:0:
64,192,236205,1,8,0:0:0:0:
320,192,236205,1,0,0:0:0:0:
448,192,236305,1,0,0:0:0:0:
448,192,236605,1,0,0:0:0:0:
320,192,236605,1,2,0:0:0:0:
64,192,237005,1,2,0:0:0:0:
320,192,237005,1,0,0:0:0:0:
448,192,237005,1,0,0:0:0:0:
448,192,237405,1,0,0:0:0:0:
64,192,237705,1,0,0:0:0:0:
192,192,237805,1,8,0:0:0:0:
448,192,237805,1,0,0:0:0:0:
448,192,238105,1,0,0:0:0:0:
192,192,238405,1,0,0:0:0:0:
320,192,238605,1,2,0:0:0:0:
448,192,238605,1,0,0:0:0:0:
448,192,238905,1,0,0:0:0:0:
64,192,239105,1,2,0:0:0:0:
192,192,239105,1,0,0:0:0:0:
64,192,239305,1,2,0:0:0:0:
192,192,239305,1,0,0:0:0:0:
64,192,239405,1,8,0:0:0:0:
320,192,239405,1,0,0:0:0:0:
192,192,239455,1,0,0:0:0:0:
320,192,239505,1,0,0:0:0:0:
192,192,239605,1,0,0:0:0:0:
192,192,239805,1,0,0:0:0:0:
64,192,240105,1,2,0:0:0:0:
192,192,240105,1,0,0:0:0:0:
64,192,240205,1,2,0:0:0:0:
192,192,240205,1,0,0:0:0:0:
448,192,240605,1,0,0:0:0:0:
64,192,240905,1,0,0:0:0:0:
192,192,241005,1,8,0:0:0:0:
448,192,241005,1,0,0:0:0:0:
448,192,241305,1,0,0:0:0:0:
192,192,241605,1,0,0:0:0:0:
320,192,241805,1,2,0:0:0:0:
448,192,241805,1,0,0:0:0:0:
64,192,242005,1,0,0:0:0:0:
320,192,242105,1,2,0:0:0:0:
448,192,242105,1,0,0:0:0:0:
192,192,242205,1,0,0:0:0:0:
320,192,242305,1,2,0:0:0:0:
448,192,242305,1,0,0:0:0:0:
192,192,242405,1,0,0:0:0:0:
320,192,242455,1,0,0:0:0:0:
192,192,242505,1,0,0:0:0:0:
320,192,242555,1,0,0:0:0:0:
192,192,242605,1,8,0:0:0:0:
448,192,242605,1,0,0:0:0:0:
320,192,242705,1,0,0:0:0:0:
320,192,242805,1,0,0:0:0:0:
448,192,242905,1,0,0:0:0:0:
64,192,242955,1,0,0:0:0:0:
320,192,243005,1,2,0:0:0:0:
448,192,243005,1,0,0:0:0:0:
64,192,243105,1,0,0:0:0:0:
64,192,243205,1,0,0:0:0:0:
448,192,243305,1,0,0:0:0:0:
64,192,243405,1,4,0:0:0:0:
320,192,243405,1,2,0:0:0:0:
448,192,243405,1,0,0:0:0:0:
448,192,243805,1,0,0:0:0:0:
64,192,244105,1,0,0:0:0:0:
448,192,244505,1,0,0:0:0:0:
192,192,244805,1,0,0:0:0:0:
320,192,245005,1,0,0:0:0:0:
448,192,245305,1,0,0:0:0:0:
192,192,245505,1,0,0:0:0:0:
192,192,245705,1,0,0:0:0:0:
320,192,245805,1,0,0:0:0:0:
192,192,245855,1,0,0:0:0:0:
320,192,245905,1,0,0:0:0:0:
192,192,246005,1,0,0:0:0:0:
192,192,246205,1,0,0:0:0:0:
64,192,246405,1,0,0:0:0:0:
448,192,247005,1,0,0:0:0:0:
64,192,247305,1,0,0:0:0:0:
448,192,247705,1,0,0:0:0:0:
192,192,248005,1,0,0:0:0:0:
64,192,248205,1,0,0:0:0:0:
192,192,248505,1,0,0:0:0:0:
448,192,248805,1,0,0:0:0:0:
448,192,249105,1,0,0:0:0:0:
320,192,249405,1,0,0:0:0:0:
64,192,249805,1,4,0:0:0:0:
320,192,249805,1,2,0:0:0:0:
448,192,249805,1,0,0:0:0:0:
448,192,250205,1,0,0:0:0:0:
64,192,250505,1,0,0:0:0:0:
448,192,250905,1,0,0:0:0:0:
192,192,251205,1,0,0:0:0:0:
320,192,251405,1,0,0:0:0:0:
448,192,251705,1,0,0:0:0:0:
192,192,251905,1,0,0:0:0:0:
192,192,252105,1,0,0:0:0:0:
320,192,252205,1,0,0:0:0:0:
192,192,252255,1,0,0:0:0:0:
320,192,252305,1,0,0:0:0:0:
192,192,252405,1,0,0:0:0:0:
192,192,252605,1,0,0:0:0:0:
64,192,252805,1,0,0:0:0:0:
448,192,253405,1,0,0:0:0:0:
64,192,253705,1,0,0:0:0:0:
448,192,254105,1,0,0:0:0:0:
192,192,254405,1,0,0:0:0:0:
320,192,254605,1,0,0:0:0:0:
64,192,254805,1,0,0:0:0:0:
192,192,255005,1,0,0:0:0:0:
64,192,255305,1,0,0:0:0:0:
448,192,255405,1,0,0:0:0:0:
320,192,255705,1,0,0:0:0:0:
64,192,256205,128,0,261005:0:0:0:0:
