osu file format v14

[General]
AudioFilename: audio.mp3
AudioLeadIn: 0
PreviewTime: -1
Countdown: 0
SampleSet: None
StackLeniency: 0.7
Mode: 0
LetterboxInBreaks: 0
WidescreenStoryboard: 1

[Editor]
DistanceSpacing: 0.2
BeatDivisor: 4
GridSize: 32
TimelineZoom: 2.8

[Metadata]
Title:Immortal Scream
TitleUnicode:Immortal Scream
Artist:Camellia
ArtistUnicode:Camellia
Creator:kirbob
Version:Transcend
Source:
Tags:
BeatmapID:1515176
BeatmapSetID:717150

[Difficulty]
HPDrainRate:4
CircleSize:4.6
OverallDifficulty:6
ApproachRate:9.8
SliderMultiplier:1
SliderTickRate:1

[Events]
//Background and Video events
0,0,"back.jpg",0,0
//Break Periods
2,42939,44367
2,46149,47578
2,49360,50789
//Storyboard Layer 0 (Background)
//Storyboard Layer 1 (Fail)
//Storyboard Layer 2 (Pass)
//Storyboard Layer 3 (Foreground)
//Storyboard Sound Samples

[TimingPoints]
15950.4350166493,200.66889632107,4,1,0,100,1,0
28793,-76.9230769230769,4,1,0,100,0,0
34010,-133.333333333333,4,1,0,100,0,0
35214,-76.9230769230769,4,1,0,100,0,0
38224,-62.5,4,1,0,100,0,0
38425,-52.6315789473684,4,1,0,100,0,0
38626,-76.9230769230769,4,1,0,100,0,0
39228,-133.333333333333,4,1,0,100,0,0
39830,-66.6666666666667,4,1,0,100,0,0
41937,-55.5555555555556,4,1,0,100,0,0
42238,-47.6190476190476,4,1,0,100,0,0
42539,-41.6666666666667,4,1,0,100,0,0
44846,-66.6666666666667,4,1,0,100,0,0
45147,-55.5555555555556,4,1,0,100,0,0
45448,-47.6190476190476,4,1,0,100,0,0
45749,-41.6666666666667,4,1,0,100,0,0
48057,-66.6666666666667,4,1,0,100,0,0
48358,-55.5555555555556,4,1,0,100,0,0
48659,-47.6190476190476,4,1,0,100,0,0
48960,-41.6666666666667,4,1,0,100,0,0
51268,-66.6666666666667,4,1,0,100,0,0
51569,-55.5555555555556,4,1,0,100,0,0
51870,-47.6190476190476,4,1,0,100,0,0
52171,-41.6666666666667,4,1,0,100,0,0
54478,-66.6666666666667,4,1,0,100,0,0
54779,-55.5555555555556,4,1,0,100,0,0
55080,-47.6190476190476,4,1,0,100,0,0
55381,-41.6666666666667,4,1,0,100,0,0
56084,-66.6666666666667,4,1,0,100,0,0
56385,-55.5555555555556,4,1,0,100,0,0
56686,-47.6190476190476,4,1,0,100,0,0
56987,-41.6666666666667,4,1,0,100,0,0
57689,-66.6666666666667,4,1,0,100,0,0
57990,-55.5555555555556,4,1,0,100,0,0
58291,-47.6190476190476,4,1,0,100,0,0
58592,-41.6666666666667,4,1,0,100,0,0
59294,-66.6666666666667,4,1,0,100,0,0
59595,-55.5555555555556,4,1,0,100,0,0
59896,-47.6190476190476,4,1,0,100,0,0
60197,-41.6666666666667,4,1,0,100,0,0
64110,-52.6315789473684,4,1,0,100,0,0

[Colours]
Combo1 : 71,131,220
Combo2 : 80,250,123
Combo3 : 185,237,175
Combo4 : 149,179,247

[HitObjects]
215,250,15950,6,0,L|210:306,3,50
213,122,16351,2,0,L|203:65,3,50
308,243,16753,2,0,P|321:272|336:286,7,50
362,99,17555,6,0,L|373:152,1,50
453,165,17756,2,0,L|436:216,1,50
388,328,17957,6,0,L|335:315,3,50
253,325,18358,2,0,L|200:338,3,50
117,321,18759,2,0,L|64:308,3,50
54,168,19161,6,0,B|51:199|51:199|61:228,1,50
179,132,19963,6,0,P|172:105|176:74,4,50
258,225,20465,2,0,P|280:201|290:173,2,50
135,276,20766,6,0,L|85:271,3,50
271,311,21167,2,0,L|266:361,3,50
385,290,21569,2,0,L|435:285,3,50
253,242,21970,2,0,L|303:247,3,50
114,189,22371,6,0,L|109:139,3,50
198,300,22773,2,0,L|193:350,3,50
220,143,23174,2,0,P|223:113|236:95,7,50
281,326,23977,6,0,L|328:289,1,50
411,311,24177,2,0,L|423:252,1,50
423,124,24378,6,0,L|478:133,3,50
280,106,24779,2,0,L|335:97,3,50
138,127,25181,2,0,L|193:136,3,50
81,278,25582,6,0,B|76:250|76:250|83:215,1,50
233,323,26385,6,0,P|270:324|298:315,4,50
407,173,26886,2,0,P|402:197|390:219,2,50
254,230,27187,2,0,L|261:282,3,50
149,185,27589,2,0,L|142:237,3,50
385,131,27990,2,0,L|392:183,3,50
66,104,28391,2,0,L|59:156,3,50
465,47,28793,6,0,P|450:77|408:95,1,64.9999970245363
251,64,28993,5,0,0:0:0:0:
230,146,29094,1,0,0:0:0:0:
210,227,29194,2,0,L|191:296,1,64.9999970245363
265,117,29395,5,0,0:0:0:0:
267,201,29496,1,0,0:0:0:0:
270,284,29596,2,0,P|278:320|296:351,7,64.9999970245363
254,39,30398,6,0,L|248:105,1,64.9999970245363
141,132,30599,2,0,L|187:179,1,64.9999970245363
127,273,30799,5,0,0:0:0:0:
211,261,30900,1,0,0:0:0:0:
294,250,31000,1,0,0:0:0:0:
377,239,31100,1,0,0:0:0:0:
313,222,31201,1,0,0:0:0:0:
250,205,31301,1,0,0:0:0:0:
187,189,31401,1,0,0:0:0:0:
123,172,31502,1,0,0:0:0:0:
161,164,31602,1,0,0:0:0:0:
199,156,31702,1,0,0:0:0:0:
237,148,31803,1,0,0:0:0:0:
275,141,31903,1,0,0:0:0:0:
314,137,32003,6,0,P|346:155|365:184,1,64.9999970245363
435,169,32204,2,0,P|435:205|419:236,1,64.9999970245363
475,305,32405,2,0,L|400:311,3,64.9999970245363
262,262,32806,2,0,L|268:187,3,64.9999970245363
446,282,33207,2,0,L|371:288,3,64.9999970245363
290,337,33609,1,0,0:0:0:0:
125,268,33809,5,0,0:0:0:0:
125,268,33910,1,0,0:0:0:0:
125,268,34010,2,0,P|117:231|130:185,1,75.000002861023
217,116,34311,1,0,0:0:0:0:
217,116,34411,1,0,0:0:0:0:
309,198,34512,5,0,0:0:0:0:
297,196,34562,1,0,0:0:0:0:
285,195,34612,1,0,0:0:0:0:
274,197,34662,1,0,0:0:0:0:
263,199,34712,1,0,0:0:0:0:
252,203,34763,1,0,0:0:0:0:
241,206,34813,1,0,0:0:0:0:
230,208,34863,1,0,0:0:0:0:
218,209,34913,1,0,0:0:0:0:
206,208,34963,1,0,0:0:0:0:
194,206,35013,1,0,0:0:0:0:
182,205,35064,1,0,0:0:0:0:
170,205,35114,1,0,0:0:0:0:
159,207,35164,1,0,0:0:0:0:
121,206,35214,6,0,L|47:215,3,64.9999970245363
235,138,35615,2,0,L|161:129,3,64.9999970245363
320,200,36017,2,0,P|293:222|263:233,7,64.9999970245363
289,49,36820,6,0,L|354:79,1,64.9999970245363
453,54,37020,2,0,L|471:123,1,64.9999970245363
463,262,37221,5,0,0:0:0:0:
387,243,37321,1,0,0:0:0:0:
309,224,37422,1,0,0:0:0:0:
234,205,37522,1,0,0:0:0:0:
290,191,37622,1,0,0:0:0:0:
347,177,37723,1,0,0:0:0:0:
403,163,37823,1,0,0:0:0:0:
459,150,37923,1,0,0:0:0:0:
398,101,38024,6,0,P|390:164|397:207,1,97.4999955368044
323,86,38224,2,0,P|313:162|321:214,1,120
254,73,38425,2,0,P|242:166|252:230,1,142.49999619484
305,322,38626,6,0,L|376:311,3,64.9999970245363
153,297,39027,1,0,0:0:0:0:
150,287,39077,1,0,0:0:0:0:
149,277,39127,1,0,0:0:0:0:
150,267,39177,1,0,0:0:0:0:
154,255,39228,2,0,L|179:180,1,75.000002861023
220,285,39529,2,0,L|245:210,1,75.000002861023
311,243,39830,6,0,L|288:315,1,75.000002861023
412,200,40030,5,0,0:0:0:0:
398,186,40080,1,0,0:0:0:0:
383,173,40131,1,0,0:0:0:0:
366,164,40181,1,0,0:0:0:0:
348,316,40331,5,0,0:0:0:0:
353,296,40381,1,0,0:0:0:0:
356,277,40432,1,0,0:0:0:0:
356,258,40482,1,0,0:0:0:0:
205,310,40632,5,0,0:0:0:0:
224,304,40682,1,0,0:0:0:0:
242,297,40733,1,0,0:0:0:0:
259,287,40783,1,0,0:0:0:0:
136,184,40933,5,0,0:0:0:0:
150,197,40983,1,0,0:0:0:0:
165,209,41034,1,0,0:0:0:0:
182,219,41084,1,0,0:0:0:0:
239,104,41234,6,0,B|281:207|376:154|376:154|314:141,1,225.000008583069
66,246,41636,6,0,P|145:234|220:253,1,150.000005722046
229,183,41937,6,0,P|142:162|54:177,1,179.999994506836
43,109,42238,6,0,P|148:93|248:118,1,209.999993591309
262,50,42539,6,0,P|146:22|29:41,1,239.999992675781
317,64,44846,6,0,B|254:107|254:107|178:118,1,150.000005722046
200,186,45147,6,0,B|280:174|280:174|361:118,1,179.999994506836
405,170,45448,6,0,B|308:237|308:237|212:250,1,209.999993591309
234,315,45749,6,0,B|336:301|336:301|448:222,1,239.999992675781
88,301,48057,6,0,B|120:308|160:298|160:298|198:327|228:334,1,150.000005722046
260,269,48358,6,0,B|221:260|172:222|172:222|121:234|79:225,1,179.999994506836
101,153,48659,6,0,B|130:160|192:145|192:145|250:189|295:199,1,209.999993591309
340,139,48960,6,0,B|282:125|208:68|208:68|129:88|92:77,1,239.999992675781
447,86,51268,6,0,B|385:97|352:53|286:65,1,150.000005722046
271,135,51569,6,0,B|334:122|375:176|452:163,1,179.999994506836
442,235,51870,6,0,B|357:250|310:187|237:202,1,209.999993591309
212,274,52171,6,0,B|290:258|345:331|445:313,1,239.999992675781
77,70,52672,5,0,0:0:0:0:
77,70,52773,1,0,0:0:0:0:
157,151,52873,1,0,0:0:0:0:
168,149,52923,1,0,0:0:0:0:
179,147,52973,1,0,0:0:0:0:
191,145,53024,1,0,0:0:0:0:
202,143,53074,1,0,0:0:0:0:
52,157,53174,5,0,0:0:0:0:
132,238,53274,1,0,0:0:0:0:
143,236,53324,1,0,0:0:0:0:
154,234,53374,1,0,0:0:0:0:
166,232,53425,1,0,0:0:0:0:
177,230,53475,1,0,0:0:0:0:
17,259,53575,5,0,0:0:0:0:
110,324,53676,1,0,0:0:0:0:
226,297,53776,1,0,0:0:0:0:
271,195,53876,5,0,0:0:0:0:
271,195,53927,1,0,0:0:0:0:
271,195,53977,1,0,0:0:0:0:
271,195,54027,1,0,0:0:0:0:
221,177,54077,5,0,0:0:0:0:
233,164,54127,1,0,0:0:0:0:
249,156,54177,1,0,0:0:0:0:
267,153,54228,1,0,0:0:0:0:
284,153,54278,1,0,0:0:0:0:
301,157,54328,1,0,0:0:0:0:
316,165,54378,1,0,0:0:0:0:
387,298,54478,6,0,P|402:244|478:193,1,150.000005722046
415,144,54779,6,0,P|344:197|317:281,1,179.999994506836
251,251,55080,6,0,P|284:153|368:91,1,209.999993591309
334,33,55381,6,0,P|226:112|183:238,1,239.999992675781
125,298,56084,6,0,P|110:244|34:193,1,150.000005722046
97,144,56385,6,0,P|167:197|194:281,1,179.999994506836
261,251,56686,6,0,P|227:153|143:91,1,209.999993591309
178,33,56987,6,0,P|285:112|328:238,1,239.999992675781
383,311,57689,6,0,B|391:231|391:231|440:171,1,150.000005722046
371,136,57990,6,0,B|319:199|319:199|310:298,1,179.999994506836
239,290,58291,6,0,B|251:167|251:167|314:90,1,209.999993591309
243,64,58592,6,0,B|183:137|183:137|168:282,1,239.999992675781
129,311,59294,6,0,B|121:231|121:231|72:171,1,150.000005722046
140,136,59595,6,0,B|192:199|192:199|202:298,1,179.999994506836
273,290,59896,6,0,B|260:167|260:167|197:90,1,209.999993591309
269,64,60197,6,0,B|328:137|328:137|330:159,1,59.9999981689454
339,163,60298,2,0,L|355:299,1,119.999996337891
431,269,60498,1,0,0:0:0:0:
428,257,60549,1,0,0:0:0:0:
425,245,60599,1,0,0:0:0:0:
422,233,60649,1,0,0:0:0:0:
419,221,60699,1,0,0:0:0:0:
416,209,60749,1,0,0:0:0:0:
414,197,60799,1,0,0:0:0:0:
375,51,60900,5,0,0:0:0:0:
255,57,61100,1,0,0:0:0:0:
255,57,61201,1,0,0:0:0:0:
135,61,61401,1,0,0:0:0:0:
135,61,61502,1,0,0:0:0:0:
406,118,61702,5,0,0:0:0:0:
261,125,61902,1,0,0:0:0:0:
261,125,62003,1,0,0:0:0:0:
117,130,62203,1,0,0:0:0:0:
117,130,62304,1,0,0:0:0:0:
442,186,62505,5,0,0:0:0:0:
268,194,62705,1,0,0:0:0:0:
268,194,62806,1,0,0:0:0:0:
95,200,63006,1,0,0:0:0:0:
95,200,63107,1,0,0:0:0:0:
479,257,63308,5,0,0:0:0:0:
272,266,63508,1,0,0:0:0:0:
272,266,63609,1,0,0:0:0:0:
67,273,63809,1,0,0:0:0:0:
67,273,63910,1,0,0:0:0:0:
380,318,64110,6,0,L|370:261,1,47.4999987316132
346,131,64211,2,0,L|356:188,1,47.4999987316132
335,345,64311,6,0,L|345:288,1,47.4999987316132
367,157,64412,2,0,L|356:213,1,47.4999987316132
284,358,64512,6,0,L|312:307,1,47.4999987316132
378,192,64613,2,0,L|349:242,1,47.4999987316132
228,356,64712,6,0,L|272:318,1,47.4999987316132
373,232,64813,2,0,L|328:269,1,47.4999987316132
154,324,64913,5,0,0:0:0:0:
152,314,64963,1,0,0:0:0:0:
150,304,65013,1,0,0:0:0:0:
148,294,65064,1,0,0:0:0:0:
146,284,65114,1,0,0:0:0:0:
144,274,65164,1,0,0:0:0:0:
142,264,65214,1,0,0:0:0:0:
140,254,65264,1,0,0:0:0:0:
138,244,65314,1,0,0:0:0:0:
136,234,65365,1,0,0:0:0:0:
134,224,65415,1,0,0:0:0:0:
132,214,65465,1,0,0:0:0:0:
129,204,65515,2,0,L|125:180,8,23.7499993658066
