osu file format v14

[General]
AudioFilename: audio.mp3
AudioLeadIn: 0
PreviewTime: 60537
Countdown: 0
SampleSet: Normal
StackLeniency: 0.2
Mode: 0
LetterboxInBreaks: 0
WidescreenStoryboard: 0

[Editor]
Bookmarks: 15349,50037,134037
DistanceSpacing: 0.9
BeatDivisor: 8
GridSize: 8
TimelineZoom: 2.850003

[Metadata]
Title:Illegal Trap
TitleUnicode:Illegal Trap
Artist:Camellia
ArtistUnicode:Camellia
Creator:Sheepcraft
Version:2.19% gay
Source:
Tags:camellia cametek kamelcamellia かめりあ trap edm invaidas from da jungle bass traps are gay
BeatmapID:1419875
BeatmapSetID:671551

[Difficulty]
HPDrainRate:6
CircleSize:4.5
OverallDifficulty:9
ApproachRate:9.5
SliderMultiplier:2.1
SliderTickRate:1

[Events]
//Background and Video events
0,0,"thumb-1920-862926.png",0,0
//Break Periods
2,110237,121512
//Storyboard Layer 0 (Background)
//Storyboard Layer 1 (Fail)
//Storyboard Layer 2 (Pass)
//Storyboard Layer 3 (Foreground)
//Storyboard Sound Samples

[TimingPoints]
8037,375,4,1,1,75,1,0
14037,-153.846153846154,4,2,1,75,0,0
14787,-83.3333333333333,4,2,1,75,0,0
14974,-100,4,2,1,75,0,0
15537,-100,4,2,1,75,0,0
16287,-83.3333333333333,4,2,1,75,0,0
16662,-58.8235294117647,4,2,1,75,0,0
17037,-153.846153846154,4,2,1,75,0,0
17787,-83.3333333333333,4,2,1,75,0,0
17974,-100,4,2,1,75,0,0
18724,-100,4,2,1,75,0,0
19287,-83.3333333333333,4,2,1,75,0,0
19474,-166.666666666667,4,2,1,75,0,0
19662,-66.6666666666667,4,2,1,75,0,0
20037,-133.333333333333,4,2,1,75,0,0
20787,-83.3333333333333,4,2,1,75,0,0
20974,-100,4,2,1,75,0,0
21537,-100,4,2,1,75,0,0
22287,-83.3333333333333,4,2,1,75,0,0
22474,-100,4,2,1,75,0,0
22662,-66.6666666666667,4,2,1,75,0,0
23037,-133.333333333333,4,2,1,75,0,0
23787,-83.3333333333333,4,2,1,75,0,0
23974,-100,4,2,1,75,0,0
24912,-83.3333333333333,4,2,1,75,0,0
25287,-66.6666666666667,4,2,1,75,0,0
25662,-50,4,2,1,75,0,0
26037,-500,4,2,1,75,0,0
26787,-83.3333333333333,4,2,1,75,0,0
26974,-133.333333333333,4,2,1,75,0,0
27349,-100,4,2,1,75,0,0
27443,-100,4,2,1,75,0,0
28287,-83.3333333333333,4,2,1,75,0,0
28568,-58.8235294117647,4,2,1,75,0,0
29037,-100,4,2,1,75,0,0
29224,-133.333333333333,4,2,1,75,0,0
29787,-83.3333333333333,4,2,1,75,0,0
29974,-133.333333333333,4,2,1,75,0,0
31287,-83.3333333333333,4,2,1,75,0,0
32037,-100,4,2,1,75,0,0
32224,-133.333333333333,4,2,1,75,0,0
32787,-83.3333333333333,4,2,1,75,0,0
33537,-100,4,2,1,75,0,0
34287,-83.3333333333333,4,2,1,75,0,0
34474,-100,4,2,1,75,0,0
34662,-66.6666666666667,4,2,1,75,0,0
35037,-83.3333333333333,4,2,1,75,0,0
37287,-66.6666666666667,4,2,1,75,0,0
38037,-133.333333333333,4,1,1,75,0,0
50037,-133.333333333333,4,1,1,75,0,0
53037,-100,4,1,1,75,0,0
56412,-90.9090909090909,4,1,1,75,0,0
56787,-83.3333333333333,4,1,1,75,0,0
57162,-76.9230769230769,4,1,1,75,0,0
60537,-100,4,1,1,75,0,0
61099,-76.9230769230769,4,1,1,75,0,0
61287,-71.4285714285714,4,1,1,75,0,0
61474,-66.6666666666667,4,1,1,75,0,0
61662,-58.8235294117647,4,1,1,75,0,0
61990,-58.8235294117647,4,1,1,5,0,0
62037,-200,4,1,1,75,0,0
62599,-100,4,1,1,75,0,0
62787,-83.3333333333333,4,1,1,75,0,0
62974,-83.3333333333333,4,1,1,75,0,1
64849,-55.5555555555556,4,1,1,75,0,1
65037,-200,4,1,1,75,0,1
65599,-100,4,1,1,75,0,1
65787,-83.3333333333333,4,1,1,75,0,1
67662,-58.8235294117647,4,1,1,75,0,1
68037,-58.8235294117647,4,1,1,75,0,0
68599,-100,4,1,1,75,0,0
68787,-83.3333333333333,4,1,1,75,0,0
68974,-83.3333333333333,4,1,1,75,0,1
70849,-55.5555555555556,4,1,1,75,0,1
71037,-200,4,1,1,75,0,1
71599,-100,4,1,1,75,0,1
71787,-83.3333333333333,4,1,1,75,0,1
73662,-50,4,1,1,75,0,1
74037,-200,4,1,1,75,0,0
74083,-200,4,2,1,10,0,0
74130,-200,4,2,1,15,0,0
74177,-200,4,2,1,20,0,0
74224,-200,4,2,1,25,0,0
74271,-200,4,2,1,30,0,0
74318,-200,4,2,1,35,0,0
74365,-200,4,2,1,40,0,0
74412,-200,4,2,1,45,0,0
74458,-200,4,2,1,50,0,0
74505,-200,4,2,1,55,0,0
74599,-100,4,1,1,75,0,0
74787,-66.6666666666667,4,1,1,75,0,0
74974,-66.6666666666667,4,1,1,75,0,1
75537,-71.4285714285714,4,1,1,75,0,1
76287,-76.9230769230769,4,1,1,75,0,1
76849,-50,4,1,1,75,0,1
77037,-200,4,1,1,75,0,1
77599,-100,4,1,1,75,0,1
77787,-66.6666666666667,4,1,1,75,0,1
78537,-71.4285714285714,4,1,1,75,0,1
79287,-76.9230769230769,4,1,1,75,0,1
80037,-76.9230769230769,4,1,1,75,0,0
80599,-66.6666666666667,4,1,1,75,0,0
80787,-55.5555555555556,4,1,1,75,0,1
81068,-83.3333333333333,4,1,1,75,0,1
82662,-55.5555555555556,4,1,1,75,0,1
83037,-66.6666666666667,4,1,1,75,0,0
84724,-100,4,1,1,75,0,0
85287,-66.6666666666667,4,1,1,75,0,0
86037,-366,4,1,1,75,0,0
86599,-66.6666666666667,4,1,1,75,0,1
89224,-55.5555555555556,4,1,1,75,0,1
89412,-50,4,1,1,75,0,1
89599,-66.6666666666667,4,1,1,75,0,1
92037,-200,4,1,1,75,0,0
92599,-66.6666666666667,4,1,1,75,0,1
94662,-55.5555555555556,4,1,1,75,0,1
95787,-66.6666666666667,4,1,1,75,0,1
97287,-200,4,1,1,75,0,1
98037,-66.6666666666667,4,1,1,75,0,0
98787,-50,4,1,1,75,0,1
99162,-66.6666666666667,4,1,1,75,0,1
100287,-50,4,1,1,75,0,1
100662,-66.6666666666667,4,1,1,75,0,1
101037,-50,4,1,1,75,0,0
101412,-100,4,1,1,75,0,0
101787,-50,4,1,1,75,0,1
102162,-66.6666666666667,4,1,1,75,0,1
103287,-50,4,1,1,75,0,1
103662,-66.6666666666667,4,1,1,75,0,1
104037,-66.6666666666667,4,1,1,75,0,0
104787,-50,4,1,1,75,0,1
105162,-62.5,4,1,1,75,0,1
106287,-50,4,1,1,75,0,1
106662,-62.5,4,1,1,75,0,1
108537,-100,4,1,1,75,0,0
109662,-200,4,1,1,75,0,0
122037,-200,4,2,1,50,0,0
122505,-200,4,2,1,5,0,0
122599,-200,4,2,1,50,0,0
123068,-200,4,2,1,5,0,0
123162,-200,4,2,1,50,0,0
123630,-200,4,2,1,5,0,0
123724,-200,4,2,1,50,0,0
124193,-200,4,2,1,5,0,0
124287,-200,4,2,1,50,0,0
124755,-200,4,2,1,5,0,0
125037,-200,4,2,1,50,0,0
125505,-200,4,2,1,5,0,0
125599,-200,4,2,1,50,0,0
126068,-200,4,2,1,5,0,0
126162,-200,4,2,1,50,0,0
126630,-200,4,2,1,5,0,0
126724,-200,4,2,1,50,0,0
127193,-200,4,2,1,5,0,0
127287,-200,4,2,1,50,0,0
127755,-200,4,2,1,5,0,0
128037,-200,4,2,1,50,0,0
128505,-200,4,2,1,5,0,0
128599,-200,4,2,1,50,0,0
129068,-200,4,2,1,5,0,0
129162,-200,4,2,1,50,0,0
129630,-200,4,2,1,5,0,0
129724,-200,4,2,1,50,0,0
130193,-200,4,2,1,5,0,0
130287,-200,4,2,1,50,0,0
130755,-200,4,2,1,5,0,0
131037,-200,4,2,1,50,0,0
131505,-200,4,2,1,5,0,0
131599,-250,4,2,1,40,0,0
132068,-250,4,2,1,5,0,0
132162,-300,4,2,1,30,0,0
132630,-300,4,2,1,5,0,0
132724,-350,4,2,1,20,0,0
133193,-350,4,2,1,5,0,0
133287,-400,4,2,1,10,0,0
133943,-400,4,2,1,5,0,0
134037,-50,4,3,1,75,0,1
134224,-52.6315789473684,4,3,1,75,0,0
134412,-55.5555555555556,4,3,1,75,0,0
134599,-58.8235294117647,4,3,1,75,0,0
134787,-62.5,4,3,1,75,0,0
137037,-58.8235294117647,4,3,1,75,0,0
140037,-58.8235294117647,4,1,1,75,0,0
143037,-50,4,1,1,75,0,0
143224,-55.5555555555556,4,1,1,75,0,0
143412,-62.5,4,1,1,75,0,0
143599,-71.4285714285714,4,1,1,75,0,0
143787,-83.3333333333333,4,1,1,75,0,0
143974,-100,4,1,1,75,0,0
144162,-125,4,1,1,75,0,0
145099,-76.9230769230769,4,1,1,75,0,0
145662,-58.8235294117647,4,1,1,75,0,0
146037,-66.6666666666667,4,1,1,75,0,1
146787,-66.6666666666667,4,1,1,75,0,1
156537,-50,4,1,1,75,0,1
158037,-200,4,2,1,75,0,0
158083,-200,4,2,1,20,0,0
158505,-200,4,1,1,20,0,0
158552,-125,4,1,1,25,0,0
158599,-66.6666666666667,4,1,1,30,0,0
158646,-66.6666666666667,4,1,1,35,0,0
158693,-66.6666666666667,4,1,1,40,0,0
158740,-66.6666666666667,4,1,1,45,0,0
158787,-50,4,1,1,75,0,1
158925,-76.9230769230769,4,1,1,75,0,1
158974,-76.9230769230769,4,1,1,75,0,1
161037,-133.333333333333,4,1,1,75,0,1
161787,-76.9230769230769,4,1,1,75,0,1
164412,-76.9230769230769,4,1,1,75,0,0
164787,-200,4,1,1,75,0,0
165162,-200,4,1,1,75,0,1
166662,-76.9230769230769,4,1,1,75,0,1
167037,-76.9230769230769,4,1,1,75,0,0
168724,-100,4,1,1,75,0,0
169287,-100,4,1,1,75,0,0
170037,-200,4,1,1,75,0,0
170693,-200,4,2,1,75,0,0
170787,-200,4,2,1,75,0,0
173037,-66.6666666666667,4,1,1,75,0,1
173224,-50,4,1,1,75,0,1
173412,-66.6666666666667,4,1,1,75,0,1
173693,-66.6666666666667,4,1,1,75,0,0
175287,-50,4,1,2,75,0,1
176037,-66.6666666666667,4,1,1,75,0,1
178662,-50,4,1,1,75,0,1
179787,-66.6666666666667,4,1,1,75,0,1
180537,-50,4,1,1,75,0,1
181287,-50,4,1,1,75,0,0
181380,-133.333333333333,4,1,1,75,0,0
182037,-66.6666666666667,4,1,1,75,0,1
182599,-50,4,1,1,75,0,1
184662,-50,4,1,1,75,0,1
185412,-148.148148148148,4,1,1,75,0,1
185787,-50,4,1,1,75,0,1
188037,-76.9230769230769,4,1,1,75,0,1
188412,-71.4285714285714,4,1,1,75,0,1
188787,-66.6666666666667,4,1,1,75,0,1
189162,-62.5,4,1,1,75,0,1
189537,-58.8235294117647,4,1,1,75,0,1
189912,-55.5555555555556,4,1,1,75,0,1
190287,-52.6315789473684,4,1,1,75,0,1
190662,-50,4,1,1,75,0,1
192537,-66.6666666666667,4,1,1,75,0,0
193287,-100,4,1,1,75,0,0
193474,-133.333333333333,4,1,1,75,0,0
193662,-200,4,1,1,75,0,0
194037,-200,4,1,2,75,0,1
194083,-200,4,1,2,75,0,1
194224,-200,4,1,2,75,0,0

[HitObjects]
256,192,12537,12,0,13896,0:0:0:0:
392,256,14037,6,0,L|420:260,2,17.0624992189408
338,323,14224,2,0,P|296:315|253:323,1,68.2499968757631
436,344,14599,1,0,0:0:0:0:
140,336,14787,6,0,B|128:344|128:344|176:338,1,62.9999980773926,8|0,0:0|0:0,0:0:0:0:
254,240,14974,1,0,0:0:0:0:
265,221,15067,1,0,0:0:0:0:
267,199,15162,1,0,0:0:0:0:
245,221,15255,1,0,0:0:0:0:
218,238,15349,2,0,P|194:254|165:261,1,52.5
104,192,15537,6,0,P|128:176|157:169,1,52.5
265,113,15724,1,0,0:0:0:0:
371,135,15912,1,0,0:0:0:0:
216,19,16099,1,0,0:0:0:0:
396,44,16287,6,0,B|408:36|408:36|359:41,1,62.9999980773926,8|0,0:0|0:0,0:0:0:0:
452,200,16474,2,0,P|464:172|452:124,1,62.9999980773926
281,245,16662,2,0,B|289:267|289:267|323:191,1,89.2500017023087,2|0,0:0|0:0,0:0:0:0:
351,169,16849,2,0,B|343:147|343:147|309:223,1,89.2500017023087,2|0,0:0|0:0,0:0:0:0:
395,336,17037,6,0,L|419:340,2,17.0624992189408
362,250,17224,1,0,0:0:0:0:
189,353,17412,1,0,0:0:0:0:
300,348,17599,1,0,0:0:0:0:
92,268,17787,6,0,B|80:276|80:276|128:270,1,62.9999980773926,8|0,0:0|0:0,0:0:0:0:
193,193,17974,2,0,P|173:176|148:168,3,52.5
80,102,18349,2,0,P|99:85|124:77,3,52.5
239,40,18724,1,0,0:0:0:0:
326,111,18912,1,0,0:0:0:0:
412,37,19099,2,0,P|391:19|366:10,1,52.5
436,192,19287,6,0,B|424:200|424:200|472:194,1,62.9999980773926,8|0,0:0|0:0,0:0:0:0:
303,210,19474,2,0,L|345:216,1,31.4999990386963
450,295,19662,2,0,B|425:290|401:270|401:270|429:338|369:372|369:372|379:339|346:295,1,236.250009012223,2|0,0:0|0:0,0:0:0:0:
291,355,20037,6,0,L|255:359,2,19.6875007510186
240,272,20224,1,0,0:0:0:0:
160,224,20412,1,0,0:0:0:0:
72,264,20599,1,0,0:0:0:0:
128,360,20787,6,0,B|129:374|129:374|146:329,1,62.9999980773926,8|0,0:0|0:0,0:0:0:0:
80,140,20974,1,0,0:0:0:0:
67,110,21067,1,0,0:0:0:0:
40,95,21162,1,0,0:0:0:0:
90,107,21255,1,0,0:0:0:0:
142,102,21349,6,0,P|169:94|188:74,1,52.5
216,8,21537,6,0,P|188:3|162:12,1,52.5
316,85,21724,1,0,0:0:0:0:
218,167,21912,1,0,0:0:0:0:
390,191,22099,1,0,0:0:0:0:
153,78,22287,6,0,B|141:68|141:68|189:79,1,62.9999980773926,8|0,0:0|0:0,0:0:0:0:
56,98,22474,2,0,P|44:66|52:34,1,52.5
112,172,22662,6,0,B|128:188|152:196|152:196|84:195|92:244|8:220|8:220|28:204|52:200,1,236.250009012223,2|0,0:0|0:0,0:0:0:0:
176,105,23037,6,0,L|208:101,2,19.6875007510186
256,52,23224,1,0,0:0:0:0:
117,52,23412,1,0,0:0:0:0:
246,162,23599,1,0,0:0:0:0:
113,286,23787,6,0,B|107:300|107:300|144:268,1,62.9999980773926,8|0,0:0|0:0,0:0:0:0:
237,234,23974,2,0,P|253:258|257:290,1,52.5
357,334,24162,2,0,P|356:305|370:276,1,52.5
324,152,24349,2,0,P|324:180|310:209,1,52.5
444,252,24537,6,0,L|429:211,4,26.25,2|0|0|0|0,0:0|0:0|0:0|0:0|0:0,0:0:0:0:
408,88,24818,1,2,0:0:0:0:
408,88,24912,2,0,L|364:100,2,31.4999990386963,2|0|0,0:0|0:0|0:0,0:0:0:0:
293,143,25099,2,0,L|337:155,2,31.4999990386963,2|0|0,0:0|0:0|0:0,0:0:0:0:
435,227,25287,6,0,B|398:241|358:217|358:217|380:256,1,118.125004506111,2|0,0:0|0:0,0:0:0:0:
317,272,25474,2,0,B|354:258|394:282|394:282|372:243,1,118.125004506111,2|0,0:0|0:0,0:0:0:0:
293,143,25662,6,0,B|245:143|245:143|213:195|213:195|129:195,1,157.5,2|0,0:0|0:0,0:0:0:0:
165,143,25849,2,0,B|213:143|213:143|245:195|245:195|329:195,1,157.5,2|0,0:0|0:0,0:0:0:0:
384,152,26037,6,0,P|389:128|372:75,1,78.75
470,165,26787,6,0,P|464:188|481:241,1,62.9999980773926,8|0,0:0|0:0,0:0:0:0:
433,321,26974,1,0,0:0:0:0:
408,337,27067,1,0,0:0:0:0:
380,345,27161,1,0,0:0:0:0:
351,343,27255,1,0,0:0:0:0:
324,331,27349,2,0,P|297:318|276:297,1,52.5
144,276,27537,2,0,P|153:303|153:332,1,52.5
227,167,27724,1,0,0:0:0:0:
344,124,27912,1,0,0:0:0:0:
387,232,28099,1,0,0:0:0:0:
324,28,28287,6,0,P|300:22|247:39,1,62.9999980773926,8|0,0:0|0:0,0:0:0:0:
136,68,28474,1,0,0:0:0:0:
367,94,28662,6,0,B|385:108|385:108|320:116,1,89.2500017023087,2|0,0:0|0:0,0:0:0:0:
273,138,28849,2,0,B|254:123|254:123|319:115,1,89.2500017023087,2|0,0:0|0:0,0:0:0:0:
456,152,29037,6,0,L|500:160,2,26.25
392,204,29224,1,0,0:0:0:0:
336,335,29412,1,0,0:0:0:0:
464,268,29599,1,0,0:0:0:0:
192,256,29787,6,0,P|215:250|268:267,1,62.9999980773926,8|0,0:0|0:0,0:0:0:0:
97,259,29974,5,0,0:0:0:0:
93,229,30067,1,0,0:0:0:0:
103,199,30161,1,0,0:0:0:0:
124,178,30255,1,0,0:0:0:0:
152,167,30349,1,0,0:0:0:0:
104,161,30442,1,0,0:0:0:0:
64,133,30537,5,0,0:0:0:0:
152,40,30724,1,0,0:0:0:0:
250,129,30912,1,0,0:0:0:0:
328,36,31099,1,0,0:0:0:0:
480,112,31287,6,0,P|456:106|403:123,1,62.9999980773926,8|0,0:0|0:0,0:0:0:0:
302,174,31474,5,0,0:0:0:0:
282,197,31567,1,0,0:0:0:0:
283,228,31662,1,2,0:0:0:0:
265,176,31755,1,2,0:0:0:0:
220,146,31849,2,0,P|183:146|123:169,1,62.9999980773926,2|2,0:0|0:0,0:0:0:0:
50,182,32037,6,0,L|96:167,2,26.25
142,255,32224,1,0,0:0:0:0:
190,356,32412,1,0,0:0:0:0:
26,275,32599,1,0,0:0:0:0:
241,278,32787,6,0,P|271:270|302:277,1,62.9999980773926,8|0,0:0|0:0,0:0:0:0:
440,244,32974,5,0,0:0:0:0:
424,216,33067,1,0,0:0:0:0:
401,195,33161,1,0,0:0:0:0:
373,181,33255,1,0,0:0:0:0:
342,175,33349,1,0,0:0:0:0:
311,178,33442,1,0,0:0:0:0:
282,190,33537,5,0,0:0:0:0:
178,238,33724,1,0,0:0:0:0:
344,274,33912,1,0,0:0:0:0:
242,331,34099,1,0,0:0:0:0:
488,204,34287,6,0,P|466:181|459:151,1,62.9999980773926,8|0,0:0|0:0,0:0:0:0:
368,32,34474,6,0,L|363:98,1,52.5
281,235,34662,2,0,B|301:260|306:290|306:290|306:211|344:159|344:159|344:198|370:238,1,275.62501051426,2|0,0:0|0:0,0:0:0:0:
432,316,35037,6,0,P|404:306|349:320,1,62.9999980773926,14|0,0:0|0:0,0:0:0:0:
424,211,35224,2,0,P|395:214|351:251,1,62.9999980773926,2|0,0:0|0:0,0:0:0:0:
188,328,35412,5,14,0:0:0:0:
188,328,35505,1,2,0:0:0:0:
188,328,35599,2,0,P|202:353|253:377,1,62.9999980773926,2|0,0:0|0:0,0:0:0:0:
182,297,35787,2,0,P|207:311|264:305,1,62.9999980773926,2|0,0:0|0:0,0:0:0:0:
370,119,35974,6,0,P|345:134|322:186,1,62.9999980773926,14|0,0:0|0:0,0:0:0:0:
161,273,36162,6,0,P|190:272|235:238,1,62.9999980773926,14|0,0:0|0:0,0:0:0:0:
131,262,36349,2,0,P|155:246|177:193,1,62.9999980773926,2|0,0:0|0:0,0:0:0:0:
282,59,36537,6,0,P|266:83|269:140,1,62.9999980773926,14|0,0:0|0:0,0:0:0:0:
176,42,36724,2,0,P|172:70|200:120,1,62.9999980773926,2|0,0:0|0:0,0:0:0:0:
247,230,36912,6,0,L|198:264,1,31.4999990386963,2|0,0:0|0:0,0:0:0:0:
291,234,37005,2,0,L|260:284,1,31.4999990386963,2|0,0:0|0:0,0:0:0:0:
334,219,37099,2,0,L|325:277,1,31.4999990386963,14|0,0:0|0:0,0:0:0:0:
366,190,37193,2,0,L|381:247,1,31.4999990386963,2|0,0:0|0:0,0:0:0:0:
384,149,37287,6,0,P|348:128|292:132,1,78.7500030040742,12|0,0:0|0:0,0:0:0:0:
299,320,37474,2,0,P|320:284|316:228,1,78.7500030040742,12|0,0:0|0:0,0:0:0:0:
128,235,37662,2,0,P|163:256|220:252,1,78.7500030040742,12|0,0:0|0:0,0:0:0:0:
213,64,37849,2,0,P|192:99|196:156,1,78.7500030040742,12|0,0:0|0:0,0:0:0:0:
188,380,38037,5,6,2:3:0:0:
256,192,38224,12,0,40849,2:0:0:0:
100,92,41037,5,0,2:2:0:0:
102,93,41412,1,0,2:2:0:0:
104,95,41787,1,0,2:2:0:0:
106,97,42162,1,0,2:2:0:0:
108,99,42537,1,0,2:2:0:0:
110,100,42912,1,0,2:2:0:0:
113,102,43287,1,0,2:2:0:0:
115,104,43662,1,0,2:2:0:0:
416,56,44037,5,6,2:3:0:0:
281,145,44412,1,0,2:2:0:0:
279,147,44787,1,0,2:2:0:0:
277,149,45162,1,0,2:2:0:0:
275,151,45537,1,0,2:2:0:0:
273,152,45912,1,0,2:2:0:0:
270,154,46287,1,0,2:2:0:0:
268,156,46662,1,0,2:2:0:0:
172,252,47037,5,0,2:3:0:0:
175,253,47412,1,0,2:2:0:0:
312,296,47787,5,0,2:2:0:0:
310,298,48162,1,0,2:2:0:0:
396,184,48537,5,0,2:2:0:0:
398,186,48912,1,0,2:2:0:0:
256,128,49287,5,0,2:2:0:0:
256,128,49662,5,0,2:0:0:0:
346,111,49755,1,0,2:0:0:0:
428,153,49849,1,0,2:0:0:0:
467,236,49943,1,0,2:0:0:0:
443,329,50037,6,0,L|431:266,5,39.3750015020371,12|0|0|0|8|0,2:3|2:2|2:2|2:2|2:2|2:2,2:2:0:0:
512,360,50599,2,0,L|505:393,3,19.6875007510186,2|2|2|2,2:2|2:2|2:2|2:2,2:2:0:0:
443,329,50787,2,0,L|431:266,1,39.3750015020371,12|0,2:2|2:2,2:2:0:0:
369,332,50974,1,2,2:2:0:0:
369,332,51068,2,0,L|362:371,1,39.3750015020371,2|8,2:2|2:2,2:2:0:0:
275,387,51255,1,2,2:2:0:0:
275,387,51349,2,0,L|309:332,1,39.3750015020371,2|0,2:2|2:2,2:2:0:0:
217,346,51537,6,0,L|185:370,1,39.3750015020371,12|0,2:2|2:2,2:2:0:0:
109,321,51724,1,2,2:2:0:0:
109,321,51818,2,0,L|171:303,1,39.3750015020371,2|8,2:2|2:2,2:2:0:0:
93,252,52005,1,2,2:2:0:0:
93,252,52099,2,0,L|53:249,1,39.3750015020371,2|0,2:2|2:2,2:2:0:0:
26,160,52287,6,0,L|84:188,1,39.3750015020371,12|0,2:2|2:2,2:2:0:0:
60,96,52474,1,2,2:2:0:0:
60,96,52568,2,0,L|33:68,1,39.3750015020371,2|8,2:2|2:2,2:2:0:0:
72,0,52755,1,2,2:2:0:0:
72,0,52849,2,0,L|97:45,1,39.3750015020371,2|0,2:2|2:2,2:2:0:0:
69,329,53037,6,0,L|81:266,5,52.5,6|0|0|0|8|0,2:3|2:2|2:2|2:2|2:2|2:2,2:2:0:0:
2,352,53599,2,0,L|9:385,3,26.25,2|2|2|2,2:2|2:2|2:2|2:2,2:2:0:0:
68,329,53787,2,0,L|80:266,1,52.5,12|0,2:2|2:2,2:2:0:0:
139,319,53974,1,2,2:2:0:0:
139,319,54068,2,0,L|149:371,1,52.5,2|8,2:2|2:2,2:2:0:0:
236,387,54255,1,2,2:2:0:0:
236,387,54349,2,0,L|202:332,1,52.5,2|0,2:2|2:2,2:2:0:0:
284,338,54537,6,0,L|326:370,1,52.5,12|0,2:2|2:2,2:2:0:0:
402,321,54724,1,2,2:2:0:0:
402,321,54818,2,0,L|352:306,1,52.5,2|8,2:2|2:2,2:2:0:0:
405,253,55005,1,2,2:2:0:0:
405,253,55099,2,0,L|458:249,1,52.5,2|0,2:2|2:2,2:2:0:0:
485,160,55287,2,0,L|437:183,1,52.5,12|0,2:2|2:2,2:2:0:0:
442,106,55474,1,2,2:2:0:0:
442,106,55568,2,0,L|478:68,1,52.5,2|8,2:2|2:2,2:2:0:0:
439,0,55755,1,2,2:2:0:0:
439,0,55849,2,0,L|414:45,1,52.5,2|0,2:2|2:2,2:2:0:0:
311,337,56037,6,0,P|309:302|280:262,1,52.5,4|0,2:3|2:2,2:2:0:0:
209,286,56224,2,0,P|200:310|201:337,1,52.5,0|0,2:2|2:2,2:2:0:0:
372,274,56412,2,0,P|358:242|316:214,1,57.7500017623902,12|0,2:2|2:2,2:2:0:0:
170,226,56599,2,0,P|150:247|140:274,1,57.7500017623902,0|0,2:2|2:2,2:2:0:0:
407,193,56787,6,0,P|382:168|334:157,1,62.9999980773926,12|0,2:2|2:2,2:2:0:0:
155,158,56974,1,2,2:2:0:0:
155,158,57068,2,0,P|126:170|105:193,1,62.9999980773926,2|12,2:2|2:2,2:2:0:0:
346,90,57255,1,2,2:2:0:0:
346,90,57349,2,0,P|380:89|411:104,1,68.2499968757631,2|0,2:2|2:2,2:2:0:0:
165,90,57537,2,0,P|131:89|101:103,1,68.2499968757631,12|0,2:2|2:2,2:2:0:0:
407,193,57724,5,2,2:2:0:0:
407,193,57818,2,0,P|382:168|334:157,1,68.2499968757631,2|12,2:2|2:2,2:2:0:0:
104,193,58005,1,2,2:2:0:0:
104,193,58099,6,0,P|127:168|158:155,1,68.2499968757631,2|0,2:2|2:2,2:2:0:0:
372,274,58287,2,0,P|358:242|316:214,1,68.2499968757631,12|0,2:2|2:2,2:2:0:0:
170,226,58474,2,0,P|146:251|134:283,1,68.2499968757631,0|0,2:2|2:2,2:2:0:0:
313,352,58662,2,0,P|314:318|302:286,1,68.2499968757631,12|0,2:2|2:2,2:2:0:0:
209,286,58849,2,0,P|197:318|198:353,1,68.2499968757631,0|0,2:2|2:2,2:2:0:0:
480,352,59037,5,12,2:2:0:0:
398,324,59130,1,8,2:2:0:0:
469,297,59224,1,12,2:2:0:0:
395,278,59317,1,8,2:2:0:0:
454,244,59412,1,12,2:2:0:0:
387,234,59505,1,8,2:2:0:0:
430,195,59599,1,12,2:2:0:0:
371,192,59692,1,8,2:2:0:0:
400,148,59787,5,12,2:2:0:0:
350,152,59880,1,8,2:2:0:0:
364,108,59974,1,12,2:2:0:0:
325,115,60067,1,8,2:2:0:0:
323,73,60162,1,12,2:2:0:0:
294,82,60255,1,8,2:2:0:0:
275,44,60349,1,12,2:2:0:0:
259,54,60442,1,8,2:2:0:0:
210,126,60537,6,0,L|194:158,4,26.25,2|2|2|2|2,0:0|0:0|0:0|0:0|0:0,0:0:0:0:
252,217,60912,6,0,L|268:249,3,26.25,2|2|2|2,0:0|0:0|0:0|0:0,0:0:0:0:
176,280,61099,6,0,P|200:316|208:364,1,68.2499968757631,2|0,0:0|0:0,0:0:0:0:
336,104,61287,2,0,P|312:68|304:20,1,73.4999977569581,2|0,0:0|0:0,0:0:0:0:
168,112,61474,2,0,P|132:136|84:144,1,78.7500030040742,2|0,0:0|0:0,0:0:0:0:
343,274,61662,2,2,P|385:309|279:293,1,312.37500595808
176,280,62037,6,0,B|161:290|161:290|221:274|271:314,1,131.25,4|0,0:3|0:0,0:0:0:0:
214,360,62599,2,0,L|173:351,3,26.25
312,367,62787,2,0,P|331:342|339:312,1,62.9999980773926,8|0,0:0|0:0,0:0:0:0:
151,149,62974,5,6,0:0:0:0:
87,198,63068,2,0,P|100:165|126:141,1,62.9999980773926,2|0,0:0|0:0,0:0:0:0:
163,219,63255,1,2,0:0:0:0:
163,219,63349,2,0,P|163:251|175:279,1,62.9999980773926,2|0,0:0|0:0,0:0:0:0:
297,160,63537,6,0,P|319:137|329:107,1,62.9999980773926,4|0,0:0|0:0,0:0:0:0:
241,26,63724,1,2,0:0:0:0:
241,26,63818,2,0,P|254:59|251:94,1,62.9999980773926,2|0,0:0|0:0,0:0:0:0:
121,27,64005,1,2,0:0:0:0:
121,27,64099,2,0,P|150:39|171:62,1,62.9999980773926,2|0,0:0|0:0,0:0:0:0:
296,279,64287,6,0,P|268:267|246:244,1,62.9999980773926,8|0,0:0|0:0,0:0:0:0:
31,138,64474,5,6,0:0:0:0:
96,103,64568,2,0,P|65:101|36:112,1,62.9999980773926,2|0,0:0|0:0,0:0:0:0:
47,251,64755,1,2,0:0:0:0:
47,251,64849,2,0,P|77:208|30:231,1,141.749995674133,2|0,0:0|0:0,0:0:0:0:
202,264,65037,6,0,B|218:271|218:271|156:265|113:312,1,131.25,4|0,0:0|0:0,0:0:0:0:
175,349,65599,2,0,L|214:333,3,26.25,2|2|2|2,0:0|0:0|0:0|0:0,0:0:0:0:
43,322,65787,2,0,P|54:351|78:372,1,62.9999980773926,8|0,0:0|0:0,0:0:0:0:
220,133,65974,5,6,0:0:0:0:
149,144,66068,2,0,P|177:122|212:116,2,62.9999980773926,2|0|2,0:0|0:0|0:0,0:0:0:0:
347,223,66349,6,4,P|377:215|402:195,1,62.9999980773926,6|0,0:0|0:0,0:0:0:0:
370,79,66537,2,0,P|363:113|342:141,1,62.9999980773926
268,17,66724,1,2,0:0:0:0:
268,17,66818,2,0,P|286:42|291:73,2,62.9999980773926,2|0|2,0:0|0:0|0:0,0:0:0:0:
202,202,67099,6,4,P|185:229|180:259,1,62.9999980773926,6|0,0:0|0:0,0:0:0:0:
369,78,67287,6,8,P|365:109|348:136,1,62.9999980773926,8|0,0:0|0:0,0:0:0:0:
401,195,67474,1,2,0:0:0:0:
401,195,67568,1,2,0:0:0:0:
316,216,67662,6,0,B|288:230|271:260|271:260|294:166|234:110|234:110|252:152|240:196,1,312.37500595808
154,157,68037,1,4,3:0:0:0:
154,157,68599,2,0,L|156:200,3,26.25,2|2|2|2,0:0|0:0|0:0|0:0,0:0:0:0:
113,244,68787,6,0,P|134:267|162:282,1,62.9999980773926,8|0,0:0|0:0,0:0:0:0:
260,134,68974,1,6,0:0:0:0:
269,59,69068,2,0,P|245:83|232:123,1,62.9999980773926,2|0,0:0|0:0,0:0:0:0:
239,277,69255,1,2,0:0:0:0:
239,277,69349,2,0,P|221:247|217:206,1,62.9999980773926,2|0,0:0|0:0,0:0:0:0:
310,182,69537,6,0,P|303:151|308:121,1,62.9999980773926,4|0,0:0|0:0,0:0:0:0:
309,314,69724,1,2,0:0:0:0:
309,314,69818,2,0,P|309:279|327:242,1,62.9999980773926,2|0,0:0|0:0,0:0:0:0:
377,148,70005,1,2,0:0:0:0:
377,148,70099,2,0,P|393:178|426:202,1,62.9999980773926,2|0,0:0|0:0,0:0:0:0:
387,334,70287,6,0,P|362:353|347:381,1,62.9999980773926,8|0,0:0|0:0,0:0:0:0:
437,96,70474,5,6,0:0:0:0:
508,144,70568,2,0,P|477:141|449:128,1,62.9999980773926,2|0,0:0|0:0,0:0:0:0:
364,69,70755,1,2,0:0:0:0:
364,69,70849,2,0,P|334:26|381:49,1,141.749995674133,2|0,0:0|0:0,0:0:0:0:
448,127,71037,6,0,B|463:135|463:135|402:122|353:163,1,131.25,4|0,0:0|0:0,0:0:0:0:
288,176,71599,2,0,L|304:216,1,26.25,2|2,0:0|0:0,0:0:0:0:
361,230,71693,2,0,L|403:222,1,26.25,2|2,0:0|0:0,0:0:0:0:
436,175,71787,6,0,P|451:198|446:259,1,62.9999980773926,8|0,0:0|0:0,0:0:0:0:
328,93,71974,1,6,0:0:0:0:
276,27,72068,2,0,P|279:58|296:85,1,62.9999980773926,2|0,0:0|0:0,0:0:0:0:
151,89,72255,1,2,0:0:0:0:
151,89,72349,2,2,P|173:111|203:121,1,62.9999980773926,6|2,0:0|0:0,0:0:0:0:
385,106,72537,6,0,L|417:94,2,31.4999990386963,2|0|0,0:0|0:0|0:0,0:0:0:0:
456,156,72724,2,0,L|468:188,1,31.4999990386963,2|0,0:0|0:0,0:0:0:0:
472,260,72818,2,0,L|460:292,1,31.4999990386963,2|0,0:0|0:0,0:0:0:0:
418,350,72912,6,0,L|389:339,2,31.4999990386963,2|0|0,0:0|0:0|0:0,0:0:0:0:
318,313,73099,6,0,P|318:369|338:397,1,62.9999980773926,2|0,0:0|0:0,0:0:0:0:
320,251,73287,2,0,P|320:307|300:335,1,62.9999980773926,2|0,0:0|0:0,0:0:0:0:
317,189,73474,2,0,P|317:245|337:273,1,62.9999980773926,2|0,0:0|0:0,0:0:0:0:
296,107,73662,6,0,B|246:113|218:76|218:76|276:163|239:239|186:248|120:202|120:141|210:114,1,367.5,2|0,0:0|0:0,0:0:0:0:
280,33,74037,6,0,L|294:26,11,13.125,4|0|0|0|0|0|0|0|0|0|0|0,0:3|2:0|2:0|2:0|0:0|0:0|0:0|0:0|0:0|0:0|0:0|0:0,0:0:0:0:
219,76,74599,6,0,L|241:116,1,26.25
153,99,74693,2,0,L|145:144,1,26.25
88,72,74787,2,0,L|-1:34,1,78.7500030040742,8|0,0:0|0:0,0:0:0:0:
136,164,74974,1,6,0:0:0:0:
136,164,75068,2,0,L|38:169,1,78.7500030040742,2|0,0:0|0:0,0:0:0:0:
220,225,75255,1,2,0:0:0:0:
220,225,75349,2,0,L|135:272,1,78.7500030040742,6|0,0:0|0:0,0:0:0:0:
57,168,75537,6,0,L|146:162,1,73.4999977569581
151,263,75724,1,2,0:0:0:0:
151,263,75818,2,0,L|228:219,1,73.4999977569581,2|0,0:0|0:0,0:0:0:0:
270,315,76005,1,2,0:0:0:0:
270,315,76099,2,0,L|320:241,1,73.4999977569581,2|0,0:0|0:0,0:0:0:0:
215,226,76287,6,0,L|137:269,1,68.2499968757631,8|0,0:0|0:0,0:0:0:0:
311,254,76474,1,6,0:0:0:0:
311,254,76568,2,0,L|260:327,1,68.2499968757631,2|0,0:0|0:0,0:0:0:0:
419,213,76755,1,2,0:0:0:0:
419,213,76849,2,0,P|440:256|452:184,1,157.5,2|0,0:0|0:0,0:0:0:0:
287,185,77037,6,0,B|269:183|269:183|332:175|364:121,1,131.25,4|0,0:0|0:0,0:0:0:0:
293,76,77599,6,0,L|271:116,1,26.25
359,99,77693,2,0,L|366:144,1,26.25
424,72,77787,2,0,L|513:34,1,78.7500030040742,8|0,0:0|0:0,0:0:0:0:
376,164,77974,1,6,0:0:0:0:
376,164,78068,2,0,L|474:169,1,78.7500030040742,2|0,0:0|0:0,0:0:0:0:
292,225,78255,1,2,0:0:0:0:
292,225,78349,2,0,L|377:272,1,78.7500030040742,6|0,0:0|0:0,0:0:0:0:
455,168,78537,6,0,L|366:162,1,73.4999977569581
361,263,78724,1,2,0:0:0:0:
361,263,78818,2,0,L|284:219,1,73.4999977569581,2|0,0:0|0:0,0:0:0:0:
242,315,79005,1,2,0:0:0:0:
242,315,79099,2,0,L|192:241,1,73.4999977569581,6|0,0:0|0:0,0:0:0:0:
297,226,79287,6,0,L|375:269,1,68.2499968757631,8|0,0:0|0:0,0:0:0:0:
201,254,79474,1,2,0:0:0:0:
201,254,79568,1,0,0:0:0:0:
150,327,79662,5,0,0:0:0:0:
114,270,79755,1,0,0:0:0:0:
128,205,79849,2,0,P|136:176|156:136,1,68.2499968757631
24,368,80037,1,6,0:3:0:0:
24,368,80412,6,0,L|36:328,1,34.1249984378815,2|0,0:0|0:0,0:0:0:0:
72,260,80505,6,0,L|100:290,1,34.1249984378815,2|0,0:0|0:0,0:0:0:0:
141,355,80599,6,0,B|80:368|80:368|16:323,1,118.125004506111
72,260,80787,2,0,B|96:285|96:285|80:240|88:224|132:192|184:224|168:268|148:292,1,188.999994232178,8|6,0:0|0:0,0:0:0:0:
96,155,81068,2,0,P|67:167|44:189,1,62.9999980773926,2|0,0:0|0:0,0:0:0:0:
231,262,81255,1,2,0:0:0:0:
231,262,81349,2,0,P|230:230|218:201,1,62.9999980773926,6|0,0:0|0:0,0:0:0:0:
259,73,81537,6,0,P|290:71|319:59,1,62.9999980773926
472,141,81724,1,2,0:0:0:0:
472,141,81818,1,2,0:0:0:0:
414,71,81912,5,0,0:0:0:0:
378,127,82005,1,2,0:0:0:0:
392,192,82099,2,0,P|399:221|419:261,1,62.9999980773926,2|0,0:0|0:0,0:0:0:0:
259,73,82287,6,0,P|227:74|198:86,1,62.9999980773926,8|0,0:0|0:0,0:0:0:0:
32,56,82474,2,0,P|63:54|92:42,1,62.9999980773926,4|0,0:0|0:0,0:0:0:0:
259,73,82662,2,0,B|229:69|199:85|199:85|248:136|264:194|264:194|218:158|160:160|100:212,1,330.749989906311,2|0,0:0|0:0,0:0:0:0:
209,250,83037,6,0,B|225:262|225:262|125:266,1,78.7500030040742,6|0,0:0|0:0,0:0:0:0:
288,316,83224,2,0,B|304:328|304:328|204:332,1,78.7500030040742
74,309,83412,1,6,0:0:0:0:
58,320,83505,1,2,0:0:0:0:
34,333,83599,6,0,B|18:345|18:345|118:349,1,78.7500030040742,2|0,0:0|0:0,0:0:0:0:
84,189,83787,2,0,B|100:177|100:177|0:173,1,78.7500030040742,2|0,0:0|0:0,0:0:0:0:
76,347,83974,2,0,B|73:366|73:366|146:298,1,78.7500030040742,6|0,0:0|0:0,0:0:0:0:
42,175,84162,2,0,B|44:155|44:155|-28:223,2,78.7500030040742,6|0|0,0:0|0:0|0:0,0:0:0:0:
104,302,84443,1,4,0:0:0:0:
116,326,84537,6,0,B|128:342|128:342|132:242,1,78.7500030040742,6|0,0:0|0:0,0:0:0:0:
138,122,84724,2,0,L|175:122,3,26.25
172,195,84912,2,0,L|158:222,1,26.25,2|2,0:0|0:0,0:0:0:0:
212,180,85005,2,0,L|217:210,1,26.25,2|2,0:0|0:0,0:0:0:0:
236,145,85099,2,0,L|258:166,1,26.25,6|2,0:0|0:0,0:0:0:0:
234,100,85193,2,0,L|264:104,1,26.25,2|2,0:0|0:0,0:0:0:0:
206,65,85287,6,0,B|242:49|242:49|282:-5,1,78.7500030040742,6|0,0:0|0:0,0:0:0:0:
397,53,85474,2,0,B|392:92|392:92|419:153,1,78.7500030040742,2|0,0:0|0:0,0:0:0:0:
311,224,85662,2,0,B|279:200|279:200|212:193,1,78.7500030040742,6|0,0:0|0:3,0:3:0:0:
115,314,85849,2,0,B|151:297|151:297|191:244,1,78.7500030040742,2|0,0:0|0:3,0:3:0:0:
135,99,86037,6,0,B|130:138|130:138|157:199,1,78.7500030040742,4|0,0:0|0:3,0:3:0:0:
264,158,86599,6,0,B|256:139|256:139|253:179|226:217,1,78.7500030040742,8|0,0:0|0:0,0:0:0:0:
224,288,86787,1,6,0:0:0:0:
224,288,86880,2,0,B|216:306|216:306|213:266|186:228,1,78.7500030040742,2|0,0:0|0:0,0:0:0:0:
344,155,87068,1,2,0:0:0:0:
344,155,87161,2,0,B|333:138|333:138|337:178|318:220,1,78.7500030040742,10|0,0:0|0:0,0:0:0:0:
304,291,87349,2,0,B|293:307|293:307|297:267|278:225,1,78.7500030040742,2|0,0:0|0:0,0:0:0:0:
422,136,87537,5,6,0:0:0:0:
422,136,87630,2,0,B|408:121|408:121|420:160|409:205,1,78.7500030040742,2|0,0:0|0:0,0:0:0:0:
382,310,87818,1,2,0:0:0:0:
382,310,87911,2,0,B|368:324|368:324|380:285|369:240,1,78.7500030040742,2|0,0:0|0:0,0:0:0:0:
496,103,88099,2,0,B|479:91|479:91|499:127|496:173,1,78.7500030040742,10|0,0:0|0:0,0:0:0:0:
456,343,88287,1,6,0:0:0:0:
456,343,88381,2,0,B|439:354|439:354|459:318|456:272,1,78.7500030040742,2|0,0:0|0:0,0:0:0:0:
494,146,88568,1,2,0:0:0:0:
494,146,88662,6,0,B|505:127|505:127|447:159|383:139|383:139|423:191|411:239,1,236.250009012223,10|0,0:0|0:0,0:0:0:0:
368,296,89037,1,4,0:0:0:0:
292,260,89130,1,0,0:0:0:0:
216,296,89224,6,0,P|180:320|208:276,1,141.749995674133,2|0,0:0|0:0,0:0:0:0:
205,274,89412,6,0,P|177:235|226:264,1,157.5,2|0,0:0|0:0,0:0:0:0:
121,177,89599,6,0,B|140:169|140:169|109:196|107:242,1,78.7500030040742,8|0,0:0|0:0,0:0:0:0:
303,203,89787,1,6,0:0:0:0:
303,203,89880,2,0,B|286:190|286:190|308:224|298:269,1,78.7500030040742,2|0,0:0|0:0,0:0:0:0:
121,177,90068,1,2,0:0:0:0:
121,177,90162,2,0,B|101:184|101:184|132:157|134:111,1,78.7500030040742,10|0,0:0|0:0,0:0:0:0:
303,203,90349,2,0,B|319:215|319:215|297:181|307:136,1,78.7500030040742,2|0,0:0|0:0,0:0:0:0:
130,134,90537,5,6,0:0:0:0:
130,134,90630,2,0,B|144:119|144:119|107:136|64:120,1,78.7500030040742,2|0,0:0|0:0,0:0:0:0:
305,159,90818,1,2,0:0:0:0:
305,159,90912,2,0,B|295:140|295:140|325:167|371:163,1,78.7500030040742,2|0,0:0|0:0,0:0:0:0:
98,85,91099,2,0,B|117:77|117:77|86:104|84:150,1,78.7500030040742,10|0,0:0|0:0,0:0:0:0:
349,120,91287,5,6,0:0:0:0:
349,120,91380,2,0,B|332:107|332:107|354:141|344:186,1,78.7500030040742,2|0,0:0|0:0,0:0:0:0:
98,85,91568,1,2,0:0:0:0:
98,85,91662,2,0,B|78:92|78:92|109:65|111:19,1,78.7500030040742,10|0,0:0|0:0,0:0:0:0:
349,120,91849,2,0,B|365:132|365:132|343:98|353:53,1,78.7500030040742,2|0,0:0|0:0,0:0:0:0:
296,240,92037,6,0,L|296:264,11,13.125,4|0|0|0|0|0|0|0|0|0|0|0,0:0|0:0|0:0|0:0|0:0|0:0|0:0|0:0|0:0|0:0|0:0|0:0,0:0:0:0:
256,312,92599,6,0,B|241:302|230:282|230:282|210:292|185:293,1,78.7500030040742,8|0,0:0|0:0,0:0:0:0:
375,159,92787,1,6,0:0:0:0:
375,159,92880,2,0,B|389:168|400:188|400:188|420:178|445:177,1,78.7500030040742,2|0,0:0|0:0,0:0:0:0:
218,205,93068,1,2,0:0:0:0:
218,205,93162,2,0,B|203:195|192:175|192:175|172:185|147:186,1,78.7500030040742,10|0,0:0|0:0,0:0:0:0:
322,331,93349,2,0,B|339:331|359:320|359:320|370:340|390:355,1,78.7500030040742,2|0,0:0|0:0,0:0:0:0:
310,139,93537,5,6,0:0:0:0:
310,139,93630,2,0,B|292:138|272:149|272:149|261:129|241:114,1,78.7500030040742,2|0,0:0|0:0,0:0:0:0:
412,265,93818,1,2,0:0:0:0:
412,265,93912,2,0,B|429:265|449:254|449:254|460:274|475:284,1,78.7500030040742,2|0,0:0|0:0,0:0:0:0:
400,72,94099,2,0,B|382:73|362:83|362:83|352:63|337:53,1,78.7500030040742,10|0,0:0|0:0,0:0:0:0:
285,225,94287,5,6,0:0:0:0:
285,225,94380,2,0,B|302:225|322:214|322:214|333:234|353:249,1,78.7500030040742,2|0,0:0|0:0,0:0:0:0:
193,130,94568,1,2,0:0:0:0:
193,130,94662,2,0,P|158:88|241:126,1,283.499991348267,10|0,0:0|0:0,0:0:0:0:
162,88,95037,5,6,0:0:0:0:
268,69,95130,1,2,0:0:0:0:
182,122,95224,5,2,0:0:0:0:
246,34,95317,1,2,0:0:0:0:
224,131,95412,5,2,0:0:0:0:
205,24,95505,1,2,0:0:0:0:
259,110,95599,5,10,0:0:0:0:
169,46,95692,1,2,0:0:0:0:
308,52,95787,5,6,0:0:0:0:
308,52,95880,2,0,B|325:63|325:63|285:59|243:78,1,78.7500030040742,2|0,0:0|0:0,0:0:0:0:
121,71,96068,1,0,0:0:0:0:
121,71,96161,2,0,B|104:82|104:82|144:78|186:97,1,78.7500030040742,10|0,0:0|0:0,0:0:0:0:
378,134,96349,2,0,B|395:145|395:145|355:141|313:160,1,78.7500030040742,2|0,0:0|0:0,0:0:0:0:
96,152,96537,6,0,P|48:136|32:64,1,78.7500030040742,6|0,0:0|0:0,0:0:0:0:
185,178,96724,1,0,0:0:0:0:
194,215,96817,1,2,0:0:0:0:
176,248,96912,2,0,P|213:214|284:236,1,78.7500030040742,2|0,0:0|0:0,0:0:0:0:
51,342,97099,2,0,P|63:306|51:268,1,78.7500030040742,2|0,0:0|0:0,3:0:0:0:
96,152,97287,5,4,0:0:0:0:
96,152,97380,2,0,L|101:129,2,13.125,2|2|2,0:0|0:0|0:0,0:0:0:0:
52,269,97568,1,2,0:0:0:0:
52,269,97662,2,0,L|30:275,2,13.125,0|2|2,0:0|0:0|0:0,0:0:0:0:
176,248,97849,2,0,L|191:262,3,13.125,0|2|2|2,0:0|0:0|0:0|0:0,0:0:0:0:
135,312,98037,6,0,B|182:341|222:319|222:319|243:343|283:359|355:351|355:279|371:255|339:199|227:207|275:274,1,393.750015020371
418,270,98599,1,2,0:0:0:0:
408,201,98692,1,2,0:0:0:0:
351,165,98787,6,0,B|303:142|303:142|240:162,1,105,6|2,0:0|0:0,0:0:0:0:
167,139,98974,2,0,B|191:93|191:93|241:76,1,105,8|2,0:0|0:0,0:0:0:0:
384,87,99162,6,0,B|422:106|422:106|436:146,1,78.7500030040742,6|0,0:0|0:0,0:0:0:0:
484,209,99349,2,0,B|448:232|448:232|406:224,1,78.7500030040742,2|0,0:0|0:0,0:0:0:0:
329,234,99537,1,6,0:0:0:0:
329,234,99630,2,0,B|326:191|326:191|354:159,1,78.7500030040742,2|0,0:0|0:0,0:0:0:0:
412,76,99818,1,2,0:0:0:0:
412,76,99912,2,0,B|450:95|450:95|464:135,1,78.7500030040742,6|0,0:0|0:0,0:0:0:0:
479,238,100099,2,0,B|443:261|443:261|401:253,1,78.7500030040742,2|0,0:0|0:0,0:0:0:0:
305,215,100287,6,0,B|302:162|302:162|336:123,1,105,6|0,0:0|0:0,0:0:0:0:
353,36,100474,2,0,B|300:39|300:39|265:78,1,105,10|0,0:0|0:0,0:0:0:0:
219,214,100662,6,0,B|221:256|221:256|253:285,1,78.7500030040742,6|0,0:0|0:0,0:0:0:0:
397,350,100849,2,0,P|361:334|301:354,1,78.7500030040742,2|0,0:0|0:0,0:0:0:0:
80,288,101037,6,0,B|108:306|151:291|151:291|132:316,1,105,2|2,0:0|0:0,0:0:0:0:
186,344,101224,2,0,B|157:325|114:340|114:340|133:315,1,105,2|2,0:0|0:0,0:0:0:0:
223,133,101412,6,0,B|256:132|291:168|291:168|285:118|308:95,1,157.5,0|2,0:0|0:0,0:0:0:0:
180,206,101787,6,0,B|226:231|226:231|247:294,1,105,6|2,0:0|0:0,0:0:0:0:
309,340,101974,2,0,B|332:293|332:293|316:243,1,105,8|2,0:0|0:0,0:0:0:0:
224,134,102162,6,0,B|186:114|186:114|145:126,1,78.7500030040742,6|0,0:0|0:0,0:0:0:0:
67,124,102349,2,0,B|69:166|69:166|100:195,1,78.7500030040742,2|0,0:0|0:0,0:0:0:0:
138,264,102537,1,6,0:0:0:0:
138,264,102630,2,0,B|174:241|174:241|183:199,1,78.7500030040742,2|0,0:0|0:0,0:0:0:0:
217,104,102818,1,2,0:0:0:0:
217,104,102912,2,0,B|179:84|179:84|138:96,1,78.7500030040742,6|0,0:0|0:0,0:0:0:0:
46,145,103099,2,0,B|48:187|48:187|79:216,1,78.7500030040742,2|0,0:0|0:0,0:0:0:0:
167,272,103287,6,0,B|211:243|211:243|223:192,1,105,6|0,0:0|0:0,0:0:0:0:
283,128,103474,2,0,B|311:172|311:172|300:223,1,105,10|0,0:0|0:0,0:0:0:0:
218,341,103662,6,0,B|182:364|182:364|140:355,1,78.7500030040742,6|0,0:0|0:0,0:0:0:0:
3,277,103849,2,0,P|37:296|56:357,1,78.7500030040742,2|0,0:0|0:0,0:0:0:0:
148,256,104037,2,0,B|164:217|223:193|223:193|175:208|133:200|104:159|104:159|56:71|128:7|220:17|271:58|231:148|172:165|140:77,1,551.25002102852,0|2,0:0|0:0,0:0:0:0:
259,263,104787,2,0,P|290:223|282:151,1,105,6|2,0:0|0:0,0:0:0:0:
193,4,104974,2,0,P|238:26|262:94,1,105,8|2,0:0|0:0,0:0:0:0:
293,231,105162,6,0,P|272:278|227:303,1,84,6|0,0:0|0:0,0:0:0:0:
127,321,105349,2,0,P|83:293|64:245,1,84,2|0,0:0|0:0,0:0:0:0:
291,143,105537,1,6,0:0:0:0:
291,143,105630,6,0,P|320:185|317:237,1,84,2|0,0:0|0:0,0:0:0:0:
279,331,105818,1,2,0:0:0:0:
279,331,105912,2,0,P|232:353|181:344,1,84,6|0,0:0|0:0,0:0:0:0:
143,232,106099,2,0,P|189:209|240:218,1,84,2|0,0:0|0:0,0:0:0:0:
383,174,106287,6,0,P|343:143|271:151,1,105,6|0,0:0|0:0,0:0:0:0:
124,240,106474,2,0,P|146:194|214:170,1,105,10|0,0:0|0:0,0:0:0:0:
351,140,106662,6,0,P|398:160|423:205,1,84,6|0,0:0|0:0,0:0:0:0:
441,306,106849,2,0,P|413:349|365:368,1,84,2|0,0:0|0:0,0:0:0:0:
220,314,107037,5,6,0:0:0:0:
134,281,107130,1,2,0:0:0:0:
86,206,107224,1,2,0:0:0:0:
93,122,107318,1,2,0:0:0:0:
143,59,107412,1,6,0:0:0:0:
214,35,107505,1,2,0:0:0:0:
283,50,107599,1,2,0:0:0:0:
334,93,107693,1,2,0:0:0:0:
304,192,107787,5,6,0:0:0:0:
280,125,107880,1,2,0:0:0:0:
222,99,107974,1,10,0:0:0:0:
167,122,108068,1,2,0:0:0:0:
140,171,108162,1,6,0:0:0:0:
151,221,108255,1,2,0:0:0:0:
184,253,108349,1,2,0:0:0:0:
224,260,108443,1,2,0:0:0:0:
256,224,108537,6,0,L|256:157,2,52.5,6|2|2,0:0|0:0|0:0,0:0:0:0:
256,360,108818,1,2,0:0:0:0:
256,360,108912,2,0,L|256:271,1,52.5,2|0,0:0|0:0,0:0:0:0:
256,171,109099,2,0,L|256:82,1,52.5,2|0,0:0|0:0,0:0:0:0:
256,32,109287,5,2,0:0:0:0:
149,178,109474,1,2,0:0:0:0:
363,178,109662,2,0,P|359:149|329:101,1,78.75,2|0,0:0|0:0,0:0:0:0:
384,280,110037,5,4,0:0:0:0:
472,200,122037,6,0,L|340:200,1,131.25
440,232,122599,2,0,L|308:232,1,131.25
408,264,123162,2,0,L|276:264,1,131.25
376,296,123724,2,0,L|244:296,1,131.25
344,328,124287,2,0,L|212:328,1,131.25
24,80,125037,6,0,L|155:80,1,131.25
56,112,125599,2,0,L|187:112,1,131.25
88,144,126162,2,0,L|219:144,1,131.25
120,176,126724,2,0,L|251:176,1,131.25
152,208,127287,2,0,L|283:208,1,131.25
488,135,128037,6,0,L|336:135,1,131.25
451,171,128599,2,0,L|299:171,1,131.25
414,208,129162,2,0,L|262:208,1,131.25
377,245,129724,2,0,L|225:245,1,131.25
340,282,130287,2,0,L|188:282,1,131.25
24,168,131037,6,0,L|155:168,1,131.25
264,240,131599,6,0,L|145:240,1,105
155,168,132162,6,0,L|258:168,1,87.5
163,312,132724,6,0,L|79:312,1,75
264,240,133287,6,0,L|359:240,1,91.875
400,204,134037,6,0,P|348:218|280:188,1,105,6|0,0:3|0:0,0:0:0:0:
158,64,134224,2,0,P|171:114|209:151,1,99.7499973363877
242,331,134412,2,0,P|294:345|362:315,1,94.499997116089,2|0,0:0|0:0,0:0:0:0:
483,191,134599,2,0,P|470:241|433:278,1,89.2500017023087
263,271,134787,6,0,P|235:236|226:193,1,84,2|0,0:0|0:0,0:0:0:0:
344,44,134974,1,0,0:0:0:0:
344,44,135068,2,0,P|360:84|352:140,1,84,0|2,0:0|0:0,0:0:0:0:
404,280,135255,1,0,0:0:0:0:
404,280,135349,2,0,P|364:296|308:288,1,84
163,345,135537,6,0,P|147:305|155:249,1,84,10|0,0:0|0:0,0:0:0:0:
235,44,135724,2,0,P|204:72|188:110,1,84,8|0,0:0|0:0,0:0:0:0:
70,231,135912,2,0,P|96:197|149:176,1,84,10|0,0:0|0:0,0:0:0:0:
355,144,136099,2,0,P|315:131|274:137,1,84
242,286,136287,6,0,P|281:298|323:293,1,84,2|0,0:0|0:0,0:0:0:0:
433,155,136474,1,0,0:0:0:0:
433,155,136568,2,0,P|423:113|384:71,1,84,0|2,0:0|0:0,0:0:0:0:
224,55,136755,1,0,0:0:0:0:
224,55,136849,2,0,P|192:84|176:138,1,84
92,287,137037,6,0,B|85:242|85:242|44:183,1,89.2500017023087,2|0,0:0|0:0,0:0:0:0:
177,121,137224,2,0,B|219:137|219:137|291:131,1,89.2500017023087
278,277,137412,2,0,B|242:305|242:305|211:370,1,89.2500017023087,2|0,0:0|0:0,0:0:0:0:
452,257,137599,2,0,B|433:217|433:217|397:188,1,89.2500017023087
317,65,137787,6,0,B|281:93|281:93|262:133,1,89.2500017023087,2|0,0:0|0:0,0:0:0:0:
153,107,137974,1,0,0:0:0:0:
153,107,138068,2,0,B|148:152|148:152|162:193,1,89.2500017023087,0|2,0:0|0:0,0:0:0:0:
66,252,138255,1,0,0:0:0:0:
66,252,138349,2,0,B|94:287|94:287|134:306,1,89.2500017023087
307,308,138537,6,0,B|346:289|346:289|375:253,1,89.2500017023087,10|0,0:0|0:0,0:0:0:0:
434,37,138724,2,0,B|439:82|439:82|425:124,1,89.2500017023087,8|0,0:0|0:0,0:0:0:0:
446,316,138912,2,0,B|460:274|460:274|455:229,1,89.2500017023087,10|0,0:0|0:0,0:0:0:0:
297,13,139099,2,0,B|331:40|331:40|351:81,1,89.2500017023087
301,360,139287,6,0,B|265:331|265:331|246:291,1,89.2500017023087,2|0,0:0|0:0,0:0:0:0:
137,318,139474,1,0,0:0:0:0:
137,318,139568,2,0,B|132:272|132:272|146:231,1,89.2500017023087,0|2,0:0|0:0,0:0:0:0:
50,173,139755,1,0,0:0:0:0:
50,173,139849,2,0,B|78:137|78:137|118:118,1,89.2500017023087
208,32,140037,6,0,P|254:23|328:40,1,89.2500017023087,14|2,0:0|0:0,0:0:0:0:
483,68,140224,1,2,0:0:0:0:
487,145,140317,1,2,0:0:0:0:
450,215,140411,1,6,0:0:0:0:
386,258,140505,1,2,0:0:0:0:
308,261,140599,6,0,P|262:252|188:269,1,89.2500017023087,10|2,0:0|0:0,0:0:0:0:
16,352,140787,2,0,P|62:361|136:344,1,89.2500017023087,14|2,0:0|0:0,0:0:0:0:
353,199,140974,1,2,0:0:0:0:
267,177,141067,1,2,0:0:0:0:
180,195,141162,6,0,P|186:148|226:84,1,89.2500017023087,14|2,0:0|0:0,0:0:0:0:
420,299,141349,1,2,0:0:0:0:
348,327,141442,1,2,0:0:0:0:
269,314,141536,1,6,0:0:0:0:
209,268,141630,1,2,0:0:0:0:
180,195,141724,6,0,P|173:148|133:84,1,89.2500017023087,10|2,0:0|0:0,0:0:0:0:
108,370,141912,2,0,P|154:363|218:323,1,89.2500017023087,14|2,0:0|0:0,0:0:0:0:
321,211,142099,1,2,0:0:0:0:
256,133,142192,1,2,0:0:0:0:
155,110,142287,6,0,P|186:72|257:39,1,89.2500017023087,14|2,0:0|0:0,0:0:0:0:
321,211,142474,1,2,0:0:0:0:
222,236,142567,1,2,0:0:0:0:
125,197,142662,6,0,P|128:241|144:282,1,89.2500017023087,14|2,0:0|0:0,0:0:0:0:
376,322,142849,2,0,P|399:273|404:187,1,89.2500017023087,10|2,0:0|0:0,0:0:0:0:
192,76,143037,6,0,L|178:11,1,52.5,14|2,0:0|0:0,0:0:0:0:
193,125,143130,2,0,L|237:177,1,52.5,2|2,0:0|0:0,0:0:0:0:
152,107,143224,6,0,L|149:41,1,47.2499985580445,10|2,0:0|0:0,0:0:0:0:
157,148,143318,2,0,L|209:192,1,47.2499985580445,2|2,0:0|0:0,0:0:0:0:
118,140,143412,6,0,L|127:74,1,42,14|2,0:0|0:0,0:0:0:0:
126,173,143505,2,0,L|185:207,1,42,2|2,0:0|0:0,0:0:0:0:
91,180,143599,6,0,L|111:117,1,36.749998878479,10|2,0:0|0:0,0:0:0:0:
98,205,143693,2,0,L|162:228,1,36.749998878479,2|2,0:0|0:0,0:0:0:0:
68,222,143787,6,0,L|95:169,1,31.4999990386963,14|2,0:0|0:0,0:0:0:0:
76,240,143880,2,0,L|136:250,1,31.4999990386963,2|2,0:0|0:0,0:0:0:0:
52,267,143974,6,0,L|81:229,1,26.25,10|2,0:0|0:0,0:0:0:0:
58,275,144068,2,0,L|107:274,1,26.25,10|2,0:0|0:0,0:0:0:0:
62,349,144162,6,0,L|96:328,1,21,14|2,0:0|0:0,0:0:0:0:
144,384,144255,2,0,L|157:346,1,21,10|2,0:0|0:0,0:0:0:0:
235,349,144349,2,0,L|222:310,1,21,10|2,0:0|0:0,0:0:0:0:
280,268,144444,2,0,L|246:245,1,21,10|2,0:0|0:0,0:0:0:0:
261,177,144537,6,0,L|221:179,4,21,2|2|2|2|2,0:0|0:0|0:0|0:0|0:0,0:0:0:0:
433,229,144912,2,0,L|473:231,3,21,2|2|2|2,0:0|0:0|0:0|0:0,0:0:0:0:
377,165,145099,6,0,P|355:192|361:253,1,68.2499968757631,2|0,0:0|0:0,0:0:0:0:
265,338,145287,2,0,P|252:305|196:280,1,68.2499968757631,2|2,0:0|0:0,0:0:0:0:
71,197,145474,2,0,P|105:202|155:166,1,68.2499968757631,2|0,0:0|0:0,0:0:0:0:
146,324,145662,6,0,P|54:289|152:279,1,267.750005106926,2|0,0:0|0:0,0:0:0:0:
104,296,146037,6,0,B|142:302|142:302|196:280,1,78.7500030040742,6|0,3:0|0:0,0:0:0:0:
359,277,146224,2,0,B|334:306|334:306|326:365,1,78.7500030040742,0|0,3:0|0:0,0:0:0:0:
101,89,146412,2,0,B|133:113|133:113|147:150,1,78.7500030040742,4|0,0:0|0:0,0:0:0:0:
259,311,146599,2,0,L|252:356,3,39.3750015020371,2|2|2|2,0:0|0:0|0:0|0:0,0:0:0:0:
224,245,146787,6,0,P|184:274|147:273,1,78.7500030040742,4|0,0:0|0:0,0:0:0:0:
317,192,146974,1,2,0:0:0:0:
317,192,147068,2,0,P|362:212|380:244,1,78.7500030040742,2|4,0:0|0:0,0:0:0:0:
225,137,147255,1,2,0:0:0:0:
225,137,147349,2,0,P|220:89|239:57,1,78.7500030040742,2|0,0:0|0:0,0:0:0:0:
155,276,147537,6,0,P|110:257|92:224,1,78.7500030040742,4|0,0:0|0:0,0:0:0:0:
379,236,147724,1,2,0:0:0:0:
379,236,147818,2,0,P|385:285|366:317,1,78.7500030040742,2|4,0:0|0:0,0:0:0:0:
233,62,148005,1,2,0:0:0:0:
233,62,148099,2,0,P|272:33|309:34,1,78.7500030040742,2|0,0:0|0:0,0:0:0:0:
94,233,148287,6,0,P|88:185|107:153,1,78.7500030040742,4|0,0:0|0:0,0:0:0:0:
372,311,148474,1,2,0:0:0:0:
372,311,148568,2,0,P|333:340|296:339,1,78.7500030040742,2|4,0:0|0:0,0:0:0:0:
300,31,148755,1,2,0:0:0:0:
300,31,148849,2,0,P|345:50|363:83,1,78.7500030040742,2|0,0:0|0:0,0:0:0:0:
130,347,149037,6,0,B|166:331|166:331|205:338,1,78.7500030040742,4|0,0:0|0:0,0:0:0:0:
372,311,149224,2,0,B|335:295|335:295|296:302,1,78.7500030040742,0|0,3:0|0:0,0:0:0:0:
55,322,149412,2,0,B|74:287|74:287|108:268,1,78.7500030040742,4|0,0:0|0:0,0:0:0:0:
208,225,149599,2,0,L|218:263,3,39.3750015020371,2|2|2|2,0:0|0:0|0:0|0:0,0:0:0:0:
288,245,149787,6,0,P|328:274|365:273,1,78.7500030040742,4|0,0:0|0:0,0:0:0:0:
195,192,149974,1,2,0:0:0:0:
195,192,150068,2,0,P|150:212|132:244,1,78.7500030040742,2|4,0:0|0:0,0:0:0:0:
287,137,150255,1,2,0:0:0:0:
287,137,150349,2,0,P|292:89|273:57,1,78.7500030040742,2|0,0:0|0:0,0:0:0:0:
357,276,150537,6,0,P|402:257|420:224,1,78.7500030040742,4|0,0:0|0:0,0:0:0:0:
133,236,150724,1,2,0:0:0:0:
133,236,150818,2,0,P|127:285|146:317,1,78.7500030040742,2|4,0:0|0:0,0:0:0:0:
279,62,151005,1,2,0:0:0:0:
279,62,151099,2,0,P|240:33|203:34,1,78.7500030040742,2|0,0:0|0:0,0:0:0:0:
355,275,151287,6,0,P|317:270|287:245,1,78.7500030040742,4|0,0:0|0:0,0:0:0:0:
278,63,151474,1,2,0:0:0:0:
278,63,151568,2,0,P|293:99|286:137,1,78.7500030040742,2|4,0:0|0:0,0:0:0:0:
133,236,151755,1,2,0:0:0:0:
133,236,151849,2,0,P|157:205|194:192,1,78.7500030040742,2|0,0:0|0:0,0:0:0:0:
429,260,152037,6,0,B|393:278|393:278|353:274,1,78.7500030040742,6|0,3:0|0:0,0:0:0:0:
138,310,152224,2,0,B|178:312|178:312|212:292,1,78.7500030040742,0|0,3:0|0:0,0:0:0:0:
329,352,152412,2,0,B|290:347|290:347|254:366,1,78.7500030040742,4|0,1:0|0:0,0:0:0:0:
285,207,152599,2,0,L|292:250,3,39.3750015020371,2|2|2|2,0:0|0:0|0:0|0:0,0:0:0:0:
220,268,152787,6,0,P|202:304|132:316,1,78.7500030040742,4|0,0:0|0:0,0:0:0:0:
292,116,152974,1,2,0:0:0:0:
292,116,153068,2,0,P|310:80|380:68,1,78.7500030040742,2|4,0:0|0:0,0:0:0:0:
157,248,153255,1,2,0:0:0:0:
157,248,153349,2,0,P|120:265|58:231,1,78.7500030040742,2|0,0:0|0:0,0:0:0:0:
355,136,153537,6,0,P|391:118|453:152,1,78.7500030040742,4|0,0:0|0:0,0:0:0:0:
119,193,153724,1,2,0:0:0:0:
119,193,153818,2,0,P|79:184|51:119,1,78.7500030040742,2|4,0:0|0:0,0:0:0:0:
393,191,154005,1,2,0:0:0:0:
393,191,154099,2,0,P|432:199|460:264,1,78.7500030040742,2|0,0:0|0:0,0:0:0:0:
122,126,154287,6,0,P|96:94|113:26,1,78.7500030040742,4|0,0:0|0:0,0:0:0:0:
390,258,154474,1,2,0:0:0:0:
390,258,154568,2,0,P|415:289|398:357,1,78.7500030040742,2|4,0:0|0:0,0:0:0:0:
165,75,154755,1,2,0:0:0:0:
165,75,154849,2,0,P|163:34|220:-8,1,78.7500030040742,2|0,0:0|0:0,0:0:0:0:
451,54,155037,6,0,B|411:50|411:50|347:78,1,78.7500030040742,4|0,0:0|0:0,0:0:0:0:
267,175,155224,2,0,B|250:138|250:138|219:115,1,78.7500030040742
371,250,155412,2,0,B|366:288|366:288|343:320,1,78.7500030040742,4|0,0:0|0:0,0:0:0:0:
236,312,155599,2,0,L|191:318,3,39.3750015020371,2|2|2|2,0:0|0:0|0:0|0:0,0:0:0:0:
292,268,155787,6,0,P|310:304|380:316,1,78.7500030040742,4|0,0:0|0:0,0:0:0:0:
291,120,155974,1,0,0:0:0:0:
291,120,156068,2,0,P|250:117|205:172,1,78.7500030040742,0|4,0:0|0:0,0:0:0:0:
419,193,156255,1,0,0:0:0:0:
419,193,156349,2,0,P|441:159|416:92,1,78.7500030040742
180,221,156537,6,0,P|181:169|222:138,1,105,4|0,0:0|0:0,0:0:0:0:
230,11,156724,1,0,0:0:0:0:
300,52,156817,1,0,0:0:0:0:
311,134,156912,2,0,P|265:158|217:138,1,105,4|0,0:0|0:0,0:0:0:0:
168,63,157099,2,0,P|211:90|218:141,1,105
237,265,157287,6,0,B|226:274|218:291|218:291|205:250|153:246,1,105,12|0,0:0|0:0,0:0:0:0:
132,332,157474,1,2,0:0:0:0:
208,372,157568,1,2,0:0:0:0:
167,248,157662,6,0,B|128:219|81:251|81:251|107:225|110:191,1,157.5,2|0,0:0|0:0,0:0:0:0:
55,140,157849,6,0,B|91:167|139:135|139:135|113:161|109:195,1,157.5,2|0,0:0|0:0,0:0:0:0:
132,332,158037,6,0,L|132:348,11,13.125,4|0|0|0|0|0|0|0|0|0|0|0,3:0|0:0|0:0|0:0|0:0|0:0|0:0|0:0|0:0|0:0|0:0|0:0,0:0:0:0:
157,193,158599,6,0,L|177:226,3,39.3750015020371,2|2|2|2,0:0|0:0|0:0|0:0,0:0:0:0:
221,280,158787,6,0,P|221:216|173:160,1,105,8|0,0:0|0:0,0:0:0:0:
92,82,158974,5,6,0:0:0:0:
34,5,159068,2,0,P|59:14|96:48,1,68.2499968757631,2|0,0:0|0:0,0:0:0:0:
174,111,159255,1,2,0:0:0:0:
208,89,159349,2,0,P|215:55|210:22,1,68.2499968757631,2|0,0:0|0:0,0:0:0:0:
324,127,159537,6,0,P|319:160|326:193,1,68.2499968757631,4|0,0:0|0:0,0:0:0:0:
254,207,159724,1,2,0:0:0:0:
257,247,159818,2,0,P|282:268|314:280,1,68.2499968757631,2|0,0:0|0:0,0:0:0:0:
392,306,160005,1,2,0:0:0:0:
388,333,160099,2,0,P|362:354|330:366,1,68.2499968757631,2|0,0:0|0:0,0:0:0:0:
118,309,160287,6,0,P|151:304|184:312,1,68.2499968757631,8|0,0:0|0:0,0:0:0:0:
44,300,160474,1,6,0:0:0:0:
46,269,160568,2,0,P|69:244|100:229,1,68.2499968757631,2|0,0:0|3:0,3:0:0:0:
49,172,160755,1,2,0:0:0:0:
84,141,160849,2,0,P|141:150|185:200,1,102.374995313645,2|0,0:0|3:0,3:0:0:0:
253,262,161037,6,0,P|275:276|245:239,1,196.875007510186,4|0,0:0|0:0,0:0:0:0:
182,272,161599,6,0,L|190:296,3,19.6875007510186
303,349,161787,6,0,P|261:349|221:326,1,68.2499968757631,8|0,0:0|0:0,0:0:0:0:
96,272,161974,1,6,0:0:0:0:
75,185,162068,2,0,P|84:218|105:245,1,68.2499968757631,2|0,0:0|0:0,0:0:0:0:
203,360,162255,1,2,0:0:0:0:
237,338,162349,2,0,P|244:304|239:271,1,68.2499968757631,6|0,0:0|0:0,0:0:0:0:
277,105,162537,6,0,P|297:132|325:150,1,68.2499968757631
397,220,162724,1,2,0:0:0:0:
436,205,162818,2,0,P|449:173|451:139,1,68.2499968757631,2|0,0:0|0:0,0:0:0:0:
424,331,163005,1,2,0:0:0:0:
403,312,163099,2,0,P|369:316|338:332,1,68.2499968757631,6|0,0:0|0:0,0:0:0:0:
111,323,163287,6,0,P|144:319|175:303,1,68.2499968757631,8|0,0:0|0:0,0:0:0:0:
297,211,163474,2,0,P|316:183|325:150,1,68.2499968757631,2|2,0:0|0:0,0:0:0:0:
82,95,163662,1,0,0:0:0:0:
119,150,163755,1,2,0:0:0:0:
181,176,163849,2,0,P|214:170|243:153,1,68.2499968757631,2|0,0:0|0:0,0:0:0:0:
343,63,164037,6,0,B|418:34|479:80|479:80|451:92|385:83,1,204.749990627289,4|0,3:0|0:0,0:0:0:0:
343,63,164412,2,0,B|298:63|298:63|250:47|250:47|210:47,1,136.499993751526,2|0,0:0|0:0,0:0:0:0:
144,96,164693,1,0,0:0:0:0:
25,81,164787,6,0,L|62:86,1,35,10|2,0:0|0:0,0:0:0:0:
144,96,165037,5,2,0:0:0:0:
146,114,165162,5,6,0:0:0:0:
121,90,165287,1,2,0:0:0:0:
154,80,165412,1,2,0:0:0:0:
112,3,165537,5,2,0:0:0:0:
112,165,165662,1,2,0:0:0:0:
254,79,165787,1,2,0:0:0:0:
124,81,165912,5,6,0:0:0:0:
187,12,166037,1,2,0:0:0:0:
214,99,166162,1,2,0:0:0:0:
187,186,166287,5,10,0:0:0:0:
246,243,166412,1,2,0:0:0:0:
326,224,166537,1,2,0:0:0:0:
384,136,166662,6,0,B|419:117|446:137|446:137|370:167|391:239|467:263|483:190,1,238.874989065171,2|0,0:0|0:0,0:0:0:0:
377,282,167037,6,0,B|388:294|388:294|361:290|313:298,1,68.2499968757631,6|0,0:0|0:0,0:0:0:0:
205,255,167224,2,0,B|194:243|194:243|221:247|269:239,1,68.2499968757631,2|0,0:0|0:0,0:0:0:0:
450,265,167412,1,6,0:0:0:0:
459,312,167505,1,2,0:0:0:0:
428,350,167599,6,0,B|429:366|429:366|410:347|366:325,1,68.2499968757631,2|0,0:0|0:0,0:0:0:0:
310,188,167787,2,0,B|308:171|308:171|327:190|371:212,1,68.2499968757631,2|0,0:0|0:0,0:0:0:0:
312,341,167974,2,0,B|301:353|301:353|301:326|286:280,1,68.2499968757631,6|0,0:0|0:0,0:0:0:0:
463,224,168162,2,0,B|479:222|479:222|460:241|438:285,2,68.2499968757631,6|0|0,0:0|0:0|0:0,0:0:0:0:
419,128,168443,1,6,0:0:0:0:
419,128,168537,2,0,B|406:117|406:117|433:117|479:102,1,68.2499968757631,6|0,0:0|0:0,0:0:0:0:
295,96,168724,6,0,L|258:101,3,26.25,2|2|2|2,0:0|0:0|0:0|0:0,0:0:0:0:
251,28,168912,2,0,L|261:-1,1,26.25
213,48,169005,2,0,L|203:18,1,26.25
194,86,169099,2,0,L|169:68,1,26.25
202,130,169193,2,0,L|171:130,1,26.25
260,204,169287,6,0,P|285:177|292:163,1,52.5,2|0,0:0|0:0,0:0:0:0:
345,295,169474,2,0,P|318:268|304:261,1,52.5,2|0,0:0|0:0,0:0:0:0:
436,209,169662,2,0,P|409:234|402:248,1,52.5,2|0,0:0|0:0,0:0:0:0:
351,117,169849,2,0,P|376:142|390:149,1,52.5,2|0,0:0|0:0,0:0:0:0:
476,279,170037,6,0,P|476:367|390:372,1,183.75,4|0,0:0|0:0,0:0:0:0:
456,347,170787,1,2,0:0:0:0:
456,347,170880,2,0,L|427:320,1,26.25,2|0,0:0|0:0,0:0:0:0:
448,251,171068,1,2,0:0:0:0:
448,251,171162,2,0,L|425:237,1,26.25,2|0,0:0|0:0,0:0:0:0:
354,284,171349,2,0,L|325:257,1,26.25,2|0,0:0|0:0,0:0:0:0:
346,189,171537,5,2,0:0:0:0:
346,189,171630,2,0,L|323:175,1,26.25,2|0,0:0|0:0,0:0:0:0:
253,221,171818,1,2,0:0:0:0:
253,221,171912,2,0,L|224:194,1,26.25,2|0,0:0|0:0,0:0:0:0:
245,126,172099,2,0,L|222:112,1,26.25,2|0,0:0|0:0,0:0:0:0:
152,157,172287,5,2,0:0:0:0:
152,157,172380,2,0,L|123:130,1,26.25,2|0,0:0|0:0,0:0:0:0:
144,62,172568,1,2,0:0:0:0:
144,62,172662,2,0,L|121:48,1,26.25,2|0,0:0|0:0,0:0:0:0:
51,93,172849,2,0,L|22:66,1,26.25,2|0,0:0|0:0,0:0:0:0:
50,240,173037,6,0,L|108:232,1,39.3750015020371,6|0,0:0|0:0,0:0:0:0:
152,157,173130,6,0,L|112:162,1,39.3750015020371,2|0,0:0|0:0,0:0:0:0:
114,309,173224,6,0,B|149:313|188:309|200:289|206:246|181:234|139:252|174:294,1,157.5,2|0,0:0|0:0,0:0:0:0:
255,306,173412,2,0,B|283:284|308:253|301:231|276:196|250:205|232:248|287:253,1,157.5,2|0,0:0|0:0,0:0:0:0:
175,202,173693,1,2,0:0:0:0:
175,202,173787,5,2,0:0:0:0:
212,207,173881,2,0,P|252:159|252:103,1,78.7500030040742,2|0,0:0|0:0,0:0:0:0:
329,42,174068,1,2,0:0:0:0:
358,25,174162,2,0,P|409:61|423:115,1,78.7500030040742,2|0,0:0|0:0,0:0:0:0:
446,226,174349,2,0,P|409:277|355:291,1,78.7500030040742,2|0,0:0|0:0,0:0:0:0:
237,337,174537,5,10,0:0:0:0:
156,341,174630,1,2,0:0:0:0:
89,298,174724,1,2,0:0:0:0:
61,224,174818,1,2,0:0:0:0:
82,147,174912,1,10,0:0:0:0:
145,97,175005,1,2,0:0:0:0:
224,95,175099,1,6,0:0:0:0:
290,140,175193,1,6,0:0:0:0:
317,215,175287,6,0,B|322:235|340:244|340:244|336:228|337:208|337:208|326:200|326:200|318:70|198:-42|22:-18|16:128|102:222|136:143|136:143|175:212|233:139|225:105|194:95|132:83|137:119,1,787.5,12|0,0:0|0:0,0:0:0:0:
48,144,176037,6,0,B|56:168|56:168|48:192|48:192|56:216|56:216|48:240|48:240|56:264|56:264|48:288|48:288|32:336|64:384|128:392|192:368|176:248|112:240|64:272,1,393.750015020371,6|0,0:0|0:0,0:0:0:0:
172,181,176599,1,2,0:0:0:0:
203,204,176692,1,2,0:0:0:0:
241,211,176787,5,6,0:0:0:0:
205,277,176880,1,2,0:0:0:0:
243,342,176974,1,2,0:0:0:0:
318,344,177068,1,2,0:0:0:0:
359,281,177162,2,0,P|352:240|320:200,1,78.7500030040742,6|0,0:0|0:0,0:0:0:0:
326,84,177349,2,0,P|364:92|396:114,1,78.7500030040742,2|0,0:0|0:0,0:0:0:0:
461,235,177537,5,6,0:0:0:0:
451,306,177630,1,2,0:0:0:0:
403,363,177724,1,2,0:0:0:0:
331,384,177818,1,2,0:0:0:0:
260,360,177912,2,0,P|240:312|248:272,1,78.7500030040742,6|0,0:0|0:0,0:0:0:0:
461,235,178099,2,0,P|461:196|443:161,1,78.7500030040742,2|0,0:0|0:0,0:0:0:0:
315,55,178287,5,6,0:0:0:0:
249,27,178380,1,2,0:0:0:0:
178,29,178474,1,2,0:0:0:0:
114,60,178568,1,2,0:0:0:0:
68,114,178662,2,0,B|48:136|48:136|113:109|160:136|192:216|131:289|37:291|-16:192|72:151,1,315,6|0,0:0|0:0,0:0:0:0:
102,136,179037,5,6,0:0:0:0:
135,164,179131,1,2,0:0:0:0:
64,240,179225,5,2,0:0:0:0:
36,212,179318,1,2,0:0:0:0:
106,237,179412,5,6,0:0:0:0:
136,207,179506,1,2,0:0:0:0:
61,140,179600,5,2,0:0:0:0:
33,168,179693,1,2,0:0:0:0:
36,212,179787,5,6,0:0:0:0:
76,271,179880,1,2,0:0:0:0:
146,287,179974,1,2,0:0:0:0:
208,250,180068,1,2,0:0:0:0:
228,181,180162,2,0,P|224:136|176:88,1,78.7500030040742,6|0,0:0|0:0,0:0:0:0:
299,27,180349,2,0,P|336:37|365:63,1,78.7500030040742,2|0,0:0|0:0,0:0:0:0:
453,315,180537,6,0,P|421:259|461:179,1,105,6|0,0:0|0:0,0:0:0:0:
372,299,180724,1,0,0:0:0:0:
330,234,180818,1,6,0:0:0:0:
352,159,180912,2,0,P|407:127|487:167,1,105,6|0,0:0|0:0,0:0:0:0:
299,27,181099,2,0,P|247:24|205:54,1,105,6|0,0:0|0:0,0:0:0:0:
112,155,181287,5,2,0:0:0:0:
112,155,181380,2,0,L|80:162,2,19.6875007510186,2|2|2,0:0|0:0|0:0,0:0:0:0:
195,248,181568,1,2,0:0:0:0:
195,248,181662,2,0,L|227:255,2,19.6875007510186,2|2|2,0:0|0:0|0:0,0:0:0:0:
112,341,181849,2,0,L|80:348,3,19.6875007510186,2|2|2|2,0:0|0:0|0:0|0:0,0:0:0:0:
204,338,182037,6,0,B|264:346|290:294|290:294|300:370|372:378|428:362|444:290|420:226|337:235,1,393.750015020371,4|0,0:0|0:0,0:0:0:0:
397,146,182599,1,2,0:0:0:0:
434,156,182692,1,2,0:0:0:0:
464,181,182787,5,6,0:0:0:0:
456,108,182880,1,2,0:0:0:0:
409,51,182974,1,2,0:0:0:0:
340,29,183068,1,2,0:0:0:0:
269,49,183162,2,0,P|216:80|192:128,1,105,6|0,0:0|0:0,0:0:0:0:
287,267,183349,2,0,P|340:236|364:188,1,105,2|0,0:0|0:0,0:0:0:0:
456,108,183537,5,6,0:0:0:0:
464,180,183630,1,2,0:0:0:0:
446,252,183724,1,2,0:0:0:0:
403,314,183818,1,2,0:0:0:0:
340,355,183912,2,0,P|304:368|224:335,1,105,6|0,0:0|0:0,0:0:0:0:
126,179,184099,2,0,P|160:195|193:275,1,105,2|0,0:0|0:0,0:0:0:0:
347,203,184287,5,6,0:0:0:0:
398,142,184381,1,2,0:0:0:0:
357,75,184475,1,2,0:0:0:0:
281,93,184568,1,2,0:0:0:0:
274,171,184662,2,0,P|275:239|325:282,1,105,6|0,0:0|0:0,0:0:0:0:
313,23,184849,2,0,P|245:24|202:74,1,105,2|0,0:0|0:0,0:0:0:0:
60,196,185037,6,0,B|88:178|131:193|131:193|112:168,1,105,6|2,0:0|0:0,0:0:0:0:
114,110,185224,2,0,B|115:143|81:172|81:172|112:169,1,105,2|2,0:0|0:0,0:0:0:0:
162,199,185412,6,0,B|132:183|123:138|123:138|111:167,1,106.31250040555,6|2,0:0|0:0,0:0:0:0:
93,285,185787,5,6,0:0:0:0:
162,312,185880,1,2,0:0:0:0:
231,286,185974,1,2,0:0:0:0:
266,221,186068,1,2,0:0:0:0:
249,149,186162,2,0,P|216:96|144:64,1,105,6|0,0:0|0:0,0:0:0:0:
231,286,186349,2,0,P|293:283|357:237,1,105,2|0,0:0|0:0,0:0:0:0:
417,176,186537,5,6,0:0:0:0:
465,232,186630,1,2,0:0:0:0:
464,308,186724,1,2,0:0:0:0:
413,363,186818,1,2,0:0:0:0:
338,373,186912,2,0,P|272:360|232:328,1,105,6|0,0:0|0:0,0:0:0:0:
121,80,187099,2,0,P|158:136|164:187,1,105,2|0,0:0|0:0,0:0:0:0:
64,320,187287,5,6,0:0:0:0:
113,337,187380,5,2,0:0:0:0:
173,315,187474,5,2,0:0:0:0:
205,248,187568,5,2,0:0:0:0:
166,173,187662,6,0,B|156:156|135:135|135:135|164:135|185:146|185:146|201:172|222:188|222:188|217:216|222:244|222:244|240:261|253:284|253:284|261:251|254:212,1,315,6|0,0:0|0:0,0:0:0:0:
326,236,188037,6,0,P|318:196|294:172,1,68.2499968757631,6|0,0:0|0:0,0:0:0:0:
211,176,188224,2,0,P|190:202|186:236,1,68.2499968757631,6|0,0:0|0:0,0:0:0:0:
341,218,188412,6,0,P|340:177|321:149,1,73.4999977569581,6|0,0:0|0:0,0:0:0:0:
188,150,188599,2,0,P|169:181|171:218,1,73.4999977569581,6|0,0:0|0:0,0:0:0:0:
355,199,188787,6,0,P|363:153|348:117,1,78.7500030040742,6|0,0:0|0:0,0:0:0:0:
159,123,188974,2,0,P|147:161|157:199,1,78.7500030040742,6|0,0:0|0:0,0:0:0:0:
377,176,189162,6,0,P|394:132|386:95,1,84,6|0,0:0|0:0,0:0:0:0:
124,97,189349,2,0,P|118:138|135:176,1,84,6|0,0:0|0:0,0:0:0:0:
307,219,189537,6,0,P|337:246|398:260,1,89.2500017023087,6|0,0:0|0:0,0:0:0:0:
205,219,189724,2,0,P|174:246|113:260,1,89.2500017023087,6|0,0:0|0:0,0:0:0:0:
333,279,189912,6,0,P|373:278|427:247,1,94.499997116089,6|0,0:0|0:0,0:0:0:0:
179,279,190099,2,0,P|138:278|84:247,1,94.499997116089,6|0,0:0|0:0,0:0:0:0:
395,306,190287,6,0,P|424:277|442:217,1,99.7499973363877,6|0,0:0|0:0,0:0:0:0:
117,306,190474,2,0,P|87:277|69:217,1,99.7499973363877,6|0,0:0|0:0,0:0:0:0:
458,282,190662,6,0,P|459:241|432:185,1,105,6|0,0:0|0:0,0:0:0:0:
54,282,190849,2,0,P|52:241|79:185,1,105,6|0,0:0|0:0,0:0:0:0:
150,78,191037,5,6,0:0:0:0:
244,38,191130,1,2,0:0:0:0:
343,63,191224,1,6,0:0:0:0:
402,138,191318,1,2,0:0:0:0:
409,228,191412,5,6,0:0:0:0:
368,304,191505,1,2,0:0:0:0:
301,345,191599,1,6,0:0:0:0:
224,348,191693,1,2,0:0:0:0:
294,242,191787,5,6,0:0:0:0:
239,172,191880,1,2,0:0:0:0:
163,164,191974,1,6,0:0:0:0:
108,207,192068,1,2,0:0:0:0:
92,278,192162,5,6,0:0:0:0:
123,329,192255,1,2,0:0:0:0:
174,354,192349,1,6,0:0:0:0:
224,348,192443,1,2,0:0:0:0:
232,264,192537,6,0,P|192:248|144:256,2,78.7500030040742,2|2|0,0:0|0:0|0:0,0:0:0:0:
356,248,192818,1,2,0:0:0:0:
356,248,192912,6,0,P|334:215|330:176,1,78.7500030040742,2|0,0:0|0:0,0:0:0:0:
254,76,193099,6,0,P|236:111|205:135,1,78.7500030040742,2|0,0:0|0:0,0:0:0:0:
305,133,193287,6,0,P|305:159|297:184,1,52.5,2|0,0:0|0:0,0:0:0:0:
373,164,193474,6,0,P|385:200|380:238,1,39.3750015020371,2|0,0:0|0:0,0:0:0:0:
483,231,193662,6,0,P|473:193|447:165,1,78.75,2|0,0:0|0:0,0:0:0:0:
386,350,194037,1,4,0:0:0:0:
