osu file format v14

[General]
AudioFilename: audio.mp3
AudioLeadIn: 0
PreviewTime: 91187
Countdown: 1
SampleSet: None
StackLeniency: 0.7
Mode: 1
LetterboxInBreaks: 0
WidescreenStoryboard: 0

[Editor]
DistanceSpacing: 0.1
BeatDivisor: 4
GridSize: 32
TimelineZoom: 2.599999

[Metadata]
Title:INSANE INFLAME
TitleUnicode:INSANE INFLAME
Artist:Camellia
ArtistUnicode:Camellia
Creator:Takeshi Hiroshi
Version:test
Source:
Tags:
BeatmapID:2104653
BeatmapSetID:1005628

[Difficulty]
HPDrainRate:5
CircleSize:4
OverallDifficulty:5
ApproachRate:7
SliderMultiplier:1.6
SliderTickRate:2

[Events]
//Background and Video events
//Break Periods
//Storyboard Layer 0 (Background)
//Storyboard Layer 1 (Fail)
//Storyboard Layer 2 (Pass)
//Storyboard Layer 3 (Foreground)
//Storyboard Sound Samples

[TimingPoints]
1587,400,4,1,0,100,1,0
91187,-83.3333333333333,4,1,0,100,0,0

[HitObjects]
256,192,27187,5,8,0:0:0:0:
256,192,27387,1,0,0:0:0:0:
256,192,27487,1,0,0:0:0:0:
256,192,27587,1,8,0:0:0:0:
256,192,27787,1,0,0:0:0:0:
256,192,27987,1,8,0:0:0:0:
256,192,28287,1,8,0:0:0:0:
256,192,28487,1,8,0:0:0:0:
256,192,28587,1,8,0:0:0:0:
256,192,28687,1,0,0:0:0:0:
256,192,28787,1,0,0:0:0:0:
256,192,28887,1,8,0:0:0:0:
256,192,29087,1,0,0:0:0:0:
256,192,29187,1,8,0:0:0:0:
256,192,29387,1,0,0:0:0:0:
256,192,29487,1,8,0:0:0:0:
256,192,29587,1,8,0:0:0:0:
256,192,29787,1,0,0:0:0:0:
256,192,29887,1,0,0:0:0:0:
256,192,29987,1,8,0:0:0:0:
256,192,30087,1,8,0:0:0:0:
256,192,30187,1,0,0:0:0:0:
256,192,30387,1,0,0:0:0:0:
256,192,30787,1,8,0:0:0:0:
256,192,30887,1,8,0:0:0:0:
256,192,30987,1,0,0:0:0:0:
256,192,31087,1,8,0:0:0:0:
256,192,31187,1,0,0:0:0:0:
256,192,31287,1,0,0:0:0:0:
256,192,31387,1,8,0:0:0:0:
256,192,31587,1,0,0:0:0:0:
256,192,31687,1,8,0:0:0:0:
256,192,31787,1,0,0:0:0:0:
256,192,31887,1,0,0:0:0:0:
256,192,31987,1,8,0:0:0:0:
256,192,32087,1,8,0:0:0:0:
256,192,32187,1,0,0:0:0:0:
256,160,32387,1,8,0:0:0:0:
256,192,32487,1,0,0:0:0:0:
256,192,32587,1,0,0:0:0:0:
256,192,32787,1,8,0:0:0:0:
256,192,32887,1,0,0:0:0:0:
256,192,32987,1,8,0:0:0:0:
256,192,33087,1,8,0:0:0:0:
256,192,33187,1,0,0:0:0:0:
256,192,33287,1,8,0:0:0:0:
256,192,33387,1,8,0:0:0:0:
256,192,33487,1,8,0:0:0:0:
256,192,33587,1,0,0:0:0:0:
256,192,33787,1,8,0:0:0:0:
256,192,33887,1,0,0:0:0:0:
256,192,34087,1,8,0:0:0:0:
256,192,34187,1,0,0:0:0:0:
256,192,34387,1,8,0:0:0:0:
256,192,34487,1,0,0:0:0:0:
256,192,34687,1,8,0:0:0:0:
256,192,34787,1,0,0:0:0:0:
256,192,34887,1,0,0:0:0:0:
256,192,34987,1,8,0:0:0:0:
256,192,35087,1,8,0:0:0:0:
256,192,35187,1,0,0:0:0:0:
256,192,35287,1,0,0:0:0:0:
256,192,35387,1,8,0:0:0:0:
256,192,35587,1,8,0:0:0:0:
256,192,35687,1,0,0:0:0:0:
256,192,35887,1,0,0:0:0:0:
256,192,35987,1,8,0:0:0:0:
256,192,36187,1,8,0:0:0:0:
256,192,36287,1,0,0:0:0:0:
256,192,36387,1,8,0:0:0:0:
256,192,36487,1,8,0:0:0:0:
256,192,36587,1,8,0:0:0:0:
256,192,36687,1,0,0:0:0:0:
256,192,36787,1,8,0:0:0:0:
256,192,36987,1,0,0:0:0:0:
256,192,37087,1,8,0:0:0:0:
256,192,37287,1,0,0:0:0:0:
256,192,37387,1,8,0:0:0:0:
256,192,37587,1,8,0:0:0:0:
256,192,37687,1,0,0:0:0:0:
256,192,37887,1,8,0:0:0:0:
256,192,37987,1,0,0:0:0:0:
256,192,38187,1,0,0:0:0:0:
256,192,38287,1,0,0:0:0:0:
256,192,38387,1,8,0:0:0:0:
256,192,38487,1,0,0:0:0:0:
256,192,38587,1,0,0:0:0:0:
256,192,38787,1,8,0:0:0:0:
256,192,38887,1,8,0:0:0:0:
256,192,38987,1,0,0:0:0:0:
256,192,39087,1,0,0:0:0:0:
256,192,39187,1,8,0:0:0:0:
256,192,39253,1,8,0:0:0:0:
256,192,39320,1,8,0:0:0:0:
256,192,39387,1,0,0:0:0:0:
256,192,39487,1,0,0:0:0:0:
256,192,39587,1,8,0:0:0:0:
256,192,39687,1,8,0:0:0:0:
256,192,39787,1,0,0:0:0:0:
256,192,39887,1,8,0:0:0:0:
256,192,39987,1,0,0:0:0:0:
256,192,40187,1,0,0:0:0:0:
256,192,40287,1,0,0:0:0:0:
256,192,40387,1,8,0:0:0:0:
256,192,40587,1,0,0:0:0:0:
256,192,40787,1,8,0:0:0:0:
256,192,40987,1,0,0:0:0:0:
256,192,41087,1,8,0:0:0:0:
256,192,41187,1,0,0:0:0:0:
256,192,41287,1,8,0:0:0:0:
256,192,41387,1,8,0:0:0:0:
256,192,41487,1,0,0:0:0:0:
256,192,41587,1,0,0:0:0:0:
256,192,41687,1,8,0:0:0:0:
256,192,41787,1,8,0:0:0:0:
256,192,41887,1,0,0:0:0:0:
256,192,41987,1,8,0:0:0:0:
256,192,42187,1,0,0:0:0:0:
256,192,42387,1,8,0:0:0:0:
256,192,42587,1,0,0:0:0:0:
256,192,42687,1,0,0:0:0:0:
256,192,42787,1,8,0:0:0:0:
256,192,42887,1,8,0:0:0:0:
256,192,42987,1,0,0:0:0:0:
256,192,43187,1,0,0:0:0:0:
256,192,43287,1,0,0:0:0:0:
256,192,43387,1,0,0:0:0:0:
256,192,43587,1,8,0:0:0:0:
256,192,43687,1,8,0:0:0:0:
256,192,43787,1,0,0:0:0:0:
256,192,43887,1,8,0:0:0:0:
256,192,43987,1,0,0:0:0:0:
256,192,44087,1,0,0:0:0:0:
256,192,44187,1,8,0:0:0:0:
256,192,44387,1,0,0:0:0:0:
256,192,44487,1,8,0:0:0:0:
256,192,44587,1,0,0:0:0:0:
256,192,44687,1,0,0:0:0:0:
256,192,44787,1,8,0:0:0:0:
256,192,44887,1,8,0:0:0:0:
256,192,44987,1,0,0:0:0:0:
256,160,45187,1,8,0:0:0:0:
256,192,45287,1,0,0:0:0:0:
256,192,45387,1,8,0:0:0:0:
256,192,45487,1,0,0:0:0:0:
256,192,45587,1,0,0:0:0:0:
256,192,45687,1,8,0:0:0:0:
256,192,45787,1,8,0:0:0:0:
256,192,45987,1,0,0:0:0:0:
256,192,46187,1,8,0:0:0:0:
256,192,46387,1,0,0:0:0:0:
256,192,46587,1,8,0:0:0:0:
256,192,46687,1,0,0:0:0:0:
256,192,46887,1,0,0:0:0:0:
256,192,46987,1,8,0:0:0:0:
256,192,47187,1,8,0:0:0:0:
256,192,47287,1,0,0:0:0:0:
256,192,47487,1,0,0:0:0:0:
256,192,47587,1,8,0:0:0:0:
256,192,47787,1,0,0:0:0:0:
256,192,47887,1,0,0:0:0:0:
256,192,47987,1,8,0:0:0:0:
256,192,48087,1,0,0:0:0:0:
256,192,48187,1,8,0:0:0:0:
256,192,48387,1,0,0:0:0:0:
256,192,48487,1,8,0:0:0:0:
256,192,48687,1,8,0:0:0:0:
256,192,48787,1,0,0:0:0:0:
256,192,48987,1,0,0:0:0:0:
256,192,49087,1,8,0:0:0:0:
256,192,49187,1,8,0:0:0:0:
256,192,49287,1,0,0:0:0:0:
256,192,49387,1,8,0:0:0:0:
256,192,49487,1,8,0:0:0:0:
256,192,49587,1,0,0:0:0:0:
256,192,49787,1,0,0:0:0:0:
256,192,49887,1,8,0:0:0:0:
256,192,50087,1,8,0:0:0:0:
256,192,50187,1,0,0:0:0:0:
256,192,50387,1,0,0:0:0:0:
256,192,50487,1,8,0:0:0:0:
256,192,50687,1,8,0:0:0:0:
256,192,50787,1,0,0:0:0:0:
256,192,50887,1,0,0:0:0:0:
256,192,50987,1,8,0:0:0:0:
256,192,51087,1,8,0:0:0:0:
256,192,51187,1,0,0:0:0:0:
256,192,51287,1,0,0:0:0:0:
256,192,51387,1,8,0:0:0:0:
256,192,51587,1,8,0:0:0:0:
256,192,51687,1,8,0:0:0:0:
256,192,51787,1,8,0:0:0:0:
256,192,51987,1,0,0:0:0:0:
256,192,52053,1,0,0:0:0:0:
256,192,52120,1,0,0:0:0:0:
256,192,52187,1,8,0:0:0:0:
256,192,52287,1,8,0:0:0:0:
256,192,52387,1,0,0:0:0:0:
256,192,52487,1,0,0:0:0:0:
256,192,52587,1,8,0:0:0:0:
256,192,52687,1,0,0:0:0:0:
256,192,52787,1,8,0:0:0:0:
256,192,54387,1,0,0:0:0:0:
256,192,54487,1,0,0:0:0:0:
256,192,54587,1,0,0:0:0:0:
256,192,54787,1,8,0:0:0:0:
256,192,55087,1,0,0:0:0:0:
256,192,55187,1,0,0:0:0:0:
256,192,55387,1,0,0:0:0:0:
256,192,55487,1,0,0:0:0:0:
256,192,55587,1,8,0:0:0:0:
256,192,55887,1,0,0:0:0:0:
256,192,55987,1,0,0:0:0:0:
256,192,56053,1,0,0:0:0:0:
256,192,56120,1,0,0:0:0:0:
256,192,56187,1,0,0:0:0:0:
256,192,56253,1,0,0:0:0:0:
256,192,56320,1,0,0:0:0:0:
256,192,56387,1,0,0:0:0:0:
256,192,56487,1,0,0:0:0:0:
256,192,56587,1,0,0:0:0:0:
256,192,56787,1,0,0:0:0:0:
256,192,56887,1,0,0:0:0:0:
256,192,57087,1,0,0:0:0:0:
256,192,57187,1,0,0:0:0:0:
256,192,57387,1,0,0:0:0:0:
256,192,57487,1,0,0:0:0:0:
256,192,57687,1,0,0:0:0:0:
256,192,57787,1,0,0:0:0:0:
256,192,57987,1,8,0:0:0:0:
256,192,58087,1,0,0:0:0:0:
256,192,58287,1,0,0:0:0:0:
256,192,58387,1,0,0:0:0:0:
256,192,58587,1,0,0:0:0:0:
256,192,58687,1,0,0:0:0:0:
256,192,58787,1,8,0:0:0:0:
256,192,58853,1,8,0:0:0:0:
256,192,58920,1,8,0:0:0:0:
256,192,58987,1,0,0:0:0:0:
256,192,59187,1,8,0:0:0:0:
256,192,59237,1,0,0:0:0:0:
256,192,59287,1,0,0:0:0:0:
256,192,59487,1,8,0:0:0:0:
256,192,59537,1,0,0:0:0:0:
256,192,59587,1,0,0:0:0:0:
256,192,59787,1,8,0:0:0:0:
256,192,59837,1,0,0:0:0:0:
256,192,59887,1,0,0:0:0:0:
256,192,60087,1,8,0:0:0:0:
256,192,60137,1,0,0:0:0:0:
256,192,60187,1,0,0:0:0:0:
256,192,60387,1,8,0:0:0:0:
256,192,60437,1,0,0:0:0:0:
256,192,60487,1,0,0:0:0:0:
256,192,60787,1,0,0:0:0:0:
256,192,60887,1,0,0:0:0:0:
256,192,60987,1,0,0:0:0:0:
256,192,61187,1,8,0:0:0:0:
256,192,61487,1,0,0:0:0:0:
256,192,61587,1,0,0:0:0:0:
256,192,61787,1,0,0:0:0:0:
256,192,61887,1,0,0:0:0:0:
256,192,61987,1,8,0:0:0:0:
256,192,62287,1,0,0:0:0:0:
256,192,62387,1,0,0:0:0:0:
256,192,62453,1,0,0:0:0:0:
256,192,62520,1,0,0:0:0:0:
256,192,62587,1,0,0:0:0:0:
256,192,62653,1,0,0:0:0:0:
256,192,62720,1,0,0:0:0:0:
256,192,62787,1,0,0:0:0:0:
256,192,62887,1,0,0:0:0:0:
256,192,62987,1,0,0:0:0:0:
256,192,63187,1,0,0:0:0:0:
256,192,63287,1,0,0:0:0:0:
256,192,63487,1,0,0:0:0:0:
256,192,63587,1,0,0:0:0:0:
256,192,63787,1,0,0:0:0:0:
256,192,63887,1,0,0:0:0:0:
256,192,64087,1,0,0:0:0:0:
256,192,64187,1,0,0:0:0:0:
256,192,64387,1,8,0:0:0:0:
256,192,64487,1,0,0:0:0:0:
256,192,64687,1,0,0:0:0:0:
256,192,64787,1,8,0:0:0:0:
256,192,64853,1,8,0:0:0:0:
256,192,64920,1,8,0:0:0:0:
256,192,64987,1,0,0:0:0:0:
256,192,65087,1,0,0:0:0:0:
256,192,65187,1,8,0:0:0:0:
256,192,65287,1,8,0:0:0:0:
256,192,65387,1,0,0:0:0:0:
256,192,65587,1,8,0:0:0:0:
256,192,65637,1,0,0:0:0:0:
256,192,65687,1,0,0:0:0:0:
256,192,65887,1,8,0:0:0:0:
256,192,65937,1,0,0:0:0:0:
256,192,65987,1,0,0:0:0:0:
256,192,66187,1,8,0:0:0:0:
256,192,66237,1,0,0:0:0:0:
256,192,66287,1,0,0:0:0:0:
256,192,66487,1,8,0:0:0:0:
256,192,66537,1,0,0:0:0:0:
256,192,66587,1,0,0:0:0:0:
256,192,66787,1,8,0:0:0:0:
256,192,66837,1,0,0:0:0:0:
256,192,66887,1,0,0:0:0:0:
256,192,67187,1,0,0:0:0:0:
256,192,67287,1,0,0:0:0:0:
256,192,67387,1,0,0:0:0:0:
256,192,67587,1,8,0:0:0:0:
256,192,67887,1,0,0:0:0:0:
256,192,67987,1,8,0:0:0:0:
256,192,68087,1,0,0:0:0:0:
256,192,68187,1,0,0:0:0:0:
256,192,68387,1,8,0:0:0:0:
256,192,68787,1,8,0:0:0:0:
256,192,68837,1,0,0:0:0:0:
256,192,68887,1,0,0:0:0:0:
256,192,69087,1,8,0:0:0:0:
256,192,69137,1,0,0:0:0:0:
256,192,69187,1,0,0:0:0:0:
256,192,69387,1,8,0:0:0:0:
256,192,69437,1,0,0:0:0:0:
256,192,69487,1,0,0:0:0:0:
256,192,69687,1,8,0:0:0:0:
256,192,69737,1,0,0:0:0:0:
256,192,69787,1,0,0:0:0:0:
256,192,69987,1,8,0:0:0:0:
256,192,70037,1,0,0:0:0:0:
256,192,70087,1,0,0:0:0:0:
256,192,70387,1,0,0:0:0:0:
256,192,70487,1,0,0:0:0:0:
256,192,70587,1,0,0:0:0:0:
256,192,70787,1,8,0:0:0:0:
256,192,71087,1,0,0:0:0:0:
256,192,71187,1,0,0:0:0:0:
256,192,71387,1,0,0:0:0:0:
256,192,71487,1,0,0:0:0:0:
256,192,71587,1,8,0:0:0:0:
256,192,71653,1,8,0:0:0:0:
256,192,71720,1,8,0:0:0:0:
256,192,71787,1,0,0:0:0:0:
256,192,71987,1,8,0:0:0:0:
256,192,72037,1,0,0:0:0:0:
256,192,72087,1,0,0:0:0:0:
256,192,72287,1,8,0:0:0:0:
256,192,72337,1,0,0:0:0:0:
256,192,72387,1,0,0:0:0:0:
256,192,72587,1,8,0:0:0:0:
256,192,72637,1,0,0:0:0:0:
256,192,72687,1,0,0:0:0:0:
256,192,72887,1,8,0:0:0:0:
256,192,72937,1,0,0:0:0:0:
256,192,72987,1,0,0:0:0:0:
256,192,73187,1,8,0:0:0:0:
256,192,73237,1,0,0:0:0:0:
256,192,73287,1,0,0:0:0:0:
256,192,73587,1,0,0:0:0:0:
256,192,73687,1,0,0:0:0:0:
256,192,73787,1,0,0:0:0:0:
256,192,73987,1,8,0:0:0:0:
256,192,74287,1,0,0:0:0:0:
256,192,74387,1,0,0:0:0:0:
256,192,74587,1,0,0:0:0:0:
256,192,74687,1,0,0:0:0:0:
256,192,74787,1,8,0:0:0:0:
256,192,75187,1,8,0:0:0:0:
256,192,75237,1,0,0:0:0:0:
256,192,75287,1,0,0:0:0:0:
256,192,75487,1,8,0:0:0:0:
256,192,75537,1,0,0:0:0:0:
256,192,75587,1,0,0:0:0:0:
256,192,75787,1,8,0:0:0:0:
256,192,75837,1,0,0:0:0:0:
256,192,75887,1,0,0:0:0:0:
256,192,76087,1,8,0:0:0:0:
256,192,76137,1,0,0:0:0:0:
256,192,76187,1,0,0:0:0:0:
256,192,76387,1,8,0:0:0:0:
256,192,76437,1,0,0:0:0:0:
256,192,76487,1,0,0:0:0:0:
256,192,76787,1,8,0:0:0:0:
256,192,76853,1,8,0:0:0:0:
256,192,76920,1,8,0:0:0:0:
256,192,76987,1,0,0:0:0:0:
256,192,77087,1,0,0:0:0:0:
256,192,77187,1,0,0:0:0:0:
256,192,77287,1,0,0:0:0:0:
256,192,77387,1,8,0:0:0:0:
256,192,77487,1,8,0:0:0:0:
256,192,77587,1,0,0:0:0:0:
256,192,77687,1,0,0:0:0:0:
256,192,77787,1,8,0:0:0:0:
256,192,77887,1,0,0:0:0:0:
256,192,77987,1,8,0:0:0:0:
256,192,78087,1,8,0:0:0:0:
256,192,78187,1,0,0:0:0:0:
256,192,78287,1,8,0:0:0:0:
256,192,78387,1,4,0:0:0:0:
256,192,78687,1,4,0:0:0:0:
256,192,78987,1,4,0:0:0:0:
256,192,79387,1,0,0:0:0:0:
256,192,79587,1,8,0:0:0:0:
256,192,79787,1,0,0:0:0:0:
256,192,79987,1,4,0:0:0:0:
256,192,80287,1,4,0:0:0:0:
256,192,80587,1,4,0:0:0:0:
256,192,80987,1,0,0:0:0:0:
256,192,81187,1,8,0:0:0:0:
256,192,81387,1,8,0:0:0:0:
256,192,81587,1,4,0:0:0:0:
256,192,81887,1,4,0:0:0:0:
256,192,82187,1,4,0:0:0:0:
256,192,82587,1,8,0:0:0:0:
256,192,82787,1,8,0:0:0:0:
256,192,82987,1,0,0:0:0:0:
256,192,83187,1,4,0:0:0:0:
256,192,83487,1,4,0:0:0:0:
256,192,83787,1,4,0:0:0:0:
256,192,84187,1,0,0:0:0:0:
256,192,84387,1,8,0:0:0:0:
256,192,84587,1,0,0:0:0:0:
256,192,84787,1,4,0:0:0:0:
256,192,85087,1,4,0:0:0:0:
256,192,85387,1,4,0:0:0:0:
256,192,85587,1,0,0:0:0:0:
256,192,85887,1,0,0:0:0:0:
256,192,85987,1,8,0:0:0:0:
256,192,86187,1,0,0:0:0:0:
256,192,86387,1,0,0:0:0:0:
256,192,86687,1,0,0:0:0:0:
256,192,86787,1,8,0:0:0:0:
256,192,86987,1,0,0:0:0:0:
256,192,87187,1,0,0:0:0:0:
256,192,87487,1,0,0:0:0:0:
256,192,87587,1,8,0:0:0:0:
256,192,87787,1,0,0:0:0:0:
256,192,87987,1,0,0:0:0:0:
256,192,88087,1,0,0:0:0:0:
256,192,88187,1,0,0:0:0:0:
256,192,88287,1,0,0:0:0:0:
256,192,88387,1,8,0:0:0:0:
256,192,88487,1,0,0:0:0:0:
256,192,88587,1,0,0:0:0:0:
256,192,88687,1,0,0:0:0:0:
256,192,88787,1,0,0:0:0:0:
256,192,88887,1,0,0:0:0:0:
256,192,88987,1,0,0:0:0:0:
256,192,89087,1,0,0:0:0:0:
256,192,89187,1,0,0:0:0:0:
256,192,89253,1,0,0:0:0:0:
256,192,89320,1,0,0:0:0:0:
256,192,89387,1,0,0:0:0:0:
256,192,89453,1,0,0:0:0:0:
256,192,89520,1,0,0:0:0:0:
256,192,89587,1,0,0:0:0:0:
256,192,90387,1,8,0:0:0:0:
256,192,90487,1,8,0:0:0:0:
256,192,90587,1,8,0:0:0:0:
256,192,90687,1,8,0:0:0:0:
256,192,90787,1,8,0:0:0:0:
256,192,90887,1,8,0:0:0:0:
256,192,90987,1,8,0:0:0:0:
256,192,91087,1,8,0:0:0:0:
256,192,91187,1,4,0:0:0:0:
256,192,91587,1,8,0:0:0:0:
256,192,91787,1,8,0:0:0:0:
256,192,91987,1,8,0:0:0:0:
256,192,92053,1,8,0:0:0:0:
256,192,92120,1,8,0:0:0:0:
256,192,92187,1,0,0:0:0:0:
256,192,92287,1,0,0:0:0:0:
256,192,92387,1,0,0:0:0:0:
256,192,92487,1,0,0:0:0:0:
256,192,92587,1,8,0:0:0:0:
256,192,92687,1,8,0:0:0:0:
256,192,92787,1,8,0:0:0:0:
256,192,92887,1,0,0:0:0:0:
256,192,92987,1,8,0:0:0:0:
256,192,93087,1,0,0:0:0:0:
256,192,93187,1,8,0:0:0:0:
256,192,93237,1,8,0:0:0:0:
256,192,93387,1,8,0:0:0:0:
256,192,93437,1,8,0:0:0:0:
256,192,93587,12,0,94287,0:0:0:0:
256,192,94387,5,0,0:0:0:0:
256,192,94587,1,0,0:0:0:0:
256,192,94653,1,0,0:0:0:0:
256,192,94720,1,0,0:0:0:0:
256,192,94787,1,8,0:0:0:0:
256,192,95187,1,8,0:0:0:0:
256,192,95253,1,8,0:0:0:0:
256,192,95320,1,8,0:0:0:0:
256,192,95387,1,0,0:0:0:0:
256,192,95487,1,0,0:0:0:0:
256,192,95587,1,0,0:0:0:0:
256,192,95687,1,8,0:0:0:0:
256,192,95787,1,8,0:0:0:0:
256,192,95887,1,8,0:0:0:0:
256,192,95987,1,8,0:0:0:0:
256,192,96087,1,8,0:0:0:0:
256,192,96187,1,8,0:0:0:0:
256,192,96287,1,8,0:0:0:0:
256,192,96387,1,8,0:0:0:0:
256,192,96487,1,8,0:0:0:0:
256,192,96687,1,0,0:0:0:0:
256,192,96787,1,8,0:0:0:0:
256,192,96853,2,0,L|384:192,1,127.99999609375
256,192,97187,5,0,0:0:0:0:
256,192,97253,12,0,98320,0:0:0:0:
256,192,98387,5,8,0:0:0:0:
256,192,98453,1,8,0:0:0:0:
256,192,98520,1,8,0:0:0:0:
256,192,98587,1,0,0:0:0:0:
256,192,98687,1,0,0:0:0:0:
256,192,98787,1,8,0:0:0:0:
256,192,98887,1,0,0:0:0:0:
256,192,98987,1,0,0:0:0:0:
256,192,99087,1,8,0:0:0:0:
256,192,99187,1,0,0:0:0:0:
256,192,99287,1,8,0:0:0:0:
256,192,99387,1,8,0:0:0:0:
256,192,99487,1,8,0:0:0:0:
256,192,99587,1,0,0:0:0:0:
256,192,99637,1,0,0:0:0:0:
256,192,99787,1,0,0:0:0:0:
256,192,99837,1,0,0:0:0:0:
256,192,99987,1,8,0:0:0:0:
256,192,100187,1,0,0:0:0:0:
256,192,100387,1,8,0:0:0:0:
256,192,100487,1,8,0:0:0:0:
256,192,100587,1,0,0:0:0:0:
256,192,100787,1,8,0:0:0:0:
256,192,100853,1,8,0:0:0:0:
256,192,100920,1,8,0:0:0:0:
256,192,100987,1,0,0:0:0:0:
256,192,101187,1,0,0:0:0:0:
256,192,101287,1,8,0:0:0:0:
256,192,101387,1,8,0:0:0:0:
256,192,101587,1,8,0:0:0:0:
256,192,101687,1,0,0:0:0:0:
256,192,101887,1,8,0:0:0:0:
256,192,101987,1,0,0:0:0:0:
256,192,102187,1,8,0:0:0:0:
256,192,102287,1,0,0:0:0:0:
256,192,102387,1,8,0:0:0:0:
256,192,102487,1,8,0:0:0:0:
256,192,102587,1,0,0:0:0:0:
256,192,102787,1,8,0:0:0:0:
256,192,102887,1,0,0:0:0:0:
256,192,103087,1,8,0:0:0:0:
256,192,103187,1,0,0:0:0:0:
256,192,103287,12,8,104187,0:0:0:0:
256,192,104387,5,8,0:0:0:0:
256,192,104453,1,8,0:0:0:0:
256,192,104587,1,0,0:0:0:0:
256,192,104653,1,0,0:0:0:0:
256,192,104720,1,0,0:0:0:0:
256,192,104787,1,0,0:0:0:0:
256,192,104853,1,8,0:0:0:0:
256,192,104920,1,8,0:0:0:0:
256,192,104987,1,0,0:0:0:0:
256,192,105087,1,0,0:0:0:0:
256,192,105187,1,8,0:0:0:0:
256,192,105287,1,8,0:0:0:0:
256,192,105387,1,0,0:0:0:0:
256,192,105487,1,8,0:0:0:0:
256,192,105587,1,0,0:0:0:0:
256,192,105687,1,8,0:0:0:0:
256,192,105787,1,8,0:0:0:0:
256,192,105887,1,0,0:0:0:0:
256,192,105987,1,8,0:0:0:0:
256,192,106037,1,8,0:0:0:0:
256,192,106187,1,8,0:0:0:0:
256,192,106237,1,8,0:0:0:0:
256,192,106387,1,0,0:0:0:0:
256,192,106487,1,0,0:0:0:0:
256,192,106587,1,8,0:0:0:0:
256,192,106687,1,8,0:0:0:0:
256,192,106787,1,0,0:0:0:0:
256,192,106987,1,8,0:0:0:0:
256,192,107187,1,0,0:0:0:0:
256,192,107387,1,8,0:0:0:0:
256,192,107453,1,8,0:0:0:0:
256,192,107520,1,8,0:0:0:0:
256,192,107587,1,0,0:0:0:0:
256,192,107637,12,0,107937,0:0:0:0:
256,192,107987,5,8,0:0:0:0:
256,192,108053,1,8,0:0:0:0:
256,192,108120,1,8,0:0:0:0:
256,192,108187,1,0,0:0:0:0:
256,192,108287,1,0,0:0:0:0:
256,192,108387,1,8,0:0:0:0:
256,192,108487,1,8,0:0:0:0:
256,192,108587,1,0,0:0:0:0:
256,192,108687,1,0,0:0:0:0:
256,192,108787,1,8,0:0:0:0:
256,192,108887,1,8,0:0:0:0:
256,192,108987,1,8,0:0:0:0:
256,192,109087,1,8,0:0:0:0:
256,192,109187,1,0,0:0:0:0:
256,192,109287,1,0,0:0:0:0:
256,192,109387,1,8,0:0:0:0:
256,192,109487,1,0,0:0:0:0:
256,192,109587,1,8,0:0:0:0:
256,192,109687,1,8,0:0:0:0:
256,192,109787,1,8,0:0:0:0:
256,192,109887,1,0,0:0:0:0:
256,192,109987,1,8,0:0:0:0:
256,192,110037,1,8,0:0:0:0:
256,192,110187,1,8,0:0:0:0:
256,192,110237,1,8,0:0:0:0:
256,192,110387,1,4,0:0:0:0:
256,192,110587,1,12,0:0:0:0:
256,192,110787,1,8,0:0:0:0:
256,192,110987,1,0,0:0:0:0:
256,192,111187,1,8,0:0:0:0:
256,192,111287,1,8,0:0:0:0:
256,192,111387,1,0,0:0:0:0:
256,192,111487,1,8,0:0:0:0:
256,192,111587,1,8,0:0:0:0:
256,192,111687,1,0,0:0:0:0:
256,192,111787,1,0,0:0:0:0:
256,192,111887,1,0,0:0:0:0:
256,192,111987,1,8,0:0:0:0:
256,192,112087,1,8,0:0:0:0:
256,192,112187,1,0,0:0:0:0:
256,192,112287,1,0,0:0:0:0:
256,192,112387,1,8,0:0:0:0:
256,192,112487,1,0,0:0:0:0:
256,192,112587,1,0,0:0:0:0:
256,192,112687,1,0,0:0:0:0:
256,192,112787,1,8,0:0:0:0:
256,192,112887,1,8,0:0:0:0:
256,192,112987,1,0,0:0:0:0:
256,192,113087,1,8,0:0:0:0:
256,192,113187,1,0,0:0:0:0:
256,192,113287,1,8,0:0:0:0:
256,192,113387,1,8,0:0:0:0:
256,192,113487,1,0,0:0:0:0:
256,192,113587,1,12,0:0:0:0:
256,192,113787,1,0,0:0:0:0:
256,192,113837,1,0,0:0:0:0:
256,192,113987,1,8,0:0:0:0:
256,192,114037,1,8,0:0:0:0:
256,192,114187,1,0,0:0:0:0:
256,192,114237,1,0,0:0:0:0:
256,192,114387,1,0,0:0:0:0:
256,192,114487,1,0,0:0:0:0:
256,192,114587,1,0,0:0:0:0:
256,192,114687,1,8,0:0:0:0:
256,192,114787,1,0,0:0:0:0:
256,192,114887,1,8,0:0:0:0:
256,192,114987,1,8,0:0:0:0:
256,192,115087,1,8,0:0:0:0:
256,192,115187,1,0,0:0:0:0:
256,192,115387,1,0,0:0:0:0:
256,192,115587,1,0,0:0:0:0:
256,192,115687,1,0,0:0:0:0:
256,192,115787,1,8,0:0:0:0:
256,192,115987,1,8,0:0:0:0:
256,192,116287,1,8,0:0:0:0:
256,192,116587,1,8,0:0:0:0:
256,192,116787,1,4,0:0:0:0:
256,192,116987,1,8,0:0:0:0:
256,192,117087,1,8,0:0:0:0:
256,192,117187,1,8,0:0:0:0:
256,192,117253,1,0,0:0:0:0:
256,192,117320,1,0,0:0:0:0:
256,192,117387,1,8,0:0:0:0:
256,192,117487,1,0,0:0:0:0:
256,192,117587,1,8,0:0:0:0:
256,192,117687,1,0,0:0:0:0:
256,192,117787,1,0,0:0:0:0:
256,192,117887,1,8,0:0:0:0:
256,192,117987,1,0,0:0:0:0:
256,192,118087,1,0,0:0:0:0:
256,192,118187,1,8,0:0:0:0:
256,192,118287,1,8,0:0:0:0:
256,192,118387,1,4,0:0:0:0:
256,192,118787,1,0,0:0:0:0:
256,192,118837,1,0,0:0:0:0:
256,192,118987,1,0,0:0:0:0:
256,192,119037,1,0,0:0:0:0:
256,192,119187,1,8,0:0:0:0:
256,192,119387,1,8,0:0:0:0:
256,192,119487,1,0,0:0:0:0:
256,192,119587,1,0,0:0:0:0:
256,192,119787,1,8,0:0:0:0:
256,192,119837,1,8,0:0:0:0:
256,192,119987,1,4,0:0:0:0:
256,192,120187,1,12,0:0:0:0:
256,192,120387,1,8,0:0:0:0:
256,192,120453,1,0,0:0:0:0:
256,192,120520,1,0,0:0:0:0:
256,192,120587,1,8,0:0:0:0:
256,192,120787,1,8,0:0:0:0:
256,192,120853,1,8,0:0:0:0:
256,192,120920,1,8,0:0:0:0:
256,192,120987,1,0,0:0:0:0:
256,192,121187,1,8,0:0:0:0:
256,192,121253,1,8,0:0:0:0:
256,192,121320,1,8,0:0:0:0:
256,192,121387,1,0,0:0:0:0:
256,192,121587,1,4,0:0:0:0:
256,192,121787,1,8,0:0:0:0:
256,192,121987,1,8,0:0:0:0:
256,192,122187,1,0,0:0:0:0:
256,192,122287,1,0,0:0:0:0:
256,192,122387,1,8,0:0:0:0:
256,192,122587,1,0,0:0:0:0:
256,192,122787,1,0,0:0:0:0:
256,192,122887,1,8,0:0:0:0:
256,192,122987,1,0,0:0:0:0:
256,192,123053,1,0,0:0:0:0:
256,192,123120,1,0,0:0:0:0:
256,192,123187,1,8,0:0:0:0:
256,192,123287,1,0,0:0:0:0:
256,192,123387,1,8,0:0:0:0:
256,192,123487,1,8,0:0:0:0:
256,192,123587,1,8,0:0:0:0:
256,192,123787,1,0,0:0:0:0:
256,192,123987,1,0,0:0:0:0:
256,192,124053,1,0,0:0:0:0:
256,192,124120,1,0,0:0:0:0:
256,192,124187,1,8,0:0:0:0:
256,192,124287,1,8,0:0:0:0:
256,192,124387,1,8,0:0:0:0:
256,192,124487,1,0,0:0:0:0:
256,192,124587,1,8,0:0:0:0:
256,192,124687,1,0,0:0:0:0:
256,192,124787,1,8,0:0:0:0:
256,192,124837,1,8,0:0:0:0:
256,192,125187,1,8,0:0:0:0:
256,192,125237,1,8,0:0:0:0:
256,192,125387,1,8,0:0:0:0:
256,192,125437,1,8,0:0:0:0:
256,192,125587,1,0,0:0:0:0:
