osu file format v14

[General]
AudioFilename: audio.mp3
AudioLeadIn: 0
PreviewTime: 297778
Countdown: 0
SampleSet: Soft
StackLeniency: 0.7
Mode: 3
LetterboxInBreaks: 0
SpecialStyle: 0
WidescreenStoryboard: 0
SamplesMatchPlaybackRate: 1

[Editor]
Bookmarks: 22120,46806,68749,79720,101663,123606,145549,156520,167492,189435,211378,233320,255263,277206,299149,321092,343035,364977,386920,408863
DistanceSpacing: 1.3
BeatDivisor: 4
GridSize: 4
TimelineZoom: 2.3

[Metadata]
Title:I Can Fly In The Universe
TitleUnicode:I Can Fly In The Universe
Artist:Camellia
ArtistUnicode:かめりあ
Creator:paradoxus_
Version:Sonic
Source:
Tags:marathon camellia 7k
BeatmapID:1983144
BeatmapSetID:949718

[Difficulty]
HPDrainRate:7.5
CircleSize:7
OverallDifficulty:7.4
ApproachRate:5
SliderMultiplier:1.4
SliderTickRate:2

[Events]
//Background and Video events
0,0,"universe.jpg",0,0
//Break Periods
//Storyboard Layer 0 (Background)
//Storyboard Layer 1 (Fail)
//Storyboard Layer 2 (Pass)
//Storyboard Layer 3 (Foreground)
//Storyboard Layer 4 (Overlay)
//Storyboard Sound Samples

[TimingPoints]
178,342.857142857143,4,2,0,50,1,0
22120,-100,4,2,1,50,0,0
46463,-50,4,2,1,50,0,0
46506,-142.857142857143,4,2,1,50,0,0
46806,-133.333333333333,4,2,1,50,0,0
56406,-117.647058823529,4,2,1,50,0,0
56749,-105.263157894737,4,2,1,50,0,0
57092,-103.092783505155,4,2,1,50,0,0
57778,-100,4,2,1,50,0,0
230578,-111.111111111111,4,2,1,50,0,0
231092,-125,4,2,1,50,0,0
231606,-142.857142857143,4,2,1,50,0,0
232120,-166.666666666667,4,2,1,50,0,0
232635,-125,4,2,1,50,0,0
233320,-133.333333333333,4,2,1,50,0,0
236063,-125,4,2,1,50,0,0
237435,-117.647058823529,4,2,1,50,0,0
238806,-111.111111111111,4,2,1,50,0,0
240178,-105.263157894737,4,2,1,50,0,0
241549,-103.092783505155,4,2,1,50,0,0
242920,-100,4,2,1,50,0,0
247035,-101.010101010101,4,2,1,50,0,0
248406,-102.040816326531,4,2,1,50,0,0
249778,-104.166666666667,4,2,1,50,0,0
251149,-108.695652173913,4,2,1,50,0,0
252520,-117.647058823529,4,2,1,50,0,0
253892,-125,4,2,1,50,0,0
254235,-133.333333333333,4,2,1,50,0,0
254578,-142.857142857143,4,2,1,50,0,0
254920,-153.846153846154,4,2,1,50,0,0
255263,-166.666666666667,4,2,1,50,0,0
256292,-166.666666666667,4,2,1,10,0,0
275835,-153.846153846154,4,2,1,10,0,0
276178,-133.333333333333,4,2,1,10,0,0
276520,-117.647058823529,4,2,1,10,0,0
276863,-105.263157894737,4,2,1,10,0,0
277206,-100,4,2,1,50,0,0
297778,-100,4,2,1,30,0,1
315606,-100,4,2,1,50,0,0
386920,-100,4,2,1,10,0,0

[HitObjects]
36,192,178,128,0,1549:0:0:0:0:
475,192,178,128,0,520:0:0:0:0:
256,192,349,1,0,0:0:0:0:
329,192,520,1,0,0:0:0:0:
475,192,692,128,0,1035:0:0:0:0:
256,192,863,1,0,0:0:0:0:
329,192,1035,1,0,0:0:0:0:
475,192,1206,128,0,1549:0:0:0:0:
256,192,1378,1,0,0:0:0:0:
109,192,1549,128,0,2920:0:0:0:0:
402,192,1549,128,0,1892:0:0:0:0:
182,192,1720,1,0,0:0:0:0:
329,192,1892,1,0,0:0:0:0:
402,192,2063,128,0,2406:0:0:0:0:
182,192,2235,1,0,0:0:0:0:
329,192,2406,1,0,0:0:0:0:
402,192,2578,128,0,2920:0:0:0:0:
256,192,2749,1,0,0:0:0:0:
182,192,2920,128,0,4292:0:0:0:0:
329,192,2920,128,0,3263:0:0:0:0:
475,192,3092,1,0,0:0:0:0:
256,192,3263,1,0,0:0:0:0:
329,192,3435,128,0,3778:0:0:0:0:
475,192,3606,1,0,0:0:0:0:
256,192,3778,1,0,0:0:0:0:
329,192,3949,128,0,4292:0:0:0:0:
475,192,4120,1,0,0:0:0:0:
109,192,4292,128,0,4978:0:0:0:0:
256,192,4292,1,0,0:0:0:0:
402,192,4463,1,0,0:0:0:0:
329,192,4635,1,0,0:0:0:0:
256,192,4806,1,0,0:0:0:0:
475,192,4978,1,0,0:0:0:0:
182,192,4978,128,0,5663:0:0:0:0:
402,192,5149,1,0,0:0:0:0:
256,192,5320,1,0,0:0:0:0:
329,192,5492,1,0,0:0:0:0:
36,192,5663,128,0,7035:0:0:0:0:
402,192,5663,128,0,6006:0:0:0:0:
182,192,5835,1,0,0:0:0:0:
475,192,6006,1,0,0:0:0:0:
402,192,6178,128,0,6520:0:0:0:0:
182,192,6349,1,0,0:0:0:0:
475,192,6520,1,0,0:0:0:0:
402,192,6692,128,0,7035:0:0:0:0:
182,192,6863,1,0,0:0:0:0:
109,192,7035,128,0,8406:0:0:0:0:
256,192,7035,128,0,7378:0:0:0:0:
475,192,7206,1,0,0:0:0:0:
402,192,7378,1,0,0:0:0:0:
256,192,7549,128,0,7892:0:0:0:0:
475,192,7720,1,0,0:0:0:0:
402,192,7892,1,0,0:0:0:0:
256,192,8063,128,0,8406:0:0:0:0:
475,192,8235,1,0,0:0:0:0:
182,192,8406,128,0,9778:0:0:0:0:
402,192,8406,128,0,8749:0:0:0:0:
36,192,8578,1,0,0:0:0:0:
329,192,8749,1,0,0:0:0:0:
402,192,8920,128,0,9263:0:0:0:0:
36,192,9092,1,0,0:0:0:0:
329,192,9263,1,0,0:0:0:0:
402,192,9435,128,0,9778:0:0:0:0:
36,192,9606,1,0,0:0:0:0:
475,192,9778,128,0,10463:0:0:0:0:
329,192,9778,1,0,0:0:0:0:
109,192,9949,1,0,0:0:0:0:
329,192,10120,1,0,0:0:0:0:
182,192,10292,1,0,0:0:0:0:
402,192,10463,128,0,11149:0:0:0:0:
36,192,10463,1,0,0:0:0:0:
256,192,10635,1,0,0:0:0:0:
109,192,10806,1,0,0:0:0:0:
182,192,10978,1,0,0:0:0:0:
256,192,11149,128,0,13892:0:0:0:0:
475,192,11149,128,0,11492:0:0:0:0:
109,192,11320,1,0,0:0:0:0:
402,192,11492,1,0,0:0:0:0:
475,192,11663,128,0,12006:0:0:0:0:
36,192,11835,128,0,13892:0:0:0:0:
109,192,11835,1,0,0:0:0:0:
402,192,12006,1,0,0:0:0:0:
182,192,12178,1,0,0:0:0:0:
329,192,12349,1,0,0:0:0:0:
475,192,12520,128,0,15263:0:0:0:0:
109,192,12520,128,0,12863:0:0:0:0:
182,192,12692,1,0,0:0:0:0:
402,192,12863,1,0,0:0:0:0:
109,192,13035,128,0,13378:0:0:0:0:
182,192,13206,1,0,0:0:0:0:
402,192,13378,1,0,0:0:0:0:
109,192,13549,128,0,13892:0:0:0:0:
402,192,13720,1,0,0:0:0:0:
182,192,13892,128,0,16635:0:0:0:0:
329,192,13892,128,0,14235:0:0:0:0:
36,192,14063,1,0,0:0:0:0:
256,192,14235,1,0,0:0:0:0:
329,192,14406,128,0,14749:0:0:0:0:
36,192,14578,1,0,0:0:0:0:
256,192,14749,1,0,0:0:0:0:
329,192,14920,128,0,15263:0:0:0:0:
36,192,15092,1,0,0:0:0:0:
402,192,15263,128,0,15949:0:0:0:0:
256,192,15263,1,0,0:0:0:0:
475,192,15435,1,0,0:0:0:0:
109,192,15606,1,0,0:0:0:0:
329,192,15778,1,0,0:0:0:0:
36,192,15949,128,0,16635:0:0:0:0:
475,192,15949,1,0,0:0:0:0:
256,192,16120,1,0,0:0:0:0:
402,192,16292,1,0,0:0:0:0:
329,192,16463,1,0,0:0:0:0:
109,192,16635,128,0,19378:0:0:0:0:
256,192,16635,128,0,16978:0:0:0:0:
475,192,16806,1,0,0:0:0:0:
329,192,16978,1,0,0:0:0:0:
256,192,17149,128,0,17492:0:0:0:0:
475,192,17320,1,0,0:0:0:0:
329,192,17492,1,0,0:0:0:0:
256,192,17663,128,0,18006:0:0:0:0:
475,192,17835,1,0,0:0:0:0:
182,192,18006,128,0,20749:0:0:0:0:
402,192,18006,128,0,18349:0:0:0:0:
256,192,18178,1,0,0:0:0:0:
475,192,18349,1,0,0:0:0:0:
402,192,18520,128,0,18863:0:0:0:0:
256,192,18692,1,0,0:0:0:0:
475,192,18863,1,0,0:0:0:0:
402,192,19035,128,0,19378:0:0:0:0:
256,192,19206,1,0,0:0:0:0:
36,192,19378,128,0,22035:0:0:0:0:
329,192,19378,128,0,19720:0:0:0:0:
109,192,19549,1,0,0:0:0:0:
402,192,19720,1,0,0:0:0:0:
329,192,19892,128,0,20235:0:0:0:0:
109,192,20063,1,0,0:0:0:0:
402,192,20235,1,0,0:0:0:0:
329,192,20406,128,0,20749:0:0:0:0:
109,192,20578,1,0,0:0:0:0:
402,192,20749,1,0,0:0:0:0:
256,192,20749,128,0,22035:0:0:0:0:
475,192,20920,1,0,0:0:0:0:
182,192,21092,1,0,0:0:0:0:
109,192,21263,1,0,0:0:0:0:
475,192,21435,128,0,22035:0:0:0:0:
329,192,21435,1,0,0:0:0:0:
182,192,21606,1,0,0:0:0:0:
109,192,21778,1,0,0:0:0:0:
329,192,21949,1,0,0:0:0:0:
36,192,22120,1,0,0:0:0:0:
109,192,22120,1,0,0:0:0:0:
256,192,22120,1,0,0:0:0:0:
402,192,22120,1,0,0:0:0:0:
475,192,22120,1,0,0:0:0:0:
109,192,22378,1,0,0:0:0:0:
329,192,22463,1,0,0:0:0:0:
36,192,22635,1,0,0:0:0:0:
256,192,22635,1,0,0:0:0:0:
475,192,22635,1,0,0:0:0:0:
182,192,22635,1,0,0:0:0:0:
402,192,22806,1,0,0:0:0:0:
329,192,22806,128,0,22892:0:0:0:0:
475,192,22806,1,0,0:0:0:0:
36,192,22806,1,0,0:0:0:0:
182,192,22892,128,0,23149:0:0:0:0:
329,192,22978,128,0,23149:0:0:0:0:
36,192,23149,1,0,0:0:0:0:
475,192,23149,1,0,0:0:0:0:
256,192,23149,1,0,0:0:0:0:
402,192,23149,1,0,0:0:0:0:
182,192,23320,1,0,0:0:0:0:
329,192,23492,1,0,0:0:0:0:
36,192,23492,1,0,0:0:0:0:
475,192,23492,1,0,0:0:0:0:
109,192,23663,1,0,0:0:0:0:
329,192,23663,1,0,0:0:0:0:
475,192,23663,1,0,0:0:0:0:
256,192,23749,1,0,0:0:0:0:
109,192,23835,1,0,0:0:0:0:
402,192,23835,1,0,0:0:0:0:
36,192,24006,1,0,0:0:0:0:
182,192,24006,1,0,0:0:0:0:
402,192,24006,1,0,0:0:0:0:
182,192,24178,1,0,0:0:0:0:
329,192,24178,128,0,24349:0:0:0:0:
475,192,24178,128,0,24349:0:0:0:0:
36,192,24178,128,0,24349:0:0:0:0:
402,192,24349,128,0,24520:0:0:0:0:
109,192,24520,1,0,0:0:0:0:
36,192,24520,128,0,24692:0:0:0:0:
256,192,24520,128,0,24692:0:0:0:0:
475,192,24520,128,0,24692:0:0:0:0:
329,192,24692,128,0,24863:0:0:0:0:
36,192,24863,1,0,0:0:0:0:
109,192,24863,1,0,0:0:0:0:
182,192,24863,1,0,0:0:0:0:
402,192,24863,1,0,0:0:0:0:
475,192,24863,1,0,0:0:0:0:
402,192,25120,1,0,0:0:0:0:
182,192,25206,1,0,0:0:0:0:
36,192,25378,1,0,0:0:0:0:
256,192,25378,1,0,0:0:0:0:
475,192,25378,1,0,0:0:0:0:
329,192,25378,1,0,0:0:0:0:
36,192,25549,1,0,0:0:0:0:
475,192,25549,1,0,0:0:0:0:
182,192,25549,128,0,25635:0:0:0:0:
109,192,25549,1,0,0:0:0:0:
329,192,25635,128,0,25892:0:0:0:0:
182,192,25720,128,0,25892:0:0:0:0:
36,192,25892,1,0,0:0:0:0:
475,192,25892,1,0,0:0:0:0:
402,192,25892,1,0,0:0:0:0:
109,192,25892,1,0,0:0:0:0:
182,192,26063,1,0,0:0:0:0:
329,192,26235,1,0,0:0:0:0:
36,192,26235,1,0,0:0:0:0:
475,192,26235,1,0,0:0:0:0:
36,192,26406,1,0,0:0:0:0:
475,192,26406,1,0,0:0:0:0:
182,192,26406,1,0,0:0:0:0:
256,192,26492,1,0,0:0:0:0:
182,192,26578,1,0,0:0:0:0:
402,192,26578,1,0,0:0:0:0:
109,192,26749,1,0,0:0:0:0:
182,192,26920,1,0,0:0:0:0:
256,192,26920,128,0,27092:0:0:0:0:
402,192,26920,128,0,27092:0:0:0:0:
36,192,26920,128,0,27092:0:0:0:0:
475,192,27092,1,0,0:0:0:0:
36,192,27263,1,0,0:0:0:0:
475,192,27263,1,0,0:0:0:0:
182,192,27263,1,0,0:0:0:0:
329,192,27263,1,0,0:0:0:0:
109,192,27349,1,0,0:0:0:0:
402,192,27349,1,0,0:0:0:0:
182,192,27435,1,0,0:0:0:0:
329,192,27435,1,0,0:0:0:0:
402,192,27606,1,0,0:0:0:0:
475,192,27606,1,0,0:0:0:0:
256,192,27606,1,0,0:0:0:0:
36,192,27606,1,0,0:0:0:0:
109,192,27606,1,0,0:0:0:0:
402,192,27863,1,0,0:0:0:0:
109,192,27949,1,0,0:0:0:0:
475,192,28120,1,0,0:0:0:0:
256,192,28120,1,0,0:0:0:0:
36,192,28120,1,0,0:0:0:0:
402,192,28120,1,0,0:0:0:0:
182,192,28292,128,0,28378:0:0:0:0:
36,192,28292,1,0,0:0:0:0:
109,192,28292,1,0,0:0:0:0:
329,192,28292,1,0,0:0:0:0:
475,192,28378,128,0,28635:0:0:0:0:
182,192,28463,128,0,28635:0:0:0:0:
36,192,28635,1,0,0:0:0:0:
109,192,28635,1,0,0:0:0:0:
402,192,28635,1,0,0:0:0:0:
256,192,28635,1,0,0:0:0:0:
182,192,28806,1,0,0:0:0:0:
475,192,28978,1,0,0:0:0:0:
36,192,28978,1,0,0:0:0:0:
256,192,28978,1,0,0:0:0:0:
475,192,29149,1,0,0:0:0:0:
256,192,29149,1,0,0:0:0:0:
109,192,29149,1,0,0:0:0:0:
329,192,29235,1,0,0:0:0:0:
109,192,29320,1,0,0:0:0:0:
402,192,29320,1,0,0:0:0:0:
402,192,29492,1,0,0:0:0:0:
182,192,29492,1,0,0:0:0:0:
36,192,29492,1,0,0:0:0:0:
182,192,29663,1,0,0:0:0:0:
475,192,29663,1,0,0:0:0:0:
329,192,29663,1,0,0:0:0:0:
36,192,29663,1,0,0:0:0:0:
182,192,29835,128,0,30006:0:0:0:0:
329,192,29835,128,0,30006:0:0:0:0:
109,192,30006,1,0,0:0:0:0:
36,192,30006,128,0,30178:0:0:0:0:
475,192,30006,128,0,30178:0:0:0:0:
256,192,30006,128,0,30178:0:0:0:0:
182,192,30178,128,0,30263:0:0:0:0:
329,192,30178,128,0,30263:0:0:0:0:
36,192,30349,1,0,0:0:0:0:
182,192,30349,1,0,0:0:0:0:
329,192,30349,1,0,0:0:0:0:
402,192,30349,1,0,0:0:0:0:
475,192,30349,1,0,0:0:0:0:
329,192,30606,1,0,0:0:0:0:
182,192,30692,1,0,0:0:0:0:
36,192,30863,1,0,0:0:0:0:
256,192,30863,1,0,0:0:0:0:
475,192,30863,1,0,0:0:0:0:
329,192,30863,1,0,0:0:0:0:
109,192,31035,1,0,0:0:0:0:
36,192,31035,128,0,31120:0:0:0:0:
182,192,31035,1,0,0:0:0:0:
475,192,31035,1,0,0:0:0:0:
329,192,31120,128,0,31378:0:0:0:0:
36,192,31206,128,0,31378:0:0:0:0:
475,192,31378,1,0,0:0:0:0:
109,192,31378,1,0,0:0:0:0:
256,192,31378,1,0,0:0:0:0:
402,192,31378,1,0,0:0:0:0:
109,192,31549,1,0,0:0:0:0:
329,192,31720,1,0,0:0:0:0:
36,192,31720,1,0,0:0:0:0:
475,192,31720,1,0,0:0:0:0:
329,192,31892,1,0,0:0:0:0:
475,192,31892,1,0,0:0:0:0:
109,192,31892,1,0,0:0:0:0:
256,192,31978,1,0,0:0:0:0:
109,192,32063,1,0,0:0:0:0:
402,192,32063,1,0,0:0:0:0:
36,192,32235,1,0,0:0:0:0:
182,192,32235,1,0,0:0:0:0:
402,192,32235,1,0,0:0:0:0:
182,192,32406,1,0,0:0:0:0:
329,192,32406,128,0,32578:0:0:0:0:
475,192,32406,128,0,32578:0:0:0:0:
36,192,32406,128,0,32578:0:0:0:0:
256,192,32578,1,0,0:0:0:0:
36,192,32749,1,0,0:0:0:0:
475,192,32749,1,0,0:0:0:0:
402,192,32749,1,0,0:0:0:0:
109,192,32749,1,0,0:0:0:0:
329,192,32835,1,0,0:0:0:0:
182,192,32835,1,0,0:0:0:0:
402,192,32920,1,0,0:0:0:0:
109,192,32920,1,0,0:0:0:0:
475,192,33092,1,0,0:0:0:0:
256,192,33092,1,0,0:0:0:0:
36,192,33092,1,0,0:0:0:0:
329,192,33092,1,0,0:0:0:0:
182,192,33092,1,0,0:0:0:0:
109,192,33349,1,0,0:0:0:0:
256,192,33435,1,0,0:0:0:0:
475,192,33606,1,0,0:0:0:0:
182,192,33606,1,0,0:0:0:0:
36,192,33606,1,0,0:0:0:0:
329,192,33606,1,0,0:0:0:0:
182,192,33778,128,0,33863:0:0:0:0:
36,192,33778,1,0,0:0:0:0:
475,192,33778,1,0,0:0:0:0:
402,192,33778,1,0,0:0:0:0:
329,192,33863,128,0,34120:0:0:0:0:
182,192,33949,128,0,34120:0:0:0:0:
402,192,34120,1,0,0:0:0:0:
36,192,34120,1,0,0:0:0:0:
475,192,34120,1,0,0:0:0:0:
109,192,34120,1,0,0:0:0:0:
256,192,34292,1,0,0:0:0:0:
475,192,34463,1,0,0:0:0:0:
36,192,34463,1,0,0:0:0:0:
329,192,34463,1,0,0:0:0:0:
475,192,34635,1,0,0:0:0:0:
182,192,34635,1,0,0:0:0:0:
36,192,34635,1,0,0:0:0:0:
256,192,34720,1,0,0:0:0:0:
329,192,34806,1,0,0:0:0:0:
182,192,34806,1,0,0:0:0:0:
475,192,34978,1,0,0:0:0:0:
256,192,34978,1,0,0:0:0:0:
36,192,34978,1,0,0:0:0:0:
475,192,35149,128,0,35320:0:0:0:0:
36,192,35149,128,0,35320:0:0:0:0:
182,192,35149,1,0,0:0:0:0:
329,192,35149,128,0,35320:0:0:0:0:
109,192,35320,128,0,35492:0:0:0:0:
256,192,35492,128,0,35663:0:0:0:0:
475,192,35492,128,0,35663:0:0:0:0:
36,192,35492,128,0,35663:0:0:0:0:
402,192,35492,1,0,0:0:0:0:
182,192,35663,128,0,35835:0:0:0:0:
36,192,35835,1,0,0:0:0:0:
109,192,35835,1,0,0:0:0:0:
256,192,35835,1,0,0:0:0:0:
402,192,35835,1,0,0:0:0:0:
475,192,35835,1,0,0:0:0:0:
109,192,36092,1,0,0:0:0:0:
329,192,36178,1,0,0:0:0:0:
36,192,36349,1,0,0:0:0:0:
256,192,36349,1,0,0:0:0:0:
475,192,36349,1,0,0:0:0:0:
182,192,36349,1,0,0:0:0:0:
402,192,36520,1,0,0:0:0:0:
475,192,36520,128,0,36606:0:0:0:0:
329,192,36520,1,0,0:0:0:0:
36,192,36520,1,0,0:0:0:0:
182,192,36606,128,0,36863:0:0:0:0:
475,192,36692,128,0,36863:0:0:0:0:
36,192,36863,1,0,0:0:0:0:
256,192,36863,1,0,0:0:0:0:
109,192,36863,1,0,0:0:0:0:
402,192,36863,1,0,0:0:0:0:
256,192,37035,1,0,0:0:0:0:
329,192,37206,1,0,0:0:0:0:
36,192,37206,1,0,0:0:0:0:
475,192,37206,1,0,0:0:0:0:
109,192,37378,1,0,0:0:0:0:
329,192,37378,1,0,0:0:0:0:
475,192,37378,1,0,0:0:0:0:
182,192,37463,1,0,0:0:0:0:
256,192,37549,1,0,0:0:0:0:
402,192,37549,1,0,0:0:0:0:
36,192,37720,1,0,0:0:0:0:
182,192,37720,1,0,0:0:0:0:
402,192,37720,1,0,0:0:0:0:
182,192,37892,1,0,0:0:0:0:
329,192,37892,128,0,38063:0:0:0:0:
475,192,37892,128,0,38063:0:0:0:0:
36,192,37892,128,0,38063:0:0:0:0:
402,192,38063,1,0,0:0:0:0:
475,192,38235,1,0,0:0:0:0:
109,192,38235,1,0,0:0:0:0:
36,192,38235,1,0,0:0:0:0:
402,192,38235,1,0,0:0:0:0:
182,192,38320,1,0,0:0:0:0:
329,192,38320,1,0,0:0:0:0:
475,192,38406,1,0,0:0:0:0:
36,192,38406,1,0,0:0:0:0:
36,192,38578,1,0,0:0:0:0:
475,192,38578,1,0,0:0:0:0:
256,192,38578,1,0,0:0:0:0:
402,192,38578,1,0,0:0:0:0:
182,192,38578,1,0,0:0:0:0:
182,192,38749,1,0,0:0:0:0:
329,192,38835,1,0,0:0:0:0:
109,192,38920,1,0,0:0:0:0:
475,192,38920,1,0,0:0:0:0:
36,192,39092,1,0,0:0:0:0:
475,192,39092,1,0,0:0:0:0:
109,192,39092,1,0,0:0:0:0:
329,192,39092,1,0,0:0:0:0:
256,192,39092,1,0,0:0:0:0:
36,192,39263,1,0,0:0:0:0:
256,192,39263,1,0,0:0:0:0:
402,192,39263,1,0,0:0:0:0:
182,192,39435,1,0,0:0:0:0:
329,192,39520,1,0,0:0:0:0:
36,192,39606,1,0,0:0:0:0:
109,192,39606,1,0,0:0:0:0:
475,192,39606,1,0,0:0:0:0:
256,192,39606,1,0,0:0:0:0:
402,192,39606,1,0,0:0:0:0:
36,192,39778,1,0,0:0:0:0:
402,192,39778,1,0,0:0:0:0:
109,192,39949,1,0,0:0:0:0:
256,192,39949,1,0,0:0:0:0:
475,192,39949,1,0,0:0:0:0:
36,192,40120,1,0,0:0:0:0:
475,192,40120,1,0,0:0:0:0:
182,192,40120,1,0,0:0:0:0:
402,192,40120,1,0,0:0:0:0:
329,192,40120,1,0,0:0:0:0:
36,192,40292,1,0,0:0:0:0:
402,192,40292,1,0,0:0:0:0:
256,192,40292,1,0,0:0:0:0:
109,192,40463,1,0,0:0:0:0:
475,192,40463,1,0,0:0:0:0:
402,192,40635,1,0,0:0:0:0:
182,192,40635,1,0,0:0:0:0:
36,192,40635,128,0,40806:0:0:0:0:
256,192,40635,128,0,40806:0:0:0:0:
475,192,40635,128,0,40806:0:0:0:0:
329,192,40806,128,0,40978:0:0:0:0:
182,192,40806,128,0,40978:0:0:0:0:
109,192,40978,1,0,0:0:0:0:
402,192,40978,1,0,0:0:0:0:
475,192,40978,128,0,41149:0:0:0:0:
36,192,40978,128,0,41149:0:0:0:0:
329,192,41149,1,0,0:0:0:0:
182,192,41149,1,0,0:0:0:0:
36,192,41320,1,0,0:0:0:0:
256,192,41320,1,0,0:0:0:0:
182,192,41320,1,0,0:0:0:0:
475,192,41320,1,0,0:0:0:0:
402,192,41320,1,0,0:0:0:0:
36,192,41492,1,0,0:0:0:0:
475,192,41492,1,0,0:0:0:0:
256,192,41492,1,0,0:0:0:0:
109,192,41663,1,0,0:0:0:0:
329,192,41663,1,0,0:0:0:0:
475,192,41663,1,0,0:0:0:0:
475,192,41835,1,0,0:0:0:0:
36,192,41835,1,0,0:0:0:0:
256,192,41835,1,0,0:0:0:0:
329,192,41835,1,0,0:0:0:0:
109,192,41835,1,0,0:0:0:0:
36,192,42006,1,0,0:0:0:0:
256,192,42006,1,0,0:0:0:0:
475,192,42006,1,0,0:0:0:0:
402,192,42178,1,0,0:0:0:0:
36,192,42178,1,0,0:0:0:0:
182,192,42178,1,0,0:0:0:0:
182,192,42349,1,0,0:0:0:0:
256,192,42349,1,0,0:0:0:0:
36,192,42349,1,0,0:0:0:0:
475,192,42349,1,0,0:0:0:0:
402,192,42349,1,0,0:0:0:0:
109,192,42520,1,0,0:0:0:0:
475,192,42520,1,0,0:0:0:0:
256,192,42520,1,0,0:0:0:0:
36,192,42692,1,0,0:0:0:0:
182,192,42692,1,0,0:0:0:0:
402,192,42692,1,0,0:0:0:0:
109,192,42778,1,0,0:0:0:0:
329,192,42778,1,0,0:0:0:0:
256,192,42863,1,0,0:0:0:0:
475,192,42863,1,0,0:0:0:0:
402,192,42949,1,0,0:0:0:0:
182,192,42949,1,0,0:0:0:0:
36,192,43035,1,0,0:0:0:0:
109,192,43035,1,0,0:0:0:0:
329,192,43035,1,0,0:0:0:0:
182,192,43120,1,0,0:0:0:0:
402,192,43120,1,0,0:0:0:0:
36,192,43206,1,0,0:0:0:0:
256,192,43206,1,0,0:0:0:0:
109,192,43292,1,0,0:0:0:0:
329,192,43292,1,0,0:0:0:0:
475,192,43378,1,0,0:0:0:0:
402,192,43378,1,0,0:0:0:0:
182,192,43378,1,0,0:0:0:0:
36,192,43435,1,0,0:0:0:0:
256,192,43435,1,0,0:0:0:0:
109,192,43492,1,0,0:0:0:0:
329,192,43492,1,0,0:0:0:0:
402,192,43549,1,0,0:0:0:0:
182,192,43549,1,0,0:0:0:0:
475,192,43606,1,0,0:0:0:0:
256,192,43606,1,0,0:0:0:0:
329,192,43663,1,0,0:0:0:0:
36,192,43663,1,0,0:0:0:0:
475,192,43720,1,0,0:0:0:0:
182,192,43720,1,0,0:0:0:0:
402,192,43778,1,0,0:0:0:0:
109,192,43778,1,0,0:0:0:0:
329,192,43835,1,0,0:0:0:0:
36,192,43835,1,0,0:0:0:0:
182,192,43892,1,0,0:0:0:0:
256,192,43935,1,0,0:0:0:0:
402,192,43978,1,0,0:0:0:0:
475,192,44020,1,0,0:0:0:0:
36,192,44063,128,0,46463:0:0:0:0:
256,192,44063,128,0,46120:0:0:0:0:
402,192,45435,128,0,46120:0:0:0:0:
329,192,46120,128,0,46463:0:0:0:0:
256,192,46292,128,0,46463:0:0:0:0:
182,192,46463,1,0,0:0:0:0:
475,192,46463,1,0,0:0:0:0:
36,192,46806,1,0,0:0:0:0:
475,192,46806,1,0,0:0:0:0:
109,192,46806,1,0,0:0:0:0:
402,192,46806,1,0,0:0:0:0:
256,192,46806,1,0,0:0:0:0:
329,192,46892,1,0,0:0:0:0:
109,192,46978,1,0,0:0:0:0:
329,192,47063,1,0,0:0:0:0:
109,192,47149,1,0,0:0:0:0:
329,192,47235,1,0,0:0:0:0:
109,192,47320,1,0,0:0:0:0:
329,192,47406,1,0,0:0:0:0:
109,192,47492,1,0,0:0:0:0:
329,192,47578,1,0,0:0:0:0:
109,192,47663,1,0,0:0:0:0:
329,192,47749,1,0,0:0:0:0:
109,192,47835,1,0,0:0:0:0:
329,192,47920,1,0,0:0:0:0:
109,192,48006,1,0,0:0:0:0:
329,192,48092,1,0,0:0:0:0:
182,192,48178,1,0,0:0:0:0:
402,192,48263,1,0,0:0:0:0:
182,192,48349,1,0,0:0:0:0:
402,192,48435,1,0,0:0:0:0:
182,192,48520,1,0,0:0:0:0:
402,192,48606,1,0,0:0:0:0:
182,192,48692,1,0,0:0:0:0:
402,192,48778,1,0,0:0:0:0:
182,192,48863,1,0,0:0:0:0:
402,192,48949,1,0,0:0:0:0:
182,192,49035,1,0,0:0:0:0:
402,192,49120,1,0,0:0:0:0:
182,192,49206,1,0,0:0:0:0:
402,192,49292,1,0,0:0:0:0:
182,192,49378,1,0,0:0:0:0:
402,192,49463,1,0,0:0:0:0:
109,192,49549,1,0,0:0:0:0:
329,192,49635,1,0,0:0:0:0:
109,192,49720,1,0,0:0:0:0:
329,192,49806,1,0,0:0:0:0:
109,192,49892,1,0,0:0:0:0:
329,192,49978,1,0,0:0:0:0:
109,192,50063,1,0,0:0:0:0:
329,192,50149,1,0,0:0:0:0:
109,192,50235,1,0,0:0:0:0:
329,192,50320,1,0,0:0:0:0:
109,192,50406,1,0,0:0:0:0:
329,192,50492,1,0,0:0:0:0:
109,192,50578,1,0,0:0:0:0:
329,192,50663,1,0,0:0:0:0:
109,192,50749,1,0,0:0:0:0:
329,192,50835,1,0,0:0:0:0:
36,192,50920,1,0,0:0:0:0:
475,192,51006,1,0,0:0:0:0:
36,192,51092,1,0,0:0:0:0:
475,192,51178,1,0,0:0:0:0:
36,192,51263,1,0,0:0:0:0:
475,192,51349,1,0,0:0:0:0:
36,192,51435,1,0,0:0:0:0:
475,192,51520,1,0,0:0:0:0:
36,192,51606,1,0,0:0:0:0:
475,192,51692,1,0,0:0:0:0:
36,192,51778,1,0,0:0:0:0:
475,192,51863,1,0,0:0:0:0:
36,192,51949,1,0,0:0:0:0:
475,192,52035,1,0,0:0:0:0:
36,192,52120,1,0,0:0:0:0:
475,192,52206,1,0,0:0:0:0:
109,192,52292,1,0,0:0:0:0:
402,192,52378,1,0,0:0:0:0:
109,192,52463,1,0,0:0:0:0:
402,192,52549,1,0,0:0:0:0:
109,192,52635,1,0,0:0:0:0:
402,192,52720,1,0,0:0:0:0:
109,192,52806,1,0,0:0:0:0:
402,192,52892,1,0,0:0:0:0:
109,192,52978,1,0,0:0:0:0:
402,192,53063,1,0,0:0:0:0:
109,192,53149,1,0,0:0:0:0:
402,192,53235,1,0,0:0:0:0:
109,192,53320,1,0,0:0:0:0:
402,192,53406,1,0,0:0:0:0:
109,192,53492,1,0,0:0:0:0:
402,192,53578,1,0,0:0:0:0:
182,192,53663,1,0,0:0:0:0:
475,192,53749,1,0,0:0:0:0:
182,192,53835,1,0,0:0:0:0:
475,192,53920,1,0,0:0:0:0:
182,192,54006,1,0,0:0:0:0:
475,192,54092,1,0,0:0:0:0:
182,192,54178,1,0,0:0:0:0:
475,192,54263,1,0,0:0:0:0:
182,192,54349,1,0,0:0:0:0:
475,192,54435,1,0,0:0:0:0:
182,192,54520,1,0,0:0:0:0:
475,192,54606,1,0,0:0:0:0:
182,192,54692,1,0,0:0:0:0:
475,192,54778,1,0,0:0:0:0:
182,192,54863,1,0,0:0:0:0:
475,192,54949,1,0,0:0:0:0:
36,192,55035,1,0,0:0:0:0:
402,192,55120,1,0,0:0:0:0:
36,192,55206,1,0,0:0:0:0:
402,192,55292,1,0,0:0:0:0:
36,192,55378,1,0,0:0:0:0:
402,192,55463,1,0,0:0:0:0:
36,192,55549,1,0,0:0:0:0:
402,192,55635,1,0,0:0:0:0:
36,192,55720,1,0,0:0:0:0:
402,192,55806,1,0,0:0:0:0:
36,192,55892,1,0,0:0:0:0:
402,192,55978,1,0,0:0:0:0:
36,192,56063,1,0,0:0:0:0:
402,192,56149,1,0,0:0:0:0:
36,192,56235,1,0,0:0:0:0:
402,192,56320,1,0,0:0:0:0:
109,192,56406,1,0,0:0:0:0:
329,192,56492,1,0,0:0:0:0:
109,192,56578,1,0,0:0:0:0:
329,192,56663,1,0,0:0:0:0:
109,192,56749,1,0,0:0:0:0:
329,192,56835,1,0,0:0:0:0:
109,192,56920,1,0,0:0:0:0:
329,192,57006,1,0,0:0:0:0:
36,192,57092,1,0,0:0:0:0:
182,192,57092,1,0,0:0:0:0:
402,192,57178,1,0,0:0:0:0:
256,192,57263,1,0,0:0:0:0:
475,192,57263,1,0,0:0:0:0:
182,192,57349,1,0,0:0:0:0:
36,192,57435,1,0,0:0:0:0:
109,192,57435,1,0,0:0:0:0:
329,192,57435,1,0,0:0:0:0:
475,192,57520,1,0,0:0:0:0:
182,192,57520,1,0,0:0:0:0:
36,192,57606,1,0,0:0:0:0:
109,192,57606,1,0,0:0:0:0:
329,192,57606,1,0,0:0:0:0:
475,192,57692,1,0,0:0:0:0:
182,192,57692,1,0,0:0:0:0:
36,192,57778,1,0,0:0:0:0:
109,192,57778,1,0,0:0:0:0:
256,192,57778,1,0,0:0:0:0:
402,192,57778,1,0,0:0:0:0:
109,192,57949,1,0,0:0:0:0:
475,192,57949,1,0,0:0:0:0:
256,192,57949,1,0,0:0:0:0:
36,192,58120,1,0,0:0:0:0:
329,192,58120,1,0,0:0:0:0:
182,192,58120,1,0,0:0:0:0:
475,192,58120,1,0,0:0:0:0:
109,192,58292,1,0,0:0:0:0:
402,192,58292,1,0,0:0:0:0:
182,192,58292,1,0,0:0:0:0:
329,192,58463,1,0,0:0:0:0:
475,192,58463,1,0,0:0:0:0:
36,192,58463,1,0,0:0:0:0:
109,192,58463,1,0,0:0:0:0:
109,192,58635,1,0,0:0:0:0:
256,192,58635,1,0,0:0:0:0:
475,192,58635,1,0,0:0:0:0:
36,192,58806,1,0,0:0:0:0:
256,192,58806,1,0,0:0:0:0:
182,192,58806,1,0,0:0:0:0:
402,192,58806,1,0,0:0:0:0:
36,192,58978,1,0,0:0:0:0:
475,192,58978,1,0,0:0:0:0:
182,192,58978,1,0,0:0:0:0:
329,192,59149,1,0,0:0:0:0:
475,192,59149,1,0,0:0:0:0:
256,192,59149,1,0,0:0:0:0:
109,192,59149,1,0,0:0:0:0:
256,192,59320,1,0,0:0:0:0:
109,192,59320,1,0,0:0:0:0:
402,192,59320,1,0,0:0:0:0:
329,192,59492,1,0,0:0:0:0:
182,192,59492,1,0,0:0:0:0:
475,192,59492,1,0,0:0:0:0:
36,192,59492,1,0,0:0:0:0:
402,192,59663,1,0,0:0:0:0:
182,192,59663,1,0,0:0:0:0:
36,192,59663,1,0,0:0:0:0:
475,192,59835,1,0,0:0:0:0:
402,192,59835,1,0,0:0:0:0:
109,192,59835,1,0,0:0:0:0:
256,192,59835,1,0,0:0:0:0:
475,192,60006,1,0,0:0:0:0:
36,192,60006,1,0,0:0:0:0:
256,192,60006,1,0,0:0:0:0:
182,192,60178,1,0,0:0:0:0:
36,192,60178,1,0,0:0:0:0:
329,192,60178,1,0,0:0:0:0:
402,192,60178,1,0,0:0:0:0:
329,192,60349,1,0,0:0:0:0:
475,192,60349,1,0,0:0:0:0:
182,192,60349,1,0,0:0:0:0:
36,192,60520,1,0,0:0:0:0:
256,192,60520,1,0,0:0:0:0:
475,192,60520,1,0,0:0:0:0:
109,192,60520,1,0,0:0:0:0:
109,192,60692,1,0,0:0:0:0:
256,192,60692,1,0,0:0:0:0:
402,192,60692,1,0,0:0:0:0:
36,192,60863,1,0,0:0:0:0:
402,192,60863,1,0,0:0:0:0:
182,192,60863,1,0,0:0:0:0:
475,192,60863,1,0,0:0:0:0:
475,192,61035,1,0,0:0:0:0:
182,192,61035,1,0,0:0:0:0:
256,192,61035,1,0,0:0:0:0:
402,192,61206,1,0,0:0:0:0:
256,192,61206,1,0,0:0:0:0:
36,192,61206,1,0,0:0:0:0:
109,192,61206,1,0,0:0:0:0:
109,192,61378,1,0,0:0:0:0:
402,192,61378,1,0,0:0:0:0:
475,192,61378,1,0,0:0:0:0:
256,192,61549,1,0,0:0:0:0:
475,192,61549,1,0,0:0:0:0:
329,192,61549,1,0,0:0:0:0:
36,192,61549,1,0,0:0:0:0:
182,192,61720,1,0,0:0:0:0:
36,192,61720,1,0,0:0:0:0:
329,192,61720,1,0,0:0:0:0:
475,192,61892,1,0,0:0:0:0:
109,192,61892,1,0,0:0:0:0:
256,192,61892,1,0,0:0:0:0:
402,192,61892,1,0,0:0:0:0:
36,192,62063,1,0,0:0:0:0:
256,192,62063,1,0,0:0:0:0:
402,192,62063,1,0,0:0:0:0:
329,192,62235,1,0,0:0:0:0:
475,192,62235,1,0,0:0:0:0:
182,192,62235,1,0,0:0:0:0:
36,192,62235,1,0,0:0:0:0:
182,192,62406,1,0,0:0:0:0:
329,192,62406,1,0,0:0:0:0:
109,192,62406,1,0,0:0:0:0:
256,192,62578,1,0,0:0:0:0:
475,192,62578,1,0,0:0:0:0:
109,192,62578,1,0,0:0:0:0:
402,192,62578,1,0,0:0:0:0:
36,192,62749,1,0,0:0:0:0:
475,192,62749,1,0,0:0:0:0:
256,192,62749,1,0,0:0:0:0:
329,192,62920,1,0,0:0:0:0:
402,192,62920,1,0,0:0:0:0:
36,192,62920,1,0,0:0:0:0:
182,192,62920,1,0,0:0:0:0:
475,192,63092,1,0,0:0:0:0:
182,192,63092,1,0,0:0:0:0:
402,192,63092,1,0,0:0:0:0:
256,192,63263,1,0,0:0:0:0:
475,192,63263,1,0,0:0:0:0:
36,192,63263,1,0,0:0:0:0:
109,192,63263,1,0,0:0:0:0:
36,192,63435,1,0,0:0:0:0:
256,192,63435,1,0,0:0:0:0:
402,192,63435,1,0,0:0:0:0:
475,192,63606,1,0,0:0:0:0:
402,192,63606,1,0,0:0:0:0:
109,192,63606,1,0,0:0:0:0:
182,192,63606,1,0,0:0:0:0:
256,192,63778,1,0,0:0:0:0:
182,192,63778,1,0,0:0:0:0:
475,192,63778,1,0,0:0:0:0:
109,192,63949,1,0,0:0:0:0:
402,192,63949,1,0,0:0:0:0:
36,192,63949,1,0,0:0:0:0:
256,192,63949,1,0,0:0:0:0:
182,192,64120,1,0,0:0:0:0:
36,192,64120,1,0,0:0:0:0:
402,192,64120,1,0,0:0:0:0:
109,192,64292,1,0,0:0:0:0:
475,192,64292,1,0,0:0:0:0:
329,192,64292,1,0,0:0:0:0:
182,192,64292,1,0,0:0:0:0:
475,192,64463,1,0,0:0:0:0:
109,192,64463,1,0,0:0:0:0:
256,192,64463,1,0,0:0:0:0:
182,192,64635,1,0,0:0:0:0:
402,192,64635,1,0,0:0:0:0:
36,192,64635,1,0,0:0:0:0:
256,192,64635,1,0,0:0:0:0:
182,192,64806,1,0,0:0:0:0:
36,192,64806,1,0,0:0:0:0:
329,192,64806,1,0,0:0:0:0:
109,192,64978,1,0,0:0:0:0:
256,192,64978,1,0,0:0:0:0:
475,192,64978,1,0,0:0:0:0:
329,192,64978,1,0,0:0:0:0:
256,192,65149,1,0,0:0:0:0:
109,192,65149,1,0,0:0:0:0:
402,192,65149,1,0,0:0:0:0:
402,192,65320,1,0,0:0:0:0:
329,192,65320,1,0,0:0:0:0:
36,192,65320,1,0,0:0:0:0:
182,192,65320,1,0,0:0:0:0:
182,192,65492,1,0,0:0:0:0:
475,192,65492,1,0,0:0:0:0:
36,192,65492,1,0,0:0:0:0:
475,192,65663,1,0,0:0:0:0:
329,192,65663,1,0,0:0:0:0:
109,192,65663,1,0,0:0:0:0:
256,192,65663,1,0,0:0:0:0:
329,192,65835,1,0,0:0:0:0:
109,192,65835,1,0,0:0:0:0:
36,192,65835,1,0,0:0:0:0:
36,192,66006,1,0,0:0:0:0:
182,192,66006,1,0,0:0:0:0:
475,192,66006,1,0,0:0:0:0:
402,192,66006,1,0,0:0:0:0:
402,192,66178,1,0,0:0:0:0:
182,192,66178,1,0,0:0:0:0:
256,192,66178,1,0,0:0:0:0:
109,192,66349,1,0,0:0:0:0:
256,192,66349,1,0,0:0:0:0:
475,192,66349,1,0,0:0:0:0:
36,192,66349,1,0,0:0:0:0:
109,192,66520,1,0,0:0:0:0:
475,192,66520,1,0,0:0:0:0:
329,192,66520,1,0,0:0:0:0:
329,192,66692,1,0,0:0:0:0:
36,192,66692,1,0,0:0:0:0:
182,192,66692,1,0,0:0:0:0:
402,192,66692,1,0,0:0:0:0:
182,192,66863,1,0,0:0:0:0:
402,192,66863,1,0,0:0:0:0:
475,192,66863,1,0,0:0:0:0:
109,192,67035,1,0,0:0:0:0:
256,192,67035,1,0,0:0:0:0:
475,192,67035,1,0,0:0:0:0:
36,192,67035,1,0,0:0:0:0:
256,192,67206,1,0,0:0:0:0:
402,192,67206,1,0,0:0:0:0:
109,192,67206,1,0,0:0:0:0:
36,192,67378,1,0,0:0:0:0:
475,192,67378,1,0,0:0:0:0:
182,192,67378,1,0,0:0:0:0:
402,192,67378,1,0,0:0:0:0:
329,192,67549,1,0,0:0:0:0:
475,192,67549,1,0,0:0:0:0:
182,192,67549,1,0,0:0:0:0:
36,192,67720,1,0,0:0:0:0:
402,192,67720,1,0,0:0:0:0:
329,192,67720,1,0,0:0:0:0:
109,192,67720,1,0,0:0:0:0:
402,192,67892,1,0,0:0:0:0:
109,192,67892,1,0,0:0:0:0:
256,192,67892,1,0,0:0:0:0:
329,192,68063,1,0,0:0:0:0:
36,192,68063,1,0,0:0:0:0:
475,192,68063,1,0,0:0:0:0:
256,192,68063,1,0,0:0:0:0:
36,192,68235,1,0,0:0:0:0:
109,192,68235,1,0,0:0:0:0:
475,192,68235,1,0,0:0:0:0:
402,192,68235,1,0,0:0:0:0:
329,192,68320,1,0,0:0:0:0:
182,192,68320,1,0,0:0:0:0:
256,192,68406,1,0,0:0:0:0:
36,192,68406,1,0,0:0:0:0:
402,192,68406,1,0,0:0:0:0:
475,192,68406,1,0,0:0:0:0:
109,192,68492,1,0,0:0:0:0:
329,192,68578,1,0,0:0:0:0:
109,192,68663,1,0,0:0:0:0:
36,192,68749,1,0,0:0:0:0:
475,192,68749,1,0,0:0:0:0:
256,192,68749,1,0,0:0:0:0:
402,192,68749,1,0,0:0:0:0:
182,192,68835,1,0,0:0:0:0:
329,192,68835,1,0,0:0:0:0:
109,192,68920,1,0,0:0:0:0:
475,192,68920,1,0,0:0:0:0:
256,192,69006,1,0,0:0:0:0:
36,192,69006,1,0,0:0:0:0:
182,192,69092,1,0,0:0:0:0:
402,192,69092,1,0,0:0:0:0:
36,192,69178,1,0,0:0:0:0:
329,192,69178,1,0,0:0:0:0:
109,192,69263,1,0,0:0:0:0:
256,192,69263,1,0,0:0:0:0:
182,192,69349,1,0,0:0:0:0:
402,192,69349,1,0,0:0:0:0:
475,192,69435,1,0,0:0:0:0:
36,192,69435,1,0,0:0:0:0:
402,192,69520,1,0,0:0:0:0:
182,192,69520,1,0,0:0:0:0:
329,192,69606,1,0,0:0:0:0:
109,192,69606,1,0,0:0:0:0:
256,192,69692,1,0,0:0:0:0:
475,192,69692,1,0,0:0:0:0:
36,192,69778,1,0,0:0:0:0:
402,192,69778,1,0,0:0:0:0:
329,192,69863,1,0,0:0:0:0:
109,192,69863,1,0,0:0:0:0:
475,192,69949,1,0,0:0:0:0:
256,192,69949,1,0,0:0:0:0:
402,192,70035,1,0,0:0:0:0:
182,192,70035,1,0,0:0:0:0:
36,192,70120,1,0,0:0:0:0:
329,192,70120,1,0,0:0:0:0:
475,192,70120,1,0,0:0:0:0:
256,192,70120,1,0,0:0:0:0:
109,192,70206,1,0,0:0:0:0:
182,192,70206,1,0,0:0:0:0:
402,192,70292,1,0,0:0:0:0:
329,192,70292,1,0,0:0:0:0:
475,192,70378,1,0,0:0:0:0:
182,192,70378,1,0,0:0:0:0:
36,192,70463,1,0,0:0:0:0:
329,192,70463,1,0,0:0:0:0:
402,192,70549,1,0,0:0:0:0:
256,192,70549,1,0,0:0:0:0:
475,192,70635,1,0,0:0:0:0:
36,192,70635,1,0,0:0:0:0:
182,192,70720,1,0,0:0:0:0:
329,192,70720,1,0,0:0:0:0:
36,192,70806,1,0,0:0:0:0:
402,192,70806,1,0,0:0:0:0:
182,192,70892,1,0,0:0:0:0:
475,192,70892,1,0,0:0:0:0:
109,192,70978,1,0,0:0:0:0:
329,192,70978,1,0,0:0:0:0:
36,192,71063,1,0,0:0:0:0:
475,192,71063,1,0,0:0:0:0:
109,192,71149,1,0,0:0:0:0:
256,192,71149,1,0,0:0:0:0:
402,192,71235,1,0,0:0:0:0:
182,192,71235,1,0,0:0:0:0:
475,192,71320,1,0,0:0:0:0:
36,192,71320,1,0,0:0:0:0:
182,192,71406,1,0,0:0:0:0:
329,192,71406,1,0,0:0:0:0:
256,192,71492,1,0,0:0:0:0:
475,192,71492,1,0,0:0:0:0:
109,192,71492,1,0,0:0:0:0:
36,192,71492,1,0,0:0:0:0:
402,192,71578,1,0,0:0:0:0:
329,192,71578,1,0,0:0:0:0:
182,192,71663,1,0,0:0:0:0:
109,192,71663,1,0,0:0:0:0:
402,192,71749,1,0,0:0:0:0:
256,192,71749,1,0,0:0:0:0:
475,192,71835,1,0,0:0:0:0:
36,192,71835,1,0,0:0:0:0:
329,192,71920,1,0,0:0:0:0:
109,192,71920,1,0,0:0:0:0:
182,192,72006,1,0,0:0:0:0:
475,192,72006,1,0,0:0:0:0:
36,192,72092,1,0,0:0:0:0:
402,192,72092,1,0,0:0:0:0:
109,192,72178,1,0,0:0:0:0:
329,192,72178,1,0,0:0:0:0:
256,192,72263,1,0,0:0:0:0:
475,192,72263,1,0,0:0:0:0:
402,192,72349,1,0,0:0:0:0:
182,192,72349,1,0,0:0:0:0:
36,192,72435,1,0,0:0:0:0:
329,192,72435,1,0,0:0:0:0:
109,192,72520,1,0,0:0:0:0:
475,192,72520,1,0,0:0:0:0:
182,192,72606,1,0,0:0:0:0:
402,192,72606,1,0,0:0:0:0:
256,192,72692,1,0,0:0:0:0:
36,192,72692,1,0,0:0:0:0:
109,192,72778,1,0,0:0:0:0:
329,192,72778,1,0,0:0:0:0:
36,192,72863,1,0,0:0:0:0:
402,192,72863,1,0,0:0:0:0:
256,192,72863,1,0,0:0:0:0:
475,192,72863,1,0,0:0:0:0:
109,192,72949,1,0,0:0:0:0:
182,192,72949,1,0,0:0:0:0:
402,192,73035,1,0,0:0:0:0:
329,192,73035,1,0,0:0:0:0:
109,192,73120,1,0,0:0:0:0:
256,192,73120,1,0,0:0:0:0:
36,192,73206,1,0,0:0:0:0:
475,192,73206,1,0,0:0:0:0:
402,192,73292,1,0,0:0:0:0:
182,192,73292,1,0,0:0:0:0:
329,192,73378,1,0,0:0:0:0:
109,192,73378,1,0,0:0:0:0:
36,192,73463,1,0,0:0:0:0:
256,192,73463,1,0,0:0:0:0:
475,192,73549,1,0,0:0:0:0:
109,192,73549,1,0,0:0:0:0:
402,192,73635,1,0,0:0:0:0:
182,192,73635,1,0,0:0:0:0:
36,192,73720,1,0,0:0:0:0:
329,192,73720,1,0,0:0:0:0:
182,192,73806,1,0,0:0:0:0:
475,192,73806,1,0,0:0:0:0:
36,192,73892,1,0,0:0:0:0:
256,192,73892,1,0,0:0:0:0:
109,192,73978,1,0,0:0:0:0:
329,192,73978,1,0,0:0:0:0:
182,192,74063,1,0,0:0:0:0:
402,192,74063,1,0,0:0:0:0:
256,192,74149,1,0,0:0:0:0:
475,192,74149,1,0,0:0:0:0:
36,192,74235,1,0,0:0:0:0:
329,192,74235,1,0,0:0:0:0:
109,192,74235,1,0,0:0:0:0:
402,192,74292,1,0,0:0:0:0:
256,192,74292,1,0,0:0:0:0:
182,192,74349,1,0,0:0:0:0:
475,192,74349,1,0,0:0:0:0:
109,192,74406,1,0,0:0:0:0:
329,192,74406,1,0,0:0:0:0:
402,192,74463,1,0,0:0:0:0:
36,192,74463,1,0,0:0:0:0:
475,192,74520,1,0,0:0:0:0:
182,192,74520,1,0,0:0:0:0:
36,192,74578,1,0,0:0:0:0:
329,192,74578,1,0,0:0:0:0:
109,192,74635,1,0,0:0:0:0:
402,192,74635,1,0,0:0:0:0:
182,192,74692,1,0,0:0:0:0:
475,192,74692,1,0,0:0:0:0:
256,192,74749,1,0,0:0:0:0:
36,192,74749,1,0,0:0:0:0:
109,192,74806,1,0,0:0:0:0:
475,192,74806,1,0,0:0:0:0:
402,192,74863,1,0,0:0:0:0:
182,192,74863,1,0,0:0:0:0:
329,192,74920,1,0,0:0:0:0:
36,192,74920,1,0,0:0:0:0:
256,192,74978,1,0,0:0:0:0:
475,192,74978,1,0,0:0:0:0:
182,192,75035,1,0,0:0:0:0:
402,192,75035,1,0,0:0:0:0:
109,192,75092,1,0,0:0:0:0:
329,192,75092,1,0,0:0:0:0:
36,192,75149,1,0,0:0:0:0:
256,192,75149,1,0,0:0:0:0:
182,192,75206,1,0,0:0:0:0:
475,192,75206,1,0,0:0:0:0:
36,192,75263,1,0,0:0:0:0:
329,192,75263,1,0,0:0:0:0:
109,192,75320,1,0,0:0:0:0:
402,192,75320,1,0,0:0:0:0:
182,192,75378,1,0,0:0:0:0:
475,192,75378,1,0,0:0:0:0:
256,192,75435,1,0,0:0:0:0:
36,192,75435,1,0,0:0:0:0:
329,192,75492,1,0,0:0:0:0:
109,192,75492,1,0,0:0:0:0:
182,192,75549,1,0,0:0:0:0:
402,192,75549,1,0,0:0:0:0:
256,192,75606,1,0,0:0:0:0:
475,192,75606,1,0,0:0:0:0:
36,192,75663,1,0,0:0:0:0:
329,192,75663,1,0,0:0:0:0:
182,192,75720,1,0,0:0:0:0:
475,192,75720,1,0,0:0:0:0:
256,192,75778,1,0,0:0:0:0:
109,192,75778,1,0,0:0:0:0:
36,192,75835,1,0,0:0:0:0:
329,192,75835,1,0,0:0:0:0:
402,192,75892,1,0,0:0:0:0:
182,192,75892,1,0,0:0:0:0:
256,192,75949,1,0,0:0:0:0:
475,192,75949,1,0,0:0:0:0:
36,192,76006,1,0,0:0:0:0:
329,192,76006,1,0,0:0:0:0:
402,192,76063,1,0,0:0:0:0:
109,192,76063,1,0,0:0:0:0:
182,192,76120,1,0,0:0:0:0:
475,192,76120,1,0,0:0:0:0:
329,192,76178,1,0,0:0:0:0:
36,192,76178,1,0,0:0:0:0:
402,192,76235,1,0,0:0:0:0:
256,192,76235,1,0,0:0:0:0:
475,192,76292,1,0,0:0:0:0:
182,192,76292,1,0,0:0:0:0:
109,192,76349,1,0,0:0:0:0:
329,192,76349,1,0,0:0:0:0:
36,192,76406,1,0,0:0:0:0:
402,192,76406,1,0,0:0:0:0:
475,192,76463,1,0,0:0:0:0:
182,192,76463,1,0,0:0:0:0:
256,192,76520,1,0,0:0:0:0:
36,192,76578,1,0,0:0:0:0:
329,192,76578,1,0,0:0:0:0:
109,192,76635,1,0,0:0:0:0:
402,192,76635,1,0,0:0:0:0:
182,192,76692,1,0,0:0:0:0:
475,192,76692,1,0,0:0:0:0:
256,192,76749,1,0,0:0:0:0:
36,192,76749,1,0,0:0:0:0:
329,192,76806,1,0,0:0:0:0:
109,192,76806,1,0,0:0:0:0:
402,192,76863,1,0,0:0:0:0:
182,192,76863,1,0,0:0:0:0:
475,192,76920,1,0,0:0:0:0:
256,192,76920,1,0,0:0:0:0:
329,192,76978,1,0,0:0:0:0:
36,192,76978,1,0,0:0:0:0:
109,192,77035,1,0,0:0:0:0:
402,192,77035,1,0,0:0:0:0:
182,192,77092,1,0,0:0:0:0:
475,192,77092,1,0,0:0:0:0:
256,192,77149,1,0,0:0:0:0:
36,192,77149,1,0,0:0:0:0:
329,192,77206,1,0,0:0:0:0:
109,192,77206,1,0,0:0:0:0:
402,192,77263,1,0,0:0:0:0:
182,192,77263,1,0,0:0:0:0:
475,192,77320,1,0,0:0:0:0:
256,192,77320,1,0,0:0:0:0:
329,192,77378,1,0,0:0:0:0:
36,192,77378,1,0,0:0:0:0:
402,192,77435,1,0,0:0:0:0:
109,192,77435,1,0,0:0:0:0:
475,192,77492,1,0,0:0:0:0:
182,192,77492,1,0,0:0:0:0:
256,192,77549,1,0,0:0:0:0:
36,192,77549,1,0,0:0:0:0:
329,192,77606,1,0,0:0:0:0:
109,192,77606,1,0,0:0:0:0:
402,192,77663,1,0,0:0:0:0:
182,192,77663,1,0,0:0:0:0:
475,192,77720,1,0,0:0:0:0:
256,192,77720,1,0,0:0:0:0:
329,192,77778,1,0,0:0:0:0:
36,192,77778,1,0,0:0:0:0:
402,192,77835,1,0,0:0:0:0:
182,192,77835,1,0,0:0:0:0:
475,192,77892,1,0,0:0:0:0:
109,192,77892,1,0,0:0:0:0:
36,192,77949,1,0,0:0:0:0:
256,192,77949,1,0,0:0:0:0:
329,192,78006,1,0,0:0:0:0:
182,192,78006,1,0,0:0:0:0:
475,192,78006,1,0,0:0:0:0:
36,192,78092,1,0,0:0:0:0:
109,192,78092,1,0,0:0:0:0:
475,192,78178,1,0,0:0:0:0:
256,192,78178,1,0,0:0:0:0:
402,192,78178,1,0,0:0:0:0:
109,192,78263,1,0,0:0:0:0:
182,192,78263,1,0,0:0:0:0:
36,192,78349,1,0,0:0:0:0:
402,192,78349,1,0,0:0:0:0:
475,192,78349,1,0,0:0:0:0:
329,192,78349,1,0,0:0:0:0:
256,192,78520,128,0,78692:0:0:0:0:
402,192,78692,128,0,79035:0:0:0:0:
182,192,78778,128,0,79035:0:0:0:0:
36,192,78949,128,0,79206:0:0:0:0:
475,192,79035,128,0,79206:0:0:0:0:
256,192,79035,128,0,79206:0:0:0:0:
402,192,79206,128,0,79378:0:0:0:0:
109,192,79206,128,0,79378:0:0:0:0:
182,192,79378,128,0,79549:0:0:0:0:
329,192,79378,128,0,79549:0:0:0:0:
475,192,79463,1,0,0:0:0:0:
256,192,79549,1,0,0:0:0:0:
36,192,79549,1,0,0:0:0:0:
402,192,79635,1,0,0:0:0:0:
329,192,79635,1,0,0:0:0:0:
182,192,79635,1,0,0:0:0:0:
36,192,79720,1,0,0:0:0:0:
109,192,79720,1,0,0:0:0:0:
475,192,79720,1,0,0:0:0:0:
256,192,79720,1,0,0:0:0:0:
329,192,79806,1,0,0:0:0:0:
109,192,79892,1,0,0:0:0:0:
402,192,79892,1,0,0:0:0:0:
182,192,79978,1,0,0:0:0:0:
36,192,80063,1,0,0:0:0:0:
329,192,80063,1,0,0:0:0:0:
256,192,80063,1,0,0:0:0:0:
475,192,80063,1,0,0:0:0:0:
402,192,80149,1,0,0:0:0:0:
109,192,80235,1,0,0:0:0:0:
182,192,80235,1,0,0:0:0:0:
329,192,80320,1,0,0:0:0:0:
402,192,80320,1,0,0:0:0:0:
36,192,80406,1,0,0:0:0:0:
475,192,80406,1,0,0:0:0:0:
256,192,80406,1,0,0:0:0:0:
109,192,80492,1,0,0:0:0:0:
329,192,80578,1,0,0:0:0:0:
182,192,80578,1,0,0:0:0:0:
402,192,80663,1,0,0:0:0:0:
36,192,80749,1,0,0:0:0:0:
475,192,80749,1,0,0:0:0:0:
182,192,80749,1,0,0:0:0:0:
256,192,80749,1,0,0:0:0:0:
109,192,80835,1,0,0:0:0:0:
402,192,80920,1,0,0:0:0:0:
329,192,80920,1,0,0:0:0:0:
109,192,81006,1,0,0:0:0:0:
182,192,81006,1,0,0:0:0:0:
36,192,81092,1,0,0:0:0:0:
475,192,81092,1,0,0:0:0:0:
256,192,81092,1,0,0:0:0:0:
402,192,81178,1,0,0:0:0:0:
182,192,81263,1,0,0:0:0:0:
329,192,81263,1,0,0:0:0:0:
109,192,81349,1,0,0:0:0:0:
36,192,81435,1,0,0:0:0:0:
475,192,81435,1,0,0:0:0:0:
182,192,81435,1,0,0:0:0:0:
402,192,81435,1,0,0:0:0:0:
256,192,81520,1,0,0:0:0:0:
329,192,81606,1,0,0:0:0:0:
402,192,81606,1,0,0:0:0:0:
109,192,81692,1,0,0:0:0:0:
182,192,81692,1,0,0:0:0:0:
36,192,81778,1,0,0:0:0:0:
329,192,81778,1,0,0:0:0:0:
475,192,81778,1,0,0:0:0:0:
256,192,81863,1,0,0:0:0:0:
109,192,81949,1,0,0:0:0:0:
402,192,81949,1,0,0:0:0:0:
256,192,82035,1,0,0:0:0:0:
36,192,82120,1,0,0:0:0:0:
109,192,82120,1,0,0:0:0:0:
329,192,82120,1,0,0:0:0:0:
475,192,82120,1,0,0:0:0:0:
182,192,82206,1,0,0:0:0:0:
402,192,82292,1,0,0:0:0:0:
256,192,82292,1,0,0:0:0:0:
182,192,82378,1,0,0:0:0:0:
109,192,82463,1,0,0:0:0:0:
475,192,82463,1,0,0:0:0:0:
402,192,82463,1,0,0:0:0:0:
329,192,82549,1,0,0:0:0:0:
182,192,82635,1,0,0:0:0:0:
36,192,82635,1,0,0:0:0:0:
256,192,82720,1,0,0:0:0:0:
36,192,82806,1,0,0:0:0:0:
109,192,82806,1,0,0:0:0:0:
475,192,82806,1,0,0:0:0:0:
402,192,82806,1,0,0:0:0:0:
182,192,82892,1,0,0:0:0:0:
402,192,82978,1,0,0:0:0:0:
256,192,82978,1,0,0:0:0:0:
109,192,83063,1,0,0:0:0:0:
36,192,83063,1,0,0:0:0:0:
182,192,83149,1,0,0:0:0:0:
256,192,83149,1,0,0:0:0:0:
475,192,83149,1,0,0:0:0:0:
329,192,83235,1,0,0:0:0:0:
182,192,83320,1,0,0:0:0:0:
402,192,83320,1,0,0:0:0:0:
256,192,83406,1,0,0:0:0:0:
36,192,83492,1,0,0:0:0:0:
109,192,83492,1,0,0:0:0:0:
402,192,83492,1,0,0:0:0:0:
475,192,83492,1,0,0:0:0:0:
329,192,83578,1,0,0:0:0:0:
109,192,83663,1,0,0:0:0:0:
182,192,83663,1,0,0:0:0:0:
402,192,83749,1,0,0:0:0:0:
475,192,83749,1,0,0:0:0:0:
36,192,83835,1,0,0:0:0:0:
256,192,83835,1,0,0:0:0:0:
329,192,83835,1,0,0:0:0:0:
182,192,83920,1,0,0:0:0:0:
109,192,84006,1,0,0:0:0:0:
329,192,84006,1,0,0:0:0:0:
256,192,84092,1,0,0:0:0:0:
36,192,84178,1,0,0:0:0:0:
475,192,84178,1,0,0:0:0:0:
402,192,84178,1,0,0:0:0:0:
109,192,84178,1,0,0:0:0:0:
182,192,84263,1,0,0:0:0:0:
329,192,84349,1,0,0:0:0:0:
402,192,84349,1,0,0:0:0:0:
36,192,84435,1,0,0:0:0:0:
109,192,84435,1,0,0:0:0:0:
475,192,84520,1,0,0:0:0:0:
329,192,84520,1,0,0:0:0:0:
182,192,84520,1,0,0:0:0:0:
256,192,84606,1,0,0:0:0:0:
109,192,84692,1,0,0:0:0:0:
402,192,84692,1,0,0:0:0:0:
256,192,84778,1,0,0:0:0:0:
36,192,84863,1,0,0:0:0:0:
402,192,84863,1,0,0:0:0:0:
475,192,84863,1,0,0:0:0:0:
182,192,84863,1,0,0:0:0:0:
329,192,84949,1,0,0:0:0:0:
109,192,85035,1,0,0:0:0:0:
182,192,85035,1,0,0:0:0:0:
329,192,85120,1,0,0:0:0:0:
36,192,85206,1,0,0:0:0:0:
256,192,85206,1,0,0:0:0:0:
475,192,85206,1,0,0:0:0:0:
109,192,85292,1,0,0:0:0:0:
182,192,85378,1,0,0:0:0:0:
329,192,85378,1,0,0:0:0:0:
402,192,85463,1,0,0:0:0:0:
36,192,85549,1,0,0:0:0:0:
109,192,85549,1,0,0:0:0:0:
256,192,85549,1,0,0:0:0:0:
475,192,85549,1,0,0:0:0:0:
182,192,85635,1,0,0:0:0:0:
329,192,85720,1,0,0:0:0:0:
402,192,85720,1,0,0:0:0:0:
182,192,85806,1,0,0:0:0:0:
109,192,85806,1,0,0:0:0:0:
36,192,85892,1,0,0:0:0:0:
402,192,85892,1,0,0:0:0:0:
475,192,85892,1,0,0:0:0:0:
329,192,85978,1,0,0:0:0:0:
109,192,86063,1,0,0:0:0:0:
256,192,86063,1,0,0:0:0:0:
402,192,86149,1,0,0:0:0:0:
36,192,86235,1,0,0:0:0:0:
329,192,86235,1,0,0:0:0:0:
475,192,86235,1,0,0:0:0:0:
182,192,86235,1,0,0:0:0:0:
256,192,86320,1,0,0:0:0:0:
329,192,86406,1,0,0:0:0:0:
402,192,86406,1,0,0:0:0:0:
109,192,86492,1,0,0:0:0:0:
182,192,86492,1,0,0:0:0:0:
475,192,86578,1,0,0:0:0:0:
36,192,86578,1,0,0:0:0:0:
256,192,86578,1,0,0:0:0:0:
329,192,86663,1,0,0:0:0:0:
402,192,86749,1,0,0:0:0:0:
109,192,86749,1,0,0:0:0:0:
256,192,86835,1,0,0:0:0:0:
402,192,86920,1,0,0:0:0:0:
182,192,86920,1,0,0:0:0:0:
36,192,86920,1,0,0:0:0:0:
475,192,86920,1,0,0:0:0:0:
329,192,87006,1,0,0:0:0:0:
182,192,87092,1,0,0:0:0:0:
109,192,87092,1,0,0:0:0:0:
402,192,87178,1,0,0:0:0:0:
329,192,87178,1,0,0:0:0:0:
36,192,87263,1,0,0:0:0:0:
182,192,87263,1,0,0:0:0:0:
475,192,87263,1,0,0:0:0:0:
256,192,87349,1,0,0:0:0:0:
109,192,87435,1,0,0:0:0:0:
402,192,87435,1,0,0:0:0:0:
256,192,87520,1,0,0:0:0:0:
36,192,87606,1,0,0:0:0:0:
402,192,87606,1,0,0:0:0:0:
475,192,87606,1,0,0:0:0:0:
182,192,87606,1,0,0:0:0:0:
329,192,87692,1,0,0:0:0:0:
109,192,87778,1,0,0:0:0:0:
182,192,87778,1,0,0:0:0:0:
329,192,87863,1,0,0:0:0:0:
475,192,87949,1,0,0:0:0:0:
36,192,87949,1,0,0:0:0:0:
256,192,87949,1,0,0:0:0:0:
182,192,88035,1,0,0:0:0:0:
109,192,88120,1,0,0:0:0:0:
329,192,88120,1,0,0:0:0:0:
256,192,88206,1,0,0:0:0:0:
36,192,88292,1,0,0:0:0:0:
109,192,88292,1,0,0:0:0:0:
475,192,88292,1,0,0:0:0:0:
402,192,88292,1,0,0:0:0:0:
182,192,88378,1,0,0:0:0:0:
256,192,88463,1,0,0:0:0:0:
329,192,88463,1,0,0:0:0:0:
109,192,88549,1,0,0:0:0:0:
36,192,88549,1,0,0:0:0:0:
182,192,88635,1,0,0:0:0:0:
256,192,88635,1,0,0:0:0:0:
475,192,88635,1,0,0:0:0:0:
329,192,88720,1,0,0:0:0:0:
182,192,88806,1,0,0:0:0:0:
402,192,88806,1,0,0:0:0:0:
256,192,88892,1,0,0:0:0:0:
36,192,88978,1,0,0:0:0:0:
109,192,88978,1,0,0:0:0:0:
402,192,88978,1,0,0:0:0:0:
475,192,88978,1,0,0:0:0:0:
329,192,89063,1,0,0:0:0:0:
109,192,89149,1,0,0:0:0:0:
182,192,89149,1,0,0:0:0:0:
402,192,89235,1,0,0:0:0:0:
329,192,89235,1,0,0:0:0:0:
36,192,89320,1,0,0:0:0:0:
475,192,89320,1,0,0:0:0:0:
256,192,89320,1,0,0:0:0:0:
109,192,89492,1,0,0:0:0:0:
256,192,89492,1,0,0:0:0:0:
402,192,89492,1,0,0:0:0:0:
36,192,89663,1,0,0:0:0:0:
182,192,89663,1,0,0:0:0:0:
329,192,89663,1,0,0:0:0:0:
475,192,89663,1,0,0:0:0:0:
109,192,89835,1,0,0:0:0:0:
402,192,89835,1,0,0:0:0:0:
182,192,89835,1,0,0:0:0:0:
475,192,90006,1,0,0:0:0:0:
402,192,90049,1,0,0:0:0:0:
329,192,90092,1,0,0:0:0:0:
36,192,90092,1,0,0:0:0:0:
256,192,90135,1,0,0:0:0:0:
109,192,90135,1,0,0:0:0:0:
182,192,90178,1,0,0:0:0:0:
475,192,90178,1,0,0:0:0:0:
402,192,90220,1,0,0:0:0:0:
36,192,90263,1,0,0:0:0:0:
329,192,90263,1,0,0:0:0:0:
109,192,90306,1,0,0:0:0:0:
182,192,90349,1,0,0:0:0:0:
475,192,90349,1,0,0:0:0:0:
256,192,90349,1,0,0:0:0:0:
182,192,90692,1,0,0:0:0:0:
402,192,90692,1,0,0:0:0:0:
475,192,90692,1,0,0:0:0:0:
36,192,90692,128,0,90949:0:0:0:0:
329,192,90778,1,0,0:0:0:0:
109,192,90863,1,0,0:0:0:0:
475,192,90863,1,0,0:0:0:0:
256,192,90949,1,0,0:0:0:0:
182,192,91035,1,0,0:0:0:0:
402,192,91035,1,0,0:0:0:0:
329,192,91035,1,0,0:0:0:0:
36,192,91035,1,0,0:0:0:0:
475,192,91120,1,0,0:0:0:0:
109,192,91206,128,0,91463:0:0:0:0:
256,192,91206,1,0,0:0:0:0:
329,192,91292,1,0,0:0:0:0:
402,192,91292,1,0,0:0:0:0:
182,192,91378,1,0,0:0:0:0:
475,192,91378,1,0,0:0:0:0:
256,192,91378,1,0,0:0:0:0:
329,192,91463,1,0,0:0:0:0:
36,192,91549,1,0,0:0:0:0:
475,192,91549,1,0,0:0:0:0:
256,192,91635,1,0,0:0:0:0:
182,192,91720,128,0,91978:0:0:0:0:
109,192,91720,1,0,0:0:0:0:
329,192,91720,1,0,0:0:0:0:
402,192,91720,1,0,0:0:0:0:
36,192,91806,1,0,0:0:0:0:
329,192,91892,1,0,0:0:0:0:
475,192,91892,1,0,0:0:0:0:
256,192,91978,1,0,0:0:0:0:
402,192,92063,1,0,0:0:0:0:
36,192,92063,128,0,92320:0:0:0:0:
182,192,92063,1,0,0:0:0:0:
329,192,92149,1,0,0:0:0:0:
475,192,92235,1,0,0:0:0:0:
109,192,92235,1,0,0:0:0:0:
256,192,92320,1,0,0:0:0:0:
182,192,92406,1,0,0:0:0:0:
402,192,92406,1,0,0:0:0:0:
475,192,92406,1,0,0:0:0:0:
36,192,92406,1,0,0:0:0:0:
329,192,92492,1,0,0:0:0:0:
182,192,92578,1,0,0:0:0:0:
109,192,92578,1,0,0:0:0:0:
256,192,92663,1,0,0:0:0:0:
402,192,92663,1,0,0:0:0:0:
36,192,92749,1,0,0:0:0:0:
475,192,92749,1,0,0:0:0:0:
329,192,92749,1,0,0:0:0:0:
109,192,92835,1,0,0:0:0:0:
329,192,92920,1,0,0:0:0:0:
182,192,92920,1,0,0:0:0:0:
402,192,93006,1,0,0:0:0:0:
475,192,93092,1,0,0:0:0:0:
256,192,93092,128,0,93263:0:0:0:0:
36,192,93092,1,0,0:0:0:0:
109,192,93092,1,0,0:0:0:0:
329,192,93178,1,0,0:0:0:0:
109,192,93263,1,0,0:0:0:0:
182,192,93263,1,0,0:0:0:0:
402,192,93349,1,0,0:0:0:0:
329,192,93349,1,0,0:0:0:0:
182,192,93435,1,0,0:0:0:0:
475,192,93435,1,0,0:0:0:0:
36,192,93435,1,0,0:0:0:0:
109,192,93520,1,0,0:0:0:0:
256,192,93606,1,0,0:0:0:0:
402,192,93606,1,0,0:0:0:0:
329,192,93692,1,0,0:0:0:0:
475,192,93778,1,0,0:0:0:0:
256,192,93778,1,0,0:0:0:0:
36,192,93778,1,0,0:0:0:0:
109,192,93778,1,0,0:0:0:0:
402,192,93863,1,0,0:0:0:0:
182,192,93949,1,0,0:0:0:0:
109,192,93949,1,0,0:0:0:0:
329,192,94035,1,0,0:0:0:0:
475,192,94035,1,0,0:0:0:0:
402,192,94120,1,0,0:0:0:0:
36,192,94120,1,0,0:0:0:0:
256,192,94120,1,0,0:0:0:0:
182,192,94206,1,0,0:0:0:0:
256,192,94292,1,0,0:0:0:0:
109,192,94292,1,0,0:0:0:0:
329,192,94378,1,0,0:0:0:0:
182,192,94463,1,0,0:0:0:0:
402,192,94463,1,0,0:0:0:0:
475,192,94463,1,0,0:0:0:0:
36,192,94463,1,0,0:0:0:0:
256,192,94549,1,0,0:0:0:0:
329,192,94635,1,0,0:0:0:0:
475,192,94635,1,0,0:0:0:0:
182,192,94720,1,0,0:0:0:0:
109,192,94720,1,0,0:0:0:0:
256,192,94806,1,0,0:0:0:0:
402,192,94806,1,0,0:0:0:0:
36,192,94806,1,0,0:0:0:0:
475,192,94892,1,0,0:0:0:0:
36,192,94978,1,0,0:0:0:0:
329,192,94978,1,0,0:0:0:0:
182,192,95063,1,0,0:0:0:0:
109,192,95149,1,0,0:0:0:0:
256,192,95149,1,0,0:0:0:0:
475,192,95149,1,0,0:0:0:0:
402,192,95149,1,0,0:0:0:0:
329,192,95235,1,0,0:0:0:0:
36,192,95320,1,0,0:0:0:0:
182,192,95320,1,0,0:0:0:0:
256,192,95406,1,0,0:0:0:0:
402,192,95406,1,0,0:0:0:0:
109,192,95492,1,0,0:0:0:0:
36,192,95492,1,0,0:0:0:0:
475,192,95492,1,0,0:0:0:0:
329,192,95578,1,0,0:0:0:0:
109,192,95663,1,0,0:0:0:0:
402,192,95663,1,0,0:0:0:0:
182,192,95749,1,0,0:0:0:0:
36,192,95835,1,0,0:0:0:0:
256,192,95835,1,0,0:0:0:0:
329,192,95835,1,0,0:0:0:0:
475,192,95835,1,0,0:0:0:0:
402,192,95920,1,0,0:0:0:0:
109,192,96006,1,0,0:0:0:0:
182,192,96006,1,0,0:0:0:0:
402,192,96092,1,0,0:0:0:0:
329,192,96092,1,0,0:0:0:0:
475,192,96178,1,0,0:0:0:0:
36,192,96178,128,0,96349:0:0:0:0:
109,192,96178,1,0,0:0:0:0:
256,192,96263,1,0,0:0:0:0:
402,192,96349,1,0,0:0:0:0:
182,192,96349,128,0,96520:0:0:0:0:
329,192,96435,1,0,0:0:0:0:
402,192,96520,128,0,96692:0:0:0:0:
36,192,96520,1,0,0:0:0:0:
109,192,96520,1,0,0:0:0:0:
475,192,96520,1,0,0:0:0:0:
256,192,96606,1,0,0:0:0:0:
182,192,96692,1,0,0:0:0:0:
109,192,96692,1,0,0:0:0:0:
402,192,96778,1,0,0:0:0:0:
329,192,96778,1,0,0:0:0:0:
475,192,96863,1,0,0:0:0:0:
256,192,96863,1,0,0:0:0:0:
36,192,96863,1,0,0:0:0:0:
182,192,96949,1,0,0:0:0:0:
109,192,97035,1,0,0:0:0:0:
329,192,97035,1,0,0:0:0:0:
402,192,97120,1,0,0:0:0:0:
109,192,97206,1,0,0:0:0:0:
475,192,97206,1,0,0:0:0:0:
36,192,97206,1,0,0:0:0:0:
256,192,97206,1,0,0:0:0:0:
182,192,97292,1,0,0:0:0:0:
329,192,97378,1,0,0:0:0:0:
402,192,97378,1,0,0:0:0:0:
109,192,97463,1,0,0:0:0:0:
182,192,97463,1,0,0:0:0:0:
36,192,97549,1,0,0:0:0:0:
475,192,97549,1,0,0:0:0:0:
256,192,97549,128,0,97892:0:0:0:0:
329,192,97635,1,0,0:0:0:0:
402,192,97720,1,0,0:0:0:0:
182,192,97720,1,0,0:0:0:0:
109,192,97806,1,0,0:0:0:0:
36,192,97892,1,0,0:0:0:0:
329,192,97892,1,0,0:0:0:0:
475,192,97892,1,0,0:0:0:0:
182,192,97892,1,0,0:0:0:0:
402,192,97978,1,0,0:0:0:0:
109,192,98063,1,0,0:0:0:0:
256,192,98063,1,0,0:0:0:0:
182,192,98149,1,0,0:0:0:0:
329,192,98149,1,0,0:0:0:0:
36,192,98235,1,0,0:0:0:0:
109,192,98235,1,0,0:0:0:0:
475,192,98235,1,0,0:0:0:0:
402,192,98320,1,0,0:0:0:0:
329,192,98406,1,0,0:0:0:0:
182,192,98406,1,0,0:0:0:0:
109,192,98492,1,0,0:0:0:0:
182,192,98578,1,0,0:0:0:0:
475,192,98578,1,0,0:0:0:0:
36,192,98578,1,0,0:0:0:0:
402,192,98578,1,0,0:0:0:0:
256,192,98663,1,0,0:0:0:0:
402,192,98749,1,0,0:0:0:0:
109,192,98749,1,0,0:0:0:0:
182,192,98835,1,0,0:0:0:0:
329,192,98835,1,0,0:0:0:0:
36,192,98920,1,0,0:0:0:0:
475,192,98920,1,0,0:0:0:0:
402,192,98920,1,0,0:0:0:0:
109,192,98920,1,0,0:0:0:0:
109,192,99092,1,0,0:0:0:0:
182,192,99092,1,0,0:0:0:0:
329,192,99092,1,0,0:0:0:0:
475,192,99092,1,0,0:0:0:0:
182,192,99263,1,0,0:0:0:0:
256,192,99263,1,0,0:0:0:0:
36,192,99263,1,0,0:0:0:0:
402,192,99263,1,0,0:0:0:0:
256,192,99435,1,0,0:0:0:0:
329,192,99435,1,0,0:0:0:0:
36,192,99435,1,0,0:0:0:0:
475,192,99435,1,0,0:0:0:0:
329,192,99606,1,0,0:0:0:0:
402,192,99606,1,0,0:0:0:0:
109,192,99606,1,0,0:0:0:0:
182,192,99606,1,0,0:0:0:0:
402,192,99778,1,0,0:0:0:0:
475,192,99778,1,0,0:0:0:0:
182,192,99778,1,0,0:0:0:0:
36,192,99778,1,0,0:0:0:0:
36,192,99949,1,0,0:0:0:0:
109,192,99949,1,0,0:0:0:0:
475,192,99949,1,0,0:0:0:0:
256,192,99949,1,0,0:0:0:0:
182,192,100035,1,0,0:0:0:0:
475,192,100120,1,0,0:0:0:0:
329,192,100120,1,0,0:0:0:0:
402,192,100120,1,0,0:0:0:0:
182,192,100206,1,0,0:0:0:0:
109,192,100206,1,0,0:0:0:0:
475,192,100292,1,0,0:0:0:0:
36,192,100292,1,0,0:0:0:0:
256,192,100292,1,0,0:0:0:0:
402,192,100292,1,0,0:0:0:0:
329,192,100378,1,0,0:0:0:0:
36,192,100463,1,0,0:0:0:0:
109,192,100463,1,0,0:0:0:0:
182,192,100463,1,0,0:0:0:0:
329,192,100549,1,0,0:0:0:0:
402,192,100549,1,0,0:0:0:0:
475,192,100635,1,0,0:0:0:0:
256,192,100635,1,0,0:0:0:0:
36,192,100635,1,0,0:0:0:0:
109,192,100635,1,0,0:0:0:0:
182,192,100720,1,0,0:0:0:0:
329,192,100806,1,0,0:0:0:0:
402,192,100806,1,0,0:0:0:0:
475,192,100806,1,0,0:0:0:0:
182,192,100892,1,0,0:0:0:0:
109,192,100892,1,0,0:0:0:0:
36,192,100978,1,0,0:0:0:0:
475,192,100978,1,0,0:0:0:0:
402,192,100978,1,0,0:0:0:0:
329,192,100978,1,0,0:0:0:0:
256,192,101063,1,0,0:0:0:0:
109,192,101063,1,0,0:0:0:0:
36,192,101149,1,0,0:0:0:0:
402,192,101149,1,0,0:0:0:0:
475,192,101149,1,0,0:0:0:0:
329,192,101235,1,0,0:0:0:0:
182,192,101235,1,0,0:0:0:0:
36,192,101320,1,0,0:0:0:0:
475,192,101320,1,0,0:0:0:0:
109,192,101320,1,0,0:0:0:0:
402,192,101320,1,0,0:0:0:0:
256,192,101320,1,0,0:0:0:0:
402,192,101663,128,0,101749:0:0:0:0:
36,192,101663,1,0,0:0:0:0:
109,192,101663,1,0,0:0:0:0:
256,192,101663,1,0,0:0:0:0:
475,192,101749,128,0,101835:0:0:0:0:
182,192,101835,1,0,0:0:0:0:
109,192,101835,1,0,0:0:0:0:
329,192,101920,128,0,102006:0:0:0:0:
402,192,102006,128,0,102092:0:0:0:0:
475,192,102006,1,0,0:0:0:0:
256,192,102006,1,0,0:0:0:0:
36,192,102006,1,0,0:0:0:0:
109,192,102092,1,0,0:0:0:0:
256,192,102178,128,0,102263:0:0:0:0:
182,192,102178,1,0,0:0:0:0:
329,192,102263,128,0,102349:0:0:0:0:
402,192,102349,1,0,0:0:0:0:
475,192,102349,1,0,0:0:0:0:
36,192,102349,1,0,0:0:0:0:
182,192,102435,128,0,102520:0:0:0:0:
256,192,102520,128,0,102606:0:0:0:0:
109,192,102520,1,0,0:0:0:0:
329,192,102606,1,0,0:0:0:0:
109,192,102692,128,0,102778:0:0:0:0:
475,192,102692,1,0,0:0:0:0:
36,192,102692,1,0,0:0:0:0:
256,192,102692,1,0,0:0:0:0:
402,192,102778,128,0,102863:0:0:0:0:
182,192,102863,128,0,102949:0:0:0:0:
329,192,102949,128,0,103035:0:0:0:0:
475,192,103035,1,0,0:0:0:0:
256,192,103035,1,0,0:0:0:0:
36,192,103035,1,0,0:0:0:0:
36,192,103120,1,0,0:0:0:0:
256,192,103206,1,0,0:0:0:0:
402,192,103206,1,0,0:0:0:0:
109,192,103292,1,0,0:0:0:0:
402,192,103378,1,0,0:0:0:0:
475,192,103378,1,0,0:0:0:0:
329,192,103378,1,0,0:0:0:0:
109,192,103378,1,0,0:0:0:0:
256,192,103463,1,0,0:0:0:0:
182,192,103549,1,0,0:0:0:0:
36,192,103549,1,0,0:0:0:0:
329,192,103635,1,0,0:0:0:0:
182,192,103635,1,0,0:0:0:0:
36,192,103720,1,0,0:0:0:0:
475,192,103720,1,0,0:0:0:0:
109,192,103720,1,0,0:0:0:0:
256,192,103806,1,0,0:0:0:0:
475,192,103892,1,0,0:0:0:0:
256,192,103892,1,0,0:0:0:0:
109,192,103978,1,0,0:0:0:0:
402,192,104063,128,0,104149:0:0:0:0:
36,192,104063,1,0,0:0:0:0:
182,192,104063,1,0,0:0:0:0:
475,192,104063,1,0,0:0:0:0:
329,192,104063,1,0,0:0:0:0:
256,192,104149,128,0,104235:0:0:0:0:
109,192,104235,128,0,104320:0:0:0:0:
182,192,104320,128,0,104406:0:0:0:0:
329,192,104406,128,0,104492:0:0:0:0:
36,192,104406,1,0,0:0:0:0:
402,192,104406,1,0,0:0:0:0:
475,192,104492,128,0,104578:0:0:0:0:
109,192,104578,1,0,0:0:0:0:
182,192,104578,1,0,0:0:0:0:
256,192,104663,128,0,104749:0:0:0:0:
402,192,104749,128,0,104835:0:0:0:0:
36,192,104749,1,0,0:0:0:0:
109,192,104749,1,0,0:0:0:0:
475,192,104749,1,0,0:0:0:0:
329,192,104835,1,0,0:0:0:0:
182,192,104920,128,0,105006:0:0:0:0:
109,192,104920,1,0,0:0:0:0:
329,192,105006,128,0,105092:0:0:0:0:
475,192,105092,1,0,0:0:0:0:
36,192,105092,1,0,0:0:0:0:
256,192,105092,1,0,0:0:0:0:
109,192,105178,128,0,105263:0:0:0:0:
256,192,105263,128,0,105349:0:0:0:0:
402,192,105263,1,0,0:0:0:0:
182,192,105349,1,0,0:0:0:0:
402,192,105435,1,0,0:0:0:0:
475,192,105435,1,0,0:0:0:0:
109,192,105435,1,0,0:0:0:0:
36,192,105435,128,0,105520:0:0:0:0:
329,192,105520,128,0,105606:0:0:0:0:
182,192,105606,128,0,105692:0:0:0:0:
256,192,105692,128,0,105778:0:0:0:0:
36,192,105778,1,0,0:0:0:0:
475,192,105778,1,0,0:0:0:0:
402,192,105778,1,0,0:0:0:0:
36,192,105863,1,0,0:0:0:0:
402,192,105949,1,0,0:0:0:0:
256,192,105949,1,0,0:0:0:0:
109,192,106035,1,0,0:0:0:0:
182,192,106120,1,0,0:0:0:0:
475,192,106120,1,0,0:0:0:0:
329,192,106120,1,0,0:0:0:0:
109,192,106120,1,0,0:0:0:0:
402,192,106206,1,0,0:0:0:0:
182,192,106292,1,0,0:0:0:0:
36,192,106292,1,0,0:0:0:0:
182,192,106378,1,0,0:0:0:0:
36,192,106463,1,0,0:0:0:0:
475,192,106463,1,0,0:0:0:0:
329,192,106463,1,0,0:0:0:0:
256,192,106549,1,0,0:0:0:0:
402,192,106635,1,0,0:0:0:0:
256,192,106635,1,0,0:0:0:0:
109,192,106720,1,0,0:0:0:0:
329,192,106806,128,0,106892:0:0:0:0:
36,192,106806,1,0,0:0:0:0:
182,192,106806,1,0,0:0:0:0:
402,192,106806,1,0,0:0:0:0:
475,192,106892,128,0,106978:0:0:0:0:
182,192,106978,128,0,107063:0:0:0:0:
329,192,107063,128,0,107149:0:0:0:0:
475,192,107149,128,0,107235:0:0:0:0:
36,192,107149,1,0,0:0:0:0:
109,192,107149,1,0,0:0:0:0:
402,192,107235,128,0,107320:0:0:0:0:
182,192,107320,1,0,0:0:0:0:
109,192,107320,1,0,0:0:0:0:
329,192,107406,128,0,107492:0:0:0:0:
402,192,107492,128,0,107578:0:0:0:0:
475,192,107492,1,0,0:0:0:0:
256,192,107492,1,0,0:0:0:0:
36,192,107492,1,0,0:0:0:0:
109,192,107578,1,0,0:0:0:0:
329,192,107663,128,0,107749:0:0:0:0:
182,192,107663,1,0,0:0:0:0:
256,192,107749,128,0,107835:0:0:0:0:
475,192,107835,1,0,0:0:0:0:
36,192,107835,1,0,0:0:0:0:
402,192,107835,1,0,0:0:0:0:
182,192,107920,128,0,108006:0:0:0:0:
256,192,108006,128,0,108092:0:0:0:0:
402,192,108006,1,0,0:0:0:0:
109,192,108092,1,0,0:0:0:0:
36,192,108178,128,0,108263:0:0:0:0:
256,192,108178,1,0,0:0:0:0:
475,192,108178,1,0,0:0:0:0:
182,192,108178,1,0,0:0:0:0:
329,192,108263,128,0,108349:0:0:0:0:
182,192,108349,128,0,108435:0:0:0:0:
402,192,108435,128,0,108520:0:0:0:0:
36,192,108520,1,0,0:0:0:0:
256,192,108520,1,0,0:0:0:0:
475,192,108520,1,0,0:0:0:0:
36,192,108606,1,0,0:0:0:0:
182,192,108692,1,0,0:0:0:0:
329,192,108692,1,0,0:0:0:0:
109,192,108778,1,0,0:0:0:0:
109,192,108863,1,0,0:0:0:0:
36,192,108863,1,0,0:0:0:0:
475,192,108863,1,0,0:0:0:0:
256,192,108863,1,0,0:0:0:0:
402,192,108949,1,0,0:0:0:0:
182,192,109035,1,0,0:0:0:0:
329,192,109035,1,0,0:0:0:0:
182,192,109120,1,0,0:0:0:0:
36,192,109206,1,0,0:0:0:0:
475,192,109206,1,0,0:0:0:0:
256,192,109292,1,0,0:0:0:0:
256,192,109378,1,0,0:0:0:0:
402,192,109378,1,0,0:0:0:0:
182,192,109463,1,0,0:0:0:0:
329,192,109549,128,0,109720:0:0:0:0:
402,192,109549,1,0,0:0:0:0:
475,192,109549,1,0,0:0:0:0:
109,192,109549,1,0,0:0:0:0:
36,192,109635,128,0,109720:0:0:0:0:
182,192,109720,128,0,109806:0:0:0:0:
329,192,109806,128,0,109892:0:0:0:0:
109,192,109892,1,0,0:0:0:0:
402,192,109892,1,0,0:0:0:0:
475,192,109892,128,0,109978:0:0:0:0:
36,192,109892,128,0,109978:0:0:0:0:
182,192,109978,1,0,0:0:0:0:
329,192,110063,1,0,0:0:0:0:
475,192,110063,1,0,0:0:0:0:
109,192,110149,1,0,0:0:0:0:
36,192,110235,1,0,0:0:0:0:
329,192,110235,1,0,0:0:0:0:
256,192,110235,1,0,0:0:0:0:
475,192,110235,1,0,0:0:0:0:
182,192,110320,1,0,0:0:0:0:
402,192,110406,1,0,0:0:0:0:
109,192,110406,1,0,0:0:0:0:
256,192,110492,1,0,0:0:0:0:
36,192,110578,1,0,0:0:0:0:
329,192,110578,1,0,0:0:0:0:
475,192,110578,1,0,0:0:0:0:
109,192,110663,1,0,0:0:0:0:
329,192,110749,1,0,0:0:0:0:
475,192,110749,1,0,0:0:0:0:
182,192,110835,1,0,0:0:0:0:
475,192,110920,1,0,0:0:0:0:
256,192,110920,1,0,0:0:0:0:
36,192,110920,1,0,0:0:0:0:
109,192,110920,1,0,0:0:0:0:
402,192,111006,1,0,0:0:0:0:
182,192,111092,1,0,0:0:0:0:
109,192,111092,1,0,0:0:0:0:
329,192,111178,1,0,0:0:0:0:
36,192,111263,1,0,0:0:0:0:
475,192,111263,1,0,0:0:0:0:
256,192,111263,1,0,0:0:0:0:
402,192,111349,1,0,0:0:0:0:
36,192,111435,1,0,0:0:0:0:
182,192,111435,1,0,0:0:0:0:
329,192,111520,1,0,0:0:0:0:
109,192,111606,1,0,0:0:0:0:
256,192,111606,1,0,0:0:0:0:
402,192,111606,1,0,0:0:0:0:
475,192,111606,1,0,0:0:0:0:
182,192,111692,1,0,0:0:0:0:
329,192,111778,1,0,0:0:0:0:
475,192,111778,1,0,0:0:0:0:
36,192,111863,1,0,0:0:0:0:
109,192,111863,1,0,0:0:0:0:
182,192,111949,1,0,0:0:0:0:
256,192,111949,1,0,0:0:0:0:
402,192,111949,1,0,0:0:0:0:
329,192,112120,1,0,0:0:0:0:
36,192,112120,1,0,0:0:0:0:
402,192,112178,1,0,0:0:0:0:
109,192,112178,1,0,0:0:0:0:
475,192,112235,1,0,0:0:0:0:
182,192,112235,1,0,0:0:0:0:
256,192,112292,1,0,0:0:0:0:
36,192,112292,1,0,0:0:0:0:
329,192,112378,1,0,0:0:0:0:
402,192,112378,1,0,0:0:0:0:
182,192,112463,1,0,0:0:0:0:
109,192,112463,1,0,0:0:0:0:
329,192,112549,1,0,0:0:0:0:
256,192,112549,1,0,0:0:0:0:
36,192,112635,1,0,0:0:0:0:
109,192,112635,1,0,0:0:0:0:
402,192,112635,1,0,0:0:0:0:
475,192,112635,1,0,0:0:0:0:
256,192,112720,1,0,0:0:0:0:
182,192,112806,1,0,0:0:0:0:
402,192,112806,1,0,0:0:0:0:
109,192,112892,1,0,0:0:0:0:
475,192,112978,128,0,113149:0:0:0:0:
36,192,112978,1,0,0:0:0:0:
256,192,112978,1,0,0:0:0:0:
329,192,112978,1,0,0:0:0:0:
182,192,113063,1,0,0:0:0:0:
329,192,113149,128,0,113235:0:0:0:0:
109,192,113149,1,0,0:0:0:0:
402,192,113235,128,0,113320:0:0:0:0:
36,192,113320,1,0,0:0:0:0:
475,192,113320,1,0,0:0:0:0:
182,192,113320,1,0,0:0:0:0:
256,192,113406,128,0,113492:0:0:0:0:
329,192,113492,128,0,113578:0:0:0:0:
109,192,113492,1,0,0:0:0:0:
402,192,113578,1,0,0:0:0:0:
182,192,113663,128,0,113749:0:0:0:0:
475,192,113663,1,0,0:0:0:0:
36,192,113663,1,0,0:0:0:0:
256,192,113663,1,0,0:0:0:0:
329,192,113749,128,0,113835:0:0:0:0:
475,192,113835,128,0,113920:0:0:0:0:
182,192,113920,128,0,114006:0:0:0:0:
36,192,114006,1,0,0:0:0:0:
475,192,114006,1,0,0:0:0:0:
329,192,114006,1,0,0:0:0:0:
36,192,114092,1,0,0:0:0:0:
329,192,114178,1,0,0:0:0:0:
109,192,114178,1,0,0:0:0:0:
182,192,114263,1,0,0:0:0:0:
182,192,114349,1,0,0:0:0:0:
36,192,114349,1,0,0:0:0:0:
402,192,114349,1,0,0:0:0:0:
475,192,114349,1,0,0:0:0:0:
256,192,114435,1,0,0:0:0:0:
329,192,114520,1,0,0:0:0:0:
109,192,114520,1,0,0:0:0:0:
329,192,114606,1,0,0:0:0:0:
36,192,114692,1,0,0:0:0:0:
182,192,114692,1,0,0:0:0:0:
402,192,114692,1,0,0:0:0:0:
475,192,114778,1,0,0:0:0:0:
475,192,114863,1,0,0:0:0:0:
256,192,114863,1,0,0:0:0:0:
182,192,114949,1,0,0:0:0:0:
109,192,115035,1,0,0:0:0:0:
402,192,115035,1,0,0:0:0:0:
329,192,115035,128,0,115120:0:0:0:0:
36,192,115035,1,0,0:0:0:0:
182,192,115120,128,0,115206:0:0:0:0:
256,192,115206,128,0,115292:0:0:0:0:
109,192,115292,128,0,115378:0:0:0:0:
402,192,115378,128,0,115463:0:0:0:0:
36,192,115378,1,0,0:0:0:0:
256,192,115378,1,0,0:0:0:0:
475,192,115463,128,0,115549:0:0:0:0:
109,192,115549,1,0,0:0:0:0:
182,192,115549,1,0,0:0:0:0:
329,192,115635,128,0,115720:0:0:0:0:
402,192,115720,128,0,115806:0:0:0:0:
36,192,115720,1,0,0:0:0:0:
182,192,115720,1,0,0:0:0:0:
475,192,115720,1,0,0:0:0:0:
109,192,115806,1,0,0:0:0:0:
256,192,115892,128,0,115978:0:0:0:0:
475,192,115892,1,0,0:0:0:0:
329,192,115978,128,0,116063:0:0:0:0:
36,192,116063,1,0,0:0:0:0:
109,192,116063,1,0,0:0:0:0:
402,192,116063,1,0,0:0:0:0:
182,192,116149,128,0,116235:0:0:0:0:
256,192,116235,128,0,116320:0:0:0:0:
475,192,116235,1,0,0:0:0:0:
329,192,116320,1,0,0:0:0:0:
36,192,116406,1,0,0:0:0:0:
475,192,116406,1,0,0:0:0:0:
109,192,116406,128,0,116492:0:0:0:0:
182,192,116406,1,0,0:0:0:0:
329,192,116492,128,0,116578:0:0:0:0:
182,192,116578,128,0,116663:0:0:0:0:
402,192,116663,128,0,116749:0:0:0:0:
36,192,116749,1,0,0:0:0:0:
256,192,116749,1,0,0:0:0:0:
475,192,116749,1,0,0:0:0:0:
36,192,116835,1,0,0:0:0:0:
109,192,116920,1,0,0:0:0:0:
329,192,116920,1,0,0:0:0:0:
182,192,117006,1,0,0:0:0:0:
182,192,117092,1,0,0:0:0:0:
475,192,117092,1,0,0:0:0:0:
402,192,117092,1,0,0:0:0:0:
36,192,117092,1,0,0:0:0:0:
256,192,117178,1,0,0:0:0:0:
329,192,117263,1,0,0:0:0:0:
109,192,117263,1,0,0:0:0:0:
329,192,117349,1,0,0:0:0:0:
402,192,117435,1,0,0:0:0:0:
36,192,117435,1,0,0:0:0:0:
182,192,117435,1,0,0:0:0:0:
475,192,117520,1,0,0:0:0:0:
475,192,117606,1,0,0:0:0:0:
256,192,117606,1,0,0:0:0:0:
182,192,117692,1,0,0:0:0:0:
475,192,117778,128,0,117949:0:0:0:0:
36,192,117778,1,0,0:0:0:0:
329,192,117778,1,0,0:0:0:0:
109,192,117778,1,0,0:0:0:0:
256,192,117863,128,0,117949:0:0:0:0:
402,192,117949,128,0,118035:0:0:0:0:
182,192,118035,128,0,118120:0:0:0:0:
36,192,118120,1,0,0:0:0:0:
475,192,118120,1,0,0:0:0:0:
109,192,118120,1,0,0:0:0:0:
256,192,118292,1,0,0:0:0:0:
402,192,118292,1,0,0:0:0:0:
109,192,118292,1,0,0:0:0:0:
36,192,118463,1,0,0:0:0:0:
182,192,118463,1,0,0:0:0:0:
329,192,118463,1,0,0:0:0:0:
475,192,118463,1,0,0:0:0:0:
182,192,118635,1,0,0:0:0:0:
329,192,118720,1,0,0:0:0:0:
36,192,118806,1,0,0:0:0:0:
256,192,118806,1,0,0:0:0:0:
475,192,118806,1,0,0:0:0:0:
109,192,118978,1,0,0:0:0:0:
256,192,118978,1,0,0:0:0:0:
402,192,118978,1,0,0:0:0:0:
36,192,119149,1,0,0:0:0:0:
182,192,119149,1,0,0:0:0:0:
329,192,119149,1,0,0:0:0:0:
475,192,119149,1,0,0:0:0:0:
329,192,119320,1,0,0:0:0:0:
256,192,119363,1,0,0:0:0:0:
182,192,119406,1,0,0:0:0:0:
109,192,119449,1,0,0:0:0:0:
36,192,119492,1,0,0:0:0:0:
402,192,119492,1,0,0:0:0:0:
475,192,119492,1,0,0:0:0:0:
182,192,119663,1,0,0:0:0:0:
329,192,119663,1,0,0:0:0:0:
475,192,119663,1,0,0:0:0:0:
36,192,119835,1,0,0:0:0:0:
109,192,119835,1,0,0:0:0:0:
256,192,119835,1,0,0:0:0:0:
402,192,119835,1,0,0:0:0:0:
256,192,120006,128,0,120178:0:0:0:0:
475,192,120178,1,0,0:0:0:0:
36,192,120178,1,0,0:0:0:0:
402,192,120178,1,0,0:0:0:0:
402,192,120349,1,0,0:0:0:0:
256,192,120349,1,0,0:0:0:0:
109,192,120349,1,0,0:0:0:0:
329,192,120520,1,0,0:0:0:0:
475,192,120520,1,0,0:0:0:0:
402,192,120520,1,0,0:0:0:0:
109,192,120606,1,0,0:0:0:0:
36,192,120606,1,0,0:0:0:0:
182,192,120606,1,0,0:0:0:0:
402,192,120692,1,0,0:0:0:0:
475,192,120692,1,0,0:0:0:0:
329,192,120692,1,0,0:0:0:0:
109,192,120778,1,0,0:0:0:0:
182,192,120778,1,0,0:0:0:0:
256,192,120778,1,0,0:0:0:0:
329,192,120863,1,0,0:0:0:0:
475,192,120863,1,0,0:0:0:0:
36,192,120863,128,0,122235:0:0:0:0:
402,192,120863,1,0,0:0:0:0:
256,192,120949,1,0,0:0:0:0:
109,192,121035,128,0,121206:0:0:0:0:
329,192,121120,1,0,0:0:0:0:
182,192,121206,128,0,121378:0:0:0:0:
402,192,121292,1,0,0:0:0:0:
256,192,121378,128,0,121549:0:0:0:0:
475,192,121463,1,0,0:0:0:0:
329,192,121549,128,0,121892:0:0:0:0:
475,192,121635,128,0,121978:0:0:0:0:
182,192,121806,128,0,121978:0:0:0:0:
256,192,121892,128,0,122063:0:0:0:0:
329,192,121978,128,0,122149:0:0:0:0:
402,192,122063,128,0,122235:0:0:0:0:
475,192,122149,128,0,122320:0:0:0:0:
182,192,122235,128,0,122406:0:0:0:0:
36,192,122320,128,0,122492:0:0:0:0:
329,192,122406,128,0,122578:0:0:0:0:
475,192,122492,128,0,122663:0:0:0:0:
36,192,122578,128,0,122749:0:0:0:0:
256,192,122663,1,0,0:0:0:0:
109,192,122749,128,0,122835:0:0:0:0:
329,192,122749,1,0,0:0:0:0:
182,192,122835,128,0,122920:0:0:0:0:
402,192,122835,1,0,0:0:0:0:
36,192,122920,1,0,0:0:0:0:
256,192,122920,128,0,123006:0:0:0:0:
109,192,123006,1,0,0:0:0:0:
329,192,123006,128,0,123092:0:0:0:0:
182,192,123092,1,0,0:0:0:0:
475,192,123092,1,0,0:0:0:0:
256,192,123178,1,0,0:0:0:0:
402,192,123178,1,0,0:0:0:0:
329,192,123263,1,0,0:0:0:0:
36,192,123263,1,0,0:0:0:0:
475,192,123349,1,0,0:0:0:0:
182,192,123349,1,0,0:0:0:0:
36,192,123435,1,0,0:0:0:0:
402,192,123435,1,0,0:0:0:0:
182,192,123520,1,0,0:0:0:0:
329,192,123520,1,0,0:0:0:0:
475,192,123606,128,0,123692:0:0:0:0:
109,192,123606,128,0,123692:0:0:0:0:
36,192,123606,128,0,123692:0:0:0:0:
256,192,123606,128,0,123692:0:0:0:0:
182,192,123692,128,0,123778:0:0:0:0:
402,192,123692,128,0,123778:0:0:0:0:
36,192,123778,128,0,123863:0:0:0:0:
256,192,123778,128,0,123863:0:0:0:0:
109,192,123863,128,0,123949:0:0:0:0:
329,192,123863,128,0,123949:0:0:0:0:
475,192,123949,128,0,124035:0:0:0:0:
36,192,123949,128,0,124035:0:0:0:0:
402,192,123949,128,0,124035:0:0:0:0:
182,192,123949,128,0,124035:0:0:0:0:
329,192,124035,128,0,124120:0:0:0:0:
256,192,124035,128,0,124120:0:0:0:0:
109,192,124120,128,0,124206:0:0:0:0:
402,192,124120,128,0,124206:0:0:0:0:
36,192,124206,128,0,124292:0:0:0:0:
256,192,124206,128,0,124292:0:0:0:0:
182,192,124292,128,0,124378:0:0:0:0:
475,192,124292,128,0,124378:0:0:0:0:
329,192,124292,128,0,124378:0:0:0:0:
36,192,124378,128,0,124463:0:0:0:0:
402,192,124378,128,0,124463:0:0:0:0:
109,192,124463,128,0,124549:0:0:0:0:
256,192,124463,128,0,124549:0:0:0:0:
182,192,124549,128,0,124635:0:0:0:0:
329,192,124549,128,0,124635:0:0:0:0:
36,192,124635,128,0,124720:0:0:0:0:
109,192,124635,128,0,124720:0:0:0:0:
402,192,124635,128,0,124720:0:0:0:0:
475,192,124635,128,0,124720:0:0:0:0:
182,192,124720,128,0,124806:0:0:0:0:
329,192,124720,128,0,124806:0:0:0:0:
256,192,124806,128,0,124892:0:0:0:0:
475,192,124806,128,0,124892:0:0:0:0:
109,192,124892,128,0,124978:0:0:0:0:
402,192,124892,128,0,124978:0:0:0:0:
36,192,124978,128,0,125063:0:0:0:0:
182,192,124978,128,0,125063:0:0:0:0:
329,192,124978,128,0,125063:0:0:0:0:
256,192,125063,128,0,125149:0:0:0:0:
475,192,125063,128,0,125149:0:0:0:0:
329,192,125149,128,0,125235:0:0:0:0:
109,192,125149,128,0,125235:0:0:0:0:
402,192,125235,128,0,125320:0:0:0:0:
182,192,125235,128,0,125320:0:0:0:0:
475,192,125320,128,0,125406:0:0:0:0:
256,192,125320,128,0,125406:0:0:0:0:
36,192,125320,128,0,125406:0:0:0:0:
109,192,125320,128,0,125406:0:0:0:0:
329,192,125406,128,0,125492:0:0:0:0:
182,192,125406,128,0,125492:0:0:0:0:
402,192,125492,128,0,125578:0:0:0:0:
36,192,125492,128,0,125578:0:0:0:0:
475,192,125578,128,0,125663:0:0:0:0:
256,192,125578,128,0,125663:0:0:0:0:
36,192,125663,128,0,125749:0:0:0:0:
182,192,125663,128,0,125749:0:0:0:0:
329,192,125663,128,0,125749:0:0:0:0:
256,192,125749,128,0,125835:0:0:0:0:
402,192,125749,128,0,125835:0:0:0:0:
109,192,125835,128,0,125920:0:0:0:0:
475,192,125835,128,0,125920:0:0:0:0:
329,192,125920,128,0,126006:0:0:0:0:
182,192,125920,128,0,126006:0:0:0:0:
256,192,126006,128,0,126092:0:0:0:0:
475,192,126006,128,0,126092:0:0:0:0:
402,192,126006,128,0,126092:0:0:0:0:
36,192,126006,128,0,126092:0:0:0:0:
329,192,126092,128,0,126178:0:0:0:0:
109,192,126092,128,0,126178:0:0:0:0:
182,192,126178,128,0,126263:0:0:0:0:
402,192,126178,128,0,126263:0:0:0:0:
256,192,126263,128,0,126349:0:0:0:0:
475,192,126263,128,0,126349:0:0:0:0:
36,192,126349,128,0,126435:0:0:0:0:
109,192,126349,128,0,126435:0:0:0:0:
329,192,126349,128,0,126435:0:0:0:0:
182,192,126435,128,0,126520:0:0:0:0:
402,192,126435,128,0,126520:0:0:0:0:
109,192,126520,128,0,126606:0:0:0:0:
329,192,126520,128,0,126606:0:0:0:0:
475,192,126606,128,0,126692:0:0:0:0:
256,192,126606,128,0,126692:0:0:0:0:
36,192,126692,128,0,126778:0:0:0:0:
109,192,126692,128,0,126778:0:0:0:0:
402,192,126692,128,0,126778:0:0:0:0:
182,192,126692,128,0,126778:0:0:0:0:
475,192,126778,128,0,126863:0:0:0:0:
329,192,126778,128,0,126863:0:0:0:0:
36,192,126863,128,0,126949:0:0:0:0:
256,192,126863,128,0,126949:0:0:0:0:
109,192,126949,128,0,127035:0:0:0:0:
402,192,126949,128,0,127035:0:0:0:0:
182,192,127035,128,0,127120:0:0:0:0:
329,192,127035,128,0,127120:0:0:0:0:
475,192,127035,128,0,127120:0:0:0:0:
36,192,127120,128,0,127206:0:0:0:0:
256,192,127120,128,0,127206:0:0:0:0:
402,192,127206,128,0,127292:0:0:0:0:
182,192,127206,128,0,127292:0:0:0:0:
109,192,127292,128,0,127378:0:0:0:0:
329,192,127292,128,0,127378:0:0:0:0:
36,192,127378,128,0,127463:0:0:0:0:
256,192,127378,128,0,127463:0:0:0:0:
402,192,127378,128,0,127463:0:0:0:0:
475,192,127378,128,0,127463:0:0:0:0:
329,192,127463,128,0,127549:0:0:0:0:
182,192,127463,128,0,127549:0:0:0:0:
109,192,127549,128,0,127635:0:0:0:0:
475,192,127549,128,0,127635:0:0:0:0:
402,192,127635,128,0,127720:0:0:0:0:
256,192,127635,128,0,127720:0:0:0:0:
36,192,127720,128,0,127806:0:0:0:0:
182,192,127720,128,0,127806:0:0:0:0:
329,192,127720,128,0,127806:0:0:0:0:
109,192,127806,128,0,127892:0:0:0:0:
475,192,127806,128,0,127892:0:0:0:0:
402,192,127892,128,0,127978:0:0:0:0:
182,192,127892,128,0,127978:0:0:0:0:
329,192,127978,128,0,128063:0:0:0:0:
36,192,127978,128,0,128063:0:0:0:0:
402,192,128063,128,0,128149:0:0:0:0:
475,192,128063,128,0,128149:0:0:0:0:
256,192,128063,128,0,128149:0:0:0:0:
109,192,128063,128,0,128149:0:0:0:0:
36,192,128149,128,0,128235:0:0:0:0:
329,192,128149,128,0,128235:0:0:0:0:
109,192,128235,128,0,128320:0:0:0:0:
402,192,128235,128,0,128320:0:0:0:0:
182,192,128320,128,0,128406:0:0:0:0:
475,192,128320,128,0,128406:0:0:0:0:
36,192,128406,128,0,128492:0:0:0:0:
256,192,128406,128,0,128492:0:0:0:0:
329,192,128406,128,0,128492:0:0:0:0:
109,192,128492,128,0,128578:0:0:0:0:
475,192,128492,128,0,128578:0:0:0:0:
182,192,128578,128,0,128663:0:0:0:0:
329,192,128578,128,0,128663:0:0:0:0:
36,192,128663,128,0,128749:0:0:0:0:
402,192,128663,128,0,128749:0:0:0:0:
109,192,128749,128,0,128835:0:0:0:0:
256,192,128749,128,0,128835:0:0:0:0:
475,192,128749,128,0,128835:0:0:0:0:
182,192,128835,128,0,128920:0:0:0:0:
329,192,128835,128,0,128920:0:0:0:0:
402,192,128920,128,0,129006:0:0:0:0:
36,192,128920,128,0,129006:0:0:0:0:
109,192,129006,128,0,129092:0:0:0:0:
256,192,129006,128,0,129092:0:0:0:0:
182,192,129092,1,0,0:0:0:0:
329,192,129092,1,0,0:0:0:0:
402,192,129149,1,0,0:0:0:0:
109,192,129149,1,0,0:0:0:0:
475,192,129206,1,0,0:0:0:0:
36,192,129206,1,0,0:0:0:0:
329,192,129263,1,0,0:0:0:0:
182,192,129263,1,0,0:0:0:0:
402,192,129320,1,0,0:0:0:0:
109,192,129320,1,0,0:0:0:0:
475,192,129378,1,0,0:0:0:0:
36,192,129378,1,0,0:0:0:0:
256,192,129435,128,0,129520:0:0:0:0:
329,192,129435,128,0,129520:0:0:0:0:
36,192,129520,128,0,129606:0:0:0:0:
109,192,129520,128,0,129606:0:0:0:0:
402,192,129606,128,0,129692:0:0:0:0:
475,192,129606,128,0,129692:0:0:0:0:
182,192,129692,128,0,129778:0:0:0:0:
256,192,129692,128,0,129778:0:0:0:0:
36,192,129778,128,0,129949:0:0:0:0:
402,192,129778,1,0,0:0:0:0:
475,192,129778,128,0,129949:0:0:0:0:
182,192,129863,128,0,129949:0:0:0:0:
329,192,129949,128,0,130035:0:0:0:0:
36,192,130035,1,0,0:0:0:0:
182,192,130120,128,0,130206:0:0:0:0:
256,192,130120,1,0,0:0:0:0:
475,192,130120,128,0,130206:0:0:0:0:
329,192,130206,128,0,130292:0:0:0:0:
36,192,130206,128,0,130292:0:0:0:0:
182,192,130292,128,0,130378:0:0:0:0:
475,192,130292,128,0,130378:0:0:0:0:
329,192,130378,128,0,130463:0:0:0:0:
36,192,130378,128,0,130463:0:0:0:0:
475,192,130463,128,0,130720:0:0:0:0:
109,192,130463,1,0,0:0:0:0:
256,192,130463,1,0,0:0:0:0:
182,192,130635,1,0,0:0:0:0:
329,192,130720,1,0,0:0:0:0:
36,192,130806,1,0,0:0:0:0:
256,192,130806,1,0,0:0:0:0:
402,192,130806,1,0,0:0:0:0:
475,192,130806,1,0,0:0:0:0:
182,192,130978,1,0,0:0:0:0:
329,192,131063,1,0,0:0:0:0:
36,192,131149,1,0,0:0:0:0:
402,192,131149,1,0,0:0:0:0:
256,192,131149,128,0,131492:0:0:0:0:
109,192,131320,128,0,131492:0:0:0:0:
329,192,131406,1,0,0:0:0:0:
402,192,131492,128,0,131835:0:0:0:0:
36,192,131492,1,0,0:0:0:0:
475,192,131492,1,0,0:0:0:0:
182,192,131492,1,0,0:0:0:0:
256,192,131663,128,0,132006:0:0:0:0:
109,192,131749,1,0,0:0:0:0:
36,192,131835,128,0,132520:0:0:0:0:
182,192,131835,128,0,132006:0:0:0:0:
475,192,131835,128,0,132178:0:0:0:0:
329,192,132006,128,0,132349:0:0:0:0:
182,192,132178,128,0,132520:0:0:0:0:
109,192,132178,1,0,0:0:0:0:
402,192,132178,1,0,0:0:0:0:
256,192,132349,128,0,132692:0:0:0:0:
402,192,132520,128,0,132863:0:0:0:0:
475,192,132520,128,0,133206:0:0:0:0:
109,192,132520,128,0,132692:0:0:0:0:
182,192,132692,128,0,132863:0:0:0:0:
329,192,132863,128,0,133206:0:0:0:0:
36,192,132863,1,0,0:0:0:0:
256,192,132863,128,0,133035:0:0:0:0:
36,192,133035,128,0,133120:0:0:0:0:
182,192,133120,128,0,133206:0:0:0:0:
36,192,133206,1,0,0:0:0:0:
402,192,133206,1,0,0:0:0:0:
109,192,133206,1,0,0:0:0:0:
256,192,133378,1,0,0:0:0:0:
36,192,133378,1,0,0:0:0:0:
329,192,133420,1,0,0:0:0:0:
109,192,133435,1,0,0:0:0:0:
402,192,133463,1,0,0:0:0:0:
182,192,133492,1,0,0:0:0:0:
475,192,133506,1,0,0:0:0:0:
36,192,133549,1,0,0:0:0:0:
256,192,133549,1,0,0:0:0:0:
475,192,133720,1,0,0:0:0:0:
256,192,133720,1,0,0:0:0:0:
182,192,133763,1,0,0:0:0:0:
402,192,133778,1,0,0:0:0:0:
109,192,133806,1,0,0:0:0:0:
329,192,133835,1,0,0:0:0:0:
36,192,133849,1,0,0:0:0:0:
475,192,133892,1,0,0:0:0:0:
256,192,133892,1,0,0:0:0:0:
36,192,133935,1,0,0:0:0:0:
182,192,133978,1,0,0:0:0:0:
329,192,134063,1,0,0:0:0:0:
475,192,134063,1,0,0:0:0:0:
182,192,134149,1,0,0:0:0:0:
36,192,134149,1,0,0:0:0:0:
475,192,134235,1,0,0:0:0:0:
256,192,134235,1,0,0:0:0:0:
36,192,134578,128,0,134663:0:0:0:0:
182,192,134578,128,0,134663:0:0:0:0:
475,192,134578,128,0,134663:0:0:0:0:
256,192,134578,128,0,134663:0:0:0:0:
109,192,134663,128,0,134749:0:0:0:0:
329,192,134663,128,0,134749:0:0:0:0:
182,192,134749,128,0,134835:0:0:0:0:
475,192,134749,128,0,134835:0:0:0:0:
256,192,134835,128,0,134920:0:0:0:0:
402,192,134835,128,0,134920:0:0:0:0:
475,192,134920,128,0,135006:0:0:0:0:
36,192,134920,128,0,135006:0:0:0:0:
329,192,134920,128,0,135006:0:0:0:0:
109,192,134920,128,0,135006:0:0:0:0:
256,192,135006,128,0,135092:0:0:0:0:
182,192,135006,128,0,135092:0:0:0:0:
402,192,135092,128,0,135178:0:0:0:0:
36,192,135092,128,0,135178:0:0:0:0:
329,192,135178,128,0,135263:0:0:0:0:
182,192,135178,128,0,135263:0:0:0:0:
475,192,135263,128,0,135349:0:0:0:0:
256,192,135263,128,0,135349:0:0:0:0:
109,192,135263,128,0,135349:0:0:0:0:
402,192,135349,128,0,135435:0:0:0:0:
36,192,135349,128,0,135435:0:0:0:0:
109,192,135435,128,0,135520:0:0:0:0:
256,192,135435,128,0,135520:0:0:0:0:
182,192,135520,128,0,135606:0:0:0:0:
329,192,135520,128,0,135606:0:0:0:0:
402,192,135606,128,0,135692:0:0:0:0:
475,192,135606,128,0,135692:0:0:0:0:
36,192,135606,128,0,135692:0:0:0:0:
109,192,135606,128,0,135692:0:0:0:0:
329,192,135692,128,0,135778:0:0:0:0:
182,192,135692,128,0,135778:0:0:0:0:
402,192,135778,128,0,135863:0:0:0:0:
256,192,135778,128,0,135863:0:0:0:0:
475,192,135863,128,0,135949:0:0:0:0:
109,192,135863,128,0,135949:0:0:0:0:
36,192,135949,128,0,136035:0:0:0:0:
329,192,135949,128,0,136035:0:0:0:0:
182,192,135949,128,0,136035:0:0:0:0:
402,192,136035,128,0,136120:0:0:0:0:
256,192,136035,128,0,136120:0:0:0:0:
475,192,136120,128,0,136206:0:0:0:0:
109,192,136120,128,0,136206:0:0:0:0:
182,192,136206,128,0,136292:0:0:0:0:
329,192,136206,128,0,136292:0:0:0:0:
36,192,136292,128,0,136378:0:0:0:0:
256,192,136292,128,0,136378:0:0:0:0:
475,192,136292,128,0,136378:0:0:0:0:
402,192,136292,128,0,136378:0:0:0:0:
109,192,136378,128,0,136463:0:0:0:0:
329,192,136378,128,0,136463:0:0:0:0:
182,192,136463,128,0,136549:0:0:0:0:
402,192,136463,128,0,136549:0:0:0:0:
256,192,136549,128,0,136635:0:0:0:0:
475,192,136549,128,0,136635:0:0:0:0:
182,192,136635,128,0,136720:0:0:0:0:
36,192,136635,128,0,136720:0:0:0:0:
329,192,136635,128,0,136720:0:0:0:0:
109,192,136720,128,0,136806:0:0:0:0:
475,192,136720,128,0,136806:0:0:0:0:
402,192,136806,128,0,136892:0:0:0:0:
256,192,136806,128,0,136892:0:0:0:0:
182,192,136892,128,0,136978:0:0:0:0:
329,192,136892,128,0,136978:0:0:0:0:
36,192,136978,128,0,137063:0:0:0:0:
256,192,136978,128,0,137063:0:0:0:0:
475,192,136978,128,0,137063:0:0:0:0:
109,192,136978,128,0,137063:0:0:0:0:
402,192,137063,128,0,137149:0:0:0:0:
182,192,137063,128,0,137149:0:0:0:0:
329,192,137149,128,0,137235:0:0:0:0:
36,192,137149,128,0,137235:0:0:0:0:
109,192,137235,128,0,137320:0:0:0:0:
256,192,137235,128,0,137320:0:0:0:0:
182,192,137320,128,0,137406:0:0:0:0:
475,192,137320,128,0,137406:0:0:0:0:
329,192,137320,128,0,137406:0:0:0:0:
402,192,137406,128,0,137492:0:0:0:0:
36,192,137406,128,0,137492:0:0:0:0:
109,192,137492,128,0,137578:0:0:0:0:
256,192,137492,128,0,137578:0:0:0:0:
182,192,137578,128,0,137663:0:0:0:0:
329,192,137578,128,0,137663:0:0:0:0:
36,192,137663,128,0,137749:0:0:0:0:
402,192,137663,128,0,137749:0:0:0:0:
475,192,137663,128,0,137749:0:0:0:0:
256,192,137663,128,0,137749:0:0:0:0:
182,192,137749,128,0,137835:0:0:0:0:
329,192,137749,128,0,137835:0:0:0:0:
36,192,137835,128,0,137920:0:0:0:0:
402,192,137835,128,0,137920:0:0:0:0:
109,192,137920,128,0,138006:0:0:0:0:
256,192,137920,128,0,138006:0:0:0:0:
475,192,138006,128,0,138092:0:0:0:0:
182,192,138006,128,0,138092:0:0:0:0:
329,192,138006,128,0,138092:0:0:0:0:
256,192,138092,128,0,138178:0:0:0:0:
36,192,138092,128,0,138178:0:0:0:0:
182,192,138178,128,0,138263:0:0:0:0:
402,192,138178,128,0,138263:0:0:0:0:
109,192,138263,128,0,138349:0:0:0:0:
329,192,138263,128,0,138349:0:0:0:0:
36,192,138349,128,0,138435:0:0:0:0:
256,192,138349,128,0,138435:0:0:0:0:
402,192,138349,128,0,138435:0:0:0:0:
475,192,138349,128,0,138435:0:0:0:0:
329,192,138435,128,0,138520:0:0:0:0:
109,192,138435,128,0,138520:0:0:0:0:
182,192,138520,128,0,138606:0:0:0:0:
402,192,138520,128,0,138606:0:0:0:0:
256,192,138606,128,0,138692:0:0:0:0:
36,192,138606,128,0,138692:0:0:0:0:
475,192,138692,128,0,138778:0:0:0:0:
182,192,138692,128,0,138778:0:0:0:0:
329,192,138692,128,0,138778:0:0:0:0:
36,192,138778,128,0,138863:0:0:0:0:
402,192,138778,128,0,138863:0:0:0:0:
109,192,138863,128,0,138949:0:0:0:0:
256,192,138863,128,0,138949:0:0:0:0:
182,192,138949,128,0,139035:0:0:0:0:
329,192,138949,128,0,139035:0:0:0:0:
36,192,139035,128,0,139120:0:0:0:0:
109,192,139035,128,0,139120:0:0:0:0:
402,192,139035,128,0,139120:0:0:0:0:
475,192,139035,128,0,139120:0:0:0:0:
182,192,139120,128,0,139206:0:0:0:0:
329,192,139120,128,0,139206:0:0:0:0:
256,192,139206,128,0,139292:0:0:0:0:
402,192,139206,128,0,139292:0:0:0:0:
109,192,139292,128,0,139378:0:0:0:0:
475,192,139292,128,0,139378:0:0:0:0:
36,192,139378,128,0,139463:0:0:0:0:
329,192,139378,128,0,139463:0:0:0:0:
182,192,139378,128,0,139463:0:0:0:0:
256,192,139463,128,0,139549:0:0:0:0:
402,192,139463,128,0,139549:0:0:0:0:
109,192,139549,128,0,139635:0:0:0:0:
475,192,139549,128,0,139635:0:0:0:0:
36,192,139635,128,0,139720:0:0:0:0:
329,192,139635,128,0,139720:0:0:0:0:
182,192,139720,128,0,139806:0:0:0:0:
256,192,139720,128,0,139806:0:0:0:0:
402,192,139720,128,0,139806:0:0:0:0:
36,192,139806,128,0,139892:0:0:0:0:
475,192,139806,128,0,139892:0:0:0:0:
182,192,139892,128,0,139978:0:0:0:0:
329,192,139892,128,0,139978:0:0:0:0:
109,192,139978,128,0,140063:0:0:0:0:
402,192,139978,128,0,140063:0:0:0:0:
36,192,140063,1,0,0:0:0:0:
256,192,140063,1,0,0:0:0:0:
475,192,140063,1,0,0:0:0:0:
402,192,140120,1,0,0:0:0:0:
109,192,140120,1,0,0:0:0:0:
329,192,140178,1,0,0:0:0:0:
182,192,140178,1,0,0:0:0:0:
36,192,140235,1,0,0:0:0:0:
475,192,140235,1,0,0:0:0:0:
402,192,140292,1,0,0:0:0:0:
109,192,140292,1,0,0:0:0:0:
329,192,140349,1,0,0:0:0:0:
182,192,140349,1,0,0:0:0:0:
475,192,140406,1,0,0:0:0:0:
256,192,140406,1,0,0:0:0:0:
36,192,140492,1,0,0:0:0:0:
109,192,140492,1,0,0:0:0:0:
402,192,140578,1,0,0:0:0:0:
329,192,140578,1,0,0:0:0:0:
182,192,140663,1,0,0:0:0:0:
256,192,140663,1,0,0:0:0:0:
36,192,140749,128,0,140920:0:0:0:0:
402,192,140749,1,0,0:0:0:0:
475,192,140749,128,0,140835:0:0:0:0:
182,192,140835,128,0,140920:0:0:0:0:
329,192,140920,128,0,141092:0:0:0:0:
36,192,141006,128,0,141092:0:0:0:0:
182,192,141092,128,0,141178:0:0:0:0:
475,192,141092,128,0,141178:0:0:0:0:
109,192,141092,1,0,0:0:0:0:
402,192,141092,1,0,0:0:0:0:
36,192,141178,128,0,141263:0:0:0:0:
329,192,141178,128,0,141263:0:0:0:0:
475,192,141263,128,0,141349:0:0:0:0:
109,192,141263,128,0,141349:0:0:0:0:
182,192,141349,128,0,141435:0:0:0:0:
329,192,141349,128,0,141435:0:0:0:0:
256,192,141435,1,0,0:0:0:0:
475,192,141435,1,0,0:0:0:0:
36,192,141435,128,0,141692:0:0:0:0:
402,192,141520,1,0,0:0:0:0:
182,192,141606,1,0,0:0:0:0:
329,192,141692,1,0,0:0:0:0:
475,192,141778,1,0,0:0:0:0:
402,192,141778,1,0,0:0:0:0:
109,192,141778,1,0,0:0:0:0:
36,192,141778,1,0,0:0:0:0:
256,192,141863,1,0,0:0:0:0:
109,192,141949,1,0,0:0:0:0:
329,192,142035,1,0,0:0:0:0:
475,192,142120,128,0,142292:0:0:0:0:
182,192,142120,1,0,0:0:0:0:
402,192,142120,1,0,0:0:0:0:
109,192,142206,1,0,0:0:0:0:
256,192,142292,128,0,142463:0:0:0:0:
36,192,142292,1,0,0:0:0:0:
329,192,142378,1,0,0:0:0:0:
402,192,142463,128,0,142635:0:0:0:0:
182,192,142463,1,0,0:0:0:0:
475,192,142463,1,0,0:0:0:0:
109,192,142463,1,0,0:0:0:0:
256,192,142549,1,0,0:0:0:0:
36,192,142635,128,0,144178:0:0:0:0:
329,192,142635,1,0,0:0:0:0:
182,192,142720,1,0,0:0:0:0:
402,192,142806,1,0,0:0:0:0:
475,192,142806,1,0,0:0:0:0:
329,192,142806,1,0,0:0:0:0:
256,192,142892,1,0,0:0:0:0:
402,192,142978,1,0,0:0:0:0:
475,192,142978,1,0,0:0:0:0:
109,192,142978,1,0,0:0:0:0:
329,192,143063,1,0,0:0:0:0:
475,192,143149,1,0,0:0:0:0:
182,192,143149,1,0,0:0:0:0:
402,192,143149,1,0,0:0:0:0:
256,192,143235,1,0,0:0:0:0:
475,192,143320,1,0,0:0:0:0:
402,192,143320,1,0,0:0:0:0:
109,192,143320,1,0,0:0:0:0:
329,192,143406,1,0,0:0:0:0:
475,192,143492,1,0,0:0:0:0:
256,192,143492,1,0,0:0:0:0:
402,192,143492,1,0,0:0:0:0:
109,192,143578,1,0,0:0:0:0:
475,192,143663,1,0,0:0:0:0:
182,192,143663,1,0,0:0:0:0:
402,192,143663,1,0,0:0:0:0:
329,192,143749,1,0,0:0:0:0:
475,192,143835,1,0,0:0:0:0:
402,192,143835,1,0,0:0:0:0:
256,192,143835,1,0,0:0:0:0:
182,192,143920,1,0,0:0:0:0:
109,192,144006,1,0,0:0:0:0:
475,192,144006,1,0,0:0:0:0:
329,192,144006,1,0,0:0:0:0:
256,192,144092,1,0,0:0:0:0:
182,192,144178,1,0,0:0:0:0:
402,192,144178,1,0,0:0:0:0:
475,192,144178,1,0,0:0:0:0:
256,192,144263,1,0,0:0:0:0:
36,192,144263,1,0,0:0:0:0:
475,192,144349,1,0,0:0:0:0:
402,192,144349,1,0,0:0:0:0:
109,192,144349,1,0,0:0:0:0:
182,192,144435,1,0,0:0:0:0:
329,192,144435,1,0,0:0:0:0:
36,192,144520,1,0,0:0:0:0:
109,192,144520,1,0,0:0:0:0:
256,192,144520,1,0,0:0:0:0:
475,192,144520,1,0,0:0:0:0:
182,192,144606,1,0,0:0:0:0:
329,192,144606,1,0,0:0:0:0:
36,192,144692,1,0,0:0:0:0:
109,192,144692,1,0,0:0:0:0:
402,192,144692,1,0,0:0:0:0:
475,192,144778,1,0,0:0:0:0:
256,192,144778,1,0,0:0:0:0:
36,192,144863,128,0,145035:0:0:0:0:
329,192,144863,1,0,0:0:0:0:
109,192,144863,1,0,0:0:0:0:
182,192,144949,1,0,0:0:0:0:
475,192,145120,128,0,145292:0:0:0:0:
329,192,145120,1,0,0:0:0:0:
402,192,145120,1,0,0:0:0:0:
182,192,145206,1,0,0:0:0:0:
36,192,145378,128,0,145549:0:0:0:0:
329,192,145378,1,0,0:0:0:0:
256,192,145378,1,0,0:0:0:0:
182,192,145463,1,0,0:0:0:0:
109,192,145549,1,0,0:0:0:0:
256,192,145549,1,0,0:0:0:0:
329,192,145549,1,0,0:0:0:0:
402,192,145549,1,0,0:0:0:0:
475,192,145549,128,0,149663:0:0:0:0:
36,192,145635,1,0,0:0:0:0:
256,192,145720,1,0,0:0:0:0:
182,192,145806,1,0,0:0:0:0:
109,192,145892,1,0,0:0:0:0:
329,192,145978,1,0,0:0:0:0:
256,192,146063,1,0,0:0:0:0:
182,192,146149,1,0,0:0:0:0:
36,192,146235,1,0,0:0:0:0:
109,192,146320,1,0,0:0:0:0:
182,192,146406,1,0,0:0:0:0:
256,192,146492,1,0,0:0:0:0:
109,192,146578,1,0,0:0:0:0:
182,192,146663,1,0,0:0:0:0:
256,192,146749,1,0,0:0:0:0:
329,192,146835,1,0,0:0:0:0:
36,192,146920,128,0,148378:0:0:0:0:
402,192,146920,1,0,0:0:0:0:
329,192,147006,1,0,0:0:0:0:
256,192,147092,1,0,0:0:0:0:
182,192,147178,1,0,0:0:0:0:
329,192,147263,1,0,0:0:0:0:
256,192,147349,1,0,0:0:0:0:
182,192,147435,1,0,0:0:0:0:
109,192,147520,1,0,0:0:0:0:
256,192,147606,1,0,0:0:0:0:
329,192,147692,1,0,0:0:0:0:
402,192,147778,1,0,0:0:0:0:
182,192,147863,1,0,0:0:0:0:
256,192,147949,1,0,0:0:0:0:
109,192,148035,1,0,0:0:0:0:
182,192,148120,1,0,0:0:0:0:
256,192,148206,1,0,0:0:0:0:
329,192,148292,1,0,0:0:0:0:
402,192,148378,1,0,0:0:0:0:
36,192,148463,128,0,148549:0:0:0:0:
329,192,148463,1,0,0:0:0:0:
256,192,148549,1,0,0:0:0:0:
36,192,148635,128,0,148892:0:0:0:0:
182,192,148635,1,0,0:0:0:0:
329,192,148720,1,0,0:0:0:0:
256,192,148806,1,0,0:0:0:0:
182,192,148892,1,0,0:0:0:0:
36,192,148978,128,0,149063:0:0:0:0:
402,192,148978,1,0,0:0:0:0:
329,192,149063,1,0,0:0:0:0:
36,192,149149,128,0,149406:0:0:0:0:
256,192,149149,1,0,0:0:0:0:
182,192,149235,1,0,0:0:0:0:
109,192,149320,1,0,0:0:0:0:
182,192,149406,1,0,0:0:0:0:
256,192,149492,1,0,0:0:0:0:
36,192,149578,1,0,0:0:0:0:
402,192,149663,128,0,151035:0:0:0:0:
109,192,149663,1,0,0:0:0:0:
182,192,149749,1,0,0:0:0:0:
256,192,149835,1,0,0:0:0:0:
329,192,149920,1,0,0:0:0:0:
109,192,150006,1,0,0:0:0:0:
182,192,150092,1,0,0:0:0:0:
256,192,150178,1,0,0:0:0:0:
329,192,150263,1,0,0:0:0:0:
475,192,150349,1,0,0:0:0:0:
36,192,150435,1,0,0:0:0:0:
109,192,150520,1,0,0:0:0:0:
182,192,150606,1,0,0:0:0:0:
256,192,150692,1,0,0:0:0:0:
329,192,150778,1,0,0:0:0:0:
36,192,150863,1,0,0:0:0:0:
109,192,150949,1,0,0:0:0:0:
329,192,151035,128,0,155149:0:0:0:0:
182,192,151035,1,0,0:0:0:0:
256,192,151120,1,0,0:0:0:0:
109,192,151206,1,0,0:0:0:0:
182,192,151292,1,0,0:0:0:0:
256,192,151378,1,0,0:0:0:0:
402,192,151463,1,0,0:0:0:0:
475,192,151549,1,0,0:0:0:0:
182,192,151635,1,0,0:0:0:0:
109,192,151720,1,0,0:0:0:0:
36,192,151806,1,0,0:0:0:0:
256,192,151892,1,0,0:0:0:0:
182,192,151978,1,0,0:0:0:0:
109,192,152063,1,0,0:0:0:0:
402,192,152149,1,0,0:0:0:0:
256,192,152235,1,0,0:0:0:0:
182,192,152320,1,0,0:0:0:0:
109,192,152406,128,0,153863:0:0:0:0:
475,192,152406,1,0,0:0:0:0:
402,192,152492,1,0,0:0:0:0:
256,192,152578,1,0,0:0:0:0:
475,192,152663,1,0,0:0:0:0:
402,192,152749,1,0,0:0:0:0:
182,192,152835,1,0,0:0:0:0:
256,192,152920,1,0,0:0:0:0:
36,192,153006,1,0,0:0:0:0:
182,192,153092,1,0,0:0:0:0:
256,192,153178,1,0,0:0:0:0:
402,192,153263,1,0,0:0:0:0:
36,192,153349,1,0,0:0:0:0:
182,192,153435,1,0,0:0:0:0:
256,192,153520,1,0,0:0:0:0:
402,192,153606,1,0,0:0:0:0:
475,192,153692,1,0,0:0:0:0:
256,192,153778,1,0,0:0:0:0:
402,192,153863,1,0,0:0:0:0:
109,192,153949,128,0,154035:0:0:0:0:
475,192,153949,1,0,0:0:0:0:
182,192,154035,1,0,0:0:0:0:
109,192,154120,128,0,154378:0:0:0:0:
256,192,154120,1,0,0:0:0:0:
402,192,154206,1,0,0:0:0:0:
36,192,154292,1,0,0:0:0:0:
182,192,154378,1,0,0:0:0:0:
109,192,154463,128,0,154549:0:0:0:0:
256,192,154463,1,0,0:0:0:0:
402,192,154549,1,0,0:0:0:0:
109,192,154635,128,0,154892:0:0:0:0:
475,192,154635,1,0,0:0:0:0:
182,192,154720,1,0,0:0:0:0:
256,192,154806,1,0,0:0:0:0:
402,192,154892,1,0,0:0:0:0:
36,192,154978,1,0,0:0:0:0:
109,192,155063,1,0,0:0:0:0:
182,192,155149,1,0,0:0:0:0:
329,192,155206,1,0,0:0:0:0:
182,192,155263,1,0,0:0:0:0:
329,192,155320,1,0,0:0:0:0:
329,192,155406,1,0,0:0:0:0:
329,192,155578,1,0,0:0:0:0:
329,192,155749,1,0,0:0:0:0:
36,192,155835,128,0,156349:0:0:0:0:
329,192,156006,1,0,0:0:0:0:
329,192,156263,1,0,0:0:0:0:
182,192,156349,1,0,0:0:0:0:
256,192,156406,1,0,0:0:0:0:
329,192,156463,1,0,0:0:0:0:
475,192,156520,1,0,0:0:0:0:
36,192,156520,1,0,0:0:0:0:
402,192,156520,1,0,0:0:0:0:
109,192,156578,1,0,0:0:0:0:
256,192,156578,1,0,0:0:0:0:
182,192,156635,1,0,0:0:0:0:
329,192,156635,1,0,0:0:0:0:
36,192,156692,1,0,0:0:0:0:
475,192,156692,1,0,0:0:0:0:
109,192,156749,1,0,0:0:0:0:
402,192,156749,1,0,0:0:0:0:
182,192,156806,1,0,0:0:0:0:
329,192,156806,1,0,0:0:0:0:
256,192,156863,1,0,0:0:0:0:
36,192,156863,1,0,0:0:0:0:
109,192,156920,1,0,0:0:0:0:
475,192,156920,1,0,0:0:0:0:
182,192,156978,1,0,0:0:0:0:
402,192,156978,1,0,0:0:0:0:
329,192,157035,1,0,0:0:0:0:
36,192,157035,1,0,0:0:0:0:
256,192,157092,1,0,0:0:0:0:
109,192,157092,1,0,0:0:0:0:
182,192,157149,1,0,0:0:0:0:
475,192,157149,1,0,0:0:0:0:
36,192,157206,1,0,0:0:0:0:
402,192,157206,1,0,0:0:0:0:
109,192,157263,1,0,0:0:0:0:
256,192,157263,1,0,0:0:0:0:
182,192,157320,1,0,0:0:0:0:
329,192,157320,1,0,0:0:0:0:
36,192,157378,1,0,0:0:0:0:
475,192,157378,1,0,0:0:0:0:
109,192,157435,1,0,0:0:0:0:
402,192,157435,1,0,0:0:0:0:
329,192,157492,1,0,0:0:0:0:
182,192,157492,1,0,0:0:0:0:
36,192,157549,1,0,0:0:0:0:
256,192,157549,1,0,0:0:0:0:
109,192,157606,1,0,0:0:0:0:
475,192,157606,1,0,0:0:0:0:
402,192,157663,1,0,0:0:0:0:
182,192,157663,1,0,0:0:0:0:
36,192,157720,1,0,0:0:0:0:
256,192,157720,1,0,0:0:0:0:
109,192,157778,1,0,0:0:0:0:
329,192,157778,1,0,0:0:0:0:
182,192,157835,1,0,0:0:0:0:
402,192,157835,1,0,0:0:0:0:
36,192,157892,1,0,0:0:0:0:
256,192,157892,1,0,0:0:0:0:
475,192,157892,1,0,0:0:0:0:
402,192,157949,1,0,0:0:0:0:
109,192,157949,1,0,0:0:0:0:
329,192,158006,1,0,0:0:0:0:
182,192,158006,1,0,0:0:0:0:
475,192,158063,1,0,0:0:0:0:
256,192,158063,1,0,0:0:0:0:
402,192,158120,1,0,0:0:0:0:
36,192,158120,1,0,0:0:0:0:
329,192,158178,1,0,0:0:0:0:
109,192,158178,1,0,0:0:0:0:
475,192,158235,1,0,0:0:0:0:
182,192,158235,1,0,0:0:0:0:
402,192,158292,1,0,0:0:0:0:
256,192,158292,1,0,0:0:0:0:
329,192,158349,1,0,0:0:0:0:
36,192,158349,1,0,0:0:0:0:
475,192,158406,1,0,0:0:0:0:
109,192,158406,1,0,0:0:0:0:
402,192,158463,1,0,0:0:0:0:
256,192,158463,1,0,0:0:0:0:
329,192,158520,1,0,0:0:0:0:
182,192,158520,1,0,0:0:0:0:
475,192,158578,1,0,0:0:0:0:
36,192,158578,1,0,0:0:0:0:
402,192,158635,1,0,0:0:0:0:
109,192,158635,1,0,0:0:0:0:
329,192,158692,1,0,0:0:0:0:
182,192,158692,1,0,0:0:0:0:
475,192,158749,1,0,0:0:0:0:
36,192,158749,1,0,0:0:0:0:
402,192,158806,1,0,0:0:0:0:
109,192,158806,1,0,0:0:0:0:
329,192,158863,1,0,0:0:0:0:
182,192,158863,1,0,0:0:0:0:
475,192,158920,1,0,0:0:0:0:
256,192,158920,1,0,0:0:0:0:
402,192,158978,1,0,0:0:0:0:
36,192,158978,1,0,0:0:0:0:
329,192,159035,1,0,0:0:0:0:
109,192,159035,1,0,0:0:0:0:
475,192,159092,1,0,0:0:0:0:
256,192,159092,1,0,0:0:0:0:
402,192,159149,1,0,0:0:0:0:
182,192,159149,1,0,0:0:0:0:
329,192,159206,1,0,0:0:0:0:
109,192,159206,1,0,0:0:0:0:
475,192,159263,1,0,0:0:0:0:
256,192,159263,1,0,0:0:0:0:
36,192,159263,1,0,0:0:0:0:
109,192,159320,1,0,0:0:0:0:
402,192,159320,1,0,0:0:0:0:
182,192,159378,1,0,0:0:0:0:
329,192,159378,1,0,0:0:0:0:
36,192,159435,1,0,0:0:0:0:
256,192,159435,1,0,0:0:0:0:
109,192,159492,1,0,0:0:0:0:
475,192,159492,1,0,0:0:0:0:
182,192,159549,1,0,0:0:0:0:
402,192,159549,1,0,0:0:0:0:
36,192,159606,1,0,0:0:0:0:
329,192,159606,1,0,0:0:0:0:
109,192,159663,1,0,0:0:0:0:
256,192,159663,1,0,0:0:0:0:
182,192,159720,1,0,0:0:0:0:
475,192,159720,1,0,0:0:0:0:
36,192,159778,1,0,0:0:0:0:
402,192,159778,1,0,0:0:0:0:
109,192,159835,1,0,0:0:0:0:
256,192,159835,1,0,0:0:0:0:
182,192,159892,1,0,0:0:0:0:
329,192,159892,1,0,0:0:0:0:
36,192,159949,1,0,0:0:0:0:
475,192,159949,1,0,0:0:0:0:
109,192,160006,1,0,0:0:0:0:
402,192,160006,1,0,0:0:0:0:
182,192,160063,1,0,0:0:0:0:
329,192,160063,1,0,0:0:0:0:
36,192,160120,1,0,0:0:0:0:
475,192,160120,1,0,0:0:0:0:
109,192,160178,1,0,0:0:0:0:
402,192,160178,1,0,0:0:0:0:
182,192,160235,1,0,0:0:0:0:
329,192,160235,1,0,0:0:0:0:
36,192,160292,1,0,0:0:0:0:
256,192,160292,1,0,0:0:0:0:
109,192,160349,1,0,0:0:0:0:
475,192,160349,1,0,0:0:0:0:
182,192,160406,1,0,0:0:0:0:
402,192,160406,1,0,0:0:0:0:
36,192,160463,1,0,0:0:0:0:
256,192,160463,1,0,0:0:0:0:
109,192,160520,1,0,0:0:0:0:
329,192,160520,1,0,0:0:0:0:
182,192,160578,1,0,0:0:0:0:
402,192,160578,1,0,0:0:0:0:
475,192,160635,1,0,0:0:0:0:
256,192,160635,1,0,0:0:0:0:
36,192,160635,1,0,0:0:0:0:
109,192,160692,1,0,0:0:0:0:
402,192,160692,1,0,0:0:0:0:
182,192,160749,1,0,0:0:0:0:
329,192,160749,1,0,0:0:0:0:
256,192,160806,1,0,0:0:0:0:
475,192,160806,1,0,0:0:0:0:
36,192,160863,1,0,0:0:0:0:
402,192,160863,1,0,0:0:0:0:
109,192,160920,1,0,0:0:0:0:
329,192,160920,1,0,0:0:0:0:
182,192,160978,1,0,0:0:0:0:
475,192,160978,1,0,0:0:0:0:
256,192,161035,1,0,0:0:0:0:
402,192,161035,1,0,0:0:0:0:
36,192,161092,1,0,0:0:0:0:
329,192,161092,1,0,0:0:0:0:
109,192,161149,1,0,0:0:0:0:
475,192,161149,1,0,0:0:0:0:
256,192,161206,1,0,0:0:0:0:
402,192,161206,1,0,0:0:0:0:
182,192,161263,1,0,0:0:0:0:
329,192,161263,1,0,0:0:0:0:
36,192,161320,1,0,0:0:0:0:
475,192,161320,1,0,0:0:0:0:
109,192,161378,1,0,0:0:0:0:
402,192,161378,1,0,0:0:0:0:
182,192,161435,1,0,0:0:0:0:
329,192,161435,1,0,0:0:0:0:
36,192,161492,1,0,0:0:0:0:
475,192,161492,1,0,0:0:0:0:
109,192,161549,1,0,0:0:0:0:
402,192,161549,1,0,0:0:0:0:
182,192,161606,1,0,0:0:0:0:
329,192,161606,1,0,0:0:0:0:
256,192,161663,1,0,0:0:0:0:
475,192,161663,1,0,0:0:0:0:
402,192,161720,1,0,0:0:0:0:
36,192,161720,1,0,0:0:0:0:
329,192,161778,1,0,0:0:0:0:
109,192,161778,1,0,0:0:0:0:
256,192,161835,1,0,0:0:0:0:
475,192,161835,1,0,0:0:0:0:
182,192,161892,1,0,0:0:0:0:
402,192,161892,1,0,0:0:0:0:
109,192,161949,1,0,0:0:0:0:
329,192,161949,1,0,0:0:0:0:
36,192,162006,1,0,0:0:0:0:
256,192,162006,1,0,0:0:0:0:
475,192,162006,1,0,0:0:0:0:
402,192,162006,1,0,0:0:0:0:
402,192,162178,1,0,0:0:0:0:
36,192,162178,1,0,0:0:0:0:
182,192,162178,1,0,0:0:0:0:
256,192,162178,1,0,0:0:0:0:
36,192,162349,1,0,0:0:0:0:
475,192,162349,1,0,0:0:0:0:
109,192,162349,1,0,0:0:0:0:
329,192,162349,1,0,0:0:0:0:
182,192,162349,1,0,0:0:0:0:
402,192,162520,1,0,0:0:0:0:
109,192,162520,1,0,0:0:0:0:
329,192,162520,1,0,0:0:0:0:
256,192,162520,1,0,0:0:0:0:
36,192,162692,1,0,0:0:0:0:
182,192,162692,1,0,0:0:0:0:
475,192,162692,1,0,0:0:0:0:
402,192,162692,1,0,0:0:0:0:
256,192,162692,1,0,0:0:0:0:
182,192,162863,1,0,0:0:0:0:
475,192,162863,1,0,0:0:0:0:
329,192,162863,1,0,0:0:0:0:
109,192,162863,1,0,0:0:0:0:
36,192,163035,1,0,0:0:0:0:
109,192,163035,1,0,0:0:0:0:
256,192,163035,1,0,0:0:0:0:
402,192,163035,1,0,0:0:0:0:
475,192,163035,1,0,0:0:0:0:
109,192,163206,1,0,0:0:0:0:
256,192,163206,1,0,0:0:0:0:
329,192,163206,1,0,0:0:0:0:
402,192,163206,1,0,0:0:0:0:
36,192,163378,1,0,0:0:0:0:
182,192,163378,1,0,0:0:0:0:
475,192,163378,1,0,0:0:0:0:
329,192,163378,1,0,0:0:0:0:
402,192,163378,1,0,0:0:0:0:
109,192,163549,1,0,0:0:0:0:
182,192,163549,1,0,0:0:0:0:
256,192,163549,1,0,0:0:0:0:
475,192,163549,1,0,0:0:0:0:
109,192,163720,1,0,0:0:0:0:
36,192,163720,1,0,0:0:0:0:
256,192,163720,1,0,0:0:0:0:
329,192,163720,1,0,0:0:0:0:
402,192,163720,1,0,0:0:0:0:
402,192,163892,1,0,0:0:0:0:
475,192,163892,1,0,0:0:0:0:
182,192,163892,1,0,0:0:0:0:
36,192,163892,1,0,0:0:0:0:
109,192,164063,1,0,0:0:0:0:
182,192,164063,1,0,0:0:0:0:
329,192,164063,1,0,0:0:0:0:
475,192,164063,1,0,0:0:0:0:
256,192,164063,1,0,0:0:0:0:
109,192,164235,1,0,0:0:0:0:
36,192,164235,1,0,0:0:0:0:
402,192,164235,1,0,0:0:0:0:
256,192,164235,1,0,0:0:0:0:
36,192,164406,1,0,0:0:0:0:
182,192,164406,1,0,0:0:0:0:
329,192,164406,1,0,0:0:0:0:
475,192,164406,1,0,0:0:0:0:
256,192,164406,1,0,0:0:0:0:
36,192,164578,1,0,0:0:0:0:
475,192,164578,1,0,0:0:0:0:
256,192,164578,1,0,0:0:0:0:
402,192,164578,1,0,0:0:0:0:
109,192,164578,1,0,0:0:0:0:
36,192,164749,1,0,0:0:0:0:
402,192,164749,1,0,0:0:0:0:
475,192,164749,1,0,0:0:0:0:
256,192,164749,1,0,0:0:0:0:
109,192,164835,1,0,0:0:0:0:
182,192,164835,1,0,0:0:0:0:
36,192,164920,1,0,0:0:0:0:
402,192,164920,1,0,0:0:0:0:
475,192,164920,1,0,0:0:0:0:
329,192,164920,1,0,0:0:0:0:
182,192,165006,1,0,0:0:0:0:
256,192,165006,1,0,0:0:0:0:
402,192,165092,1,0,0:0:0:0:
475,192,165092,1,0,0:0:0:0:
109,192,165092,1,0,0:0:0:0:
36,192,165092,1,0,0:0:0:0:
256,192,165178,1,0,0:0:0:0:
329,192,165178,1,0,0:0:0:0:
36,192,165263,1,0,0:0:0:0:
109,192,165263,1,0,0:0:0:0:
182,192,165263,1,0,0:0:0:0:
475,192,165263,1,0,0:0:0:0:
329,192,165349,1,0,0:0:0:0:
402,192,165349,1,0,0:0:0:0:
109,192,165435,1,0,0:0:0:0:
182,192,165435,1,0,0:0:0:0:
256,192,165435,1,0,0:0:0:0:
36,192,165435,1,0,0:0:0:0:
402,192,165520,1,0,0:0:0:0:
475,192,165520,1,0,0:0:0:0:
109,192,165606,1,0,0:0:0:0:
182,192,165606,1,0,0:0:0:0:
256,192,165606,1,0,0:0:0:0:
329,192,165606,1,0,0:0:0:0:
36,192,165692,1,0,0:0:0:0:
475,192,165692,1,0,0:0:0:0:
182,192,165778,1,0,0:0:0:0:
256,192,165778,1,0,0:0:0:0:
402,192,165778,1,0,0:0:0:0:
329,192,165778,1,0,0:0:0:0:
36,192,165863,1,0,0:0:0:0:
109,192,165863,1,0,0:0:0:0:
256,192,165949,1,0,0:0:0:0:
329,192,165949,1,0,0:0:0:0:
402,192,165949,1,0,0:0:0:0:
475,192,165949,1,0,0:0:0:0:
109,192,166035,1,0,0:0:0:0:
182,192,166035,1,0,0:0:0:0:
475,192,166120,128,0,167149:0:0:0:0:
402,192,166120,128,0,166806:0:0:0:0:
329,192,166120,128,0,166463:0:0:0:0:
36,192,166120,1,0,0:0:0:0:
256,192,166463,128,0,167149:0:0:0:0:
36,192,166463,128,0,167406:0:0:0:0:
329,192,166806,128,0,167406:0:0:0:0:
109,192,166806,128,0,167406:0:0:0:0:
402,192,167149,128,0,167406:0:0:0:0:
182,192,167149,128,0,167406:0:0:0:0:
36,192,167492,1,0,0:0:0:0:
475,192,167492,1,0,0:0:0:0:
182,192,167492,1,0,0:0:0:0:
329,192,167492,1,0,0:0:0:0:
36,192,167749,1,0,0:0:0:0:
475,192,167749,1,0,0:0:0:0:
256,192,167749,1,0,0:0:0:0:
109,192,167835,1,0,0:0:0:0:
182,192,167835,1,0,0:0:0:0:
329,192,167835,1,0,0:0:0:0:
402,192,167835,1,0,0:0:0:0:
36,192,168006,1,0,0:0:0:0:
256,192,168006,1,0,0:0:0:0:
475,192,168006,1,0,0:0:0:0:
109,192,168178,1,0,0:0:0:0:
182,192,168178,1,0,0:0:0:0:
329,192,168178,1,0,0:0:0:0:
402,192,168178,1,0,0:0:0:0:
36,192,168349,1,0,0:0:0:0:
256,192,168349,1,0,0:0:0:0:
475,192,168349,1,0,0:0:0:0:
182,192,168520,1,0,0:0:0:0:
109,192,168520,1,0,0:0:0:0:
329,192,168520,1,0,0:0:0:0:
402,192,168520,1,0,0:0:0:0:
182,192,168692,1,0,0:0:0:0:
329,192,168692,1,0,0:0:0:0:
36,192,168863,128,0,168949:0:0:0:0:
475,192,168863,128,0,168949:0:0:0:0:
109,192,168863,1,0,0:0:0:0:
402,192,168863,1,0,0:0:0:0:
182,192,168949,128,0,169035:0:0:0:0:
329,192,168949,128,0,169035:0:0:0:0:
36,192,169035,1,0,0:0:0:0:
475,192,169035,1,0,0:0:0:0:
329,192,169120,1,0,0:0:0:0:
182,192,169120,1,0,0:0:0:0:
402,192,169206,1,0,0:0:0:0:
36,192,169206,1,0,0:0:0:0:
256,192,169206,1,0,0:0:0:0:
475,192,169206,1,0,0:0:0:0:
329,192,169378,1,0,0:0:0:0:
182,192,169378,1,0,0:0:0:0:
109,192,169378,1,0,0:0:0:0:
475,192,169549,1,0,0:0:0:0:
402,192,169549,1,0,0:0:0:0:
36,192,169549,1,0,0:0:0:0:
256,192,169549,1,0,0:0:0:0:
329,192,169720,1,0,0:0:0:0:
182,192,169720,1,0,0:0:0:0:
109,192,169720,1,0,0:0:0:0:
329,192,169806,1,0,0:0:0:0:
182,192,169806,1,0,0:0:0:0:
109,192,169806,1,0,0:0:0:0:
36,192,169892,1,0,0:0:0:0:
256,192,169892,1,0,0:0:0:0:
402,192,169892,1,0,0:0:0:0:
475,192,169892,1,0,0:0:0:0:
329,192,169978,1,0,0:0:0:0:
182,192,169978,1,0,0:0:0:0:
109,192,169978,1,0,0:0:0:0:
36,192,170235,1,0,0:0:0:0:
402,192,170235,1,0,0:0:0:0:
329,192,170235,1,0,0:0:0:0:
182,192,170235,1,0,0:0:0:0:
109,192,170492,1,0,0:0:0:0:
256,192,170492,1,0,0:0:0:0:
475,192,170492,1,0,0:0:0:0:
402,192,170578,1,0,0:0:0:0:
329,192,170578,1,0,0:0:0:0:
182,192,170578,1,0,0:0:0:0:
36,192,170578,1,0,0:0:0:0:
109,192,170749,1,0,0:0:0:0:
256,192,170749,1,0,0:0:0:0:
475,192,170749,1,0,0:0:0:0:
182,192,170920,1,0,0:0:0:0:
36,192,170920,1,0,0:0:0:0:
329,192,170920,1,0,0:0:0:0:
402,192,170920,1,0,0:0:0:0:
109,192,171092,1,0,0:0:0:0:
256,192,171092,1,0,0:0:0:0:
475,192,171092,1,0,0:0:0:0:
475,192,171178,1,0,0:0:0:0:
256,192,171178,1,0,0:0:0:0:
109,192,171178,1,0,0:0:0:0:
182,192,171263,1,0,0:0:0:0:
36,192,171263,1,0,0:0:0:0:
329,192,171263,1,0,0:0:0:0:
402,192,171263,1,0,0:0:0:0:
36,192,171435,1,0,0:0:0:0:
402,192,171435,1,0,0:0:0:0:
109,192,171606,1,0,0:0:0:0:
402,192,171606,1,0,0:0:0:0:
329,192,171606,128,0,171692:0:0:0:0:
182,192,171606,128,0,171692:0:0:0:0:
36,192,171692,128,0,171778:0:0:0:0:
475,192,171692,128,0,171778:0:0:0:0:
329,192,171778,1,0,0:0:0:0:
182,192,171778,1,0,0:0:0:0:
36,192,171863,1,0,0:0:0:0:
475,192,171863,1,0,0:0:0:0:
329,192,171949,1,0,0:0:0:0:
109,192,171949,1,0,0:0:0:0:
402,192,171949,1,0,0:0:0:0:
182,192,171949,1,0,0:0:0:0:
256,192,172120,1,0,0:0:0:0:
36,192,172120,1,0,0:0:0:0:
475,192,172120,1,0,0:0:0:0:
402,192,172292,1,0,0:0:0:0:
109,192,172292,1,0,0:0:0:0:
182,192,172292,1,0,0:0:0:0:
329,192,172292,1,0,0:0:0:0:
36,192,172463,1,0,0:0:0:0:
256,192,172463,1,0,0:0:0:0:
475,192,172463,1,0,0:0:0:0:
36,192,172549,1,0,0:0:0:0:
256,192,172549,1,0,0:0:0:0:
475,192,172549,1,0,0:0:0:0:
402,192,172635,1,0,0:0:0:0:
109,192,172635,1,0,0:0:0:0:
182,192,172635,1,0,0:0:0:0:
329,192,172635,1,0,0:0:0:0:
36,192,172720,1,0,0:0:0:0:
475,192,172720,1,0,0:0:0:0:
329,192,172806,1,0,0:0:0:0:
182,192,172806,1,0,0:0:0:0:
402,192,172892,1,0,0:0:0:0:
109,192,172892,1,0,0:0:0:0:
329,192,172978,1,0,0:0:0:0:
256,192,172978,128,0,173235:0:0:0:0:
36,192,172978,128,0,173235:0:0:0:0:
475,192,172978,128,0,173235:0:0:0:0:
109,192,173235,1,0,0:0:0:0:
182,192,173235,1,0,0:0:0:0:
402,192,173235,1,0,0:0:0:0:
36,192,173320,1,0,0:0:0:0:
256,192,173320,1,0,0:0:0:0:
329,192,173320,1,0,0:0:0:0:
475,192,173320,1,0,0:0:0:0:
182,192,173492,1,0,0:0:0:0:
109,192,173492,1,0,0:0:0:0:
402,192,173492,1,0,0:0:0:0:
36,192,173663,1,0,0:0:0:0:
256,192,173663,1,0,0:0:0:0:
329,192,173663,1,0,0:0:0:0:
475,192,173663,1,0,0:0:0:0:
182,192,173835,1,0,0:0:0:0:
109,192,173835,1,0,0:0:0:0:
402,192,173835,1,0,0:0:0:0:
256,192,174006,1,0,0:0:0:0:
36,192,174006,1,0,0:0:0:0:
329,192,174006,1,0,0:0:0:0:
475,192,174006,1,0,0:0:0:0:
329,192,174178,128,0,174349:0:0:0:0:
182,192,174178,128,0,174349:0:0:0:0:
36,192,174349,128,0,174435:0:0:0:0:
109,192,174349,1,0,0:0:0:0:
475,192,174349,128,0,174435:0:0:0:0:
402,192,174349,1,0,0:0:0:0:
182,192,174435,128,0,174520:0:0:0:0:
329,192,174435,128,0,174520:0:0:0:0:
475,192,174520,1,0,0:0:0:0:
36,192,174520,1,0,0:0:0:0:
182,192,174606,1,0,0:0:0:0:
329,192,174606,1,0,0:0:0:0:
402,192,174692,1,0,0:0:0:0:
256,192,174692,1,0,0:0:0:0:
475,192,174692,1,0,0:0:0:0:
109,192,174692,1,0,0:0:0:0:
329,192,174863,1,0,0:0:0:0:
182,192,174863,1,0,0:0:0:0:
36,192,174863,1,0,0:0:0:0:
475,192,175035,1,0,0:0:0:0:
402,192,175035,1,0,0:0:0:0:
256,192,175035,1,0,0:0:0:0:
109,192,175035,1,0,0:0:0:0:
329,192,175206,1,0,0:0:0:0:
182,192,175206,1,0,0:0:0:0:
36,192,175206,1,0,0:0:0:0:
402,192,175292,1,0,0:0:0:0:
256,192,175292,1,0,0:0:0:0:
329,192,175378,1,0,0:0:0:0:
475,192,175378,1,0,0:0:0:0:
36,192,175378,1,0,0:0:0:0:
182,192,175378,1,0,0:0:0:0:
109,192,175463,1,0,0:0:0:0:
182,192,175635,1,0,0:0:0:0:
36,192,175720,1,0,0:0:0:0:
256,192,175720,1,0,0:0:0:0:
109,192,175720,1,0,0:0:0:0:
402,192,175720,1,0,0:0:0:0:
182,192,175978,1,0,0:0:0:0:
475,192,175978,1,0,0:0:0:0:
329,192,175978,1,0,0:0:0:0:
256,192,176063,1,0,0:0:0:0:
109,192,176063,1,0,0:0:0:0:
36,192,176063,1,0,0:0:0:0:
402,192,176063,1,0,0:0:0:0:
182,192,176235,1,0,0:0:0:0:
329,192,176235,1,0,0:0:0:0:
475,192,176235,1,0,0:0:0:0:
256,192,176406,1,0,0:0:0:0:
402,192,176406,1,0,0:0:0:0:
109,192,176406,1,0,0:0:0:0:
36,192,176406,1,0,0:0:0:0:
182,192,176578,1,0,0:0:0:0:
329,192,176578,1,0,0:0:0:0:
475,192,176578,1,0,0:0:0:0:
182,192,176663,1,0,0:0:0:0:
329,192,176663,1,0,0:0:0:0:
475,192,176663,1,0,0:0:0:0:
402,192,176749,1,0,0:0:0:0:
36,192,176749,128,0,176920:0:0:0:0:
109,192,176749,1,0,0:0:0:0:
256,192,176749,1,0,0:0:0:0:
256,192,176920,128,0,177092:0:0:0:0:
109,192,177092,1,0,0:0:0:0:
402,192,177092,1,0,0:0:0:0:
36,192,177092,128,0,177178:0:0:0:0:
475,192,177092,128,0,177178:0:0:0:0:
182,192,177178,128,0,177263:0:0:0:0:
329,192,177178,128,0,177263:0:0:0:0:
36,192,177263,1,0,0:0:0:0:
475,192,177263,1,0,0:0:0:0:
182,192,177349,1,0,0:0:0:0:
329,192,177349,1,0,0:0:0:0:
36,192,177435,1,0,0:0:0:0:
475,192,177435,1,0,0:0:0:0:
256,192,177435,1,0,0:0:0:0:
402,192,177435,1,0,0:0:0:0:
109,192,177606,1,0,0:0:0:0:
329,192,177606,1,0,0:0:0:0:
182,192,177606,1,0,0:0:0:0:
256,192,177778,1,0,0:0:0:0:
402,192,177778,1,0,0:0:0:0:
36,192,177778,1,0,0:0:0:0:
475,192,177778,1,0,0:0:0:0:
109,192,177949,1,0,0:0:0:0:
182,192,177949,1,0,0:0:0:0:
329,192,177949,1,0,0:0:0:0:
329,192,178035,1,0,0:0:0:0:
182,192,178035,1,0,0:0:0:0:
109,192,178035,1,0,0:0:0:0:
36,192,178120,1,0,0:0:0:0:
402,192,178120,1,0,0:0:0:0:
256,192,178120,128,0,178378:0:0:0:0:
475,192,178120,128,0,178378:0:0:0:0:
109,192,178206,1,0,0:0:0:0:
182,192,178206,1,0,0:0:0:0:
36,192,178292,1,0,0:0:0:0:
329,192,178292,1,0,0:0:0:0:
402,192,178378,1,0,0:0:0:0:
182,192,178378,1,0,0:0:0:0:
475,192,178463,1,0,0:0:0:0:
109,192,178463,1,0,0:0:0:0:
36,192,178463,1,0,0:0:0:0:
329,192,178463,1,0,0:0:0:0:
475,192,178806,1,0,0:0:0:0:
109,192,178806,128,0,178978:0:0:0:0:
256,192,178806,128,0,178978:0:0:0:0:
402,192,178806,1,0,0:0:0:0:
182,192,178978,1,0,0:0:0:0:
329,192,178978,1,0,0:0:0:0:
182,192,179063,1,0,0:0:0:0:
329,192,179063,1,0,0:0:0:0:
109,192,179149,128,0,179235:0:0:0:0:
475,192,179149,1,0,0:0:0:0:
36,192,179149,128,0,179235:0:0:0:0:
402,192,179149,1,0,0:0:0:0:
329,192,179235,1,0,0:0:0:0:
256,192,179235,1,0,0:0:0:0:
182,192,179320,1,0,0:0:0:0:
36,192,179320,1,0,0:0:0:0:
109,192,179492,1,0,0:0:0:0:
36,192,179492,1,0,0:0:0:0:
256,192,179492,1,0,0:0:0:0:
182,192,179492,1,0,0:0:0:0:
475,192,179663,128,0,179835:0:0:0:0:
402,192,179663,128,0,179835:0:0:0:0:
36,192,179835,1,0,0:0:0:0:
109,192,179835,1,0,0:0:0:0:
329,192,179835,1,0,0:0:0:0:
182,192,179835,1,0,0:0:0:0:
256,192,179920,1,0,0:0:0:0:
475,192,179920,1,0,0:0:0:0:
329,192,180006,1,0,0:0:0:0:
109,192,180006,1,0,0:0:0:0:
256,192,180092,1,0,0:0:0:0:
402,192,180092,1,0,0:0:0:0:
475,192,180092,1,0,0:0:0:0:
36,192,180178,1,0,0:0:0:0:
182,192,180178,1,0,0:0:0:0:
109,192,180178,1,0,0:0:0:0:
329,192,180178,1,0,0:0:0:0:
256,192,180349,1,0,0:0:0:0:
402,192,180349,1,0,0:0:0:0:
475,192,180349,1,0,0:0:0:0:
329,192,180520,1,0,0:0:0:0:
182,192,180520,1,0,0:0:0:0:
109,192,180520,1,0,0:0:0:0:
36,192,180520,1,0,0:0:0:0:
402,192,180606,1,0,0:0:0:0:
475,192,180606,1,0,0:0:0:0:
256,192,180692,1,0,0:0:0:0:
109,192,180692,1,0,0:0:0:0:
36,192,180692,1,0,0:0:0:0:
256,192,180778,1,0,0:0:0:0:
109,192,180778,1,0,0:0:0:0:
36,192,180778,1,0,0:0:0:0:
182,192,180863,1,0,0:0:0:0:
329,192,180863,1,0,0:0:0:0:
402,192,180863,1,0,0:0:0:0:
475,192,180863,1,0,0:0:0:0:
36,192,180949,1,0,0:0:0:0:
329,192,181035,1,0,0:0:0:0:
256,192,181078,1,0,0:0:0:0:
182,192,181120,1,0,0:0:0:0:
109,192,181163,1,0,0:0:0:0:
36,192,181206,1,0,0:0:0:0:
402,192,181206,1,0,0:0:0:0:
475,192,181206,1,0,0:0:0:0:
329,192,181206,1,0,0:0:0:0:
256,192,181463,1,0,0:0:0:0:
182,192,181463,1,0,0:0:0:0:
109,192,181463,1,0,0:0:0:0:
329,192,181549,1,0,0:0:0:0:
402,192,181549,1,0,0:0:0:0:
475,192,181549,1,0,0:0:0:0:
36,192,181549,1,0,0:0:0:0:
256,192,181720,1,0,0:0:0:0:
182,192,181720,1,0,0:0:0:0:
109,192,181720,1,0,0:0:0:0:
36,192,181892,1,0,0:0:0:0:
329,192,181892,1,0,0:0:0:0:
402,192,181892,1,0,0:0:0:0:
475,192,181892,1,0,0:0:0:0:
256,192,182063,1,0,0:0:0:0:
182,192,182063,1,0,0:0:0:0:
109,192,182063,1,0,0:0:0:0:
256,192,182149,1,0,0:0:0:0:
182,192,182149,1,0,0:0:0:0:
109,192,182149,1,0,0:0:0:0:
36,192,182235,1,0,0:0:0:0:
402,192,182235,1,0,0:0:0:0:
475,192,182235,1,0,0:0:0:0:
329,192,182235,128,0,182406:0:0:0:0:
182,192,182320,128,0,182492:0:0:0:0:
256,192,182406,128,0,182578:0:0:0:0:
329,192,182492,128,0,182578:0:0:0:0:
402,192,182578,1,0,0:0:0:0:
475,192,182578,1,0,0:0:0:0:
36,192,182578,1,0,0:0:0:0:
182,192,182578,1,0,0:0:0:0:
109,192,182663,1,0,0:0:0:0:
256,192,182663,1,0,0:0:0:0:
182,192,182749,1,0,0:0:0:0:
329,192,182749,1,0,0:0:0:0:
475,192,182835,1,0,0:0:0:0:
109,192,182835,1,0,0:0:0:0:
402,192,182835,1,0,0:0:0:0:
36,192,182920,1,0,0:0:0:0:
182,192,182920,1,0,0:0:0:0:
256,192,182920,1,0,0:0:0:0:
329,192,182920,1,0,0:0:0:0:
109,192,183092,1,0,0:0:0:0:
402,192,183092,1,0,0:0:0:0:
475,192,183092,1,0,0:0:0:0:
329,192,183263,1,0,0:0:0:0:
256,192,183263,1,0,0:0:0:0:
182,192,183263,1,0,0:0:0:0:
36,192,183263,1,0,0:0:0:0:
475,192,183349,1,0,0:0:0:0:
36,192,183435,1,0,0:0:0:0:
256,192,183435,1,0,0:0:0:0:
109,192,183520,1,0,0:0:0:0:
329,192,183520,1,0,0:0:0:0:
182,192,183606,1,0,0:0:0:0:
256,192,183606,1,0,0:0:0:0:
475,192,183606,1,0,0:0:0:0:
402,192,183606,1,0,0:0:0:0:
36,192,183692,1,0,0:0:0:0:
109,192,183692,1,0,0:0:0:0:
256,192,183778,1,0,0:0:0:0:
475,192,183778,1,0,0:0:0:0:
402,192,183863,1,0,0:0:0:0:
182,192,183863,1,0,0:0:0:0:
109,192,183949,1,0,0:0:0:0:
36,192,183949,1,0,0:0:0:0:
329,192,183949,1,0,0:0:0:0:
475,192,184035,1,0,0:0:0:0:
109,192,184120,1,0,0:0:0:0:
36,192,184120,1,0,0:0:0:0:
256,192,184120,1,0,0:0:0:0:
402,192,184206,1,0,0:0:0:0:
36,192,184292,1,0,0:0:0:0:
109,192,184292,1,0,0:0:0:0:
182,192,184292,1,0,0:0:0:0:
475,192,184378,1,0,0:0:0:0:
36,192,184463,1,0,0:0:0:0:
109,192,184463,1,0,0:0:0:0:
402,192,184463,1,0,0:0:0:0:
329,192,184549,1,0,0:0:0:0:
109,192,184635,1,0,0:0:0:0:
36,192,184635,1,0,0:0:0:0:
256,192,184635,1,0,0:0:0:0:
402,192,184720,1,0,0:0:0:0:
36,192,184806,1,0,0:0:0:0:
109,192,184806,1,0,0:0:0:0:
475,192,184806,1,0,0:0:0:0:
329,192,184892,1,0,0:0:0:0:
36,192,184978,1,0,0:0:0:0:
109,192,184978,1,0,0:0:0:0:
182,192,184978,1,0,0:0:0:0:
402,192,185063,1,0,0:0:0:0:
109,192,185149,1,0,0:0:0:0:
36,192,185149,1,0,0:0:0:0:
256,192,185149,1,0,0:0:0:0:
402,192,185320,1,0,0:0:0:0:
475,192,185320,1,0,0:0:0:0:
182,192,185320,1,0,0:0:0:0:
36,192,185406,1,0,0:0:0:0:
402,192,185492,1,0,0:0:0:0:
475,192,185492,1,0,0:0:0:0:
109,192,185492,1,0,0:0:0:0:
182,192,185578,1,0,0:0:0:0:
475,192,185663,1,0,0:0:0:0:
402,192,185663,1,0,0:0:0:0:
329,192,185663,1,0,0:0:0:0:
182,192,185749,1,0,0:0:0:0:
402,192,185835,1,0,0:0:0:0:
475,192,185835,1,0,0:0:0:0:
36,192,185835,1,0,0:0:0:0:
256,192,185920,1,0,0:0:0:0:
475,192,186006,1,0,0:0:0:0:
402,192,186006,1,0,0:0:0:0:
109,192,186006,1,0,0:0:0:0:
329,192,186092,1,0,0:0:0:0:
402,192,186178,1,0,0:0:0:0:
475,192,186178,1,0,0:0:0:0:
182,192,186178,1,0,0:0:0:0:
36,192,186263,1,0,0:0:0:0:
475,192,186349,1,0,0:0:0:0:
402,192,186349,1,0,0:0:0:0:
109,192,186349,1,0,0:0:0:0:
256,192,186349,1,0,0:0:0:0:
329,192,186435,1,0,0:0:0:0:
402,192,186520,1,0,0:0:0:0:
475,192,186520,1,0,0:0:0:0:
36,192,186520,1,0,0:0:0:0:
182,192,186606,1,0,0:0:0:0:
36,192,186692,1,0,0:0:0:0:
109,192,186692,1,0,0:0:0:0:
256,192,186778,1,0,0:0:0:0:
329,192,186778,1,0,0:0:0:0:
109,192,186863,1,0,0:0:0:0:
182,192,186863,1,0,0:0:0:0:
402,192,186949,1,0,0:0:0:0:
475,192,186949,1,0,0:0:0:0:
329,192,187035,1,0,0:0:0:0:
256,192,187035,1,0,0:0:0:0:
36,192,187035,1,0,0:0:0:0:
182,192,187120,1,0,0:0:0:0:
109,192,187120,1,0,0:0:0:0:
402,192,187206,1,0,0:0:0:0:
475,192,187206,1,0,0:0:0:0:
109,192,187292,1,0,0:0:0:0:
182,192,187292,1,0,0:0:0:0:
329,192,187378,1,0,0:0:0:0:
402,192,187378,1,0,0:0:0:0:
36,192,187463,1,0,0:0:0:0:
109,192,187463,1,0,0:0:0:0:
182,192,187549,1,0,0:0:0:0:
256,192,187549,1,0,0:0:0:0:
402,192,187635,1,0,0:0:0:0:
475,192,187635,1,0,0:0:0:0:
109,192,187720,1,0,0:0:0:0:
329,192,187720,1,0,0:0:0:0:
36,192,187720,1,0,0:0:0:0:
475,192,187806,1,0,0:0:0:0:
402,192,187806,1,0,0:0:0:0:
182,192,187892,1,0,0:0:0:0:
256,192,187892,1,0,0:0:0:0:
36,192,187978,1,0,0:0:0:0:
109,192,187978,1,0,0:0:0:0:
402,192,188063,128,0,188749:0:0:0:0:
329,192,188063,128,0,188406:0:0:0:0:
475,192,188063,1,0,0:0:0:0:
182,192,188149,1,0,0:0:0:0:
36,192,188235,1,0,0:0:0:0:
109,192,188320,1,0,0:0:0:0:
256,192,188406,1,0,0:0:0:0:
475,192,188406,1,0,0:0:0:0:
182,192,188578,1,0,0:0:0:0:
36,192,188749,128,0,189092:0:0:0:0:
475,192,188749,128,0,189092:0:0:0:0:
256,192,188920,1,0,0:0:0:0:
329,192,189006,1,0,0:0:0:0:
109,192,189092,128,0,189435:0:0:0:0:
402,192,189092,128,0,189435:0:0:0:0:
256,192,189263,128,0,189435:0:0:0:0:
36,192,189435,1,0,0:0:0:0:
182,192,189435,1,0,0:0:0:0:
329,192,189435,1,0,0:0:0:0:
475,192,189435,1,0,0:0:0:0:
256,192,189606,1,0,0:0:0:0:
402,192,189606,1,0,0:0:0:0:
36,192,189692,1,0,0:0:0:0:
109,192,189692,1,0,0:0:0:0:
329,192,189692,1,0,0:0:0:0:
182,192,189778,1,0,0:0:0:0:
256,192,189778,1,0,0:0:0:0:
402,192,189778,1,0,0:0:0:0:
475,192,189778,1,0,0:0:0:0:
109,192,189949,1,0,0:0:0:0:
182,192,189949,1,0,0:0:0:0:
329,192,189949,1,0,0:0:0:0:
36,192,190120,1,0,0:0:0:0:
256,192,190120,1,0,0:0:0:0:
402,192,190120,1,0,0:0:0:0:
475,192,190120,1,0,0:0:0:0:
182,192,190292,1,0,0:0:0:0:
329,192,190292,1,0,0:0:0:0:
402,192,190292,1,0,0:0:0:0:
256,192,190463,1,0,0:0:0:0:
109,192,190463,1,0,0:0:0:0:
36,192,190463,1,0,0:0:0:0:
475,192,190463,1,0,0:0:0:0:
329,192,190635,1,0,0:0:0:0:
182,192,190635,1,0,0:0:0:0:
256,192,190720,1,0,0:0:0:0:
402,192,190720,1,0,0:0:0:0:
109,192,190806,1,0,0:0:0:0:
329,192,190806,1,0,0:0:0:0:
475,192,190806,1,0,0:0:0:0:
36,192,190806,128,0,190978:0:0:0:0:
182,192,190892,128,0,191063:0:0:0:0:
402,192,190978,1,0,0:0:0:0:
475,192,190978,1,0,0:0:0:0:
256,192,191063,1,0,0:0:0:0:
329,192,191063,1,0,0:0:0:0:
182,192,191149,1,0,0:0:0:0:
402,192,191149,1,0,0:0:0:0:
475,192,191149,1,0,0:0:0:0:
36,192,191149,1,0,0:0:0:0:
256,192,191235,1,0,0:0:0:0:
109,192,191320,1,0,0:0:0:0:
182,192,191320,1,0,0:0:0:0:
329,192,191320,1,0,0:0:0:0:
36,192,191492,1,0,0:0:0:0:
256,192,191492,1,0,0:0:0:0:
402,192,191492,1,0,0:0:0:0:
475,192,191492,1,0,0:0:0:0:
475,192,191663,1,0,0:0:0:0:
256,192,191663,1,0,0:0:0:0:
36,192,191663,1,0,0:0:0:0:
329,192,191749,1,0,0:0:0:0:
109,192,191749,1,0,0:0:0:0:
182,192,191749,1,0,0:0:0:0:
475,192,191835,1,0,0:0:0:0:
402,192,191835,1,0,0:0:0:0:
256,192,191835,1,0,0:0:0:0:
36,192,191835,1,0,0:0:0:0:
329,192,191920,1,0,0:0:0:0:
182,192,191920,1,0,0:0:0:0:
109,192,191920,1,0,0:0:0:0:
402,192,192006,1,0,0:0:0:0:
475,192,192092,1,0,0:0:0:0:
36,192,192178,1,0,0:0:0:0:
109,192,192178,1,0,0:0:0:0:
329,192,192178,1,0,0:0:0:0:
182,192,192178,1,0,0:0:0:0:
256,192,192349,1,0,0:0:0:0:
475,192,192349,1,0,0:0:0:0:
109,192,192435,1,0,0:0:0:0:
182,192,192435,1,0,0:0:0:0:
329,192,192435,1,0,0:0:0:0:
256,192,192520,1,0,0:0:0:0:
475,192,192520,1,0,0:0:0:0:
402,192,192520,1,0,0:0:0:0:
36,192,192520,1,0,0:0:0:0:
109,192,192692,1,0,0:0:0:0:
329,192,192692,1,0,0:0:0:0:
402,192,192692,1,0,0:0:0:0:
182,192,192863,1,0,0:0:0:0:
256,192,192863,1,0,0:0:0:0:
475,192,192863,1,0,0:0:0:0:
36,192,192863,1,0,0:0:0:0:
402,192,193035,1,0,0:0:0:0:
475,192,193035,1,0,0:0:0:0:
182,192,193035,1,0,0:0:0:0:
36,192,193120,1,0,0:0:0:0:
109,192,193120,1,0,0:0:0:0:
256,192,193120,1,0,0:0:0:0:
182,192,193206,1,0,0:0:0:0:
329,192,193206,1,0,0:0:0:0:
402,192,193206,1,0,0:0:0:0:
475,192,193206,1,0,0:0:0:0:
36,192,193292,1,0,0:0:0:0:
402,192,193378,1,0,0:0:0:0:
182,192,193378,1,0,0:0:0:0:
329,192,193463,1,0,0:0:0:0:
109,192,193463,1,0,0:0:0:0:
256,192,193549,1,0,0:0:0:0:
36,192,193549,1,0,0:0:0:0:
475,192,193549,128,0,193720:0:0:0:0:
182,192,193549,1,0,0:0:0:0:
329,192,193635,128,0,193806:0:0:0:0:
36,192,193720,1,0,0:0:0:0:
109,192,193720,1,0,0:0:0:0:
182,192,193806,1,0,0:0:0:0:
256,192,193806,1,0,0:0:0:0:
36,192,193892,1,0,0:0:0:0:
109,192,193892,1,0,0:0:0:0:
329,192,193892,1,0,0:0:0:0:
475,192,193892,1,0,0:0:0:0:
182,192,194063,1,0,0:0:0:0:
329,192,194063,1,0,0:0:0:0:
475,192,194063,1,0,0:0:0:0:
256,192,194235,1,0,0:0:0:0:
402,192,194235,1,0,0:0:0:0:
109,192,194235,1,0,0:0:0:0:
36,192,194235,1,0,0:0:0:0:
182,192,194406,1,0,0:0:0:0:
475,192,194406,1,0,0:0:0:0:
402,192,194406,1,0,0:0:0:0:
109,192,194492,1,0,0:0:0:0:
329,192,194492,1,0,0:0:0:0:
36,192,194492,1,0,0:0:0:0:
182,192,194578,1,0,0:0:0:0:
256,192,194578,1,0,0:0:0:0:
402,192,194578,1,0,0:0:0:0:
475,192,194578,1,0,0:0:0:0:
36,192,194663,1,0,0:0:0:0:
109,192,194663,1,0,0:0:0:0:
256,192,194749,1,0,0:0:0:0:
402,192,194749,1,0,0:0:0:0:
182,192,194835,1,0,0:0:0:0:
329,192,194835,1,0,0:0:0:0:
36,192,194920,1,0,0:0:0:0:
109,192,194920,1,0,0:0:0:0:
475,192,194920,1,0,0:0:0:0:
256,192,194920,1,0,0:0:0:0:
182,192,195092,1,0,0:0:0:0:
402,192,195092,1,0,0:0:0:0:
109,192,195178,1,0,0:0:0:0:
256,192,195178,1,0,0:0:0:0:
329,192,195178,1,0,0:0:0:0:
36,192,195263,1,0,0:0:0:0:
182,192,195263,1,0,0:0:0:0:
402,192,195263,1,0,0:0:0:0:
475,192,195263,1,0,0:0:0:0:
109,192,195435,1,0,0:0:0:0:
329,192,195435,1,0,0:0:0:0:
475,192,195435,1,0,0:0:0:0:
36,192,195606,1,0,0:0:0:0:
182,192,195606,1,0,0:0:0:0:
256,192,195606,1,0,0:0:0:0:
402,192,195606,1,0,0:0:0:0:
109,192,195778,1,0,0:0:0:0:
475,192,195778,1,0,0:0:0:0:
256,192,195778,1,0,0:0:0:0:
182,192,195949,1,0,0:0:0:0:
329,192,195949,1,0,0:0:0:0:
402,192,195949,1,0,0:0:0:0:
36,192,195949,1,0,0:0:0:0:
109,192,196120,1,0,0:0:0:0:
256,192,196120,1,0,0:0:0:0:
182,192,196206,1,0,0:0:0:0:
329,192,196206,1,0,0:0:0:0:
402,192,196292,1,0,0:0:0:0:
475,192,196292,1,0,0:0:0:0:
109,192,196292,1,0,0:0:0:0:
36,192,196292,128,0,196463:0:0:0:0:
256,192,196378,128,0,196549:0:0:0:0:
402,192,196463,1,0,0:0:0:0:
475,192,196463,1,0,0:0:0:0:
329,192,196549,1,0,0:0:0:0:
182,192,196549,1,0,0:0:0:0:
402,192,196635,1,0,0:0:0:0:
475,192,196635,1,0,0:0:0:0:
109,192,196635,1,0,0:0:0:0:
36,192,196635,1,0,0:0:0:0:
109,192,196806,1,0,0:0:0:0:
182,192,196806,1,0,0:0:0:0:
329,192,196806,1,0,0:0:0:0:
256,192,196978,1,0,0:0:0:0:
402,192,196978,1,0,0:0:0:0:
475,192,196978,1,0,0:0:0:0:
36,192,196978,1,0,0:0:0:0:
329,192,197063,1,0,0:0:0:0:
182,192,197063,1,0,0:0:0:0:
36,192,197149,1,0,0:0:0:0:
256,192,197149,1,0,0:0:0:0:
109,192,197149,1,0,0:0:0:0:
475,192,197235,1,0,0:0:0:0:
402,192,197235,1,0,0:0:0:0:
182,192,197235,1,0,0:0:0:0:
36,192,197320,1,0,0:0:0:0:
109,192,197320,1,0,0:0:0:0:
256,192,197320,1,0,0:0:0:0:
329,192,197320,1,0,0:0:0:0:
402,192,197406,1,0,0:0:0:0:
475,192,197406,1,0,0:0:0:0:
256,192,197492,1,0,0:0:0:0:
109,192,197492,1,0,0:0:0:0:
182,192,197578,1,0,0:0:0:0:
329,192,197578,1,0,0:0:0:0:
475,192,197663,1,0,0:0:0:0:
402,192,197663,1,0,0:0:0:0:
256,192,197663,1,0,0:0:0:0:
36,192,197663,1,0,0:0:0:0:
109,192,197835,1,0,0:0:0:0:
329,192,197835,1,0,0:0:0:0:
182,192,197920,1,0,0:0:0:0:
256,192,197920,1,0,0:0:0:0:
402,192,197920,1,0,0:0:0:0:
36,192,198006,1,0,0:0:0:0:
109,192,198006,1,0,0:0:0:0:
329,192,198006,1,0,0:0:0:0:
475,192,198006,1,0,0:0:0:0:
475,192,198178,1,0,0:0:0:0:
402,192,198178,1,0,0:0:0:0:
182,192,198178,1,0,0:0:0:0:
36,192,198349,1,0,0:0:0:0:
109,192,198349,1,0,0:0:0:0:
256,192,198349,1,0,0:0:0:0:
329,192,198349,1,0,0:0:0:0:
109,192,198520,1,0,0:0:0:0:
182,192,198520,1,0,0:0:0:0:
402,192,198520,1,0,0:0:0:0:
256,192,198606,1,0,0:0:0:0:
329,192,198606,1,0,0:0:0:0:
475,192,198606,1,0,0:0:0:0:
36,192,198692,1,0,0:0:0:0:
109,192,198692,1,0,0:0:0:0:
182,192,198692,1,0,0:0:0:0:
402,192,198692,1,0,0:0:0:0:
256,192,198778,1,0,0:0:0:0:
329,192,198863,1,0,0:0:0:0:
475,192,198863,1,0,0:0:0:0:
109,192,198949,1,0,0:0:0:0:
36,192,199035,1,0,0:0:0:0:
256,192,199035,1,0,0:0:0:0:
475,192,199035,1,0,0:0:0:0:
182,192,199035,128,0,199206:0:0:0:0:
329,192,199120,128,0,199292:0:0:0:0:
36,192,199206,1,0,0:0:0:0:
109,192,199206,1,0,0:0:0:0:
182,192,199292,1,0,0:0:0:0:
256,192,199292,1,0,0:0:0:0:
36,192,199378,1,0,0:0:0:0:
109,192,199378,1,0,0:0:0:0:
402,192,199378,1,0,0:0:0:0:
475,192,199378,1,0,0:0:0:0:
256,192,199463,1,0,0:0:0:0:
329,192,199463,1,0,0:0:0:0:
36,192,199549,1,0,0:0:0:0:
182,192,199549,1,0,0:0:0:0:
329,192,199720,1,0,0:0:0:0:
402,192,199720,1,0,0:0:0:0:
475,192,199720,1,0,0:0:0:0:
109,192,199720,1,0,0:0:0:0:
256,192,199892,1,0,0:0:0:0:
402,192,199892,1,0,0:0:0:0:
36,192,199892,1,0,0:0:0:0:
182,192,199978,1,0,0:0:0:0:
109,192,199978,1,0,0:0:0:0:
329,192,199978,1,0,0:0:0:0:
36,192,200063,1,0,0:0:0:0:
475,192,200063,1,0,0:0:0:0:
256,192,200149,1,0,0:0:0:0:
402,192,200149,1,0,0:0:0:0:
109,192,200235,1,0,0:0:0:0:
329,192,200235,1,0,0:0:0:0:
182,192,200320,1,0,0:0:0:0:
475,192,200320,1,0,0:0:0:0:
256,192,200406,1,0,0:0:0:0:
402,192,200406,1,0,0:0:0:0:
109,192,200406,1,0,0:0:0:0:
36,192,200406,128,0,201778:0:0:0:0:
329,192,200578,1,0,0:0:0:0:
475,192,200578,1,0,0:0:0:0:
402,192,200663,1,0,0:0:0:0:
182,192,200663,1,0,0:0:0:0:
256,192,200749,1,0,0:0:0:0:
475,192,200749,1,0,0:0:0:0:
256,192,200920,1,0,0:0:0:0:
402,192,200920,1,0,0:0:0:0:
329,192,201092,128,0,201263:0:0:0:0:
402,192,201092,1,0,0:0:0:0:
475,192,201263,128,0,201435:0:0:0:0:
256,192,201263,1,0,0:0:0:0:
109,192,201435,1,0,0:0:0:0:
329,192,201435,1,0,0:0:0:0:
256,192,201606,1,0,0:0:0:0:
475,192,201606,1,0,0:0:0:0:
182,192,201778,1,0,0:0:0:0:
329,192,201778,1,0,0:0:0:0:
402,192,201892,1,0,0:0:0:0:
256,192,201949,1,0,0:0:0:0:
475,192,201949,1,0,0:0:0:0:
329,192,202035,1,0,0:0:0:0:
182,192,202035,1,0,0:0:0:0:
402,192,202120,1,0,0:0:0:0:
36,192,202120,1,0,0:0:0:0:
109,192,202120,1,0,0:0:0:0:
256,192,202292,1,0,0:0:0:0:
475,192,202292,1,0,0:0:0:0:
182,192,202378,1,0,0:0:0:0:
402,192,202378,1,0,0:0:0:0:
109,192,202463,1,0,0:0:0:0:
329,192,202463,1,0,0:0:0:0:
36,192,202463,1,0,0:0:0:0:
402,192,202635,1,0,0:0:0:0:
109,192,202635,1,0,0:0:0:0:
475,192,202720,1,0,0:0:0:0:
182,192,202720,1,0,0:0:0:0:
36,192,202806,1,0,0:0:0:0:
182,192,202978,1,0,0:0:0:0:
402,192,202978,1,0,0:0:0:0:
256,192,203149,1,0,0:0:0:0:
475,192,203149,1,0,0:0:0:0:
36,192,203149,1,0,0:0:0:0:
329,192,203320,1,0,0:0:0:0:
475,192,203320,1,0,0:0:0:0:
402,192,203406,1,0,0:0:0:0:
256,192,203406,1,0,0:0:0:0:
36,192,203492,1,0,0:0:0:0:
182,192,203492,1,0,0:0:0:0:
329,192,203492,1,0,0:0:0:0:
402,192,203663,1,0,0:0:0:0:
109,192,203663,1,0,0:0:0:0:
475,192,203749,1,0,0:0:0:0:
256,192,203749,1,0,0:0:0:0:
36,192,203835,1,0,0:0:0:0:
329,192,203835,1,0,0:0:0:0:
182,192,203835,128,0,204006:0:0:0:0:
256,192,204006,1,0,0:0:0:0:
475,192,204006,1,0,0:0:0:0:
36,192,204092,1,0,0:0:0:0:
329,192,204092,1,0,0:0:0:0:
182,192,204178,1,0,0:0:0:0:
475,192,204178,1,0,0:0:0:0:
402,192,204178,1,0,0:0:0:0:
329,192,204349,1,0,0:0:0:0:
402,192,204349,1,0,0:0:0:0:
329,192,204520,1,0,0:0:0:0:
256,192,204520,1,0,0:0:0:0:
109,192,204520,1,0,0:0:0:0:
402,192,204635,1,0,0:0:0:0:
475,192,204692,1,0,0:0:0:0:
256,192,204692,1,0,0:0:0:0:
329,192,204778,1,0,0:0:0:0:
36,192,204778,1,0,0:0:0:0:
182,192,204863,1,0,0:0:0:0:
402,192,204863,1,0,0:0:0:0:
475,192,204863,1,0,0:0:0:0:
36,192,205035,1,0,0:0:0:0:
256,192,205035,1,0,0:0:0:0:
109,192,205120,1,0,0:0:0:0:
329,192,205120,1,0,0:0:0:0:
402,192,205206,1,0,0:0:0:0:
475,192,205206,1,0,0:0:0:0:
182,192,205206,128,0,205549:0:0:0:0:
36,192,205378,1,0,0:0:0:0:
402,192,205378,1,0,0:0:0:0:
475,192,205463,1,0,0:0:0:0:
329,192,205463,1,0,0:0:0:0:
256,192,205549,128,0,205720:0:0:0:0:
109,192,205549,1,0,0:0:0:0:
402,192,205720,128,0,205892:0:0:0:0:
36,192,205720,1,0,0:0:0:0:
109,192,205806,1,0,0:0:0:0:
256,192,205806,1,0,0:0:0:0:
329,192,205892,128,0,205978:0:0:0:0:
475,192,205892,128,0,205978:0:0:0:0:
182,192,205892,128,0,205978:0:0:0:0:
36,192,205892,128,0,205978:0:0:0:0:
475,192,206063,128,0,206149:0:0:0:0:
329,192,206063,128,0,206149:0:0:0:0:
109,192,206063,128,0,206149:0:0:0:0:
182,192,206063,128,0,206149:0:0:0:0:
329,192,206235,128,0,206320:0:0:0:0:
475,192,206235,128,0,206320:0:0:0:0:
256,192,206235,128,0,206320:0:0:0:0:
109,192,206235,128,0,206320:0:0:0:0:
329,192,206406,128,0,206492:0:0:0:0:
475,192,206406,128,0,206492:0:0:0:0:
36,192,206406,128,0,206492:0:0:0:0:
182,192,206406,128,0,206492:0:0:0:0:
329,192,206578,128,0,206663:0:0:0:0:
475,192,206578,128,0,206663:0:0:0:0:
109,192,206578,128,0,206663:0:0:0:0:
256,192,206578,128,0,206663:0:0:0:0:
329,192,206749,128,0,206835:0:0:0:0:
475,192,206749,128,0,206835:0:0:0:0:
182,192,206749,128,0,206835:0:0:0:0:
36,192,206749,128,0,206835:0:0:0:0:
329,192,206920,128,0,207006:0:0:0:0:
475,192,206920,128,0,207006:0:0:0:0:
256,192,206920,128,0,207006:0:0:0:0:
109,192,206920,128,0,207006:0:0:0:0:
329,192,207092,128,0,207178:0:0:0:0:
475,192,207092,128,0,207178:0:0:0:0:
36,192,207092,128,0,207178:0:0:0:0:
109,192,207092,128,0,207178:0:0:0:0:
36,192,207263,128,0,207349:0:0:0:0:
182,192,207263,128,0,207349:0:0:0:0:
402,192,207263,128,0,207349:0:0:0:0:
256,192,207263,128,0,207349:0:0:0:0:
36,192,207435,128,0,207520:0:0:0:0:
182,192,207435,128,0,207520:0:0:0:0:
329,192,207435,128,0,207520:0:0:0:0:
402,192,207435,128,0,207520:0:0:0:0:
182,192,207606,128,0,207692:0:0:0:0:
36,192,207606,128,0,207692:0:0:0:0:
329,192,207606,128,0,207692:0:0:0:0:
475,192,207606,128,0,207692:0:0:0:0:
182,192,207778,128,0,207863:0:0:0:0:
36,192,207778,128,0,207863:0:0:0:0:
402,192,207778,128,0,207863:0:0:0:0:
256,192,207778,128,0,207863:0:0:0:0:
182,192,207949,128,0,208035:0:0:0:0:
36,192,207949,128,0,208035:0:0:0:0:
329,192,207949,128,0,208035:0:0:0:0:
475,192,207949,128,0,208035:0:0:0:0:
182,192,208120,128,0,208206:0:0:0:0:
36,192,208120,128,0,208206:0:0:0:0:
329,192,208120,128,0,208206:0:0:0:0:
402,192,208120,128,0,208206:0:0:0:0:
36,192,208292,128,0,208378:0:0:0:0:
182,192,208292,128,0,208378:0:0:0:0:
402,192,208292,128,0,208378:0:0:0:0:
256,192,208292,128,0,208378:0:0:0:0:
36,192,208463,128,0,208549:0:0:0:0:
182,192,208463,128,0,208549:0:0:0:0:
475,192,208463,128,0,208549:0:0:0:0:
329,192,208463,128,0,208549:0:0:0:0:
36,192,208635,1,0,0:0:0:0:
329,192,208635,1,0,0:0:0:0:
475,192,208720,1,0,0:0:0:0:
256,192,208720,1,0,0:0:0:0:
109,192,208806,1,0,0:0:0:0:
402,192,208806,1,0,0:0:0:0:
36,192,208892,1,0,0:0:0:0:
182,192,208892,1,0,0:0:0:0:
329,192,208978,1,0,0:0:0:0:
475,192,208978,1,0,0:0:0:0:
256,192,208978,1,0,0:0:0:0:
36,192,209063,1,0,0:0:0:0:
109,192,209063,1,0,0:0:0:0:
182,192,209149,1,0,0:0:0:0:
402,192,209149,1,0,0:0:0:0:
256,192,209235,1,0,0:0:0:0:
475,192,209235,1,0,0:0:0:0:
36,192,209320,1,0,0:0:0:0:
109,192,209320,1,0,0:0:0:0:
402,192,209320,1,0,0:0:0:0:
182,192,209406,1,0,0:0:0:0:
329,192,209406,1,0,0:0:0:0:
36,192,209492,1,0,0:0:0:0:
256,192,209492,1,0,0:0:0:0:
109,192,209578,1,0,0:0:0:0:
329,192,209578,1,0,0:0:0:0:
182,192,209663,1,0,0:0:0:0:
402,192,209663,1,0,0:0:0:0:
475,192,209663,1,0,0:0:0:0:
36,192,209749,1,0,0:0:0:0:
256,192,209749,1,0,0:0:0:0:
109,192,209835,1,0,0:0:0:0:
402,192,209835,1,0,0:0:0:0:
329,192,209920,1,0,0:0:0:0:
182,192,209920,1,0,0:0:0:0:
36,192,210006,1,0,0:0:0:0:
402,192,210006,1,0,0:0:0:0:
109,192,210006,1,0,0:0:0:0:
475,192,210006,1,0,0:0:0:0:
329,192,210092,1,0,0:0:0:0:
182,192,210092,1,0,0:0:0:0:
256,192,210092,1,0,0:0:0:0:
36,192,210178,1,0,0:0:0:0:
402,192,210178,1,0,0:0:0:0:
475,192,210178,1,0,0:0:0:0:
256,192,210263,1,0,0:0:0:0:
109,192,210263,1,0,0:0:0:0:
182,192,210263,1,0,0:0:0:0:
402,192,210349,1,0,0:0:0:0:
475,192,210349,1,0,0:0:0:0:
329,192,210349,1,0,0:0:0:0:
109,192,210435,1,0,0:0:0:0:
182,192,210435,1,0,0:0:0:0:
36,192,210435,1,0,0:0:0:0:
402,192,210520,1,0,0:0:0:0:
475,192,210520,1,0,0:0:0:0:
329,192,210520,1,0,0:0:0:0:
36,192,210606,1,0,0:0:0:0:
109,192,210606,1,0,0:0:0:0:
182,192,210606,1,0,0:0:0:0:
256,192,210692,1,0,0:0:0:0:
475,192,210692,1,0,0:0:0:0:
402,192,210692,1,0,0:0:0:0:
109,192,210778,1,0,0:0:0:0:
36,192,210778,1,0,0:0:0:0:
329,192,210778,1,0,0:0:0:0:
182,192,210863,1,0,0:0:0:0:
475,192,210863,1,0,0:0:0:0:
402,192,210863,1,0,0:0:0:0:
109,192,210949,1,0,0:0:0:0:
256,192,210949,1,0,0:0:0:0:
329,192,210949,1,0,0:0:0:0:
36,192,211035,1,0,0:0:0:0:
182,192,211035,1,0,0:0:0:0:
475,192,211035,1,0,0:0:0:0:
402,192,211035,1,0,0:0:0:0:
36,192,211378,1,0,0:0:0:0:
402,192,211378,1,0,0:0:0:0:
182,192,211378,128,0,211463:0:0:0:0:
475,192,211378,128,0,211549:0:0:0:0:
256,192,211463,128,0,211549:0:0:0:0:
36,192,211549,128,0,211635:0:0:0:0:
329,192,211549,128,0,211635:0:0:0:0:
109,192,211635,128,0,211720:0:0:0:0:
402,192,211635,128,0,211720:0:0:0:0:
475,192,211720,1,0,0:0:0:0:
36,192,211720,1,0,0:0:0:0:
256,192,211720,1,0,0:0:0:0:
402,192,211806,1,0,0:0:0:0:
182,192,211806,1,0,0:0:0:0:
109,192,211892,1,0,0:0:0:0:
329,192,211892,1,0,0:0:0:0:
256,192,211978,1,0,0:0:0:0:
475,192,212063,128,0,212149:0:0:0:0:
36,192,212063,1,0,0:0:0:0:
182,192,212063,128,0,212235:0:0:0:0:
402,192,212149,128,0,212235:0:0:0:0:
329,192,212235,128,0,212320:0:0:0:0:
36,192,212235,128,0,212320:0:0:0:0:
256,192,212320,128,0,212406:0:0:0:0:
109,192,212320,128,0,212406:0:0:0:0:
36,192,212406,1,0,0:0:0:0:
475,192,212406,1,0,0:0:0:0:
402,192,212406,1,0,0:0:0:0:
109,192,212492,1,0,0:0:0:0:
329,192,212492,1,0,0:0:0:0:
182,192,212578,1,0,0:0:0:0:
402,192,212578,1,0,0:0:0:0:
256,192,212663,1,0,0:0:0:0:
329,192,212749,128,0,212835:0:0:0:0:
109,192,212749,1,0,0:0:0:0:
36,192,212749,128,0,212920:0:0:0:0:
256,192,212835,128,0,212920:0:0:0:0:
182,192,212920,128,0,213006:0:0:0:0:
402,192,212920,128,0,213006:0:0:0:0:
109,192,213006,128,0,213092:0:0:0:0:
329,192,213006,128,0,213092:0:0:0:0:
36,192,213092,1,0,0:0:0:0:
475,192,213092,1,0,0:0:0:0:
256,192,213092,1,0,0:0:0:0:
109,192,213178,1,0,0:0:0:0:
329,192,213178,1,0,0:0:0:0:
402,192,213263,1,0,0:0:0:0:
182,192,213263,1,0,0:0:0:0:
256,192,213349,1,0,0:0:0:0:
182,192,213435,128,0,213520:0:0:0:0:
475,192,213435,1,0,0:0:0:0:
329,192,213435,128,0,213606:0:0:0:0:
36,192,213520,128,0,213606:0:0:0:0:
109,192,213606,128,0,213692:0:0:0:0:
402,192,213606,128,0,213692:0:0:0:0:
182,192,213692,128,0,213778:0:0:0:0:
475,192,213692,128,0,213778:0:0:0:0:
109,192,213778,1,0,0:0:0:0:
329,192,213778,1,0,0:0:0:0:
36,192,213778,1,0,0:0:0:0:
182,192,213863,1,0,0:0:0:0:
402,192,213863,1,0,0:0:0:0:
329,192,213949,1,0,0:0:0:0:
109,192,213949,1,0,0:0:0:0:
256,192,214035,1,0,0:0:0:0:
329,192,214120,128,0,214206:0:0:0:0:
109,192,214120,1,0,0:0:0:0:
36,192,214120,128,0,214292:0:0:0:0:
256,192,214206,128,0,214292:0:0:0:0:
182,192,214292,128,0,214378:0:0:0:0:
402,192,214292,128,0,214378:0:0:0:0:
109,192,214378,128,0,214463:0:0:0:0:
329,192,214378,128,0,214463:0:0:0:0:
36,192,214463,1,0,0:0:0:0:
402,192,214463,1,0,0:0:0:0:
475,192,214463,1,0,0:0:0:0:
329,192,214549,1,0,0:0:0:0:
109,192,214549,1,0,0:0:0:0:
182,192,214635,1,0,0:0:0:0:
402,192,214635,1,0,0:0:0:0:
256,192,214720,1,0,0:0:0:0:
475,192,214806,128,0,214892:0:0:0:0:
109,192,214806,1,0,0:0:0:0:
182,192,214806,128,0,214978:0:0:0:0:
402,192,214892,128,0,214978:0:0:0:0:
36,192,214978,128,0,215063:0:0:0:0:
329,192,214978,128,0,215063:0:0:0:0:
109,192,215063,128,0,215149:0:0:0:0:
256,192,215063,128,0,215149:0:0:0:0:
475,192,215149,1,0,0:0:0:0:
36,192,215149,1,0,0:0:0:0:
329,192,215149,1,0,0:0:0:0:
109,192,215235,1,0,0:0:0:0:
402,192,215235,1,0,0:0:0:0:
182,192,215320,1,0,0:0:0:0:
329,192,215320,1,0,0:0:0:0:
256,192,215406,1,0,0:0:0:0:
182,192,215492,128,0,215578:0:0:0:0:
475,192,215492,1,0,0:0:0:0:
36,192,215492,128,0,215663:0:0:0:0:
256,192,215578,128,0,215663:0:0:0:0:
109,192,215663,128,0,215749:0:0:0:0:
329,192,215663,128,0,215749:0:0:0:0:
182,192,215749,128,0,215835:0:0:0:0:
402,192,215749,128,0,215835:0:0:0:0:
36,192,215835,1,0,0:0:0:0:
475,192,215835,1,0,0:0:0:0:
256,192,215835,1,0,0:0:0:0:
402,192,215920,1,0,0:0:0:0:
182,192,215920,1,0,0:0:0:0:
329,192,216006,1,0,0:0:0:0:
109,192,216006,1,0,0:0:0:0:
36,192,216092,1,0,0:0:0:0:
402,192,216178,1,0,0:0:0:0:
475,192,216178,1,0,0:0:0:0:
256,192,216178,1,0,0:0:0:0:
182,192,216263,1,0,0:0:0:0:
36,192,216263,1,0,0:0:0:0:
329,192,216349,1,0,0:0:0:0:
109,192,216349,1,0,0:0:0:0:
402,192,216435,1,0,0:0:0:0:
256,192,216435,1,0,0:0:0:0:
36,192,216520,1,0,0:0:0:0:
109,192,216520,1,0,0:0:0:0:
475,192,216520,1,0,0:0:0:0:
182,192,216520,1,0,0:0:0:0:
402,192,216606,1,0,0:0:0:0:
256,192,216606,1,0,0:0:0:0:
329,192,216692,1,0,0:0:0:0:
109,192,216692,1,0,0:0:0:0:
36,192,216778,1,0,0:0:0:0:
182,192,216778,1,0,0:0:0:0:
475,192,216863,1,0,0:0:0:0:
402,192,216863,1,0,0:0:0:0:
256,192,216863,1,0,0:0:0:0:
36,192,217035,1,0,0:0:0:0:
329,192,217035,1,0,0:0:0:0:
182,192,217120,1,0,0:0:0:0:
475,192,217120,1,0,0:0:0:0:
36,192,217206,1,0,0:0:0:0:
256,192,217206,1,0,0:0:0:0:
329,192,217206,1,0,0:0:0:0:
109,192,217206,1,0,0:0:0:0:
475,192,217292,1,0,0:0:0:0:
182,192,217292,1,0,0:0:0:0:
329,192,217378,1,0,0:0:0:0:
36,192,217378,1,0,0:0:0:0:
475,192,217463,1,0,0:0:0:0:
182,192,217463,1,0,0:0:0:0:
402,192,217549,1,0,0:0:0:0:
256,192,217549,128,0,217806:0:0:0:0:
36,192,217549,128,0,217806:0:0:0:0:
475,192,217720,1,0,0:0:0:0:
182,192,217720,1,0,0:0:0:0:
329,192,217806,1,0,0:0:0:0:
109,192,217892,1,0,0:0:0:0:
402,192,217892,1,0,0:0:0:0:
475,192,217892,1,0,0:0:0:0:
256,192,217892,1,0,0:0:0:0:
36,192,218063,1,0,0:0:0:0:
402,192,218063,1,0,0:0:0:0:
109,192,218106,1,0,0:0:0:0:
182,192,218149,1,0,0:0:0:0:
256,192,218192,1,0,0:0:0:0:
36,192,218235,1,0,0:0:0:0:
329,192,218235,1,0,0:0:0:0:
475,192,218235,1,0,0:0:0:0:
475,192,218406,1,0,0:0:0:0:
182,192,218406,1,0,0:0:0:0:
36,192,218492,1,0,0:0:0:0:
256,192,218492,1,0,0:0:0:0:
402,192,218578,1,0,0:0:0:0:
182,192,218578,1,0,0:0:0:0:
329,192,218578,1,0,0:0:0:0:
109,192,218578,1,0,0:0:0:0:
36,192,218663,1,0,0:0:0:0:
475,192,218663,1,0,0:0:0:0:
329,192,218749,1,0,0:0:0:0:
182,192,218749,1,0,0:0:0:0:
475,192,218835,1,0,0:0:0:0:
36,192,218835,1,0,0:0:0:0:
109,192,218920,1,0,0:0:0:0:
402,192,218920,1,0,0:0:0:0:
256,192,218920,1,0,0:0:0:0:
36,192,219092,128,0,219263:0:0:0:0:
475,192,219092,128,0,219263:0:0:0:0:
109,192,219263,128,0,219435:0:0:0:0:
402,192,219263,128,0,219435:0:0:0:0:
256,192,219263,1,0,0:0:0:0:
182,192,219435,128,0,219606:0:0:0:0:
329,192,219435,128,0,219606:0:0:0:0:
475,192,219606,1,0,0:0:0:0:
36,192,219606,1,0,0:0:0:0:
256,192,219606,1,0,0:0:0:0:
109,192,219778,1,0,0:0:0:0:
402,192,219778,1,0,0:0:0:0:
329,192,219863,1,0,0:0:0:0:
182,192,219863,1,0,0:0:0:0:
475,192,219949,1,0,0:0:0:0:
402,192,219949,1,0,0:0:0:0:
36,192,219949,1,0,0:0:0:0:
109,192,219949,1,0,0:0:0:0:
329,192,220035,1,0,0:0:0:0:
182,192,220035,1,0,0:0:0:0:
475,192,220120,1,0,0:0:0:0:
36,192,220120,1,0,0:0:0:0:
329,192,220206,1,0,0:0:0:0:
182,192,220206,1,0,0:0:0:0:
109,192,220292,1,0,0:0:0:0:
475,192,220292,128,0,220549:0:0:0:0:
256,192,220292,128,0,220549:0:0:0:0:
36,192,220463,1,0,0:0:0:0:
329,192,220463,1,0,0:0:0:0:
182,192,220549,1,0,0:0:0:0:
256,192,220635,1,0,0:0:0:0:
475,192,220635,1,0,0:0:0:0:
402,192,220635,1,0,0:0:0:0:
36,192,220635,1,0,0:0:0:0:
256,192,220806,1,0,0:0:0:0:
329,192,220849,1,0,0:0:0:0:
402,192,220892,1,0,0:0:0:0:
475,192,220935,1,0,0:0:0:0:
36,192,220978,128,0,221149:0:0:0:0:
182,192,220978,128,0,221149:0:0:0:0:
109,192,220978,1,0,0:0:0:0:
402,192,221063,1,0,0:0:0:0:
329,192,221149,1,0,0:0:0:0:
109,192,221235,128,0,221406:0:0:0:0:
256,192,221235,128,0,221406:0:0:0:0:
475,192,221320,1,0,0:0:0:0:
402,192,221406,1,0,0:0:0:0:
329,192,221492,128,0,221663:0:0:0:0:
182,192,221492,128,0,221663:0:0:0:0:
36,192,221578,1,0,0:0:0:0:
109,192,221663,1,0,0:0:0:0:
475,192,221663,1,0,0:0:0:0:
256,192,221663,1,0,0:0:0:0:
36,192,221835,1,0,0:0:0:0:
329,192,221878,1,0,0:0:0:0:
182,192,221920,1,0,0:0:0:0:
402,192,221963,1,0,0:0:0:0:
36,192,222006,1,0,0:0:0:0:
256,192,222006,1,0,0:0:0:0:
475,192,222006,1,0,0:0:0:0:
109,192,222006,1,0,0:0:0:0:
36,192,222349,128,0,222435:0:0:0:0:
256,192,222349,1,0,0:0:0:0:
475,192,222349,128,0,222520:0:0:0:0:
109,192,222435,128,0,222520:0:0:0:0:
182,192,222520,128,0,222606:0:0:0:0:
329,192,222520,128,0,222606:0:0:0:0:
256,192,222606,128,0,222692:0:0:0:0:
402,192,222606,128,0,222692:0:0:0:0:
36,192,222692,1,0,0:0:0:0:
475,192,222692,1,0,0:0:0:0:
182,192,222692,1,0,0:0:0:0:
109,192,222778,1,0,0:0:0:0:
329,192,222778,1,0,0:0:0:0:
182,192,222863,1,0,0:0:0:0:
402,192,222863,1,0,0:0:0:0:
256,192,222949,1,0,0:0:0:0:
475,192,223035,128,0,223120:0:0:0:0:
109,192,223035,1,0,0:0:0:0:
36,192,223035,128,0,223206:0:0:0:0:
402,192,223120,128,0,223206:0:0:0:0:
329,192,223206,128,0,223292:0:0:0:0:
182,192,223206,128,0,223292:0:0:0:0:
109,192,223292,128,0,223378:0:0:0:0:
256,192,223292,128,0,223378:0:0:0:0:
475,192,223378,1,0,0:0:0:0:
36,192,223378,1,0,0:0:0:0:
329,192,223378,1,0,0:0:0:0:
182,192,223463,1,0,0:0:0:0:
402,192,223463,1,0,0:0:0:0:
109,192,223549,1,0,0:0:0:0:
329,192,223549,1,0,0:0:0:0:
36,192,223635,1,0,0:0:0:0:
256,192,223720,128,0,223806:0:0:0:0:
182,192,223720,1,0,0:0:0:0:
475,192,223720,128,0,223892:0:0:0:0:
36,192,223806,128,0,223892:0:0:0:0:
109,192,223892,128,0,223978:0:0:0:0:
329,192,223892,128,0,223978:0:0:0:0:
182,192,223978,128,0,224063:0:0:0:0:
402,192,223978,128,0,224063:0:0:0:0:
256,192,224063,1,0,0:0:0:0:
329,192,224149,1,0,0:0:0:0:
36,192,224235,1,0,0:0:0:0:
402,192,224235,1,0,0:0:0:0:
109,192,224278,1,0,0:0:0:0:
182,192,224320,1,0,0:0:0:0:
256,192,224363,1,0,0:0:0:0:
402,192,224406,1,0,0:0:0:0:
475,192,224406,1,0,0:0:0:0:
36,192,224449,1,0,0:0:0:0:
109,192,224449,1,0,0:0:0:0:
182,192,224492,1,0,0:0:0:0:
256,192,224492,1,0,0:0:0:0:
329,192,224535,1,0,0:0:0:0:
402,192,224535,1,0,0:0:0:0:
36,192,224620,1,0,0:0:0:0:
109,192,224620,1,0,0:0:0:0:
256,192,224706,1,0,0:0:0:0:
329,192,224706,1,0,0:0:0:0:
36,192,224749,1,0,0:0:0:0:
109,192,224749,1,0,0:0:0:0:
475,192,224749,1,0,0:0:0:0:
182,192,224749,1,0,0:0:0:0:
402,192,224920,1,0,0:0:0:0:
329,192,224963,1,0,0:0:0:0:
256,192,225006,1,0,0:0:0:0:
182,192,225049,1,0,0:0:0:0:
475,192,225092,1,0,0:0:0:0:
109,192,225092,1,0,0:0:0:0:
402,192,225092,128,0,225178:0:0:0:0:
36,192,225092,128,0,225263:0:0:0:0:
329,192,225178,128,0,225263:0:0:0:0:
475,192,225263,128,0,225349:0:0:0:0:
256,192,225263,128,0,225349:0:0:0:0:
402,192,225349,128,0,225435:0:0:0:0:
182,192,225349,128,0,225435:0:0:0:0:
36,192,225435,1,0,0:0:0:0:
109,192,225435,1,0,0:0:0:0:
256,192,225435,1,0,0:0:0:0:
475,192,225520,1,0,0:0:0:0:
182,192,225520,1,0,0:0:0:0:
402,192,225606,1,0,0:0:0:0:
109,192,225606,1,0,0:0:0:0:
329,192,225692,1,0,0:0:0:0:
256,192,225778,128,0,225863:0:0:0:0:
36,192,225778,1,0,0:0:0:0:
475,192,225778,128,0,225949:0:0:0:0:
182,192,225863,128,0,225949:0:0:0:0:
109,192,225949,128,0,226035:0:0:0:0:
329,192,225949,128,0,226035:0:0:0:0:
36,192,226035,128,0,226120:0:0:0:0:
256,192,226035,128,0,226120:0:0:0:0:
475,192,226120,1,0,0:0:0:0:
182,192,226120,1,0,0:0:0:0:
329,192,226120,1,0,0:0:0:0:
36,192,226206,1,0,0:0:0:0:
256,192,226206,1,0,0:0:0:0:
109,192,226292,1,0,0:0:0:0:
329,192,226292,1,0,0:0:0:0:
402,192,226378,1,0,0:0:0:0:
36,192,226463,1,0,0:0:0:0:
475,192,226463,128,0,226549:0:0:0:0:
182,192,226463,128,0,226635:0:0:0:0:
402,192,226549,128,0,226635:0:0:0:0:
329,192,226635,128,0,226720:0:0:0:0:
36,192,226635,128,0,226720:0:0:0:0:
109,192,226720,128,0,226806:0:0:0:0:
256,192,226720,128,0,226806:0:0:0:0:
475,192,226806,1,0,0:0:0:0:
36,192,226806,1,0,0:0:0:0:
329,192,226806,1,0,0:0:0:0:
256,192,226892,1,0,0:0:0:0:
109,192,226892,1,0,0:0:0:0:
182,192,226978,1,0,0:0:0:0:
329,192,226978,1,0,0:0:0:0:
402,192,227063,1,0,0:0:0:0:
36,192,227149,1,0,0:0:0:0:
109,192,227149,1,0,0:0:0:0:
256,192,227149,1,0,0:0:0:0:
475,192,227235,1,0,0:0:0:0:
329,192,227235,1,0,0:0:0:0:
182,192,227320,1,0,0:0:0:0:
402,192,227320,1,0,0:0:0:0:
256,192,227406,1,0,0:0:0:0:
109,192,227406,1,0,0:0:0:0:
475,192,227492,1,0,0:0:0:0:
402,192,227492,1,0,0:0:0:0:
329,192,227492,1,0,0:0:0:0:
36,192,227492,1,0,0:0:0:0:
109,192,227578,1,0,0:0:0:0:
256,192,227578,1,0,0:0:0:0:
182,192,227663,1,0,0:0:0:0:
402,192,227663,1,0,0:0:0:0:
475,192,227749,1,0,0:0:0:0:
329,192,227749,1,0,0:0:0:0:
36,192,227835,1,0,0:0:0:0:
109,192,227835,1,0,0:0:0:0:
256,192,227835,1,0,0:0:0:0:
182,192,228006,1,0,0:0:0:0:
329,192,228006,1,0,0:0:0:0:
36,192,228092,1,0,0:0:0:0:
475,192,228092,1,0,0:0:0:0:
182,192,228178,1,0,0:0:0:0:
402,192,228178,1,0,0:0:0:0:
329,192,228178,1,0,0:0:0:0:
109,192,228178,1,0,0:0:0:0:
36,192,228263,1,0,0:0:0:0:
475,192,228263,1,0,0:0:0:0:
182,192,228349,1,0,0:0:0:0:
329,192,228349,1,0,0:0:0:0:
402,192,228435,1,0,0:0:0:0:
109,192,228435,1,0,0:0:0:0:
475,192,228520,1,0,0:0:0:0:
36,192,228520,128,0,228778:0:0:0:0:
256,192,228520,128,0,228778:0:0:0:0:
475,192,228692,1,0,0:0:0:0:
402,192,228692,1,0,0:0:0:0:
182,192,228778,1,0,0:0:0:0:
256,192,228863,1,0,0:0:0:0:
402,192,228863,1,0,0:0:0:0:
36,192,228863,1,0,0:0:0:0:
109,192,228863,1,0,0:0:0:0:
475,192,229035,1,0,0:0:0:0:
109,192,229035,1,0,0:0:0:0:
402,192,229078,1,0,0:0:0:0:
329,192,229120,1,0,0:0:0:0:
256,192,229163,1,0,0:0:0:0:
475,192,229206,1,0,0:0:0:0:
182,192,229206,1,0,0:0:0:0:
36,192,229206,1,0,0:0:0:0:
109,192,229378,1,0,0:0:0:0:
256,192,229378,1,0,0:0:0:0:
402,192,229378,1,0,0:0:0:0:
36,192,229549,1,0,0:0:0:0:
182,192,229549,1,0,0:0:0:0:
475,192,229549,1,0,0:0:0:0:
256,192,229549,1,0,0:0:0:0:
36,192,229720,1,0,0:0:0:0:
475,192,229720,1,0,0:0:0:0:
329,192,229720,1,0,0:0:0:0:
402,192,229892,1,0,0:0:0:0:
475,192,229892,1,0,0:0:0:0:
182,192,229892,1,0,0:0:0:0:
256,192,229978,1,0,0:0:0:0:
36,192,229978,1,0,0:0:0:0:
329,192,230063,1,0,0:0:0:0:
402,192,230063,1,0,0:0:0:0:
109,192,230063,1,0,0:0:0:0:
182,192,230149,1,0,0:0:0:0:
475,192,230149,1,0,0:0:0:0:
256,192,230235,1,0,0:0:0:0:
329,192,230235,1,0,0:0:0:0:
36,192,230235,1,0,0:0:0:0:
475,192,230320,1,0,0:0:0:0:
109,192,230320,1,0,0:0:0:0:
256,192,230406,1,0,0:0:0:0:
182,192,230406,1,0,0:0:0:0:
402,192,230406,1,0,0:0:0:0:
36,192,230492,1,0,0:0:0:0:
329,192,230492,1,0,0:0:0:0:
109,192,230578,1,0,0:0:0:0:
182,192,230578,1,0,0:0:0:0:
402,192,230578,1,0,0:0:0:0:
475,192,230578,1,0,0:0:0:0:
256,192,230749,1,0,0:0:0:0:
475,192,230749,1,0,0:0:0:0:
182,192,230920,1,0,0:0:0:0:
475,192,230920,1,0,0:0:0:0:
109,192,231092,1,0,0:0:0:0:
475,192,231092,1,0,0:0:0:0:
256,192,231092,1,0,0:0:0:0:
329,192,231263,1,0,0:0:0:0:
475,192,231263,1,0,0:0:0:0:
256,192,231435,1,0,0:0:0:0:
475,192,231435,1,0,0:0:0:0:
182,192,231606,1,0,0:0:0:0:
329,192,231606,1,0,0:0:0:0:
475,192,231606,1,0,0:0:0:0:
109,192,231778,1,0,0:0:0:0:
475,192,231778,1,0,0:0:0:0:
256,192,231949,1,0,0:0:0:0:
475,192,231949,1,0,0:0:0:0:
182,192,232120,1,0,0:0:0:0:
36,192,232120,1,0,0:0:0:0:
475,192,232120,1,0,0:0:0:0:
109,192,232292,1,0,0:0:0:0:
402,192,232292,1,0,0:0:0:0:
36,192,232463,1,0,0:0:0:0:
329,192,232463,1,0,0:0:0:0:
182,192,232635,1,0,0:0:0:0:
329,192,232720,1,0,0:0:0:0:
256,192,232806,1,0,0:0:0:0:
182,192,232978,1,0,0:0:0:0:
36,192,233149,1,0,0:0:0:0:
182,192,233149,1,0,0:0:0:0:
475,192,233149,1,0,0:0:0:0:
329,192,233149,1,0,0:0:0:0:
475,192,233320,128,0,237778:0:0:0:0:
36,192,233320,128,0,234520:0:0:0:0:
109,192,233320,128,0,233492:0:0:0:0:
256,192,233320,128,0,233663:0:0:0:0:
402,192,233320,128,0,235892:0:0:0:0:
329,192,233320,128,0,233835:0:0:0:0:
182,192,233492,128,0,234178:0:0:0:0:
109,192,233663,128,0,234349:0:0:0:0:
256,192,233835,128,0,234006:0:0:0:0:
329,192,234006,128,0,235378:0:0:0:0:
256,192,234178,128,0,234863:0:0:0:0:
182,192,234349,128,0,234692:0:0:0:0:
109,192,234520,128,0,234863:0:0:0:0:
36,192,234692,128,0,237092:0:0:0:0:
182,192,234863,128,0,235206:0:0:0:0:
256,192,235035,128,0,235206:0:0:0:0:
109,192,235206,128,0,236749:0:0:0:0:
256,192,235378,128,0,235720:0:0:0:0:
329,192,235549,128,0,235720:0:0:0:0:
182,192,235720,128,0,236406:0:0:0:0:
329,192,235892,128,0,236063:0:0:0:0:
402,192,236063,128,0,239320:0:0:0:0:
256,192,236235,128,0,236406:0:0:0:0:
329,192,236406,128,0,237435:0:0:0:0:
182,192,236578,128,0,236749:0:0:0:0:
256,192,236749,128,0,238463:0:0:0:0:
109,192,236920,128,0,237092:0:0:0:0:
182,192,237092,128,0,237606:0:0:0:0:
36,192,237263,128,0,238120:0:0:0:0:
109,192,237435,128,0,238978:0:0:0:0:
329,192,237606,128,0,237949:0:0:0:0:
182,192,237778,128,0,238292:0:0:0:0:
475,192,237949,128,0,239663:0:0:0:0:
329,192,238120,128,0,238978:0:0:0:0:
36,192,238292,128,0,238635:0:0:0:0:
182,192,238463,128,0,238806:0:0:0:0:
256,192,238635,128,0,239149:0:0:0:0:
36,192,238806,128,0,241035:0:0:0:0:
182,192,238978,128,0,239492:0:0:0:0:
329,192,239149,128,0,239663:0:0:0:0:
109,192,239320,128,0,240692:0:0:0:0:
256,192,239492,128,0,240006:0:0:0:0:
402,192,239663,128,0,240178:0:0:0:0:
182,192,239835,128,0,240349:0:0:0:0:
329,192,240006,128,0,240520:0:0:0:0:
475,192,240178,128,0,242578:0:0:0:0:
256,192,240349,128,0,240863:0:0:0:0:
402,192,240520,128,0,242235:0:0:0:0:
182,192,240692,128,0,241206:0:0:0:0:
329,192,240863,128,0,241892:0:0:0:0:
109,192,241035,128,0,241378:0:0:0:0:
256,192,241206,128,0,241549:0:0:0:0:
36,192,241378,128,0,241549:0:0:0:0:
182,192,241549,128,0,242063:0:0:0:0:
36,192,241720,128,0,242235:0:0:0:0:
256,192,241892,128,0,242406:0:0:0:0:
109,192,242063,128,0,242578:0:0:0:0:
329,192,242235,128,0,242749:0:0:0:0:
182,192,242406,128,0,242920:0:0:0:0:
402,192,242578,128,0,242920:0:0:0:0:
256,192,242749,128,0,243092:0:0:0:0:
475,192,242920,128,0,243092:0:0:0:0:
36,192,243092,1,0,0:0:0:0:
329,192,243092,1,0,0:0:0:0:
182,192,243178,1,0,0:0:0:0:
475,192,243178,1,0,0:0:0:0:
402,192,243263,1,0,0:0:0:0:
36,192,243263,1,0,0:0:0:0:
329,192,243349,1,0,0:0:0:0:
109,192,243349,1,0,0:0:0:0:
182,192,243435,1,0,0:0:0:0:
475,192,243435,1,0,0:0:0:0:
36,192,243520,1,0,0:0:0:0:
329,192,243520,1,0,0:0:0:0:
109,192,243606,1,0,0:0:0:0:
256,192,243606,128,0,243863:0:0:0:0:
475,192,243606,128,0,243863:0:0:0:0:
109,192,243778,1,0,0:0:0:0:
329,192,243863,1,0,0:0:0:0:
36,192,243949,1,0,0:0:0:0:
475,192,243949,1,0,0:0:0:0:
182,192,243949,128,0,244120:0:0:0:0:
256,192,244120,1,0,0:0:0:0:
329,192,244292,1,0,0:0:0:0:
402,192,244292,1,0,0:0:0:0:
475,192,244292,1,0,0:0:0:0:
182,192,244292,1,0,0:0:0:0:
109,192,244292,1,0,0:0:0:0:
36,192,244292,1,0,0:0:0:0:
256,192,244292,1,0,0:0:0:0:
109,192,244463,1,0,0:0:0:0:
329,192,244635,1,0,0:0:0:0:
475,192,244635,1,0,0:0:0:0:
182,192,244806,1,0,0:0:0:0:
256,192,244978,1,0,0:0:0:0:
36,192,244978,1,0,0:0:0:0:
402,192,245149,1,0,0:0:0:0:
182,192,245320,1,0,0:0:0:0:
36,192,245320,1,0,0:0:0:0:
329,192,245492,1,0,0:0:0:0:
36,192,245663,1,0,0:0:0:0:
182,192,245663,1,0,0:0:0:0:
256,192,245835,1,0,0:0:0:0:
329,192,246006,1,0,0:0:0:0:
36,192,246006,1,0,0:0:0:0:
475,192,246178,1,0,0:0:0:0:
36,192,246349,1,0,0:0:0:0:
256,192,246349,1,0,0:0:0:0:
329,192,246520,1,0,0:0:0:0:
36,192,246692,1,0,0:0:0:0:
475,192,246692,1,0,0:0:0:0:
402,192,246863,1,0,0:0:0:0:
36,192,247035,1,0,0:0:0:0:
182,192,247035,1,0,0:0:0:0:
329,192,247206,1,0,0:0:0:0:
36,192,247378,1,0,0:0:0:0:
256,192,247378,1,0,0:0:0:0:
402,192,247549,1,0,0:0:0:0:
36,192,247720,1,0,0:0:0:0:
182,192,247720,1,0,0:0:0:0:
329,192,247892,1,0,0:0:0:0:
36,192,248063,1,0,0:0:0:0:
182,192,248063,1,0,0:0:0:0:
256,192,248235,1,0,0:0:0:0:
36,192,248406,1,0,0:0:0:0:
182,192,248406,1,0,0:0:0:0:
402,192,248578,1,0,0:0:0:0:
36,192,248749,1,0,0:0:0:0:
329,192,248749,1,0,0:0:0:0:
256,192,248920,1,0,0:0:0:0:
36,192,249092,1,0,0:0:0:0:
182,192,249092,1,0,0:0:0:0:
329,192,249263,1,0,0:0:0:0:
36,192,249435,1,0,0:0:0:0:
182,192,249435,1,0,0:0:0:0:
256,192,249606,1,0,0:0:0:0:
182,192,249778,1,0,0:0:0:0:
109,192,249778,1,0,0:0:0:0:
329,192,249949,1,0,0:0:0:0:
182,192,250120,1,0,0:0:0:0:
402,192,250120,1,0,0:0:0:0:
36,192,250292,1,0,0:0:0:0:
182,192,250463,1,0,0:0:0:0:
256,192,250463,1,0,0:0:0:0:
329,192,250635,1,0,0:0:0:0:
182,192,250806,1,0,0:0:0:0:
36,192,250806,1,0,0:0:0:0:
256,192,250978,1,0,0:0:0:0:
182,192,251149,1,0,0:0:0:0:
36,192,251149,1,0,0:0:0:0:
402,192,251320,1,0,0:0:0:0:
182,192,251492,1,0,0:0:0:0:
329,192,251492,1,0,0:0:0:0:
36,192,251663,1,0,0:0:0:0:
182,192,251835,1,0,0:0:0:0:
329,192,251835,1,0,0:0:0:0:
36,192,252006,1,0,0:0:0:0:
182,192,252178,1,0,0:0:0:0:
402,192,252178,1,0,0:0:0:0:
256,192,252349,1,0,0:0:0:0:
109,192,252520,1,0,0:0:0:0:
329,192,252520,1,0,0:0:0:0:
475,192,252692,1,0,0:0:0:0:
109,192,252863,1,0,0:0:0:0:
256,192,252863,1,0,0:0:0:0:
402,192,253035,1,0,0:0:0:0:
109,192,253206,1,0,0:0:0:0:
329,192,253206,1,0,0:0:0:0:
182,192,253378,1,0,0:0:0:0:
109,192,253549,1,0,0:0:0:0:
256,192,253549,1,0,0:0:0:0:
182,192,253720,1,0,0:0:0:0:
36,192,253892,1,0,0:0:0:0:
402,192,253892,1,0,0:0:0:0:
109,192,254063,1,0,0:0:0:0:
36,192,254235,1,0,0:0:0:0:
329,192,254235,1,0,0:0:0:0:
182,192,254406,1,0,0:0:0:0:
475,192,254578,1,0,0:0:0:0:
256,192,254578,1,0,0:0:0:0:
109,192,254749,1,0,0:0:0:0:
256,192,254920,1,0,0:0:0:0:
402,192,254920,1,0,0:0:0:0:
182,192,255092,1,0,0:0:0:0:
36,192,255263,1,0,0:0:0:0:
109,192,255263,1,0,0:0:0:0:
256,192,255263,1,0,0:0:0:0:
329,192,255263,1,0,0:0:0:0:
475,192,255263,1,0,0:0:0:0:
109,192,256292,1,0,0:0:0:0:
182,192,256292,1,0,0:0:0:0:
329,192,256292,1,0,0:0:0:0:
182,192,256635,1,0,0:0:0:0:
256,192,256635,1,0,0:0:0:0:
402,192,256635,1,0,0:0:0:0:
256,192,257778,1,0,0:0:0:0:
402,192,257778,1,0,0:0:0:0:
475,192,257778,1,0,0:0:0:0:
109,192,257892,1,0,0:0:0:0:
182,192,257892,1,0,0:0:0:0:
329,192,257892,1,0,0:0:0:0:
256,192,258006,1,0,0:0:0:0:
36,192,258006,1,0,0:0:0:0:
402,192,258006,1,0,0:0:0:0:
182,192,259035,1,0,0:0:0:0:
256,192,259035,1,0,0:0:0:0:
402,192,259035,1,0,0:0:0:0:
182,192,259378,1,0,0:0:0:0:
109,192,259378,1,0,0:0:0:0:
329,192,259378,1,0,0:0:0:0:
36,192,260063,1,0,0:0:0:0:
256,192,260063,1,0,0:0:0:0:
109,192,260063,1,0,0:0:0:0:
182,192,260749,1,0,0:0:0:0:
329,192,260749,1,0,0:0:0:0:
402,192,260749,1,0,0:0:0:0:
109,192,261778,1,0,0:0:0:0:
256,192,261778,1,0,0:0:0:0:
329,192,261778,1,0,0:0:0:0:
182,192,262120,1,0,0:0:0:0:
256,192,262120,1,0,0:0:0:0:
402,192,262120,1,0,0:0:0:0:
182,192,263263,1,0,0:0:0:0:
256,192,263263,1,0,0:0:0:0:
402,192,263263,1,0,0:0:0:0:
36,192,263378,1,0,0:0:0:0:
109,192,263378,1,0,0:0:0:0:
329,192,263378,1,0,0:0:0:0:
182,192,263492,1,0,0:0:0:0:
475,192,263492,1,0,0:0:0:0:
402,192,263492,1,0,0:0:0:0:
329,192,264178,1,0,0:0:0:0:
402,192,264178,1,0,0:0:0:0:
109,192,264178,1,0,0:0:0:0:
36,192,264863,1,0,0:0:0:0:
256,192,264863,1,0,0:0:0:0:
329,192,264863,1,0,0:0:0:0:
36,192,265549,1,0,0:0:0:0:
109,192,265549,1,0,0:0:0:0:
256,192,265549,1,0,0:0:0:0:
182,192,266749,128,0,266920:0:0:0:0:
329,192,266920,128,0,267092:0:0:0:0:
109,192,267092,128,0,267263:0:0:0:0:
256,192,267263,1,0,0:0:0:0:
36,192,267263,1,0,0:0:0:0:
402,192,267263,1,0,0:0:0:0:
109,192,267606,1,0,0:0:0:0:
329,192,267606,1,0,0:0:0:0:
475,192,267606,1,0,0:0:0:0:
402,192,268749,1,0,0:0:0:0:
256,192,268749,1,0,0:0:0:0:
109,192,268749,1,0,0:0:0:0:
329,192,268863,1,0,0:0:0:0:
36,192,268863,1,0,0:0:0:0:
182,192,268863,1,0,0:0:0:0:
475,192,268978,1,0,0:0:0:0:
109,192,268978,1,0,0:0:0:0:
256,192,268978,1,0,0:0:0:0:
256,192,269492,128,0,269663:0:0:0:0:
402,192,269663,128,0,269835:0:0:0:0:
182,192,269835,128,0,270006:0:0:0:0:
36,192,270006,1,0,0:0:0:0:
109,192,270006,1,0,0:0:0:0:
329,192,270006,1,0,0:0:0:0:
109,192,270349,1,0,0:0:0:0:
182,192,270349,1,0,0:0:0:0:
402,192,270349,1,0,0:0:0:0:
182,192,271035,1,0,0:0:0:0:
256,192,271035,1,0,0:0:0:0:
475,192,271035,1,0,0:0:0:0:
109,192,271720,1,0,0:0:0:0:
256,192,271720,1,0,0:0:0:0:
402,192,271720,1,0,0:0:0:0:
109,192,272235,128,0,272406:0:0:0:0:
256,192,272406,128,0,272578:0:0:0:0:
36,192,272578,128,0,272749:0:0:0:0:
182,192,272749,1,0,0:0:0:0:
329,192,272749,1,0,0:0:0:0:
475,192,272749,1,0,0:0:0:0:
256,192,273092,1,0,0:0:0:0:
36,192,273092,1,0,0:0:0:0:
402,192,273092,1,0,0:0:0:0:
182,192,274235,1,0,0:0:0:0:
475,192,274235,1,0,0:0:0:0:
329,192,274235,1,0,0:0:0:0:
109,192,274349,1,0,0:0:0:0:
402,192,274349,1,0,0:0:0:0:
256,192,274349,1,0,0:0:0:0:
475,192,274463,1,0,0:0:0:0:
36,192,274463,1,0,0:0:0:0:
182,192,274463,1,0,0:0:0:0:
109,192,274920,1,0,0:0:0:0:
256,192,274920,1,0,0:0:0:0:
402,192,274920,1,0,0:0:0:0:
182,192,275035,1,0,0:0:0:0:
329,192,275035,1,0,0:0:0:0:
475,192,275035,1,0,0:0:0:0:
36,192,275149,1,0,0:0:0:0:
402,192,275149,1,0,0:0:0:0:
256,192,275149,1,0,0:0:0:0:
36,192,275606,1,0,0:0:0:0:
182,192,275606,1,0,0:0:0:0:
329,192,275606,1,0,0:0:0:0:
109,192,275720,1,0,0:0:0:0:
402,192,275720,1,0,0:0:0:0:
256,192,275720,1,0,0:0:0:0:
36,192,275835,1,0,0:0:0:0:
475,192,275835,1,0,0:0:0:0:
182,192,275835,1,0,0:0:0:0:
36,192,276178,5,0,0:0:0:0:
256,192,276178,1,0,0:0:0:0:
402,192,276178,1,0,0:0:0:0:
109,192,276520,1,0,0:0:0:0:
256,192,276520,1,0,0:0:0:0:
475,192,276520,1,0,0:0:0:0:
182,192,276863,1,0,0:0:0:0:
329,192,276863,1,0,0:0:0:0:
475,192,276863,1,0,0:0:0:0:
36,192,276863,1,0,0:0:0:0:
36,192,277206,5,0,0:0:0:0:
109,192,277206,1,0,0:0:0:0:
182,192,277206,1,0,0:0:0:0:
329,192,277206,1,0,0:0:0:0:
475,192,277206,1,0,0:0:0:0:
256,192,277206,1,0,0:0:0:0:
402,192,277206,1,0,0:0:0:0:
256,192,277378,1,0,0:0:0:0:
402,192,277378,1,0,0:0:0:0:
109,192,277378,1,0,0:0:0:0:
36,192,277549,1,0,0:0:0:0:
182,192,277549,1,0,0:0:0:0:
402,192,277549,1,0,0:0:0:0:
475,192,277549,1,0,0:0:0:0:
256,192,277549,1,0,0:0:0:0:
182,192,277720,1,0,0:0:0:0:
36,192,277720,1,0,0:0:0:0:
329,192,277720,1,0,0:0:0:0:
475,192,277892,1,0,0:0:0:0:
36,192,277892,1,0,0:0:0:0:
329,192,277892,1,0,0:0:0:0:
109,192,277892,1,0,0:0:0:0:
256,192,277892,1,0,0:0:0:0:
256,192,278063,1,0,0:0:0:0:
182,192,278063,1,0,0:0:0:0:
475,192,278063,1,0,0:0:0:0:
36,192,278235,1,0,0:0:0:0:
109,192,278235,1,0,0:0:0:0:
475,192,278235,1,0,0:0:0:0:
182,192,278235,1,0,0:0:0:0:
329,192,278235,1,0,0:0:0:0:
109,192,278406,1,0,0:0:0:0:
256,192,278406,1,0,0:0:0:0:
402,192,278406,1,0,0:0:0:0:
109,192,278578,1,0,0:0:0:0:
36,192,278578,1,0,0:0:0:0:
475,192,278578,1,0,0:0:0:0:
402,192,278578,1,0,0:0:0:0:
256,192,278578,1,0,0:0:0:0:
329,192,278578,1,0,0:0:0:0:
36,192,278749,1,0,0:0:0:0:
182,192,278749,1,0,0:0:0:0:
475,192,278749,1,0,0:0:0:0:
329,192,278749,1,0,0:0:0:0:
109,192,278920,1,0,0:0:0:0:
182,192,278920,1,0,0:0:0:0:
402,192,278920,1,0,0:0:0:0:
36,192,278920,1,0,0:0:0:0:
475,192,278920,1,0,0:0:0:0:
256,192,278920,1,0,0:0:0:0:
109,192,279092,1,0,0:0:0:0:
256,192,279092,1,0,0:0:0:0:
475,192,279092,1,0,0:0:0:0:
402,192,279092,1,0,0:0:0:0:
182,192,279263,1,0,0:0:0:0:
109,192,279263,1,0,0:0:0:0:
36,192,279263,1,0,0:0:0:0:
329,192,279263,1,0,0:0:0:0:
256,192,279263,1,0,0:0:0:0:
475,192,279263,1,0,0:0:0:0:
182,192,279435,1,0,0:0:0:0:
329,192,279435,1,0,0:0:0:0:
36,192,279435,1,0,0:0:0:0:
402,192,279435,1,0,0:0:0:0:
36,192,279606,1,0,0:0:0:0:
109,192,279606,1,0,0:0:0:0:
182,192,279606,1,0,0:0:0:0:
402,192,279606,1,0,0:0:0:0:
329,192,279606,1,0,0:0:0:0:
475,192,279606,1,0,0:0:0:0:
256,192,279606,1,0,0:0:0:0:
109,192,279778,1,0,0:0:0:0:
256,192,279778,1,0,0:0:0:0:
475,192,279778,1,0,0:0:0:0:
36,192,279949,1,0,0:0:0:0:
109,192,279949,1,0,0:0:0:0:
182,192,279949,1,0,0:0:0:0:
329,192,279949,1,0,0:0:0:0:
402,192,279949,1,0,0:0:0:0:
475,192,279949,1,0,0:0:0:0:
256,192,279949,1,0,0:0:0:0:
36,192,280120,1,0,0:0:0:0:
182,192,280120,1,0,0:0:0:0:
402,192,280120,1,0,0:0:0:0:
182,192,280292,1,0,0:0:0:0:
475,192,280292,1,0,0:0:0:0:
36,192,280292,1,0,0:0:0:0:
329,192,280292,1,0,0:0:0:0:
256,192,280292,1,0,0:0:0:0:
402,192,280463,1,0,0:0:0:0:
109,192,280463,1,0,0:0:0:0:
256,192,280463,1,0,0:0:0:0:
329,192,280635,1,0,0:0:0:0:
402,192,280635,1,0,0:0:0:0:
475,192,280635,1,0,0:0:0:0:
182,192,280635,1,0,0:0:0:0:
36,192,280635,1,0,0:0:0:0:
109,192,280635,1,0,0:0:0:0:
36,192,280806,1,0,0:0:0:0:
475,192,280806,1,0,0:0:0:0:
256,192,280806,1,0,0:0:0:0:
182,192,280978,1,0,0:0:0:0:
256,192,280978,1,0,0:0:0:0:
475,192,280978,1,0,0:0:0:0:
402,192,280978,1,0,0:0:0:0:
36,192,280978,1,0,0:0:0:0:
402,192,281149,1,0,0:0:0:0:
109,192,281149,1,0,0:0:0:0:
182,192,281149,1,0,0:0:0:0:
36,192,281320,1,0,0:0:0:0:
256,192,281320,1,0,0:0:0:0:
182,192,281320,1,0,0:0:0:0:
329,192,281320,1,0,0:0:0:0:
402,192,281320,1,0,0:0:0:0:
475,192,281320,1,0,0:0:0:0:
36,192,281492,1,0,0:0:0:0:
182,192,281492,1,0,0:0:0:0:
329,192,281492,1,0,0:0:0:0:
475,192,281492,1,0,0:0:0:0:
36,192,281663,1,0,0:0:0:0:
109,192,281663,1,0,0:0:0:0:
256,192,281663,1,0,0:0:0:0:
329,192,281663,1,0,0:0:0:0:
402,192,281663,1,0,0:0:0:0:
475,192,281663,1,0,0:0:0:0:
182,192,281835,1,0,0:0:0:0:
329,192,281835,1,0,0:0:0:0:
475,192,281835,1,0,0:0:0:0:
109,192,281835,1,0,0:0:0:0:
182,192,282006,1,0,0:0:0:0:
109,192,282006,1,0,0:0:0:0:
36,192,282006,1,0,0:0:0:0:
329,192,282006,1,0,0:0:0:0:
402,192,282006,1,0,0:0:0:0:
475,192,282006,1,0,0:0:0:0:
182,192,282178,1,0,0:0:0:0:
329,192,282178,1,0,0:0:0:0:
36,192,282178,1,0,0:0:0:0:
402,192,282178,1,0,0:0:0:0:
36,192,282349,1,0,0:0:0:0:
182,192,282349,1,0,0:0:0:0:
256,192,282349,1,0,0:0:0:0:
475,192,282349,1,0,0:0:0:0:
109,192,282349,1,0,0:0:0:0:
402,192,282349,1,0,0:0:0:0:
256,192,282520,1,0,0:0:0:0:
36,192,282520,1,0,0:0:0:0:
475,192,282520,1,0,0:0:0:0:
36,192,282692,1,0,0:0:0:0:
109,192,282692,1,0,0:0:0:0:
182,192,282692,1,0,0:0:0:0:
256,192,282692,1,0,0:0:0:0:
329,192,282692,1,0,0:0:0:0:
402,192,282692,1,0,0:0:0:0:
475,192,282692,1,0,0:0:0:0:
109,192,282863,1,0,0:0:0:0:
182,192,282863,1,0,0:0:0:0:
329,192,282863,1,0,0:0:0:0:
109,192,283035,1,0,0:0:0:0:
256,192,283035,1,0,0:0:0:0:
475,192,283035,1,0,0:0:0:0:
36,192,283035,1,0,0:0:0:0:
402,192,283035,1,0,0:0:0:0:
182,192,283206,1,0,0:0:0:0:
402,192,283206,1,0,0:0:0:0:
256,192,283206,1,0,0:0:0:0:
36,192,283378,1,0,0:0:0:0:
182,192,283378,1,0,0:0:0:0:
329,192,283378,1,0,0:0:0:0:
402,192,283378,1,0,0:0:0:0:
475,192,283378,1,0,0:0:0:0:
475,192,283549,1,0,0:0:0:0:
256,192,283549,1,0,0:0:0:0:
109,192,283549,1,0,0:0:0:0:
36,192,283720,1,0,0:0:0:0:
475,192,283720,1,0,0:0:0:0:
109,192,283720,1,0,0:0:0:0:
329,192,283720,1,0,0:0:0:0:
182,192,283720,1,0,0:0:0:0:
36,192,283892,1,0,0:0:0:0:
402,192,283892,1,0,0:0:0:0:
256,192,283892,1,0,0:0:0:0:
109,192,284063,1,0,0:0:0:0:
36,192,284063,1,0,0:0:0:0:
182,192,284063,1,0,0:0:0:0:
329,192,284063,1,0,0:0:0:0:
475,192,284063,1,0,0:0:0:0:
402,192,284063,1,0,0:0:0:0:
36,192,284235,1,0,0:0:0:0:
109,192,284235,1,0,0:0:0:0:
256,192,284235,1,0,0:0:0:0:
475,192,284235,1,0,0:0:0:0:
36,192,284406,1,0,0:0:0:0:
182,192,284406,1,0,0:0:0:0:
256,192,284406,1,0,0:0:0:0:
402,192,284406,1,0,0:0:0:0:
475,192,284406,1,0,0:0:0:0:
329,192,284406,1,0,0:0:0:0:
109,192,284578,1,0,0:0:0:0:
329,192,284578,1,0,0:0:0:0:
475,192,284578,1,0,0:0:0:0:
182,192,284578,1,0,0:0:0:0:
36,192,284749,1,0,0:0:0:0:
109,192,284749,1,0,0:0:0:0:
182,192,284749,1,0,0:0:0:0:
256,192,284749,1,0,0:0:0:0:
402,192,284749,1,0,0:0:0:0:
475,192,284749,1,0,0:0:0:0:
36,192,284920,1,0,0:0:0:0:
329,192,284920,1,0,0:0:0:0:
475,192,284920,1,0,0:0:0:0:
256,192,284920,1,0,0:0:0:0:
36,192,285092,1,0,0:0:0:0:
109,192,285092,1,0,0:0:0:0:
182,192,285092,1,0,0:0:0:0:
256,192,285092,1,0,0:0:0:0:
329,192,285092,1,0,0:0:0:0:
402,192,285092,1,0,0:0:0:0:
475,192,285092,1,0,0:0:0:0:
109,192,285263,1,0,0:0:0:0:
402,192,285263,1,0,0:0:0:0:
182,192,285263,1,0,0:0:0:0:
109,192,285435,1,0,0:0:0:0:
182,192,285435,1,0,0:0:0:0:
36,192,285435,1,0,0:0:0:0:
256,192,285435,1,0,0:0:0:0:
329,192,285435,1,0,0:0:0:0:
402,192,285435,1,0,0:0:0:0:
475,192,285435,1,0,0:0:0:0:
329,192,285606,1,0,0:0:0:0:
475,192,285606,1,0,0:0:0:0:
36,192,285606,1,0,0:0:0:0:
36,192,285778,1,0,0:0:0:0:
256,192,285778,1,0,0:0:0:0:
475,192,285778,1,0,0:0:0:0:
402,192,285778,1,0,0:0:0:0:
182,192,285778,1,0,0:0:0:0:
109,192,285949,1,0,0:0:0:0:
182,192,285949,1,0,0:0:0:0:
402,192,285949,1,0,0:0:0:0:
256,192,286120,1,0,0:0:0:0:
475,192,286120,1,0,0:0:0:0:
329,192,286120,1,0,0:0:0:0:
36,192,286120,1,0,0:0:0:0:
109,192,286120,1,0,0:0:0:0:
36,192,286292,1,0,0:0:0:0:
256,192,286292,1,0,0:0:0:0:
402,192,286292,1,0,0:0:0:0:
36,192,286463,1,0,0:0:0:0:
182,192,286463,1,0,0:0:0:0:
475,192,286463,1,0,0:0:0:0:
402,192,286463,1,0,0:0:0:0:
329,192,286463,1,0,0:0:0:0:
182,192,286635,1,0,0:0:0:0:
329,192,286635,1,0,0:0:0:0:
109,192,286635,1,0,0:0:0:0:
36,192,286806,1,0,0:0:0:0:
109,192,286806,1,0,0:0:0:0:
256,192,286806,1,0,0:0:0:0:
329,192,286806,1,0,0:0:0:0:
475,192,286806,1,0,0:0:0:0:
402,192,286806,1,0,0:0:0:0:
256,192,286978,1,0,0:0:0:0:
475,192,286978,1,0,0:0:0:0:
36,192,286978,1,0,0:0:0:0:
36,192,287149,1,0,0:0:0:0:
109,192,287149,1,0,0:0:0:0:
182,192,287149,1,0,0:0:0:0:
329,192,287149,1,0,0:0:0:0:
402,192,287149,1,0,0:0:0:0:
475,192,287149,1,0,0:0:0:0:
109,192,287320,1,0,0:0:0:0:
402,192,287320,1,0,0:0:0:0:
256,192,287320,1,0,0:0:0:0:
36,192,287492,1,0,0:0:0:0:
109,192,287492,1,0,0:0:0:0:
182,192,287492,1,0,0:0:0:0:
256,192,287492,1,0,0:0:0:0:
402,192,287492,1,0,0:0:0:0:
475,192,287492,1,0,0:0:0:0:
475,192,287663,1,0,0:0:0:0:
36,192,287663,1,0,0:0:0:0:
256,192,287663,1,0,0:0:0:0:
182,192,287749,1,0,0:0:0:0:
109,192,287749,1,0,0:0:0:0:
329,192,287749,1,0,0:0:0:0:
475,192,287835,1,0,0:0:0:0:
36,192,287835,1,0,0:0:0:0:
256,192,287835,1,0,0:0:0:0:
36,192,288006,1,0,0:0:0:0:
109,192,288006,1,0,0:0:0:0:
182,192,288006,1,0,0:0:0:0:
256,192,288006,1,0,0:0:0:0:
329,192,288006,1,0,0:0:0:0:
402,192,288006,1,0,0:0:0:0:
475,192,288006,1,0,0:0:0:0:
36,192,288178,1,0,0:0:0:0:
109,192,288178,1,0,0:0:0:0:
182,192,288178,1,0,0:0:0:0:
256,192,288178,1,0,0:0:0:0:
402,192,288178,1,0,0:0:0:0:
475,192,288178,1,0,0:0:0:0:
329,192,288178,1,0,0:0:0:0:
36,192,288263,1,0,0:0:0:0:
109,192,288263,1,0,0:0:0:0:
256,192,288263,1,0,0:0:0:0:
182,192,288263,1,0,0:0:0:0:
329,192,288263,1,0,0:0:0:0:
402,192,288349,1,0,0:0:0:0:
475,192,288349,1,0,0:0:0:0:
182,192,288435,1,0,0:0:0:0:
109,192,288520,1,0,0:0:0:0:
256,192,288520,1,0,0:0:0:0:
475,192,288520,1,0,0:0:0:0:
36,192,288606,1,0,0:0:0:0:
329,192,288606,1,0,0:0:0:0:
182,192,288692,1,0,0:0:0:0:
475,192,288692,1,0,0:0:0:0:
109,192,288778,1,0,0:0:0:0:
329,192,288778,1,0,0:0:0:0:
36,192,288863,1,0,0:0:0:0:
182,192,288863,1,0,0:0:0:0:
402,192,288863,1,0,0:0:0:0:
475,192,288949,1,0,0:0:0:0:
256,192,288949,1,0,0:0:0:0:
36,192,289035,1,0,0:0:0:0:
329,192,289035,1,0,0:0:0:0:
109,192,289120,1,0,0:0:0:0:
256,192,289120,1,0,0:0:0:0:
402,192,289120,1,0,0:0:0:0:
475,192,289206,1,0,0:0:0:0:
182,192,289206,1,0,0:0:0:0:
36,192,289292,1,0,0:0:0:0:
329,192,289292,1,0,0:0:0:0:
109,192,289378,1,0,0:0:0:0:
256,192,289378,1,0,0:0:0:0:
402,192,289378,1,0,0:0:0:0:
182,192,289463,1,0,0:0:0:0:
36,192,289549,1,0,0:0:0:0:
109,192,289549,1,0,0:0:0:0:
182,192,289549,1,0,0:0:0:0:
256,192,289549,1,0,0:0:0:0:
402,192,289549,1,0,0:0:0:0:
475,192,289549,1,0,0:0:0:0:
329,192,289549,1,0,0:0:0:0:
109,192,289635,1,0,0:0:0:0:
36,192,289635,1,0,0:0:0:0:
402,192,289635,1,0,0:0:0:0:
256,192,289635,1,0,0:0:0:0:
475,192,289635,1,0,0:0:0:0:
182,192,289720,1,0,0:0:0:0:
329,192,289720,1,0,0:0:0:0:
475,192,289806,1,0,0:0:0:0:
36,192,289892,1,0,0:0:0:0:
182,192,289892,1,0,0:0:0:0:
402,192,289892,1,0,0:0:0:0:
109,192,289978,1,0,0:0:0:0:
329,192,289978,1,0,0:0:0:0:
475,192,290063,1,0,0:0:0:0:
182,192,290063,1,0,0:0:0:0:
329,192,290149,1,0,0:0:0:0:
109,192,290149,1,0,0:0:0:0:
256,192,290235,1,0,0:0:0:0:
402,192,290235,1,0,0:0:0:0:
36,192,290235,1,0,0:0:0:0:
475,192,290320,1,0,0:0:0:0:
182,192,290320,1,0,0:0:0:0:
329,192,290406,1,0,0:0:0:0:
109,192,290406,1,0,0:0:0:0:
402,192,290492,1,0,0:0:0:0:
36,192,290492,1,0,0:0:0:0:
256,192,290492,1,0,0:0:0:0:
475,192,290578,1,0,0:0:0:0:
109,192,290578,1,0,0:0:0:0:
329,192,290663,1,0,0:0:0:0:
182,192,290663,1,0,0:0:0:0:
36,192,290749,1,0,0:0:0:0:
256,192,290749,1,0,0:0:0:0:
475,192,290749,1,0,0:0:0:0:
329,192,290835,1,0,0:0:0:0:
109,192,290920,1,0,0:0:0:0:
36,192,290920,1,0,0:0:0:0:
182,192,290920,1,0,0:0:0:0:
329,192,290920,1,0,0:0:0:0:
402,192,290920,1,0,0:0:0:0:
256,192,290920,1,0,0:0:0:0:
475,192,290920,1,0,0:0:0:0:
182,192,291006,1,0,0:0:0:0:
256,192,291006,1,0,0:0:0:0:
402,192,291006,1,0,0:0:0:0:
475,192,291006,1,0,0:0:0:0:
329,192,291006,1,0,0:0:0:0:
109,192,291092,1,0,0:0:0:0:
36,192,291092,1,0,0:0:0:0:
402,192,291178,1,0,0:0:0:0:
256,192,291178,1,0,0:0:0:0:
36,192,291263,1,0,0:0:0:0:
329,192,291263,1,0,0:0:0:0:
182,192,291263,1,0,0:0:0:0:
475,192,291349,1,0,0:0:0:0:
256,192,291349,1,0,0:0:0:0:
329,192,291435,1,0,0:0:0:0:
182,192,291435,1,0,0:0:0:0:
36,192,291520,1,0,0:0:0:0:
402,192,291520,1,0,0:0:0:0:
475,192,291606,1,0,0:0:0:0:
256,192,291606,1,0,0:0:0:0:
109,192,291606,1,0,0:0:0:0:
36,192,291692,1,0,0:0:0:0:
329,192,291692,1,0,0:0:0:0:
402,192,291778,1,0,0:0:0:0:
182,192,291778,1,0,0:0:0:0:
256,192,291863,1,0,0:0:0:0:
475,192,291863,1,0,0:0:0:0:
36,192,291863,1,0,0:0:0:0:
402,192,291949,1,0,0:0:0:0:
109,192,291949,1,0,0:0:0:0:
329,192,292035,1,0,0:0:0:0:
182,192,292035,1,0,0:0:0:0:
475,192,292120,1,0,0:0:0:0:
256,192,292120,1,0,0:0:0:0:
36,192,292120,1,0,0:0:0:0:
329,192,292206,1,0,0:0:0:0:
36,192,292292,1,0,0:0:0:0:
109,192,292292,1,0,0:0:0:0:
256,192,292292,1,0,0:0:0:0:
329,192,292292,1,0,0:0:0:0:
475,192,292292,1,0,0:0:0:0:
182,192,292292,1,0,0:0:0:0:
402,192,292292,1,0,0:0:0:0:
36,192,292378,1,0,0:0:0:0:
256,192,292378,1,0,0:0:0:0:
109,192,292378,1,0,0:0:0:0:
402,192,292378,1,0,0:0:0:0:
475,192,292378,1,0,0:0:0:0:
182,192,292463,1,0,0:0:0:0:
329,192,292463,1,0,0:0:0:0:
402,192,292549,1,0,0:0:0:0:
36,192,292635,1,0,0:0:0:0:
256,192,292635,1,0,0:0:0:0:
475,192,292635,1,0,0:0:0:0:
109,192,292720,1,0,0:0:0:0:
402,192,292720,1,0,0:0:0:0:
182,192,292806,1,0,0:0:0:0:
329,192,292806,1,0,0:0:0:0:
109,192,292892,1,0,0:0:0:0:
402,192,292892,1,0,0:0:0:0:
182,192,292978,1,0,0:0:0:0:
329,192,292978,1,0,0:0:0:0:
475,192,292978,1,0,0:0:0:0:
36,192,293063,1,0,0:0:0:0:
256,192,293063,1,0,0:0:0:0:
182,192,293149,1,0,0:0:0:0:
475,192,293149,1,0,0:0:0:0:
109,192,293235,1,0,0:0:0:0:
256,192,293235,1,0,0:0:0:0:
402,192,293235,1,0,0:0:0:0:
329,192,293320,1,0,0:0:0:0:
36,192,293320,1,0,0:0:0:0:
475,192,293406,1,0,0:0:0:0:
182,192,293406,1,0,0:0:0:0:
36,192,293492,1,0,0:0:0:0:
329,192,293492,1,0,0:0:0:0:
109,192,293492,1,0,0:0:0:0:
256,192,293578,1,0,0:0:0:0:
402,192,293578,1,0,0:0:0:0:
36,192,293663,1,0,0:0:0:0:
475,192,293663,1,0,0:0:0:0:
109,192,293720,1,0,0:0:0:0:
329,192,293720,1,0,0:0:0:0:
182,192,293778,1,0,0:0:0:0:
475,192,293778,1,0,0:0:0:0:
402,192,293835,1,0,0:0:0:0:
36,192,293835,1,0,0:0:0:0:
329,192,293892,1,0,0:0:0:0:
109,192,293892,1,0,0:0:0:0:
182,192,293949,1,0,0:0:0:0:
475,192,293949,1,0,0:0:0:0:
256,192,294006,1,0,0:0:0:0:
402,192,294006,1,0,0:0:0:0:
329,192,294063,1,0,0:0:0:0:
36,192,294063,1,0,0:0:0:0:
109,192,294120,1,0,0:0:0:0:
475,192,294120,1,0,0:0:0:0:
402,192,294178,1,0,0:0:0:0:
182,192,294178,1,0,0:0:0:0:
256,192,294235,1,0,0:0:0:0:
36,192,294235,1,0,0:0:0:0:
329,192,294292,1,0,0:0:0:0:
475,192,294292,1,0,0:0:0:0:
109,192,294292,1,0,0:0:0:0:
402,192,294349,1,0,0:0:0:0:
182,192,294349,1,0,0:0:0:0:
256,192,294406,1,0,0:0:0:0:
475,192,294463,1,0,0:0:0:0:
36,192,294463,1,0,0:0:0:0:
402,192,294520,1,0,0:0:0:0:
109,192,294520,1,0,0:0:0:0:
329,192,294578,1,0,0:0:0:0:
182,192,294578,1,0,0:0:0:0:
256,192,294635,1,0,0:0:0:0:
475,192,294635,1,0,0:0:0:0:
402,192,294692,1,0,0:0:0:0:
36,192,294692,1,0,0:0:0:0:
109,192,294749,1,0,0:0:0:0:
329,192,294749,1,0,0:0:0:0:
475,192,294806,1,0,0:0:0:0:
182,192,294806,1,0,0:0:0:0:
402,192,294863,1,0,0:0:0:0:
36,192,294863,1,0,0:0:0:0:
329,192,294920,1,0,0:0:0:0:
109,192,294920,1,0,0:0:0:0:
182,192,294978,1,0,0:0:0:0:
475,192,294978,1,0,0:0:0:0:
402,192,295035,1,0,0:0:0:0:
36,192,295035,1,0,0:0:0:0:
329,192,295092,1,0,0:0:0:0:
109,192,295092,1,0,0:0:0:0:
256,192,295149,1,0,0:0:0:0:
475,192,295149,1,0,0:0:0:0:
182,192,295206,1,0,0:0:0:0:
402,192,295206,1,0,0:0:0:0:
109,192,295263,1,0,0:0:0:0:
329,192,295263,1,0,0:0:0:0:
36,192,295320,1,0,0:0:0:0:
256,192,295320,1,0,0:0:0:0:
182,192,295378,1,0,0:0:0:0:
475,192,295378,1,0,0:0:0:0:
109,192,295435,1,0,0:0:0:0:
402,192,295435,1,0,0:0:0:0:
36,192,295492,1,0,0:0:0:0:
329,192,295492,1,0,0:0:0:0:
256,192,295549,1,0,0:0:0:0:
475,192,295549,1,0,0:0:0:0:
402,192,295606,1,0,0:0:0:0:
109,192,295606,1,0,0:0:0:0:
329,192,295663,1,0,0:0:0:0:
182,192,295663,1,0,0:0:0:0:
256,192,295720,1,0,0:0:0:0:
36,192,295720,1,0,0:0:0:0:
109,192,295778,1,0,0:0:0:0:
475,192,295778,1,0,0:0:0:0:
182,192,295835,1,0,0:0:0:0:
402,192,295835,1,0,0:0:0:0:
256,192,295892,1,0,0:0:0:0:
36,192,295892,1,0,0:0:0:0:
329,192,295949,1,0,0:0:0:0:
109,192,295949,1,0,0:0:0:0:
402,192,296006,1,0,0:0:0:0:
182,192,296006,1,0,0:0:0:0:
475,192,296063,1,0,0:0:0:0:
256,192,296063,1,0,0:0:0:0:
329,192,296120,1,0,0:0:0:0:
36,192,296120,1,0,0:0:0:0:
402,192,296178,1,0,0:0:0:0:
109,192,296178,1,0,0:0:0:0:
182,192,296235,1,0,0:0:0:0:
475,192,296235,1,0,0:0:0:0:
402,192,296278,1,0,0:0:0:0:
36,192,296278,1,0,0:0:0:0:
329,192,296320,1,0,0:0:0:0:
109,192,296320,1,0,0:0:0:0:
182,192,296363,1,0,0:0:0:0:
475,192,296406,1,0,0:0:0:0:
256,192,296406,1,0,0:0:0:0:
36,192,296406,1,0,0:0:0:0:
109,192,296492,1,0,0:0:0:0:
402,192,296492,1,0,0:0:0:0:
329,192,296492,1,0,0:0:0:0:
36,192,296578,1,0,0:0:0:0:
475,192,296578,1,0,0:0:0:0:
256,192,296578,1,0,0:0:0:0:
109,192,296663,1,0,0:0:0:0:
182,192,296663,1,0,0:0:0:0:
402,192,296663,1,0,0:0:0:0:
256,192,296749,1,0,0:0:0:0:
475,192,296749,1,0,0:0:0:0:
36,192,296749,1,0,0:0:0:0:
329,192,296835,1,0,0:0:0:0:
402,192,296835,1,0,0:0:0:0:
109,192,296835,1,0,0:0:0:0:
36,192,296920,1,0,0:0:0:0:
256,192,296920,1,0,0:0:0:0:
475,192,296920,1,0,0:0:0:0:
109,192,297006,1,0,0:0:0:0:
182,192,297006,1,0,0:0:0:0:
329,192,297006,1,0,0:0:0:0:
256,192,297092,1,0,0:0:0:0:
475,192,297092,1,0,0:0:0:0:
36,192,297092,1,0,0:0:0:0:
182,192,297178,1,0,0:0:0:0:
329,192,297178,1,0,0:0:0:0:
402,192,297178,1,0,0:0:0:0:
475,192,297263,1,0,0:0:0:0:
36,192,297263,1,0,0:0:0:0:
402,192,297292,1,0,0:0:0:0:
109,192,297292,1,0,0:0:0:0:
329,192,297320,1,0,0:0:0:0:
182,192,297320,1,0,0:0:0:0:
36,192,297349,1,0,0:0:0:0:
475,192,297349,1,0,0:0:0:0:
109,192,297378,1,0,0:0:0:0:
402,192,297378,1,0,0:0:0:0:
182,192,297406,1,0,0:0:0:0:
329,192,297406,1,0,0:0:0:0:
475,192,297435,1,0,0:0:0:0:
36,192,297435,1,0,0:0:0:0:
256,192,297435,1,0,0:0:0:0:
109,192,297520,1,0,0:0:0:0:
182,192,297520,1,0,0:0:0:0:
402,192,297520,1,0,0:0:0:0:
329,192,297520,1,0,0:0:0:0:
36,192,297606,1,0,0:0:0:0:
256,192,297606,1,0,0:0:0:0:
475,192,297606,1,0,0:0:0:0:
109,192,297692,1,0,0:0:0:0:
329,192,297692,1,0,0:0:0:0:
402,192,297692,1,0,0:0:0:0:
182,192,297692,1,0,0:0:0:0:
36,192,297778,1,0,0:0:0:0:
475,192,297778,1,0,0:0:0:0:
256,192,297778,1,0,0:0:0:0:
329,192,297949,128,0,298120:0:0:0:0:
182,192,298035,128,0,298206:0:0:0:0:
256,192,298120,128,0,298206:0:0:0:0:
329,192,298206,128,0,298378:0:0:0:0:
109,192,298292,128,0,298463:0:0:0:0:
182,192,298378,128,0,298463:0:0:0:0:
256,192,298463,128,0,298549:0:0:0:0:
36,192,298635,128,0,298720:0:0:0:0:
329,192,298635,128,0,298806:0:0:0:0:
109,192,298720,128,0,298892:0:0:0:0:
402,192,298806,128,0,298892:0:0:0:0:
256,192,298806,1,0,0:0:0:0:
182,192,298892,1,0,0:0:0:0:
36,192,298978,1,0,0:0:0:0:
475,192,298978,1,0,0:0:0:0:
256,192,298978,1,0,0:0:0:0:
182,192,299063,1,0,0:0:0:0:
329,192,299063,1,0,0:0:0:0:
36,192,299149,128,0,299235:0:0:0:0:
109,192,299149,128,0,299235:0:0:0:0:
256,192,299149,128,0,299235:0:0:0:0:
402,192,299149,128,0,299235:0:0:0:0:
475,192,299149,128,0,299235:0:0:0:0:
36,192,299320,1,0,0:0:0:0:
182,192,299320,1,0,0:0:0:0:
402,192,299406,1,0,0:0:0:0:
256,192,299406,1,0,0:0:0:0:
475,192,299406,1,0,0:0:0:0:
36,192,299492,1,0,0:0:0:0:
109,192,299492,1,0,0:0:0:0:
256,192,299578,1,0,0:0:0:0:
402,192,299578,1,0,0:0:0:0:
475,192,299578,1,0,0:0:0:0:
329,192,299663,1,0,0:0:0:0:
36,192,299663,1,0,0:0:0:0:
109,192,299749,1,0,0:0:0:0:
402,192,299749,1,0,0:0:0:0:
36,192,299835,128,0,299920:0:0:0:0:
182,192,299835,128,0,299920:0:0:0:0:
256,192,299835,128,0,299920:0:0:0:0:
329,192,299835,128,0,299920:0:0:0:0:
475,192,299835,128,0,299920:0:0:0:0:
329,192,300006,1,0,0:0:0:0:
475,192,300006,1,0,0:0:0:0:
36,192,300092,1,0,0:0:0:0:
109,192,300092,1,0,0:0:0:0:
256,192,300092,1,0,0:0:0:0:
402,192,300178,1,0,0:0:0:0:
475,192,300178,1,0,0:0:0:0:
36,192,300263,1,0,0:0:0:0:
109,192,300263,1,0,0:0:0:0:
256,192,300263,1,0,0:0:0:0:
182,192,300349,1,0,0:0:0:0:
329,192,300349,1,0,0:0:0:0:
256,192,300435,1,0,0:0:0:0:
402,192,300435,1,0,0:0:0:0:
36,192,300520,128,0,300606:0:0:0:0:
182,192,300520,128,0,300606:0:0:0:0:
109,192,300520,128,0,300606:0:0:0:0:
329,192,300520,128,0,300606:0:0:0:0:
475,192,300520,128,0,300606:0:0:0:0:
36,192,300692,1,0,0:0:0:0:
329,192,300692,1,0,0:0:0:0:
256,192,300778,1,0,0:0:0:0:
475,192,300778,1,0,0:0:0:0:
182,192,300778,1,0,0:0:0:0:
36,192,300863,1,0,0:0:0:0:
109,192,300863,1,0,0:0:0:0:
256,192,300949,1,0,0:0:0:0:
475,192,300949,1,0,0:0:0:0:
182,192,300949,1,0,0:0:0:0:
329,192,301035,1,0,0:0:0:0:
36,192,301035,1,0,0:0:0:0:
109,192,301120,1,0,0:0:0:0:
402,192,301120,1,0,0:0:0:0:
36,192,301206,128,0,301292:0:0:0:0:
182,192,301206,128,0,301292:0:0:0:0:
329,192,301206,128,0,301292:0:0:0:0:
256,192,301206,128,0,301292:0:0:0:0:
475,192,301206,128,0,301292:0:0:0:0:
256,192,301378,1,0,0:0:0:0:
475,192,301378,1,0,0:0:0:0:
182,192,301463,1,0,0:0:0:0:
329,192,301463,1,0,0:0:0:0:
109,192,301463,1,0,0:0:0:0:
402,192,301549,1,0,0:0:0:0:
475,192,301549,1,0,0:0:0:0:
182,192,301635,1,0,0:0:0:0:
109,192,301635,1,0,0:0:0:0:
329,192,301635,1,0,0:0:0:0:
36,192,301720,1,0,0:0:0:0:
475,192,301720,1,0,0:0:0:0:
402,192,301806,1,0,0:0:0:0:
182,192,301806,1,0,0:0:0:0:
36,192,301892,128,0,301978:0:0:0:0:
109,192,301892,128,0,301978:0:0:0:0:
256,192,301892,128,0,301978:0:0:0:0:
329,192,301892,128,0,301978:0:0:0:0:
475,192,301892,128,0,301978:0:0:0:0:
182,192,302063,1,0,0:0:0:0:
402,192,302063,1,0,0:0:0:0:
36,192,302149,1,0,0:0:0:0:
109,192,302149,1,0,0:0:0:0:
256,192,302149,1,0,0:0:0:0:
329,192,302235,1,0,0:0:0:0:
475,192,302235,1,0,0:0:0:0:
36,192,302320,1,0,0:0:0:0:
109,192,302320,1,0,0:0:0:0:
256,192,302320,1,0,0:0:0:0:
182,192,302406,1,0,0:0:0:0:
475,192,302406,1,0,0:0:0:0:
36,192,302492,1,0,0:0:0:0:
402,192,302492,1,0,0:0:0:0:
109,192,302578,128,0,302663:0:0:0:0:
182,192,302578,128,0,302663:0:0:0:0:
256,192,302578,128,0,302663:0:0:0:0:
329,192,302578,128,0,302663:0:0:0:0:
475,192,302578,128,0,302663:0:0:0:0:
36,192,302749,1,0,0:0:0:0:
256,192,302749,1,0,0:0:0:0:
182,192,302835,1,0,0:0:0:0:
329,192,302835,1,0,0:0:0:0:
402,192,302835,1,0,0:0:0:0:
36,192,302920,1,0,0:0:0:0:
109,192,302920,1,0,0:0:0:0:
402,192,303006,1,0,0:0:0:0:
329,192,303006,1,0,0:0:0:0:
182,192,303006,1,0,0:0:0:0:
36,192,303092,1,0,0:0:0:0:
256,192,303092,1,0,0:0:0:0:
109,192,303178,1,0,0:0:0:0:
329,192,303178,1,0,0:0:0:0:
475,192,303178,1,0,0:0:0:0:
36,192,303263,1,0,0:0:0:0:
182,192,303263,1,0,0:0:0:0:
402,192,303263,1,0,0:0:0:0:
256,192,303349,1,0,0:0:0:0:
329,192,303349,1,0,0:0:0:0:
475,192,303349,1,0,0:0:0:0:
36,192,303435,1,0,0:0:0:0:
109,192,303435,1,0,0:0:0:0:
182,192,303520,1,0,0:0:0:0:
402,192,303520,1,0,0:0:0:0:
475,192,303606,1,0,0:0:0:0:
36,192,303606,1,0,0:0:0:0:
256,192,303606,1,0,0:0:0:0:
402,192,303692,1,0,0:0:0:0:
182,192,303692,1,0,0:0:0:0:
36,192,303778,1,0,0:0:0:0:
329,192,303778,1,0,0:0:0:0:
109,192,303863,1,0,0:0:0:0:
402,192,303863,1,0,0:0:0:0:
36,192,303949,128,0,304035:0:0:0:0:
475,192,303949,128,0,304035:0:0:0:0:
256,192,303949,128,0,304035:0:0:0:0:
182,192,304035,1,0,0:0:0:0:
329,192,304035,1,0,0:0:0:0:
36,192,304120,1,0,0:0:0:0:
402,192,304120,1,0,0:0:0:0:
256,192,304120,1,0,0:0:0:0:
109,192,304206,1,0,0:0:0:0:
475,192,304206,1,0,0:0:0:0:
36,192,304292,128,0,304378:0:0:0:0:
182,192,304292,128,0,304378:0:0:0:0:
329,192,304292,128,0,304378:0:0:0:0:
256,192,304378,1,0,0:0:0:0:
475,192,304378,1,0,0:0:0:0:
182,192,304463,1,0,0:0:0:0:
402,192,304463,1,0,0:0:0:0:
329,192,304549,1,0,0:0:0:0:
109,192,304549,1,0,0:0:0:0:
36,192,304635,128,0,304720:0:0:0:0:
256,192,304635,128,0,304720:0:0:0:0:
182,192,304635,128,0,304720:0:0:0:0:
402,192,304635,128,0,304720:0:0:0:0:
475,192,304635,128,0,304720:0:0:0:0:
182,192,304806,1,0,0:0:0:0:
402,192,304806,1,0,0:0:0:0:
36,192,304892,1,0,0:0:0:0:
109,192,304892,1,0,0:0:0:0:
256,192,304892,1,0,0:0:0:0:
475,192,304978,1,0,0:0:0:0:
329,192,304978,1,0,0:0:0:0:
256,192,305063,1,0,0:0:0:0:
109,192,305063,1,0,0:0:0:0:
36,192,305063,1,0,0:0:0:0:
182,192,305149,1,0,0:0:0:0:
402,192,305149,1,0,0:0:0:0:
256,192,305235,1,0,0:0:0:0:
475,192,305235,1,0,0:0:0:0:
109,192,305320,128,0,305406:0:0:0:0:
36,192,305320,128,0,305406:0:0:0:0:
329,192,305320,128,0,305406:0:0:0:0:
402,192,305320,128,0,305406:0:0:0:0:
182,192,305320,128,0,305406:0:0:0:0:
329,192,305492,1,0,0:0:0:0:
109,192,305492,1,0,0:0:0:0:
256,192,305578,1,0,0:0:0:0:
402,192,305578,1,0,0:0:0:0:
475,192,305578,1,0,0:0:0:0:
109,192,305663,1,0,0:0:0:0:
36,192,305663,1,0,0:0:0:0:
256,192,305749,1,0,0:0:0:0:
402,192,305749,1,0,0:0:0:0:
475,192,305749,1,0,0:0:0:0:
36,192,305835,1,0,0:0:0:0:
182,192,305835,1,0,0:0:0:0:
109,192,305920,1,0,0:0:0:0:
402,192,305920,1,0,0:0:0:0:
329,192,306006,128,0,306092:0:0:0:0:
475,192,306006,128,0,306092:0:0:0:0:
256,192,306006,128,0,306092:0:0:0:0:
36,192,306006,128,0,306092:0:0:0:0:
182,192,306006,128,0,306092:0:0:0:0:
475,192,306178,1,0,0:0:0:0:
182,192,306178,1,0,0:0:0:0:
329,192,306263,1,0,0:0:0:0:
36,192,306263,1,0,0:0:0:0:
109,192,306263,1,0,0:0:0:0:
402,192,306349,1,0,0:0:0:0:
475,192,306349,1,0,0:0:0:0:
329,192,306435,1,0,0:0:0:0:
36,192,306435,1,0,0:0:0:0:
109,192,306435,1,0,0:0:0:0:
475,192,306520,1,0,0:0:0:0:
256,192,306520,1,0,0:0:0:0:
402,192,306606,1,0,0:0:0:0:
182,192,306606,1,0,0:0:0:0:
329,192,306692,128,0,306778:0:0:0:0:
36,192,306692,128,0,306778:0:0:0:0:
109,192,306692,128,0,306778:0:0:0:0:
475,192,306692,128,0,306778:0:0:0:0:
256,192,306692,128,0,306778:0:0:0:0:
36,192,306863,1,0,0:0:0:0:
475,192,306863,1,0,0:0:0:0:
182,192,306949,1,0,0:0:0:0:
329,192,306949,1,0,0:0:0:0:
402,192,306949,1,0,0:0:0:0:
256,192,307035,1,0,0:0:0:0:
36,192,307035,1,0,0:0:0:0:
182,192,307120,1,0,0:0:0:0:
329,192,307120,1,0,0:0:0:0:
402,192,307120,1,0,0:0:0:0:
36,192,307206,1,0,0:0:0:0:
256,192,307206,1,0,0:0:0:0:
475,192,307206,1,0,0:0:0:0:
109,192,307292,1,0,0:0:0:0:
402,192,307292,1,0,0:0:0:0:
182,192,307378,128,0,307463:0:0:0:0:
256,192,307378,128,0,307463:0:0:0:0:
36,192,307378,128,0,307463:0:0:0:0:
475,192,307378,128,0,307463:0:0:0:0:
329,192,307378,128,0,307463:0:0:0:0:
36,192,307549,1,0,0:0:0:0:
329,192,307549,1,0,0:0:0:0:
182,192,307635,1,0,0:0:0:0:
256,192,307635,1,0,0:0:0:0:
475,192,307635,1,0,0:0:0:0:
36,192,307720,1,0,0:0:0:0:
109,192,307720,1,0,0:0:0:0:
182,192,307806,1,0,0:0:0:0:
256,192,307806,1,0,0:0:0:0:
475,192,307806,1,0,0:0:0:0:
36,192,307892,1,0,0:0:0:0:
402,192,307892,1,0,0:0:0:0:
109,192,307978,1,0,0:0:0:0:
256,192,307978,1,0,0:0:0:0:
182,192,308063,128,0,308149:0:0:0:0:
402,192,308063,128,0,308149:0:0:0:0:
475,192,308063,128,0,308149:0:0:0:0:
36,192,308063,128,0,308149:0:0:0:0:
329,192,308063,128,0,308149:0:0:0:0:
182,192,308235,1,0,0:0:0:0:
402,192,308235,1,0,0:0:0:0:
36,192,308320,1,0,0:0:0:0:
109,192,308320,1,0,0:0:0:0:
256,192,308320,1,0,0:0:0:0:
402,192,308406,1,0,0:0:0:0:
475,192,308406,1,0,0:0:0:0:
109,192,308492,1,0,0:0:0:0:
36,192,308492,1,0,0:0:0:0:
256,192,308492,1,0,0:0:0:0:
182,192,308578,1,0,0:0:0:0:
475,192,308578,1,0,0:0:0:0:
109,192,308663,1,0,0:0:0:0:
402,192,308663,1,0,0:0:0:0:
36,192,308749,1,0,0:0:0:0:
256,192,308749,1,0,0:0:0:0:
475,192,308835,1,0,0:0:0:0:
402,192,308835,1,0,0:0:0:0:
182,192,308835,1,0,0:0:0:0:
109,192,308920,1,0,0:0:0:0:
329,192,308920,1,0,0:0:0:0:
182,192,309006,1,0,0:0:0:0:
36,192,309006,1,0,0:0:0:0:
402,192,309092,1,0,0:0:0:0:
475,192,309092,1,0,0:0:0:0:
256,192,309092,1,0,0:0:0:70:soft-hitclap.wav
329,192,309092,1,0,0:0:0:0:
36,192,309178,1,0,0:0:0:0:
182,192,309178,1,0,0:0:0:70:soft-hitclap.wav
109,192,309178,1,0,0:0:0:0:
475,192,309263,1,0,0:0:0:0:
402,192,309263,1,0,0:0:0:0:
329,192,309263,1,0,0:0:0:70:soft-hitclap.wav
182,192,309349,1,0,0:0:0:0:
256,192,309349,1,0,0:0:0:70:soft-hitclap.wav
109,192,309349,1,0,0:0:0:0:
36,192,309435,128,0,309520:0:0:0:0:
329,192,309435,128,0,309520:0:0:0:0:
402,192,309435,128,0,309520:0:0:0:0:
475,192,309435,128,0,309520:0:0:0:0:
109,192,309520,1,0,0:0:0:0:
256,192,309520,1,0,0:0:0:0:
36,192,309606,1,0,0:0:0:0:
402,192,309606,1,0,0:0:0:0:
182,192,309606,1,0,0:0:0:0:
256,192,309692,1,0,0:0:0:0:
475,192,309692,1,0,0:0:0:0:
36,192,309778,128,0,309863:0:0:0:0:
182,192,309778,128,0,309863:0:0:0:0:
402,192,309778,128,0,309863:0:0:0:0:
329,192,309863,1,0,0:0:0:0:
475,192,309863,1,0,0:0:0:0:
36,192,309949,1,0,0:0:0:70:soft-hitclap.wav
109,192,309992,1,0,0:0:0:70:soft-hitclap.wav
182,192,310035,1,0,0:0:0:70:soft-hitclap.wav
256,192,310078,1,0,0:0:0:70:soft-hitclap.wav
36,192,310120,128,0,310206:0:0:0:0:
109,192,310120,128,0,310206:0:0:0:0:
329,192,310120,128,0,310206:0:0:0:0:
402,192,310120,128,0,310206:0:0:0:0:
475,192,310120,128,0,310206:0:0:0:0:
329,192,310292,1,0,0:0:0:0:
182,192,310292,1,0,0:0:0:0:
402,192,310378,1,0,0:0:0:0:
475,192,310378,1,0,0:0:0:0:
256,192,310378,1,0,0:0:0:0:
36,192,310463,1,0,0:0:0:0:
109,192,310463,1,0,0:0:0:0:
402,192,310549,1,0,0:0:0:0:
475,192,310549,1,0,0:0:0:0:
256,192,310549,1,0,0:0:0:0:
329,192,310635,1,0,0:0:0:0:
36,192,310635,1,0,0:0:0:0:
109,192,310720,1,0,0:0:0:0:
475,192,310720,1,0,0:0:0:0:
36,192,310806,128,0,310892:0:0:0:0:
256,192,310806,128,0,310892:0:0:0:0:
182,192,310806,128,0,310892:0:0:0:0:
329,192,310806,128,0,310892:0:0:0:0:
402,192,310806,128,0,310892:0:0:0:0:
256,192,310978,1,0,0:0:0:0:
475,192,310978,1,0,0:0:0:0:
109,192,311063,1,0,0:0:0:0:
182,192,311063,1,0,0:0:0:0:
329,192,311063,1,0,0:0:0:0:
402,192,311149,1,0,0:0:0:0:
475,192,311149,1,0,0:0:0:0:
329,192,311235,1,0,0:0:0:0:
109,192,311235,1,0,0:0:0:0:
182,192,311235,1,0,0:0:0:0:
36,192,311320,1,0,0:0:0:0:
256,192,311320,1,0,0:0:0:0:
182,192,311406,1,0,0:0:0:0:
402,192,311406,1,0,0:0:0:0:
36,192,311492,128,0,311578:0:0:0:0:
109,192,311492,128,0,311578:0:0:0:0:
256,192,311492,128,0,311578:0:0:0:0:
329,192,311492,128,0,311578:0:0:0:0:
475,192,311492,128,0,311578:0:0:0:0:
256,192,311663,1,0,0:0:0:0:
475,192,311663,1,0,0:0:0:0:
329,192,311749,1,0,0:0:0:0:
402,192,311749,1,0,0:0:0:0:
36,192,311749,1,0,0:0:0:0:
109,192,311835,1,0,0:0:0:0:
182,192,311835,1,0,0:0:0:0:
402,192,311920,1,0,0:0:0:0:
329,192,311920,1,0,0:0:0:0:
36,192,311920,1,0,0:0:0:0:
475,192,312006,1,0,0:0:0:0:
256,192,312006,1,0,0:0:0:0:
109,192,312092,1,0,0:0:0:0:
329,192,312092,1,0,0:0:0:0:
36,192,312178,128,0,312263:0:0:0:0:
182,192,312178,128,0,312263:0:0:0:0:
256,192,312178,128,0,312263:0:0:0:0:
402,192,312178,128,0,312263:0:0:0:0:
475,192,312178,128,0,312263:0:0:0:0:
36,192,312349,1,0,0:0:0:0:
256,192,312349,1,0,0:0:0:0:
109,192,312435,1,0,0:0:0:0:
182,192,312435,1,0,0:0:0:0:
329,192,312435,1,0,0:0:0:0:
402,192,312520,1,0,0:0:0:0:
475,192,312520,1,0,0:0:0:0:
109,192,312606,1,0,0:0:0:0:
182,192,312606,1,0,0:0:0:0:
329,192,312606,1,0,0:0:0:0:
36,192,312692,1,0,0:0:0:0:
475,192,312692,1,0,0:0:0:0:
256,192,312692,1,0,0:0:0:0:
109,192,312778,1,0,0:0:0:0:
402,192,312778,1,0,0:0:0:0:
36,192,312863,128,0,312949:0:0:0:0:
182,192,312863,128,0,312949:0:0:0:0:
256,192,312863,128,0,312949:0:0:0:0:
329,192,312863,128,0,312949:0:0:0:0:
475,192,312863,128,0,312949:0:0:0:0:
36,192,313035,1,0,0:0:0:0:
475,192,313035,1,0,0:0:0:0:
182,192,313120,1,0,0:0:0:0:
256,192,313120,1,0,0:0:0:0:
402,192,313120,1,0,0:0:0:0:
36,192,313206,1,0,0:0:0:0:
109,192,313206,1,0,0:0:0:0:
182,192,313292,1,0,0:0:0:0:
256,192,313292,1,0,0:0:0:0:
402,192,313292,1,0,0:0:0:0:
329,192,313378,1,0,0:0:0:0:
475,192,313378,1,0,0:0:0:0:
109,192,313463,1,0,0:0:0:0:
256,192,313463,1,0,0:0:0:0:
36,192,313549,128,0,313635:0:0:0:0:
182,192,313549,128,0,313635:0:0:0:0:
402,192,313549,128,0,313635:0:0:0:0:
329,192,313549,128,0,313635:0:0:0:0:
475,192,313549,128,0,313635:0:0:0:0:
182,192,313720,1,0,0:0:0:0:
402,192,313720,1,0,0:0:0:0:
36,192,313806,1,0,0:0:0:0:
256,192,313806,1,0,0:0:0:0:
329,192,313806,1,0,0:0:0:0:
475,192,313892,1,0,0:0:0:0:
109,192,313892,1,0,0:0:0:0:
256,192,313978,1,0,0:0:0:0:
329,192,313978,1,0,0:0:0:0:
36,192,313978,1,0,0:0:0:0:
475,192,314063,1,0,0:0:0:0:
182,192,314063,1,0,0:0:0:0:
36,192,314149,1,0,0:0:0:0:
329,192,314149,1,0,0:0:0:0:
109,192,314149,1,0,0:0:0:0:
475,192,314235,1,0,0:0:0:0:
256,192,314235,1,0,0:0:0:0:
402,192,314235,1,0,0:0:0:0:
329,192,314320,1,0,0:0:0:0:
36,192,314320,1,0,0:0:0:0:
109,192,314320,1,0,0:0:0:0:
402,192,314406,1,0,0:0:0:0:
182,192,314406,1,0,0:0:0:0:
475,192,314492,1,0,0:0:0:0:
256,192,314492,1,0,0:0:0:0:
36,192,314578,128,0,314663:0:0:0:0:
182,192,314578,128,0,314663:0:0:0:0:
402,192,314578,128,0,314663:0:0:0:0:
109,192,314663,1,0,0:0:0:0:
329,192,314663,1,0,0:0:0:0:
256,192,314749,1,0,0:0:0:70:soft-hitclap.wav
475,192,314749,1,0,0:0:0:0:
182,192,314792,1,0,0:0:0:70:soft-hitclap.wav
402,192,314806,1,0,0:0:0:0:
109,192,314835,1,0,0:0:0:70:soft-hitclap.wav
329,192,314863,1,0,0:0:0:0:
36,192,314878,1,0,0:0:0:70:soft-hitclap.wav
256,192,314920,128,0,315006:0:0:0:0:
475,192,314920,128,0,315006:0:0:0:0:
182,192,314920,1,0,0:0:0:0:
109,192,315006,1,0,0:0:0:0:
36,192,315092,1,0,0:0:0:0:
402,192,315092,1,0,0:0:0:0:
256,192,315092,1,0,0:0:0:0:
182,192,315178,1,0,0:0:0:0:
329,192,315178,1,0,0:0:0:0:
36,192,315263,1,0,0:0:0:0:
109,192,315263,1,0,0:0:0:0:
475,192,315263,1,0,0:0:0:0:
402,192,315349,1,0,0:0:0:0:
182,192,315349,1,0,0:0:0:0:
36,192,315435,1,0,0:0:0:0:
256,192,315435,1,0,0:0:0:0:
109,192,315520,1,0,0:0:0:0:
329,192,315520,1,0,0:0:0:0:
36,192,315606,1,0,0:0:0:0:
182,192,315606,1,0,0:0:0:0:
256,192,315606,1,0,0:0:0:0:
402,192,315606,1,0,0:0:0:0:
475,192,315606,1,0,0:0:0:0:
475,192,315778,1,0,0:0:0:0:
329,192,315778,1,0,0:0:0:0:
109,192,315778,1,0,0:0:0:0:
475,192,315949,1,0,0:0:0:0:
329,192,315949,1,0,0:0:0:0:
36,192,315949,1,0,0:0:0:0:
109,192,315949,1,0,0:0:0:0:
182,192,315949,1,0,0:0:0:0:
256,192,315949,1,0,0:0:0:0:
475,192,316120,1,0,0:0:0:0:
36,192,316120,1,0,0:0:0:0:
256,192,316120,1,0,0:0:0:0:
475,192,316292,1,0,0:0:0:0:
402,192,316292,1,0,0:0:0:0:
36,192,316292,1,0,0:0:0:0:
109,192,316292,1,0,0:0:0:0:
182,192,316292,1,0,0:0:0:0:
475,192,316463,1,0,0:0:0:0:
329,192,316463,1,0,0:0:0:0:
182,192,316463,1,0,0:0:0:0:
475,192,316635,1,0,0:0:0:0:
36,192,316635,1,0,0:0:0:0:
109,192,316635,1,0,0:0:0:0:
329,192,316635,1,0,0:0:0:0:
402,192,316635,1,0,0:0:0:0:
256,192,316635,1,0,0:0:0:0:
475,192,316806,1,0,0:0:0:0:
36,192,316806,1,0,0:0:0:0:
182,192,316806,1,0,0:0:0:0:
109,192,316892,1,0,0:0:0:0:
256,192,316892,1,0,0:0:0:0:
475,192,316978,1,0,0:0:0:0:
36,192,316978,1,0,0:0:0:0:
402,192,316978,1,0,0:0:0:0:
329,192,316978,1,0,0:0:0:0:
182,192,316978,1,0,0:0:0:0:
475,192,317149,1,0,0:0:0:0:
109,192,317149,1,0,0:0:0:0:
256,192,317149,1,0,0:0:0:0:
475,192,317320,1,0,0:0:0:0:
36,192,317320,1,0,0:0:0:0:
109,192,317320,1,0,0:0:0:0:
182,192,317320,1,0,0:0:0:0:
329,192,317320,1,0,0:0:0:0:
256,192,317320,1,0,0:0:0:0:
475,192,317492,1,0,0:0:0:0:
36,192,317492,1,0,0:0:0:0:
182,192,317492,1,0,0:0:0:0:
475,192,317663,1,0,0:0:0:0:
36,192,317663,1,0,0:0:0:0:
109,192,317663,1,0,0:0:0:0:
329,192,317663,1,0,0:0:0:0:
402,192,317663,1,0,0:0:0:0:
256,192,317663,1,0,0:0:0:0:
475,192,317835,1,0,0:0:0:0:
109,192,317835,1,0,0:0:0:0:
256,192,317835,1,0,0:0:0:0:
36,192,317920,1,0,0:0:0:0:
182,192,317920,1,0,0:0:0:0:
329,192,318006,1,0,0:0:0:0:
475,192,318006,1,0,0:0:0:0:
402,192,318006,1,0,0:0:0:0:
36,192,318092,1,0,0:0:0:0:
109,192,318092,1,0,0:0:0:0:
182,192,318092,1,0,0:0:0:0:
329,192,318178,1,0,0:0:0:0:
402,192,318178,1,0,0:0:0:0:
475,192,318178,1,0,0:0:0:0:
182,192,318263,1,0,0:0:0:0:
109,192,318263,1,0,0:0:0:0:
36,192,318263,1,0,0:0:0:0:
329,192,318349,1,0,0:0:0:0:
475,192,318349,1,0,0:0:0:0:
402,192,318349,1,0,0:0:0:0:
256,192,318349,128,0,318606:0:0:0:0:
36,192,318435,1,0,0:0:0:0:
109,192,318435,1,0,0:0:0:0:
182,192,318520,1,0,0:0:0:0:
402,192,318606,1,0,0:0:0:0:
475,192,318606,1,0,0:0:0:0:
256,192,318692,128,0,318949:0:0:0:0:
36,192,318692,1,0,0:0:0:0:
109,192,318692,1,0,0:0:0:0:
182,192,318692,1,0,0:0:0:0:
402,192,318778,1,0,0:0:0:0:
475,192,318778,1,0,0:0:0:0:
329,192,318863,1,0,0:0:0:0:
36,192,318949,1,0,0:0:0:0:
109,192,318949,1,0,0:0:0:0:
256,192,319035,128,0,319292:0:0:0:0:
329,192,319035,1,0,0:0:0:0:
402,192,319035,1,0,0:0:0:0:
475,192,319035,1,0,0:0:0:0:
182,192,319120,1,0,0:0:0:0:
36,192,319206,1,0,0:0:0:0:
109,192,319206,1,0,0:0:0:0:
402,192,319292,1,0,0:0:0:0:
475,192,319292,1,0,0:0:0:0:
256,192,319378,128,0,319635:0:0:0:0:
36,192,319378,1,0,0:0:0:0:
109,192,319378,1,0,0:0:0:0:
182,192,319378,1,0,0:0:0:0:
329,192,319463,1,0,0:0:0:0:
402,192,319549,1,0,0:0:0:0:
475,192,319549,1,0,0:0:0:0:
36,192,319635,1,0,0:0:0:0:
109,192,319635,1,0,0:0:0:0:
182,192,319720,128,0,320063:0:0:0:0:
329,192,319720,128,0,320406:0:0:0:0:
475,192,319720,1,0,0:0:0:0:
402,192,319778,1,0,0:0:0:0:
256,192,319835,1,0,0:0:0:0:
109,192,319892,1,0,0:0:0:0:
36,192,319949,1,0,0:0:0:0:
475,192,320006,1,0,0:0:0:0:
402,192,320063,1,0,0:0:0:0:
256,192,320120,1,0,0:0:0:0:
109,192,320178,1,0,0:0:0:0:
36,192,320235,1,0,0:0:0:0:
256,192,320292,1,0,0:0:0:0:
182,192,320349,1,0,0:0:0:0:
36,192,320406,1,0,0:0:0:0:
475,192,320406,1,0,0:0:0:0:
402,192,320449,1,0,0:0:0:0:
109,192,320463,1,0,0:0:0:0:
329,192,320492,1,0,0:0:0:0:
182,192,320520,1,0,0:0:0:0:
475,192,320535,1,0,0:0:0:0:
402,192,320578,1,0,0:0:0:0:
36,192,320578,1,0,0:0:0:0:
329,192,320620,1,0,0:0:0:0:
109,192,320635,1,0,0:0:0:0:
256,192,320692,1,0,0:0:0:0:
182,192,320692,1,0,0:0:0:0:
475,192,320692,1,0,0:0:0:0:
402,192,320792,1,0,0:0:0:0:
36,192,320792,1,0,0:0:0:0:
109,192,320792,1,0,0:0:0:0:
329,192,320920,1,0,0:0:0:0:
256,192,320920,1,0,0:0:0:0:
182,192,320920,1,0,0:0:0:0:
36,192,321092,128,0,321178:0:0:0:0:
475,192,321092,128,0,321178:0:0:0:0:
402,192,321092,128,0,321178:0:0:0:0:
109,192,321092,128,0,321178:0:0:0:0:
256,192,321092,128,0,321178:0:0:0:0:
182,192,321263,1,0,0:0:0:0:
475,192,321263,1,0,0:0:0:0:
329,192,321349,1,0,0:0:0:0:
36,192,321349,1,0,0:0:0:0:
109,192,321435,1,0,0:0:0:0:
475,192,321435,1,0,0:0:0:0:
182,192,321435,1,0,0:0:0:0:
256,192,321520,1,0,0:0:0:0:
402,192,321520,1,0,0:0:0:0:
109,192,321606,1,0,0:0:0:0:
329,192,321606,1,0,0:0:0:0:
256,192,321692,1,0,0:0:0:0:
36,192,321692,1,0,0:0:0:0:
475,192,321778,1,0,0:0:0:0:
182,192,321778,1,0,0:0:0:0:
402,192,321778,1,0,0:0:0:0:
329,192,321863,1,0,0:0:0:0:
109,192,321863,1,0,0:0:0:0:
475,192,321949,1,0,0:0:0:0:
36,192,321949,1,0,0:0:0:0:
329,192,322035,1,0,0:0:0:0:
182,192,322035,1,0,0:0:0:0:
36,192,322120,1,0,0:0:0:0:
256,192,322120,1,0,0:0:0:0:
475,192,322120,1,0,0:0:0:0:
402,192,322120,1,0,0:0:0:0:
182,192,322206,1,0,0:0:0:0:
329,192,322206,1,0,0:0:0:0:
36,192,322292,1,0,0:0:0:0:
475,192,322292,1,0,0:0:0:0:
182,192,322378,1,0,0:0:0:0:
329,192,322378,1,0,0:0:0:0:
402,192,322463,1,0,0:0:0:0:
109,192,322463,1,0,0:0:0:0:
36,192,322463,1,0,0:0:0:0:
256,192,322549,1,0,0:0:0:0:
475,192,322549,1,0,0:0:0:0:
402,192,322635,1,0,0:0:0:0:
36,192,322635,1,0,0:0:0:0:
256,192,322720,1,0,0:0:0:0:
109,192,322720,1,0,0:0:0:0:
182,192,322806,1,0,0:0:0:0:
402,192,322806,1,0,0:0:0:0:
475,192,322806,1,0,0:0:0:0:
329,192,322892,1,0,0:0:0:0:
36,192,322892,1,0,0:0:0:0:
182,192,322978,1,0,0:0:0:0:
475,192,322978,1,0,0:0:0:0:
329,192,323063,1,0,0:0:0:0:
36,192,323063,1,0,0:0:0:0:
109,192,323149,1,0,0:0:0:0:
475,192,323149,1,0,0:0:0:0:
182,192,323149,1,0,0:0:0:0:
256,192,323235,1,0,0:0:0:0:
402,192,323235,1,0,0:0:0:0:
36,192,323320,1,0,0:0:0:0:
182,192,323320,1,0,0:0:0:0:
256,192,323406,1,0,0:0:0:0:
402,192,323406,1,0,0:0:0:0:
36,192,323492,1,0,0:0:0:0:
109,192,323492,1,0,0:0:0:0:
329,192,323492,1,0,0:0:0:0:
475,192,323492,1,0,0:0:0:0:
182,192,323578,1,0,0:0:0:0:
402,192,323578,1,0,0:0:0:0:
36,192,323663,1,0,0:0:0:0:
475,192,323663,1,0,0:0:0:0:
182,192,323749,1,0,0:0:0:0:
256,192,323749,1,0,0:0:0:0:
329,192,323835,1,0,0:0:0:0:
402,192,323835,1,0,0:0:0:0:
475,192,323835,1,0,0:0:0:0:
36,192,323835,1,0,0:0:0:0:
109,192,323920,1,0,0:0:0:0:
256,192,323920,1,0,0:0:0:0:
329,192,324006,1,0,0:0:0:0:
475,192,324006,1,0,0:0:0:0:
109,192,324092,1,0,0:0:0:0:
182,192,324092,1,0,0:0:0:0:
402,192,324178,1,0,0:0:0:0:
36,192,324178,1,0,0:0:0:0:
256,192,324178,1,0,0:0:0:0:
182,192,324263,1,0,0:0:0:0:
475,192,324263,1,0,0:0:0:0:
402,192,324349,1,0,0:0:0:0:
109,192,324349,1,0,0:0:0:0:
182,192,324435,1,0,0:0:0:0:
329,192,324435,1,0,0:0:0:0:
475,192,324520,1,0,0:0:0:0:
36,192,324520,1,0,0:0:0:0:
109,192,324520,1,0,0:0:0:0:
256,192,324606,1,0,0:0:0:0:
402,192,324606,1,0,0:0:0:0:
475,192,324692,1,0,0:0:0:0:
182,192,324692,1,0,0:0:0:0:
256,192,324778,1,0,0:0:0:0:
36,192,324778,1,0,0:0:0:0:
109,192,324863,1,0,0:0:0:0:
402,192,324863,1,0,0:0:0:0:
475,192,324863,1,0,0:0:0:0:
329,192,324949,1,0,0:0:0:0:
182,192,324949,1,0,0:0:0:0:
36,192,325035,1,0,0:0:0:0:
475,192,325035,1,0,0:0:0:0:
182,192,325120,1,0,0:0:0:0:
402,192,325120,1,0,0:0:0:0:
36,192,325206,1,0,0:0:0:0:
109,192,325206,1,0,0:0:0:0:
329,192,325206,1,0,0:0:0:0:
475,192,325206,1,0,0:0:0:0:
256,192,325292,1,0,0:0:0:0:
402,192,325292,1,0,0:0:0:0:
36,192,325378,1,0,0:0:0:0:
182,192,325378,1,0,0:0:0:0:
475,192,325463,1,0,0:0:0:0:
329,192,325463,1,0,0:0:0:0:
182,192,325549,1,0,0:0:0:0:
109,192,325549,1,0,0:0:0:0:
402,192,325549,1,0,0:0:0:0:
36,192,325635,1,0,0:0:0:0:
256,192,325635,1,0,0:0:0:0:
475,192,325720,1,0,0:0:0:0:
109,192,325720,1,0,0:0:0:0:
402,192,325806,1,0,0:0:0:0:
36,192,325806,1,0,0:0:0:0:
256,192,325892,1,0,0:0:0:0:
182,192,325892,1,0,0:0:0:0:
329,192,325892,1,0,0:0:0:0:
475,192,325978,1,0,0:0:0:0:
109,192,325978,1,0,0:0:0:0:
256,192,326063,1,0,0:0:0:0:
402,192,326063,1,0,0:0:0:0:
36,192,326149,1,0,0:0:0:0:
329,192,326149,1,0,0:0:0:0:
402,192,326235,1,0,0:0:0:0:
475,192,326235,1,0,0:0:0:0:
182,192,326235,1,0,0:0:0:0:
329,192,326320,1,0,0:0:0:0:
109,192,326320,1,0,0:0:0:0:
36,192,326406,1,0,0:0:0:0:
256,192,326406,1,0,0:0:0:0:
402,192,326492,1,0,0:0:0:0:
36,192,326578,1,0,0:0:0:0:
182,192,326578,128,0,326663:0:0:0:0:
475,192,326578,128,0,326835:0:0:0:0:
329,192,326578,128,0,326835:0:0:0:0:
109,192,326663,1,0,0:0:0:0:
182,192,326749,1,0,0:0:0:0:
256,192,326835,1,0,0:0:0:0:
329,192,326920,1,0,0:0:0:0:
475,192,326920,1,0,0:0:0:0:
36,192,326920,1,0,0:0:0:0:
109,192,326920,1,0,0:0:0:0:
256,192,327006,1,0,0:0:0:0:
109,192,327092,1,0,0:0:0:0:
182,192,327092,1,0,0:0:0:0:
402,192,327092,1,0,0:0:0:0:
329,192,327178,1,0,0:0:0:0:
182,192,327263,1,0,0:0:0:0:
256,192,327263,1,0,0:0:0:0:
475,192,327263,1,0,0:0:0:0:
36,192,327263,1,0,0:0:0:0:
402,192,327349,1,0,0:0:0:0:
329,192,327435,1,0,0:0:0:0:
36,192,327435,1,0,0:0:0:0:
109,192,327520,1,0,0:0:0:0:
329,192,327606,1,0,0:0:0:0:
402,192,327606,1,0,0:0:0:0:
182,192,327606,1,0,0:0:0:0:
256,192,327606,1,0,0:0:0:0:
475,192,327692,1,0,0:0:0:0:
256,192,327778,1,0,0:0:0:0:
329,192,327778,1,0,0:0:0:0:
109,192,327778,1,0,0:0:0:0:
182,192,327778,1,0,0:0:0:0:
402,192,327863,1,0,0:0:0:0:
36,192,327949,1,0,0:0:0:0:
182,192,327949,1,0,0:0:0:0:
475,192,327949,1,0,0:0:0:0:
329,192,328035,1,0,0:0:0:0:
36,192,328120,1,0,0:0:0:0:
256,192,328120,1,0,0:0:0:0:
109,192,328206,1,0,0:0:0:0:
329,192,328206,1,0,0:0:0:0:
182,192,328292,1,0,0:0:0:0:
402,192,328292,1,0,0:0:0:0:
475,192,328292,1,0,0:0:0:0:
36,192,328378,1,0,0:0:0:0:
109,192,328463,1,0,0:0:0:0:
402,192,328463,1,0,0:0:0:0:
256,192,328549,1,0,0:0:0:0:
182,192,328635,1,0,0:0:0:0:
475,192,328635,1,0,0:0:0:0:
36,192,328635,1,0,0:0:0:0:
109,192,328720,1,0,0:0:0:0:
329,192,328720,1,0,0:0:0:0:
182,192,328806,1,0,0:0:0:0:
475,192,328806,1,0,0:0:0:0:
329,192,328892,1,0,0:0:0:0:
109,192,328892,1,0,0:0:0:0:
36,192,328978,1,0,0:0:0:0:
182,192,328978,1,0,0:0:0:0:
475,192,328978,1,0,0:0:0:0:
256,192,328978,1,0,0:0:0:0:
109,192,329063,1,0,0:0:0:0:
329,192,329063,1,0,0:0:0:0:
256,192,329149,1,0,0:0:0:0:
475,192,329149,1,0,0:0:0:0:
109,192,329235,1,0,0:0:0:0:
402,192,329235,1,0,0:0:0:0:
36,192,329320,128,0,329492:0:0:0:0:
182,192,329320,128,0,329406:0:0:0:0:
475,192,329320,128,0,329492:0:0:0:0:
256,192,329406,1,0,0:0:0:0:
329,192,329492,1,0,0:0:0:0:
109,192,329492,1,0,0:0:0:0:
182,192,329578,1,0,0:0:0:0:
402,192,329578,1,0,0:0:0:0:
36,192,329663,128,0,329749:0:0:0:0:
109,192,329663,128,0,329749:0:0:0:0:
256,192,329663,128,0,329749:0:0:0:0:
475,192,329663,128,0,329749:0:0:0:0:
36,192,329835,128,0,329920:0:0:0:0:
329,192,329835,128,0,329920:0:0:0:0:
475,192,329835,128,0,329920:0:0:0:0:
182,192,329835,128,0,329920:0:0:0:0:
256,192,330006,128,0,330178:0:0:0:0:
402,192,330006,128,0,330178:0:0:0:0:
475,192,330006,128,0,330178:0:0:0:0:
36,192,330006,128,0,330178:0:0:0:0:
475,192,330263,128,0,330435:0:0:0:0:
36,192,330263,128,0,330435:0:0:0:0:
109,192,330263,128,0,330435:0:0:0:0:
256,192,330263,128,0,330435:0:0:0:0:
182,192,330435,1,0,0:0:0:0:
329,192,330435,1,0,0:0:0:0:
475,192,330520,1,0,0:0:0:0:
36,192,330520,1,0,0:0:0:0:
329,192,330606,1,0,0:0:0:0:
182,192,330606,1,0,0:0:0:0:
36,192,330692,1,0,0:0:0:0:
256,192,330692,1,0,0:0:0:0:
402,192,330692,1,0,0:0:0:0:
475,192,330692,1,0,0:0:0:0:
109,192,330692,1,0,0:0:0:0:
36,192,330863,1,0,0:0:0:0:
109,192,330863,1,0,0:0:0:0:
329,192,330863,1,0,0:0:0:0:
475,192,330863,1,0,0:0:0:0:
182,192,330949,1,0,0:0:0:0:
256,192,330949,1,0,0:0:0:0:
402,192,330949,1,0,0:0:0:0:
36,192,331035,1,0,0:0:0:0:
109,192,331035,1,0,0:0:0:0:
329,192,331035,1,0,0:0:0:0:
475,192,331035,1,0,0:0:0:0:
182,192,331120,1,0,0:0:0:0:
402,192,331120,1,0,0:0:0:0:
256,192,331120,1,0,0:0:0:0:
36,192,331206,1,0,0:0:0:0:
109,192,331206,1,0,0:0:0:0:
329,192,331206,1,0,0:0:0:0:
475,192,331206,1,0,0:0:0:0:
36,192,331549,1,0,0:0:0:0:
475,192,331549,1,0,0:0:0:0:
256,192,331549,1,0,0:0:0:0:
402,192,331549,1,0,0:0:0:0:
329,192,331635,1,0,0:0:0:0:
182,192,331635,1,0,0:0:0:0:
109,192,331635,1,0,0:0:0:0:
475,192,331720,1,0,0:0:0:0:
36,192,331720,1,0,0:0:0:0:
256,192,331720,1,0,0:0:0:0:
402,192,331720,1,0,0:0:0:0:
109,192,331806,1,0,0:0:0:0:
182,192,331806,1,0,0:0:0:0:
329,192,331806,1,0,0:0:0:0:
475,192,331892,1,0,0:0:0:0:
36,192,331892,1,0,0:0:0:0:
402,192,331892,1,0,0:0:0:0:
256,192,331892,1,0,0:0:0:0:
36,192,332063,128,0,332149:0:0:0:0:
256,192,332063,128,0,332149:0:0:0:0:
475,192,332063,128,0,332149:0:0:0:0:
182,192,332063,128,0,332149:0:0:0:0:
402,192,332063,128,0,332149:0:0:0:0:
475,192,332235,1,0,0:0:0:0:
36,192,332235,1,0,0:0:0:0:
329,192,332320,1,0,0:0:0:0:
182,192,332320,1,0,0:0:0:0:
36,192,332406,1,0,0:0:0:0:
402,192,332406,1,0,0:0:0:0:
475,192,332406,1,0,0:0:0:0:
256,192,332492,1,0,0:0:0:0:
36,192,332578,1,0,0:0:0:0:
475,192,332578,1,0,0:0:0:0:
109,192,332663,1,0,0:0:0:0:
329,192,332663,1,0,0:0:0:0:
475,192,332749,1,0,0:0:0:0:
182,192,332749,1,0,0:0:0:0:
256,192,332749,1,0,0:0:0:0:
402,192,332835,1,0,0:0:0:0:
36,192,332835,1,0,0:0:0:0:
329,192,332920,1,0,0:0:0:0:
182,192,332920,1,0,0:0:0:0:
475,192,333006,1,0,0:0:0:0:
109,192,333006,1,0,0:0:0:0:
402,192,333092,1,0,0:0:0:0:
36,192,333092,1,0,0:0:0:0:
256,192,333092,1,0,0:0:0:0:
329,192,333178,1,0,0:0:0:0:
182,192,333178,1,0,0:0:0:0:
402,192,333263,1,0,0:0:0:0:
109,192,333263,1,0,0:0:0:0:
475,192,333349,1,0,0:0:0:0:
256,192,333349,1,0,0:0:0:0:
109,192,333435,1,0,0:0:0:0:
36,192,333435,1,0,0:0:0:0:
402,192,333435,1,0,0:0:0:0:
256,192,333520,1,0,0:0:0:0:
475,192,333520,1,0,0:0:0:0:
109,192,333606,1,0,0:0:0:0:
329,192,333606,1,0,0:0:0:0:
182,192,333692,1,0,0:0:0:0:
402,192,333692,1,0,0:0:0:0:
329,192,333778,1,0,0:0:0:0:
36,192,333778,1,0,0:0:0:0:
475,192,333778,1,0,0:0:0:0:
109,192,333863,1,0,0:0:0:0:
256,192,333863,1,0,0:0:0:0:
402,192,333949,1,0,0:0:0:0:
182,192,333949,1,0,0:0:0:0:
109,192,334035,1,0,0:0:0:0:
475,192,334035,1,0,0:0:0:0:
256,192,334120,1,0,0:0:0:0:
36,192,334120,1,0,0:0:0:0:
329,192,334120,1,0,0:0:0:0:
402,192,334206,1,0,0:0:0:0:
109,192,334206,1,0,0:0:0:0:
182,192,334292,1,0,0:0:0:0:
475,192,334292,1,0,0:0:0:0:
329,192,334378,1,0,0:0:0:0:
36,192,334378,1,0,0:0:0:0:
109,192,334463,1,0,0:0:0:0:
475,192,334463,1,0,0:0:0:0:
256,192,334463,1,0,0:0:0:0:
182,192,334549,1,0,0:0:0:0:
329,192,334549,1,0,0:0:0:0:
36,192,334635,1,0,0:0:0:0:
475,192,334635,1,0,0:0:0:0:
182,192,334720,1,0,0:0:0:0:
329,192,334720,1,0,0:0:0:0:
36,192,334806,1,0,0:0:0:0:
109,192,334806,1,0,0:0:0:0:
256,192,334806,1,0,0:0:0:0:
475,192,334806,1,0,0:0:0:0:
402,192,334806,1,0,0:0:0:0:
475,192,334978,1,0,0:0:0:0:
36,192,334978,1,0,0:0:0:0:
256,192,334978,1,0,0:0:0:0:
182,192,334978,1,0,0:0:0:0:
402,192,334978,1,0,0:0:0:0:
36,192,335149,1,0,0:0:0:0:
182,192,335149,1,0,0:0:0:0:
329,192,335149,1,0,0:0:0:0:
475,192,335235,1,0,0:0:0:0:
109,192,335235,1,0,0:0:0:0:
36,192,335320,1,0,0:0:0:0:
256,192,335320,1,0,0:0:0:0:
182,192,335406,1,0,0:0:0:0:
402,192,335406,1,0,0:0:0:0:
109,192,335492,1,0,0:0:0:0:
475,192,335492,1,0,0:0:0:0:
329,192,335492,1,0,0:0:0:0:
402,192,335578,1,0,0:0:0:0:
256,192,335578,1,0,0:0:0:0:
109,192,335663,1,0,0:0:0:0:
475,192,335663,1,0,0:0:0:0:
256,192,335749,1,0,0:0:0:0:
36,192,335749,1,0,0:0:0:0:
329,192,335835,1,0,0:0:0:0:
475,192,335835,1,0,0:0:0:0:
182,192,335835,1,0,0:0:0:0:
109,192,335920,1,0,0:0:0:0:
402,192,335920,1,0,0:0:0:0:
329,192,336006,1,0,0:0:0:0:
36,192,336006,1,0,0:0:0:0:
182,192,336092,1,0,0:0:0:0:
475,192,336092,1,0,0:0:0:0:
256,192,336178,1,0,0:0:0:0:
36,192,336178,1,0,0:0:0:0:
109,192,336178,1,0,0:0:0:0:
402,192,336263,1,0,0:0:0:0:
475,192,336263,1,0,0:0:0:0:
256,192,336349,1,0,0:0:0:0:
36,192,336349,1,0,0:0:0:0:
109,192,336435,1,0,0:0:0:0:
329,192,336435,1,0,0:0:0:0:
182,192,336520,1,0,0:0:0:0:
402,192,336520,1,0,0:0:0:0:
475,192,336520,1,0,0:0:0:0:
329,192,336606,1,0,0:0:0:0:
36,192,336606,1,0,0:0:0:0:
182,192,336692,1,0,0:0:0:0:
475,192,336692,1,0,0:0:0:0:
256,192,336692,1,0,0:0:0:0:
329,192,336778,1,0,0:0:0:0:
109,192,336863,1,0,0:0:0:0:
36,192,336863,1,0,0:0:0:0:
402,192,336863,1,0,0:0:0:0:
256,192,336949,1,0,0:0:0:0:
475,192,336949,1,0,0:0:0:0:
329,192,337035,1,0,0:0:0:0:
109,192,337035,1,0,0:0:0:0:
256,192,337120,1,0,0:0:0:0:
475,192,337120,1,0,0:0:0:0:
36,192,337206,1,0,0:0:0:0:
109,192,337206,1,0,0:0:0:0:
329,192,337206,1,0,0:0:0:0:
182,192,337292,1,0,0:0:0:0:
475,192,337292,1,0,0:0:0:0:
36,192,337378,1,0,0:0:0:0:
402,192,337378,1,0,0:0:0:0:
182,192,337463,1,0,0:0:0:0:
329,192,337463,1,0,0:0:0:0:
36,192,337549,1,0,0:0:0:0:
109,192,337549,1,0,0:0:0:0:
475,192,337549,1,0,0:0:0:0:
256,192,337549,1,0,0:0:0:0:
402,192,337549,1,0,0:0:0:0:
36,192,337720,1,0,0:0:0:0:
182,192,337720,1,0,0:0:0:0:
402,192,337720,1,0,0:0:0:0:
256,192,337720,1,0,0:0:0:0:
36,192,337892,1,0,0:0:0:0:
256,192,337892,1,0,0:0:0:0:
329,192,337892,1,0,0:0:0:0:
475,192,337892,1,0,0:0:0:0:
109,192,337892,1,0,0:0:0:0:
36,192,338063,1,0,0:0:0:0:
182,192,338063,1,0,0:0:0:0:
402,192,338063,1,0,0:0:0:0:
329,192,338063,1,0,0:0:0:0:
36,192,338235,1,0,0:0:0:0:
182,192,338235,1,0,0:0:0:0:
329,192,338235,1,0,0:0:0:0:
475,192,338235,1,0,0:0:0:0:
109,192,338406,1,0,0:0:0:0:
329,192,338406,1,0,0:0:0:0:
475,192,338406,1,0,0:0:0:0:
256,192,338406,1,0,0:0:0:0:
36,192,338578,1,0,0:0:0:0:
182,192,338578,1,0,0:0:0:0:
329,192,338578,1,0,0:0:0:0:
402,192,338578,1,0,0:0:0:0:
475,192,338578,1,0,0:0:0:0:
402,192,338749,1,0,0:0:0:0:
475,192,338749,1,0,0:0:0:0:
109,192,338749,1,0,0:0:0:0:
256,192,338749,1,0,0:0:0:0:
475,192,338920,1,0,0:0:0:0:
329,192,338920,1,0,0:0:0:0:
402,192,338920,1,0,0:0:0:0:
182,192,339006,1,0,0:0:0:0:
109,192,339006,1,0,0:0:0:0:
36,192,339006,1,0,0:0:0:0:
329,192,339092,1,0,0:0:0:0:
402,192,339092,1,0,0:0:0:0:
475,192,339092,1,0,0:0:0:0:
182,192,339178,1,0,0:0:0:0:
109,192,339178,1,0,0:0:0:0:
36,192,339178,1,0,0:0:0:0:
256,192,339263,1,0,0:0:0:0:
329,192,339263,1,0,0:0:0:0:
402,192,339263,1,0,0:0:0:0:
475,192,339263,1,0,0:0:0:0:
182,192,339349,1,0,0:0:0:0:
109,192,339349,1,0,0:0:0:0:
36,192,339349,1,0,0:0:0:0:
329,192,339435,1,0,0:0:0:0:
402,192,339435,1,0,0:0:0:0:
475,192,339435,1,0,0:0:0:0:
182,192,339520,1,0,0:0:0:0:
109,192,339520,1,0,0:0:0:0:
36,192,339520,1,0,0:0:0:0:
475,192,339606,1,0,0:0:0:0:
256,192,339606,1,0,0:0:0:0:
402,192,339663,1,0,0:0:0:0:
36,192,339663,1,0,0:0:0:0:
329,192,339720,1,0,0:0:0:0:
109,192,339720,1,0,0:0:0:0:
182,192,339778,1,0,0:0:0:0:
475,192,339778,1,0,0:0:0:0:
402,192,339835,1,0,0:0:0:0:
36,192,339835,1,0,0:0:0:0:
329,192,339892,1,0,0:0:0:0:
109,192,339892,1,0,0:0:0:0:
182,192,339949,1,0,0:0:0:0:
475,192,339949,1,0,0:0:0:0:
402,192,339978,1,0,0:0:0:0:
329,192,340006,1,0,0:0:0:0:
256,192,340035,1,0,0:0:0:0:
36,192,340063,1,0,0:0:0:0:
109,192,340092,1,0,0:0:0:0:
182,192,340120,1,0,0:0:0:0:
475,192,340149,1,0,0:0:0:0:
402,192,340178,1,0,0:0:0:0:
329,192,340206,1,0,0:0:0:0:
256,192,340235,1,0,0:0:0:0:
182,192,340263,1,0,0:0:0:0:
109,192,340292,1,0,0:0:0:0:
36,192,340292,1,0,0:0:0:0:
475,192,340378,1,0,0:0:0:0:
329,192,340378,1,0,0:0:0:0:
36,192,340463,1,0,0:0:0:0:
109,192,340463,1,0,0:0:0:0:
402,192,340549,1,0,0:0:0:0:
256,192,340549,1,0,0:0:0:0:
36,192,340635,1,0,0:0:0:0:
109,192,340635,1,0,0:0:0:0:
329,192,340720,1,0,0:0:0:0:
182,192,340720,1,0,0:0:0:0:
36,192,340806,1,0,0:0:0:0:
109,192,340806,1,0,0:0:0:0:
256,192,340892,1,0,0:0:0:0:
402,192,340892,1,0,0:0:0:0:
36,192,340978,1,0,0:0:0:0:
109,192,340978,1,0,0:0:0:0:
329,192,341063,1,0,0:0:0:0:
475,192,341063,1,0,0:0:0:0:
36,192,341149,1,0,0:0:0:0:
109,192,341149,1,0,0:0:0:0:
402,192,341235,1,0,0:0:0:0:
256,192,341235,1,0,0:0:0:0:
36,192,341320,1,0,0:0:0:0:
109,192,341320,1,0,0:0:0:0:
182,192,341406,1,0,0:0:0:0:
329,192,341406,1,0,0:0:0:0:
36,192,341492,1,0,0:0:0:0:
475,192,341492,1,0,0:0:0:0:
256,192,341492,1,0,0:0:0:0:
109,192,341492,1,0,0:0:0:0:
256,192,341663,1,0,0:0:0:0:
475,192,341663,1,0,0:0:0:0:
36,192,341663,1,0,0:0:0:0:
402,192,341663,128,0,341749:0:0:0:0:
182,192,341749,128,0,341835:0:0:0:0:
329,192,341835,128,0,341920:0:0:0:0:
402,192,341920,128,0,342006:0:0:0:0:
109,192,342006,128,0,342092:0:0:0:0:
256,192,342092,128,0,342178:0:0:0:0:
475,192,342178,128,0,342263:0:0:0:0:
182,192,342263,128,0,342349:0:0:0:0:
329,192,342349,128,0,342435:0:0:0:0:
182,192,342435,128,0,342520:0:0:0:0:
36,192,342520,128,0,342606:0:0:0:0:
182,192,342606,128,0,342692:0:0:0:0:
256,192,342692,128,0,343035:0:0:0:0:
36,192,343035,128,0,343120:0:0:0:0:
475,192,343035,128,0,343120:0:0:0:0:
329,192,343035,128,0,343120:0:0:0:0:
109,192,343035,128,0,343120:0:0:0:0:
402,192,343120,128,0,343206:0:0:0:0:
182,192,343120,128,0,343206:0:0:0:0:
36,192,343206,128,0,343292:0:0:0:0:
256,192,343206,128,0,343292:0:0:0:0:
109,192,343292,128,0,343378:0:0:0:0:
329,192,343292,128,0,343378:0:0:0:0:
182,192,343378,128,0,343463:0:0:0:0:
475,192,343378,128,0,343463:0:0:0:0:
402,192,343378,128,0,343463:0:0:0:0:
256,192,343463,128,0,343549:0:0:0:0:
36,192,343463,128,0,343549:0:0:0:0:
182,192,343549,128,0,343635:0:0:0:0:
475,192,343549,128,0,343635:0:0:0:0:
329,192,343635,128,0,343720:0:0:0:0:
109,192,343635,128,0,343720:0:0:0:0:
256,192,343720,128,0,343806:0:0:0:0:
36,192,343720,128,0,343806:0:0:0:0:
402,192,343720,128,0,343806:0:0:0:0:
475,192,343806,128,0,343892:0:0:0:0:
109,192,343806,128,0,343892:0:0:0:0:
182,192,343892,128,0,343978:0:0:0:0:
329,192,343892,128,0,343978:0:0:0:0:
402,192,343978,128,0,344063:0:0:0:0:
36,192,343978,128,0,344063:0:0:0:0:
109,192,344063,128,0,344149:0:0:0:0:
256,192,344063,128,0,344149:0:0:0:0:
475,192,344063,128,0,344149:0:0:0:0:
329,192,344149,128,0,344235:0:0:0:0:
182,192,344149,128,0,344235:0:0:0:0:
36,192,344235,128,0,344320:0:0:0:0:
402,192,344235,128,0,344320:0:0:0:0:
329,192,344320,128,0,344406:0:0:0:0:
182,192,344320,128,0,344406:0:0:0:0:
402,192,344406,128,0,344492:0:0:0:0:
475,192,344406,128,0,344492:0:0:0:0:
256,192,344406,128,0,344492:0:0:0:0:
109,192,344492,128,0,344578:0:0:0:0:
329,192,344492,128,0,344578:0:0:0:0:
36,192,344578,128,0,344663:0:0:0:0:
256,192,344578,128,0,344663:0:0:0:0:
109,192,344663,128,0,344749:0:0:0:0:
402,192,344663,128,0,344749:0:0:0:0:
182,192,344749,128,0,344835:0:0:0:0:
329,192,344749,128,0,344835:0:0:0:0:
475,192,344749,128,0,344835:0:0:0:0:
256,192,344835,128,0,344920:0:0:0:0:
36,192,344835,128,0,344920:0:0:0:0:
109,192,344920,128,0,345006:0:0:0:0:
329,192,344920,128,0,345006:0:0:0:0:
182,192,345006,128,0,345092:0:0:0:0:
475,192,345006,128,0,345092:0:0:0:0:
36,192,345092,128,0,345178:0:0:0:0:
402,192,345092,128,0,345178:0:0:0:0:
256,192,345092,128,0,345178:0:0:0:0:
182,192,345178,128,0,345263:0:0:0:0:
329,192,345178,128,0,345263:0:0:0:0:
109,192,345263,128,0,345349:0:0:0:0:
475,192,345263,128,0,345349:0:0:0:0:
36,192,345349,128,0,345435:0:0:0:0:
329,192,345349,128,0,345435:0:0:0:0:
475,192,345435,128,0,345520:0:0:0:0:
182,192,345435,128,0,345520:0:0:0:0:
256,192,345435,128,0,345520:0:0:0:0:
402,192,345520,128,0,345606:0:0:0:0:
36,192,345520,128,0,345606:0:0:0:0:
329,192,345606,128,0,345692:0:0:0:0:
182,192,345606,128,0,345692:0:0:0:0:
256,192,345692,128,0,345778:0:0:0:0:
475,192,345692,128,0,345778:0:0:0:0:
36,192,345778,128,0,345863:0:0:0:0:
402,192,345778,128,0,345863:0:0:0:0:
109,192,345778,128,0,345863:0:0:0:0:
182,192,345863,128,0,345949:0:0:0:0:
475,192,345863,128,0,345949:0:0:0:0:
36,192,345949,128,0,346035:0:0:0:0:
329,192,345949,128,0,346035:0:0:0:0:
182,192,346035,128,0,346120:0:0:0:0:
402,192,346035,128,0,346120:0:0:0:0:
475,192,346120,128,0,346206:0:0:0:0:
36,192,346120,128,0,346206:0:0:0:0:
256,192,346120,128,0,346206:0:0:0:0:
402,192,346206,128,0,346292:0:0:0:0:
109,192,346206,128,0,346292:0:0:0:0:
182,192,346292,128,0,346378:0:0:0:0:
329,192,346292,128,0,346378:0:0:0:0:
36,192,346378,128,0,346463:0:0:0:0:
256,192,346378,128,0,346463:0:0:0:0:
475,192,346463,128,0,346549:0:0:0:0:
402,192,346463,128,0,346549:0:0:0:0:
109,192,346463,128,0,346549:0:0:0:0:
182,192,346549,128,0,346635:0:0:0:0:
329,192,346549,128,0,346635:0:0:0:0:
402,192,346635,128,0,346720:0:0:0:0:
256,192,346635,128,0,346720:0:0:0:0:
109,192,346720,128,0,346806:0:0:0:0:
36,192,346720,128,0,346806:0:0:0:0:
329,192,346806,128,0,346892:0:0:0:0:
475,192,346806,128,0,346892:0:0:0:0:
182,192,346806,128,0,346892:0:0:0:0:
36,192,346892,128,0,346978:0:0:0:0:
402,192,346892,128,0,346978:0:0:0:0:
256,192,346978,128,0,347063:0:0:0:0:
109,192,346978,128,0,347063:0:0:0:0:
329,192,347063,128,0,347149:0:0:0:0:
475,192,347063,128,0,347149:0:0:0:0:
36,192,347149,128,0,347235:0:0:0:0:
182,192,347149,128,0,347235:0:0:0:0:
109,192,347149,128,0,347235:0:0:0:0:
475,192,347235,128,0,347320:0:0:0:0:
256,192,347235,128,0,347320:0:0:0:0:
402,192,347320,128,0,347406:0:0:0:0:
182,192,347320,128,0,347406:0:0:0:0:
329,192,347406,128,0,347492:0:0:0:0:
109,192,347406,128,0,347492:0:0:0:0:
36,192,347492,128,0,347578:0:0:0:0:
256,192,347492,128,0,347578:0:0:0:0:
475,192,347492,128,0,347578:0:0:0:0:
182,192,347578,128,0,347663:0:0:0:0:
402,192,347578,128,0,347663:0:0:0:0:
109,192,347663,128,0,347749:0:0:0:0:
329,192,347663,128,0,347749:0:0:0:0:
256,192,347749,128,0,347835:0:0:0:0:
475,192,347749,128,0,347835:0:0:0:0:
36,192,347835,128,0,347920:0:0:0:0:
182,192,347835,128,0,347920:0:0:0:0:
329,192,347835,128,0,347920:0:0:0:0:
109,192,347920,128,0,348006:0:0:0:0:
402,192,347920,128,0,348006:0:0:0:0:
256,192,348006,128,0,348092:0:0:0:0:
475,192,348006,128,0,348092:0:0:0:0:
329,192,348092,128,0,348178:0:0:0:0:
182,192,348092,128,0,348178:0:0:0:0:
475,192,348178,128,0,348263:0:0:0:0:
36,192,348178,128,0,348263:0:0:0:0:
402,192,348178,128,0,348263:0:0:0:0:
109,192,348263,128,0,348349:0:0:0:0:
256,192,348263,128,0,348349:0:0:0:0:
329,192,348349,128,0,348435:0:0:0:0:
182,192,348349,128,0,348435:0:0:0:0:
256,192,348435,128,0,348520:0:0:0:0:
402,192,348435,128,0,348520:0:0:0:0:
36,192,348520,1,0,0:0:0:0:
475,192,348520,1,0,0:0:0:0:
329,192,348578,1,0,0:0:0:0:
109,192,348578,1,0,0:0:0:0:
182,192,348635,1,0,0:0:0:0:
402,192,348635,1,0,0:0:0:0:
475,192,348692,1,0,0:0:0:0:
36,192,348692,1,0,0:0:0:0:
109,192,348749,1,0,0:0:0:0:
329,192,348749,1,0,0:0:0:0:
182,192,348806,1,0,0:0:0:0:
402,192,348806,1,0,0:0:0:0:
256,192,348863,1,0,0:0:0:0:
36,192,348863,128,0,348949:0:0:0:0:
475,192,348863,128,0,348949:0:0:0:0:
182,192,348949,128,0,349035:0:0:0:0:
329,192,348949,128,0,349035:0:0:0:0:
475,192,349035,128,0,349120:0:0:0:0:
36,192,349035,128,0,349120:0:0:0:0:
182,192,349120,128,0,349206:0:0:0:0:
329,192,349120,128,0,349206:0:0:0:0:
256,192,349206,1,0,0:0:0:0:
475,192,349206,1,0,0:0:0:0:
36,192,349206,1,0,0:0:0:0:
182,192,349292,1,0,0:0:0:0:
109,192,349378,1,0,0:0:0:0:
402,192,349378,1,0,0:0:0:0:
36,192,349378,1,0,0:0:0:0:
329,192,349463,1,0,0:0:0:0:
256,192,349549,1,0,0:0:0:0:
402,192,349549,1,0,0:0:0:0:
475,192,349549,1,0,0:0:0:0:
182,192,349549,1,0,0:0:0:0:
36,192,349635,1,0,0:0:0:0:
402,192,349720,1,0,0:0:0:0:
329,192,349720,1,0,0:0:0:0:
182,192,349720,1,0,0:0:0:0:
109,192,349720,1,0,0:0:0:0:
256,192,349806,1,0,0:0:0:0:
36,192,349892,1,0,0:0:0:0:
109,192,349892,1,0,0:0:0:0:
402,192,349892,1,0,0:0:0:0:
475,192,349892,1,0,0:0:0:0:
256,192,349978,1,0,0:0:0:0:
36,192,350063,1,0,0:0:0:0:
329,192,350063,1,0,0:0:0:0:
109,192,350120,1,0,0:0:0:0:
475,192,350149,1,0,0:0:0:0:
182,192,350178,1,0,0:0:0:0:
36,192,350235,1,0,0:0:0:0:
256,192,350235,1,0,0:0:0:0:
182,192,350320,1,0,0:0:0:0:
109,192,350406,1,0,0:0:0:0:
402,192,350406,1,0,0:0:0:0:
256,192,350492,1,0,0:0:0:0:
36,192,350578,1,0,0:0:0:0:
329,192,350578,1,0,0:0:0:0:
475,192,350578,1,0,0:0:0:0:
182,192,350663,1,0,0:0:0:0:
36,192,350749,1,0,0:0:0:0:
402,192,350749,1,0,0:0:0:0:
256,192,350749,1,0,0:0:0:0:
329,192,350835,1,0,0:0:0:0:
475,192,350920,1,0,0:0:0:0:
182,192,350920,1,0,0:0:0:0:
36,192,350920,1,0,0:0:0:0:
329,192,351006,1,0,0:0:0:0:
256,192,351092,1,0,0:0:0:0:
109,192,351092,1,0,0:0:0:0:
475,192,351092,1,0,0:0:0:0:
182,192,351178,1,0,0:0:0:0:
36,192,351263,1,0,0:0:0:0:
402,192,351263,1,0,0:0:0:0:
475,192,351263,1,0,0:0:0:0:
256,192,351349,1,0,0:0:0:0:
36,192,351435,1,0,0:0:0:0:
109,192,351435,1,0,0:0:0:0:
182,192,351435,1,0,0:0:0:0:
329,192,351520,1,0,0:0:0:0:
256,192,351606,1,0,0:0:0:0:
109,192,351606,1,0,0:0:0:0:
182,192,351606,1,0,0:0:0:0:
475,192,351606,1,0,0:0:0:0:
36,192,351692,1,0,0:0:0:0:
256,192,351778,1,0,0:0:0:0:
329,192,351778,1,0,0:0:0:0:
182,192,351778,1,0,0:0:0:0:
109,192,351863,1,0,0:0:0:0:
402,192,351949,1,0,0:0:0:0:
329,192,351949,1,0,0:0:0:0:
256,192,351949,1,0,0:0:0:0:
36,192,351949,1,0,0:0:0:0:
182,192,352035,1,0,0:0:0:0:
329,192,352120,1,0,0:0:0:0:
402,192,352120,1,0,0:0:0:0:
475,192,352120,1,0,0:0:0:0:
109,192,352206,1,0,0:0:0:0:
36,192,352292,1,0,0:0:0:0:
256,192,352292,128,0,352463:0:0:0:0:
402,192,352292,1,0,0:0:0:0:
475,192,352292,1,0,0:0:0:0:
182,192,352463,1,0,0:0:0:0:
329,192,352549,1,0,0:0:0:0:
36,192,352635,1,0,0:0:0:0:
475,192,352635,1,0,0:0:0:0:
256,192,352720,1,0,0:0:0:0:
329,192,352720,1,0,0:0:0:0:
36,192,352806,1,0,0:0:0:0:
475,192,352806,1,0,0:0:0:0:
182,192,352806,1,0,0:0:0:0:
109,192,352806,1,0,0:0:0:0:
329,192,352892,1,0,0:0:0:0:
402,192,352892,1,0,0:0:0:0:
36,192,352978,1,0,0:0:0:0:
256,192,352978,1,0,0:0:0:0:
329,192,353063,1,0,0:0:0:0:
402,192,353063,1,0,0:0:0:0:
109,192,353149,1,0,0:0:0:0:
182,192,353149,1,0,0:0:0:0:
475,192,353149,1,0,0:0:0:0:
36,192,353149,1,0,0:0:0:0:
256,192,353235,1,0,0:0:0:0:
329,192,353235,1,0,0:0:0:0:
36,192,353320,1,0,0:0:0:0:
475,192,353320,1,0,0:0:0:0:
256,192,353406,1,0,0:0:0:0:
329,192,353406,1,0,0:0:0:0:
475,192,353492,1,0,0:0:0:0:
182,192,353492,1,0,0:0:0:0:
36,192,353492,1,0,0:0:0:0:
109,192,353492,1,0,0:0:0:0:
402,192,353578,1,0,0:0:0:0:
329,192,353578,1,0,0:0:0:0:
36,192,353663,1,0,0:0:0:0:
256,192,353663,1,0,0:0:0:0:
329,192,353749,1,0,0:0:0:0:
402,192,353749,1,0,0:0:0:0:
182,192,353835,1,0,0:0:0:0:
36,192,353835,1,0,0:0:0:0:
109,192,353835,1,0,0:0:0:0:
475,192,353835,1,0,0:0:0:0:
329,192,353920,1,0,0:0:0:0:
256,192,353920,1,0,0:0:0:0:
182,192,354006,128,0,354092:0:0:0:0:
402,192,354006,128,0,354092:0:0:0:0:
36,192,354006,128,0,354092:0:0:0:0:
475,192,354006,128,0,354092:0:0:0:0:
109,192,354092,128,0,354178:0:0:0:0:
329,192,354092,128,0,354178:0:0:0:0:
256,192,354178,128,0,354263:0:0:0:0:
475,192,354178,128,0,354263:0:0:0:0:
182,192,354263,128,0,354349:0:0:0:0:
402,192,354263,128,0,354349:0:0:0:0:
36,192,354349,128,0,354435:0:0:0:0:
109,192,354349,128,0,354435:0:0:0:0:
329,192,354349,128,0,354435:0:0:0:0:
256,192,354435,128,0,354520:0:0:0:0:
475,192,354435,128,0,354520:0:0:0:0:
36,192,354520,128,0,354606:0:0:0:0:
402,192,354520,128,0,354606:0:0:0:0:
109,192,354606,128,0,354692:0:0:0:0:
329,192,354606,128,0,354692:0:0:0:0:
182,192,354692,128,0,354778:0:0:0:0:
475,192,354692,128,0,354778:0:0:0:0:
256,192,354692,128,0,354778:0:0:0:0:
36,192,354778,128,0,354863:0:0:0:0:
402,192,354778,128,0,354863:0:0:0:0:
182,192,354863,128,0,354949:0:0:0:0:
329,192,354863,128,0,354949:0:0:0:0:
256,192,354949,128,0,355035:0:0:0:0:
109,192,354949,128,0,355035:0:0:0:0:
36,192,355035,128,0,355120:0:0:0:0:
402,192,355035,128,0,355120:0:0:0:0:
475,192,355035,128,0,355120:0:0:0:0:
182,192,355120,128,0,355206:0:0:0:0:
329,192,355120,128,0,355206:0:0:0:0:
36,192,355206,128,0,355292:0:0:0:0:
256,192,355206,128,0,355292:0:0:0:0:
109,192,355292,128,0,355378:0:0:0:0:
402,192,355292,128,0,355378:0:0:0:0:
329,192,355378,128,0,355463:0:0:0:0:
475,192,355378,128,0,355463:0:0:0:0:
182,192,355378,128,0,355463:0:0:0:0:
36,192,355463,128,0,355549:0:0:0:0:
256,192,355463,128,0,355549:0:0:0:0:
109,192,355549,128,0,355635:0:0:0:0:
402,192,355549,128,0,355635:0:0:0:0:
182,192,355635,128,0,355720:0:0:0:0:
329,192,355635,128,0,355720:0:0:0:0:
36,192,355720,128,0,355806:0:0:0:0:
475,192,355720,128,0,355806:0:0:0:0:
256,192,355720,128,0,355806:0:0:0:0:
109,192,355806,128,0,355892:0:0:0:0:
329,192,355806,128,0,355892:0:0:0:0:
182,192,355892,128,0,355978:0:0:0:0:
402,192,355892,128,0,355978:0:0:0:0:
256,192,355978,128,0,356063:0:0:0:0:
475,192,355978,128,0,356063:0:0:0:0:
329,192,356063,128,0,356149:0:0:0:0:
36,192,356063,128,0,356149:0:0:0:0:
109,192,356063,128,0,356149:0:0:0:0:
475,192,356149,128,0,356235:0:0:0:0:
182,192,356149,128,0,356235:0:0:0:0:
402,192,356235,128,0,356320:0:0:0:0:
256,192,356235,128,0,356320:0:0:0:0:
329,192,356320,128,0,356406:0:0:0:0:
36,192,356320,128,0,356406:0:0:0:0:
475,192,356406,128,0,356492:0:0:0:0:
109,192,356406,128,0,356492:0:0:0:0:
256,192,356406,128,0,356492:0:0:0:0:
402,192,356492,128,0,356578:0:0:0:0:
182,192,356492,128,0,356578:0:0:0:0:
36,192,356578,128,0,356663:0:0:0:0:
329,192,356578,128,0,356663:0:0:0:0:
109,192,356663,128,0,356749:0:0:0:0:
256,192,356663,128,0,356749:0:0:0:0:
475,192,356749,128,0,356835:0:0:0:0:
402,192,356749,128,0,356835:0:0:0:0:
36,192,356749,128,0,356835:0:0:0:0:
182,192,356835,128,0,356920:0:0:0:0:
329,192,356835,128,0,356920:0:0:0:0:
256,192,356920,128,0,357006:0:0:0:0:
36,192,356920,128,0,357006:0:0:0:0:
109,192,357006,128,0,357092:0:0:0:0:
402,192,357006,128,0,357092:0:0:0:0:
182,192,357092,128,0,357178:0:0:0:0:
329,192,357092,128,0,357178:0:0:0:0:
475,192,357092,128,0,357178:0:0:0:0:
36,192,357178,128,0,357263:0:0:0:0:
256,192,357178,128,0,357263:0:0:0:0:
109,192,357263,128,0,357349:0:0:0:0:
475,192,357263,128,0,357349:0:0:0:0:
182,192,357349,128,0,357435:0:0:0:0:
402,192,357349,128,0,357435:0:0:0:0:
329,192,357435,128,0,357520:0:0:0:0:
36,192,357435,128,0,357520:0:0:0:0:
109,192,357435,128,0,357520:0:0:0:0:
475,192,357520,128,0,357606:0:0:0:0:
182,192,357520,128,0,357606:0:0:0:0:
36,192,357606,128,0,357692:0:0:0:0:
402,192,357606,128,0,357692:0:0:0:0:
109,192,357692,128,0,357778:0:0:0:0:
256,192,357692,128,0,357778:0:0:0:0:
182,192,357778,128,0,357863:0:0:0:0:
329,192,357778,128,0,357863:0:0:0:0:
475,192,357778,128,0,357863:0:0:0:0:
36,192,357863,128,0,357949:0:0:0:0:
256,192,357863,128,0,357949:0:0:0:0:
109,192,357949,128,0,358035:0:0:0:0:
402,192,357949,128,0,358035:0:0:0:0:
182,192,358035,128,0,358120:0:0:0:0:
329,192,358035,128,0,358120:0:0:0:0:
36,192,358120,128,0,358206:0:0:0:0:
475,192,358120,128,0,358206:0:0:0:0:
256,192,358120,128,0,358206:0:0:0:0:
402,192,358206,128,0,358292:0:0:0:0:
182,192,358206,128,0,358292:0:0:0:0:
329,192,358292,128,0,358378:0:0:0:0:
109,192,358292,128,0,358378:0:0:0:0:
36,192,358378,128,0,358463:0:0:0:0:
256,192,358378,128,0,358463:0:0:0:0:
182,192,358463,128,0,358549:0:0:0:0:
402,192,358463,128,0,358549:0:0:0:0:
475,192,358463,128,0,358549:0:0:0:0:
36,192,358549,128,0,358635:0:0:0:0:
256,192,358549,128,0,358635:0:0:0:0:
109,192,358635,128,0,358720:0:0:0:0:
329,192,358635,128,0,358720:0:0:0:0:
182,192,358720,128,0,358806:0:0:0:0:
402,192,358720,128,0,358806:0:0:0:0:
475,192,358806,128,0,358892:0:0:0:0:
36,192,358806,128,0,358892:0:0:0:0:
256,192,358806,128,0,358892:0:0:0:0:
109,192,358892,128,0,358978:0:0:0:0:
402,192,358892,128,0,358978:0:0:0:0:
256,192,358978,128,0,359063:0:0:0:0:
36,192,358978,128,0,359063:0:0:0:0:
182,192,359063,128,0,359149:0:0:0:0:
329,192,359063,128,0,359149:0:0:0:0:
109,192,359149,128,0,359235:0:0:0:0:
402,192,359149,128,0,359235:0:0:0:0:
475,192,359149,128,0,359235:0:0:0:0:
36,192,359235,128,0,359320:0:0:0:0:
256,192,359235,128,0,359320:0:0:0:0:
182,192,359320,128,0,359406:0:0:0:0:
329,192,359320,128,0,359406:0:0:0:0:
109,192,359406,128,0,359492:0:0:0:0:
402,192,359406,128,0,359492:0:0:0:0:
36,192,359492,1,0,0:0:0:0:
475,192,359492,1,0,0:0:0:0:
256,192,359492,1,0,0:0:0:0:
402,192,359549,1,0,0:0:0:0:
182,192,359549,1,0,0:0:0:0:
329,192,359606,1,0,0:0:0:0:
109,192,359606,1,0,0:0:0:0:
36,192,359663,1,0,0:0:0:0:
475,192,359663,1,0,0:0:0:0:
402,192,359720,1,0,0:0:0:0:
182,192,359720,1,0,0:0:0:0:
329,192,359778,1,0,0:0:0:0:
109,192,359778,1,0,0:0:0:0:
256,192,359835,1,0,0:0:0:0:
36,192,359835,128,0,359920:0:0:0:0:
475,192,359835,128,0,359920:0:0:0:0:
182,192,359920,128,0,360006:0:0:0:0:
329,192,359920,128,0,360006:0:0:0:0:
475,192,360006,128,0,360092:0:0:0:0:
36,192,360006,128,0,360092:0:0:0:0:
182,192,360092,128,0,360178:0:0:0:0:
329,192,360092,128,0,360178:0:0:0:0:
256,192,360178,1,0,0:0:0:0:
475,192,360178,1,0,0:0:0:0:
36,192,360178,1,0,0:0:0:0:
329,192,360263,1,0,0:0:0:0:
402,192,360349,1,0,0:0:0:0:
109,192,360349,1,0,0:0:0:0:
475,192,360349,1,0,0:0:0:0:
182,192,360435,1,0,0:0:0:0:
256,192,360520,1,0,0:0:0:0:
329,192,360520,1,0,0:0:0:0:
109,192,360520,1,0,0:0:0:0:
36,192,360520,1,0,0:0:0:0:
475,192,360606,1,0,0:0:0:0:
182,192,360692,1,0,0:0:0:0:
329,192,360692,1,0,0:0:0:0:
402,192,360692,1,0,0:0:0:0:
109,192,360692,1,0,0:0:0:0:
256,192,360778,1,0,0:0:0:0:
36,192,360863,1,0,0:0:0:0:
475,192,360863,1,0,0:0:0:0:
402,192,360863,1,0,0:0:0:0:
182,192,360863,1,0,0:0:0:0:
329,192,360949,1,0,0:0:0:0:
475,192,361035,1,0,0:0:0:0:
109,192,361035,1,0,0:0:0:0:
402,192,361092,1,0,0:0:0:0:
182,192,361120,1,0,0:0:0:0:
329,192,361149,1,0,0:0:0:0:
475,192,361206,1,0,0:0:0:0:
36,192,361206,1,0,0:0:0:0:
109,192,361206,1,0,0:0:0:0:
256,192,361292,1,0,0:0:0:0:
182,192,361378,1,0,0:0:0:0:
402,192,361378,1,0,0:0:0:0:
36,192,361463,1,0,0:0:0:0:
329,192,361549,1,0,0:0:0:0:
109,192,361549,1,0,0:0:0:0:
475,192,361549,1,0,0:0:0:0:
256,192,361635,1,0,0:0:0:0:
109,192,361720,1,0,0:0:0:0:
402,192,361720,1,0,0:0:0:0:
36,192,361720,1,0,0:0:0:0:
182,192,361806,1,0,0:0:0:0:
329,192,361892,1,0,0:0:0:0:
475,192,361892,1,0,0:0:0:0:
36,192,361892,1,0,0:0:0:0:
256,192,361978,1,0,0:0:0:0:
475,192,362063,1,0,0:0:0:0:
109,192,362063,1,0,0:0:0:0:
402,192,362063,1,0,0:0:0:0:
182,192,362149,1,0,0:0:0:0:
256,192,362235,128,0,363606:0:0:0:0:
36,192,362235,1,0,0:0:0:0:
329,192,362235,1,0,0:0:0:0:
109,192,362320,1,0,0:0:0:0:
402,192,362320,1,0,0:0:0:0:
182,192,362406,1,0,0:0:0:0:
475,192,362406,1,0,0:0:0:0:
36,192,362492,1,0,0:0:0:0:
329,192,362492,1,0,0:0:0:0:
109,192,362578,1,0,0:0:0:0:
402,192,362578,1,0,0:0:0:0:
182,192,362663,1,0,0:0:0:0:
475,192,362663,1,0,0:0:0:0:
36,192,362749,1,0,0:0:0:0:
329,192,362749,1,0,0:0:0:0:
109,192,362835,1,0,0:0:0:0:
402,192,362835,1,0,0:0:0:0:
182,192,362920,1,0,0:0:0:0:
475,192,362920,1,0,0:0:0:0:
36,192,363006,1,0,0:0:0:0:
329,192,363006,1,0,0:0:0:0:
109,192,363092,1,0,0:0:0:0:
402,192,363092,1,0,0:0:0:0:
182,192,363178,1,0,0:0:0:0:
475,192,363178,1,0,0:0:0:0:
36,192,363263,1,0,0:0:0:0:
329,192,363263,1,0,0:0:0:0:
109,192,363349,1,0,0:0:0:0:
402,192,363349,1,0,0:0:0:0:
182,192,363435,1,0,0:0:0:0:
475,192,363435,1,0,0:0:0:0:
36,192,363520,1,0,0:0:0:0:
329,192,363520,1,0,0:0:0:0:
182,192,363606,1,0,0:0:0:0:
475,192,363606,1,0,0:0:0:0:
256,192,363692,1,0,0:0:0:0:
402,192,363778,1,0,0:0:0:0:
329,192,363778,1,0,0:0:0:0:
182,192,363863,1,0,0:0:0:0:
475,192,363949,1,0,0:0:0:0:
36,192,363949,1,0,0:0:0:0:
256,192,363949,1,0,0:0:0:0:
109,192,364035,1,0,0:0:0:0:
182,192,364120,1,0,0:0:0:0:
329,192,364120,1,0,0:0:0:0:
402,192,364206,1,0,0:0:0:0:
475,192,364292,1,0,0:0:0:0:
36,192,364292,1,0,0:0:0:0:
256,192,364378,1,0,0:0:0:0:
182,192,364463,1,0,0:0:0:0:
402,192,364463,1,0,0:0:0:0:
109,192,364549,1,0,0:0:0:0:
36,192,364635,1,0,0:0:0:0:
329,192,364635,1,0,0:0:0:0:
475,192,364635,1,0,0:0:0:0:
182,192,364720,1,0,0:0:0:0:
256,192,364806,1,0,0:0:0:0:
402,192,364806,1,0,0:0:0:0:
475,192,364892,1,0,0:0:0:0:
36,192,364978,1,0,0:0:0:0:
109,192,364978,1,0,0:0:0:0:
329,192,364978,1,0,0:0:0:0:
402,192,365063,1,0,0:0:0:0:
36,192,365149,1,0,0:0:0:0:
475,192,365149,1,0,0:0:0:0:
329,192,365235,1,0,0:0:0:0:
36,192,365320,1,0,0:0:0:0:
402,192,365320,1,0,0:0:0:0:
182,192,365320,1,0,0:0:0:0:
475,192,365406,1,0,0:0:0:0:
36,192,365492,1,0,0:0:0:0:
256,192,365492,1,0,0:0:0:0:
329,192,365578,1,0,0:0:0:0:
36,192,365663,1,0,0:0:0:0:
402,192,365663,1,0,0:0:0:0:
256,192,365749,1,0,0:0:0:0:
36,192,365835,1,0,0:0:0:0:
329,192,365835,1,0,0:0:0:0:
402,192,365920,1,0,0:0:0:0:
36,192,366006,1,0,0:0:0:0:
182,192,366006,1,0,0:0:0:0:
475,192,366006,1,0,0:0:0:0:
256,192,366092,1,0,0:0:0:0:
36,192,366178,1,0,0:0:0:0:
329,192,366178,1,0,0:0:0:0:
402,192,366263,1,0,0:0:0:0:
109,192,366349,1,0,0:0:0:0:
475,192,366349,1,0,0:0:0:0:
329,192,366435,1,0,0:0:0:0:
109,192,366520,1,0,0:0:0:0:
402,192,366520,1,0,0:0:0:0:
256,192,366606,1,0,0:0:0:0:
109,192,366692,1,0,0:0:0:0:
329,192,366692,1,0,0:0:0:0:
182,192,366692,1,0,0:0:0:0:
402,192,366778,1,0,0:0:0:0:
109,192,366863,1,0,0:0:0:0:
475,192,366863,1,0,0:0:0:0:
329,192,366949,1,0,0:0:0:0:
109,192,367035,1,0,0:0:0:0:
256,192,367035,1,0,0:0:0:0:
329,192,367120,1,0,0:0:0:0:
109,192,367206,1,0,0:0:0:0:
402,192,367206,1,0,0:0:0:0:
475,192,367292,1,0,0:0:0:0:
109,192,367378,1,0,0:0:0:0:
182,192,367378,1,0,0:0:0:0:
402,192,367378,1,0,0:0:0:0:
256,192,367463,1,0,0:0:0:0:
109,192,367549,1,0,0:0:0:0:
329,192,367549,1,0,0:0:0:0:
402,192,367635,1,0,0:0:0:0:
36,192,367720,1,0,0:0:0:0:
475,192,367720,1,0,0:0:0:0:
256,192,367806,1,0,0:0:0:0:
36,192,367892,1,0,0:0:0:0:
329,192,367892,1,0,0:0:0:0:
402,192,367978,1,0,0:0:0:0:
36,192,368063,1,0,0:0:0:0:
182,192,368063,1,0,0:0:0:0:
475,192,368063,1,0,0:0:0:0:
329,192,368149,1,0,0:0:0:0:
36,192,368235,1,0,0:0:0:0:
256,192,368235,1,0,0:0:0:0:
182,192,368320,1,0,0:0:0:0:
36,192,368406,1,0,0:0:0:0:
329,192,368406,1,0,0:0:0:0:
402,192,368492,1,0,0:0:0:0:
36,192,368578,1,0,0:0:0:0:
475,192,368578,1,0,0:0:0:0:
402,192,368663,1,0,0:0:0:0:
36,192,368749,1,0,0:0:0:0:
182,192,368749,1,0,0:0:0:0:
256,192,368749,1,0,0:0:0:0:
329,192,368835,1,0,0:0:0:0:
36,192,368920,1,0,0:0:0:0:
402,192,368920,1,0,0:0:0:0:
475,192,369006,1,0,0:0:0:0:
329,192,369092,1,0,0:0:0:0:
182,192,369092,1,0,0:0:0:0:
36,192,369178,1,0,0:0:0:0:
329,192,369263,1,0,0:0:0:0:
109,192,369263,1,0,0:0:0:0:
182,192,369349,1,0,0:0:0:0:
329,192,369435,1,0,0:0:0:0:
475,192,369435,1,0,0:0:0:0:
36,192,369435,1,0,0:0:0:0:
256,192,369520,1,0,0:0:0:0:
329,192,369606,1,0,0:0:0:0:
109,192,369606,1,0,0:0:0:0:
475,192,369692,1,0,0:0:0:0:
329,192,369778,1,0,0:0:0:0:
182,192,369778,1,0,0:0:0:0:
36,192,369863,1,0,0:0:0:0:
329,192,369949,1,0,0:0:0:0:
109,192,369949,1,0,0:0:0:0:
182,192,370035,1,0,0:0:0:0:
329,192,370120,1,0,0:0:0:0:
475,192,370120,1,0,0:0:0:0:
36,192,370120,1,0,0:0:0:0:
256,192,370206,1,0,0:0:0:0:
329,192,370292,1,0,0:0:0:0:
109,192,370292,1,0,0:0:0:0:
402,192,370378,1,0,0:0:0:0:
475,192,370463,1,0,0:0:0:0:
182,192,370463,1,0,0:0:0:0:
109,192,370549,1,0,0:0:0:0:
475,192,370635,1,0,0:0:0:0:
36,192,370635,1,0,0:0:0:0:
256,192,370720,1,0,0:0:0:0:
475,192,370806,1,0,0:0:0:0:
182,192,370806,1,0,0:0:0:0:
402,192,370806,1,0,0:0:0:0:
109,192,370892,1,0,0:0:0:0:
475,192,370978,1,0,0:0:0:0:
329,192,370978,1,0,0:0:0:0:
36,192,371063,1,0,0:0:0:0:
475,192,371149,1,0,0:0:0:0:
109,192,371149,1,0,0:0:0:0:
182,192,371235,1,0,0:0:0:0:
475,192,371320,1,0,0:0:0:0:
329,192,371320,1,0,0:0:0:0:
36,192,371406,1,0,0:0:0:0:
475,192,371492,1,0,0:0:0:0:
182,192,371492,1,0,0:0:0:0:
402,192,371492,1,0,0:0:0:0:
256,192,371578,1,0,0:0:0:0:
475,192,371663,1,0,0:0:0:0:
109,192,371663,1,0,0:0:0:0:
182,192,371749,1,0,0:0:0:0:
329,192,371835,1,0,0:0:0:0:
36,192,371835,1,0,0:0:0:0:
182,192,371920,1,0,0:0:0:0:
329,192,372006,1,0,0:0:0:0:
109,192,372006,1,0,0:0:0:0:
36,192,372092,1,0,0:0:0:0:
329,192,372178,1,0,0:0:0:0:
475,192,372178,1,0,0:0:0:0:
256,192,372178,1,0,0:0:0:0:
36,192,372263,1,0,0:0:0:0:
329,192,372349,1,0,0:0:0:0:
182,192,372349,1,0,0:0:0:0:
109,192,372435,1,0,0:0:0:0:
329,192,372520,1,0,0:0:0:0:
36,192,372520,1,0,0:0:0:0:
182,192,372606,1,0,0:0:0:0:
329,192,372692,1,0,0:0:0:0:
109,192,372692,1,0,0:0:0:0:
36,192,372778,1,0,0:0:0:0:
329,192,372863,1,0,0:0:0:0:
256,192,372863,1,0,0:0:0:0:
475,192,372863,1,0,0:0:0:0:
109,192,372949,1,0,0:0:0:0:
329,192,373035,1,0,0:0:0:0:
182,192,373035,1,0,0:0:0:0:
402,192,373120,1,0,0:0:0:0:
36,192,373206,1,0,0:0:0:0:
475,192,373292,1,0,0:0:0:0:
36,192,373378,1,0,0:0:0:0:
182,192,373378,1,0,0:0:0:0:
329,192,373378,1,0,0:0:0:0:
36,192,373549,1,0,0:0:0:0:
182,192,373549,1,0,0:0:0:0:
402,192,373549,1,0,0:0:0:0:
475,192,373549,1,0,0:0:0:0:
329,192,373635,1,0,0:0:0:0:
36,192,373720,1,0,0:0:0:0:
256,192,373720,1,0,0:0:0:0:
402,192,373806,1,0,0:0:0:0:
36,192,373892,1,0,0:0:0:0:
182,192,373892,1,0,0:0:0:0:
475,192,373892,1,0,0:0:0:0:
36,192,374063,1,0,0:0:0:0:
182,192,374063,1,0,0:0:0:0:
402,192,374063,1,0,0:0:0:0:
256,192,374149,1,0,0:0:0:0:
36,192,374235,1,0,0:0:0:0:
402,192,374235,1,0,0:0:0:0:
475,192,374235,1,0,0:0:0:0:
109,192,374235,1,0,0:0:0:0:
182,192,374320,1,0,0:0:0:0:
36,192,374406,1,0,0:0:0:0:
329,192,374406,1,0,0:0:0:0:
402,192,374492,1,0,0:0:0:0:
182,192,374578,1,0,0:0:0:0:
475,192,374578,1,0,0:0:0:0:
36,192,374663,1,0,0:0:0:0:
182,192,374749,1,0,0:0:0:0:
402,192,374749,1,0,0:0:0:0:
329,192,374835,1,0,0:0:0:0:
182,192,374920,1,0,0:0:0:0:
36,192,374920,1,0,0:0:0:0:
475,192,374920,1,0,0:0:0:0:
402,192,375006,1,0,0:0:0:0:
182,192,375092,1,0,0:0:0:0:
329,192,375092,1,0,0:0:0:0:
475,192,375178,1,0,0:0:0:0:
182,192,375263,1,0,0:0:0:0:
402,192,375263,1,0,0:0:0:0:
329,192,375349,1,0,0:0:0:0:
182,192,375435,1,0,0:0:0:0:
256,192,375435,1,0,0:0:0:0:
402,192,375520,1,0,0:0:0:0:
182,192,375606,1,0,0:0:0:0:
475,192,375606,1,0,0:0:0:0:
36,192,375606,1,0,0:0:0:0:
329,192,375692,1,0,0:0:0:0:
182,192,375778,1,0,0:0:0:0:
109,192,375778,1,0,0:0:0:0:
329,192,375863,1,0,0:0:0:0:
36,192,375949,128,0,376292:0:0:0:0:
475,192,375949,128,0,376292:0:0:0:0:
256,192,375949,1,0,0:0:0:0:
182,192,376035,1,0,0:0:0:0:
402,192,376120,1,0,0:0:0:0:
329,192,376206,1,0,0:0:0:0:
256,192,376292,1,0,0:0:0:0:
109,192,376292,1,0,0:0:0:0:
402,192,376378,1,0,0:0:0:0:
36,192,376463,128,0,376806:0:0:0:0:
182,192,376549,1,0,0:0:0:0:
256,192,376635,1,0,0:0:0:0:
329,192,376720,1,0,0:0:0:0:
402,192,376806,1,0,0:0:0:0:
109,192,376892,1,0,0:0:0:0:
475,192,376978,128,0,377320:0:0:0:0:
182,192,376978,1,0,0:0:0:0:
256,192,377063,1,0,0:0:0:0:
182,192,377149,1,0,0:0:0:0:
329,192,377235,1,0,0:0:0:0:
36,192,377320,1,0,0:0:0:0:
109,192,377320,128,0,377406:0:0:0:0:
256,192,377406,1,0,0:0:0:0:
475,192,377492,1,0,0:0:0:0:
109,192,377492,1,0,0:0:0:0:
402,192,377578,1,0,0:0:0:0:
329,192,377663,1,0,0:0:0:0:
36,192,377663,1,0,0:0:0:0:
109,192,377749,1,0,0:0:0:0:
182,192,377835,1,0,0:0:0:0:
329,192,377920,1,0,0:0:0:0:
475,192,378006,1,0,0:0:0:0:
402,192,378092,1,0,0:0:0:0:
329,192,378178,1,0,0:0:0:0:
256,192,378263,1,0,0:0:0:0:
109,192,378349,1,0,0:0:0:0:
475,192,378349,1,0,0:0:0:0:
182,192,378435,1,0,0:0:0:0:
402,192,378520,1,0,0:0:0:0:
256,192,378606,1,0,0:0:0:0:
36,192,378692,1,0,0:0:0:0:
109,192,378778,1,0,0:0:0:0:
182,192,378863,1,0,0:0:0:0:
402,192,378863,1,0,0:0:0:0:
256,192,378949,1,0,0:0:0:0:
402,192,379035,1,0,0:0:0:0:
36,192,379035,1,0,0:0:0:0:
109,192,379035,1,0,0:0:0:0:
329,192,379120,1,0,0:0:0:0:
256,192,379206,1,0,0:0:0:0:
182,192,379292,1,0,0:0:0:0:
402,192,379378,1,0,0:0:0:0:
182,192,379463,1,0,0:0:0:0:
402,192,379549,1,0,0:0:0:0:
109,192,379549,1,0,0:0:0:0:
475,192,379549,1,0,0:0:0:0:
36,192,379635,1,0,0:0:0:0:
182,192,379720,1,0,0:0:0:0:
256,192,379806,1,0,0:0:0:0:
329,192,379892,1,0,0:0:0:0:
402,192,379978,1,0,0:0:0:0:
109,192,380063,1,0,0:0:0:0:
36,192,380063,1,0,0:0:0:0:
256,192,380063,1,0,0:0:0:0:
329,192,380149,1,0,0:0:0:0:
402,192,380235,1,0,0:0:0:0:
475,192,380320,1,0,0:0:0:0:
256,192,380406,1,0,0:0:0:0:
475,192,380492,1,0,0:0:0:0:
109,192,380578,1,0,0:0:0:0:
182,192,380578,1,0,0:0:0:0:
329,192,380663,1,0,0:0:0:0:
36,192,380749,1,0,0:0:0:0:
182,192,380835,1,0,0:0:0:0:
109,192,380920,1,0,0:0:0:0:
36,192,381006,1,0,0:0:0:0:
182,192,381092,1,0,0:0:0:0:
256,192,381092,1,0,0:0:0:0:
475,192,381178,1,0,0:0:0:0:
402,192,381263,1,0,0:0:0:0:
182,192,381263,1,0,0:0:0:0:
329,192,381349,1,0,0:0:0:0:
36,192,381435,1,0,0:0:0:0:
109,192,381435,1,0,0:0:0:0:
256,192,381520,1,0,0:0:0:0:
36,192,381606,1,0,0:0:0:0:
329,192,381692,1,0,0:0:0:0:
475,192,381778,1,0,0:0:0:0:
256,192,381863,1,0,0:0:0:0:
182,192,381949,1,0,0:0:0:0:
109,192,381949,1,0,0:0:0:0:
329,192,382035,1,0,0:0:0:0:
109,192,382120,1,0,0:0:0:0:
475,192,382120,1,0,0:0:0:0:
256,192,382206,1,0,0:0:0:0:
36,192,382292,1,0,0:0:0:0:
402,192,382378,1,0,0:0:0:0:
182,192,382463,1,0,0:0:0:0:
256,192,382463,1,0,0:0:0:0:
36,192,382549,1,0,0:0:0:0:
182,192,382635,1,0,0:0:0:0:
329,192,382720,1,0,0:0:0:0:
475,192,382806,1,0,0:0:0:0:
109,192,382892,1,0,0:0:0:0:
256,192,382978,1,0,0:0:0:0:
329,192,382978,1,0,0:0:0:0:
36,192,383063,1,0,0:0:0:0:
256,192,383149,1,0,0:0:0:0:
402,192,383235,1,0,0:0:0:0:
109,192,383320,1,0,0:0:0:0:
36,192,383406,1,0,0:0:0:0:
329,192,383492,1,0,0:0:0:0:
402,192,383492,1,0,0:0:0:0:
182,192,383578,1,0,0:0:0:0:
329,192,383663,1,0,0:0:0:0:
109,192,383749,1,0,0:0:0:0:
36,192,383835,1,0,0:0:0:0:
256,192,383920,1,0,0:0:0:0:
402,192,384006,1,0,0:0:0:0:
475,192,384006,1,0,0:0:0:0:
109,192,384092,1,0,0:0:0:0:
36,192,384178,1,0,0:0:0:0:
256,192,384349,1,0,0:0:0:0:
329,192,384349,1,0,0:0:0:0:
36,192,384435,1,0,0:0:0:0:
329,192,384520,1,0,0:0:0:0:
402,192,384520,1,0,0:0:0:0:
36,192,384692,1,0,0:0:0:0:
475,192,384778,1,0,0:0:0:0:
182,192,384863,1,0,0:0:0:0:
256,192,384863,1,0,0:0:0:0:
256,192,385035,1,0,0:0:0:0:
329,192,385035,1,0,0:0:0:0:
109,192,385120,1,0,0:0:0:0:
329,192,385206,1,0,0:0:0:0:
109,192,385378,1,0,0:0:0:0:
182,192,385378,1,0,0:0:0:0:
402,192,385463,1,0,0:0:0:0:
182,192,385549,1,0,0:0:0:0:
256,192,385549,1,0,0:0:0:0:
256,192,385720,1,0,0:0:0:0:
402,192,385806,1,0,0:0:0:0:
36,192,385892,1,0,0:0:0:0:
109,192,385892,1,0,0:0:0:0:
109,192,386063,1,0,0:0:0:0:
182,192,386063,1,0,0:0:0:0:
402,192,386149,1,0,0:0:0:0:
256,192,386235,1,0,0:0:0:0:
475,192,386406,1,0,0:0:0:0:
402,192,386406,1,0,0:0:0:0:
182,192,386492,1,0,0:0:0:0:
402,192,386578,1,0,0:0:0:0:
329,192,386578,1,0,0:0:0:0:
329,192,386749,1,0,0:0:0:0:
256,192,386749,1,0,0:0:0:0:
109,192,386835,1,0,0:0:0:0:
475,192,386920,128,0,388292:0:0:0:0:
182,192,386920,1,0,0:0:0:0:
36,192,387092,1,0,0:0:0:0:
329,192,387263,1,0,0:0:0:0:
182,192,387435,1,0,0:0:0:0:
329,192,387435,128,0,387606:0:0:0:0:
36,192,387606,1,0,0:0:0:0:
182,192,387606,128,0,387778:0:0:0:0:
36,192,387778,128,0,387949:0:0:0:0:
329,192,387778,1,0,0:0:0:0:
182,192,387949,1,0,0:0:0:0:
329,192,388120,1,0,0:0:0:0:
109,192,388292,1,0,0:0:0:0:
36,192,388463,1,0,0:0:0:0:
182,192,388635,1,0,0:0:0:0:
329,192,388806,1,0,0:0:0:0:
109,192,388978,1,0,0:0:0:0:
256,192,389149,1,0,0:0:0:0:
402,192,389320,1,0,0:0:0:0:
256,192,389492,1,0,0:0:0:0:
475,192,389663,1,0,0:0:0:0:
182,192,389835,1,0,0:0:0:0:
329,192,390006,1,0,0:0:0:0:
475,192,390178,1,0,0:0:0:0:
36,192,390178,128,0,390349:0:0:0:0:
182,192,390349,1,0,0:0:0:0:
475,192,390349,128,0,390520:0:0:0:0:
329,192,390520,1,0,0:0:0:0:
182,192,390520,128,0,390692:0:0:0:0:
475,192,390692,1,0,0:0:0:0:
329,192,390863,1,0,0:0:0:0:
36,192,391035,1,0,0:0:0:0:
402,192,391206,1,0,0:0:0:0:
256,192,391378,1,0,0:0:0:0:
109,192,391549,1,0,0:0:0:0:
475,192,391720,1,0,0:0:0:0:
329,192,391892,1,0,0:0:0:0:
182,192,392063,1,0,0:0:0:0:
256,192,392235,1,0,0:0:0:0:
36,192,392406,1,0,0:0:0:0:
182,192,392578,1,0,0:0:0:0:
402,192,392749,1,0,0:0:0:0:
36,192,392920,1,0,0:0:0:0:
402,192,392920,128,0,393092:0:0:0:0:
182,192,393092,1,0,0:0:0:0:
36,192,393092,128,0,393263:0:0:0:0:
402,192,393263,1,0,0:0:0:0:
182,192,393263,128,0,393435:0:0:0:0:
36,192,393435,1,0,0:0:0:0:
182,192,393606,1,0,0:0:0:0:
475,192,393778,1,0,0:0:0:0:
182,192,393949,1,0,0:0:0:0:
329,192,394120,1,0,0:0:0:0:
475,192,394292,1,0,0:0:0:0:
182,192,394463,1,0,0:0:0:0:
329,192,394635,1,0,0:0:0:0:
475,192,394806,1,0,0:0:0:0:
182,192,394978,1,0,0:0:0:0:
402,192,395149,1,0,0:0:0:0:
256,192,395320,1,0,0:0:0:0:
109,192,395492,1,0,0:0:0:0:
402,192,395663,1,0,0:0:0:0:
109,192,395663,128,0,395835:0:0:0:0:
256,192,395835,1,0,0:0:0:0:
402,192,395835,128,0,396006:0:0:0:0:
109,192,396006,1,0,0:0:0:0:
256,192,396006,128,0,396178:0:0:0:0:
402,192,396178,1,0,0:0:0:0:
256,192,396349,1,0,0:0:0:0:
36,192,396520,1,0,0:0:0:0:
402,192,396692,1,0,0:0:0:0:
329,192,396863,1,0,0:0:0:0:
109,192,397035,1,0,0:0:0:0:
475,192,397206,1,0,0:0:0:0:
329,192,397378,1,0,0:0:0:0:
182,192,397549,1,0,0:0:0:0:
256,192,397720,1,0,0:0:0:0:
36,192,397892,1,0,0:0:0:0:
182,192,398063,1,0,0:0:0:0:
329,192,398235,1,0,0:0:0:0:
36,192,398406,1,0,0:0:0:0:
329,192,398406,128,0,398578:0:0:0:0:
182,192,398578,1,0,0:0:0:0:
36,192,398578,128,0,398749:0:0:0:0:
329,192,398749,1,0,0:0:0:0:
182,192,398749,128,0,398920:0:0:0:0:
36,192,398920,1,0,0:0:0:0:
182,192,399092,1,0,0:0:0:0:
475,192,399263,1,0,0:0:0:0:
109,192,399435,1,0,0:0:0:0:
256,192,399606,1,0,0:0:0:0:
475,192,399778,1,0,0:0:0:0:
109,192,399949,1,0,0:0:0:0:
256,192,400120,1,0,0:0:0:0:
475,192,400292,1,0,0:0:0:0:
109,192,400463,1,0,0:0:0:0:
402,192,400635,1,0,0:0:0:0:
182,192,400806,1,0,0:0:0:0:
36,192,400978,1,0,0:0:0:0:
402,192,401149,1,0,0:0:0:0:
36,192,401149,128,0,401320:0:0:0:0:
182,192,401320,1,0,0:0:0:0:
402,192,401320,128,0,401492:0:0:0:0:
36,192,401492,1,0,0:0:0:0:
182,192,401492,128,0,401663:0:0:0:0:
402,192,401663,1,0,0:0:0:0:
182,192,401835,1,0,0:0:0:0:
329,192,402006,1,0,0:0:0:0:
475,192,402178,1,0,0:0:0:0:
256,192,402349,1,0,0:0:0:0:
109,192,402520,1,0,0:0:0:0:
402,192,402692,1,0,0:0:0:0:
36,192,402863,1,0,0:0:0:0:
182,192,403035,1,0,0:0:0:0:
256,192,403206,1,0,0:0:0:0:
182,192,403378,1,0,0:0:0:0:
329,192,403549,1,0,0:0:0:0:
475,192,403720,1,0,0:0:0:0:
182,192,403892,1,0,0:0:0:0:
36,192,403892,128,0,404063:0:0:0:0:
329,192,404063,1,0,0:0:0:0:
182,192,404063,128,0,404235:0:0:0:0:
475,192,404235,1,0,0:0:0:0:
329,192,404235,128,0,404406:0:0:0:0:
182,192,404406,1,0,0:0:0:0:
329,192,404578,1,0,0:0:0:0:
402,192,404749,1,0,0:0:0:0:
109,192,404920,1,0,0:0:0:0:
256,192,405092,1,0,0:0:0:0:
402,192,405263,1,0,0:0:0:0:
109,192,405435,1,0,0:0:0:0:
256,192,405606,1,0,0:0:0:0:
402,192,405778,1,0,0:0:0:0:
256,192,405949,1,0,0:0:0:0:
475,192,406120,1,0,0:0:0:0:
329,192,406292,1,0,0:0:0:0:
182,192,406463,1,0,0:0:0:0:
475,192,406635,1,0,0:0:0:0:
329,192,406806,1,0,0:0:0:0:
182,192,406978,1,0,0:0:0:0:
475,192,407149,1,0,0:0:0:0:
329,192,407320,1,0,0:0:0:0:
182,192,407492,128,0,408178:0:0:0:0:
36,192,407492,1,0,0:0:0:0:
329,192,407663,1,0,0:0:0:0:
475,192,407835,1,0,0:0:0:0:
402,192,408006,1,0,0:0:0:0:
475,192,408178,1,0,0:0:0:0:
256,192,408178,1,0,0:0:0:0:
182,192,408349,1,0,0:0:0:0:
402,192,408349,1,0,0:0:0:0:
109,192,408520,1,0,0:0:0:0:
329,192,408520,1,0,0:0:0:0:
475,192,408692,1,0,0:0:0:0:
256,192,408692,1,0,0:0:0:0:
36,192,408692,1,0,0:0:0:0:
