osu file format v14

[General]
AudioFilename: audio.mp3
AudioLeadIn: 0
PreviewTime: 297768
Countdown: 0
SampleSet: None
StackLeniency: 0.7
Mode: 3
LetterboxInBreaks: 0
SpecialStyle: 0
WidescreenStoryboard: 0

[Editor]
DistanceSpacing: 1
BeatDivisor: 4
GridSize: 4
TimelineZoom: 1.7

[Metadata]
Title:I Can Fly In The Universe
TitleUnicode:I Can Fly In The Universe
Artist:Camellia
ArtistUnicode:Camellia
Creator:Evening
Version:Schizophrenia
Source:
Tags:psytrance
BeatmapID:1055345
BeatmapSetID:493316

[Difficulty]
HPDrainRate:9
CircleSize:4
OverallDifficulty:8.5
ApproachRate:5
SliderMultiplier:1.4
SliderTickRate:1

[Events]
//Background and Video events
0,0,"bg.jpg",0,0
//Break Periods
//Storyboard Layer 0 (Background)
//Storyboard Layer 1 (Fail)
//Storyboard Layer 2 (Pass)
//Storyboard Layer 3 (Foreground)
//Storyboard Sound Samples

[TimingPoints]
168,342.857142857143,4,3,0,10,1,0
168,-142.857142857143,4,3,0,10,0,0
1539,-138.888888888889,4,3,0,10,0,0
2910,-135.135135135135,4,3,0,10,0,0
4282,-131.578947368421,4,3,0,10,0,0
5653,-128.205128205128,4,3,0,10,0,0
7025,-125,4,3,0,10,0,0
8396,-121.951219512195,4,3,0,10,0,0
9768,-119.047619047619,4,3,0,10,0,0
11139,-116.279069767442,4,3,0,10,0,0
12510,-113.636363636364,4,3,0,10,0,0
13882,-111.111111111111,4,3,0,10,0,0
15253,-108.695652173913,4,3,0,10,0,0
16625,-106.382978723404,4,3,0,10,0,0
17996,-104.166666666667,4,3,0,10,0,0
19368,-102.040816326531,4,3,0,10,0,0
20739,-100,4,3,0,10,0,0
22110,-50,4,3,0,10,0,0
22110,-66.6666666666667,4,3,0,10,0,0
22153,-100,4,3,0,10,0,0
22196,-100,4,3,0,10,0,0
22625,-50,4,3,0,10,0,0
22625,-66.6666666666667,4,3,0,10,0,0
22668,-100,4,3,0,10,0,0
22711,-100,4,3,0,10,0,0
22796,-66.6666666666667,4,3,0,10,0,0
22796,-50,4,3,0,10,0,0
22839,-100,4,3,0,10,0,0
22882,-100,4,3,0,10,0,0
23139,-66.6666666666667,4,3,0,10,0,0
23139,-100,4,3,0,10,0,0
23182,-100,4,3,0,10,0,0
23225,-100,4,3,0,10,0,0
23653,-66.6666666666667,4,3,0,10,0,0
23739,-100,4,3,0,10,0,0
24168,-66.6666666666667,4,3,0,10,0,0
24254,-100,4,3,0,10,0,0
24510,-66.6666666666667,4,3,0,10,0,0
24596,-100,4,3,0,10,0,0
24853,-66.6666666666667,4,3,0,10,0,0
24939,-100,4,3,0,10,0,0
25368,-66.6666666666667,4,3,0,10,0,0
25454,-100,4,3,0,10,0,0
25539,-66.6666666666667,4,3,0,10,0,0
25625,-100,4,3,0,10,0,0
25882,-66.6666666666667,4,3,0,10,0,0
25968,-100,4,3,0,10,0,0
26396,-66.6666666666667,4,3,0,10,0,0
26482,-100,4,3,0,10,0,0
26910,-66.6666666666667,4,3,0,10,0,0
26996,-100,4,3,0,10,0,0
27253,-66.6666666666667,4,3,0,10,0,0
27339,-100,4,3,0,10,0,0
27596,-66.6666666666667,4,3,0,10,0,0
27682,-100,4,3,0,10,0,0
28110,-66.6666666666667,4,3,0,10,0,0
28196,-100,4,3,0,10,0,0
28282,-66.6666666666667,4,3,0,10,0,0
28368,-100,4,3,0,10,0,0
28625,-66.6666666666667,4,3,0,10,0,0
28711,-100,4,3,0,10,0,0
29139,-66.6666666666667,4,3,0,10,0,0
29225,-100,4,3,0,10,0,0
29653,-66.6666666666667,4,3,0,10,0,0
29739,-100,4,3,0,10,0,0
29996,-66.6666666666667,4,3,0,10,0,0
30082,-100,4,3,0,10,0,0
30339,-66.6666666666667,4,3,0,10,0,0
30425,-100,4,3,0,10,0,0
30853,-66.6666666666667,4,3,0,10,0,0
30939,-100,4,3,0,10,0,0
31025,-66.6666666666667,4,3,0,10,0,0
31111,-100,4,3,0,10,0,0
31368,-66.6666666666667,4,3,0,10,0,0
31454,-100,4,3,0,10,0,0
31882,-66.6666666666667,4,3,0,10,0,0
31968,-100,4,3,0,10,0,0
32396,-66.6666666666667,4,3,0,10,0,0
32482,-100,4,3,0,10,0,0
32739,-66.6666666666667,4,3,0,10,0,0
32825,-100,4,3,0,10,0,0
33082,-66.6666666666667,4,3,0,10,0,0
33168,-100,4,3,0,10,0,0
33596,-66.6666666666667,4,3,0,10,0,0
33682,-100,4,3,0,10,0,0
33768,-66.6666666666667,4,3,0,10,0,0
33854,-100,4,3,0,10,0,0
34110,-66.6666666666667,4,3,0,10,0,0
34196,-100,4,3,0,10,0,0
34625,-66.6666666666667,4,3,0,10,0,0
34711,-100,4,3,0,10,0,0
35139,-66.6666666666667,4,3,0,10,0,0
35225,-100,4,3,0,10,0,0
35482,-66.6666666666667,4,3,0,10,0,0
35568,-100,4,3,0,10,0,0
35825,-66.6666666666667,4,3,0,10,0,0
35911,-100,4,3,0,10,0,0
36339,-66.6666666666667,4,3,0,10,0,0
36425,-100,4,3,0,10,0,0
36510,-66.6666666666667,4,3,0,10,0,0
36596,-100,4,3,0,10,0,0
36853,-66.6666666666667,4,3,0,10,0,0
36939,-100,4,3,0,10,0,0
37368,-66.6666666666667,4,3,0,10,0,0
37454,-100,4,3,0,10,0,0
37882,-66.6666666666667,4,3,0,10,0,0
37968,-100,4,3,0,10,0,0
38225,-66.6666666666667,4,3,0,10,0,0
38311,-100,4,3,0,10,0,0
38568,-66.6666666666667,4,3,0,10,0,0
38654,-100,4,3,0,10,0,0
39082,-66.6666666666667,4,3,0,10,0,0
39168,-100,4,3,0,10,0,0
39596,-66.6666666666667,4,3,0,10,0,0
39682,-100,4,3,0,10,0,0
40110,-66.6666666666667,4,3,0,10,0,0
40196,-100,4,3,0,10,0,0
40625,-66.6666666666667,4,3,0,10,0,0
40711,-100,4,3,0,10,0,0
40968,-66.6666666666667,4,3,0,10,0,0
41054,-100,4,3,0,10,0,0
41310,-66.6666666666667,4,3,0,10,0,0
41396,-100,4,3,0,10,0,0
41825,-66.6666666666667,4,3,0,10,0,0
41910,-100,4,3,0,10,0,0
42339,-66.6666666666667,4,3,0,10,0,0
42425,-100,4,3,0,10,0,0
44053,-10,4,3,0,10,0,0
44139,-1000,4,3,0,10,0,0
45425,-10,4,3,0,10,0,0
45446,-166.666666666667,4,3,0,10,0,0
45458.1621621622,-163.958641063516,4,3,0,10,0,0
45470.3243243243,-161.337209302326,4,3,0,10,0,0
45482.4864864865,-158.798283261803,4,3,0,10,0,0
45494.6486486486,-156.338028169014,4,3,0,10,0,0
45506.8108108108,-153.952843273232,4,3,0,10,0,0
45518.972972973,-151.639344262295,4,3,0,10,0,0
45531.1351351351,-149.394347240915,4,3,0,10,0,0
45543.2972972973,-147.214854111406,4,3,0,10,0,0
45555.4594594595,-145.098039215686,4,3,0,10,0,0
45567.6216216216,-143.041237113402,4,3,0,10,0,0
45579.7837837838,-141.041931385006,4,3,0,10,0,0
45591.9459459459,-139.097744360902,4,3,0,10,0,0
45604.1081081081,-137.206427688504,4,3,0,10,0,0
45616.2702702703,-135.365853658537,4,3,0,10,0,0
45628.4324324324,-133.574007220217,4,3,0,10,0,0
45640.5945945946,-131.828978622328,4,3,0,10,0,0
45652.7567567568,-130.128956623681,4,3,0,10,0,0
45664.9189189189,-128.472222222222,4,3,0,10,0,0
45677.0810810811,-126.857142857143,4,3,0,10,0,0
45689.2432432432,-125.282167042889,4,3,0,10,0,0
45701.4054054054,-123.745819397993,4,3,0,10,0,0
45713.5675675676,-122.246696035242,4,3,0,10,0,0
45725.7297297297,-120.783460282916,4,3,0,10,0,0
45737.8918918919,-119.354838709677,4,3,0,10,0,0
45750.0540540541,-117.959617428268,4,3,0,10,0,0
45762.2162162162,-116.596638655462,4,3,0,10,0,0
45774.3783783784,-115.264797507788,4,3,0,10,0,0
45786.5405405405,-113.963039014374,4,3,0,10,0,0
45798.7027027027,-112.690355329949,4,3,0,10,0,0
45810.8648648649,-111.44578313253,4,3,0,10,0,0
45823.027027027,-110.228401191658,4,3,0,10,0,0
45835.1891891892,-109.037328094303,4,3,0,10,0,0
45847.3513513514,-107.871720116618,4,3,0,10,0,0
45859.5135135135,-106.730769230769,4,3,0,10,0,0
45871.6756756757,-105.613701236917,4,3,0,10,0,0
45883.8378378378,-104.519774011299,4,3,0,10,0,0
45896,-103.448275862069,4,3,0,10,0,0
45908.1621621622,-102.39852398524,4,3,0,10,0,0
45920.3243243243,-101.369863013699,4,3,0,10,0,0
45932.4864864865,-100.361663652803,4,3,0,10,0,0
45944.6486486486,-99.373321396598,4,3,0,10,0,0
45956.8108108108,-98.4042553191489,4,3,0,10,0,0
45968.972972973,-97.4539069359087,4,3,0,10,0,0
45981.1351351351,-96.5217391304348,4,3,0,10,0,0
45993.2972972973,-95.6072351421189,4,3,0,10,0,0
46005.4594594595,-94.7098976109215,4,3,0,10,0,0
46017.6216216216,-93.8292476754015,4,3,0,10,0,0
46029.7837837838,-92.964824120603,4,3,0,10,0,0
46041.9459459459,-92.1161825726141,4,3,0,10,0,0
46054.1081081081,-91.2828947368421,4,3,0,10,0,0
46066.2702702703,-90.4645476772616,4,3,0,10,0,0
46078.4324324324,-89.6607431340872,4,3,0,10,0,0
46090.5945945946,-88.871096877502,4,3,0,10,0,0
46102.7567567568,-88.0952380952381,4,3,0,10,0,0
46114.9189189189,-87.3328088119591,4,3,0,10,0,0
46127.0810810811,-86.5834633385335,4,3,0,10,0,0
46139.2432432432,-85.84686774942,4,3,0,10,0,0
46151.4054054054,-85.1226993865031,4,3,0,10,0,0
46163.5675675676,-84.4106463878327,4,3,0,10,0,0
46175.7297297297,-83.710407239819,4,3,0,10,0,0
46187.8918918919,-83.0216903515333,4,3,0,10,0,0
46200.0540540541,-82.3442136498516,4,3,0,10,0,0
46212.2162162162,-81.6777041942605,4,3,0,10,0,0
46224.3783783784,-81.021897810219,4,3,0,10,0,0
46236.5405405405,-80.3765387400434,4,3,0,10,0,0
46248.7027027027,-79.7413793103448,4,3,0,10,0,0
46260.8648648649,-79.1161796151105,4,3,0,10,0,0
46273.027027027,-78.5007072135785,4,3,0,10,0,0
46285.1891891892,-77.8947368421053,4,3,0,10,0,0
46297.3513513514,-77.2980501392758,4,3,0,10,0,0
46309.5135135135,-76.7104353835522,4,3,0,10,0,0
46321.6756756757,-76.1316872427984,4,3,0,10,0,0
46333.8378378378,-75.5616065350579,4,3,0,10,0,0
46346,-75,4,3,0,10,0,0
46358.1621621622,-74.4466800804829,4,3,0,10,0,0
46370.3243243243,-73.901464713715,4,3,0,10,0,0
46382.4864864865,-73.3641771315268,4,3,0,10,0,0
46394.6486486486,-72.8346456692913,4,3,0,10,0,0
46406.8108108108,-72.3127035830619,4,3,0,10,0,0
46418.972972973,-71.7981888745149,4,3,0,10,0,0
46431.1351351351,-71.2909441233141,4,3,0,10,0,0
46443.2972972973,-70.7908163265306,4,3,0,10,0,0
46455.4594594595,-70.2976567447752,4,3,0,10,0,0
46467.6216216216,-69.811320754717,4,3,0,10,0,0
46479.7837837838,-69.3316677076827,4,3,0,10,0,0
46491.9459459459,-68.8585607940447,4,3,0,10,0,0
46504.1081081081,-68.3918669131238,4,3,0,10,0,0
46516.2702702703,-67.9314565483476,4,3,0,10,0,0
46528.4324324324,-67.4772036474164,4,3,0,10,0,0
46540.5945945946,-67.0289855072464,4,3,0,10,0,0
46552.7567567568,-66.5866826634673,4,3,0,10,0,0
46564.9189189189,-66.150178784267,4,3,0,10,0,0
46577.0810810811,-65.7193605683836,4,3,0,10,0,0
46589.2432432432,-65.2941176470588,4,3,0,10,0,0
46601.4054054054,-64.8743424897721,4,3,0,10,0,0
46613.5675675676,-64.4599303135888,4,3,0,10,0,0
46625.7297297297,-64.0507789959608,4,3,0,10,0,0
46637.8918918919,-63.6467889908257,4,3,0,10,0,0
46650.0540540541,-63.2478632478632,4,3,0,10,0,0
46662.2162162162,-62.8539071347678,4,3,0,10,0,0
46674.3783783784,-62.4648283624086,4,3,0,10,0,0
46686.5405405405,-62.0805369127517,4,3,0,10,0,0
46698.7027027027,-61.7009449694275,4,3,0,10,0,0
46710.8648648649,-61.3259668508287,4,3,0,10,0,0
46723.027027027,-60.9555189456343,4,3,0,10,0,0
46735.1891891892,-60.589519650655,4,3,0,10,0,0
46747.3513513514,-60.2278893109061,4,3,0,10,0,0
46759.5135135135,-59.8705501618123,4,3,0,10,0,0
46771.6756756757,-59.5174262734584,4,3,0,10,0,0
46783.8378378378,-59.1684434968017,4,3,0,10,0,0
46796,-200,4,3,0,10,0,0
55025,-200,4,3,0,10,0,0
55064.3442622951,-196.141479099678,4,3,0,10,0,0
55103.6885245902,-192.429022082019,4,3,0,10,0,0
55143.0327868852,-188.854489164087,4,3,0,10,0,0
55182.3770491803,-185.410334346505,4,3,0,10,0,0
55221.7213114754,-182.089552238806,4,3,0,10,0,0
55261.0655737705,-178.885630498534,4,3,0,10,0,0
55300.4098360656,-175.792507204611,4,3,0,10,0,0
55339.7540983607,-172.804532577904,4,3,0,10,0,0
55379.0983606557,-169.91643454039,4,3,0,10,0,0
55418.4426229508,-167.123287671233,4,3,0,10,0,0
55457.7868852459,-164.420485175202,4,3,0,10,0,0
55497.131147541,-161.803713527851,4,3,0,10,0,0
55536.4754098361,-159.268929503916,4,3,0,10,0,0
55575.8196721311,-156.81233933162,4,3,0,10,0,0
55615.1639344262,-154.430379746835,4,3,0,10,0,0
55654.5081967213,-152.11970074813,4,3,0,10,0,0
55693.8524590164,-149.87714987715,4,3,0,10,0,0
55733.1967213115,-147.699757869249,4,3,0,10,0,0
55772.5409836066,-145.584725536993,4,3,0,10,0,0
55811.8852459016,-143.529411764706,4,3,0,10,0,0
55851.2295081967,-141.5313225058,4,3,0,10,0,0
55890.5737704918,-139.588100686499,4,3,0,10,0,0
55929.9180327869,-137.697516930023,4,3,0,10,0,0
55969.262295082,-135.857461024499,4,3,0,10,0,0
56008.606557377,-134.065934065934,4,3,0,10,0,0
56047.9508196721,-132.321041214751,4,3,0,10,0,0
56087.2950819672,-130.620985010707,4,3,0,10,0,0
56126.6393442623,-128.964059196617,4,3,0,10,0,0
56165.9836065574,-127.348643006263,4,3,0,10,0,0
56205.3278688525,-125.773195876289,4,3,0,10,0,0
56244.6721311475,-124.236252545825,4,3,0,10,0,0
56284.0163934426,-122.736418511066,4,3,0,10,0,0
56323.3606557377,-121.272365805169,4,3,0,10,0,0
56362.7049180328,-119.842829076621,4,3,0,10,0,0
56402.0491803279,-118.446601941748,4,3,0,10,0,0
56441.393442623,-117.082533589251,4,3,0,10,0,0
56480.737704918,-115.749525616698,4,3,0,10,0,0
56520.0819672131,-114.446529080675,4,3,0,10,0,0
56559.4262295082,-113.17254174397,4,3,0,10,0,0
56598.7704918033,-111.926605504587,4,3,0,10,0,0
56638.1147540984,-110.70780399274,4,3,0,10,0,0
56677.4590163934,-109.51526032316,4,3,0,10,0,0
56716.8032786885,-108.348134991119,4,3,0,10,0,0
56756.1475409836,-107.205623901582,4,3,0,10,0,0
56795.4918032787,-106.086956521739,4,3,0,10,0,0
56834.8360655738,-104.991394148021,4,3,0,10,0,0
56874.1803278689,-103.918228279387,4,3,0,10,0,0
56913.5245901639,-102.866779089376,4,3,0,10,0,0
56952.868852459,-101.836393989983,4,3,0,10,0,0
56992.2131147541,-100.826446280992,4,3,0,10,0,0
57031.5573770492,-99.8363338788871,4,3,0,10,0,0
57070.9016393443,-98.8654781199352,4,3,0,10,0,0
57110.2459016393,-97.9133226324237,4,3,0,10,0,0
57149.5901639344,-96.9793322734499,4,3,0,10,0,0
57188.9344262295,-96.0629921259842,4,3,0,10,0,0
57228.2786885246,-95.1638065522621,4,3,0,10,0,0
57267.6229508197,-94.2812982998454,4,3,0,10,0,0
57306.9672131148,-93.4150076569678,4,3,0,10,0,0
57346.3114754098,-92.5644916540212,4,3,0,10,0,0
57385.6557377049,-91.7293233082707,4,3,0,10,0,0
57425,-50,4,3,0,10,0,0
57468,-1000,4,3,0,10,0,0
57510,-50,4,3,0,10,0,0
57553,-1000,4,3,0,10,0,0
57596,-50,4,3,0,10,0,0
57639,-1000,4,3,0,10,0,0
57682,-50,4,3,0,10,0,0
57725,-1000,4,3,0,10,0,0
57768,-100,4,3,0,10,0,0
68053,-50,4,3,0,10,0,0
68096,-1000,4,3,0,10,0,0
68139,-100,4,3,0,10,0,0
68225,-50,4,3,0,10,0,0
68268,-1000,4,3,0,10,0,0
68310,-100,4,3,0,10,0,0
68396,-50,4,3,0,10,0,0
68439,-1000,4,3,0,10,0,0
68482,-50,4,3,0,10,0,0
68525,-1000,4,3,0,10,0,0
68568,-50,4,3,0,10,0,0
68610,-1000,4,3,0,10,0,0
68653,-50,4,3,0,10,0,0
68696,-1000,4,3,0,10,0,0
68739,-12.8205128205128,4,3,0,10,0,0
68748,-1000,4,3,0,10,0,0
68825,-12.8205128205128,4,3,0,10,0,0
68834,-1000,4,3,0,10,0,0
68910,-12.8205128205128,4,3,0,10,0,0
68919,-1000,4,3,0,10,0,0
68996,-12.8205128205128,4,3,0,10,0,0
69005,-1000,4,3,0,10,0,0
69082,-12.8205128205128,4,3,0,10,0,0
69091,-1000,4,3,0,10,0,0
69168,-12.8205128205128,4,3,0,10,0,0
69177,-1000,4,3,0,10,0,0
69253,-12.8205128205128,4,3,0,10,0,0
69262,-1000,4,3,0,10,0,0
69339,-12.8205128205128,4,3,0,10,0,0
69348,-1000,4,3,0,10,0,0
69425,-12.8205128205128,4,3,0,10,0,0
69434,-1000,4,3,0,10,0,0
69510,-12.8205128205128,4,3,0,10,0,0
69519,-1000,4,3,0,10,0,0
69596,-12.8205128205128,4,3,0,10,0,0
69605,-1000,4,3,0,10,0,0
69682,-12.8205128205128,4,3,0,10,0,0
69691,-1000,4,3,0,10,0,0
69768,-12.8205128205128,4,3,0,10,0,0
69777,-1000,4,3,0,10,0,0
69853,-12.8205128205128,4,3,0,10,0,0
69862,-1000,4,3,0,10,0,0
69939,-12.8205128205128,4,3,0,10,0,0
69948,-1000,4,3,0,10,0,0
70025,-12.8205128205128,4,3,0,10,0,0
70034,-1000,4,3,0,10,0,0
70110,-12.8205128205128,4,3,0,10,0,0
70119,-1000,4,3,0,10,0,0
70196,-12.8205128205128,4,3,0,10,0,0
70205,-1000,4,3,0,10,0,0
70282,-12.8205128205128,4,3,0,10,0,0
70291,-1000,4,3,0,10,0,0
70368,-12.8205128205128,4,3,0,10,0,0
70377,-1000,4,3,0,10,0,0
70453,-12.8205128205128,4,3,0,10,0,0
70462,-1000,4,3,0,10,0,0
70539,-12.8205128205128,4,3,0,10,0,0
70548,-1000,4,3,0,10,0,0
70625,-12.8205128205128,4,3,0,10,0,0
70634,-1000,4,3,0,10,0,0
70710,-12.8205128205128,4,3,0,10,0,0
70719,-1000,4,3,0,10,0,0
70796,-12.8205128205128,4,3,0,10,0,0
70805,-1000,4,3,0,10,0,0
70882,-12.8205128205128,4,3,0,10,0,0
70891,-1000,4,3,0,10,0,0
70968,-12.8205128205128,4,3,0,10,0,0
70977,-1000,4,3,0,10,0,0
71053,-12.8205128205128,4,3,0,10,0,0
71062,-1000,4,3,0,10,0,0
71139,-12.8205128205128,4,3,0,10,0,0
71148,-1000,4,3,0,10,0,0
71225,-12.8205128205128,4,3,0,10,0,0
71234,-1000,4,3,0,10,0,0
71310,-12.8205128205128,4,3,0,10,0,0
71319,-1000,4,3,0,10,0,0
71396,-12.8205128205128,4,3,0,10,0,0
71405,-1000,4,3,0,10,0,0
71482,-12.8205128205128,4,3,0,10,0,0
71491,-1000,4,3,0,10,0,0
71568,-12.8205128205128,4,3,0,10,0,0
71577,-1000,4,3,0,10,0,0
71653,-12.8205128205128,4,3,0,10,0,0
71662,-1000,4,3,0,10,0,0
71739,-12.8205128205128,4,3,0,10,0,0
71748,-1000,4,3,0,10,0,0
71825,-12.8205128205128,4,3,0,10,0,0
71834,-1000,4,3,0,10,0,0
71910,-12.8205128205128,4,3,0,10,0,0
71919,-1000,4,3,0,10,0,0
71996,-12.8205128205128,4,3,0,10,0,0
72005,-1000,4,3,0,10,0,0
72082,-12.8205128205128,4,3,0,10,0,0
72091,-1000,4,3,0,10,0,0
72168,-12.8205128205128,4,3,0,10,0,0
72177,-1000,4,3,0,10,0,0
72253,-12.8205128205128,4,3,0,10,0,0
72262,-1000,4,3,0,10,0,0
72339,-12.8205128205128,4,3,0,10,0,0
72348,-1000,4,3,0,10,0,0
72425,-12.8205128205128,4,3,0,10,0,0
72434,-1000,4,3,0,10,0,0
72510,-12.8205128205128,4,3,0,10,0,0
72519,-1000,4,3,0,10,0,0
72596,-12.8205128205128,4,3,0,10,0,0
72605,-1000,4,3,0,10,0,0
72682,-12.8205128205128,4,3,0,10,0,0
72691,-1000,4,3,0,10,0,0
72768,-12.8205128205128,4,3,0,10,0,0
72777,-1000,4,3,0,10,0,0
72853,-12.8205128205128,4,3,0,10,0,0
72862,-1000,4,3,0,10,0,0
72939,-12.8205128205128,4,3,0,10,0,0
72948,-1000,4,3,0,10,0,0
73025,-12.8205128205128,4,3,0,10,0,0
73034,-1000,4,3,0,10,0,0
73110,-12.8205128205128,4,3,0,10,0,0
73119,-1000,4,3,0,10,0,0
73196,-12.8205128205128,4,3,0,10,0,0
73205,-1000,4,3,0,10,0,0
73282,-12.8205128205128,4,3,0,10,0,0
73291,-1000,4,3,0,10,0,0
73368,-12.8205128205128,4,3,0,10,0,0
73377,-1000,4,3,0,10,0,0
73453,-12.8205128205128,4,3,0,10,0,0
73462,-1000,4,3,0,10,0,0
73539,-12.8205128205128,4,3,0,10,0,0
73548,-1000,4,3,0,10,0,0
73625,-12.8205128205128,4,3,0,10,0,0
73634,-1000,4,3,0,10,0,0
73710,-12.8205128205128,4,3,0,10,0,0
73719,-1000,4,3,0,10,0,0
73796,-12.8205128205128,4,3,0,10,0,0
73805,-1000,4,3,0,10,0,0
73882,-12.8205128205128,4,3,0,10,0,0
73891,-1000,4,3,0,10,0,0
73968,-12.8205128205128,4,3,0,10,0,0
73977,-1000,4,3,0,10,0,0
74053,-12.8205128205128,4,3,0,10,0,0
74062,-1000,4,3,0,10,0,0
74139,-12.8205128205128,4,3,0,10,0,0
74148,-1000,4,3,0,10,0,0
74225,-33.3333333333333,4,3,0,10,0,0
74231,-128.571428571429,4,3,0,10,0,0
74282,-33.3333333333333,4,3,0,10,0,0
74288,-128.571428571429,4,3,0,10,0,0
74339,-33.3333333333333,4,3,0,10,0,0
74345,-128.571428571429,4,3,0,10,0,0
74396,-33.3333333333333,4,3,0,10,0,0
74402,-128.571428571429,4,3,0,10,0,0
74453,-33.3333333333333,4,3,0,10,0,0
74459,-128.571428571429,4,3,0,10,0,0
74510,-33.3333333333333,4,3,0,10,0,0
74516,-128.571428571429,4,3,0,10,0,0
74568,-33.3333333333333,4,3,0,10,0,0
74574,-128.571428571429,4,3,0,10,0,0
74625,-33.3333333333333,4,3,0,10,0,0
74631,-128.571428571429,4,3,0,10,0,0
74682,-33.3333333333333,4,3,0,10,0,0
74688,-128.571428571429,4,3,0,10,0,0
74739,-33.3333333333333,4,3,0,10,0,0
74745,-128.571428571429,4,3,0,10,0,0
74796,-33.3333333333333,4,3,0,10,0,0
74802,-128.571428571429,4,3,0,10,0,0
74853,-33.3333333333333,4,3,0,10,0,0
74859,-128.571428571429,4,3,0,10,0,0
74910,-33.3333333333333,4,3,0,10,0,0
74914,-128.571428571429,4,3,0,10,0,0
74953,-33.3333333333333,4,3,0,10,0,0
74957,-128.571428571429,4,3,0,10,0,0
74996,-33.3333333333333,4,3,0,10,0,0
75000,-128.571428571429,4,3,0,10,0,0
75039,-33.3333333333333,4,3,0,10,0,0
75043,-128.571428571429,4,3,0,10,0,0
75082,-33.3333333333333,4,3,0,10,0,0
75086,-128.571428571429,4,3,0,10,0,0
75125,-33.3333333333333,4,3,0,10,0,0
75129,-128.571428571429,4,3,0,10,0,0
75168,-33.3333333333333,4,3,0,10,0,0
75172,-128.571428571429,4,3,0,10,0,0
75210,-33.3333333333333,4,3,0,10,0,0
75214,-128.571428571429,4,3,0,10,0,0
75253,-33.3333333333333,4,3,0,10,0,0
75257,-128.571428571429,4,3,0,10,0,0
75296,-33.3333333333333,4,3,0,10,0,0
75300,-128.571428571429,4,3,0,10,0,0
75339,-33.3333333333333,4,3,0,10,0,0
75343,-128.571428571429,4,3,0,10,0,0
75382,-33.3333333333333,4,3,0,10,0,0
75386,-128.571428571429,4,3,0,10,0,0
75425,-33.3333333333333,4,3,0,10,0,0
75429,-128.571428571429,4,3,0,10,0,0
75468,-33.3333333333333,4,3,0,10,0,0
75472,-128.571428571429,4,3,0,10,0,0
75510,-33.3333333333333,4,3,0,10,0,0
75514,-128.571428571429,4,3,0,10,0,0
75553,-33.3333333333333,4,3,0,10,0,0
75557,-128.571428571429,4,3,0,10,0,0
75596,-33.3333333333333,4,3,0,10,0,0
75600,-128.571428571429,4,3,0,10,0,0
75639,-33.3333333333333,4,3,0,10,0,0
75643,-128.571428571429,4,3,0,10,0,0
75682,-33.3333333333333,4,3,0,10,0,0
75686,-128.571428571429,4,3,0,10,0,0
75725,-33.3333333333333,4,3,0,10,0,0
75729,-128.571428571429,4,3,0,10,0,0
75768,-33.3333333333333,4,3,0,10,0,0
75772,-128.571428571429,4,3,0,10,0,0
75810,-33.3333333333333,4,3,0,10,0,0
75814,-128.571428571429,4,3,0,10,0,0
75853,-33.3333333333333,4,3,0,10,0,0
75857,-128.571428571429,4,3,0,10,0,0
75896,-33.3333333333333,4,3,0,10,0,0
75900,-128.571428571429,4,3,0,10,0,0
75939,-33.3333333333333,4,3,0,10,0,0
75943,-128.571428571429,4,3,0,10,0,0
75982,-33.3333333333333,4,3,0,10,0,0
75986,-128.571428571429,4,3,0,10,0,0
76025,-33.3333333333333,4,3,0,10,0,0
76029,-128.571428571429,4,3,0,10,0,0
76068,-33.3333333333333,4,3,0,10,0,0
76072,-128.571428571429,4,3,0,10,0,0
76110,-33.3333333333333,4,3,0,10,0,0
76114,-128.571428571429,4,3,0,10,0,0
76153,-33.3333333333333,4,3,0,10,0,0
76157,-128.571428571429,4,3,0,10,0,0
76196,-33.3333333333333,4,3,0,10,0,0
76200,-128.571428571429,4,3,0,10,0,0
76239,-33.3333333333333,4,3,0,10,0,0
76243,-128.571428571429,4,3,0,10,0,0
76282,-33.3333333333333,4,3,0,10,0,0
76286,-128.571428571429,4,3,0,10,0,0
76325,-33.3333333333333,4,3,0,10,0,0
76329,-128.571428571429,4,3,0,10,0,0
76368,-33.3333333333333,4,3,0,10,0,0
76372,-128.571428571429,4,3,0,10,0,0
76410,-33.3333333333333,4,3,0,10,0,0
76414,-128.571428571429,4,3,0,10,0,0
76453,-33.3333333333333,4,3,0,10,0,0
76457,-128.571428571429,4,3,0,10,0,0
76496,-33.3333333333333,4,3,0,10,0,0
76500,-128.571428571429,4,3,0,10,0,0
76539,-33.3333333333333,4,3,0,10,0,0
76543,-128.571428571429,4,3,0,10,0,0
76582,-33.3333333333333,4,3,0,10,0,0
76586,-128.571428571429,4,3,0,10,0,0
76625,-33.3333333333333,4,3,0,10,0,0
76629,-128.571428571429,4,3,0,10,0,0
76668,-33.3333333333333,4,3,0,10,0,0
76672,-128.571428571429,4,3,0,10,0,0
76710,-33.3333333333333,4,3,0,10,0,0
76714,-128.571428571429,4,3,0,10,0,0
76753,-33.3333333333333,4,3,0,10,0,0
76757,-128.571428571429,4,3,0,10,0,0
76796,-33.3333333333333,4,3,0,10,0,0
76800,-128.571428571429,4,3,0,10,0,0
76839,-33.3333333333333,4,3,0,10,0,0
76843,-128.571428571429,4,3,0,10,0,0
76882,-33.3333333333333,4,3,0,10,0,0
76886,-128.571428571429,4,3,0,10,0,0
76925,-33.3333333333333,4,3,0,10,0,0
76929,-128.571428571429,4,3,0,10,0,0
76968,-33.3333333333333,4,3,0,10,0,0
76972,-128.571428571429,4,3,0,10,0,0
77010,-33.3333333333333,4,3,0,10,0,0
77014,-128.571428571429,4,3,0,10,0,0
77053,-33.3333333333333,4,3,0,10,0,0
77057,-128.571428571429,4,3,0,10,0,0
77096,-33.3333333333333,4,3,0,10,0,0
77100,-128.571428571429,4,3,0,10,0,0
77139,-33.3333333333333,4,3,0,10,0,0
77143,-128.571428571429,4,3,0,10,0,0
77182,-33.3333333333333,4,3,0,10,0,0
77186,-128.571428571429,4,3,0,10,0,0
77225,-33.3333333333333,4,3,0,10,0,0
77229,-128.571428571429,4,3,0,10,0,0
77268,-33.3333333333333,4,3,0,10,0,0
77272,-128.571428571429,4,3,0,10,0,0
77310,-33.3333333333333,4,3,0,10,0,0
77314,-128.571428571429,4,3,0,10,0,0
77353,-33.3333333333333,4,3,0,10,0,0
77357,-128.571428571429,4,3,0,10,0,0
77396,-33.3333333333333,4,3,0,10,0,0
77400,-128.571428571429,4,3,0,10,0,0
77439,-33.3333333333333,4,3,0,10,0,0
77443,-128.571428571429,4,3,0,10,0,0
77482,-33.3333333333333,4,3,0,10,0,0
77486,-128.571428571429,4,3,0,10,0,0
77525,-33.3333333333333,4,3,0,10,0,0
77529,-128.571428571429,4,3,0,10,0,0
77568,-33.3333333333333,4,3,0,10,0,0
77572,-128.571428571429,4,3,0,10,0,0
77610,-33.3333333333333,4,3,0,10,0,0
77614,-128.571428571429,4,3,0,10,0,0
77653,-33.3333333333333,4,3,0,10,0,0
77657,-128.571428571429,4,3,0,10,0,0
77696,-33.3333333333333,4,3,0,10,0,0
77700,-128.571428571429,4,3,0,10,0,0
77739,-33.3333333333333,4,3,0,10,0,0
77743,-128.571428571429,4,3,0,10,0,0
77782,-33.3333333333333,4,3,0,10,0,0
77786,-128.571428571429,4,3,0,10,0,0
77825,-33.3333333333333,4,3,0,10,0,0
77829,-128.571428571429,4,3,0,10,0,0
77868,-33.3333333333333,4,3,0,10,0,0
77872,-128.571428571429,4,3,0,10,0,0
77910,-33.3333333333333,4,3,0,10,0,0
77914,-128.571428571429,4,3,0,10,0,0
77953,-33.3333333333333,4,3,0,10,0,0
77957,-128.571428571429,4,3,0,10,0,0
77996,-33.3333333333333,4,3,0,10,0,0
78005,-128.571428571429,4,3,0,10,0,0
78082,-33.3333333333333,4,3,0,10,0,0
78091,-128.571428571429,4,3,0,10,0,0
78168,-33.3333333333333,4,3,0,10,0,0
78177,-128.571428571429,4,3,0,10,0,0
78253,-33.3333333333333,4,3,0,10,0,0
78262,-128.571428571429,4,3,0,10,0,0
78339,-10,4,3,0,10,0,0
78339,-100,4,3,0,10,0,0
78339,-100,4,3,0,10,0,0
78425,-71.4285714285714,4,3,0,10,0,0
79710,-111.111111111111,4,3,0,10,0,0
89310,-58.8235294117647,4,3,0,10,0,0
89353,-999.99999999999,4,3,0,10,0,0
89396,-111.111111111111,4,3,0,10,0,0
89482,-58.8235294117647,4,3,0,10,0,0
89525,-999.99999999999,4,3,0,10,0,0
89568,-111.111111111111,4,3,0,10,0,0
89653,-58.8235294117647,4,3,0,10,0,0
89696,-999.99999999999,4,3,0,10,0,0
89739,-111.111111111111,4,3,0,10,0,0
89825,-58.8235294117647,4,3,0,10,0,0
89868,-999.99999999999,4,3,0,10,0,0
89910,-111.111111111111,4,3,0,10,0,0
89996,-58.8235294117647,4,3,0,10,0,0
90018,-999.99999999999,4,3,0,10,0,0
90039,-58.8235294117647,4,3,0,10,0,0
90060,-1000,4,3,0,10,0,0
90082,-58.8235294117647,4,3,0,10,0,0
90103,-1000,4,3,0,10,0,0
90125,-58.8235294117647,4,3,0,10,0,0
90146,-1000,4,3,0,10,0,0
90168,-58.8235294117647,4,3,0,10,0,0
90189,-1000,4,3,0,10,0,0
90210,-58.8235294117647,4,3,0,10,0,0
90232,-1000,4,3,0,10,0,0
90253,-58.8235294117647,4,3,0,10,0,0
90275,-1000,4,3,0,10,0,0
90296,-58.8235294117647,4,3,0,10,0,0
90318,-1000,4,3,0,10,0,0
90339,-11.1111111111111,4,3,0,10,0,0
90360,-250,4,3,0,10,0,0
90682,-111.111111111111,4,3,0,10,0,0
97539,-111.111111111111,4,3,0,10,0,0
97676.1,-109.89010989011,4,3,0,10,0,0
97813.2,-108.695652173913,4,3,0,10,0,0
97950.3,-107.52688172043,4,3,0,10,0,0
98087.4,-106.382978723404,4,3,0,10,0,0
98224.5,-105.263157894737,4,3,0,10,0,0
98361.6,-104.166666666667,4,3,0,10,0,0
98498.7,-103.092783505155,4,3,0,10,0,0
98635.8,-102.040816326531,4,3,0,10,0,0
98772.9,-101.010101010101,4,3,0,10,0,0
98910,-100,4,3,0,10,0,0
101310,-10,4,3,0,10,0,0
101353,-111.111111111111,4,3,0,10,0,0
101568,-50,4,3,0,10,0,0
101653,-100,4,3,0,10,0,0
112110,-52.6315789473684,4,3,0,10,0,0
112132,-999.999999999999,4,3,0,10,0,0
112153,-52.6315789473684,4,3,0,10,0,0
112175,-999.999999999999,4,3,0,10,0,0
112196,-52.6315789473684,4,3,0,10,0,0
112218,-999.999999999999,4,3,0,10,0,0
112239,-52.6315789473684,4,3,0,10,0,0
112261,-999.999999999999,4,3,0,10,0,0
112282,-52.6315789473684,4,3,0,10,0,0
112325,-999.999999999999,4,3,0,10,0,0
112368,-52.6315789473684,4,3,0,10,0,0
112411,-999.999999999999,4,3,0,10,0,0
112453,-52.6315789473684,4,3,0,10,0,0
112496,-999.999999999999,4,3,0,10,0,0
112539,-52.6315789473684,4,3,0,10,0,0
112582,-999.999999999999,4,3,0,10,0,0
112625,-100,4,3,0,10,0,0
120510,-52.6315789473684,4,3,0,10,0,0
120553,-1000,4,3,0,10,0,0
120596,-52.6315789473684,4,3,0,10,0,0
120639,-1000,4,3,0,10,0,0
120682,-52.6315789473684,4,3,0,10,0,0
120725,-1000,4,3,0,10,0,0
120768,-52.6315789473684,4,3,0,10,0,0
120810,-1000,4,3,0,10,0,0
120853,-125,4,3,0,10,0,0
122739,-52.6315789473684,4,3,0,10,0,0
122754,-999.999999999999,4,3,0,10,0,0
122768,-52.6315789473684,4,3,0,10,0,0
122782,-999.999999999999,4,3,0,10,0,0
122796,-52.6315789473684,4,3,0,10,0,0
122811,-999.999999999999,4,3,0,10,0,0
122825,-52.6315789473684,4,3,0,10,0,0
122847,-999.999999999999,4,3,0,10,0,0
122868,-52.6315789473684,4,3,0,10,0,0
122889,-999.999999999999,4,3,0,10,0,0
122910,-52.6315789473684,4,3,0,10,0,0
122932,-999.999999999999,4,3,0,10,0,0
122953,-52.6315789473684,4,3,0,10,0,0
122975,-999.999999999999,4,3,0,10,0,0
122996,-52.6315789473684,4,3,0,10,0,0
123018,-999.999999999999,4,3,0,10,0,0
123039,-52.6315789473684,4,3,0,10,0,0
123061,-999.999999999999,4,3,0,10,0,0
123082,-52.6315789473684,4,3,0,10,0,0
123104,-999.999999999999,4,3,0,10,0,0
123125,-52.6315789473684,4,3,0,10,0,0
123147,-999.999999999999,4,3,0,10,0,0
123168,-52.6315789473684,4,3,0,10,0,0
123189,-999.999999999999,4,3,0,10,0,0
123210,-52.6315789473684,4,3,0,10,0,0
123232,-999.999999999999,4,3,0,10,0,0
123253,-52.6315789473684,4,3,0,10,0,0
123296,-999.999999999999,4,3,0,10,0,0
123339,-52.6315789473684,4,3,0,10,0,0
123382,-999.999999999999,4,3,0,10,0,0
123425,-52.6315789473684,4,3,0,10,0,0
123468,-999.999999999999,4,3,0,10,0,0
123510,-52.6315789473684,4,3,0,10,0,0
123553,-999.999999999999,4,3,0,10,0,0
123596,-100,4,3,0,10,0,0
134225,-10,4,3,0,10,0,0
134268,-111.111111111111,4,3,0,10,0,0
134482,-50,4,3,0,10,0,0
134568,-100,4,3,0,10,0,0
144853,-10,4,3,0,10,0,0
144896,-100,4,3,0,10,0,0
145110,-10,4,3,0,10,0,0
145153,-100,4,3,0,10,0,0
145368,-10,4,3,0,10,0,0
145410,-100,4,3,0,10,0,0
145539,-100,4,3,0,10,0,0
145627.483870968,-100.977198697068,4,3,0,10,0,0
145715.967741935,-101.973684210526,4,3,0,10,0,0
145804.451612903,-102.990033222591,4,3,0,10,0,0
145892.935483871,-104.026845637584,4,3,0,10,0,0
145981.419354839,-105.084745762712,4,3,0,10,0,0
146069.903225806,-106.164383561644,4,3,0,10,0,0
146158.387096774,-107.266435986159,4,3,0,10,0,0
146246.870967742,-108.391608391608,4,3,0,10,0,0
146335.35483871,-109.540636042403,4,3,0,10,0,0
146423.838709677,-110.714285714286,4,3,0,10,0,0
146512.322580645,-111.913357400722,4,3,0,10,0,0
146600.806451613,-113.138686131387,4,3,0,10,0,0
146689.290322581,-114.391143911439,4,3,0,10,0,0
146777.774193548,-115.671641791045,4,3,0,10,0,0
146866.258064516,-116.981132075472,4,3,0,10,0,0
146954.741935484,-118.320610687023,4,3,0,10,0,0
147043.225806452,-119.69111969112,4,3,0,10,0,0
147131.709677419,-121.09375,4,3,0,10,0,0
147220.193548387,-122.529644268775,4,3,0,10,0,0
147308.677419355,-124,4,3,0,10,0,0
147397.161290323,-125.506072874494,4,3,0,10,0,0
147485.64516129,-127.049180327869,4,3,0,10,0,0
147574.129032258,-128.630705394191,4,3,0,10,0,0
147662.612903226,-130.252100840336,4,3,0,10,0,0
147751.096774194,-131.914893617021,4,3,0,10,0,0
147839.580645161,-133.620689655172,4,3,0,10,0,0
147928.064516129,-135.371179039301,4,3,0,10,0,0
148016.548387097,-137.16814159292,4,3,0,10,0,0
148105.032258065,-139.013452914798,4,3,0,10,0,0
148193.516129032,-140.909090909091,4,3,0,10,0,0
148282,-142.857142857143,4,3,0,10,0,0
155139,-10.989010989011,4,3,0,10,0,0
155148,-1000,4,3,0,10,0,0
155225,-10.989010989011,4,3,0,10,0,0
155234,-1000,4,3,0,10,0,0
155310,-10.989010989011,4,3,0,10,0,0
155319,-1000,4,3,0,10,0,0
155396,-10.989010989011,4,3,0,10,0,0
155415,-1000,4,3,0,10,0,0
155589,-10.989010989011,4,3,0,10,0,0
155606,-1000,4,3,0,10,0,0
155760,-10.989010989011,4,3,0,10,0,0
155786,-1000,4,3,0,10,0,0
156018,-10.989010989011,4,3,0,10,0,0
156042,-1000,4,3,0,10,0,0
156253,-10.989010989011,4,3,0,10,0,0
156262,-1000,4,3,0,10,0,0
156339,-10.989010989011,4,3,0,10,0,0
156345,-1000,4,3,0,10,0,0
156396,-10.989010989011,4,3,0,10,0,0
156402,-1000,4,3,0,10,0,0
156453,-10.989010989011,4,3,0,10,0,0
156459,-1000,4,3,0,10,0,0
156510,-100,4,3,0,10,0,0
167482,-142.857142857143,4,3,0,10,0,0
167713,-27.027027027027,4,3,0,10,0,0
167739,-142.857142857143,4,3,0,10,0,0
167816,-27.027027027027,4,3,0,10,0,0
167825,-142.857142857143,4,3,0,10,0,0
167979,-27.027027027027,4,3,0,10,0,0
167996,-142.857142857143,4,3,0,10,0,0
168151,-27.027027027027,4,3,0,10,0,0
168168,-142.857142857143,4,3,0,10,0,0
168322,-27.027027027027,4,3,0,10,0,0
168339,-142.857142857143,4,3,0,10,0,0
168493,-27.027027027027,4,3,0,10,0,0
168510,-142.857142857143,4,3,0,10,0,0
168819,-27.027027027027,4,3,0,10,0,0
168853,-142.857142857143,4,3,0,10,0,0
169008,-27.027027027027,4,3,0,10,0,0
169025,-142.857142857143,4,3,0,10,0,0
169102,-27.027027027027,4,3,0,10,0,0
169110,-142.857142857143,4,3,0,10,0,0
169187,-27.027027027027,4,3,0,10,0,0
169196,-142.857142857143,4,3,0,10,0,0
169351,-27.027027027027,4,3,0,10,0,0
169368,-142.857142857143,4,3,0,10,0,0
169522,-27.027027027027,4,3,0,10,0,0
169539,-142.857142857143,4,3,0,10,0,0
169693,-27.027027027027,4,3,0,10,0,0
169710,-142.857142857143,4,3,0,10,0,0
169787,-27.027027027027,4,3,0,10,0,0
169796,-142.857142857143,4,3,0,10,0,0
169873,-27.027027027027,4,3,0,10,0,0
169882,-142.857142857143,4,3,0,10,0,0
169959,-27.027027027027,4,3,0,10,0,0
169968,-142.857142857143,4,3,0,10,0,0
170199,-27.027027027027,4,3,0,10,0,0
170225,-142.857142857143,4,3,0,10,0,0
170456,-27.027027027027,4,3,0,10,0,0
170482,-142.857142857143,4,3,0,10,0,0
170559,-27.027027027027,4,3,0,10,0,0
170568,-142.857142857143,4,3,0,10,0,0
170722,-27.027027027027,4,3,0,10,0,0
170739,-142.857142857143,4,3,0,10,0,0
170893,-27.027027027027,4,3,0,10,0,0
170910,-142.857142857143,4,3,0,10,0,0
171065,-27.027027027027,4,3,0,10,0,0
171082,-142.857142857143,4,3,0,10,0,0
171159,-27.027027027027,4,3,0,10,0,0
171168,-142.857142857143,4,3,0,10,0,0
171245,-27.027027027027,4,3,0,10,0,0
171253,-142.857142857143,4,3,0,10,0,0
171562,-27.027027027027,4,3,0,10,0,0
171596,-142.857142857143,4,3,0,10,0,0
171751,-27.027027027027,4,3,0,10,0,0
171768,-142.857142857143,4,3,0,10,0,0
171845,-27.027027027027,4,3,0,10,0,0
171853,-142.857142857143,4,3,0,10,0,0
171930,-27.027027027027,4,3,0,10,0,0
171939,-142.857142857143,4,3,0,10,0,0
172093,-27.027027027027,4,3,0,10,0,0
172110,-142.857142857143,4,3,0,10,0,0
172265,-27.027027027027,4,3,0,10,0,0
172282,-142.857142857143,4,3,0,10,0,0
172436,-27.027027027027,4,3,0,10,0,0
172453,-142.857142857143,4,3,0,10,0,0
172530,-27.027027027027,4,3,0,10,0,0
172539,-142.857142857143,4,3,0,10,0,0
172616,-27.027027027027,4,3,0,10,0,0
172625,-142.857142857143,4,3,0,10,0,0
172702,-27.027027027027,4,3,0,10,0,0
172710,-142.857142857143,4,3,0,10,0,0
172787,-27.027027027027,4,3,0,10,0,0
172796,-142.857142857143,4,3,0,10,0,0
172873,-27.027027027027,4,3,0,10,0,0
172882,-142.857142857143,4,3,0,10,0,0
172959,-27.027027027027,4,3,0,10,0,0
172968,-142.857142857143,4,3,0,10,0,0
173199,-27.027027027027,4,3,0,10,0,0
173225,-142.857142857143,4,3,0,10,0,0
173302,-27.027027027027,4,3,0,10,0,0
173310,-142.857142857143,4,3,0,10,0,0
173465,-27.027027027027,4,3,0,10,0,0
173482,-142.857142857143,4,3,0,10,0,0
173636,-27.027027027027,4,3,0,10,0,0
173653,-142.857142857143,4,3,0,10,0,0
173808,-27.027027027027,4,3,0,10,0,0
173825,-142.857142857143,4,3,0,10,0,0
173979,-27.027027027027,4,3,0,10,0,0
173996,-142.857142857143,4,3,0,10,0,0
174151,-27.027027027027,4,3,0,10,0,0
174168,-142.857142857143,4,3,0,10,0,0
174322,-27.027027027027,4,3,0,10,0,0
174339,-142.857142857143,4,3,0,10,0,0
174493,-27.027027027027,4,3,0,10,0,0
174510,-142.857142857143,4,3,0,10,0,0
174587,-27.027027027027,4,3,0,10,0,0
174596,-142.857142857143,4,3,0,10,0,0
174673,-27.027027027027,4,3,0,10,0,0
174682,-142.857142857143,4,3,0,10,0,0
174836,-27.027027027027,4,3,0,10,0,0
174853,-142.857142857143,4,3,0,10,0,0
175008,-27.027027027027,4,3,0,10,0,0
175025,-142.857142857143,4,3,0,10,0,0
175179,-27.027027027027,4,3,0,10,0,0
175196,-142.857142857143,4,3,0,10,0,0
175273,-27.027027027027,4,3,0,10,0,0
175282,-142.857142857143,4,3,0,10,0,0
175359,-27.027027027027,4,3,0,10,0,0
175368,-142.857142857143,4,3,0,10,0,0
175676,-27.027027027027,4,3,0,10,0,0
175710,-142.857142857143,4,3,0,10,0,0
175942,-27.027027027027,4,3,0,10,0,0
175968,-142.857142857143,4,3,0,10,0,0
176045,-27.027027027027,4,3,0,10,0,0
176053,-142.857142857143,4,3,0,10,0,0
176208,-27.027027027027,4,3,0,10,0,0
176225,-142.857142857143,4,3,0,10,0,0
176379,-27.027027027027,4,3,0,10,0,0
176396,-142.857142857143,4,3,0,10,0,0
176551,-27.027027027027,4,3,0,10,0,0
176568,-142.857142857143,4,3,0,10,0,0
176645,-27.027027027027,4,3,0,10,0,0
176653,-142.857142857143,4,3,0,10,0,0
176730,-27.027027027027,4,3,0,10,0,0
176739,-142.857142857143,4,3,0,10,0,0
176893,-27.027027027027,4,3,0,10,0,0
176910,-142.857142857143,4,3,0,10,0,0
177065,-27.027027027027,4,3,0,10,0,0
177082,-142.857142857143,4,3,0,10,0,0
177236,-27.027027027027,4,3,0,10,0,0
177253,-142.857142857143,4,3,0,10,0,0
177330,-27.027027027027,4,3,0,10,0,0
177339,-142.857142857143,4,3,0,10,0,0
177416,-27.027027027027,4,3,0,10,0,0
177425,-142.857142857143,4,3,0,10,0,0
177579,-27.027027027027,4,3,0,10,0,0
177596,-142.857142857143,4,3,0,10,0,0
177751,-27.027027027027,4,3,0,10,0,0
177768,-142.857142857143,4,3,0,10,0,0
177922,-27.027027027027,4,3,0,10,0,0
177939,-142.857142857143,4,3,0,10,0,0
178016,-27.027027027027,4,3,0,10,0,0
178025,-142.857142857143,4,3,0,10,0,0
178102,-27.027027027027,4,3,0,10,0,0
178110,-142.857142857143,4,3,0,10,0,0
178187,-27.027027027027,4,3,0,10,0,0
178196,-142.857142857143,4,3,0,10,0,0
178273,-27.027027027027,4,3,0,10,0,0
178282,-142.857142857143,4,3,0,10,0,0
178359,-27.027027027027,4,3,0,10,0,0
178368,-142.857142857143,4,3,0,10,0,0
178445,-27.027027027027,4,3,0,10,0,0
178453,-142.857142857143,4,3,0,10,0,0
178762,-27.027027027027,4,3,0,10,0,0
178796,-142.857142857143,4,3,0,10,0,0
178951,-27.027027027027,4,3,0,10,0,0
178968,-142.857142857143,4,3,0,10,0,0
179006,-27.027027027027,4,3,0,10,0,0
179010,-142.857142857143,4,3,0,10,0,0
179049,-27.027027027027,4,3,0,10,0,0
179053,-142.857142857143,4,3,0,10,0,0
179130,-27.027027027027,4,3,0,10,0,0
179139,-142.857142857143,4,3,0,10,0,0
179293,-27.027027027027,4,3,0,10,0,0
179310,-142.857142857143,4,3,0,10,0,0
179465,-27.027027027027,4,3,0,10,0,0
179482,-142.857142857143,4,3,0,10,0,0
179636,-27.027027027027,4,3,0,10,0,0
179653,-142.857142857143,4,3,0,10,0,0
179808,-27.027027027027,4,3,0,10,0,0
179825,-142.857142857143,4,3,0,10,0,0
180056,-27.027027027027,4,3,0,10,0,0
180082,-142.857142857143,4,3,0,10,0,0
180159,-27.027027027027,4,3,0,10,0,0
180168,-142.857142857143,4,3,0,10,0,0
180322,-27.027027027027,4,3,0,10,0,0
180339,-142.857142857143,4,3,0,10,0,0
180493,-27.027027027027,4,3,0,10,0,0
180510,-142.857142857143,4,3,0,10,0,0
180587,-27.027027027027,4,3,0,10,0,0
180596,-142.857142857143,4,3,0,10,0,0
180673,-27.027027027027,4,3,0,10,0,0
180682,-142.857142857143,4,3,0,10,0,0
180759,-27.027027027027,4,3,0,10,0,0
180768,-142.857142857143,4,3,0,10,0,0
180845,-27.027027027027,4,3,0,10,0,0
180853,-142.857142857143,4,3,0,10,0,0
180930,-27.027027027027,4,3,0,10,0,0
180939,-142.857142857143,4,3,0,10,0,0
181016,-27.027027027027,4,3,0,10,0,0
181025,-142.857142857143,4,3,0,10,0,0
181064,-27.027027027027,4,3,0,10,0,0
181068,-142.857142857143,4,3,0,10,0,0
181106,-27.027027027027,4,3,0,10,0,0
181110,-142.857142857143,4,3,0,10,0,0
181149,-27.027027027027,4,3,0,10,0,0
181153,-142.857142857143,4,3,0,10,0,0
181192,-27.027027027027,4,3,0,10,0,0
181196,-142.857142857143,4,3,0,10,0,0
181427,-27.027027027027,4,3,0,10,0,0
181453,-142.857142857143,4,3,0,10,0,0
181530,-27.027027027027,4,3,0,10,0,0
181539,-142.857142857143,4,3,0,10,0,0
181693,-27.027027027027,4,3,0,10,0,0
181710,-142.857142857143,4,3,0,10,0,0
181865,-27.027027027027,4,3,0,10,0,0
181882,-142.857142857143,4,3,0,10,0,0
182036,-27.027027027027,4,3,0,10,0,0
182053,-142.857142857143,4,3,0,10,0,0
182130,-27.027027027027,4,3,0,10,0,0
182139,-142.857142857143,4,3,0,10,0,0
182216,-27.027027027027,4,3,0,10,0,0
182225,-142.857142857143,4,3,0,10,0,0
182379,-27.027027027027,4,3,0,10,0,0
182396,-142.857142857143,4,3,0,10,0,0
182551,-27.027027027027,4,3,0,10,0,0
182568,-142.857142857143,4,3,0,10,0,0
182799,-27.027027027027,4,3,0,10,0,0
182825,-142.857142857143,4,3,0,10,0,0
182902,-27.027027027027,4,3,0,10,0,0
182910,-142.857142857143,4,3,0,10,0,0
183065,-27.027027027027,4,3,0,10,0,0
183082,-142.857142857143,4,3,0,10,0,0
183236,-27.027027027027,4,3,0,10,0,0
183253,-142.857142857143,4,3,0,10,0,0
183330,-27.027027027027,4,3,0,10,0,0
183339,-142.857142857143,4,3,0,10,0,0
183416,-27.027027027027,4,3,0,10,0,0
183425,-142.857142857143,4,3,0,10,0,0
183502,-27.027027027027,4,3,0,10,0,0
183510,-142.857142857143,4,3,0,10,0,0
183587,-27.027027027027,4,3,0,10,0,0
183596,-142.857142857143,4,3,0,10,0,0
183673,-27.027027027027,4,3,0,10,0,0
183682,-142.857142857143,4,3,0,10,0,0
183759,-27.027027027027,4,3,0,10,0,0
183768,-142.857142857143,4,3,0,10,0,0
183845,-27.027027027027,4,3,0,10,0,0
183853,-142.857142857143,4,3,0,10,0,0
183930,-27.027027027027,4,3,0,10,0,0
183939,-142.857142857143,4,3,0,10,0,0
184093,-27.027027027027,4,3,0,10,0,0
184110,-142.857142857143,4,3,0,10,0,0
184265,-27.027027027027,4,3,0,10,0,0
184282,-142.857142857143,4,3,0,10,0,0
184436,-27.027027027027,4,3,0,10,0,0
184453,-142.857142857143,4,3,0,10,0,0
184608,-27.027027027027,4,3,0,10,0,0
184625,-142.857142857143,4,3,0,10,0,0
184779,-27.027027027027,4,3,0,10,0,0
184796,-142.857142857143,4,3,0,10,0,0
184951,-27.027027027027,4,3,0,10,0,0
184968,-142.857142857143,4,3,0,10,0,0
185045,-27.027027027027,4,3,0,10,0,0
185053,-142.857142857143,4,3,0,10,0,0
185130,-27.027027027027,4,3,0,10,0,0
185139,-142.857142857143,4,3,0,10,0,0
185216,-27.027027027027,4,3,0,10,0,0
185225,-142.857142857143,4,3,0,10,0,0
185302,-27.027027027027,4,3,0,10,0,0
185310,-142.857142857143,4,3,0,10,0,0
185465,-27.027027027027,4,3,0,10,0,0
185482,-142.857142857143,4,3,0,10,0,0
185559,-27.027027027027,4,3,0,10,0,0
185568,-142.857142857143,4,3,0,10,0,0
185645,-27.027027027027,4,3,0,10,0,0
185653,-142.857142857143,4,3,0,10,0,0
185808,-27.027027027027,4,3,0,10,0,0
185825,-142.857142857143,4,3,0,10,0,0
185979,-27.027027027027,4,3,0,10,0,0
185996,-142.857142857143,4,3,0,10,0,0
186151,-27.027027027027,4,3,0,10,0,0
186168,-142.857142857143,4,3,0,10,0,0
186245,-27.027027027027,4,3,0,10,0,0
186253,-142.857142857143,4,3,0,10,0,0
186330,-27.027027027027,4,3,0,10,0,0
186339,-142.857142857143,4,3,0,10,0,0
186416,-27.027027027027,4,3,0,10,0,0
186425,-142.857142857143,4,3,0,10,0,0
186502,-27.027027027027,4,3,0,10,0,0
186510,-142.857142857143,4,3,0,10,0,0
186549,-27.027027027027,4,3,0,10,0,0
186553,-142.857142857143,4,3,0,10,0,0
186592,-27.027027027027,4,3,0,10,0,0
186596,-142.857142857143,4,3,0,10,0,0
186635,-27.027027027027,4,3,0,10,0,0
186639,-142.857142857143,4,3,0,10,0,0
186678,-27.027027027027,4,3,0,10,0,0
186682,-142.857142857143,4,3,0,10,0,0
186759,-27.027027027027,4,3,0,10,0,0
186768,-142.857142857143,4,3,0,10,0,0
186845,-27.027027027027,4,3,0,10,0,0
186853,-142.857142857143,4,3,0,10,0,0
186930,-27.027027027027,4,3,0,10,0,0
186939,-142.857142857143,4,3,0,10,0,0
187016,-27.027027027027,4,3,0,10,0,0
187025,-142.857142857143,4,3,0,10,0,0
187102,-27.027027027027,4,3,0,10,0,0
187110,-142.857142857143,4,3,0,10,0,0
187187,-27.027027027027,4,3,0,10,0,0
187196,-142.857142857143,4,3,0,10,0,0
187273,-27.027027027027,4,3,0,10,0,0
187282,-142.857142857143,4,3,0,10,0,0
187359,-27.027027027027,4,3,0,10,0,0
187368,-142.857142857143,4,3,0,10,0,0
187445,-27.027027027027,4,3,0,10,0,0
187453,-142.857142857143,4,3,0,10,0,0
187530,-27.027027027027,4,3,0,10,0,0
187539,-142.857142857143,4,3,0,10,0,0
187616,-27.027027027027,4,3,0,10,0,0
187625,-142.857142857143,4,3,0,10,0,0
187702,-27.027027027027,4,3,0,10,0,0
187710,-142.857142857143,4,3,0,10,0,0
187787,-27.027027027027,4,3,0,10,0,0
187796,-142.857142857143,4,3,0,10,0,0
187873,-27.027027027027,4,3,0,10,0,0
187882,-142.857142857143,4,3,0,10,0,0
187959,-27.027027027027,4,3,0,10,0,0
187968,-142.857142857143,4,3,0,10,0,0
188045,-27.027027027027,4,3,0,10,0,0
188053,-52.6315789473684,4,3,0,10,0,0
188096,-1000,4,3,0,10,0,0
188139,-52.6315789473684,4,3,0,10,0,0
188182,-1000,4,3,0,10,0,0
188225,-52.6315789473684,4,3,0,10,0,0
188268,-1000,4,3,0,10,0,0
188310,-52.6315789473684,4,3,0,10,0,0
188353,-1000,4,3,0,10,0,0
188396,-27.027027027027,4,3,0,10,0,0
188439,-1000,4,3,0,10,0,0
188568,-27.027027027027,4,3,0,10,0,0
188610,-1000,4,3,0,10,0,0
188739,-27.027027027027,4,3,0,10,0,0
188782,-1000,4,3,0,10,0,0
188910,-100,4,3,0,10,0,0
188996,-27.027027027027,4,3,0,10,0,0
189039,-1000,4,3,0,10,0,0
189168,-100,4,3,0,10,0,0
189253,-52.6315789473684,4,3,0,10,0,0
189296,-1000,4,3,0,10,0,0
189339,-100,4,3,0,10,0,0
189425,-117.647058823529,4,3,0,10,0,0
189579,-42.5531914893617,4,3,0,10,0,0
189596,-117.647058823529,4,3,0,10,0,0
189673,-42.5531914893617,4,3,0,10,0,0
189682,-117.647058823529,4,3,0,10,0,0
189759,-42.5531914893617,4,3,0,10,0,0
189768,-117.647058823529,4,3,0,10,0,0
189922,-42.5531914893617,4,3,0,10,0,0
189939,-117.647058823529,4,3,0,10,0,0
190093,-42.5531914893617,4,3,0,10,0,0
190110,-117.647058823529,4,3,0,10,0,0
190187,-42.5531914893617,4,3,0,10,0,0
190196,-117.647058823529,4,3,0,10,0,0
190273,-42.5531914893617,4,3,0,10,0,0
190282,-117.647058823529,4,3,0,10,0,0
190436,-42.5531914893617,4,3,0,10,0,0
190453,-117.647058823529,4,3,0,10,0,0
190608,-42.5531914893617,4,3,0,10,0,0
190625,-117.647058823529,4,3,0,10,0,0
190702,-42.5531914893617,4,3,0,10,0,0
190710,-117.647058823529,4,3,0,10,0,0
190787,-42.5531914893617,4,3,0,10,0,0
190796,-117.647058823529,4,3,0,10,0,0
190951,-42.5531914893617,4,3,0,10,0,0
190968,-117.647058823529,4,3,0,10,0,0
191045,-42.5531914893617,4,3,0,10,0,0
191053,-117.647058823529,4,3,0,10,0,0
191130,-42.5531914893617,4,3,0,10,0,0
191139,-117.647058823529,4,3,0,10,0,0
191293,-42.5531914893617,4,3,0,10,0,0
191310,-117.647058823529,4,3,0,10,0,0
191465,-42.5531914893617,4,3,0,10,0,0
191482,-117.647058823529,4,3,0,10,0,0
191636,-42.5531914893617,4,3,0,10,0,0
191653,-117.647058823529,4,3,0,10,0,0
191730,-42.5531914893617,4,3,0,10,0,0
191739,-117.647058823529,4,3,0,10,0,0
191816,-42.5531914893617,4,3,0,10,0,0
191825,-117.647058823529,4,3,0,10,0,0
191902,-42.5531914893617,4,3,0,10,0,0
191910,-117.647058823529,4,3,0,10,0,0
191987,-42.5531914893617,4,3,0,10,0,0
191996,-117.647058823529,4,3,0,10,0,0
192035,-42.5531914893617,4,3,0,10,0,0
192039,-117.647058823529,4,3,0,10,0,0
192078,-42.5531914893617,4,3,0,10,0,0
192082,-117.647058823529,4,3,0,10,0,0
192121,-42.5531914893617,4,3,0,10,0,0
192125,-117.647058823529,4,3,0,10,0,0
192164,-42.5531914893617,4,3,0,10,0,0
192168,-117.647058823529,4,3,0,10,0,0
192322,-42.5531914893617,4,3,0,10,0,0
192339,-117.647058823529,4,3,0,10,0,0
192416,-42.5531914893617,4,3,0,10,0,0
192425,-117.647058823529,4,3,0,10,0,0
192502,-42.5531914893617,4,3,0,10,0,0
192510,-117.647058823529,4,3,0,10,0,0
192665,-42.5531914893617,4,3,0,10,0,0
192682,-117.647058823529,4,3,0,10,0,0
192836,-42.5531914893617,4,3,0,10,0,0
192853,-117.647058823529,4,3,0,10,0,0
193008,-42.5531914893617,4,3,0,10,0,0
193025,-117.647058823529,4,3,0,10,0,0
193102,-42.5531914893617,4,3,0,10,0,0
193110,-117.647058823529,4,3,0,10,0,0
193187,-42.5531914893617,4,3,0,10,0,0
193196,-117.647058823529,4,3,0,10,0,0
193273,-42.5531914893617,4,3,0,10,0,0
193282,-117.647058823529,4,3,0,10,0,0
193436,-42.5531914893617,4,3,0,10,0,0
193453,-117.647058823529,4,3,0,10,0,0
193530,-42.5531914893617,4,3,0,10,0,0
193539,-117.647058823529,4,3,0,10,0,0
193693,-42.5531914893617,4,3,0,10,0,0
193710,-117.647058823529,4,3,0,10,0,0
193787,-42.5531914893617,4,3,0,10,0,0
193796,-117.647058823529,4,3,0,10,0,0
193873,-42.5531914893617,4,3,0,10,0,0
193882,-117.647058823529,4,3,0,10,0,0
193959,-42.5531914893617,4,3,0,10,0,0
193968,-117.647058823529,4,3,0,10,0,0
194122,-42.5531914893617,4,3,0,10,0,0
194139,-117.647058823529,4,3,0,10,0,0
194216,-42.5531914893617,4,3,0,10,0,0
194225,-117.647058823529,4,3,0,10,0,0
194379,-42.5531914893617,4,3,0,10,0,0
194396,-117.647058823529,4,3,0,10,0,0
194473,-42.5531914893617,4,3,0,10,0,0
194482,-117.647058823529,4,3,0,10,0,0
194559,-42.5531914893617,4,3,0,10,0,0
194568,-117.647058823529,4,3,0,10,0,0
194645,-42.5531914893617,4,3,0,10,0,0
194653,-117.647058823529,4,3,0,10,0,0
194730,-42.5531914893617,4,3,0,10,0,0
194739,-117.647058823529,4,3,0,10,0,0
194816,-42.5531914893617,4,3,0,10,0,0
194825,-117.647058823529,4,3,0,10,0,0
194902,-42.5531914893617,4,3,0,10,0,0
194910,-117.647058823529,4,3,0,10,0,0
195065,-42.5531914893617,4,3,0,10,0,0
195082,-117.647058823529,4,3,0,10,0,0
195159,-42.5531914893617,4,3,0,10,0,0
195168,-117.647058823529,4,3,0,10,0,0
195245,-42.5531914893617,4,3,0,10,0,0
195253,-117.647058823529,4,3,0,10,0,0
195408,-42.5531914893617,4,3,0,10,0,0
195425,-117.647058823529,4,3,0,10,0,0
195579,-42.5531914893617,4,3,0,10,0,0
195596,-117.647058823529,4,3,0,10,0,0
195751,-42.5531914893617,4,3,0,10,0,0
195768,-117.647058823529,4,3,0,10,0,0
195922,-42.5531914893617,4,3,0,10,0,0
195939,-117.647058823529,4,3,0,10,0,0
196093,-42.5531914893617,4,3,0,10,0,0
196110,-117.647058823529,4,3,0,10,0,0
196187,-42.5531914893617,4,3,0,10,0,0
196196,-117.647058823529,4,3,0,10,0,0
196273,-42.5531914893617,4,3,0,10,0,0
196282,-117.647058823529,4,3,0,10,0,0
196436,-42.5531914893617,4,3,0,10,0,0
196453,-117.647058823529,4,3,0,10,0,0
196530,-42.5531914893617,4,3,0,10,0,0
196539,-117.647058823529,4,3,0,10,0,0
196616,-42.5531914893617,4,3,0,10,0,0
196625,-117.647058823529,4,3,0,10,0,0
196702,-42.5531914893617,4,3,0,10,0,0
196710,-117.647058823529,4,3,0,10,0,0
196787,-42.5531914893617,4,3,0,10,0,0
196796,-117.647058823529,4,3,0,10,0,0
196873,-42.5531914893617,4,3,0,10,0,0
196882,-117.647058823529,4,3,0,10,0,0
196959,-42.5531914893617,4,3,0,10,0,0
196968,-117.647058823529,4,3,0,10,0,0
197122,-42.5531914893617,4,3,0,10,0,0
197139,-117.647058823529,4,3,0,10,0,0
197216,-42.5531914893617,4,3,0,10,0,0
197225,-117.647058823529,4,3,0,10,0,0
197302,-42.5531914893617,4,3,0,10,0,0
197310,-117.647058823529,4,3,0,10,0,0
197387,-42.5531914893617,4,3,0,10,0,0
197396,-117.647058823529,4,3,0,10,0,0
197473,-42.5531914893617,4,3,0,10,0,0
197482,-117.647058823529,4,3,0,10,0,0
197521,-42.5531914893617,4,3,0,10,0,0
197525,-117.647058823529,4,3,0,10,0,0
197564,-42.5531914893617,4,3,0,10,0,0
197568,-117.647058823529,4,3,0,10,0,0
197606,-42.5531914893617,4,3,0,10,0,0
197610,-117.647058823529,4,3,0,10,0,0
197649,-42.5531914893617,4,3,0,10,0,0
197653,-117.647058823529,4,3,0,10,0,0
197808,-42.5531914893617,4,3,0,10,0,0
197825,-117.647058823529,4,3,0,10,0,0
197902,-42.5531914893617,4,3,0,10,0,0
197910,-117.647058823529,4,3,0,10,0,0
197987,-42.5531914893617,4,3,0,10,0,0
197996,-117.647058823529,4,3,0,10,0,0
198073,-42.5531914893617,4,3,0,10,0,0
198082,-117.647058823529,4,3,0,10,0,0
198159,-42.5531914893617,4,3,0,10,0,0
198168,-117.647058823529,4,3,0,10,0,0
198245,-42.5531914893617,4,3,0,10,0,0
198253,-117.647058823529,4,3,0,10,0,0
198330,-42.5531914893617,4,3,0,10,0,0
198339,-117.647058823529,4,3,0,10,0,0
198493,-42.5531914893617,4,3,0,10,0,0
198510,-117.647058823529,4,3,0,10,0,0
198587,-42.5531914893617,4,3,0,10,0,0
198596,-117.647058823529,4,3,0,10,0,0
198673,-42.5531914893617,4,3,0,10,0,0
198682,-117.647058823529,4,3,0,10,0,0
198836,-42.5531914893617,4,3,0,10,0,0
198853,-117.647058823529,4,3,0,10,0,0
198930,-42.5531914893617,4,3,0,10,0,0
198939,-117.647058823529,4,3,0,10,0,0
199016,-42.5531914893617,4,3,0,10,0,0
199025,-117.647058823529,4,3,0,10,0,0
199179,-42.5531914893617,4,3,0,10,0,0
199196,-117.647058823529,4,3,0,10,0,0
199273,-42.5531914893617,4,3,0,10,0,0
199282,-117.647058823529,4,3,0,10,0,0
199359,-42.5531914893617,4,3,0,10,0,0
199368,-117.647058823529,4,3,0,10,0,0
199445,-42.5531914893617,4,3,0,10,0,0
199453,-117.647058823529,4,3,0,10,0,0
199530,-42.5531914893617,4,3,0,10,0,0
199539,-117.647058823529,4,3,0,10,0,0
199693,-42.5531914893617,4,3,0,10,0,0
199710,-117.647058823529,4,3,0,10,0,0
199865,-42.5531914893617,4,3,0,10,0,0
199882,-117.647058823529,4,3,0,10,0,0
199959,-42.5531914893617,4,3,0,10,0,0
199968,-117.647058823529,4,3,0,10,0,0
200045,-42.5531914893617,4,3,0,10,0,0
200053,-117.647058823529,4,3,0,10,0,0
200130,-42.5531914893617,4,3,0,10,0,0
200139,-117.647058823529,4,3,0,10,0,0
200216,-42.5531914893617,4,3,0,10,0,0
200225,-117.647058823529,4,3,0,10,0,0
200302,-42.5531914893617,4,3,0,10,0,0
200310,-117.647058823529,4,3,0,10,0,0
200387,-42.5531914893617,4,3,0,10,0,0
200396,-100,4,3,0,10,0,0
209996,-40,4,3,0,10,0,0
210022,-280,4,3,0,10,0,0
210082,-40,4,3,0,10,0,0
210108,-280,4,3,0,10,0,0
210168,-40,4,3,0,10,0,0
210194,-280,4,3,0,10,0,0
210253,-40,4,3,0,10,0,0
210279,-280,4,3,0,10,0,0
210339,-40,4,3,0,10,0,0
210365,-280,4,3,0,10,0,0
210425,-40,4,3,0,10,0,0
210451,-280,4,3,0,10,0,0
210510,-40,4,3,0,10,0,0
210536,-280,4,3,0,10,0,0
210596,-40,4,3,0,10,0,0
210622,-280,4,3,0,10,0,0
210682,-40,4,3,0,10,0,0
210708,-280,4,3,0,10,0,0
210768,-40,4,3,0,10,0,0
210794,-280,4,3,0,10,0,0
210853,-40,4,3,0,10,0,0
210879,-280,4,3,0,10,0,0
210939,-40,4,3,0,10,0,0
210965,-280,4,3,0,10,0,0
211025,-40,4,3,0,10,0,0
211038,-280,4,3,0,10,0,0
211068,-40,4,3,0,10,0,0
211081,-280,4,3,0,10,0,0
211110,-40,4,3,0,10,0,0
211123,-280,4,3,0,10,0,0
211153,-40,4,3,0,10,0,0
211166,-280,4,3,0,10,0,0
211196,-40,4,3,0,10,0,0
211209,-280,4,3,0,10,0,0
211239,-40,4,3,0,10,0,0
211252,-280,4,3,0,10,0,0
211282,-40,4,3,0,10,0,0
211295,-280,4,3,0,10,0,0
211325,-100,4,3,0,10,0,0
221996,-10,4,3,0,10,0,0
222039,-111.111111111111,4,3,0,10,0,0
222253,-50,4,3,0,10,0,0
222339,-100,4,3,0,10,0,0
224225,-28.5714285714286,4,3,0,10,0,0
224234,-266.666666666667,4,3,0,10,0,0
224268,-28.5714285714286,4,3,0,10,0,0
224276,-266.666666666667,4,3,0,10,0,0
224310,-28.5714285714286,4,3,0,10,0,0
224319,-266.666666666667,4,3,0,10,0,0
224353,-28.5714285714286,4,3,0,10,0,0
224362,-266.666666666667,4,3,0,10,0,0
224396,-28.5714285714286,4,3,0,10,0,0
224407,-266.666666666667,4,3,0,10,0,0
224453,-28.5714285714286,4,3,0,10,0,0
224464,-266.666666666667,4,3,0,10,0,0
224510,-28.5714285714286,4,3,0,10,0,0
224522,-266.666666666667,4,3,0,10,0,0
224568,-28.5714285714286,4,3,0,10,0,0
224585,-266.666666666667,4,3,0,10,0,0
224653,-28.5714285714286,4,3,0,10,0,0
224670,-266.666666666667,4,3,0,10,0,0
224739,-28.5714285714286,4,3,0,10,0,0
224756,-266.666666666667,4,3,0,10,0,0
224825,-28.5714285714286,4,3,0,10,0,0
224842,-266.666666666667,4,3,0,10,0,0
224910,-28.5714285714286,4,3,0,10,0,0
224916,-266.666666666667,4,3,0,10,0,0
224939,-28.5714285714286,4,3,0,10,0,0
224945,-266.666666666667,4,3,0,10,0,0
224968,-28.5714285714286,4,3,0,10,0,0
224974,-266.666666666667,4,3,0,10,0,0
224996,-28.5714285714286,4,3,0,10,0,0
225005,-266.666666666667,4,3,0,10,0,0
225039,-28.5714285714286,4,3,0,10,0,0
225048,-266.666666666667,4,3,0,10,0,0
225082,-100,4,3,0,10,0,0
232968,-10,4,3,0,10,0,0
233010,-111.111111111111,4,3,0,10,0,0
233225,-50,4,3,0,10,0,0
233310,-100,4,3,0,10,0,0
233310,-100,4,3,0,10,0,0
233995.75,-100.946372239748,4,3,0,10,0,0
234681.5,-101.910828025478,4,3,0,10,0,0
235367.25,-102.893890675241,4,3,0,10,0,0
236053,-103.896103896104,4,3,0,10,0,0
236738.75,-104.918032786885,4,3,0,10,0,0
237424.5,-105.960264900662,4,3,0,10,0,0
238110.25,-107.023411371237,4,3,0,10,0,0
238796,-108.108108108108,4,3,0,10,0,0
239481.75,-109.215017064846,4,3,0,10,0,0
240167.5,-110.344827586207,4,3,0,10,0,0
240853.25,-111.498257839721,4,3,0,10,0,0
241539,-112.676056338028,4,3,0,10,0,0
242224.75,-113.879003558719,4,3,0,10,0,0
242910.5,-115.107913669065,4,3,0,10,0,0
243596.25,-116.363636363636,4,3,0,10,0,0
244282,-117.647058823529,4,3,0,10,0,0
244379.964285714,-119.022316684378,4,3,0,10,0,0
244477.928571429,-120.430107526882,4,3,0,10,0,0
244575.892857143,-121.871599564744,4,3,0,10,0,0
244673.857142857,-123.348017621145,4,3,0,10,0,0
244771.821428571,-124.860646599777,4,3,0,10,0,0
244869.785714286,-126.410835214447,4,3,0,10,0,0
244967.75,-128,4,3,0,10,0,0
245065.714285714,-129.62962962963,4,3,0,10,0,0
245163.678571429,-131.301289566237,4,3,0,10,0,0
245261.642857143,-133.016627078385,4,3,0,10,0,0
245359.607142857,-134.777376654633,4,3,0,10,0,0
245457.571428571,-136.585365853659,4,3,0,10,0,0
245555.535714286,-138.442521631644,4,3,0,10,0,0
245653.5,-140.350877192982,4,3,0,10,0,0
245751.464285714,-142.312579415502,4,3,0,10,0,0
245849.428571429,-144.329896907216,4,3,0,10,0,0
245947.392857143,-146.40522875817,4,3,0,10,0,0
246045.357142857,-148.541114058355,4,3,0,10,0,0
246143.321428571,-150.740242261104,4,3,0,10,0,0
246241.285714286,-153.005464480874,4,3,0,10,0,0
246339.25,-155.339805825243,4,3,0,10,0,0
246437.214285714,-157.746478873239,4,3,0,10,0,0
246535.178571429,-160.228898426323,4,3,0,10,0,0
246633.142857143,-162.790697674419,4,3,0,10,0,0
246731.107142857,-165.435745937962,4,3,0,10,0,0
246829.071428571,-168.168168168168,4,3,0,10,0,0
246927.035714286,-170.992366412214,4,3,0,10,0,0
247025,-173.913043478261,4,3,0,10,0,0
247122.964285714,-176.935229067931,4,3,0,10,0,0
247220.928571429,-180.064308681672,4,3,0,10,0,0
247318.892857143,-183.306055646481,4,3,0,10,0,0
247416.857142857,-186.666666666667,4,3,0,10,0,0
247514.821428571,-190.152801358234,4,3,0,10,0,0
247612.785714286,-193.771626297578,4,3,0,10,0,0
247710.75,-197.530864197531,4,3,0,10,0,0
247808.714285714,-201.438848920863,4,3,0,10,0,0
247906.678571429,-205.504587155963,4,3,0,10,0,0
248004.642857143,-209.737827715356,4,3,0,10,0,0
248102.607142857,-214.14913957935,4,3,0,10,0,0
248200.571428571,-218.75,4,3,0,10,0,0
248298.535714286,-223.552894211577,4,3,0,10,0,0
248396.5,-228.571428571429,4,3,0,10,0,0
248494.464285714,-233.820459290188,4,3,0,10,0,0
248592.428571429,-239.316239316239,4,3,0,10,0,0
248690.392857143,-245.07658643326,4,3,0,10,0,0
248788.357142857,-251.121076233184,4,3,0,10,0,0
248886.321428571,-257.471264367816,4,3,0,10,0,0
248984.285714286,-264.150943396226,4,3,0,10,0,0
249082.25,-271.186440677966,4,3,0,10,0,0
249180.214285714,-278.606965174129,4,3,0,10,0,0
249278.178571429,-286.445012787724,4,3,0,10,0,0
249376.142857143,-294.736842105263,4,3,0,10,0,0
249474.107142857,-303.523035230352,4,3,0,10,0,0
249572.071428571,-312.849162011173,4,3,0,10,0,0
249670.035714286,-322.766570605187,4,3,0,10,0,0
249768,-333.333333333333,4,3,0,10,0,0
249900.709677419,-322.916666666667,4,3,0,10,0,0
250033.419354839,-313.131313131313,4,3,0,10,0,0
250166.129032258,-303.921568627451,4,3,0,10,0,0
250298.838709677,-295.238095238095,4,3,0,10,0,0
250431.548387097,-287.037037037037,4,3,0,10,0,0
250564.258064516,-279.279279279279,4,3,0,10,0,0
250696.967741935,-271.929824561404,4,3,0,10,0,0
250829.677419355,-264.957264957265,4,3,0,10,0,0
250962.387096774,-258.333333333333,4,3,0,10,0,0
251095.096774194,-252.032520325203,4,3,0,10,0,0
251227.806451613,-246.031746031746,4,3,0,10,0,0
251360.516129032,-240.31007751938,4,3,0,10,0,0
251493.225806452,-234.848484848485,4,3,0,10,0,0
251625.935483871,-229.62962962963,4,3,0,10,0,0
251758.64516129,-224.63768115942,4,3,0,10,0,0
251891.35483871,-219.858156028369,4,3,0,10,0,0
252024.064516129,-215.277777777778,4,3,0,10,0,0
252156.774193548,-210.884353741497,4,3,0,10,0,0
252289.483870968,-206.666666666667,4,3,0,10,0,0
252422.193548387,-202.614379084967,4,3,0,10,0,0
252554.903225806,-198.717948717949,4,3,0,10,0,0
252687.612903226,-194.968553459119,4,3,0,10,0,0
252820.322580645,-191.358024691358,4,3,0,10,0,0
252953.032258065,-187.878787878788,4,3,0,10,0,0
253085.741935484,-184.52380952381,4,3,0,10,0,0
253218.451612903,-181.286549707602,4,3,0,10,0,0
253351.161290323,-178.16091954023,4,3,0,10,0,0
253483.870967742,-175.141242937853,4,3,0,10,0,0
253616.580645161,-172.222222222222,4,3,0,10,0,0
253749.290322581,-169.398907103825,4,3,0,10,0,0
253882,-166.666666666667,4,3,0,10,0,0
253904.475409836,-163.978494623656,4,3,0,10,0,0
253926.950819672,-161.375661375661,4,3,0,10,0,0
253949.426229508,-158.854166666667,4,3,0,10,0,0
253971.901639344,-156.410256410256,4,3,0,10,0,0
253994.37704918,-154.040404040404,4,3,0,10,0,0
254016.852459016,-151.741293532338,4,3,0,10,0,0
254039.327868852,-149.509803921569,4,3,0,10,0,0
254061.803278689,-147.342995169082,4,3,0,10,0,0
254084.278688525,-145.238095238095,4,3,0,10,0,0
254106.754098361,-143.192488262911,4,3,0,10,0,0
254129.229508197,-141.203703703704,4,3,0,10,0,0
254151.704918033,-139.269406392694,4,3,0,10,0,0
254174.180327869,-137.387387387387,4,3,0,10,0,0
254196.655737705,-135.555555555556,4,3,0,10,0,0
254219.131147541,-133.771929824561,4,3,0,10,0,0
254241.606557377,-132.034632034632,4,3,0,10,0,0
254264.081967213,-130.34188034188,4,3,0,10,0,0
254286.557377049,-128.691983122363,4,3,0,10,0,0
254309.032786885,-127.083333333333,4,3,0,10,0,0
254331.508196721,-125.514403292181,4,3,0,10,0,0
254353.983606557,-123.983739837398,4,3,0,10,0,0
254376.459016393,-122.489959839357,4,3,0,10,0,0
254398.93442623,-121.031746031746,4,3,0,10,0,0
254421.409836066,-119.607843137255,4,3,0,10,0,0
254443.885245902,-118.217054263566,4,3,0,10,0,0
254466.360655738,-116.858237547893,4,3,0,10,0,0
254488.836065574,-115.530303030303,4,3,0,10,0,0
254511.31147541,-114.232209737828,4,3,0,10,0,0
254533.786885246,-112.962962962963,4,3,0,10,0,0
254556.262295082,-111.721611721612,4,3,0,10,0,0
254578.737704918,-110.507246376812,4,3,0,10,0,0
254601.213114754,-109.318996415771,4,3,0,10,0,0
254623.68852459,-108.156028368794,4,3,0,10,0,0
254646.163934426,-107.017543859649,4,3,0,10,0,0
254668.639344262,-105.902777777778,4,3,0,10,0,0
254691.114754098,-104.810996563574,4,3,0,10,0,0
254713.590163934,-103.741496598639,4,3,0,10,0,0
254736.06557377,-102.693602693603,4,3,0,10,0,0
254758.540983607,-101.666666666667,4,3,0,10,0,0
254781.016393443,-100.660066006601,4,3,0,10,0,0
254803.491803279,-99.6732026143791,4,3,0,10,0,0
254825.967213115,-98.705501618123,4,3,0,10,0,0
254848.442622951,-97.7564102564103,4,3,0,10,0,0
254870.918032787,-96.8253968253968,4,3,0,10,0,0
254893.393442623,-95.9119496855346,4,3,0,10,0,0
254915.868852459,-95.0155763239875,4,3,0,10,0,0
254938.344262295,-94.1358024691358,4,3,0,10,0,0
254960.819672131,-93.2721712538226,4,3,0,10,0,0
254983.295081967,-92.4242424242424,4,3,0,10,0,0
255005.770491803,-91.5915915915916,4,3,0,10,0,0
255028.245901639,-90.7738095238095,4,3,0,10,0,0
255050.721311475,-89.9705014749263,4,3,0,10,0,0
255073.196721311,-89.1812865497076,4,3,0,10,0,0
255095.672131148,-88.4057971014493,4,3,0,10,0,0
255118.147540984,-87.6436781609195,4,3,0,10,0,0
255140.62295082,-86.8945868945869,4,3,0,10,0,0
255163.098360656,-86.1581920903955,4,3,0,10,0,0
255185.573770492,-85.4341736694678,4,3,0,10,0,0
255208.049180328,-84.7222222222222,4,3,0,10,0,0
255230.524590164,-84.0220385674931,4,3,0,10,0,0
255253,-10,4,3,0,10,0,0
255296,-166.666666666667,4,3,0,10,0,0
265539,-125,4,3,0,10,0,0
274453,-117.647058823529,4,3,0,10,0,0
275310,-111.111111111111,4,3,0,10,0,0
275825,-111.111111111111,4,3,0,10,0,0
275851.882352941,-109.913793103448,4,3,0,10,0,0
275878.764705882,-108.742004264392,4,3,0,10,0,0
275905.647058824,-107.594936708861,4,3,0,10,0,0
275932.529411765,-106.471816283925,4,3,0,10,0,0
275959.411764706,-105.371900826446,4,3,0,10,0,0
275986.294117647,-104.294478527607,4,3,0,10,0,0
276013.176470588,-103.238866396761,4,3,0,10,0,0
276040.058823529,-102.204408817635,4,3,0,10,0,0
276066.941176471,-101.190476190476,4,3,0,10,0,0
276093.823529412,-100.196463654224,4,3,0,10,0,0
276120.705882353,-99.2217898832685,4,3,0,10,0,0
276147.588235294,-98.2658959537572,4,3,0,10,0,0
276174.470588235,-97.3282442748092,4,3,0,10,0,0
276201.352941176,-96.4083175803403,4,3,0,10,0,0
276228.235294118,-95.5056179775281,4,3,0,10,0,0
276255.117647059,-94.6196660482375,4,3,0,10,0,0
276282,-93.75,4,3,0,10,0,0
276308.882352941,-92.896174863388,4,3,0,10,0,0
276335.764705882,-92.057761732852,4,3,0,10,0,0
276362.647058824,-91.2343470483005,4,3,0,10,0,0
276389.529411765,-90.4255319148936,4,3,0,10,0,0
276416.411764706,-89.6309314586995,4,3,0,10,0,0
276443.294117647,-88.8501742160279,4,3,0,10,0,0
276470.176470588,-88.0829015544041,4,3,0,10,0,0
276497.058823529,-87.3287671232877,4,3,0,10,0,0
276523.941176471,-86.5874363327674,4,3,0,10,0,0
276550.823529412,-85.8585858585859,4,3,0,10,0,0
276577.705882353,-85.1419031719533,4,3,0,10,0,0
276604.588235294,-84.4370860927152,4,3,0,10,0,0
276631.470588235,-83.743842364532,4,3,0,10,0,0
276658.352941176,-83.0618892508143,4,3,0,10,0,0
276685.235294118,-82.3909531502423,4,3,0,10,0,0
276712.117647059,-81.7307692307692,4,3,0,10,0,0
276739,-81.0810810810811,4,3,0,10,0,0
276765.882352941,-80.4416403785489,4,3,0,10,0,0
276792.764705882,-79.81220657277,4,3,0,10,0,0
276819.647058824,-79.1925465838509,4,3,0,10,0,0
276846.529411765,-78.5824345146379,4,3,0,10,0,0
276873.411764706,-77.9816513761468,4,3,0,10,0,0
276900.294117647,-77.3899848254932,4,3,0,10,0,0
276927.176470588,-76.8072289156627,4,3,0,10,0,0
276954.058823529,-76.2331838565022,4,3,0,10,0,0
276980.941176471,-75.6676557863502,4,3,0,10,0,0
277007.823529412,-75.1104565537555,4,3,0,10,0,0
277034.705882353,-74.5614035087719,4,3,0,10,0,0
277061.588235294,-74.0203193033382,4,3,0,10,0,0
277088.470588235,-73.4870317002882,4,3,0,10,0,0
277115.352941176,-72.9613733905579,4,3,0,10,0,0
277142.235294118,-72.4431818181818,4,3,0,10,0,0
277169.117647059,-71.9322990126939,4,3,0,10,0,0
277196,-100,4,3,0,10,0,0
287825,-28.5714285714286,4,3,0,10,0,0
287846,-600,4,3,0,10,0,0
287910,-28.5714285714286,4,3,0,10,0,0
287932,-600,4,3,0,10,0,0
287996,-28.5714285714286,4,3,0,10,0,0
288018,-600,4,3,0,10,0,0
288082,-28.5714285714286,4,3,0,10,0,0
288104,-600,4,3,0,10,0,0
288168,-28.5714285714286,4,3,0,10,0,0
288189,-600,4,3,0,10,0,0
288253,-28.5714285714286,4,3,0,10,0,0
288275,-600,4,3,0,10,0,0
288339,-28.5714285714286,4,3,0,10,0,0
288361,-600,4,3,0,10,0,0
288425,-28.5714285714286,4,3,0,10,0,0
288446,-600,4,3,0,10,0,0
288510,-28.5714285714286,4,3,0,10,0,0
288532,-600,4,3,0,10,0,0
288596,-28.5714285714286,4,3,0,10,0,0
288618,-600,4,3,0,10,0,0
288682,-28.5714285714286,4,3,0,10,0,0
288704,-600,4,3,0,10,0,0
288768,-28.5714285714286,4,3,0,10,0,0
288789,-600,4,3,0,10,0,0
288853,-28.5714285714286,4,3,0,10,0,0
288875,-600,4,3,0,10,0,0
288939,-28.5714285714286,4,3,0,10,0,0
288961,-600,4,3,0,10,0,0
289025,-28.5714285714286,4,3,0,10,0,0
289046,-600,4,3,0,10,0,0
289110,-28.5714285714286,4,3,0,10,0,0
289132,-600,4,3,0,10,0,0
289196,-28.5714285714286,4,3,0,10,0,0
289218,-600,4,3,0,10,0,0
289282,-28.5714285714286,4,3,0,10,0,0
289304,-600,4,3,0,10,0,0
289368,-28.5714285714286,4,3,0,10,0,0
289389,-600,4,3,0,10,0,0
289453,-28.5714285714286,4,3,0,10,0,0
289475,-600,4,3,0,10,0,0
289539,-28.5714285714286,4,3,0,10,0,0
289561,-600,4,3,0,10,0,0
289625,-28.5714285714286,4,3,0,10,0,0
289646,-600,4,3,0,10,0,0
289710,-28.5714285714286,4,3,0,10,0,0
289732,-600,4,3,0,10,0,0
289796,-28.5714285714286,4,3,0,10,0,0
289818,-600,4,3,0,10,0,0
289882,-28.5714285714286,4,3,0,10,0,0
289904,-600,4,3,0,10,0,0
289968,-28.5714285714286,4,3,0,10,0,0
289989,-600,4,3,0,10,0,0
290053,-28.5714285714286,4,3,0,10,0,0
290075,-600,4,3,0,10,0,0
290139,-28.5714285714286,4,3,0,10,0,0
290161,-600,4,3,0,10,0,0
290225,-28.5714285714286,4,3,0,10,0,0
290246,-600,4,3,0,10,0,0
290310,-28.5714285714286,4,3,0,10,0,0
290332,-600,4,3,0,10,0,0
290396,-28.5714285714286,4,3,0,10,0,0
290418,-600,4,3,0,10,0,0
290482,-28.5714285714286,4,3,0,10,0,0
290504,-600,4,3,0,10,0,0
290568,-28.5714285714286,4,3,0,10,0,0
290589,-600,4,3,0,10,0,0
290653,-28.5714285714286,4,3,0,10,0,0
290675,-600,4,3,0,10,0,0
290739,-28.5714285714286,4,3,0,10,0,0
290761,-600,4,3,0,10,0,0
290825,-28.5714285714286,4,3,0,10,0,0
290846,-600,4,3,0,10,0,0
290910,-28.5714285714286,4,3,0,10,0,0
290932,-600,4,3,0,10,0,0
290996,-28.5714285714286,4,3,0,10,0,0
291018,-600,4,3,0,10,0,0
291082,-28.5714285714286,4,3,0,10,0,0
291104,-600,4,3,0,10,0,0
291168,-28.5714285714286,4,3,0,10,0,0
291189,-600,4,3,0,10,0,0
291253,-28.5714285714286,4,3,0,10,0,0
291275,-600,4,3,0,10,0,0
291339,-28.5714285714286,4,3,0,10,0,0
291361,-600,4,3,0,10,0,0
291425,-28.5714285714286,4,3,0,10,0,0
291446,-600,4,3,0,10,0,0
291510,-28.5714285714286,4,3,0,10,0,0
291532,-600,4,3,0,10,0,0
291596,-28.5714285714286,4,3,0,10,0,0
291618,-600,4,3,0,10,0,0
291682,-28.5714285714286,4,3,0,10,0,0
291704,-600,4,3,0,10,0,0
291768,-28.5714285714286,4,3,0,10,0,0
291789,-600,4,3,0,10,0,0
291853,-28.5714285714286,4,3,0,10,0,0
291875,-600,4,3,0,10,0,0
291939,-28.5714285714286,4,3,0,10,0,0
291961,-600,4,3,0,10,0,0
292025,-28.5714285714286,4,3,0,10,0,0
292046,-600,4,3,0,10,0,0
292110,-28.5714285714286,4,3,0,10,0,0
292132,-600,4,3,0,10,0,0
292196,-28.5714285714286,4,3,0,10,0,0
292218,-600,4,3,0,10,0,0
292282,-28.5714285714286,4,3,0,10,0,0
292304,-600,4,3,0,10,0,0
292368,-28.5714285714286,4,3,0,10,0,0
292389,-600,4,3,0,10,0,0
292453,-28.5714285714286,4,3,0,10,0,0
292475,-600,4,3,0,10,0,0
292539,-28.5714285714286,4,3,0,10,0,0
292561,-600,4,3,0,10,0,0
292625,-28.5714285714286,4,3,0,10,0,0
292646,-600,4,3,0,10,0,0
292710,-28.5714285714286,4,3,0,10,0,0
292732,-600,4,3,0,10,0,0
292796,-28.5714285714286,4,3,0,10,0,0
292818,-600,4,3,0,10,0,0
292882,-28.5714285714286,4,3,0,10,0,0
292904,-600,4,3,0,10,0,0
292968,-28.5714285714286,4,3,0,10,0,0
292989,-600,4,3,0,10,0,0
293053,-28.5714285714286,4,3,0,10,0,0
293075,-600,4,3,0,10,0,0
293139,-28.5714285714286,4,3,0,10,0,0
293161,-600,4,3,0,10,0,0
293225,-28.5714285714286,4,3,0,10,0,0
293246,-600,4,3,0,10,0,0
293310,-28.5714285714286,4,3,0,10,0,0
293332,-600,4,3,0,10,0,0
293396,-28.5714285714286,4,3,0,10,0,0
293418,-600,4,3,0,10,0,0
293482,-28.5714285714286,4,3,0,10,0,0
293504,-600,4,3,0,10,0,0
293568,-28.5714285714286,4,3,0,10,0,0
293589,-600,4,3,0,10,0,0
293653,-28.5714285714286,4,3,0,10,0,0
293667,-600,4,3,0,10,0,0
293710,-28.5714285714286,4,3,0,10,0,0
293725,-600,4,3,0,10,0,0
293768,-28.5714285714286,4,3,0,10,0,0
293782,-600,4,3,0,10,0,0
293825,-28.5714285714286,4,3,0,10,0,0
293839,-600,4,3,0,10,0,0
293882,-28.5714285714286,4,3,0,10,0,0
293896,-600,4,3,0,10,0,0
293939,-28.5714285714286,4,3,0,10,0,0
293953,-600,4,3,0,10,0,0
293996,-28.5714285714286,4,3,0,10,0,0
294007,-600,4,3,0,10,0,0
294039,-28.5714285714286,4,3,0,10,0,0
294050,-600,4,3,0,10,0,0
294082,-28.5714285714286,4,3,0,10,0,0
294093,-600,4,3,0,10,0,0
294125,-28.5714285714286,4,3,0,10,0,0
294136,-600,4,3,0,10,0,0
294168,-28.5714285714286,4,3,0,10,0,0
294179,-600,4,3,0,10,0,0
294210,-28.5714285714286,4,3,0,10,0,0
294221,-600,4,3,0,10,0,0
294253,-28.5714285714286,4,3,0,10,0,0
294264,-600,4,3,0,10,0,0
294296,-28.5714285714286,4,3,0,10,0,0
294307,-600,4,3,0,10,0,0
294339,-28.5714285714286,4,3,0,10,0,0
294350,-600,4,3,0,10,0,0
294382,-28.5714285714286,4,3,0,10,0,0
294393,-600,4,3,0,10,0,0
294425,-28.5714285714286,4,3,0,10,0,0
294436,-600,4,3,0,10,0,0
294468,-28.5714285714286,4,3,0,10,0,0
294479,-600,4,3,0,10,0,0
294510,-28.5714285714286,4,3,0,10,0,0
294521,-600,4,3,0,10,0,0
294553,-28.5714285714286,4,3,0,10,0,0
294564,-600,4,3,0,10,0,0
294596,-28.5714285714286,4,3,0,10,0,0
294607,-600,4,3,0,10,0,0
294639,-28.5714285714286,4,3,0,10,0,0
294650,-600,4,3,0,10,0,0
294682,-28.5714285714286,4,3,0,10,0,0
294693,-600,4,3,0,10,0,0
294725,-28.5714285714286,4,3,0,10,0,0
294736,-600,4,3,0,10,0,0
294768,-28.5714285714286,4,3,0,10,0,0
294779,-600,4,3,0,10,0,0
294810,-28.5714285714286,4,3,0,10,0,0
294821,-600,4,3,0,10,0,0
294853,-28.5714285714286,4,3,0,10,0,0
294864,-600,4,3,0,10,0,0
294896,-28.5714285714286,4,3,0,10,0,0
294907,-600,4,3,0,10,0,0
294939,-28.5714285714286,4,3,0,10,0,0
294950,-600,4,3,0,10,0,0
294982,-28.5714285714286,4,3,0,10,0,0
294993,-600,4,3,0,10,0,0
295025,-28.5714285714286,4,3,0,10,0,0
295036,-600,4,3,0,10,0,0
295068,-28.5714285714286,4,3,0,10,0,0
295079,-600,4,3,0,10,0,0
295110,-28.5714285714286,4,3,0,10,0,0
295121,-600,4,3,0,10,0,0
295153,-28.5714285714286,4,3,0,10,0,0
295164,-600,4,3,0,10,0,0
295196,-28.5714285714286,4,3,0,10,0,0
295207,-600,4,3,0,10,0,0
295239,-28.5714285714286,4,3,0,10,0,0
295250,-600,4,3,0,10,0,0
295282,-28.5714285714286,4,3,0,10,0,0
295293,-600,4,3,0,10,0,0
295325,-28.5714285714286,4,3,0,10,0,0
295336,-600,4,3,0,10,0,0
295368,-28.5714285714286,4,3,0,10,0,0
295379,-600,4,3,0,10,0,0
295410,-28.5714285714286,4,3,0,10,0,0
295421,-600,4,3,0,10,0,0
295453,-28.5714285714286,4,3,0,10,0,0
295464,-600,4,3,0,10,0,0
295496,-28.5714285714286,4,3,0,10,0,0
295507,-600,4,3,0,10,0,0
295539,-28.5714285714286,4,3,0,10,0,0
295550,-600,4,3,0,10,0,0
295582,-28.5714285714286,4,3,0,10,0,0
295593,-600,4,3,0,10,0,0
295625,-28.5714285714286,4,3,0,10,0,0
295636,-600,4,3,0,10,0,0
295668,-28.5714285714286,4,3,0,10,0,0
295679,-600,4,3,0,10,0,0
295710,-28.5714285714286,4,3,0,10,0,0
295721,-600,4,3,0,10,0,0
295753,-28.5714285714286,4,3,0,10,0,0
295764,-600,4,3,0,10,0,0
295796,-28.5714285714286,4,3,0,10,0,0
295807,-600,4,3,0,10,0,0
295839,-28.5714285714286,4,3,0,10,0,0
295850,-600,4,3,0,10,0,0
295882,-28.5714285714286,4,3,0,10,0,0
295893,-600,4,3,0,10,0,0
295925,-28.5714285714286,4,3,0,10,0,0
295936,-600,4,3,0,10,0,0
295968,-28.5714285714286,4,3,0,10,0,0
295979,-600,4,3,0,10,0,0
296010,-28.5714285714286,4,3,0,10,0,0
296021,-600,4,3,0,10,0,0
296053,-28.5714285714286,4,3,0,10,0,0
296064,-600,4,3,0,10,0,0
296096,-28.5714285714286,4,3,0,10,0,0
296107,-600,4,3,0,10,0,0
296139,-28.5714285714286,4,3,0,10,0,0
296150,-600,4,3,0,10,0,0
296182,-28.5714285714286,4,3,0,10,0,0
296193,-600,4,3,0,10,0,0
296225,-28.5714285714286,4,3,0,10,0,0
296236,-600,4,3,0,10,0,0
296268,-28.5714285714286,4,3,0,10,0,0
296279,-600,4,3,0,10,0,0
296310,-28.5714285714286,4,3,0,10,0,0
296321,-600,4,3,0,10,0,0
296353,-28.5714285714286,4,3,0,10,0,0
296364,-600,4,3,0,10,0,0
296396,-28.5714285714286,4,3,0,10,0,0
296418,-600,4,3,0,10,0,0
296482,-28.5714285714286,4,3,0,10,0,0
296504,-600,4,3,0,10,0,0
296568,-28.5714285714286,4,3,0,10,0,0
296589,-600,4,3,0,10,0,0
296653,-28.5714285714286,4,3,0,10,0,0
296675,-600,4,3,0,10,0,0
296739,-28.5714285714286,4,3,0,10,0,0
296761,-600,4,3,0,10,0,0
296825,-28.5714285714286,4,3,0,10,0,0
296846,-600,4,3,0,10,0,0
296910,-28.5714285714286,4,3,0,10,0,0
296932,-600,4,3,0,10,0,0
296996,-28.5714285714286,4,3,0,10,0,0
297018,-600,4,3,0,10,0,0
297082,-28.5714285714286,4,3,0,10,0,0
297104,-600,4,3,0,10,0,0
297168,-28.5714285714286,4,3,0,10,0,0
297189,-600,4,3,0,10,0,0
297253,-28.5714285714286,4,3,0,10,0,0
297259,-600,4,3,0,10,0,0
297275,-28.5714285714286,4,3,0,10,0,0
297280,-600,4,3,0,10,0,0
297296,-28.5714285714286,4,3,0,10,0,0
297302,-600,4,3,0,10,0,0
297318,-28.5714285714286,4,3,0,10,0,0
297323,-600,4,3,0,10,0,0
297339,-28.5714285714286,4,3,0,10,0,0
297344,-600,4,3,0,10,0,0
297360,-28.5714285714286,4,3,0,10,0,0
297366,-600,4,3,0,10,0,0
297382,-28.5714285714286,4,3,0,10,0,0
297386,-600,4,3,0,10,0,0
297396,-28.5714285714286,4,3,0,10,0,0
297403,-600,4,3,0,10,0,0
297425,-28.5714285714286,4,3,0,10,0,0
297446,-600,4,3,0,10,0,0
297510,-28.5714285714286,4,3,0,10,0,0
297532,-600,4,3,0,10,0,0
297596,-28.5714285714286,4,3,0,10,0,0
297618,-600,4,3,0,10,0,0
297682,-28.5714285714286,4,3,0,10,0,0
297704,-600,4,3,0,10,0,0
297768,-100,4,3,0,10,0,0
299139,-50,4,3,0,20,0,0
299182,-100,4,3,0,20,0,0
299825,-50,4,3,0,20,0,0
299868,-100,4,3,0,20,0,0
300510,-50,4,3,0,20,0,0
300553,-100,4,3,0,20,0,0
301196,-50,4,3,0,20,0,0
301239,-100,4,3,0,20,0,0
301882,-50,4,3,0,20,0,0
301925,-100,4,3,0,20,0,0
302568,-50,4,3,0,20,0,0
302611,-100,4,3,0,20,0,0
304625,-50,4,3,0,20,0,0
304668,-100,4,3,0,20,0,0
305310,-50,4,3,0,20,0,0
305353,-100,4,3,0,20,0,0
305996,-50,4,3,0,20,0,0
306039,-100,4,3,0,20,0,0
306682,-50,4,3,0,20,0,0
306725,-100,4,3,0,20,0,0
307368,-50,4,3,0,20,0,0
307411,-100,4,3,0,20,0,0
308053,-50,4,3,0,20,0,0
308096,-100,4,3,0,20,0,0
319710,-28.5714285714286,4,3,0,10,0,0
319721,-600,4,3,0,10,0,0
319753,-28.5714285714286,4,3,0,10,0,0
319764,-600,4,3,0,10,0,0
319796,-28.5714285714286,4,3,0,10,0,0
319807,-600,4,3,0,10,0,0
319839,-28.5714285714286,4,3,0,10,0,0
319850,-600,4,3,0,10,0,0
319882,-28.5714285714286,4,3,0,10,0,0
319893,-600,4,3,0,10,0,0
319925,-28.5714285714286,4,3,0,10,0,0
319936,-600,4,3,0,10,0,0
319968,-28.5714285714286,4,3,0,10,0,0
319979,-600,4,3,0,10,0,0
320010,-28.5714285714286,4,3,0,10,0,0
320021,-600,4,3,0,10,0,0
320053,-28.5714285714286,4,3,0,10,0,0
320064,-600,4,3,0,10,0,0
320096,-28.5714285714286,4,3,0,10,0,0
320107,-600,4,3,0,10,0,0
320139,-28.5714285714286,4,3,0,10,0,0
320150,-600,4,3,0,10,0,0
320182,-28.5714285714286,4,3,0,10,0,0
320193,-600,4,3,0,10,0,0
320225,-28.5714285714286,4,3,0,10,0,0
320239,-600,4,3,0,10,0,0
320282,-28.5714285714286,4,3,0,10,0,0
320296,-600,4,3,0,10,0,0
320339,-28.5714285714286,4,3,0,10,0,0
320353,-600,4,3,0,10,0,0
320396,-28.5714285714286,4,3,0,10,0,0
320407,-600,4,3,0,10,0,0
320439,-28.5714285714286,4,3,0,10,0,0
320450,-600,4,3,0,10,0,0
320482,-28.5714285714286,4,3,0,10,0,0
320493,-600,4,3,0,10,0,0
320525,-28.5714285714286,4,3,0,10,0,0
320536,-600,4,3,0,10,0,0
320568,-28.5714285714286,4,3,0,10,0,0
320582,-600,4,3,0,10,0,0
320625,-28.5714285714286,4,3,0,10,0,0
320639,-600,4,3,0,10,0,0
320682,-28.5714285714286,4,3,0,10,0,0
320696,-600,4,3,0,10,0,0
320739,-28.5714285714286,4,3,0,10,0,0
320782,-600,4,3,0,10,0,0
320910,-28.5714285714286,4,3,0,10,0,0
320953,-600,4,3,0,10,0,0
321082,-100,4,3,0,10,0,0
338910,-28.5714285714286,4,3,0,10,0,0
338932,-600,4,3,0,10,0,0
338996,-28.5714285714286,4,3,0,10,0,0
339018,-600,4,3,0,10,0,0
339082,-28.5714285714286,4,3,0,10,0,0
339104,-600,4,3,0,10,0,0
339168,-28.5714285714286,4,3,0,10,0,0
339189,-600,4,3,0,10,0,0
339253,-28.5714285714286,4,3,0,10,0,0
339275,-600,4,3,0,10,0,0
339339,-28.5714285714286,4,3,0,10,0,0
339361,-600,4,3,0,10,0,0
339425,-28.5714285714286,4,3,0,10,0,0
339446,-600,4,3,0,10,0,0
339510,-28.5714285714286,4,3,0,10,0,0
339532,-600,4,3,0,10,0,0
339596,-28.5714285714286,4,3,0,10,0,0
339607,-600,4,3,0,10,0,0
339639,-28.5714285714286,4,3,0,10,0,0
339650,-600,4,3,0,10,0,0
339682,-28.5714285714286,4,3,0,10,0,0
339693,-600,4,3,0,10,0,0
339725,-28.5714285714286,4,3,0,10,0,0
339736,-600,4,3,0,10,0,0
339768,-28.5714285714286,4,3,0,10,0,0
339779,-600,4,3,0,10,0,0
339810,-28.5714285714286,4,3,0,10,0,0
339821,-600,4,3,0,10,0,0
339853,-28.5714285714286,4,3,0,10,0,0
339864,-600,4,3,0,10,0,0
339896,-28.5714285714286,4,3,0,10,0,0
339907,-600,4,3,0,10,0,0
339939,-28.5714285714286,4,3,0,10,0,0
339950,-600,4,3,0,10,0,0
339982,-28.5714285714286,4,3,0,10,0,0
339993,-600,4,3,0,10,0,0
340025,-28.5714285714286,4,3,0,10,0,0
340036,-600,4,3,0,10,0,0
340068,-28.5714285714286,4,3,0,10,0,0
340079,-600,4,3,0,10,0,0
340110,-28.5714285714286,4,3,0,10,0,0
340121,-600,4,3,0,10,0,0
340153,-28.5714285714286,4,3,0,10,0,0
340164,-600,4,3,0,10,0,0
340196,-28.5714285714286,4,3,0,10,0,0
340207,-600,4,3,0,10,0,0
340239,-28.5714285714286,4,3,0,10,0,0
340250,-600,4,3,0,10,0,0
340282,-52.6315789473684,4,3,0,10,0,0
340325,-999.999999999999,4,3,0,10,0,0
340368,-52.6315789473684,4,3,0,10,0,0
340411,-999.999999999999,4,3,0,10,0,0
340453,-52.6315789473684,4,3,0,10,0,0
340496,-999.999999999999,4,3,0,10,0,0
340539,-52.6315789473684,4,3,0,10,0,0
340582,-999.999999999999,4,3,0,10,0,0
340625,-52.6315789473684,4,3,0,10,0,0
340668,-999.999999999999,4,3,0,10,0,0
340710,-52.6315789473684,4,3,0,10,0,0
340753,-999.999999999999,4,3,0,10,0,0
340796,-52.6315789473684,4,3,0,10,0,0
340839,-999.999999999999,4,3,0,10,0,0
340882,-52.6315789473684,4,3,0,10,0,0
340925,-999.999999999999,4,3,0,10,0,0
340968,-52.6315789473684,4,3,0,10,0,0
341011,-999.999999999999,4,3,0,10,0,0
341053,-52.6315789473684,4,3,0,10,0,0
341096,-999.999999999999,4,3,0,10,0,0
341139,-52.6315789473684,4,3,0,10,0,0
341182,-999.999999999999,4,3,0,10,0,0
341225,-52.6315789473684,4,3,0,10,0,0
341268,-999.999999999999,4,3,0,10,0,0
341310,-52.6315789473684,4,3,0,10,0,0
341353,-999.999999999999,4,3,0,10,0,0
341396,-52.6315789473684,4,3,0,10,0,0
341439,-999.999999999999,4,3,0,10,0,0
341482,-52.6315789473684,4,3,0,10,0,0
341525,-999.999999999999,4,3,0,10,0,0
341568,-52.6315789473684,4,3,0,10,0,0
341611,-999.999999999999,4,3,0,10,0,0
341653,-52.6315789473684,4,3,0,10,0,0
341675,-999.999999999999,4,3,0,10,0,0
341696,-52.6315789473684,4,3,0,10,0,0
341718,-999.999999999999,4,3,0,10,0,0
341739,-52.6315789473684,4,3,0,10,0,0
341761,-999.999999999999,4,3,0,10,0,0
341782,-52.6315789473684,4,3,0,10,0,0
341804,-999.999999999999,4,3,0,10,0,0
341825,-52.6315789473684,4,3,0,10,0,0
341847,-999.999999999999,4,3,0,10,0,0
341868,-52.6315789473684,4,3,0,10,0,0
341889,-999.999999999999,4,3,0,10,0,0
341910,-52.6315789473684,4,3,0,10,0,0
341932,-999.999999999999,4,3,0,10,0,0
341953,-52.6315789473684,4,3,0,10,0,0
341975,-999.999999999999,4,3,0,10,0,0
341996,-52.6315789473684,4,3,0,10,0,0
342018,-999.999999999999,4,3,0,10,0,0
342039,-52.6315789473684,4,3,0,10,0,0
342061,-999.999999999999,4,3,0,10,0,0
342082,-52.6315789473684,4,3,0,10,0,0
342104,-999.999999999999,4,3,0,10,0,0
342125,-52.6315789473684,4,3,0,10,0,0
342147,-999.999999999999,4,3,0,10,0,0
342168,-52.6315789473684,4,3,0,10,0,0
342189,-999.999999999999,4,3,0,10,0,0
342210,-52.6315789473684,4,3,0,10,0,0
342232,-999.999999999999,4,3,0,10,0,0
342253,-52.6315789473684,4,3,0,10,0,0
342275,-999.999999999999,4,3,0,10,0,0
342296,-52.6315789473684,4,3,0,10,0,0
342318,-999.999999999999,4,3,0,10,0,0
342339,-52.6315789473684,4,3,0,10,0,0
342361,-999.999999999999,4,3,0,10,0,0
342382,-52.6315789473684,4,3,0,10,0,0
342404,-999.999999999999,4,3,0,10,0,0
342425,-52.6315789473684,4,3,0,10,0,0
342447,-999.999999999999,4,3,0,10,0,0
342468,-52.6315789473684,4,3,0,10,0,0
342489,-999.999999999999,4,3,0,10,0,0
342510,-52.6315789473684,4,3,0,10,0,0
342532,-999.999999999999,4,3,0,10,0,0
342553,-52.6315789473684,4,3,0,10,0,0
342575,-999.999999999999,4,3,0,10,0,0
342596,-52.6315789473684,4,3,0,10,0,0
342618,-999.999999999999,4,3,0,10,0,0
342639,-52.6315789473684,4,3,0,10,0,0
342661,-999.999999999999,4,3,0,10,0,0
342682,-10,4,3,0,10,0,0
342725,-111.111111111111,4,3,0,10,0,0
342939,-50,4,3,0,10,0,0
343025,-100,4,3,0,10,0,0
353653,-10,4,3,0,10,0,0
353696,-111.111111111111,4,3,0,10,0,0
353910,-50,4,3,0,10,0,0
353996,-100,4,3,0,10,0,0
364968,-100,4,1,0,15,0,0
365675.806451613,-100.977198697068,4,1,0,15,0,0
366383.612903226,-101.973684210526,4,1,0,15,0,0
367091.419354839,-102.990033222591,4,1,0,15,0,0
367799.225806452,-104.026845637584,4,1,0,15,0,0
368507.032258065,-105.084745762712,4,1,0,15,0,0
369214.838709677,-106.164383561644,4,1,0,15,0,0
369922.64516129,-107.266435986159,4,1,0,15,0,0
370630.451612903,-108.391608391608,4,1,0,15,0,0
371338.258064516,-109.540636042403,4,1,0,15,0,0
372046.064516129,-110.714285714286,4,1,0,15,0,0
372753.870967742,-111.913357400722,4,1,0,15,0,0
373461.677419355,-113.138686131387,4,1,0,15,0,0
374169.483870968,-114.391143911439,4,1,0,15,0,0
374877.290322581,-115.671641791045,4,1,0,15,0,0
375585.096774194,-116.981132075472,4,1,0,15,0,0
376292.903225806,-118.320610687023,4,1,0,15,0,0
377000.709677419,-119.69111969112,4,1,0,15,0,0
377708.516129032,-121.09375,4,1,0,15,0,0
378416.322580645,-122.529644268775,4,1,0,15,0,0
379124.129032258,-124,4,1,0,15,0,0
379831.935483871,-125.506072874494,4,1,0,15,0,0
380539.741935484,-127.049180327869,4,1,0,15,0,0
381247.548387097,-128.630705394191,4,1,0,15,0,0
381955.35483871,-130.252100840336,4,1,0,15,0,0
382663.161290323,-131.914893617021,4,1,0,15,0,0
383370.967741935,-133.620689655172,4,1,0,15,0,0
384078.774193548,-135.371179039301,4,1,0,15,0,0
384786.580645161,-137.16814159292,4,1,0,15,0,0
385494.387096774,-139.013452914798,4,1,0,15,0,0
386202.193548387,-140.909090909091,4,1,0,15,0,0
386910,-142.857142857143,4,1,0,15,0,0
403368,-142.857142857143,4,1,0,15,0,0
403413.330578512,-141.520467836257,4,1,0,15,0,0
403458.661157025,-140.208574739282,4,1,0,15,0,0
403503.991735537,-138.920780711826,4,1,0,15,0,0
403549.32231405,-137.656427758817,4,1,0,15,0,0
403594.652892562,-136.41488162345,4,1,0,15,0,0
403639.983471074,-135.195530726257,4,1,0,15,0,0
403685.314049587,-133.997785160576,4,1,0,15,0,0
403730.644628099,-132.821075740944,4,1,0,15,0,0
403775.975206612,-131.664853101197,4,1,0,15,0,0
403821.305785124,-130.528586839266,4,1,0,15,0,0
403866.636363636,-129.411764705882,4,1,0,15,0,0
403911.966942149,-128.313891834571,4,1,0,15,0,0
403957.297520661,-127.234490010515,4,1,0,15,0,0
404002.628099174,-126.173096976017,4,1,0,15,0,0
404047.958677686,-125.129265770424,4,1,0,15,0,0
404093.289256198,-124.102564102564,4,1,0,15,0,0
404138.619834711,-123.092573753815,4,1,0,15,0,0
404183.950413223,-122.098890010091,4,1,0,15,0,0
404229.280991736,-121.121121121121,4,1,0,15,0,0
404274.611570248,-120.158887785501,4,1,0,15,0,0
404319.94214876,-119.211822660099,4,1,0,15,0,0
404365.272727273,-118.279569892473,4,1,0,15,0,0
404410.603305785,-117.361784675073,4,1,0,15,0,0
404455.933884298,-116.458132820019,4,1,0,15,0,0
404501.26446281,-115.568290353391,4,1,0,15,0,0
404546.595041322,-114.691943127962,4,1,0,15,0,0
404591.925619835,-113.828786453434,4,1,0,15,0,0
404637.256198347,-112.978524743231,4,1,0,15,0,0
404682.586776859,-112.140871177016,4,1,0,15,0,0
404727.917355372,-111.315547378105,4,1,0,15,0,0
404773.247933884,-110.502283105023,4,1,0,15,0,0
404818.578512397,-109.700815956482,4,1,0,15,0,0
404863.909090909,-108.910891089109,4,1,0,15,0,0
404909.239669422,-108.132260947274,4,1,0,15,0,0
404954.570247934,-107.364685004437,4,1,0,15,0,0
404999.900826446,-106.607929515419,4,1,0,15,0,0
405045.231404959,-105.86176727909,4,1,0,15,0,0
405090.561983471,-105.125977410947,4,1,0,15,0,0
405135.892561983,-104.400345125108,4,1,0,15,0,0
405181.223140496,-103.684661525279,4,1,0,15,0,0
405226.553719008,-102.978723404255,4,1,0,15,0,0
405271.884297521,-102.282333051564,4,1,0,15,0,0
405317.214876033,-101.59529806885,4,1,0,15,0,0
405362.545454545,-100.917431192661,4,1,0,15,0,0
405407.876033058,-100.248550124275,4,1,0,15,0,0
405453.20661157,-99.5884773662552,4,1,0,15,0,0
405498.537190083,-98.9370400654129,4,1,0,15,0,0
405543.867768595,-98.2940698619009,4,1,0,15,0,0
405589.198347107,-97.6594027441485,4,1,0,15,0,0
405634.52892562,-97.0328789093825,4,1,0,15,0,0
405679.859504132,-96.4143426294821,4,1,0,15,0,0
405725.190082645,-95.8036421219319,4,1,0,15,0,0
405770.520661157,-95.2006294256491,4,1,0,15,0,0
405815.851239669,-94.6051602814699,4,1,0,15,0,0
405861.181818182,-94.017094017094,4,1,0,15,0,0
405906.512396694,-93.4362934362934,4,1,0,15,0,0
405951.842975207,-92.8626247122026,4,1,0,15,0,0
405997.173553719,-92.2959572845156,4,1,0,15,0,0
406042.504132231,-91.7361637604246,4,1,0,15,0,0
406087.834710744,-91.1831198191409,4,1,0,15,0,0
406133.165289256,-90.6367041198502,4,1,0,15,0,0
406178.495867769,-90.0967982129561,4,1,0,15,0,0
406223.826446281,-89.5632864544782,4,1,0,15,0,0
406269.157024793,-89.0360559234731,4,1,0,15,0,0
406314.487603306,-88.5149963423555,4,1,0,15,0,0
406359.818181818,-88,4,1,0,15,0,0
406405.148760331,-87.4909616775127,4,1,0,15,0,0
406450.479338843,-86.9877785765636,4,1,0,15,0,0
406495.809917355,-86.4903502501787,4,1,0,15,0,0
406541.140495868,-85.998578535892,4,1,0,15,0,0
406586.47107438,-85.5123674911661,4,1,0,15,0,0
406631.801652893,-85.0316233309909,4,1,0,15,0,0
406677.132231405,-84.5562543675751,4,1,0,15,0,0
406722.462809917,-84.08617095205,4,1,0,15,0,0
406767.79338843,-83.6212854181064,4,1,0,15,0,0
406813.123966942,-83.1615120274914,4,1,0,15,0,0
406858.454545455,-82.7067669172932,4,1,0,15,0,0
406903.785123967,-82.2569680489463,4,1,0,15,0,0
406949.115702479,-81.8120351588911,4,1,0,15,0,0
406994.446280992,-81.3718897108272,4,1,0,15,0,0
407039.776859504,-80.9364548494983,4,1,0,15,0,0
407085.107438017,-80.5056553559548,4,1,0,15,0,0
407130.438016529,-80.0794176042356,4,1,0,15,0,0
407175.768595041,-79.6576695194207,4,1,0,15,0,0
407221.099173554,-79.2403405370006,4,1,0,15,0,0
407266.429752066,-78.8273615635179,4,1,0,15,0,0
407311.760330578,-78.4186649384316,4,1,0,15,0,0
407357.090909091,-78.0141843971631,4,1,0,15,0,0
407402.421487603,-77.613855035279,4,1,0,15,0,0
407447.752066116,-77.2176132737715,4,1,0,15,0,0
407493.082644628,-76.8253968253968,4,1,0,15,0,0
407538.413223141,-76.4371446620341,4,1,0,15,0,0
407583.743801653,-76.0527969830295,4,1,0,15,0,0
407629.074380165,-75.6722951844903,4,1,0,15,0,0
407674.404958678,-75.295581829496,4,1,0,15,0,0
407719.73553719,-74.922600619195,4,1,0,15,0,0
407765.066115703,-74.5532963647566,4,1,0,15,0,0
407810.396694215,-74.1876149601471,4,1,0,15,0,0
407855.727272727,-73.8255033557047,4,1,0,15,0,0
407901.05785124,-73.4669095324833,4,1,0,15,0,0
407946.388429752,-73.1117824773414,4,1,0,15,0,0
407991.719008264,-72.7600721587493,4,1,0,15,0,0
408037.049586777,-72.4117295032914,4,1,0,15,0,0
408082.380165289,-72.066706372841,4,1,0,15,0,0
408127.710743802,-71.7249555423829,4,1,0,15,0,0
408173.041322314,-71.3864306784661,4,1,0,15,0,0
408218.371900826,-71.0510863182619,4,1,0,15,0,0
408263.702479339,-70.718877849211,4,1,0,15,0,0
408309.033057851,-70.3897614892379,4,1,0,15,0,0
408354.363636364,-70.0636942675159,4,1,0,15,0,0
408399.694214876,-69.7406340057637,4,1,0,15,0,0
408445.024793388,-69.4205393000574,4,1,0,15,0,0
408490.355371901,-69.1033695031411,4,1,0,15,0,0
408535.685950413,-68.78908470722,4,1,0,15,0,0
408581.016528926,-68.4776457272213,4,1,0,15,0,0
408626.347107438,-68.169014084507,4,1,0,15,0,0
408671.67768595,-67.8631519910264,4,1,0,15,0,0
408717.008264463,-67.5600223338917,4,1,0,15,0,0
408762.338842975,-67.2595886603669,4,1,0,15,0,0
408811.129770992,-10,4,3,0,10,0,0

[HitObjects]
64,192,168,5,0,0:0:0:0:
192,192,339,1,0,0:0:0:0:
320,192,510,1,0,0:0:0:0:
64,192,682,1,0,0:0:0:0:
192,192,853,1,0,0:0:0:0:
320,192,1025,1,0,0:0:0:0:
64,192,1196,1,0,0:0:0:0:
192,192,1368,1,0,0:0:0:0:
448,192,1539,1,0,0:0:0:0:
64,192,1710,1,0,0:0:0:0:
192,192,1882,1,0,0:0:0:0:
448,192,2053,1,0,0:0:0:0:
64,192,2225,1,0,0:0:0:0:
192,192,2396,1,0,0:0:0:0:
448,192,2568,1,0,0:0:0:0:
192,192,2739,1,0,0:0:0:0:
448,192,2910,1,0,0:0:0:0:
320,192,3082,1,0,0:0:0:0:
192,192,3253,1,0,0:0:0:0:
448,192,3425,1,0,0:0:0:0:
320,192,3596,1,0,0:0:0:0:
192,192,3768,1,0,0:0:0:0:
448,192,3939,1,0,0:0:0:0:
320,192,4110,1,0,0:0:0:0:
192,192,4282,1,0,0:0:0:0:
320,192,4453,1,0,0:0:0:0:
192,192,4625,1,0,0:0:0:0:
64,192,4796,1,0,0:0:0:0:
448,192,4968,1,0,0:0:0:0:
320,192,5139,1,0,0:0:0:0:
192,192,5310,1,0,0:0:0:0:
320,192,5482,1,0,0:0:0:0:
64,192,5653,1,0,0:0:0:0:
192,192,5825,1,0,0:0:0:0:
320,192,5996,1,0,0:0:0:0:
64,192,6168,1,0,0:0:0:0:
192,192,6339,1,0,0:0:0:0:
320,192,6510,1,0,0:0:0:0:
64,192,6682,1,0,0:0:0:0:
192,192,6853,1,0,0:0:0:0:
448,192,7025,1,0,0:0:0:0:
64,192,7196,1,0,0:0:0:0:
192,192,7368,1,0,0:0:0:0:
448,192,7539,1,0,0:0:0:0:
64,192,7710,1,0,0:0:0:0:
192,192,7882,1,0,0:0:0:0:
448,192,8053,1,0,0:0:0:0:
192,192,8225,1,0,0:0:0:0:
448,192,8396,1,0,0:0:0:0:
320,192,8568,1,0,0:0:0:0:
192,192,8739,1,0,0:0:0:0:
448,192,8910,1,0,0:0:0:0:
320,192,9082,1,0,0:0:0:0:
192,192,9253,1,0,0:0:0:0:
448,192,9425,1,0,0:0:0:0:
320,192,9596,1,0,0:0:0:0:
192,192,9768,1,0,0:0:0:0:
320,192,9939,1,0,0:0:0:0:
192,192,10110,1,0,0:0:0:0:
64,192,10282,1,0,0:0:0:0:
448,192,10453,1,0,0:0:0:0:
320,192,10625,1,0,0:0:0:0:
192,192,10796,1,0,0:0:0:0:
320,192,10968,1,0,0:0:0:0:
64,192,11139,128,0,11310:0:0:0:0:
192,192,11310,128,0,11482:0:0:0:0:
320,192,11482,128,0,11653:0:0:0:0:
64,192,11653,128,0,11996:0:0:0:0:
192,192,11825,128,0,12168:0:0:0:0:
320,192,11996,128,0,12339:0:0:0:0:
64,192,12168,128,0,12510:0:0:0:0:
192,192,12339,128,0,12682:0:0:0:0:
448,192,12510,128,0,12853:0:0:0:0:
64,192,12682,128,0,12853:0:0:0:0:
192,192,12853,128,0,13025:0:0:0:0:
448,192,13025,128,0,13196:0:0:0:0:
64,192,13196,128,0,13368:0:0:0:0:
192,192,13368,128,0,13539:0:0:0:0:
448,192,13539,128,0,13710:0:0:0:0:
192,192,13710,1,0,0:0:0:0:
448,192,13882,1,0,0:0:0:0:
320,192,14053,1,0,0:0:0:0:
192,192,14225,1,0,0:0:0:0:
448,192,14396,128,0,14568:0:0:0:0:
320,192,14568,128,0,14739:0:0:0:0:
192,192,14739,128,0,14910:0:0:0:0:
448,192,14910,128,0,15082:0:0:0:0:
320,192,15082,128,0,15253:0:0:0:0:
192,192,15253,128,0,15425:0:0:0:0:
320,192,15425,1,0,0:0:0:0:
192,192,15596,1,0,0:0:0:0:
64,192,15768,1,0,0:0:0:0:
448,192,15939,1,0,0:0:0:0:
320,192,16110,1,0,0:0:0:0:
192,192,16282,1,0,0:0:0:0:
320,192,16453,1,0,0:0:0:0:
64,192,16625,128,0,16796:0:0:0:0:
192,192,16796,128,0,16968:0:0:0:0:
320,192,16968,128,0,17139:0:0:0:0:
64,192,17139,128,0,17482:0:0:0:0:
192,192,17310,128,0,17653:0:0:0:0:
320,192,17482,128,0,17825:0:0:0:0:
64,192,17653,128,0,17996:0:0:0:0:
192,192,17825,128,0,18168:0:0:0:0:
448,192,17996,128,0,18339:0:0:0:0:
64,192,18168,128,0,18339:0:0:0:0:
192,192,18339,128,0,18510:0:0:0:0:
448,192,18510,128,0,18682:0:0:0:0:
64,192,18682,128,0,18853:0:0:0:0:
192,192,18853,128,0,19025:0:0:0:0:
448,192,19025,128,0,19196:0:0:0:0:
192,192,19196,1,0,0:0:0:0:
448,192,19368,1,0,0:0:0:0:
320,192,19539,1,0,0:0:0:0:
192,192,19710,1,0,0:0:0:0:
448,192,19882,128,0,20053:0:0:0:0:
320,192,20053,128,0,20225:0:0:0:0:
192,192,20225,128,0,20396:0:0:0:0:
448,192,20396,128,0,20568:0:0:0:0:
320,192,20568,128,0,20739:0:0:0:0:
192,192,20739,128,0,20910:0:0:0:0:
320,192,20910,1,0,0:0:0:0:
192,192,21082,1,0,0:0:0:0:
64,192,21253,1,0,0:0:0:0:
448,192,21425,1,0,0:0:0:0:
320,192,21596,1,0,0:0:0:0:
192,192,21768,1,0,0:0:0:0:
320,192,21939,1,0,0:0:0:0:
448,192,22110,1,0,0:0:0:0:
320,192,22110,1,0,0:0:0:0:
192,192,22110,1,0,0:0:0:0:
64,192,22110,1,0,0:0:0:0:
64,192,22282,1,0,0:0:0:0:
192,192,22368,1,0,0:0:0:0:
192,192,22453,1,0,0:0:0:0:
448,192,22625,1,0,0:0:0:0:
320,192,22625,1,0,0:0:0:0:
64,192,22625,128,0,22796:0:0:0:0:
320,192,22796,1,0,0:0:0:0:
192,192,22796,1,0,0:0:0:0:
448,192,22796,128,0,23139:0:0:0:0:
320,192,23139,1,0,0:0:0:0:
192,192,23139,1,0,0:0:0:0:
64,192,23139,1,0,0:0:0:0:
448,192,23482,1,0,0:0:0:0:
320,192,23482,1,0,0:0:0:0:
64,192,23482,1,0,0:0:0:0:
192,192,23653,1,0,0:0:0:0:
448,192,23653,1,0,0:0:0:0:
320,192,23739,1,0,0:0:0:0:
320,192,23825,1,0,0:0:0:0:
192,192,23996,1,0,0:0:0:0:
64,192,23996,1,0,0:0:0:0:
192,192,24168,1,0,0:0:0:0:
448,192,24168,128,0,24339:0:0:0:0:
320,192,24168,128,0,24339:0:0:0:0:
448,192,24510,1,0,0:0:0:0:
320,192,24510,1,0,0:0:0:0:
64,192,24510,1,0,0:0:0:0:
448,192,24853,1,0,0:0:0:0:
320,192,24853,1,0,0:0:0:0:
192,192,24853,1,0,0:0:0:0:
64,192,24853,1,0,0:0:0:0:
448,192,25025,1,0,0:0:0:0:
320,192,25110,1,0,0:0:0:0:
320,192,25196,1,0,0:0:0:0:
448,192,25368,1,0,0:0:0:0:
192,192,25368,1,0,0:0:0:0:
64,192,25368,128,0,25539:0:0:0:0:
320,192,25539,1,0,0:0:0:0:
192,192,25539,1,0,0:0:0:0:
448,192,25539,128,0,25882:0:0:0:0:
320,192,25882,1,0,0:0:0:0:
192,192,25882,1,0,0:0:0:0:
64,192,25882,1,0,0:0:0:0:
448,192,26225,1,0,0:0:0:0:
320,192,26225,1,0,0:0:0:0:
192,192,26225,1,0,0:0:0:0:
64,192,26396,1,0,0:0:0:0:
448,192,26396,1,0,0:0:0:0:
192,192,26482,1,0,0:0:0:0:
192,192,26568,1,0,0:0:0:0:
64,192,26910,1,0,0:0:0:0:
320,192,26910,128,0,27082:0:0:0:0:
448,192,26910,128,0,27082:0:0:0:0:
448,192,27253,1,0,0:0:0:0:
320,192,27253,1,0,0:0:0:0:
64,192,27253,1,0,0:0:0:0:
320,192,27339,1,0,0:0:0:0:
192,192,27425,1,0,0:0:0:0:
448,192,27596,1,0,0:0:0:0:
320,192,27596,1,0,0:0:0:0:
192,192,27596,1,0,0:0:0:0:
64,192,27596,1,0,0:0:0:0:
64,192,27768,1,0,0:0:0:0:
192,192,27853,1,0,0:0:0:0:
192,192,27939,1,0,0:0:0:0:
320,192,28110,1,0,0:0:0:0:
448,192,28110,1,0,0:0:0:0:
64,192,28110,128,0,28282:0:0:0:0:
320,192,28282,1,0,0:0:0:0:
192,192,28282,1,0,0:0:0:0:
448,192,28282,128,0,28625:0:0:0:0:
320,192,28625,1,0,0:0:0:0:
192,192,28625,1,0,0:0:0:0:
64,192,28625,1,0,0:0:0:0:
448,192,28968,1,0,0:0:0:0:
192,192,28968,1,0,0:0:0:0:
64,192,28968,1,0,0:0:0:0:
448,192,29139,1,0,0:0:0:0:
320,192,29225,1,0,0:0:0:0:
320,192,29310,1,0,0:0:0:0:
192,192,29482,1,0,0:0:0:0:
64,192,29482,1,0,0:0:0:0:
192,192,29653,1,0,0:0:0:0:
320,192,29653,128,0,29825:0:0:0:0:
448,192,29653,128,0,29825:0:0:0:0:
448,192,29996,1,0,0:0:0:0:
320,192,29996,1,0,0:0:0:0:
64,192,29996,128,0,30253:0:0:0:0:
448,192,30339,1,0,0:0:0:0:
320,192,30339,1,0,0:0:0:0:
192,192,30339,1,0,0:0:0:0:
64,192,30339,1,0,0:0:0:0:
448,192,30510,1,0,0:0:0:0:
320,192,30596,1,0,0:0:0:0:
320,192,30682,1,0,0:0:0:0:
448,192,30853,1,0,0:0:0:0:
64,192,30853,128,0,31025:0:0:0:0:
192,192,30853,1,0,0:0:0:0:
192,192,31025,1,0,0:0:0:0:
320,192,31025,1,0,0:0:0:0:
448,192,31025,128,0,31368:0:0:0:0:
64,192,31368,1,0,0:0:0:0:
320,192,31368,1,0,0:0:0:0:
192,192,31368,1,0,0:0:0:0:
448,192,31710,1,0,0:0:0:0:
192,192,31710,1,0,0:0:0:0:
320,192,31710,1,0,0:0:0:0:
64,192,31882,1,0,0:0:0:0:
448,192,31882,1,0,0:0:0:0:
192,192,31968,1,0,0:0:0:0:
192,192,32053,1,0,0:0:0:0:
320,192,32396,128,0,32568:0:0:0:0:
448,192,32396,128,0,32568:0:0:0:0:
64,192,32396,1,0,0:0:0:0:
448,192,32739,1,0,0:0:0:0:
64,192,32739,1,0,0:0:0:0:
320,192,32739,1,0,0:0:0:0:
320,192,32825,1,0,0:0:0:0:
192,192,32910,1,0,0:0:0:0:
448,192,33082,1,0,0:0:0:0:
320,192,33082,1,0,0:0:0:0:
192,192,33082,1,0,0:0:0:0:
64,192,33082,1,0,0:0:0:0:
64,192,33253,1,0,0:0:0:0:
192,192,33339,1,0,0:0:0:0:
192,192,33425,1,0,0:0:0:0:
448,192,33596,1,0,0:0:0:0:
320,192,33596,1,0,0:0:0:0:
64,192,33596,128,0,33768:0:0:0:0:
320,192,33768,1,0,0:0:0:0:
192,192,33768,1,0,0:0:0:0:
448,192,33768,128,0,34110:0:0:0:0:
320,192,34110,1,0,0:0:0:0:
192,192,34110,1,0,0:0:0:0:
64,192,34110,1,0,0:0:0:0:
448,192,34453,1,0,0:0:0:0:
320,192,34453,1,0,0:0:0:0:
64,192,34453,1,0,0:0:0:0:
192,192,34625,1,0,0:0:0:0:
448,192,34625,1,0,0:0:0:0:
320,192,34710,1,0,0:0:0:0:
320,192,34796,1,0,0:0:0:0:
192,192,34968,1,0,0:0:0:0:
64,192,34968,1,0,0:0:0:0:
192,192,35139,1,0,0:0:0:0:
448,192,35139,128,0,35310:0:0:0:0:
320,192,35139,128,0,35310:0:0:0:0:
448,192,35482,1,0,0:0:0:0:
320,192,35482,1,0,0:0:0:0:
64,192,35482,1,0,0:0:0:0:
448,192,35825,1,0,0:0:0:0:
320,192,35825,1,0,0:0:0:0:
192,192,35825,1,0,0:0:0:0:
64,192,35825,1,0,0:0:0:0:
448,192,35996,1,0,0:0:0:0:
320,192,36082,1,0,0:0:0:0:
320,192,36168,1,0,0:0:0:0:
448,192,36339,1,0,0:0:0:0:
192,192,36339,1,0,0:0:0:0:
64,192,36339,128,0,36510:0:0:0:0:
320,192,36510,1,0,0:0:0:0:
192,192,36510,1,0,0:0:0:0:
448,192,36510,128,0,36853:0:0:0:0:
320,192,36853,1,0,0:0:0:0:
192,192,36853,1,0,0:0:0:0:
64,192,36853,1,0,0:0:0:0:
448,192,37196,1,0,0:0:0:0:
320,192,37196,1,0,0:0:0:0:
192,192,37196,1,0,0:0:0:0:
64,192,37368,1,0,0:0:0:0:
448,192,37368,1,0,0:0:0:0:
192,192,37453,1,0,0:0:0:0:
192,192,37539,1,0,0:0:0:0:
64,192,37882,1,0,0:0:0:0:
320,192,37882,128,0,38053:0:0:0:0:
448,192,37882,128,0,38053:0:0:0:0:
448,192,38225,1,0,0:0:0:0:
320,192,38225,1,0,0:0:0:0:
64,192,38225,1,0,0:0:0:0:
320,192,38310,1,0,0:0:0:0:
192,192,38396,1,0,0:0:0:0:
448,192,38568,1,0,0:0:0:0:
320,192,38568,1,0,0:0:0:0:
192,192,38568,1,0,0:0:0:0:
64,192,38568,1,0,0:0:0:0:
64,192,38739,1,0,0:0:0:0:
192,192,38825,1,0,0:0:0:0:
192,192,38910,1,0,0:0:0:0:
448,192,38910,1,0,0:0:0:0:
320,192,39082,1,0,0:0:0:0:
64,192,39082,128,0,39253:0:0:0:0:
320,192,39253,1,0,0:0:0:0:
448,192,39253,128,0,39596:0:0:0:0:
320,192,39596,1,0,0:0:0:0:
192,192,39596,1,0,0:0:0:0:
64,192,39596,1,0,0:0:0:0:
448,192,39939,1,0,0:0:0:0:
192,192,39939,1,0,0:0:0:0:
64,192,39939,1,0,0:0:0:0:
448,192,40110,1,0,0:0:0:0:
64,192,40110,1,0,0:0:0:0:
320,192,40196,1,0,0:0:0:0:
320,192,40282,1,0,0:0:0:0:
192,192,40282,1,0,0:0:0:0:
192,192,40625,1,0,0:0:0:0:
448,192,40625,1,0,0:0:0:0:
64,192,40796,128,0,40968:0:0:0:0:
192,192,40796,128,0,40968:0:0:0:0:
320,192,40968,1,0,0:0:0:0:
448,192,40968,128,0,41225:0:0:0:0:
448,192,41310,1,0,0:0:0:0:
320,192,41310,1,0,0:0:0:0:
192,192,41310,1,0,0:0:0:0:
64,192,41310,1,0,0:0:0:0:
320,192,41482,1,0,0:0:0:0:
64,192,41482,1,0,0:0:0:0:
448,192,41653,1,0,0:0:0:0:
192,192,41653,1,0,0:0:0:0:
448,192,41825,1,0,0:0:0:0:
320,192,41825,1,0,0:0:0:0:
64,192,41825,1,0,0:0:0:0:
320,192,41996,1,0,0:0:0:0:
192,192,41996,1,0,0:0:0:0:
448,192,42168,1,0,0:0:0:0:
64,192,42168,1,0,0:0:0:0:
320,192,42339,1,0,0:0:0:0:
192,192,42339,1,0,0:0:0:0:
64,192,42339,1,0,0:0:0:0:
448,192,42510,1,0,0:0:0:0:
192,192,42510,1,0,0:0:0:0:
320,192,42682,1,0,0:0:0:0:
64,192,42682,1,0,0:0:0:0:
64,192,42768,1,0,0:0:0:0:
448,192,42853,1,0,0:0:0:0:
320,192,42853,1,0,0:0:0:0:
192,192,42853,1,0,0:0:0:0:
448,192,42939,1,0,0:0:0:0:
320,192,43025,1,0,0:0:0:0:
192,192,43025,1,0,0:0:0:0:
192,192,43110,1,0,0:0:0:0:
64,192,43196,1,0,0:0:0:0:
448,192,43196,1,0,0:0:0:0:
448,192,43282,1,0,0:0:0:0:
320,192,43368,1,0,0:0:0:0:
192,192,43368,1,0,0:0:0:0:
64,192,43368,1,0,0:0:0:0:
448,192,43425,1,0,0:0:0:0:
64,192,43453,1,0,0:0:0:0:
320,192,43482,1,0,0:0:0:0:
448,192,43539,1,0,0:0:0:0:
192,192,43539,1,0,0:0:0:0:
64,192,43596,1,0,0:0:0:0:
320,192,43653,1,0,0:0:0:0:
192,192,43710,1,0,0:0:0:0:
64,192,43710,1,0,0:0:0:0:
448,192,43753,1,0,0:0:0:0:
320,192,43796,1,0,0:0:0:0:
192,192,43839,1,0,0:0:0:0:
64,192,43882,1,0,0:0:0:0:
448,192,43910,1,0,0:0:0:0:
320,192,43939,1,0,0:0:0:0:
192,192,43968,1,0,0:0:0:0:
64,192,43989,1,0,0:0:0:0:
448,192,44010,1,0,0:0:0:0:
320,192,44032,1,0,0:0:0:0:
192,192,44053,1,0,0:0:0:0:
64,192,44053,128,0,45425:0:0:0:0:
448,192,46796,1,0,0:0:0:0:
320,192,46796,1,0,0:0:0:0:
192,192,46796,1,0,0:0:0:0:
64,192,46796,1,0,0:0:0:0:
192,192,46882,1,0,0:0:0:0:
320,192,46968,1,0,0:0:0:0:
192,192,47053,1,0,0:0:0:0:
448,192,47139,1,0,0:0:0:0:
192,192,47225,1,0,0:0:0:0:
448,192,47310,1,0,0:0:0:0:
192,192,47396,1,0,0:0:0:0:
448,192,47482,1,0,0:0:0:0:
192,192,47568,1,0,0:0:0:0:
448,192,47653,1,0,0:0:0:0:
192,192,47739,1,0,0:0:0:0:
448,192,47825,1,0,0:0:0:0:
192,192,47910,1,0,0:0:0:0:
448,192,47996,1,0,0:0:0:0:
192,192,48082,1,0,0:0:0:0:
448,192,48168,1,0,0:0:0:0:
192,192,48253,1,0,0:0:0:0:
448,192,48339,1,0,0:0:0:0:
192,192,48425,1,0,0:0:0:0:
448,192,48510,1,0,0:0:0:0:
192,192,48596,1,0,0:0:0:0:
320,192,48682,1,0,0:0:0:0:
192,192,48768,1,0,0:0:0:0:
448,192,48853,1,0,0:0:0:0:
192,192,48939,1,0,0:0:0:0:
320,192,49025,1,0,0:0:0:0:
192,192,49110,1,0,0:0:0:0:
320,192,49196,1,0,0:0:0:0:
192,192,49282,1,0,0:0:0:0:
320,192,49368,1,0,0:0:0:0:
192,192,49453,1,0,0:0:0:0:
448,192,49539,1,0,0:0:0:0:
64,192,49625,1,0,0:0:0:0:
320,192,49710,1,0,0:0:0:0:
64,192,49796,1,0,0:0:0:0:
448,192,49882,1,0,0:0:0:0:
64,192,49968,1,0,0:0:0:0:
448,192,50053,1,0,0:0:0:0:
64,192,50139,1,0,0:0:0:0:
448,192,50225,1,0,0:0:0:0:
64,192,50310,1,0,0:0:0:0:
448,192,50396,1,0,0:0:0:0:
64,192,50482,1,0,0:0:0:0:
448,192,50568,1,0,0:0:0:0:
64,192,50653,1,0,0:0:0:0:
448,192,50739,1,0,0:0:0:0:
64,192,50825,1,0,0:0:0:0:
448,192,50910,1,0,0:0:0:0:
64,192,50996,1,0,0:0:0:0:
448,192,51082,1,0,0:0:0:0:
64,192,51168,1,0,0:0:0:0:
448,192,51253,1,0,0:0:0:0:
64,192,51339,1,0,0:0:0:0:
320,192,51425,1,0,0:0:0:0:
64,192,51510,1,0,0:0:0:0:
448,192,51596,1,0,0:0:0:0:
64,192,51682,1,0,0:0:0:0:
320,192,51768,1,0,0:0:0:0:
64,192,51853,1,0,0:0:0:0:
320,192,51939,1,0,0:0:0:0:
64,192,52025,1,0,0:0:0:0:
320,192,52110,1,0,0:0:0:0:
64,192,52196,1,0,0:0:0:0:
448,192,52282,1,0,0:0:0:0:
192,192,52368,1,0,0:0:0:0:
320,192,52453,1,0,0:0:0:0:
192,192,52539,1,0,0:0:0:0:
448,192,52625,1,0,0:0:0:0:
192,192,52710,1,0,0:0:0:0:
448,192,52796,1,0,0:0:0:0:
192,192,52882,1,0,0:0:0:0:
448,192,52968,1,0,0:0:0:0:
192,192,53053,1,0,0:0:0:0:
448,192,53139,1,0,0:0:0:0:
192,192,53225,1,0,0:0:0:0:
448,192,53310,1,0,0:0:0:0:
192,192,53396,1,0,0:0:0:0:
448,192,53482,1,0,0:0:0:0:
192,192,53568,1,0,0:0:0:0:
448,192,53653,1,0,0:0:0:0:
192,192,53739,1,0,0:0:0:0:
448,192,53825,1,0,0:0:0:0:
192,192,53910,1,0,0:0:0:0:
448,192,53996,1,0,0:0:0:0:
192,192,54082,1,0,0:0:0:0:
320,192,54168,1,0,0:0:0:0:
192,192,54253,1,0,0:0:0:0:
448,192,54339,1,0,0:0:0:0:
192,192,54425,1,0,0:0:0:0:
320,192,54510,1,0,0:0:0:0:
192,192,54596,1,0,0:0:0:0:
320,192,54682,1,0,0:0:0:0:
192,192,54768,1,0,0:0:0:0:
320,192,54853,1,0,0:0:0:0:
192,192,54939,1,0,0:0:0:0:
448,192,55025,1,0,0:0:0:0:
64,192,55110,1,0,0:0:0:0:
320,192,55196,1,0,0:0:0:0:
64,192,55282,1,0,0:0:0:0:
448,192,55368,1,0,0:0:0:0:
64,192,55453,1,0,0:0:0:0:
448,192,55539,1,0,0:0:0:0:
64,192,55625,1,0,0:0:0:0:
448,192,55710,1,0,0:0:0:0:
64,192,55796,1,0,0:0:0:0:
448,192,55882,1,0,0:0:0:0:
64,192,55968,1,0,0:0:0:0:
448,192,56053,1,0,0:0:0:0:
64,192,56139,1,0,0:0:0:0:
448,192,56225,1,0,0:0:0:0:
64,192,56310,1,0,0:0:0:0:
448,192,56396,1,0,0:0:0:0:
64,192,56482,1,0,0:0:0:0:
448,192,56568,1,0,0:0:0:0:
64,192,56653,1,0,0:0:0:0:
448,192,56739,1,0,0:0:0:0:
64,192,56825,1,0,0:0:0:0:
320,192,56910,1,0,0:0:0:0:
64,192,56996,1,0,0:0:0:0:
448,192,57082,1,0,0:0:0:0:
64,192,57168,1,0,0:0:0:0:
448,192,57253,1,0,0:0:0:0:
64,192,57339,1,0,0:0:0:0:
448,192,57425,1,0,0:0:0:0:
64,192,57510,1,0,0:0:0:0:
448,192,57510,1,0,0:0:0:0:
320,192,57596,1,0,0:0:0:0:
64,192,57682,1,0,0:0:0:0:
320,192,57682,1,0,0:0:0:0:
448,192,57768,1,0,0:0:0:0:
192,192,57768,1,0,0:0:0:0:
192,192,57853,1,0,0:0:0:0:
448,192,57939,1,0,0:0:0:0:
64,192,57939,1,0,0:0:0:0:
448,192,58025,1,0,0:0:0:0:
320,192,58110,1,0,0:0:0:0:
64,192,58110,1,0,0:0:0:0:
192,192,58110,1,0,0:0:0:0:
64,192,58196,1,0,0:0:0:0:
448,192,58282,1,0,0:0:0:0:
320,192,58282,1,0,0:0:0:0:
192,192,58282,1,0,0:0:0:0:
320,192,58368,1,0,0:0:0:0:
192,192,58453,1,0,0:0:0:0:
64,192,58453,1,0,0:0:0:0:
448,192,58453,1,0,0:0:0:0:
192,192,58539,1,0,0:0:0:0:
448,192,58625,1,0,0:0:0:0:
320,192,58625,1,0,0:0:0:0:
64,192,58625,1,0,0:0:0:0:
448,192,58710,1,0,0:0:0:0:
320,192,58796,1,0,0:0:0:0:
192,192,58796,1,0,0:0:0:0:
64,192,58796,1,0,0:0:0:0:
64,192,58882,1,0,0:0:0:0:
448,192,58968,1,0,0:0:0:0:
320,192,58968,1,0,0:0:0:0:
192,192,58968,1,0,0:0:0:0:
448,192,59053,1,0,0:0:0:0:
320,192,59139,1,0,0:0:0:0:
192,192,59139,1,0,0:0:0:0:
64,192,59139,1,0,0:0:0:0:
192,192,59225,1,0,0:0:0:0:
448,192,59310,1,0,0:0:0:0:
320,192,59310,1,0,0:0:0:0:
64,192,59310,1,0,0:0:0:0:
320,192,59396,1,0,0:0:0:0:
192,192,59482,1,0,0:0:0:0:
64,192,59482,1,0,0:0:0:0:
448,192,59482,1,0,0:0:0:0:
64,192,59568,1,0,0:0:0:0:
448,192,59653,1,0,0:0:0:0:
192,192,59653,1,0,0:0:0:0:
448,192,59739,1,0,0:0:0:0:
320,192,59825,1,0,0:0:0:0:
192,192,59825,1,0,0:0:0:0:
64,192,59825,1,0,0:0:0:0:
192,192,59910,128,0,60082:0:0:0:0:
64,192,59910,128,0,60082:0:0:0:0:
448,192,59996,1,0,0:0:0:0:
320,192,59996,1,0,0:0:0:0:
448,192,60082,1,0,0:0:0:0:
320,192,60168,1,0,0:0:0:0:
64,192,60168,1,0,0:0:0:0:
64,192,60253,1,0,0:0:0:0:
320,192,60339,1,0,0:0:0:0:
192,192,60339,1,0,0:0:0:0:
320,192,60425,1,0,0:0:0:0:
448,192,60510,1,0,0:0:0:0:
192,192,60510,1,0,0:0:0:0:
64,192,60510,1,0,0:0:0:0:
64,192,60596,1,0,0:0:0:0:
448,192,60682,1,0,0:0:0:0:
192,192,60682,1,0,0:0:0:0:
448,192,60768,1,0,0:0:0:0:
320,192,60853,1,0,0:0:0:0:
192,192,60853,1,0,0:0:0:0:
64,192,60853,1,0,0:0:0:0:
64,192,60939,1,0,0:0:0:0:
448,192,61025,1,0,0:0:0:0:
320,192,61025,1,0,0:0:0:0:
192,192,61025,1,0,0:0:0:0:
320,192,61110,1,0,0:0:0:0:
448,192,61196,1,0,0:0:0:0:
192,192,61196,1,0,0:0:0:0:
64,192,61196,1,0,0:0:0:0:
64,192,61282,1,0,0:0:0:0:
448,192,61368,1,0,0:0:0:0:
320,192,61368,1,0,0:0:0:0:
192,192,61368,1,0,0:0:0:0:
320,192,61453,1,0,0:0:0:0:
192,192,61539,1,0,0:0:0:0:
64,192,61539,1,0,0:0:0:0:
448,192,61539,1,0,0:0:0:0:
64,192,61625,1,0,0:0:0:0:
448,192,61710,1,0,0:0:0:0:
320,192,61710,1,0,0:0:0:0:
192,192,61710,1,0,0:0:0:0:
448,192,61796,1,0,0:0:0:0:
320,192,61882,1,0,0:0:0:0:
192,192,61882,1,0,0:0:0:0:
64,192,61882,1,0,0:0:0:0:
192,192,61968,1,0,0:0:0:0:
448,192,62053,1,0,0:0:0:0:
320,192,62053,1,0,0:0:0:0:
64,192,62053,1,0,0:0:0:0:
448,192,62139,1,0,0:0:0:0:
320,192,62225,1,0,0:0:0:0:
192,192,62225,1,0,0:0:0:0:
64,192,62225,1,0,0:0:0:0:
192,192,62310,1,0,0:0:0:0:
448,192,62396,1,0,0:0:0:0:
64,192,62396,1,0,0:0:0:0:
448,192,62482,1,0,0:0:0:0:
320,192,62568,1,0,0:0:0:0:
192,192,62568,1,0,0:0:0:0:
64,192,62568,1,0,0:0:0:0:
192,192,62653,1,0,0:0:0:0:
64,192,62653,1,0,0:0:0:0:
448,192,62739,1,0,0:0:0:0:
320,192,62739,1,0,0:0:0:0:
448,192,62825,1,0,0:0:0:0:
320,192,62910,1,0,0:0:0:0:
64,192,62910,1,0,0:0:0:0:
64,192,62996,1,0,0:0:0:0:
320,192,63082,1,0,0:0:0:0:
192,192,63082,1,0,0:0:0:0:
320,192,63168,1,0,0:0:0:0:
448,192,63253,1,0,0:0:0:0:
192,192,63253,1,0,0:0:0:0:
64,192,63253,1,0,0:0:0:0:
192,192,63339,1,0,0:0:0:0:
64,192,63425,1,0,0:0:0:0:
448,192,63425,1,0,0:0:0:0:
448,192,63510,1,0,0:0:0:0:
192,192,63596,1,0,0:0:0:0:
320,192,63596,1,0,0:0:0:0:
64,192,63596,1,0,0:0:0:0:
64,192,63682,1,0,0:0:0:0:
320,192,63768,1,0,0:0:0:0:
448,192,63768,1,0,0:0:0:0:
192,192,63768,1,0,0:0:0:0:
320,192,63853,1,0,0:0:0:0:
448,192,63939,1,0,0:0:0:0:
64,192,63939,1,0,0:0:0:0:
192,192,63939,1,0,0:0:0:0:
192,192,64025,1,0,0:0:0:0:
448,192,64110,1,0,0:0:0:0:
64,192,64110,1,0,0:0:0:0:
320,192,64110,1,0,0:0:0:0:
448,192,64196,1,0,0:0:0:0:
192,192,64282,1,0,0:0:0:0:
64,192,64282,1,0,0:0:0:0:
320,192,64282,1,0,0:0:0:0:
64,192,64368,1,0,0:0:0:0:
448,192,64453,1,0,0:0:0:0:
320,192,64453,1,0,0:0:0:0:
192,192,64453,1,0,0:0:0:0:
448,192,64539,1,0,0:0:0:0:
64,192,64625,1,0,0:0:0:0:
192,192,64625,1,0,0:0:0:0:
320,192,64625,1,0,0:0:0:0:
192,192,64710,1,0,0:0:0:0:
448,192,64796,1,0,0:0:0:0:
320,192,64796,1,0,0:0:0:0:
64,192,64796,1,0,0:0:0:0:
320,192,64882,1,0,0:0:0:0:
64,192,64968,1,0,0:0:0:0:
192,192,64968,1,0,0:0:0:0:
448,192,64968,1,0,0:0:0:0:
64,192,65053,1,0,0:0:0:0:
448,192,65139,1,0,0:0:0:0:
192,192,65139,1,0,0:0:0:0:
448,192,65225,1,0,0:0:0:0:
320,192,65310,1,0,0:0:0:0:
64,192,65310,1,0,0:0:0:0:
192,192,65310,1,0,0:0:0:0:
192,192,65396,128,0,65568:0:0:0:0:
64,192,65396,128,0,65568:0:0:0:0:
320,192,65482,1,0,0:0:0:0:
448,192,65482,1,0,0:0:0:0:
448,192,65568,1,0,0:0:0:0:
64,192,65653,1,0,0:0:0:0:
320,192,65653,1,0,0:0:0:0:
64,192,65739,1,0,0:0:0:0:
320,192,65825,1,0,0:0:0:0:
192,192,65825,1,0,0:0:0:0:
320,192,65910,1,0,0:0:0:0:
64,192,65996,1,0,0:0:0:0:
192,192,65996,1,0,0:0:0:0:
448,192,65996,1,0,0:0:0:0:
64,192,66082,1,0,0:0:0:0:
448,192,66168,1,0,0:0:0:0:
192,192,66168,1,0,0:0:0:0:
448,192,66253,1,0,0:0:0:0:
64,192,66339,1,0,0:0:0:0:
320,192,66339,1,0,0:0:0:0:
192,192,66339,1,0,0:0:0:0:
64,192,66425,1,0,0:0:0:0:
192,192,66510,1,0,0:0:0:0:
448,192,66510,1,0,0:0:0:0:
320,192,66510,1,0,0:0:0:0:
320,192,66596,1,0,0:0:0:0:
192,192,66682,1,0,0:0:0:0:
64,192,66682,1,0,0:0:0:0:
448,192,66682,1,0,0:0:0:0:
192,192,66768,1,0,0:0:0:0:
320,192,66853,1,0,0:0:0:0:
64,192,66853,1,0,0:0:0:0:
448,192,66853,1,0,0:0:0:0:
320,192,66939,1,0,0:0:0:0:
448,192,67025,1,0,0:0:0:0:
64,192,67025,1,0,0:0:0:0:
192,192,67025,1,0,0:0:0:0:
64,192,67110,1,0,0:0:0:0:
192,192,67196,1,0,0:0:0:0:
320,192,67196,1,0,0:0:0:0:
448,192,67196,1,0,0:0:0:0:
448,192,67282,1,0,0:0:0:0:
320,192,67368,1,0,0:0:0:0:
64,192,67368,1,0,0:0:0:0:
192,192,67368,1,0,0:0:0:0:
64,192,67453,1,0,0:0:0:0:
448,192,67539,1,0,0:0:0:0:
192,192,67539,1,0,0:0:0:0:
320,192,67539,1,0,0:0:0:0:
448,192,67625,1,0,0:0:0:0:
192,192,67710,1,0,0:0:0:0:
320,192,67710,1,0,0:0:0:0:
64,192,67710,1,0,0:0:0:0:
64,192,67796,1,0,0:0:0:0:
192,192,67882,1,0,0:0:0:0:
448,192,67882,1,0,0:0:0:0:
448,192,67968,1,0,0:0:0:0:
320,192,68053,1,0,0:0:0:0:
64,192,68053,1,0,0:0:0:0:
192,192,68053,1,0,0:0:0:0:
64,192,68139,1,0,0:0:0:0:
192,192,68139,1,0,0:0:0:0:
448,192,68225,1,0,0:0:0:0:
320,192,68225,1,0,0:0:0:0:
448,192,68310,1,0,0:0:0:0:
320,192,68396,1,0,0:0:0:0:
192,192,68396,1,0,0:0:0:0:
64,192,68396,1,0,0:0:0:0:
64,192,68482,1,0,0:0:0:0:
448,192,68482,1,0,0:0:0:0:
192,192,68568,1,0,0:0:0:0:
448,192,68568,1,0,0:0:0:0:
320,192,68568,1,0,0:0:0:0:
320,192,68653,1,0,0:0:0:0:
64,192,68653,1,0,0:0:0:0:
192,192,68739,1,0,0:0:0:0:
64,192,68739,1,0,0:0:0:0:
448,192,68739,1,0,0:0:0:0:
192,192,68825,1,0,0:0:0:0:
320,192,68910,1,0,0:0:0:0:
320,192,68996,1,0,0:0:0:0:
192,192,69082,1,0,0:0:0:0:
448,192,69082,1,0,0:0:0:0:
64,192,69082,1,0,0:0:0:0:
192,192,69168,1,0,0:0:0:0:
448,192,69253,1,0,0:0:0:0:
320,192,69253,1,0,0:0:0:0:
64,192,69253,1,0,0:0:0:0:
320,192,69339,1,0,0:0:0:0:
192,192,69425,1,0,0:0:0:0:
64,192,69425,1,0,0:0:0:0:
448,192,69425,1,0,0:0:0:0:
192,192,69510,1,0,0:0:0:0:
320,192,69596,1,0,0:0:0:0:
320,192,69682,1,0,0:0:0:0:
192,192,69768,1,0,0:0:0:0:
64,192,69768,1,0,0:0:0:0:
448,192,69768,1,0,0:0:0:0:
192,192,69853,1,0,0:0:0:0:
64,192,69939,1,0,0:0:0:0:
448,192,69939,1,0,0:0:0:0:
64,192,70025,1,0,0:0:0:0:
320,192,70025,1,0,0:0:0:0:
448,192,70110,1,0,0:0:0:0:
320,192,70110,1,0,0:0:0:0:
192,192,70110,1,0,0:0:0:0:
448,192,70196,1,0,0:0:0:0:
64,192,70282,1,0,0:0:0:0:
64,192,70368,1,0,0:0:0:0:
448,192,70453,1,0,0:0:0:0:
320,192,70453,1,0,0:0:0:0:
192,192,70453,1,0,0:0:0:0:
448,192,70539,1,0,0:0:0:0:
192,192,70625,1,0,0:0:0:0:
64,192,70625,1,0,0:0:0:0:
320,192,70625,1,0,0:0:0:0:
64,192,70710,1,0,0:0:0:0:
448,192,70796,1,0,0:0:0:0:
320,192,70796,1,0,0:0:0:0:
192,192,70796,1,0,0:0:0:0:
448,192,70882,1,0,0:0:0:0:
320,192,70968,1,0,0:0:0:0:
192,192,70968,1,0,0:0:0:0:
64,192,70968,1,0,0:0:0:0:
192,192,71053,1,0,0:0:0:0:
448,192,71139,1,0,0:0:0:0:
320,192,71139,1,0,0:0:0:0:
64,192,71139,1,0,0:0:0:0:
320,192,71225,128,0,71396:0:0:0:0:
64,192,71310,1,0,0:0:0:0:
64,192,71396,1,0,0:0:0:0:
448,192,71396,1,0,0:0:0:0:
448,192,71482,1,0,0:0:0:0:
320,192,71482,1,0,0:0:0:0:
192,192,71482,1,0,0:0:0:0:
320,192,71568,1,0,0:0:0:0:
192,192,71653,1,0,0:0:0:0:
192,192,71739,1,0,0:0:0:0:
448,192,71825,1,0,0:0:0:0:
320,192,71825,1,0,0:0:0:0:
64,192,71825,1,0,0:0:0:0:
320,192,71910,1,0,0:0:0:0:
192,192,71996,1,0,0:0:0:0:
64,192,71996,1,0,0:0:0:0:
448,192,71996,1,0,0:0:0:0:
192,192,72082,1,0,0:0:0:0:
448,192,72168,1,0,0:0:0:0:
320,192,72168,1,0,0:0:0:0:
64,192,72168,1,0,0:0:0:0:
320,192,72253,1,0,0:0:0:0:
192,192,72339,1,0,0:0:0:0:
64,192,72339,1,0,0:0:0:0:
448,192,72339,1,0,0:0:0:0:
192,192,72425,1,0,0:0:0:0:
448,192,72510,1,0,0:0:0:0:
320,192,72510,1,0,0:0:0:0:
64,192,72510,1,0,0:0:0:0:
320,192,72596,1,0,0:0:0:0:
192,192,72682,1,0,0:0:0:0:
192,192,72768,1,0,0:0:0:0:
448,192,72853,1,0,0:0:0:0:
320,192,72853,1,0,0:0:0:0:
64,192,72853,1,0,0:0:0:0:
448,192,72939,1,0,0:0:0:0:
64,192,73025,1,0,0:0:0:0:
64,192,73110,1,0,0:0:0:0:
448,192,73196,1,0,0:0:0:0:
320,192,73196,1,0,0:0:0:0:
192,192,73196,1,0,0:0:0:0:
448,192,73282,1,0,0:0:0:0:
192,192,73368,1,0,0:0:0:0:
320,192,73368,1,0,0:0:0:0:
64,192,73368,1,0,0:0:0:0:
64,192,73453,1,0,0:0:0:0:
448,192,73539,1,0,0:0:0:0:
320,192,73539,1,0,0:0:0:0:
192,192,73539,1,0,0:0:0:0:
320,192,73625,1,0,0:0:0:0:
192,192,73710,1,0,0:0:0:0:
64,192,73710,1,0,0:0:0:0:
448,192,73710,1,0,0:0:0:0:
192,192,73796,1,0,0:0:0:0:
448,192,73882,1,0,0:0:0:0:
320,192,73882,1,0,0:0:0:0:
64,192,73882,1,0,0:0:0:0:
448,192,73968,128,0,74139:0:0:0:0:
192,192,74053,1,0,0:0:0:0:
192,192,74139,1,0,0:0:0:0:
320,192,74139,1,0,0:0:0:0:
448,192,74225,1,0,0:0:0:0:
320,192,74225,1,0,0:0:0:0:
64,192,74225,1,0,0:0:0:0:
192,192,74282,1,0,0:0:0:0:
448,192,74339,1,0,0:0:0:0:
320,192,74339,1,0,0:0:0:0:
64,192,74396,1,0,0:0:0:0:
192,192,74453,1,0,0:0:0:0:
320,192,74453,1,0,0:0:0:0:
448,192,74510,1,0,0:0:0:0:
192,192,74568,1,0,0:0:0:0:
64,192,74568,1,0,0:0:0:0:
320,192,74625,1,0,0:0:0:0:
64,192,74682,1,0,0:0:0:0:
448,192,74682,1,0,0:0:0:0:
192,192,74739,1,0,0:0:0:0:
448,192,74796,1,0,0:0:0:0:
320,192,74796,1,0,0:0:0:0:
64,192,74853,1,0,0:0:0:0:
192,192,74910,1,0,0:0:0:0:
448,192,74910,1,0,0:0:0:0:
320,192,74953,1,0,0:0:0:0:
64,192,74996,1,0,0:0:0:0:
192,192,75039,1,0,0:0:0:0:
320,192,75082,1,0,0:0:0:0:
448,192,75125,1,0,0:0:0:0:
192,192,75168,1,0,0:0:0:0:
320,192,75210,1,0,0:0:0:0:
64,192,75253,1,0,0:0:0:0:
192,192,75296,1,0,0:0:0:0:
448,192,75339,1,0,0:0:0:0:
64,192,75382,1,0,0:0:0:0:
320,192,75425,1,0,0:0:0:0:
192,192,75468,1,0,0:0:0:0:
448,192,75510,1,0,0:0:0:0:
320,192,75553,1,0,0:0:0:0:
64,192,75596,1,0,0:0:0:0:
448,192,75639,1,0,0:0:0:0:
192,192,75682,1,0,0:0:0:0:
320,192,75725,1,0,0:0:0:0:
64,192,75768,1,0,0:0:0:0:
192,192,75810,1,0,0:0:0:0:
448,192,75853,1,0,0:0:0:0:
320,192,75896,1,0,0:0:0:0:
64,192,75939,1,0,0:0:0:0:
448,192,75982,1,0,0:0:0:0:
192,192,76025,1,0,0:0:0:0:
320,192,76068,1,0,0:0:0:0:
448,192,76110,1,0,0:0:0:0:
192,192,76153,1,0,0:0:0:0:
64,192,76196,1,0,0:0:0:0:
320,192,76239,1,0,0:0:0:0:
192,192,76282,1,0,0:0:0:0:
448,192,76325,1,0,0:0:0:0:
64,192,76368,1,0,0:0:0:0:
320,192,76410,1,0,0:0:0:0:
192,192,76453,1,0,0:0:0:0:
448,192,76496,1,0,0:0:0:0:
320,192,76539,1,0,0:0:0:0:
64,192,76582,1,0,0:0:0:0:
192,192,76625,1,0,0:0:0:0:
448,192,76668,1,0,0:0:0:0:
64,192,76710,1,0,0:0:0:0:
320,192,76753,1,0,0:0:0:0:
192,192,76796,1,0,0:0:0:0:
448,192,76839,1,0,0:0:0:0:
320,192,76882,1,0,0:0:0:0:
64,192,76925,1,0,0:0:0:0:
192,192,76968,1,0,0:0:0:0:
448,192,77010,1,0,0:0:0:0:
64,192,77053,1,0,0:0:0:0:
320,192,77096,1,0,0:0:0:0:
192,192,77139,1,0,0:0:0:0:
448,192,77182,1,0,0:0:0:0:
320,192,77225,1,0,0:0:0:0:
64,192,77268,1,0,0:0:0:0:
192,192,77310,1,0,0:0:0:0:
448,192,77353,1,0,0:0:0:0:
64,192,77396,1,0,0:0:0:0:
320,192,77439,1,0,0:0:0:0:
192,192,77482,1,0,0:0:0:0:
448,192,77525,1,0,0:0:0:0:
320,192,77568,1,0,0:0:0:0:
64,192,77610,1,0,0:0:0:0:
192,192,77653,1,0,0:0:0:0:
448,192,77696,1,0,0:0:0:0:
320,192,77739,1,0,0:0:0:0:
192,192,77782,1,0,0:0:0:0:
448,192,77825,1,0,0:0:0:0:
320,192,77868,1,0,0:0:0:0:
64,192,77910,1,0,0:0:0:0:
192,192,77953,1,0,0:0:0:0:
448,192,77996,1,0,0:0:0:0:
320,192,77996,1,0,0:0:0:0:
448,192,78082,1,0,0:0:0:0:
320,192,78082,1,0,0:0:0:0:
192,192,78168,1,0,0:0:0:0:
64,192,78168,1,0,0:0:0:0:
192,192,78253,1,0,0:0:0:0:
64,192,78253,1,0,0:0:0:0:
448,192,78339,1,0,0:0:0:0:
320,192,78339,1,0,0:0:0:0:
64,192,78339,1,0,0:0:0:0:
448,192,79710,1,0,0:0:0:0:
320,192,79710,1,0,0:0:0:0:
192,192,79710,1,0,0:0:0:0:
64,192,79710,1,0,0:0:0:0:
64,192,79796,1,0,0:0:0:0:
320,192,79882,1,0,0:0:0:0:
192,192,79968,1,0,0:0:0:0:
448,192,80053,1,0,0:0:0:0:
320,192,80053,1,0,0:0:0:0:
64,192,80053,1,0,0:0:0:0:
192,192,80053,1,0,0:0:0:0:
448,192,80139,1,0,0:0:0:0:
320,192,80225,1,0,0:0:0:0:
64,192,80310,1,0,0:0:0:0:
448,192,80396,1,0,0:0:0:0:
192,192,80396,1,0,0:0:0:0:
320,192,80396,1,0,0:0:0:0:
192,192,80482,1,0,0:0:0:0:
64,192,80568,1,0,0:0:0:0:
320,192,80653,1,0,0:0:0:0:
320,192,80739,1,0,0:0:0:0:
448,192,80739,1,0,0:0:0:0:
192,192,80739,1,0,0:0:0:0:
64,192,80739,1,0,0:0:0:0:
64,192,80825,1,0,0:0:0:0:
192,192,80910,1,0,0:0:0:0:
320,192,80996,1,0,0:0:0:0:
448,192,81082,1,0,0:0:0:0:
192,192,81082,1,0,0:0:0:0:
64,192,81082,1,0,0:0:0:0:
448,192,81168,1,0,0:0:0:0:
320,192,81253,1,0,0:0:0:0:
192,192,81339,1,0,0:0:0:0:
448,192,81425,1,0,0:0:0:0:
320,192,81425,1,0,0:0:0:0:
192,192,81425,1,0,0:0:0:0:
64,192,81425,1,0,0:0:0:0:
448,192,81510,1,0,0:0:0:0:
320,192,81596,1,0,0:0:0:0:
192,192,81682,1,0,0:0:0:0:
320,192,81768,1,0,0:0:0:0:
448,192,81768,1,0,0:0:0:0:
64,192,81768,1,0,0:0:0:0:
320,192,81853,1,0,0:0:0:0:
192,192,81939,1,0,0:0:0:0:
448,192,82025,1,0,0:0:0:0:
320,192,82110,1,0,0:0:0:0:
192,192,82110,1,0,0:0:0:0:
64,192,82110,1,0,0:0:0:0:
448,192,82110,1,0,0:0:0:0:
64,192,82196,1,0,0:0:0:0:
192,192,82282,1,0,0:0:0:0:
448,192,82368,1,0,0:0:0:0:
320,192,82368,1,0,0:0:0:0:
448,192,82453,1,0,0:0:0:0:
64,192,82453,1,0,0:0:0:0:
192,192,82453,1,0,0:0:0:0:
192,192,82539,1,0,0:0:0:0:
320,192,82625,1,0,0:0:0:0:
64,192,82710,1,0,0:0:0:0:
448,192,82796,1,0,0:0:0:0:
320,192,82796,1,0,0:0:0:0:
192,192,82796,1,0,0:0:0:0:
64,192,82796,1,0,0:0:0:0:
448,192,82882,1,0,0:0:0:0:
192,192,82968,1,0,0:0:0:0:
320,192,83053,1,0,0:0:0:0:
448,192,83139,1,0,0:0:0:0:
192,192,83139,1,0,0:0:0:0:
64,192,83139,1,0,0:0:0:0:
192,192,83225,1,0,0:0:0:0:
320,192,83310,1,0,0:0:0:0:
64,192,83396,1,0,0:0:0:0:
448,192,83482,1,0,0:0:0:0:
320,192,83482,1,0,0:0:0:0:
192,192,83482,1,0,0:0:0:0:
64,192,83482,1,0,0:0:0:0:
448,192,83568,1,0,0:0:0:0:
320,192,83653,1,0,0:0:0:0:
192,192,83739,1,0,0:0:0:0:
64,192,83825,1,0,0:0:0:0:
448,192,83825,1,0,0:0:0:0:
320,192,83825,1,0,0:0:0:0:
64,192,83910,1,0,0:0:0:0:
320,192,83996,1,0,0:0:0:0:
192,192,84082,1,0,0:0:0:0:
448,192,84168,1,0,0:0:0:0:
320,192,84168,1,0,0:0:0:0:
64,192,84168,1,0,0:0:0:0:
192,192,84168,1,0,0:0:0:0:
448,192,84253,1,0,0:0:0:0:
320,192,84339,1,0,0:0:0:0:
192,192,84425,1,0,0:0:0:0:
64,192,84510,1,0,0:0:0:0:
448,192,84510,1,0,0:0:0:0:
320,192,84510,1,0,0:0:0:0:
320,192,84596,1,0,0:0:0:0:
192,192,84682,1,0,0:0:0:0:
448,192,84768,1,0,0:0:0:0:
192,192,84853,1,0,0:0:0:0:
320,192,84853,1,0,0:0:0:0:
64,192,84853,1,0,0:0:0:0:
448,192,84853,1,0,0:0:0:0:
64,192,84939,1,0,0:0:0:0:
320,192,85025,1,0,0:0:0:0:
192,192,85110,1,0,0:0:0:0:
448,192,85196,1,0,0:0:0:0:
320,192,85196,1,0,0:0:0:0:
64,192,85196,1,0,0:0:0:0:
448,192,85282,1,0,0:0:0:0:
192,192,85368,1,0,0:0:0:0:
320,192,85453,1,0,0:0:0:0:
192,192,85539,1,0,0:0:0:0:
64,192,85539,1,0,0:0:0:0:
448,192,85539,1,0,0:0:0:0:
320,192,85539,1,0,0:0:0:0:
64,192,85625,1,0,0:0:0:0:
448,192,85710,1,0,0:0:0:0:
192,192,85796,1,0,0:0:0:0:
448,192,85882,1,0,0:0:0:0:
320,192,85882,1,0,0:0:0:0:
64,192,85882,1,0,0:0:0:0:
320,192,85968,1,0,0:0:0:0:
192,192,86053,1,0,0:0:0:0:
448,192,86139,1,0,0:0:0:0:
320,192,86225,1,0,0:0:0:0:
192,192,86225,1,0,0:0:0:0:
64,192,86225,1,0,0:0:0:0:
448,192,86225,1,0,0:0:0:0:
64,192,86310,1,0,0:0:0:0:
448,192,86396,1,0,0:0:0:0:
320,192,86482,1,0,0:0:0:0:
448,192,86568,1,0,0:0:0:0:
64,192,86568,1,0,0:0:0:0:
192,192,86568,1,0,0:0:0:0:
192,192,86653,1,0,0:0:0:0:
448,192,86739,1,0,0:0:0:0:
64,192,86825,1,0,0:0:0:0:
448,192,86910,1,0,0:0:0:0:
320,192,86910,1,0,0:0:0:0:
192,192,86910,1,0,0:0:0:0:
64,192,86910,1,0,0:0:0:0:
320,192,86996,1,0,0:0:0:0:
192,192,87082,1,0,0:0:0:0:
448,192,87168,1,0,0:0:0:0:
320,192,87253,1,0,0:0:0:0:
192,192,87253,1,0,0:0:0:0:
64,192,87253,1,0,0:0:0:0:
64,192,87339,1,0,0:0:0:0:
320,192,87425,1,0,0:0:0:0:
192,192,87510,1,0,0:0:0:0:
448,192,87596,1,0,0:0:0:0:
320,192,87596,1,0,0:0:0:0:
64,192,87596,1,0,0:0:0:0:
192,192,87596,1,0,0:0:0:0:
448,192,87682,1,0,0:0:0:0:
192,192,87768,1,0,0:0:0:0:
320,192,87853,1,0,0:0:0:0:
448,192,87939,1,0,0:0:0:0:
192,192,87939,1,0,0:0:0:0:
64,192,87939,1,0,0:0:0:0:
64,192,88025,1,0,0:0:0:0:
320,192,88110,1,0,0:0:0:0:
448,192,88110,1,0,0:0:0:0:
192,192,88196,1,0,0:0:0:0:
448,192,88282,1,0,0:0:0:0:
320,192,88282,1,0,0:0:0:0:
64,192,88282,1,0,0:0:0:0:
192,192,88282,1,0,0:0:0:0:
448,192,88368,1,0,0:0:0:0:
64,192,88453,1,0,0:0:0:0:
320,192,88539,1,0,0:0:0:0:
192,192,88625,1,0,0:0:0:0:
64,192,88625,1,0,0:0:0:0:
448,192,88625,1,0,0:0:0:0:
64,192,88710,1,0,0:0:0:0:
448,192,88796,1,0,0:0:0:0:
320,192,88796,1,0,0:0:0:0:
192,192,88882,1,0,0:0:0:0:
448,192,88968,1,0,0:0:0:0:
320,192,88968,1,0,0:0:0:0:
192,192,88968,1,0,0:0:0:0:
64,192,88968,1,0,0:0:0:0:
320,192,89053,1,0,0:0:0:0:
64,192,89139,1,0,0:0:0:0:
448,192,89225,1,0,0:0:0:0:
320,192,89310,1,0,0:0:0:0:
192,192,89310,1,0,0:0:0:0:
64,192,89310,1,0,0:0:0:0:
320,192,89396,1,0,0:0:0:0:
192,192,89482,1,0,0:0:0:0:
64,192,89482,1,0,0:0:0:0:
448,192,89482,1,0,0:0:0:0:
64,192,89568,1,0,0:0:0:0:
448,192,89653,1,0,0:0:0:0:
320,192,89653,1,0,0:0:0:0:
192,192,89653,1,0,0:0:0:0:
320,192,89739,1,0,0:0:0:0:
192,192,89825,1,0,0:0:0:0:
64,192,89825,1,0,0:0:0:0:
448,192,89825,1,0,0:0:0:0:
448,192,89910,1,0,0:0:0:0:
320,192,89996,1,0,0:0:0:0:
64,192,89996,1,0,0:0:0:0:
192,192,90039,1,0,0:0:0:0:
448,192,90082,1,0,0:0:0:0:
64,192,90125,1,0,0:0:0:0:
320,192,90168,1,0,0:0:0:0:
192,192,90210,1,0,0:0:0:0:
320,192,90253,1,0,0:0:0:0:
64,192,90296,1,0,0:0:0:0:
192,192,90339,1,0,0:0:0:0:
448,192,90339,128,0,90682:0:0:0:0:
320,192,90682,1,0,0:0:0:0:
192,192,90682,1,0,0:0:0:0:
64,192,90682,1,0,0:0:0:0:
64,192,90768,1,0,0:0:0:0:
320,192,90853,1,0,0:0:0:0:
192,192,90939,1,0,0:0:0:0:
64,192,91025,1,0,0:0:0:0:
320,192,91025,1,0,0:0:0:0:
192,192,91025,1,0,0:0:0:0:
448,192,91025,1,0,0:0:0:0:
448,192,91110,1,0,0:0:0:0:
320,192,91196,1,0,0:0:0:0:
192,192,91282,1,0,0:0:0:0:
64,192,91368,1,0,0:0:0:0:
448,192,91368,1,0,0:0:0:0:
320,192,91368,1,0,0:0:0:0:
64,192,91453,1,0,0:0:0:0:
192,192,91539,1,0,0:0:0:0:
320,192,91625,1,0,0:0:0:0:
320,192,91710,1,0,0:0:0:0:
192,192,91710,1,0,0:0:0:0:
448,192,91710,1,0,0:0:0:0:
64,192,91710,1,0,0:0:0:0:
64,192,91796,1,0,0:0:0:0:
192,192,91882,1,0,0:0:0:0:
320,192,91968,1,0,0:0:0:0:
192,192,92053,1,0,0:0:0:0:
64,192,92053,1,0,0:0:0:0:
448,192,92053,1,0,0:0:0:0:
448,192,92139,1,0,0:0:0:0:
320,192,92225,1,0,0:0:0:0:
192,192,92310,1,0,0:0:0:0:
192,192,92396,1,0,0:0:0:0:
448,192,92396,1,0,0:0:0:0:
64,192,92396,1,0,0:0:0:0:
320,192,92396,1,0,0:0:0:0:
448,192,92482,1,0,0:0:0:0:
320,192,92568,1,0,0:0:0:0:
192,192,92653,1,0,0:0:0:0:
64,192,92739,1,0,0:0:0:0:
448,192,92739,1,0,0:0:0:0:
320,192,92739,1,0,0:0:0:0:
320,192,92825,1,0,0:0:0:0:
192,192,92910,1,0,0:0:0:0:
448,192,92996,1,0,0:0:0:0:
64,192,93082,1,0,0:0:0:0:
448,192,93082,1,0,0:0:0:0:
320,192,93082,1,0,0:0:0:0:
192,192,93082,1,0,0:0:0:0:
64,192,93168,1,0,0:0:0:0:
192,192,93253,1,0,0:0:0:0:
448,192,93339,1,0,0:0:0:0:
320,192,93339,1,0,0:0:0:0:
64,192,93425,1,0,0:0:0:0:
448,192,93425,1,0,0:0:0:0:
192,192,93425,1,0,0:0:0:0:
192,192,93510,1,0,0:0:0:0:
320,192,93596,1,0,0:0:0:0:
64,192,93682,1,0,0:0:0:0:
192,192,93768,1,0,0:0:0:0:
64,192,93768,1,0,0:0:0:0:
448,192,93768,1,0,0:0:0:0:
320,192,93768,1,0,0:0:0:0:
448,192,93853,1,0,0:0:0:0:
192,192,93939,1,0,0:0:0:0:
320,192,94025,1,0,0:0:0:0:
64,192,94110,1,0,0:0:0:0:
192,192,94110,1,0,0:0:0:0:
448,192,94110,1,0,0:0:0:0:
192,192,94196,1,0,0:0:0:0:
320,192,94282,1,0,0:0:0:0:
64,192,94368,1,0,0:0:0:0:
448,192,94453,1,0,0:0:0:0:
192,192,94453,1,0,0:0:0:0:
320,192,94453,1,0,0:0:0:0:
64,192,94453,1,0,0:0:0:0:
448,192,94539,1,0,0:0:0:0:
320,192,94625,1,0,0:0:0:0:
192,192,94710,1,0,0:0:0:0:
448,192,94796,1,0,0:0:0:0:
320,192,94796,1,0,0:0:0:0:
64,192,94796,1,0,0:0:0:0:
64,192,94882,1,0,0:0:0:0:
320,192,94968,1,0,0:0:0:0:
192,192,95053,1,0,0:0:0:0:
448,192,95139,1,0,0:0:0:0:
320,192,95139,1,0,0:0:0:0:
192,192,95139,1,0,0:0:0:0:
64,192,95139,1,0,0:0:0:0:
448,192,95225,1,0,0:0:0:0:
320,192,95310,1,0,0:0:0:0:
192,192,95396,1,0,0:0:0:0:
64,192,95482,1,0,0:0:0:0:
448,192,95482,1,0,0:0:0:0:
320,192,95482,1,0,0:0:0:0:
320,192,95568,1,0,0:0:0:0:
192,192,95653,1,0,0:0:0:0:
448,192,95739,1,0,0:0:0:0:
192,192,95825,1,0,0:0:0:0:
448,192,95825,1,0,0:0:0:0:
320,192,95825,1,0,0:0:0:0:
64,192,95825,1,0,0:0:0:0:
64,192,95910,1,0,0:0:0:0:
320,192,95996,1,0,0:0:0:0:
192,192,96082,1,0,0:0:0:0:
320,192,96168,1,0,0:0:0:0:
64,192,96168,1,0,0:0:0:0:
448,192,96168,1,0,0:0:0:0:
448,192,96253,1,0,0:0:0:0:
192,192,96339,1,0,0:0:0:0:
320,192,96425,1,0,0:0:0:0:
448,192,96510,1,0,0:0:0:0:
192,192,96510,1,0,0:0:0:0:
64,192,96510,1,0,0:0:0:0:
320,192,96510,1,0,0:0:0:0:
64,192,96596,1,0,0:0:0:0:
448,192,96682,1,0,0:0:0:0:
192,192,96768,1,0,0:0:0:0:
64,192,96853,1,0,0:0:0:0:
320,192,96853,1,0,0:0:0:0:
448,192,96853,1,0,0:0:0:0:
320,192,96939,1,0,0:0:0:0:
192,192,97025,1,0,0:0:0:0:
448,192,97110,1,0,0:0:0:0:
64,192,97196,1,0,0:0:0:0:
448,192,97196,1,0,0:0:0:0:
320,192,97196,1,0,0:0:0:0:
192,192,97196,1,0,0:0:0:0:
64,192,97282,1,0,0:0:0:0:
192,192,97368,1,0,0:0:0:0:
320,192,97453,1,0,0:0:0:0:
64,192,97539,1,0,0:0:0:0:
448,192,97539,1,0,0:0:0:0:
192,192,97539,1,0,0:0:0:0:
448,192,97625,1,0,0:0:0:0:
320,192,97710,1,0,0:0:0:0:
64,192,97796,1,0,0:0:0:0:
64,192,97882,1,0,0:0:0:0:
448,192,97882,1,0,0:0:0:0:
320,192,97882,1,0,0:0:0:0:
192,192,97882,1,0,0:0:0:0:
320,192,97968,1,0,0:0:0:0:
192,192,98053,1,0,0:0:0:0:
448,192,98139,1,0,0:0:0:0:
192,192,98225,1,0,0:0:0:0:
320,192,98225,1,0,0:0:0:0:
64,192,98225,1,0,0:0:0:0:
64,192,98310,1,0,0:0:0:0:
320,192,98396,1,0,0:0:0:0:
192,192,98482,1,0,0:0:0:0:
64,192,98568,1,0,0:0:0:0:
192,192,98568,1,0,0:0:0:0:
320,192,98568,1,0,0:0:0:0:
448,192,98568,1,0,0:0:0:0:
448,192,98653,1,0,0:0:0:0:
192,192,98739,1,0,0:0:0:0:
320,192,98825,1,0,0:0:0:0:
448,192,98910,1,0,0:0:0:0:
64,192,98910,1,0,0:0:0:0:
192,192,98910,1,0,0:0:0:0:
64,192,98996,1,0,0:0:0:0:
320,192,99082,1,0,0:0:0:0:
448,192,99082,1,0,0:0:0:0:
192,192,99082,1,0,0:0:0:0:
320,192,99168,1,0,0:0:0:0:
192,192,99253,1,0,0:0:0:0:
64,192,99253,1,0,0:0:0:0:
448,192,99253,1,0,0:0:0:0:
192,192,99339,1,0,0:0:0:0:
320,192,99425,1,0,0:0:0:0:
64,192,99425,1,0,0:0:0:0:
448,192,99425,1,0,0:0:0:0:
448,192,99510,1,0,0:0:0:0:
320,192,99510,1,0,0:0:0:0:
192,192,99596,1,0,0:0:0:0:
64,192,99596,1,0,0:0:0:0:
448,192,99682,1,0,0:0:0:0:
320,192,99682,1,0,0:0:0:0:
448,192,99768,1,0,0:0:0:0:
320,192,99768,1,0,0:0:0:0:
64,192,99768,1,0,0:0:0:0:
192,192,99853,1,0,0:0:0:0:
448,192,99939,1,0,0:0:0:0:
64,192,99939,1,0,0:0:0:0:
320,192,99939,1,0,0:0:0:0:
64,192,100025,1,0,0:0:0:0:
192,192,100110,1,0,0:0:0:0:
320,192,100110,1,0,0:0:0:0:
448,192,100110,1,0,0:0:0:0:
64,192,100196,1,0,0:0:0:0:
448,192,100196,1,0,0:0:0:0:
320,192,100282,1,0,0:0:0:0:
192,192,100282,1,0,0:0:0:0:
64,192,100282,1,0,0:0:0:0:
448,192,100368,1,0,0:0:0:0:
320,192,100453,1,0,0:0:0:0:
192,192,100453,1,0,0:0:0:0:
64,192,100453,1,0,0:0:0:0:
192,192,100539,1,0,0:0:0:0:
448,192,100539,1,0,0:0:0:0:
448,192,100625,1,0,0:0:0:0:
320,192,100625,1,0,0:0:0:0:
64,192,100625,1,0,0:0:0:0:
192,192,100710,1,0,0:0:0:0:
320,192,100796,1,0,0:0:0:0:
64,192,100796,1,0,0:0:0:0:
448,192,100796,1,0,0:0:0:0:
64,192,100882,1,0,0:0:0:0:
448,192,100968,1,0,0:0:0:0:
320,192,100968,1,0,0:0:0:0:
192,192,100968,1,0,0:0:0:0:
448,192,101053,1,0,0:0:0:0:
320,192,101139,1,0,0:0:0:0:
192,192,101139,1,0,0:0:0:0:
64,192,101139,1,0,0:0:0:0:
448,192,101310,1,0,0:0:0:0:
320,192,101310,1,0,0:0:0:0:
192,192,101310,1,0,0:0:0:0:
64,192,101310,1,0,0:0:0:0:
448,192,101653,1,0,0:0:0:0:
320,192,101653,1,0,0:0:0:0:
192,192,101653,1,0,0:0:0:0:
64,192,101653,1,0,0:0:0:0:
448,192,101739,1,0,0:0:0:0:
192,192,101739,1,0,0:0:0:0:
320,192,101825,1,0,0:0:0:0:
192,192,101910,1,0,0:0:0:0:
64,192,101910,1,0,0:0:0:0:
448,192,101996,1,0,0:0:0:0:
320,192,101996,1,0,0:0:0:0:
64,192,101996,1,0,0:0:0:0:
192,192,102082,1,0,0:0:0:0:
448,192,102168,1,0,0:0:0:0:
320,192,102168,1,0,0:0:0:0:
448,192,102253,1,0,0:0:0:0:
64,192,102253,1,0,0:0:0:0:
320,192,102339,1,0,0:0:0:0:
192,192,102339,1,0,0:0:0:0:
64,192,102339,1,0,0:0:0:0:
192,192,102425,1,0,0:0:0:0:
448,192,102425,1,0,0:0:0:0:
448,192,102510,1,0,0:0:0:0:
320,192,102510,1,0,0:0:0:0:
64,192,102596,1,0,0:0:0:0:
448,192,102682,1,0,0:0:0:0:
192,192,102682,1,0,0:0:0:0:
320,192,102725,1,0,0:0:0:0:
64,192,102768,1,0,0:0:0:0:
448,192,102810,1,0,0:0:0:0:
192,192,102853,1,0,0:0:0:0:
320,192,102896,1,0,0:0:0:0:
64,192,102939,1,0,0:0:0:0:
192,192,102982,1,0,0:0:0:0:
448,192,103025,1,0,0:0:0:0:
320,192,103025,1,0,0:0:0:0:
448,192,103110,1,0,0:0:0:0:
320,192,103110,1,0,0:0:0:0:
192,192,103196,1,0,0:0:0:0:
448,192,103282,1,0,0:0:0:0:
64,192,103282,1,0,0:0:0:0:
448,192,103368,1,0,0:0:0:0:
320,192,103368,1,0,0:0:0:0:
192,192,103368,1,0,0:0:0:0:
64,192,103453,1,0,0:0:0:0:
320,192,103539,1,0,0:0:0:0:
192,192,103539,1,0,0:0:0:0:
448,192,103625,1,0,0:0:0:0:
192,192,103625,1,0,0:0:0:0:
320,192,103710,1,0,0:0:0:0:
64,192,103710,1,0,0:0:0:0:
448,192,103710,1,0,0:0:0:0:
192,192,103796,1,0,0:0:0:0:
64,192,103796,1,0,0:0:0:0:
448,192,103882,1,0,0:0:0:0:
320,192,103882,1,0,0:0:0:0:
64,192,103968,1,0,0:0:0:0:
320,192,104053,1,0,0:0:0:0:
192,192,104053,1,0,0:0:0:0:
448,192,104053,1,0,0:0:0:0:
64,192,104110,1,0,0:0:0:0:
448,192,104168,1,0,0:0:0:0:
64,192,104225,1,0,0:0:0:0:
448,192,104282,1,0,0:0:0:0:
192,192,104339,1,0,0:0:0:0:
64,192,104396,1,0,0:0:0:0:
448,192,104396,1,0,0:0:0:0:
320,192,104482,1,0,0:0:0:0:
64,192,104482,1,0,0:0:0:0:
192,192,104568,1,0,0:0:0:0:
448,192,104653,1,0,0:0:0:0:
320,192,104653,1,0,0:0:0:0:
448,192,104739,1,0,0:0:0:0:
192,192,104739,1,0,0:0:0:0:
64,192,104739,1,0,0:0:0:0:
320,192,104825,1,0,0:0:0:0:
64,192,104910,1,0,0:0:0:0:
192,192,104910,1,0,0:0:0:0:
320,192,104996,1,0,0:0:0:0:
64,192,104996,1,0,0:0:0:0:
448,192,105082,1,0,0:0:0:0:
320,192,105082,1,0,0:0:0:0:
192,192,105082,1,0,0:0:0:0:
448,192,105168,1,0,0:0:0:0:
64,192,105168,1,0,0:0:0:0:
320,192,105253,1,0,0:0:0:0:
64,192,105253,1,0,0:0:0:0:
192,192,105339,1,0,0:0:0:0:
448,192,105425,1,0,0:0:0:0:
320,192,105425,1,0,0:0:0:0:
64,192,105468,1,0,0:0:0:0:
192,192,105510,1,0,0:0:0:0:
448,192,105553,1,0,0:0:0:0:
64,192,105596,1,0,0:0:0:0:
320,192,105639,1,0,0:0:0:0:
192,192,105682,1,0,0:0:0:0:
64,192,105725,1,0,0:0:0:0:
448,192,105768,1,0,0:0:0:0:
320,192,105768,1,0,0:0:0:0:
448,192,105853,1,0,0:0:0:0:
192,192,105853,1,0,0:0:0:0:
64,192,105939,1,0,0:0:0:0:
320,192,106025,1,0,0:0:0:0:
192,192,106025,1,0,0:0:0:0:
192,192,106110,1,0,0:0:0:0:
64,192,106110,1,0,0:0:0:0:
448,192,106110,1,0,0:0:0:0:
320,192,106196,1,0,0:0:0:0:
448,192,106282,1,0,0:0:0:0:
192,192,106282,1,0,0:0:0:0:
448,192,106368,1,0,0:0:0:0:
64,192,106368,1,0,0:0:0:0:
320,192,106453,1,0,0:0:0:0:
192,192,106453,1,0,0:0:0:0:
64,192,106453,1,0,0:0:0:0:
192,192,106539,1,0,0:0:0:0:
448,192,106539,1,0,0:0:0:0:
64,192,106625,1,0,0:0:0:0:
320,192,106625,1,0,0:0:0:0:
448,192,106710,1,0,0:0:0:0:
320,192,106796,1,0,0:0:0:0:
192,192,106796,1,0,0:0:0:0:
64,192,106796,1,0,0:0:0:0:
448,192,106853,1,0,0:0:0:0:
64,192,106910,1,0,0:0:0:0:
320,192,106968,1,0,0:0:0:0:
64,192,107025,1,0,0:0:0:0:
320,192,107082,1,0,0:0:0:0:
448,192,107139,1,0,0:0:0:0:
64,192,107139,1,0,0:0:0:0:
320,192,107225,1,0,0:0:0:0:
448,192,107225,1,0,0:0:0:0:
192,192,107310,1,0,0:0:0:0:
64,192,107396,1,0,0:0:0:0:
320,192,107396,1,0,0:0:0:0:
448,192,107482,1,0,0:0:0:0:
64,192,107482,1,0,0:0:0:0:
320,192,107482,1,0,0:0:0:0:
192,192,107568,1,0,0:0:0:0:
448,192,107653,1,0,0:0:0:0:
320,192,107653,1,0,0:0:0:0:
448,192,107739,1,0,0:0:0:0:
64,192,107739,1,0,0:0:0:0:
320,192,107825,1,0,0:0:0:0:
192,192,107825,1,0,0:0:0:0:
64,192,107825,1,0,0:0:0:0:
192,192,107910,1,0,0:0:0:0:
448,192,107910,1,0,0:0:0:0:
448,192,107996,1,0,0:0:0:0:
320,192,107996,1,0,0:0:0:0:
64,192,108082,1,0,0:0:0:0:
320,192,108168,1,0,0:0:0:0:
192,192,108168,1,0,0:0:0:0:
448,192,108210,1,0,0:0:0:0:
64,192,108253,1,0,0:0:0:0:
320,192,108296,1,0,0:0:0:0:
192,192,108339,1,0,0:0:0:0:
448,192,108382,1,0,0:0:0:0:
64,192,108425,1,0,0:0:0:0:
192,192,108468,1,0,0:0:0:0:
448,192,108510,1,0,0:0:0:0:
320,192,108510,1,0,0:0:0:0:
448,192,108596,1,0,0:0:0:0:
320,192,108596,1,0,0:0:0:0:
64,192,108682,1,0,0:0:0:0:
192,192,108768,1,0,0:0:0:0:
320,192,108768,1,0,0:0:0:0:
448,192,108853,1,0,0:0:0:0:
320,192,108853,1,0,0:0:0:0:
64,192,108853,1,0,0:0:0:0:
192,192,108939,1,0,0:0:0:0:
320,192,109025,1,0,0:0:0:0:
64,192,109025,1,0,0:0:0:0:
448,192,109110,1,0,0:0:0:0:
64,192,109110,1,0,0:0:0:0:
448,192,109196,1,0,0:0:0:0:
320,192,109196,1,0,0:0:0:0:
192,192,109196,1,0,0:0:0:0:
320,192,109282,1,0,0:0:0:0:
64,192,109282,1,0,0:0:0:0:
192,192,109368,1,0,0:0:0:0:
448,192,109368,1,0,0:0:0:0:
64,192,109453,1,0,0:0:0:0:
448,192,109539,1,0,0:0:0:0:
320,192,109539,1,0,0:0:0:0:
192,192,109539,1,0,0:0:0:0:
64,192,109596,1,0,0:0:0:0:
448,192,109653,1,0,0:0:0:0:
64,192,109710,1,0,0:0:0:0:
320,192,109768,1,0,0:0:0:0:
64,192,109825,1,0,0:0:0:0:
448,192,109882,1,0,0:0:0:0:
192,192,109882,1,0,0:0:0:0:
320,192,109882,1,0,0:0:0:0:
448,192,109968,1,0,0:0:0:0:
320,192,109968,1,0,0:0:0:0:
192,192,110053,1,0,0:0:0:0:
448,192,110139,1,0,0:0:0:0:
64,192,110139,1,0,0:0:0:0:
320,192,110225,1,0,0:0:0:0:
192,192,110225,1,0,0:0:0:0:
64,192,110225,1,0,0:0:0:0:
448,192,110310,1,0,0:0:0:0:
320,192,110396,1,0,0:0:0:0:
192,192,110396,1,0,0:0:0:0:
448,192,110482,1,0,0:0:0:0:
64,192,110482,1,0,0:0:0:0:
320,192,110568,1,0,0:0:0:0:
64,192,110568,1,0,0:0:0:0:
448,192,110568,1,0,0:0:0:0:
320,192,110653,1,0,0:0:0:0:
192,192,110653,1,0,0:0:0:0:
448,192,110739,1,0,0:0:0:0:
64,192,110739,1,0,0:0:0:0:
320,192,110825,1,0,0:0:0:0:
64,192,110910,1,0,0:0:0:0:
448,192,110910,1,0,0:0:0:0:
192,192,110953,1,0,0:0:0:0:
320,192,110996,1,0,0:0:0:0:
64,192,111039,1,0,0:0:0:0:
448,192,111082,1,0,0:0:0:0:
192,192,111125,1,0,0:0:0:0:
320,192,111168,1,0,0:0:0:0:
64,192,111210,1,0,0:0:0:0:
192,192,111253,1,0,0:0:0:0:
448,192,111253,1,0,0:0:0:0:
320,192,111339,1,0,0:0:0:0:
64,192,111339,1,0,0:0:0:0:
192,192,111425,1,0,0:0:0:0:
448,192,111510,1,0,0:0:0:0:
320,192,111510,1,0,0:0:0:0:
448,192,111596,1,0,0:0:0:0:
192,192,111596,1,0,0:0:0:0:
64,192,111596,1,0,0:0:0:0:
320,192,111682,1,0,0:0:0:0:
64,192,111768,1,0,0:0:0:0:
192,192,111768,1,0,0:0:0:0:
448,192,111853,1,0,0:0:0:0:
64,192,111853,1,0,0:0:0:0:
448,192,111939,1,0,0:0:0:0:
320,192,111939,1,0,0:0:0:0:
192,192,111939,1,0,0:0:0:0:
320,192,112025,1,0,0:0:0:0:
192,192,112110,1,0,0:0:0:0:
64,192,112110,1,0,0:0:0:0:
320,192,112153,1,0,0:0:0:0:
192,192,112196,1,0,0:0:0:0:
320,192,112239,1,0,0:0:0:0:
64,192,112282,1,0,0:0:0:0:
448,192,112282,1,0,0:0:0:0:
448,192,112368,1,0,0:0:0:0:
320,192,112368,1,0,0:0:0:0:
192,192,112453,1,0,0:0:0:0:
64,192,112453,1,0,0:0:0:0:
448,192,112539,1,0,0:0:0:0:
64,192,112539,1,0,0:0:0:0:
448,192,112625,1,0,0:0:0:0:
320,192,112625,1,0,0:0:0:0:
192,192,112625,1,0,0:0:0:0:
64,192,112710,1,0,0:0:0:0:
320,192,112710,1,0,0:0:0:0:
192,192,112796,1,0,0:0:0:0:
320,192,112882,1,0,0:0:0:0:
448,192,112882,1,0,0:0:0:0:
64,192,112968,1,0,0:0:0:0:
192,192,112968,1,0,0:0:0:0:
448,192,112968,1,0,0:0:0:0:
320,192,113053,1,0,0:0:0:0:
64,192,113139,1,0,0:0:0:0:
192,192,113139,1,0,0:0:0:0:
64,192,113225,1,0,0:0:0:0:
448,192,113225,1,0,0:0:0:0:
192,192,113310,1,0,0:0:0:0:
320,192,113310,1,0,0:0:0:0:
448,192,113310,1,0,0:0:0:0:
320,192,113396,1,0,0:0:0:0:
64,192,113396,1,0,0:0:0:0:
64,192,113482,1,0,0:0:0:0:
192,192,113482,1,0,0:0:0:0:
320,192,113568,1,0,0:0:0:0:
64,192,113653,1,0,0:0:0:0:
448,192,113653,1,0,0:0:0:0:
192,192,113696,1,0,0:0:0:0:
320,192,113739,1,0,0:0:0:0:
64,192,113782,1,0,0:0:0:0:
448,192,113825,1,0,0:0:0:0:
192,192,113868,1,0,0:0:0:0:
320,192,113910,1,0,0:0:0:0:
448,192,113953,1,0,0:0:0:0:
64,192,113996,1,0,0:0:0:0:
192,192,113996,1,0,0:0:0:0:
64,192,114082,1,0,0:0:0:0:
192,192,114082,1,0,0:0:0:0:
320,192,114168,1,0,0:0:0:0:
64,192,114253,1,0,0:0:0:0:
448,192,114253,1,0,0:0:0:0:
64,192,114339,1,0,0:0:0:0:
192,192,114339,1,0,0:0:0:0:
320,192,114339,1,0,0:0:0:0:
448,192,114425,1,0,0:0:0:0:
192,192,114510,1,0,0:0:0:0:
320,192,114510,1,0,0:0:0:0:
64,192,114596,1,0,0:0:0:0:
320,192,114596,1,0,0:0:0:0:
192,192,114682,1,0,0:0:0:0:
448,192,114682,1,0,0:0:0:0:
64,192,114682,1,0,0:0:0:0:
320,192,114768,1,0,0:0:0:0:
448,192,114768,1,0,0:0:0:0:
64,192,114853,1,0,0:0:0:0:
192,192,114853,1,0,0:0:0:0:
448,192,114939,1,0,0:0:0:0:
320,192,115025,1,0,0:0:0:0:
64,192,115025,1,0,0:0:0:0:
192,192,115025,1,0,0:0:0:0:
448,192,115082,1,0,0:0:0:0:
64,192,115139,1,0,0:0:0:0:
448,192,115196,1,0,0:0:0:0:
64,192,115253,1,0,0:0:0:0:
320,192,115310,1,0,0:0:0:0:
448,192,115368,1,0,0:0:0:0:
64,192,115368,1,0,0:0:0:0:
192,192,115453,1,0,0:0:0:0:
448,192,115453,1,0,0:0:0:0:
320,192,115539,1,0,0:0:0:0:
64,192,115625,1,0,0:0:0:0:
192,192,115625,1,0,0:0:0:0:
64,192,115710,1,0,0:0:0:0:
320,192,115710,1,0,0:0:0:0:
448,192,115710,1,0,0:0:0:0:
192,192,115796,1,0,0:0:0:0:
448,192,115882,1,0,0:0:0:0:
320,192,115882,1,0,0:0:0:0:
192,192,115968,1,0,0:0:0:0:
448,192,115968,1,0,0:0:0:0:
64,192,116053,1,0,0:0:0:0:
192,192,116053,1,0,0:0:0:0:
320,192,116053,1,0,0:0:0:0:
64,192,116139,1,0,0:0:0:0:
448,192,116139,1,0,0:0:0:0:
192,192,116225,1,0,0:0:0:0:
448,192,116225,1,0,0:0:0:0:
320,192,116310,1,0,0:0:0:0:
64,192,116396,1,0,0:0:0:0:
448,192,116396,1,0,0:0:0:0:
320,192,116439,1,0,0:0:0:0:
192,192,116482,1,0,0:0:0:0:
448,192,116525,1,0,0:0:0:0:
64,192,116568,1,0,0:0:0:0:
320,192,116610,1,0,0:0:0:0:
192,192,116653,1,0,0:0:0:0:
448,192,116696,1,0,0:0:0:0:
64,192,116739,1,0,0:0:0:0:
320,192,116739,1,0,0:0:0:0:
64,192,116825,1,0,0:0:0:0:
192,192,116825,1,0,0:0:0:0:
448,192,116910,1,0,0:0:0:0:
192,192,116996,1,0,0:0:0:0:
320,192,116996,1,0,0:0:0:0:
320,192,117082,1,0,0:0:0:0:
448,192,117082,1,0,0:0:0:0:
64,192,117082,1,0,0:0:0:0:
192,192,117168,1,0,0:0:0:0:
64,192,117253,1,0,0:0:0:0:
320,192,117253,1,0,0:0:0:0:
64,192,117339,1,0,0:0:0:0:
448,192,117339,1,0,0:0:0:0:
192,192,117425,1,0,0:0:0:0:
320,192,117425,1,0,0:0:0:0:
448,192,117425,1,0,0:0:0:0:
320,192,117510,1,0,0:0:0:0:
64,192,117510,1,0,0:0:0:0:
448,192,117596,1,0,0:0:0:0:
192,192,117596,1,0,0:0:0:0:
64,192,117682,1,0,0:0:0:0:
192,192,117768,1,0,0:0:0:0:
448,192,117768,1,0,0:0:0:0:
320,192,117768,1,0,0:0:0:0:
64,192,117825,1,0,0:0:0:0:
448,192,117882,1,0,0:0:0:0:
64,192,117939,1,0,0:0:0:0:
320,192,117996,1,0,0:0:0:0:
192,192,118053,1,0,0:0:0:0:
448,192,118110,1,0,0:0:0:0:
64,192,118110,1,0,0:0:0:0:
320,192,118110,1,0,0:0:0:0:
448,192,118196,1,0,0:0:0:0:
192,192,118282,1,0,0:0:0:0:
64,192,118282,1,0,0:0:0:0:
320,192,118282,1,0,0:0:0:0:
64,192,118368,1,0,0:0:0:0:
448,192,118453,1,0,0:0:0:0:
320,192,118453,1,0,0:0:0:0:
192,192,118453,1,0,0:0:0:0:
448,192,118625,1,0,0:0:0:0:
192,192,118625,1,0,0:0:0:0:
448,192,118710,1,0,0:0:0:0:
64,192,118710,1,0,0:0:0:0:
320,192,118796,1,0,0:0:0:0:
192,192,118796,1,0,0:0:0:0:
64,192,118796,1,0,0:0:0:0:
320,192,118882,1,0,0:0:0:0:
192,192,118968,1,0,0:0:0:0:
64,192,118968,1,0,0:0:0:0:
448,192,118968,1,0,0:0:0:0:
192,192,119053,1,0,0:0:0:0:
448,192,119139,1,0,0:0:0:0:
320,192,119139,1,0,0:0:0:0:
64,192,119139,1,0,0:0:0:0:
64,192,119310,1,0,0:0:0:0:
320,192,119310,1,0,0:0:0:0:
192,192,119353,1,0,0:0:0:0:
448,192,119396,1,0,0:0:0:0:
320,192,119439,1,0,0:0:0:0:
448,192,119482,1,0,0:0:0:0:
192,192,119482,1,0,0:0:0:0:
64,192,119482,1,0,0:0:0:0:
64,192,119568,1,0,0:0:0:0:
448,192,119653,1,0,0:0:0:0:
320,192,119653,1,0,0:0:0:0:
192,192,119653,1,0,0:0:0:0:
448,192,119739,1,0,0:0:0:0:
320,192,119825,1,0,0:0:0:0:
192,192,119825,1,0,0:0:0:0:
64,192,119825,1,0,0:0:0:0:
448,192,119996,1,0,0:0:0:0:
192,192,119996,1,0,0:0:0:0:
448,192,120082,1,0,0:0:0:0:
64,192,120082,1,0,0:0:0:0:
320,192,120168,1,0,0:0:0:0:
192,192,120168,1,0,0:0:0:0:
64,192,120168,1,0,0:0:0:0:
192,192,120253,1,0,0:0:0:0:
448,192,120339,1,0,0:0:0:0:
320,192,120339,1,0,0:0:0:0:
64,192,120339,1,0,0:0:0:0:
320,192,120425,1,0,0:0:0:0:
448,192,120510,1,0,0:0:0:0:
192,192,120510,1,0,0:0:0:0:
64,192,120510,1,0,0:0:0:0:
64,192,120596,1,0,0:0:0:0:
64,192,120682,1,0,0:0:0:0:
64,192,120768,1,0,0:0:0:0:
448,192,120853,1,0,0:0:0:0:
320,192,120853,1,0,0:0:0:0:
192,192,120853,1,0,0:0:0:0:
64,192,120939,1,0,0:0:0:0:
448,192,121025,1,0,0:0:0:0:
192,192,121110,1,0,0:0:0:0:
320,192,121196,1,0,0:0:0:0:
64,192,121282,1,0,0:0:0:0:
320,192,121368,1,0,0:0:0:0:
192,192,121453,1,0,0:0:0:0:
448,192,121539,1,0,0:0:0:0:
192,192,121625,1,0,0:0:0:0:
320,192,121710,1,0,0:0:0:0:
64,192,121796,1,0,0:0:0:0:
448,192,121882,1,0,0:0:0:0:
192,192,121968,1,0,0:0:0:0:
448,192,122053,1,0,0:0:0:0:
64,192,122139,1,0,0:0:0:0:
320,192,122225,1,0,0:0:0:0:
64,192,122310,1,0,0:0:0:0:
448,192,122396,1,0,0:0:0:0:
192,192,122482,1,0,0:0:0:0:
448,192,122568,1,0,0:0:0:0:
64,192,122653,1,0,0:0:0:0:
320,192,122739,1,0,0:0:0:0:
448,192,122768,1,0,0:0:0:0:
192,192,122796,1,0,0:0:0:0:
64,192,122825,1,0,0:0:0:0:
320,192,122868,1,0,0:0:0:0:
448,192,122910,1,0,0:0:0:0:
192,192,122953,1,0,0:0:0:0:
64,192,122996,1,0,0:0:0:0:
320,192,123039,1,0,0:0:0:0:
448,192,123082,1,0,0:0:0:0:
192,192,123125,1,0,0:0:0:0:
64,192,123168,1,0,0:0:0:0:
320,192,123210,1,0,0:0:0:0:
448,192,123253,1,0,0:0:0:0:
192,192,123339,1,0,0:0:0:0:
448,192,123339,1,0,0:0:0:0:
64,192,123425,1,0,0:0:0:0:
320,192,123425,1,0,0:0:0:0:
64,192,123510,1,0,0:0:0:0:
448,192,123510,1,0,0:0:0:0:
448,192,123596,1,0,0:0:0:0:
320,192,123596,1,0,0:0:0:0:
192,192,123596,1,0,0:0:0:0:
320,192,123682,1,0,0:0:0:0:
64,192,123682,1,0,0:0:0:0:
192,192,123768,1,0,0:0:0:0:
448,192,123853,1,0,0:0:0:0:
320,192,123853,1,0,0:0:0:0:
320,192,123939,1,0,0:0:0:0:
192,192,123939,1,0,0:0:0:0:
64,192,123939,1,0,0:0:0:0:
448,192,124025,1,0,0:0:0:0:
64,192,124025,1,0,0:0:0:0:
320,192,124110,1,0,0:0:0:0:
192,192,124196,1,0,0:0:0:0:
64,192,124196,1,0,0:0:0:0:
448,192,124282,1,0,0:0:0:0:
320,192,124282,1,0,0:0:0:0:
192,192,124282,1,0,0:0:0:0:
448,192,124368,1,0,0:0:0:0:
64,192,124368,1,0,0:0:0:0:
192,192,124453,1,0,0:0:0:0:
448,192,124539,1,0,0:0:0:0:
320,192,124539,1,0,0:0:0:0:
448,192,124625,1,0,0:0:0:0:
192,192,124625,1,0,0:0:0:0:
64,192,124625,1,0,0:0:0:0:
64,192,124710,1,0,0:0:0:0:
320,192,124710,1,0,0:0:0:0:
448,192,124796,1,0,0:0:0:0:
192,192,124882,1,0,0:0:0:0:
64,192,124882,1,0,0:0:0:0:
448,192,124968,1,0,0:0:0:0:
320,192,124968,1,0,0:0:0:0:
192,192,124968,1,0,0:0:0:0:
320,192,125053,1,0,0:0:0:0:
64,192,125053,1,0,0:0:0:0:
192,192,125139,1,0,0:0:0:0:
448,192,125225,1,0,0:0:0:0:
320,192,125225,1,0,0:0:0:0:
448,192,125310,1,0,0:0:0:0:
64,192,125310,1,0,0:0:0:0:
192,192,125310,1,0,0:0:0:0:
320,192,125396,1,0,0:0:0:0:
64,192,125396,1,0,0:0:0:0:
448,192,125482,1,0,0:0:0:0:
192,192,125568,1,0,0:0:0:0:
64,192,125568,1,0,0:0:0:0:
64,192,125653,1,0,0:0:0:0:
320,192,125653,1,0,0:0:0:0:
448,192,125653,1,0,0:0:0:0:
192,192,125739,1,0,0:0:0:0:
320,192,125739,1,0,0:0:0:0:
64,192,125825,1,0,0:0:0:0:
448,192,125910,1,0,0:0:0:0:
320,192,125910,1,0,0:0:0:0:
64,192,125996,1,0,0:0:0:0:
448,192,125996,1,0,0:0:0:0:
192,192,125996,1,0,0:0:0:0:
320,192,126082,1,0,0:0:0:0:
192,192,126082,1,0,0:0:0:0:
448,192,126168,1,0,0:0:0:0:
64,192,126253,1,0,0:0:0:0:
192,192,126253,1,0,0:0:0:0:
64,192,126339,1,0,0:0:0:0:
320,192,126339,1,0,0:0:0:0:
448,192,126339,1,0,0:0:0:0:
320,192,126425,1,0,0:0:0:0:
192,192,126425,1,0,0:0:0:0:
64,192,126510,1,0,0:0:0:0:
448,192,126596,1,0,0:0:0:0:
320,192,126596,1,0,0:0:0:0:
448,192,126682,1,0,0:0:0:0:
192,192,126682,1,0,0:0:0:0:
64,192,126682,1,0,0:0:0:0:
320,192,126768,1,0,0:0:0:0:
192,192,126768,1,0,0:0:0:0:
448,192,126853,1,0,0:0:0:0:
192,192,126939,1,0,0:0:0:0:
64,192,126939,1,0,0:0:0:0:
448,192,127025,1,0,0:0:0:0:
320,192,127025,1,0,0:0:0:0:
64,192,127025,1,0,0:0:0:0:
192,192,127110,1,0,0:0:0:0:
448,192,127110,1,0,0:0:0:0:
64,192,127196,1,0,0:0:0:0:
448,192,127282,1,0,0:0:0:0:
320,192,127282,1,0,0:0:0:0:
192,192,127368,1,0,0:0:0:0:
64,192,127368,1,0,0:0:0:0:
320,192,127368,1,0,0:0:0:0:
448,192,127453,1,0,0:0:0:0:
64,192,127453,1,0,0:0:0:0:
320,192,127539,1,0,0:0:0:0:
192,192,127625,1,0,0:0:0:0:
64,192,127625,1,0,0:0:0:0:
448,192,127710,1,0,0:0:0:0:
320,192,127710,1,0,0:0:0:0:
192,192,127710,1,0,0:0:0:0:
320,192,127796,1,0,0:0:0:0:
64,192,127796,1,0,0:0:0:0:
192,192,127882,1,0,0:0:0:0:
448,192,127968,1,0,0:0:0:0:
320,192,127968,1,0,0:0:0:0:
192,192,128053,1,0,0:0:0:0:
64,192,128053,1,0,0:0:0:0:
448,192,128053,1,0,0:0:0:0:
320,192,128139,1,0,0:0:0:0:
64,192,128139,1,0,0:0:0:0:
448,192,128225,1,0,0:0:0:0:
192,192,128310,1,0,0:0:0:0:
64,192,128310,1,0,0:0:0:0:
448,192,128396,1,0,0:0:0:0:
320,192,128396,1,0,0:0:0:0:
64,192,128396,1,0,0:0:0:0:
448,192,128482,1,0,0:0:0:0:
192,192,128482,1,0,0:0:0:0:
64,192,128568,1,0,0:0:0:0:
448,192,128653,1,0,0:0:0:0:
320,192,128653,1,0,0:0:0:0:
192,192,128739,1,0,0:0:0:0:
64,192,128739,1,0,0:0:0:0:
320,192,128739,1,0,0:0:0:0:
448,192,128825,1,0,0:0:0:0:
64,192,128825,1,0,0:0:0:0:
320,192,128910,1,0,0:0:0:0:
192,192,128996,1,0,0:0:0:0:
64,192,128996,1,0,0:0:0:0:
448,192,129082,1,0,0:0:0:0:
64,192,129082,1,0,0:0:0:0:
320,192,129125,1,0,0:0:0:0:
192,192,129168,1,0,0:0:0:0:
64,192,129210,1,0,0:0:0:0:
448,192,129253,1,0,0:0:0:0:
320,192,129253,1,0,0:0:0:0:
192,192,129296,1,0,0:0:0:0:
64,192,129339,1,0,0:0:0:0:
320,192,129382,1,0,0:0:0:0:
448,192,129425,1,0,0:0:0:0:
64,192,129425,1,0,0:0:0:0:
448,192,129510,1,0,0:0:0:0:
448,192,129596,1,0,0:0:0:0:
448,192,129682,1,0,0:0:0:0:
320,192,129768,1,0,0:0:0:0:
192,192,129768,1,0,0:0:0:0:
64,192,129768,128,0,129939:0:0:0:0:
320,192,129853,1,0,0:0:0:0:
448,192,129939,1,0,0:0:0:0:
64,192,130025,128,0,130196:0:0:0:0:
192,192,130025,1,0,0:0:0:0:
448,192,130110,1,0,0:0:0:0:
320,192,130110,1,0,0:0:0:0:
448,192,130196,1,0,0:0:0:0:
64,192,130282,128,0,130453:0:0:0:0:
192,192,130282,1,0,0:0:0:0:
448,192,130368,1,0,0:0:0:0:
320,192,130453,1,0,0:0:0:0:
192,192,130453,1,0,0:0:0:0:
192,192,130539,1,0,0:0:0:0:
320,192,130625,1,0,0:0:0:0:
192,192,130710,1,0,0:0:0:0:
448,192,130796,1,0,0:0:0:0:
64,192,130796,1,0,0:0:0:0:
320,192,130796,1,0,0:0:0:0:
320,192,130882,1,0,0:0:0:0:
192,192,130968,1,0,0:0:0:0:
192,192,131053,1,0,0:0:0:0:
64,192,131139,128,0,131225:0:0:0:0:
320,192,131139,128,0,131225:0:0:0:0:
448,192,131139,128,0,131225:0:0:0:0:
192,192,131225,128,0,131310:0:0:0:0:
320,192,131310,128,0,131396:0:0:0:0:
448,192,131310,128,0,131396:0:0:0:0:
192,192,131396,128,0,131482:0:0:0:0:
64,192,131482,128,0,131568:0:0:0:0:
448,192,131482,128,0,131568:0:0:0:0:
320,192,131482,128,0,131568:0:0:0:0:
192,192,131568,128,0,131653:0:0:0:0:
64,192,131653,128,0,131739:0:0:0:0:
448,192,131653,128,0,131739:0:0:0:0:
320,192,131739,128,0,131825:0:0:0:0:
192,192,131825,128,0,131910:0:0:0:0:
64,192,131825,128,0,131910:0:0:0:0:
448,192,131825,128,0,131910:0:0:0:0:
320,192,131910,128,0,131996:0:0:0:0:
448,192,131996,128,0,132082:0:0:0:0:
64,192,131996,1,0,0:0:0:0:
192,192,132039,1,0,0:0:0:0:
320,192,132082,1,0,0:0:0:0:
64,192,132125,1,0,0:0:0:0:
192,192,132168,1,0,0:0:0:0:
448,192,132168,128,0,132339:0:0:0:0:
192,192,132253,1,0,0:0:0:0:
320,192,132339,1,0,0:0:0:0:
64,192,132339,128,0,132510:0:0:0:0:
320,192,132425,1,0,0:0:0:0:
192,192,132510,128,0,132682:0:0:0:0:
448,192,132510,1,0,0:0:0:0:
448,192,132596,1,0,0:0:0:0:
64,192,132682,1,0,0:0:0:0:
320,192,132682,128,0,132853:0:0:0:0:
64,192,132768,1,0,0:0:0:0:
448,192,132853,128,0,133025:0:0:0:0:
192,192,132853,1,0,0:0:0:0:
192,192,132939,1,0,0:0:0:0:
320,192,133025,1,0,0:0:0:0:
64,192,133025,1,0,0:0:0:0:
64,192,133110,1,0,0:0:0:0:
192,192,133196,1,0,0:0:0:0:
448,192,133196,1,0,0:0:0:0:
448,192,133282,1,0,0:0:0:0:
320,192,133368,1,0,0:0:0:0:
64,192,133368,1,0,0:0:0:0:
192,192,133410,1,0,0:0:0:0:
320,192,133453,1,0,0:0:0:0:
64,192,133496,1,0,0:0:0:0:
192,192,133539,1,0,0:0:0:0:
448,192,133539,1,0,0:0:0:0:
448,192,133625,1,0,0:0:0:0:
64,192,133710,1,0,0:0:0:0:
192,192,133710,1,0,0:0:0:0:
320,192,133753,1,0,0:0:0:0:
448,192,133796,1,0,0:0:0:0:
64,192,133839,1,0,0:0:0:0:
192,192,133882,1,0,0:0:0:0:
320,192,133882,1,0,0:0:0:0:
448,192,133925,1,0,0:0:0:0:
64,192,133968,1,0,0:0:0:0:
192,192,133968,1,0,0:0:0:0:
448,192,134053,1,0,0:0:0:0:
320,192,134053,1,0,0:0:0:0:
192,192,134139,1,0,0:0:0:0:
64,192,134139,1,0,0:0:0:0:
192,192,134225,1,0,0:0:0:0:
448,192,134225,128,0,134568:0:0:0:0:
320,192,134568,1,0,0:0:0:0:
192,192,134568,1,0,0:0:0:0:
64,192,134568,1,0,0:0:0:0:
192,192,134653,1,0,0:0:0:0:
448,192,134653,1,0,0:0:0:0:
320,192,134739,1,0,0:0:0:0:
64,192,134825,1,0,0:0:0:0:
192,192,134825,1,0,0:0:0:0:
64,192,134910,1,0,0:0:0:0:
320,192,134910,1,0,0:0:0:0:
448,192,134910,1,0,0:0:0:0:
192,192,134996,1,0,0:0:0:0:
448,192,134996,1,0,0:0:0:0:
64,192,135082,1,0,0:0:0:0:
320,192,135168,1,0,0:0:0:0:
448,192,135168,1,0,0:0:0:0:
64,192,135253,1,0,0:0:0:0:
192,192,135253,1,0,0:0:0:0:
320,192,135253,1,0,0:0:0:0:
192,192,135339,1,0,0:0:0:0:
448,192,135339,1,0,0:0:0:0:
320,192,135425,1,0,0:0:0:0:
64,192,135510,1,0,0:0:0:0:
192,192,135510,1,0,0:0:0:0:
64,192,135596,1,0,0:0:0:0:
320,192,135596,1,0,0:0:0:0:
448,192,135596,1,0,0:0:0:0:
448,192,135682,1,0,0:0:0:0:
192,192,135682,1,0,0:0:0:0:
64,192,135768,1,0,0:0:0:0:
320,192,135853,1,0,0:0:0:0:
448,192,135853,1,0,0:0:0:0:
64,192,135939,1,0,0:0:0:0:
192,192,135939,1,0,0:0:0:0:
320,192,135939,1,0,0:0:0:0:
192,192,136025,1,0,0:0:0:0:
448,192,136025,1,0,0:0:0:0:
320,192,136110,1,0,0:0:0:0:
64,192,136196,1,0,0:0:0:0:
192,192,136196,1,0,0:0:0:0:
64,192,136282,1,0,0:0:0:0:
448,192,136282,1,0,0:0:0:0:
320,192,136282,1,0,0:0:0:0:
192,192,136368,1,0,0:0:0:0:
448,192,136368,1,0,0:0:0:0:
64,192,136453,1,0,0:0:0:0:
320,192,136539,1,0,0:0:0:0:
448,192,136539,1,0,0:0:0:0:
448,192,136625,1,0,0:0:0:0:
192,192,136625,1,0,0:0:0:0:
64,192,136625,1,0,0:0:0:0:
320,192,136710,1,0,0:0:0:0:
192,192,136710,1,0,0:0:0:0:
448,192,136796,1,0,0:0:0:0:
64,192,136882,1,0,0:0:0:0:
192,192,136882,1,0,0:0:0:0:
448,192,136968,1,0,0:0:0:0:
64,192,136968,1,0,0:0:0:0:
320,192,136968,1,0,0:0:0:0:
192,192,137053,1,0,0:0:0:0:
320,192,137053,1,0,0:0:0:0:
64,192,137139,1,0,0:0:0:0:
448,192,137225,1,0,0:0:0:0:
320,192,137225,1,0,0:0:0:0:
448,192,137310,1,0,0:0:0:0:
192,192,137310,1,0,0:0:0:0:
64,192,137310,1,0,0:0:0:0:
64,192,137396,1,0,0:0:0:0:
320,192,137396,1,0,0:0:0:0:
448,192,137482,1,0,0:0:0:0:
64,192,137568,1,0,0:0:0:0:
192,192,137568,1,0,0:0:0:0:
192,192,137653,1,0,0:0:0:0:
320,192,137653,1,0,0:0:0:0:
448,192,137653,1,0,0:0:0:0:
64,192,137739,1,0,0:0:0:0:
320,192,137739,1,0,0:0:0:0:
192,192,137825,1,0,0:0:0:0:
320,192,137910,1,0,0:0:0:0:
448,192,137910,1,0,0:0:0:0:
64,192,137996,1,0,0:0:0:0:
192,192,137996,1,0,0:0:0:0:
448,192,137996,1,0,0:0:0:0:
320,192,138082,1,0,0:0:0:0:
64,192,138082,1,0,0:0:0:0:
448,192,138168,1,0,0:0:0:0:
64,192,138253,1,0,0:0:0:0:
192,192,138253,1,0,0:0:0:0:
320,192,138339,1,0,0:0:0:0:
448,192,138339,1,0,0:0:0:0:
192,192,138339,1,0,0:0:0:0:
64,192,138425,1,0,0:0:0:0:
448,192,138425,1,0,0:0:0:0:
192,192,138510,1,0,0:0:0:0:
320,192,138596,1,0,0:0:0:0:
448,192,138596,1,0,0:0:0:0:
64,192,138682,1,0,0:0:0:0:
192,192,138682,1,0,0:0:0:0:
320,192,138682,1,0,0:0:0:0:
64,192,138768,1,0,0:0:0:0:
448,192,138768,1,0,0:0:0:0:
320,192,138853,1,0,0:0:0:0:
64,192,138939,1,0,0:0:0:0:
192,192,138939,1,0,0:0:0:0:
320,192,139025,1,0,0:0:0:0:
448,192,139025,1,0,0:0:0:0:
192,192,139025,1,0,0:0:0:0:
64,192,139110,1,0,0:0:0:0:
448,192,139110,1,0,0:0:0:0:
192,192,139196,1,0,0:0:0:0:
320,192,139282,1,0,0:0:0:0:
448,192,139282,1,0,0:0:0:0:
64,192,139368,1,0,0:0:0:0:
192,192,139368,1,0,0:0:0:0:
448,192,139368,1,0,0:0:0:0:
64,192,139453,1,0,0:0:0:0:
320,192,139453,1,0,0:0:0:0:
448,192,139539,1,0,0:0:0:0:
64,192,139625,1,0,0:0:0:0:
192,192,139625,1,0,0:0:0:0:
320,192,139710,1,0,0:0:0:0:
448,192,139710,1,0,0:0:0:0:
192,192,139710,1,0,0:0:0:0:
64,192,139796,1,0,0:0:0:0:
448,192,139796,1,0,0:0:0:0:
192,192,139882,1,0,0:0:0:0:
320,192,139968,1,0,0:0:0:0:
448,192,139968,1,0,0:0:0:0:
64,192,140053,1,0,0:0:0:0:
448,192,140053,1,0,0:0:0:0:
192,192,140096,1,0,0:0:0:0:
320,192,140139,1,0,0:0:0:0:
448,192,140182,1,0,0:0:0:0:
64,192,140225,1,0,0:0:0:0:
192,192,140225,1,0,0:0:0:0:
320,192,140268,1,0,0:0:0:0:
448,192,140310,1,0,0:0:0:0:
192,192,140353,1,0,0:0:0:0:
64,192,140396,1,0,0:0:0:0:
448,192,140396,1,0,0:0:0:0:
64,192,140482,1,0,0:0:0:0:
64,192,140568,1,0,0:0:0:0:
64,192,140653,1,0,0:0:0:0:
192,192,140739,1,0,0:0:0:0:
320,192,140739,1,0,0:0:0:0:
448,192,140739,128,0,140910:0:0:0:0:
192,192,140825,1,0,0:0:0:0:
64,192,140910,1,0,0:0:0:0:
448,192,140996,128,0,141168:0:0:0:0:
320,192,140996,1,0,0:0:0:0:
64,192,141082,1,0,0:0:0:0:
192,192,141082,1,0,0:0:0:0:
64,192,141168,1,0,0:0:0:0:
448,192,141253,128,0,141425:0:0:0:0:
320,192,141253,1,0,0:0:0:0:
64,192,141339,1,0,0:0:0:0:
192,192,141425,1,0,0:0:0:0:
320,192,141425,1,0,0:0:0:0:
320,192,141510,1,0,0:0:0:0:
192,192,141596,1,0,0:0:0:0:
320,192,141682,1,0,0:0:0:0:
64,192,141768,1,0,0:0:0:0:
448,192,141768,1,0,0:0:0:0:
192,192,141768,1,0,0:0:0:0:
64,192,141853,1,0,0:0:0:0:
320,192,141939,1,0,0:0:0:0:
64,192,142025,1,0,0:0:0:0:
448,192,142110,128,0,142196:0:0:0:0:
192,192,142110,128,0,142196:0:0:0:0:
64,192,142110,128,0,142196:0:0:0:0:
320,192,142196,128,0,142282:0:0:0:0:
192,192,142282,128,0,142368:0:0:0:0:
64,192,142282,128,0,142368:0:0:0:0:
320,192,142368,128,0,142453:0:0:0:0:
448,192,142453,128,0,142539:0:0:0:0:
64,192,142453,128,0,142539:0:0:0:0:
192,192,142453,128,0,142539:0:0:0:0:
320,192,142539,128,0,142625:0:0:0:0:
448,192,142625,128,0,142710:0:0:0:0:
64,192,142625,128,0,142710:0:0:0:0:
192,192,142710,128,0,142796:0:0:0:0:
320,192,142796,128,0,142882:0:0:0:0:
448,192,142796,128,0,142882:0:0:0:0:
64,192,142796,128,0,143053:0:0:0:0:
192,192,142882,128,0,142968:0:0:0:0:
448,192,142968,128,0,143053:0:0:0:0:
320,192,142968,128,0,143053:0:0:0:0:
192,192,143053,128,0,143139:0:0:0:0:
448,192,143139,128,0,143225:0:0:0:0:
320,192,143139,128,0,143225:0:0:0:0:
64,192,143139,128,0,143310:0:0:0:0:
192,192,143225,128,0,143396:0:0:0:0:
448,192,143310,128,0,143396:0:0:0:0:
320,192,143310,128,0,143396:0:0:0:0:
64,192,143396,128,0,143482:0:0:0:0:
448,192,143482,128,0,143568:0:0:0:0:
320,192,143482,128,0,143568:0:0:0:0:
192,192,143482,128,0,143653:0:0:0:0:
64,192,143568,128,0,143739:0:0:0:0:
448,192,143653,128,0,143739:0:0:0:0:
320,192,143653,128,0,143739:0:0:0:0:
192,192,143739,128,0,143825:0:0:0:0:
448,192,143825,128,0,143910:0:0:0:0:
320,192,143825,128,0,143910:0:0:0:0:
64,192,143825,128,0,143996:0:0:0:0:
192,192,143910,128,0,144082:0:0:0:0:
448,192,143996,128,0,144082:0:0:0:0:
320,192,143996,128,0,144082:0:0:0:0:
64,192,144082,128,0,144168:0:0:0:0:
448,192,144168,1,0,0:0:0:0:
320,192,144168,1,0,0:0:0:0:
192,192,144168,1,0,0:0:0:0:
448,192,144253,1,0,0:0:0:0:
320,192,144253,1,0,0:0:0:0:
192,192,144339,1,0,0:0:0:0:
64,192,144339,1,0,0:0:0:0:
64,192,144425,1,0,0:0:0:0:
320,192,144425,1,0,0:0:0:0:
448,192,144510,1,0,0:0:0:0:
320,192,144510,1,0,0:0:0:0:
192,192,144510,1,0,0:0:0:0:
448,192,144596,1,0,0:0:0:0:
64,192,144596,1,0,0:0:0:0:
320,192,144682,1,0,0:0:0:0:
192,192,144682,1,0,0:0:0:0:
320,192,144768,1,0,0:0:0:0:
192,192,144768,1,0,0:0:0:0:
448,192,144853,1,0,0:0:0:0:
64,192,144853,1,0,0:0:0:0:
448,192,145110,1,0,0:0:0:0:
64,192,145110,1,0,0:0:0:0:
448,192,145368,1,0,0:0:0:0:
64,192,145368,1,0,0:0:0:0:
448,192,145539,1,0,0:0:0:0:
320,192,145539,1,0,0:0:0:0:
192,192,145539,1,0,0:0:0:0:
64,192,145539,1,0,0:0:0:0:
448,192,145625,1,0,0:0:0:0:
320,192,145625,1,0,0:0:0:0:
192,192,145710,1,0,0:0:0:0:
448,192,145796,1,0,0:0:0:0:
64,192,145882,1,0,0:0:0:0:
320,192,145968,1,0,0:0:0:0:
64,192,146053,1,0,0:0:0:0:
320,192,146139,1,0,0:0:0:0:
192,192,146225,1,0,0:0:0:0:
448,192,146310,1,0,0:0:0:0:
192,192,146396,1,0,0:0:0:0:
448,192,146482,1,0,0:0:0:0:
64,192,146568,1,0,0:0:0:0:
320,192,146653,1,0,0:0:0:0:
192,192,146739,1,0,0:0:0:0:
448,192,146825,1,0,0:0:0:0:
64,192,146910,1,0,0:0:0:0:
320,192,146996,1,0,0:0:0:0:
192,192,147082,1,0,0:0:0:0:
448,192,147168,1,0,0:0:0:0:
64,192,147253,1,0,0:0:0:0:
320,192,147339,1,0,0:0:0:0:
192,192,147425,1,0,0:0:0:0:
448,192,147510,1,0,0:0:0:0:
64,192,147596,1,0,0:0:0:0:
448,192,147682,1,0,0:0:0:0:
192,192,147768,1,0,0:0:0:0:
320,192,147853,1,0,0:0:0:0:
64,192,147939,1,0,0:0:0:0:
448,192,148025,1,0,0:0:0:0:
192,192,148110,1,0,0:0:0:0:
448,192,148196,1,0,0:0:0:0:
64,192,148282,1,0,0:0:0:0:
320,192,148368,1,0,0:0:0:0:
192,192,148453,1,0,0:0:0:0:
448,192,148539,1,0,0:0:0:0:
192,192,148625,1,0,0:0:0:0:
320,192,148710,1,0,0:0:0:0:
64,192,148796,1,0,0:0:0:0:
448,192,148882,1,0,0:0:0:0:
192,192,148968,1,0,0:0:0:0:
320,192,149053,1,0,0:0:0:0:
192,192,149139,1,0,0:0:0:0:
448,192,149225,1,0,0:0:0:0:
64,192,149310,1,0,0:0:0:0:
320,192,149396,1,0,0:0:0:0:
192,192,149482,1,0,0:0:0:0:
320,192,149568,1,0,0:0:0:0:
64,192,149653,1,0,0:0:0:0:
448,192,149739,1,0,0:0:0:0:
192,192,149825,1,0,0:0:0:0:
320,192,149910,1,0,0:0:0:0:
192,192,149996,1,0,0:0:0:0:
448,192,150082,1,0,0:0:0:0:
64,192,150168,1,0,0:0:0:0:
320,192,150253,1,0,0:0:0:0:
192,192,150339,1,0,0:0:0:0:
448,192,150425,1,0,0:0:0:0:
192,192,150510,1,0,0:0:0:0:
320,192,150596,1,0,0:0:0:0:
64,192,150682,1,0,0:0:0:0:
448,192,150768,1,0,0:0:0:0:
192,192,150853,1,0,0:0:0:0:
320,192,150939,1,0,0:0:0:0:
64,192,151025,1,0,0:0:0:0:
320,192,151110,1,0,0:0:0:0:
192,192,151196,1,0,0:0:0:0:
448,192,151282,1,0,0:0:0:0:
64,192,151368,1,0,0:0:0:0:
320,192,151453,1,0,0:0:0:0:
64,192,151539,1,0,0:0:0:0:
448,192,151625,1,0,0:0:0:0:
192,192,151710,1,0,0:0:0:0:
320,192,151796,1,0,0:0:0:0:
64,192,151882,1,0,0:0:0:0:
448,192,151968,1,0,0:0:0:0:
192,192,152053,1,0,0:0:0:0:
320,192,152139,1,0,0:0:0:0:
64,192,152225,1,0,0:0:0:0:
320,192,152310,1,0,0:0:0:0:
192,192,152396,1,0,0:0:0:0:
448,192,152482,1,0,0:0:0:0:
64,192,152568,1,0,0:0:0:0:
320,192,152653,1,0,0:0:0:0:
64,192,152739,1,0,0:0:0:0:
448,192,152825,1,0,0:0:0:0:
192,192,152910,1,0,0:0:0:0:
320,192,152996,1,0,0:0:0:0:
64,192,153082,1,0,0:0:0:0:
448,192,153168,1,0,0:0:0:0:
192,192,153253,1,0,0:0:0:0:
448,192,153339,1,0,0:0:0:0:
64,192,153425,1,0,0:0:0:0:
320,192,153510,1,0,0:0:0:0:
64,192,153596,1,0,0:0:0:0:
448,192,153682,1,0,0:0:0:0:
192,192,153768,1,0,0:0:0:0:
320,192,153853,1,0,0:0:0:0:
64,192,153939,1,0,0:0:0:0:
320,192,154025,1,0,0:0:0:0:
192,192,154110,1,0,0:0:0:0:
448,192,154196,1,0,0:0:0:0:
64,192,154282,1,0,0:0:0:0:
448,192,154368,1,0,0:0:0:0:
64,192,154453,1,0,0:0:0:0:
320,192,154539,1,0,0:0:0:0:
192,192,154625,1,0,0:0:0:0:
448,192,154710,1,0,0:0:0:0:
192,192,154796,1,0,0:0:0:0:
320,192,154882,1,0,0:0:0:0:
64,192,154968,1,0,0:0:0:0:
320,192,155053,1,0,0:0:0:0:
192,192,155139,1,0,0:0:0:0:
192,192,155225,1,0,0:0:0:0:
192,192,155310,1,0,0:0:0:0:
192,192,155396,1,0,0:0:0:0:
192,192,155589,1,0,0:0:0:0:
320,192,155760,1,0,0:0:0:0:
320,192,156018,1,0,0:0:0:0:
320,192,156253,1,0,0:0:0:0:
320,192,156339,1,0,0:0:0:0:
192,192,156396,1,0,0:0:0:0:
320,192,156453,1,0,0:0:0:0:
64,192,156510,1,0,0:0:0:0:
448,192,156510,1,0,0:0:0:0:
192,192,156568,1,0,0:0:0:0:
320,192,156625,1,0,0:0:0:0:
448,192,156625,1,0,0:0:0:0:
64,192,156682,1,0,0:0:0:0:
192,192,156739,1,0,0:0:0:0:
448,192,156739,1,0,0:0:0:0:
320,192,156796,1,0,0:0:0:0:
192,192,156853,1,0,0:0:0:0:
64,192,156853,1,0,0:0:0:0:
448,192,156910,1,0,0:0:0:0:
320,192,156968,1,0,0:0:0:0:
192,192,156968,1,0,0:0:0:0:
64,192,157025,1,0,0:0:0:0:
448,192,157082,1,0,0:0:0:0:
320,192,157082,1,0,0:0:0:0:
192,192,157139,1,0,0:0:0:0:
64,192,157196,1,0,0:0:0:0:
448,192,157196,1,0,0:0:0:0:
320,192,157253,1,0,0:0:0:0:
192,192,157310,1,0,0:0:0:0:
64,192,157310,1,0,0:0:0:0:
448,192,157368,1,0,0:0:0:0:
320,192,157425,1,0,0:0:0:0:
64,192,157425,1,0,0:0:0:0:
192,192,157482,1,0,0:0:0:0:
448,192,157539,1,0,0:0:0:0:
320,192,157539,1,0,0:0:0:0:
64,192,157596,1,0,0:0:0:0:
192,192,157653,1,0,0:0:0:0:
320,192,157653,1,0,0:0:0:0:
448,192,157710,1,0,0:0:0:0:
192,192,157768,1,0,0:0:0:0:
64,192,157768,1,0,0:0:0:0:
320,192,157825,1,0,0:0:0:0:
448,192,157882,1,0,0:0:0:0:
64,192,157882,1,0,0:0:0:0:
192,192,157925,1,0,0:0:0:0:
320,192,157968,1,0,0:0:0:0:
64,192,158010,1,0,0:0:0:0:
192,192,158053,1,0,0:0:0:0:
448,192,158096,1,0,0:0:0:0:
64,192,158139,1,0,0:0:0:0:
320,192,158182,1,0,0:0:0:0:
192,192,158225,1,0,0:0:0:0:
448,192,158268,1,0,0:0:0:0:
320,192,158310,1,0,0:0:0:0:
64,192,158353,1,0,0:0:0:0:
448,192,158396,1,0,0:0:0:0:
192,192,158439,1,0,0:0:0:0:
320,192,158482,1,0,0:0:0:0:
64,192,158525,1,0,0:0:0:0:
192,192,158568,1,0,0:0:0:0:
448,192,158610,1,0,0:0:0:0:
64,192,158653,1,0,0:0:0:0:
320,192,158696,1,0,0:0:0:0:
192,192,158739,1,0,0:0:0:0:
448,192,158782,1,0,0:0:0:0:
320,192,158825,1,0,0:0:0:0:
64,192,158868,1,0,0:0:0:0:
192,192,158910,1,0,0:0:0:0:
448,192,158953,1,0,0:0:0:0:
320,192,158996,1,0,0:0:0:0:
64,192,159039,1,0,0:0:0:0:
448,192,159082,1,0,0:0:0:0:
192,192,159125,1,0,0:0:0:0:
320,192,159168,1,0,0:0:0:0:
64,192,159210,1,0,0:0:0:0:
448,192,159253,1,0,0:0:0:0:
192,192,159296,1,0,0:0:0:0:
64,192,159339,1,0,0:0:0:0:
320,192,159382,1,0,0:0:0:0:
192,192,159425,1,0,0:0:0:0:
448,192,159468,1,0,0:0:0:0:
64,192,159510,1,0,0:0:0:0:
320,192,159553,1,0,0:0:0:0:
192,192,159596,1,0,0:0:0:0:
448,192,159639,1,0,0:0:0:0:
64,192,159682,1,0,0:0:0:0:
320,192,159725,1,0,0:0:0:0:
192,192,159768,1,0,0:0:0:0:
448,192,159810,1,0,0:0:0:0:
64,192,159853,1,0,0:0:0:0:
192,192,159896,1,0,0:0:0:0:
448,192,159939,1,0,0:0:0:0:
320,192,159982,1,0,0:0:0:0:
64,192,160025,1,0,0:0:0:0:
192,192,160068,1,0,0:0:0:0:
320,192,160110,1,0,0:0:0:0:
64,192,160153,1,0,0:0:0:0:
448,192,160196,1,0,0:0:0:0:
192,192,160239,1,0,0:0:0:0:
320,192,160282,1,0,0:0:0:0:
448,192,160325,1,0,0:0:0:0:
64,192,160368,1,0,0:0:0:0:
320,192,160410,1,0,0:0:0:0:
192,192,160453,1,0,0:0:0:0:
448,192,160496,1,0,0:0:0:0:
64,192,160539,1,0,0:0:0:0:
320,192,160582,1,0,0:0:0:0:
192,192,160625,1,0,0:0:0:0:
448,192,160668,1,0,0:0:0:0:
320,192,160710,1,0,0:0:0:0:
64,192,160753,1,0,0:0:0:0:
192,192,160796,1,0,0:0:0:0:
448,192,160839,1,0,0:0:0:0:
64,192,160882,1,0,0:0:0:0:
320,192,160925,1,0,0:0:0:0:
448,192,160968,1,0,0:0:0:0:
192,192,161010,1,0,0:0:0:0:
320,192,161053,1,0,0:0:0:0:
64,192,161096,1,0,0:0:0:0:
448,192,161139,1,0,0:0:0:0:
192,192,161182,1,0,0:0:0:0:
64,192,161225,1,0,0:0:0:0:
448,192,161268,1,0,0:0:0:0:
320,192,161310,1,0,0:0:0:0:
64,192,161353,1,0,0:0:0:0:
448,192,161396,1,0,0:0:0:0:
192,192,161439,1,0,0:0:0:0:
320,192,161482,1,0,0:0:0:0:
64,192,161525,1,0,0:0:0:0:
192,192,161568,1,0,0:0:0:0:
320,192,161610,1,0,0:0:0:0:
448,192,161653,1,0,0:0:0:0:
64,192,161696,1,0,0:0:0:0:
320,192,161739,1,0,0:0:0:0:
192,192,161782,1,0,0:0:0:0:
448,192,161825,1,0,0:0:0:0:
64,192,161868,1,0,0:0:0:0:
192,192,161910,1,0,0:0:0:0:
448,192,161953,1,0,0:0:0:0:
320,192,161996,1,0,0:0:0:0:
64,192,161996,1,0,0:0:0:0:
192,192,162039,1,0,0:0:0:0:
448,192,162082,1,0,0:0:0:0:
320,192,162125,1,0,0:0:0:0:
64,192,162168,1,0,0:0:0:0:
192,192,162210,1,0,0:0:0:0:
448,192,162253,1,0,0:0:0:0:
64,192,162296,1,0,0:0:0:0:
320,192,162339,1,0,0:0:0:0:
192,192,162339,1,0,0:0:0:0:
448,192,162382,1,0,0:0:0:0:
64,192,162425,1,0,0:0:0:0:
320,192,162468,1,0,0:0:0:0:
192,192,162510,1,0,0:0:0:0:
448,192,162553,1,0,0:0:0:0:
320,192,162596,1,0,0:0:0:0:
64,192,162639,1,0,0:0:0:0:
192,192,162682,1,0,0:0:0:0:
448,192,162682,1,0,0:0:0:0:
320,192,162725,1,0,0:0:0:0:
64,192,162768,1,0,0:0:0:0:
192,192,162810,1,0,0:0:0:0:
448,192,162853,1,0,0:0:0:0:
64,192,162896,1,0,0:0:0:0:
320,192,162939,1,0,0:0:0:0:
192,192,162982,1,0,0:0:0:0:
448,192,163025,1,0,0:0:0:0:
64,192,163025,1,0,0:0:0:0:
320,192,163068,1,0,0:0:0:0:
192,192,163110,1,0,0:0:0:0:
448,192,163153,1,0,0:0:0:0:
320,192,163196,1,0,0:0:0:0:
64,192,163239,1,0,0:0:0:0:
192,192,163282,1,0,0:0:0:0:
448,192,163325,1,0,0:0:0:0:
320,192,163368,1,0,0:0:0:0:
64,192,163368,1,0,0:0:0:0:
192,192,163410,1,0,0:0:0:0:
448,192,163453,1,0,0:0:0:0:
64,192,163496,1,0,0:0:0:0:
320,192,163539,1,0,0:0:0:0:
192,192,163582,1,0,0:0:0:0:
448,192,163625,1,0,0:0:0:0:
64,192,163668,1,0,0:0:0:0:
192,192,163710,1,0,0:0:0:0:
320,192,163710,1,0,0:0:0:0:
448,192,163753,1,0,0:0:0:0:
64,192,163796,1,0,0:0:0:0:
320,192,163839,1,0,0:0:0:0:
192,192,163882,1,0,0:0:0:0:
448,192,163925,1,0,0:0:0:0:
320,192,163968,1,0,0:0:0:0:
64,192,164010,1,0,0:0:0:0:
192,192,164053,1,0,0:0:0:0:
448,192,164053,1,0,0:0:0:0:
320,192,164096,1,0,0:0:0:0:
64,192,164139,1,0,0:0:0:0:
192,192,164182,1,0,0:0:0:0:
448,192,164225,1,0,0:0:0:0:
64,192,164268,1,0,0:0:0:0:
320,192,164310,1,0,0:0:0:0:
192,192,164353,1,0,0:0:0:0:
448,192,164396,1,0,0:0:0:0:
64,192,164396,1,0,0:0:0:0:
320,192,164439,1,0,0:0:0:0:
192,192,164482,1,0,0:0:0:0:
448,192,164525,1,0,0:0:0:0:
320,192,164568,1,0,0:0:0:0:
64,192,164610,1,0,0:0:0:0:
192,192,164653,1,0,0:0:0:0:
448,192,164696,1,0,0:0:0:0:
320,192,164739,1,0,0:0:0:0:
64,192,164739,1,0,0:0:0:0:
192,192,164782,1,0,0:0:0:0:
448,192,164825,1,0,0:0:0:0:
320,192,164868,1,0,0:0:0:0:
192,192,164910,1,0,0:0:0:0:
64,192,164910,1,0,0:0:0:0:
448,192,164953,1,0,0:0:0:0:
320,192,164996,1,0,0:0:0:0:
64,192,165039,1,0,0:0:0:0:
192,192,165082,1,0,0:0:0:0:
448,192,165082,1,0,0:0:0:0:
320,192,165125,1,0,0:0:0:0:
64,192,165168,1,0,0:0:0:0:
192,192,165210,1,0,0:0:0:0:
448,192,165253,1,0,0:0:0:0:
320,192,165253,1,0,0:0:0:0:
192,192,165296,1,0,0:0:0:0:
64,192,165339,1,0,0:0:0:0:
320,192,165382,1,0,0:0:0:0:
192,192,165425,1,0,0:0:0:0:
448,192,165425,1,0,0:0:0:0:
64,192,165468,1,0,0:0:0:0:
320,192,165510,1,0,0:0:0:0:
448,192,165553,1,0,0:0:0:0:
192,192,165596,1,0,0:0:0:0:
64,192,165596,1,0,0:0:0:0:
448,192,165639,1,0,0:0:0:0:
320,192,165682,1,0,0:0:0:0:
64,192,165725,1,0,0:0:0:0:
192,192,165768,1,0,0:0:0:0:
448,192,165768,1,0,0:0:0:0:
320,192,165810,1,0,0:0:0:0:
64,192,165853,1,0,0:0:0:0:
192,192,165896,1,0,0:0:0:0:
448,192,165939,1,0,0:0:0:0:
320,192,165939,1,0,0:0:0:0:
64,192,165982,1,0,0:0:0:0:
192,192,166025,1,0,0:0:0:0:
448,192,166068,1,0,0:0:0:0:
320,192,166110,1,0,0:0:0:0:
64,192,166110,128,0,167396:0:0:0:0:
448,192,167482,1,0,0:0:0:0:
320,192,167482,1,0,0:0:0:0:
192,192,167482,1,0,0:0:0:0:
64,192,167482,1,0,0:0:0:0:
448,192,167739,1,0,0:0:0:0:
320,192,167739,1,0,0:0:0:0:
448,192,167825,1,0,0:0:0:0:
320,192,167825,1,0,0:0:0:0:
192,192,167825,1,0,0:0:0:0:
64,192,167825,1,0,0:0:0:0:
320,192,167996,1,0,0:0:0:0:
64,192,167996,1,0,0:0:0:0:
448,192,168168,1,0,0:0:0:0:
320,192,168168,1,0,0:0:0:0:
192,192,168168,1,0,0:0:0:0:
64,192,168168,1,0,0:0:0:0:
448,192,168339,1,0,0:0:0:0:
192,192,168339,1,0,0:0:0:0:
448,192,168510,1,0,0:0:0:0:
320,192,168510,1,0,0:0:0:0:
192,192,168510,1,0,0:0:0:0:
64,192,168510,1,0,0:0:0:0:
448,192,168853,1,0,0:0:0:0:
320,192,168853,1,0,0:0:0:0:
64,192,168853,128,0,169025:0:0:0:0:
192,192,168853,128,0,169025:0:0:0:0:
192,192,169110,1,0,0:0:0:0:
64,192,169110,1,0,0:0:0:0:
448,192,169196,1,0,0:0:0:0:
320,192,169196,1,0,0:0:0:0:
192,192,169196,1,0,0:0:0:0:
64,192,169196,1,0,0:0:0:0:
448,192,169368,1,0,0:0:0:0:
192,192,169368,1,0,0:0:0:0:
448,192,169539,1,0,0:0:0:0:
320,192,169539,1,0,0:0:0:0:
192,192,169539,1,0,0:0:0:0:
64,192,169539,1,0,0:0:0:0:
320,192,169710,1,0,0:0:0:0:
192,192,169710,1,0,0:0:0:0:
320,192,169796,1,0,0:0:0:0:
192,192,169796,1,0,0:0:0:0:
448,192,169882,1,0,0:0:0:0:
320,192,169882,1,0,0:0:0:0:
192,192,169882,1,0,0:0:0:0:
64,192,169882,1,0,0:0:0:0:
448,192,169968,1,0,0:0:0:0:
64,192,169968,1,0,0:0:0:0:
448,192,170225,1,0,0:0:0:0:
320,192,170225,1,0,0:0:0:0:
192,192,170225,1,0,0:0:0:0:
64,192,170225,1,0,0:0:0:0:
192,192,170482,1,0,0:0:0:0:
64,192,170482,1,0,0:0:0:0:
192,192,170568,1,0,0:0:0:0:
64,192,170568,1,0,0:0:0:0:
448,192,170568,1,0,0:0:0:0:
320,192,170568,1,0,0:0:0:0:
448,192,170739,1,0,0:0:0:0:
192,192,170739,1,0,0:0:0:0:
448,192,170910,1,0,0:0:0:0:
320,192,170910,1,0,0:0:0:0:
192,192,170910,1,0,0:0:0:0:
64,192,170910,1,0,0:0:0:0:
320,192,171082,1,0,0:0:0:0:
64,192,171082,1,0,0:0:0:0:
64,192,171168,1,0,0:0:0:0:
320,192,171168,1,0,0:0:0:0:
64,192,171253,1,0,0:0:0:0:
320,192,171253,1,0,0:0:0:0:
192,192,171253,1,0,0:0:0:0:
448,192,171253,1,0,0:0:0:0:
192,192,171596,1,0,0:0:0:0:
64,192,171596,1,0,0:0:0:0:
320,192,171596,128,0,171768:0:0:0:0:
448,192,171596,128,0,171768:0:0:0:0:
448,192,171853,1,0,0:0:0:0:
320,192,171853,1,0,0:0:0:0:
448,192,171939,1,0,0:0:0:0:
320,192,171939,1,0,0:0:0:0:
192,192,171939,1,0,0:0:0:0:
64,192,171939,1,0,0:0:0:0:
320,192,172110,1,0,0:0:0:0:
64,192,172110,1,0,0:0:0:0:
448,192,172282,1,0,0:0:0:0:
320,192,172282,1,0,0:0:0:0:
64,192,172282,1,0,0:0:0:0:
192,192,172282,1,0,0:0:0:0:
64,192,172453,1,0,0:0:0:0:
448,192,172453,1,0,0:0:0:0:
448,192,172539,1,0,0:0:0:0:
64,192,172539,1,0,0:0:0:0:
448,192,172625,1,0,0:0:0:0:
320,192,172625,1,0,0:0:0:0:
192,192,172625,1,0,0:0:0:0:
64,192,172625,1,0,0:0:0:0:
320,192,172710,1,0,0:0:0:0:
192,192,172710,1,0,0:0:0:0:
448,192,172796,1,0,0:0:0:0:
64,192,172796,1,0,0:0:0:0:
320,192,172882,1,0,0:0:0:0:
192,192,172882,1,0,0:0:0:0:
320,192,172968,1,0,0:0:0:0:
192,192,172968,1,0,0:0:0:0:
64,192,172968,1,0,0:0:0:0:
448,192,172968,128,0,173310:0:0:0:0:
192,192,173225,1,0,0:0:0:0:
64,192,173225,1,0,0:0:0:0:
320,192,173310,1,0,0:0:0:0:
192,192,173310,1,0,0:0:0:0:
64,192,173310,1,0,0:0:0:0:
192,192,173482,128,0,173653:0:0:0:0:
448,192,173482,1,0,0:0:0:0:
64,192,173653,1,0,0:0:0:0:
320,192,173653,1,0,0:0:0:0:
448,192,173653,1,0,0:0:0:0:
320,192,173825,1,0,0:0:0:0:
64,192,173825,1,0,0:0:0:0:
448,192,173996,1,0,0:0:0:0:
320,192,173996,1,0,0:0:0:0:
192,192,173996,1,0,0:0:0:0:
64,192,173996,1,0,0:0:0:0:
448,192,174168,128,0,174339:0:0:0:0:
192,192,174168,1,0,0:0:0:0:
320,192,174339,1,0,0:0:0:0:
192,192,174339,128,0,174510:0:0:0:0:
64,192,174339,128,0,174510:0:0:0:0:
192,192,174596,1,0,0:0:0:0:
64,192,174596,1,0,0:0:0:0:
320,192,174682,1,0,0:0:0:0:
192,192,174682,1,0,0:0:0:0:
64,192,174682,1,0,0:0:0:0:
448,192,174682,1,0,0:0:0:0:
320,192,174853,1,0,0:0:0:0:
64,192,174853,1,0,0:0:0:0:
448,192,175025,1,0,0:0:0:0:
192,192,175025,1,0,0:0:0:0:
64,192,175025,1,0,0:0:0:0:
320,192,175025,1,0,0:0:0:0:
320,192,175196,1,0,0:0:0:0:
192,192,175196,1,0,0:0:0:0:
320,192,175282,1,0,0:0:0:0:
192,192,175282,1,0,0:0:0:0:
448,192,175368,1,0,0:0:0:0:
192,192,175368,1,0,0:0:0:0:
64,192,175368,1,0,0:0:0:0:
320,192,175368,128,0,175710:0:0:0:0:
448,192,175710,1,0,0:0:0:0:
192,192,175710,1,0,0:0:0:0:
64,192,175710,1,0,0:0:0:0:
192,192,175968,1,0,0:0:0:0:
64,192,175968,1,0,0:0:0:0:
448,192,176053,1,0,0:0:0:0:
320,192,176053,1,0,0:0:0:0:
192,192,176053,1,0,0:0:0:0:
64,192,176053,1,0,0:0:0:0:
448,192,176225,1,0,0:0:0:0:
192,192,176225,1,0,0:0:0:0:
448,192,176396,1,0,0:0:0:0:
320,192,176396,1,0,0:0:0:0:
192,192,176396,1,0,0:0:0:0:
64,192,176396,1,0,0:0:0:0:
320,192,176568,1,0,0:0:0:0:
64,192,176568,1,0,0:0:0:0:
64,192,176653,1,0,0:0:0:0:
320,192,176653,1,0,0:0:0:0:
64,192,176739,1,0,0:0:0:0:
320,192,176739,1,0,0:0:0:0:
448,192,176739,1,0,0:0:0:0:
192,192,176739,128,0,176910:0:0:0:0:
448,192,176910,128,0,177082:0:0:0:0:
320,192,177082,1,0,0:0:0:0:
192,192,177082,128,0,177253:0:0:0:0:
64,192,177082,128,0,177253:0:0:0:0:
192,192,177339,1,0,0:0:0:0:
64,192,177339,1,0,0:0:0:0:
192,192,177425,1,0,0:0:0:0:
64,192,177425,1,0,0:0:0:0:
448,192,177425,1,0,0:0:0:0:
320,192,177425,1,0,0:0:0:0:
448,192,177596,1,0,0:0:0:0:
192,192,177596,1,0,0:0:0:0:
320,192,177768,1,0,0:0:0:0:
192,192,177768,1,0,0:0:0:0:
64,192,177768,1,0,0:0:0:0:
448,192,177768,1,0,0:0:0:0:
64,192,177939,1,0,0:0:0:0:
448,192,177939,1,0,0:0:0:0:
320,192,178025,1,0,0:0:0:0:
192,192,178025,1,0,0:0:0:0:
64,192,178110,1,0,0:0:0:0:
192,192,178110,1,0,0:0:0:0:
320,192,178110,1,0,0:0:0:0:
448,192,178110,1,0,0:0:0:0:
64,192,178196,1,0,0:0:0:0:
448,192,178196,1,0,0:0:0:0:
320,192,178282,1,0,0:0:0:0:
192,192,178282,1,0,0:0:0:0:
320,192,178368,1,0,0:0:0:0:
192,192,178368,1,0,0:0:0:0:
320,192,178453,1,0,0:0:0:0:
192,192,178453,1,0,0:0:0:0:
64,192,178453,1,0,0:0:0:0:
448,192,178453,1,0,0:0:0:0:
448,192,178796,1,0,0:0:0:0:
320,192,178796,1,0,0:0:0:0:
192,192,178796,1,0,0:0:0:0:
64,192,178796,1,0,0:0:0:0:
64,192,178968,1,0,0:0:0:0:
448,192,178968,1,0,0:0:0:0:
192,192,179010,1,0,0:0:0:0:
320,192,179053,1,0,0:0:0:0:
448,192,179053,1,0,0:0:0:0:
64,192,179139,1,0,0:0:0:0:
192,192,179139,1,0,0:0:0:0:
320,192,179139,1,0,0:0:0:0:
448,192,179139,1,0,0:0:0:0:
320,192,179310,1,0,0:0:0:0:
64,192,179310,1,0,0:0:0:0:
448,192,179482,1,0,0:0:0:0:
320,192,179482,1,0,0:0:0:0:
192,192,179482,1,0,0:0:0:0:
64,192,179482,1,0,0:0:0:0:
192,192,179653,128,0,179825:0:0:0:0:
320,192,179653,1,0,0:0:0:0:
64,192,179825,1,0,0:0:0:0:
320,192,179825,128,0,180082:0:0:0:0:
448,192,179825,128,0,180082:0:0:0:0:
192,192,180082,1,0,0:0:0:0:
64,192,180082,1,0,0:0:0:0:
448,192,180168,1,0,0:0:0:0:
192,192,180168,1,0,0:0:0:0:
64,192,180168,1,0,0:0:0:0:
320,192,180168,128,0,180339:0:0:0:0:
192,192,180339,1,0,0:0:0:0:
448,192,180339,1,0,0:0:0:0:
448,192,180510,1,0,0:0:0:0:
320,192,180510,1,0,0:0:0:0:
192,192,180510,1,0,0:0:0:0:
64,192,180510,1,0,0:0:0:0:
64,192,180596,1,0,0:0:0:0:
192,192,180596,1,0,0:0:0:0:
320,192,180682,1,0,0:0:0:0:
448,192,180682,1,0,0:0:0:0:
64,192,180768,1,0,0:0:0:0:
192,192,180768,1,0,0:0:0:0:
64,192,180853,1,0,0:0:0:0:
192,192,180853,1,0,0:0:0:0:
320,192,180853,1,0,0:0:0:0:
448,192,180853,1,0,0:0:0:0:
448,192,180939,1,0,0:0:0:0:
320,192,180939,1,0,0:0:0:0:
64,192,181025,1,0,0:0:0:0:
192,192,181025,1,0,0:0:0:0:
320,192,181068,1,0,0:0:0:0:
64,192,181110,1,0,0:0:0:0:
192,192,181153,1,0,0:0:0:0:
320,192,181196,1,0,0:0:0:0:
448,192,181196,1,0,0:0:0:0:
64,192,181196,128,0,181453:0:0:0:0:
448,192,181453,1,0,0:0:0:0:
320,192,181453,1,0,0:0:0:0:
448,192,181539,1,0,0:0:0:0:
320,192,181539,1,0,0:0:0:0:
192,192,181539,1,0,0:0:0:0:
64,192,181539,1,0,0:0:0:0:
320,192,181710,1,0,0:0:0:0:
192,192,181710,1,0,0:0:0:0:
448,192,181882,1,0,0:0:0:0:
320,192,181882,1,0,0:0:0:0:
192,192,181882,1,0,0:0:0:0:
64,192,181882,1,0,0:0:0:0:
320,192,182053,1,0,0:0:0:0:
64,192,182053,1,0,0:0:0:0:
320,192,182139,1,0,0:0:0:0:
64,192,182139,1,0,0:0:0:0:
448,192,182225,1,0,0:0:0:0:
320,192,182225,1,0,0:0:0:0:
64,192,182225,1,0,0:0:0:0:
192,192,182225,128,0,182396:0:0:0:0:
448,192,182396,128,0,182568:0:0:0:0:
320,192,182568,1,0,0:0:0:0:
64,192,182568,128,0,182825:0:0:0:0:
192,192,182568,128,0,182825:0:0:0:0:
448,192,182825,1,0,0:0:0:0:
320,192,182825,1,0,0:0:0:0:
448,192,182910,1,0,0:0:0:0:
320,192,182910,1,0,0:0:0:0:
64,192,182910,1,0,0:0:0:0:
192,192,182910,128,0,183082:0:0:0:0:
320,192,183082,1,0,0:0:0:0:
64,192,183082,1,0,0:0:0:0:
448,192,183253,1,0,0:0:0:0:
320,192,183253,1,0,0:0:0:0:
192,192,183253,1,0,0:0:0:0:
64,192,183253,1,0,0:0:0:0:
448,192,183339,1,0,0:0:0:0:
320,192,183339,1,0,0:0:0:0:
192,192,183425,1,0,0:0:0:0:
64,192,183425,1,0,0:0:0:0:
448,192,183510,1,0,0:0:0:0:
320,192,183510,1,0,0:0:0:0:
448,192,183596,1,0,0:0:0:0:
320,192,183596,1,0,0:0:0:0:
192,192,183596,1,0,0:0:0:0:
64,192,183596,1,0,0:0:0:0:
64,192,183682,1,0,0:0:0:0:
320,192,183682,1,0,0:0:0:0:
192,192,183768,1,0,0:0:0:0:
448,192,183768,1,0,0:0:0:0:
448,192,183853,1,0,0:0:0:0:
192,192,183853,1,0,0:0:0:0:
448,192,183939,1,0,0:0:0:0:
320,192,183939,1,0,0:0:0:0:
64,192,183939,1,0,0:0:0:0:
192,192,183939,1,0,0:0:0:0:
192,192,184110,1,0,0:0:0:0:
64,192,184110,1,0,0:0:0:0:
64,192,184282,1,0,0:0:0:0:
192,192,184282,1,0,0:0:0:0:
320,192,184282,128,0,184453:0:0:0:0:
192,192,184453,1,0,0:0:0:0:
64,192,184453,1,0,0:0:0:0:
448,192,184453,128,0,184625:0:0:0:0:
192,192,184625,1,0,0:0:0:0:
64,192,184625,1,0,0:0:0:0:
192,192,184796,1,0,0:0:0:0:
64,192,184796,1,0,0:0:0:0:
192,192,184968,1,0,0:0:0:0:
64,192,184968,1,0,0:0:0:0:
448,192,184968,128,0,185053:0:0:0:0:
64,192,185139,1,0,0:0:0:0:
192,192,185139,1,0,0:0:0:0:
448,192,185225,128,0,185310:0:0:0:0:
192,192,185310,1,0,0:0:0:0:
64,192,185310,1,0,0:0:0:0:
320,192,185310,128,0,185568:0:0:0:0:
192,192,185482,1,0,0:0:0:0:
64,192,185482,1,0,0:0:0:0:
448,192,185568,1,0,0:0:0:0:
64,192,185653,1,0,0:0:0:0:
192,192,185653,1,0,0:0:0:0:
448,192,185653,1,0,0:0:0:0:
192,192,185825,1,0,0:0:0:0:
64,192,185825,1,0,0:0:0:0:
448,192,185825,1,0,0:0:0:0:
192,192,185996,1,0,0:0:0:0:
64,192,185996,1,0,0:0:0:0:
192,192,186168,1,0,0:0:0:0:
64,192,186168,1,0,0:0:0:0:
448,192,186168,1,0,0:0:0:0:
448,192,186253,1,0,0:0:0:0:
192,192,186339,1,0,0:0:0:0:
64,192,186339,1,0,0:0:0:0:
320,192,186339,1,0,0:0:0:0:
448,192,186425,1,0,0:0:0:0:
192,192,186510,1,0,0:0:0:0:
64,192,186510,1,0,0:0:0:0:
320,192,186553,1,0,0:0:0:0:
192,192,186596,1,0,0:0:0:0:
320,192,186639,1,0,0:0:0:0:
64,192,186682,1,0,0:0:0:0:
448,192,186682,1,0,0:0:0:0:
320,192,186768,1,0,0:0:0:0:
192,192,186768,1,0,0:0:0:0:
448,192,186853,1,0,0:0:0:0:
64,192,186853,1,0,0:0:0:0:
320,192,186939,1,0,0:0:0:0:
192,192,186939,1,0,0:0:0:0:
448,192,187025,1,0,0:0:0:0:
320,192,187025,1,0,0:0:0:0:
192,192,187110,1,0,0:0:0:0:
64,192,187110,1,0,0:0:0:0:
448,192,187196,1,0,0:0:0:0:
320,192,187196,1,0,0:0:0:0:
192,192,187282,1,0,0:0:0:0:
64,192,187282,1,0,0:0:0:0:
64,192,187368,1,0,0:0:0:0:
320,192,187368,1,0,0:0:0:0:
448,192,187453,1,0,0:0:0:0:
192,192,187453,1,0,0:0:0:0:
320,192,187539,1,0,0:0:0:0:
64,192,187539,1,0,0:0:0:0:
448,192,187625,1,0,0:0:0:0:
192,192,187625,1,0,0:0:0:0:
448,192,187710,1,0,0:0:0:0:
320,192,187710,1,0,0:0:0:0:
192,192,187796,1,0,0:0:0:0:
64,192,187796,1,0,0:0:0:0:
448,192,187882,1,0,0:0:0:0:
320,192,187882,1,0,0:0:0:0:
192,192,187968,1,0,0:0:0:0:
64,192,187968,1,0,0:0:0:0:
448,192,188053,1,0,0:0:0:0:
320,192,188053,1,0,0:0:0:0:
64,192,188053,1,0,0:0:0:0:
192,192,188139,1,0,0:0:0:0:
320,192,188225,1,0,0:0:0:0:
192,192,188310,1,0,0:0:0:0:
320,192,188396,1,0,0:0:0:0:
448,192,188396,1,0,0:0:0:0:
448,192,188568,1,0,0:0:0:0:
320,192,188568,1,0,0:0:0:0:
448,192,188739,128,0,188910:0:0:0:0:
320,192,188739,128,0,188910:0:0:0:0:
192,192,188910,1,0,0:0:0:0:
448,192,188996,128,0,189168:0:0:0:0:
320,192,188996,128,0,189168:0:0:0:0:
192,192,189168,1,0,0:0:0:0:
448,192,189253,128,0,189339:0:0:0:0:
320,192,189253,128,0,189339:0:0:0:0:
192,192,189425,1,0,0:0:0:0:
64,192,189425,1,0,0:0:0:0:
448,192,189425,1,0,0:0:0:0:
320,192,189425,1,0,0:0:0:0:
320,192,189596,1,0,0:0:0:0:
64,192,189596,1,0,0:0:0:0:
448,192,189682,1,0,0:0:0:0:
192,192,189682,1,0,0:0:0:0:
448,192,189768,1,0,0:0:0:0:
320,192,189768,1,0,0:0:0:0:
192,192,189768,1,0,0:0:0:0:
64,192,189768,1,0,0:0:0:0:
448,192,189939,1,0,0:0:0:0:
192,192,189939,1,0,0:0:0:0:
448,192,190110,1,0,0:0:0:0:
320,192,190110,1,0,0:0:0:0:
192,192,190110,1,0,0:0:0:0:
64,192,190110,1,0,0:0:0:0:
64,192,190196,128,0,190453:0:0:0:0:
448,192,190282,1,0,0:0:0:0:
320,192,190282,1,0,0:0:0:0:
448,192,190453,1,0,0:0:0:0:
320,192,190453,1,0,0:0:0:0:
192,192,190453,1,0,0:0:0:0:
64,192,190625,1,0,0:0:0:0:
320,192,190625,1,0,0:0:0:0:
192,192,190710,1,0,0:0:0:0:
64,192,190796,1,0,0:0:0:0:
192,192,190796,1,0,0:0:0:0:
448,192,190796,128,0,190968:0:0:0:0:
320,192,190796,128,0,190968:0:0:0:0:
192,192,190968,1,0,0:0:0:0:
64,192,190968,1,0,0:0:0:0:
448,192,191053,1,0,0:0:0:0:
320,192,191053,1,0,0:0:0:0:
448,192,191139,1,0,0:0:0:0:
192,192,191139,1,0,0:0:0:0:
64,192,191139,1,0,0:0:0:0:
320,192,191139,1,0,0:0:0:0:
448,192,191310,1,0,0:0:0:0:
192,192,191310,1,0,0:0:0:0:
448,192,191482,1,0,0:0:0:0:
320,192,191482,1,0,0:0:0:0:
192,192,191482,1,0,0:0:0:0:
64,192,191482,1,0,0:0:0:0:
64,192,191653,1,0,0:0:0:0:
448,192,191653,1,0,0:0:0:0:
320,192,191739,1,0,0:0:0:0:
192,192,191739,1,0,0:0:0:0:
448,192,191825,1,0,0:0:0:0:
192,192,191825,1,0,0:0:0:0:
64,192,191825,1,0,0:0:0:0:
320,192,191825,1,0,0:0:0:0:
64,192,191910,1,0,0:0:0:0:
448,192,191910,1,0,0:0:0:0:
320,192,191996,1,0,0:0:0:0:
192,192,192039,1,0,0:0:0:0:
448,192,192082,1,0,0:0:0:0:
320,192,192125,1,0,0:0:0:0:
192,192,192168,1,0,0:0:0:0:
64,192,192168,1,0,0:0:0:0:
448,192,192168,1,0,0:0:0:0:
64,192,192339,1,0,0:0:0:0:
320,192,192339,1,0,0:0:0:0:
192,192,192425,1,0,0:0:0:0:
448,192,192425,1,0,0:0:0:0:
320,192,192510,1,0,0:0:0:0:
192,192,192510,1,0,0:0:0:0:
64,192,192510,1,0,0:0:0:0:
448,192,192510,1,0,0:0:0:0:
320,192,192682,1,0,0:0:0:0:
64,192,192682,1,0,0:0:0:0:
448,192,192853,1,0,0:0:0:0:
320,192,192853,1,0,0:0:0:0:
192,192,192853,1,0,0:0:0:0:
64,192,192853,1,0,0:0:0:0:
448,192,193025,1,0,0:0:0:0:
320,192,193025,1,0,0:0:0:0:
64,192,193110,1,0,0:0:0:0:
192,192,193110,1,0,0:0:0:0:
448,192,193196,1,0,0:0:0:0:
320,192,193196,1,0,0:0:0:0:
192,192,193196,1,0,0:0:0:0:
64,192,193196,1,0,0:0:0:0:
448,192,193282,1,0,0:0:0:0:
320,192,193282,1,0,0:0:0:0:
448,192,193453,1,0,0:0:0:0:
320,192,193453,1,0,0:0:0:0:
448,192,193539,1,0,0:0:0:0:
320,192,193539,1,0,0:0:0:0:
192,192,193539,128,0,193710:0:0:0:0:
64,192,193539,128,0,193710:0:0:0:0:
448,192,193710,1,0,0:0:0:0:
320,192,193710,1,0,0:0:0:0:
192,192,193796,1,0,0:0:0:0:
64,192,193796,1,0,0:0:0:0:
448,192,193882,1,0,0:0:0:0:
320,192,193882,1,0,0:0:0:0:
192,192,193882,1,0,0:0:0:0:
64,192,193882,1,0,0:0:0:0:
448,192,193968,1,0,0:0:0:0:
320,192,193968,1,0,0:0:0:0:
320,192,194139,1,0,0:0:0:0:
192,192,194139,1,0,0:0:0:0:
448,192,194225,1,0,0:0:0:0:
320,192,194225,1,0,0:0:0:0:
192,192,194225,1,0,0:0:0:0:
64,192,194225,128,0,194396:0:0:0:0:
448,192,194396,1,0,0:0:0:0:
192,192,194396,1,0,0:0:0:0:
64,192,194482,1,0,0:0:0:0:
320,192,194482,1,0,0:0:0:0:
192,192,194568,1,0,0:0:0:0:
448,192,194568,1,0,0:0:0:0:
64,192,194568,1,0,0:0:0:0:
320,192,194568,1,0,0:0:0:0:
320,192,194653,1,0,0:0:0:0:
448,192,194653,1,0,0:0:0:0:
64,192,194739,1,0,0:0:0:0:
192,192,194739,1,0,0:0:0:0:
320,192,194825,1,0,0:0:0:0:
448,192,194825,1,0,0:0:0:0:
320,192,194910,1,0,0:0:0:0:
192,192,194910,1,0,0:0:0:0:
64,192,194910,1,0,0:0:0:0:
448,192,194910,1,0,0:0:0:0:
64,192,195082,1,0,0:0:0:0:
320,192,195082,1,0,0:0:0:0:
192,192,195168,1,0,0:0:0:0:
448,192,195168,1,0,0:0:0:0:
64,192,195253,1,0,0:0:0:0:
192,192,195253,1,0,0:0:0:0:
320,192,195253,1,0,0:0:0:0:
448,192,195253,1,0,0:0:0:0:
320,192,195425,1,0,0:0:0:0:
64,192,195425,1,0,0:0:0:0:
320,192,195596,1,0,0:0:0:0:
64,192,195596,1,0,0:0:0:0:
192,192,195596,1,0,0:0:0:0:
448,192,195596,1,0,0:0:0:0:
448,192,195768,1,0,0:0:0:0:
192,192,195768,1,0,0:0:0:0:
448,192,195939,1,0,0:0:0:0:
320,192,195939,1,0,0:0:0:0:
192,192,195939,1,0,0:0:0:0:
64,192,195939,1,0,0:0:0:0:
320,192,196110,1,0,0:0:0:0:
64,192,196110,1,0,0:0:0:0:
192,192,196196,1,0,0:0:0:0:
192,192,196282,1,0,0:0:0:0:
64,192,196282,1,0,0:0:0:0:
448,192,196282,128,0,196453:0:0:0:0:
320,192,196282,128,0,196453:0:0:0:0:
192,192,196453,1,0,0:0:0:0:
64,192,196453,1,0,0:0:0:0:
448,192,196539,1,0,0:0:0:0:
320,192,196539,1,0,0:0:0:0:
448,192,196625,1,0,0:0:0:0:
320,192,196625,1,0,0:0:0:0:
192,192,196625,1,0,0:0:0:0:
64,192,196625,1,0,0:0:0:0:
64,192,196710,1,0,0:0:0:0:
320,192,196796,1,0,0:0:0:0:
192,192,196796,1,0,0:0:0:0:
448,192,196882,1,0,0:0:0:0:
448,192,196968,1,0,0:0:0:0:
320,192,196968,1,0,0:0:0:0:
192,192,196968,1,0,0:0:0:0:
64,192,196968,1,0,0:0:0:0:
64,192,197139,1,0,0:0:0:0:
320,192,197139,1,0,0:0:0:0:
448,192,197225,1,0,0:0:0:0:
192,192,197225,1,0,0:0:0:0:
448,192,197310,1,0,0:0:0:0:
320,192,197310,1,0,0:0:0:0:
192,192,197310,1,0,0:0:0:0:
64,192,197310,1,0,0:0:0:0:
448,192,197396,1,0,0:0:0:0:
320,192,197396,1,0,0:0:0:0:
192,192,197482,1,0,0:0:0:0:
320,192,197525,1,0,0:0:0:0:
64,192,197568,1,0,0:0:0:0:
192,192,197610,1,0,0:0:0:0:
448,192,197653,1,0,0:0:0:0:
320,192,197653,1,0,0:0:0:0:
64,192,197653,1,0,0:0:0:0:
192,192,197825,1,0,0:0:0:0:
448,192,197825,1,0,0:0:0:0:
320,192,197910,1,0,0:0:0:0:
64,192,197910,1,0,0:0:0:0:
448,192,197996,1,0,0:0:0:0:
320,192,197996,1,0,0:0:0:0:
192,192,197996,1,0,0:0:0:0:
64,192,197996,1,0,0:0:0:0:
192,192,198082,1,0,0:0:0:0:
448,192,198168,1,0,0:0:0:0:
320,192,198168,1,0,0:0:0:0:
64,192,198253,1,0,0:0:0:0:
448,192,198339,1,0,0:0:0:0:
320,192,198339,1,0,0:0:0:0:
192,192,198339,1,0,0:0:0:0:
64,192,198339,1,0,0:0:0:0:
192,192,198510,1,0,0:0:0:0:
320,192,198510,1,0,0:0:0:0:
448,192,198596,1,0,0:0:0:0:
64,192,198596,1,0,0:0:0:0:
64,192,198682,1,0,0:0:0:0:
192,192,198682,1,0,0:0:0:0:
448,192,198682,1,0,0:0:0:0:
320,192,198682,1,0,0:0:0:0:
320,192,198853,1,0,0:0:0:0:
448,192,198853,1,0,0:0:0:0:
192,192,198939,1,0,0:0:0:0:
64,192,198939,1,0,0:0:0:0:
448,192,199025,1,0,0:0:0:0:
320,192,199025,1,0,0:0:0:0:
192,192,199025,128,0,199196:0:0:0:0:
64,192,199025,128,0,199196:0:0:0:0:
448,192,199196,1,0,0:0:0:0:
320,192,199196,1,0,0:0:0:0:
192,192,199282,1,0,0:0:0:0:
64,192,199282,1,0,0:0:0:0:
448,192,199368,1,0,0:0:0:0:
320,192,199368,1,0,0:0:0:0:
192,192,199368,1,0,0:0:0:0:
64,192,199368,1,0,0:0:0:0:
192,192,199453,1,0,0:0:0:0:
320,192,199453,1,0,0:0:0:0:
448,192,199539,1,0,0:0:0:0:
320,192,199539,1,0,0:0:0:0:
64,192,199539,1,0,0:0:0:0:
448,192,199710,1,0,0:0:0:0:
320,192,199710,1,0,0:0:0:0:
192,192,199710,1,0,0:0:0:0:
64,192,199710,1,0,0:0:0:0:
448,192,199882,1,0,0:0:0:0:
320,192,199882,1,0,0:0:0:0:
448,192,199968,1,0,0:0:0:0:
320,192,199968,1,0,0:0:0:0:
448,192,200053,1,0,0:0:0:0:
320,192,200053,1,0,0:0:0:0:
192,192,200053,1,0,0:0:0:0:
64,192,200053,1,0,0:0:0:0:
64,192,200139,1,0,0:0:0:0:
192,192,200139,1,0,0:0:0:0:
320,192,200225,1,0,0:0:0:0:
448,192,200225,1,0,0:0:0:0:
192,192,200310,1,0,0:0:0:0:
64,192,200310,1,0,0:0:0:0:
448,192,200396,1,0,0:0:0:0:
192,192,200396,1,0,0:0:0:0:
64,192,200396,1,0,0:0:0:0:
320,192,200396,1,0,0:0:0:0:
448,192,200568,1,0,0:0:0:0:
320,192,200568,1,0,0:0:0:0:
192,192,200653,1,0,0:0:0:0:
448,192,200653,1,0,0:0:0:0:
320,192,200739,1,0,0:0:0:0:
64,192,200739,1,0,0:0:0:0:
320,192,200910,1,0,0:0:0:0:
64,192,200910,1,0,0:0:0:0:
448,192,200910,1,0,0:0:0:0:
320,192,200996,1,0,0:0:0:0:
192,192,200996,1,0,0:0:0:0:
448,192,201082,1,0,0:0:0:0:
192,192,201082,1,0,0:0:0:0:
64,192,201082,1,0,0:0:0:0:
448,192,201168,128,0,201425:0:0:0:0:
320,192,201425,1,0,0:0:0:0:
192,192,201425,1,0,0:0:0:0:
64,192,201425,1,0,0:0:0:0:
320,192,201596,1,0,0:0:0:0:
64,192,201596,1,0,0:0:0:0:
448,192,201596,1,0,0:0:0:0:
448,192,201768,1,0,0:0:0:0:
192,192,201768,1,0,0:0:0:0:
64,192,201768,1,0,0:0:0:0:
448,192,201939,1,0,0:0:0:0:
192,192,201939,1,0,0:0:0:0:
320,192,202025,1,0,0:0:0:0:
64,192,202025,1,0,0:0:0:0:
448,192,202025,1,0,0:0:0:0:
192,192,202110,1,0,0:0:0:0:
64,192,202110,1,0,0:0:0:0:
448,192,202282,1,0,0:0:0:0:
320,192,202282,1,0,0:0:0:0:
64,192,202282,1,0,0:0:0:0:
192,192,202368,1,0,0:0:0:0:
320,192,202368,1,0,0:0:0:0:
192,192,202453,1,0,0:0:0:0:
64,192,202453,1,0,0:0:0:0:
448,192,202453,1,0,0:0:0:0:
448,192,202625,1,0,0:0:0:0:
192,192,202625,1,0,0:0:0:0:
64,192,202625,1,0,0:0:0:0:
320,192,202710,1,0,0:0:0:0:
192,192,202710,1,0,0:0:0:0:
448,192,202796,1,0,0:0:0:0:
320,192,202796,1,0,0:0:0:0:
64,192,202796,1,0,0:0:0:0:
448,192,202968,1,0,0:0:0:0:
192,192,202968,1,0,0:0:0:0:
320,192,202968,1,0,0:0:0:0:
448,192,203139,1,0,0:0:0:0:
192,192,203139,1,0,0:0:0:0:
64,192,203139,1,0,0:0:0:0:
320,192,203310,1,0,0:0:0:0:
64,192,203310,1,0,0:0:0:0:
448,192,203396,1,0,0:0:0:0:
192,192,203396,1,0,0:0:0:0:
448,192,203482,1,0,0:0:0:0:
320,192,203482,1,0,0:0:0:0:
448,192,203653,1,0,0:0:0:0:
64,192,203653,1,0,0:0:0:0:
192,192,203653,1,0,0:0:0:0:
320,192,203739,1,0,0:0:0:0:
64,192,203739,1,0,0:0:0:0:
448,192,203825,1,0,0:0:0:0:
192,192,203825,1,0,0:0:0:0:
320,192,203825,1,0,0:0:0:0:
320,192,203996,1,0,0:0:0:0:
64,192,203996,1,0,0:0:0:0:
448,192,204082,1,0,0:0:0:0:
192,192,204082,1,0,0:0:0:0:
448,192,204168,1,0,0:0:0:0:
320,192,204168,1,0,0:0:0:0:
64,192,204168,1,0,0:0:0:0:
320,192,204339,1,0,0:0:0:0:
192,192,204339,1,0,0:0:0:0:
64,192,204339,1,0,0:0:0:0:
448,192,204510,1,0,0:0:0:0:
320,192,204510,1,0,0:0:0:0:
192,192,204510,1,0,0:0:0:0:
448,192,204682,1,0,0:0:0:0:
192,192,204682,1,0,0:0:0:0:
320,192,204768,1,0,0:0:0:0:
64,192,204768,1,0,0:0:0:0:
448,192,204768,1,0,0:0:0:0:
192,192,204853,1,0,0:0:0:0:
64,192,204853,1,0,0:0:0:0:
448,192,205025,1,0,0:0:0:0:
192,192,205025,1,0,0:0:0:0:
64,192,205025,1,0,0:0:0:0:
448,192,205110,1,0,0:0:0:0:
320,192,205110,1,0,0:0:0:0:
320,192,205196,1,0,0:0:0:0:
64,192,205196,1,0,0:0:0:0:
192,192,205196,1,0,0:0:0:0:
320,192,205368,1,0,0:0:0:0:
192,192,205368,1,0,0:0:0:0:
448,192,205453,1,0,0:0:0:0:
192,192,205453,1,0,0:0:0:0:
448,192,205539,1,0,0:0:0:0:
320,192,205539,1,0,0:0:0:0:
64,192,205539,1,0,0:0:0:0:
64,192,205710,1,0,0:0:0:0:
320,192,205710,1,0,0:0:0:0:
64,192,205796,1,0,0:0:0:0:
448,192,205796,1,0,0:0:0:0:
448,192,205882,1,0,0:0:0:0:
192,192,205882,1,0,0:0:0:0:
320,192,205882,128,0,206053:0:0:0:0:
448,192,206053,1,0,0:0:0:0:
64,192,206053,1,0,0:0:0:0:
192,192,206053,128,0,206225:0:0:0:0:
320,192,206225,1,0,0:0:0:0:
64,192,206225,1,0,0:0:0:0:
448,192,206225,128,0,206396:0:0:0:0:
192,192,206396,1,0,0:0:0:0:
64,192,206396,1,0,0:0:0:0:
320,192,206396,128,0,206568:0:0:0:0:
448,192,206568,1,0,0:0:0:0:
192,192,206568,1,0,0:0:0:0:
64,192,206568,128,0,206739:0:0:0:0:
448,192,206739,1,0,0:0:0:0:
320,192,206739,1,0,0:0:0:0:
192,192,206739,128,0,206910:0:0:0:0:
320,192,206910,1,0,0:0:0:0:
64,192,206910,1,0,0:0:0:0:
448,192,206910,128,0,207082:0:0:0:0:
192,192,207082,1,0,0:0:0:0:
64,192,207082,1,0,0:0:0:0:
320,192,207082,128,0,207253:0:0:0:0:
448,192,207253,1,0,0:0:0:0:
64,192,207253,128,0,207510:0:0:0:0:
192,192,207253,128,0,207339:0:0:0:0:
192,192,207425,1,0,0:0:0:0:
320,192,207425,128,0,207596:0:0:0:0:
448,192,207425,128,0,207510:0:0:0:0:
64,192,207596,1,0,0:0:0:0:
448,192,207596,128,0,207768:0:0:0:0:
192,192,207596,128,0,207682:0:0:0:0:
64,192,207768,1,0,0:0:0:0:
192,192,207768,128,0,207939:0:0:0:0:
320,192,207768,128,0,207853:0:0:0:0:
320,192,207939,1,0,0:0:0:0:
448,192,207939,128,0,208110:0:0:0:0:
64,192,207939,128,0,208025:0:0:0:0:
64,192,208110,1,0,0:0:0:0:
320,192,208110,128,0,208282:0:0:0:0:
192,192,208110,128,0,208196:0:0:0:0:
192,192,208282,1,0,0:0:0:0:
448,192,208282,128,0,208368:0:0:0:0:
64,192,208282,128,0,208453:0:0:0:0:
448,192,208453,1,0,0:0:0:0:
320,192,208453,128,0,208625:0:0:0:0:
192,192,208453,128,0,208539:0:0:0:0:
448,192,208625,1,0,0:0:0:0:
64,192,208625,1,0,0:0:0:0:
192,192,208625,128,0,208796:0:0:0:0:
320,192,208710,128,0,208882:0:0:0:0:
448,192,208796,1,0,0:0:0:0:
64,192,208796,128,0,208968:0:0:0:0:
192,192,208882,128,0,209053:0:0:0:0:
320,192,208968,1,0,0:0:0:0:
448,192,208968,128,0,209139:0:0:0:0:
64,192,209053,128,0,209225:0:0:0:0:
320,192,209139,1,0,0:0:0:0:
192,192,209139,128,0,209310:0:0:0:0:
448,192,209225,128,0,209396:0:0:0:0:
320,192,209310,1,0,0:0:0:0:
64,192,209310,128,0,209482:0:0:0:0:
192,192,209396,128,0,209568:0:0:0:0:
320,192,209482,1,0,0:0:0:0:
448,192,209482,128,0,209653:0:0:0:0:
64,192,209568,128,0,209739:0:0:0:0:
320,192,209653,1,0,0:0:0:0:
192,192,209653,128,0,209825:0:0:0:0:
448,192,209739,128,0,209910:0:0:0:0:
320,192,209825,128,0,209910:0:0:0:0:
64,192,209825,128,0,209910:0:0:0:0:
192,192,209910,128,0,209996:0:0:0:0:
448,192,209996,1,0,0:0:0:0:
320,192,209996,1,0,0:0:0:0:
64,192,209996,1,0,0:0:0:0:
192,192,210082,1,0,0:0:0:0:
448,192,210082,1,0,0:0:0:0:
64,192,210168,1,0,0:0:0:0:
320,192,210168,1,0,0:0:0:0:
64,192,210253,1,0,0:0:0:0:
192,192,210253,1,0,0:0:0:0:
448,192,210339,1,0,0:0:0:0:
320,192,210339,1,0,0:0:0:0:
64,192,210425,1,0,0:0:0:0:
448,192,210425,1,0,0:0:0:0:
320,192,210510,1,0,0:0:0:0:
64,192,210510,1,0,0:0:0:0:
448,192,210596,1,0,0:0:0:0:
192,192,210596,1,0,0:0:0:0:
320,192,210682,1,0,0:0:0:0:
64,192,210682,1,0,0:0:0:0:
192,192,210768,1,0,0:0:0:0:
320,192,210768,1,0,0:0:0:0:
64,192,210853,1,0,0:0:0:0:
448,192,210853,1,0,0:0:0:0:
192,192,210939,1,0,0:0:0:0:
64,192,210939,1,0,0:0:0:0:
448,192,211025,1,0,0:0:0:0:
320,192,211025,1,0,0:0:0:0:
192,192,211068,1,0,0:0:0:0:
64,192,211110,1,0,0:0:0:0:
320,192,211153,1,0,0:0:0:0:
192,192,211196,1,0,0:0:0:0:
448,192,211239,1,0,0:0:0:0:
320,192,211282,1,0,0:0:0:0:
64,192,211325,1,0,0:0:0:0:
192,192,211368,128,0,211453:0:0:0:0:
448,192,211368,128,0,211539:0:0:0:0:
320,192,211453,128,0,211625:0:0:0:0:
192,192,211539,128,0,211710:0:0:0:0:
64,192,211539,128,0,211625:0:0:0:0:
448,192,211625,128,0,211968:0:0:0:0:
320,192,211710,128,0,211796:0:0:0:0:
64,192,211710,128,0,211882:0:0:0:0:
192,192,211796,128,0,211968:0:0:0:0:
320,192,211882,128,0,212225:0:0:0:0:
64,192,211968,128,0,212139:0:0:0:0:
448,192,212053,128,0,212310:0:0:0:0:
192,192,212053,128,0,212139:0:0:0:0:
192,192,212225,128,0,212396:0:0:0:0:
64,192,212225,128,0,212310:0:0:0:0:
320,192,212310,128,0,212482:0:0:0:0:
64,192,212396,128,0,212568:0:0:0:0:
448,192,212396,128,0,212825:0:0:0:0:
192,192,212482,128,0,212653:0:0:0:0:
320,192,212568,128,0,212653:0:0:0:0:
64,192,212653,128,0,212996:0:0:0:0:
192,192,212739,128,0,212910:0:0:0:0:
320,192,212739,128,0,212825:0:0:0:0:
448,192,212910,128,0,212996:0:0:0:0:
320,192,212910,128,0,213082:0:0:0:0:
192,192,212996,128,0,213168:0:0:0:0:
64,192,213082,128,0,213168:0:0:0:0:
448,192,213082,128,0,213253:0:0:0:0:
320,192,213168,128,0,213339:0:0:0:0:
192,192,213253,128,0,213339:0:0:0:0:
64,192,213253,128,0,213510:0:0:0:0:
448,192,213339,128,0,213682:0:0:0:0:
192,192,213425,128,0,213596:0:0:0:0:
320,192,213425,128,0,213510:0:0:0:0:
320,192,213596,128,0,213682:0:0:0:0:
64,192,213596,128,0,213768:0:0:0:0:
192,192,213682,128,0,213853:0:0:0:0:
320,192,213768,128,0,213853:0:0:0:0:
448,192,213768,128,0,213939:0:0:0:0:
64,192,213853,128,0,214025:0:0:0:0:
192,192,213939,128,0,214025:0:0:0:0:
320,192,213939,128,0,214196:0:0:0:0:
448,192,214025,128,0,214368:0:0:0:0:
192,192,214110,128,0,214282:0:0:0:0:
64,192,214110,128,0,214196:0:0:0:0:
320,192,214282,128,0,214368:0:0:0:0:
64,192,214282,128,0,214453:0:0:0:0:
192,192,214368,128,0,214539:0:0:0:0:
320,192,214453,128,0,214625:0:0:0:0:
448,192,214453,128,0,214539:0:0:0:0:
64,192,214539,128,0,214710:0:0:0:0:
192,192,214625,128,0,214710:0:0:0:0:
448,192,214625,128,0,214882:0:0:0:0:
320,192,214710,128,0,214882:0:0:0:0:
192,192,214796,128,0,214968:0:0:0:0:
64,192,214796,128,0,215139:0:0:0:0:
320,192,214968,128,0,215053:0:0:0:0:
448,192,214968,128,0,215053:0:0:0:0:
192,192,215053,128,0,215225:0:0:0:0:
320,192,215139,128,0,215310:0:0:0:0:
448,192,215139,128,0,215225:0:0:0:0:
64,192,215225,128,0,215396:0:0:0:0:
192,192,215310,128,0,215396:0:0:0:0:
448,192,215310,128,0,215653:0:0:0:0:
320,192,215396,128,0,215568:0:0:0:0:
64,192,215482,128,0,215568:0:0:0:0:
192,192,215482,128,0,215739:0:0:0:0:
64,192,215653,128,0,215739:0:0:0:0:
320,192,215653,128,0,215910:0:0:0:0:
448,192,215739,128,0,215825:0:0:0:0:
192,192,215825,128,0,215910:0:0:0:0:
64,192,215825,128,0,215996:0:0:0:0:
448,192,215910,128,0,216082:0:0:0:0:
320,192,215996,128,0,216082:0:0:0:0:
192,192,215996,128,0,216168:0:0:0:0:
64,192,216082,128,0,216339:0:0:0:0:
320,192,216168,128,0,216253:0:0:0:0:
448,192,216168,128,0,216253:0:0:0:0:
192,192,216253,128,0,216425:0:0:0:0:
320,192,216339,128,0,216510:0:0:0:0:
448,192,216339,128,0,216425:0:0:0:0:
64,192,216425,128,0,216596:0:0:0:0:
192,192,216510,128,0,216596:0:0:0:0:
448,192,216510,128,0,216682:0:0:0:0:
320,192,216596,128,0,216768:0:0:0:0:
192,192,216682,128,0,216853:0:0:0:0:
64,192,216682,128,0,216768:0:0:0:0:
448,192,216768,128,0,216853:0:0:0:0:
320,192,216853,1,0,0:0:0:0:
64,192,216853,1,0,0:0:0:0:
192,192,217025,1,0,0:0:0:0:
64,192,217025,1,0,0:0:0:0:
64,192,217110,1,0,0:0:0:0:
320,192,217110,1,0,0:0:0:0:
448,192,217196,1,0,0:0:0:0:
320,192,217196,1,0,0:0:0:0:
192,192,217196,1,0,0:0:0:0:
448,192,217282,1,0,0:0:0:0:
64,192,217282,1,0,0:0:0:0:
320,192,217368,1,0,0:0:0:0:
192,192,217368,1,0,0:0:0:0:
64,192,217453,1,0,0:0:0:0:
448,192,217453,1,0,0:0:0:0:
448,192,217539,1,0,0:0:0:0:
64,192,217539,1,0,0:0:0:0:
320,192,217539,128,0,217882:0:0:0:0:
192,192,217710,1,0,0:0:0:0:
448,192,217796,1,0,0:0:0:0:
192,192,217882,1,0,0:0:0:0:
64,192,217882,1,0,0:0:0:0:
448,192,217882,1,0,0:0:0:0:
320,192,217968,1,0,0:0:0:0:
448,192,218053,1,0,0:0:0:0:
192,192,218053,1,0,0:0:0:0:
320,192,218096,1,0,0:0:0:0:
64,192,218139,1,0,0:0:0:0:
192,192,218182,1,0,0:0:0:0:
448,192,218225,1,0,0:0:0:0:
320,192,218225,1,0,0:0:0:0:
64,192,218225,1,0,0:0:0:0:
64,192,218396,1,0,0:0:0:0:
320,192,218396,1,0,0:0:0:0:
192,192,218482,1,0,0:0:0:0:
320,192,218482,1,0,0:0:0:0:
192,192,218568,1,0,0:0:0:0:
448,192,218568,1,0,0:0:0:0:
64,192,218568,1,0,0:0:0:0:
320,192,218653,1,0,0:0:0:0:
448,192,218653,1,0,0:0:0:0:
64,192,218739,1,0,0:0:0:0:
192,192,218739,1,0,0:0:0:0:
192,192,218825,1,0,0:0:0:0:
320,192,218825,1,0,0:0:0:0:
320,192,218910,1,0,0:0:0:0:
64,192,218910,1,0,0:0:0:0:
448,192,218910,1,0,0:0:0:0:
192,192,219082,1,0,0:0:0:0:
320,192,219168,1,0,0:0:0:0:
192,192,219253,1,0,0:0:0:0:
448,192,219253,1,0,0:0:0:0:
64,192,219253,1,0,0:0:0:0:
448,192,219339,1,0,0:0:0:0:
192,192,219425,1,0,0:0:0:0:
64,192,219510,1,0,0:0:0:0:
448,192,219596,1,0,0:0:0:0:
192,192,219596,1,0,0:0:0:0:
320,192,219596,1,0,0:0:0:0:
192,192,219768,1,0,0:0:0:0:
320,192,219768,1,0,0:0:0:0:
320,192,219853,1,0,0:0:0:0:
64,192,219853,1,0,0:0:0:0:
448,192,219939,1,0,0:0:0:0:
192,192,219939,1,0,0:0:0:0:
64,192,219939,1,0,0:0:0:0:
448,192,220025,1,0,0:0:0:0:
320,192,220025,1,0,0:0:0:0:
192,192,220110,1,0,0:0:0:0:
64,192,220110,1,0,0:0:0:0:
320,192,220196,1,0,0:0:0:0:
64,192,220196,1,0,0:0:0:0:
448,192,220282,1,0,0:0:0:0:
320,192,220282,1,0,0:0:0:0:
192,192,220282,128,0,220625:0:0:0:0:
448,192,220453,1,0,0:0:0:0:
320,192,220539,1,0,0:0:0:0:
320,192,220625,1,0,0:0:0:0:
64,192,220625,1,0,0:0:0:0:
448,192,220625,1,0,0:0:0:0:
64,192,220710,1,0,0:0:0:0:
448,192,220796,1,0,0:0:0:0:
192,192,220796,1,0,0:0:0:0:
320,192,220839,1,0,0:0:0:0:
192,192,220882,1,0,0:0:0:0:
320,192,220925,1,0,0:0:0:0:
448,192,220968,1,0,0:0:0:0:
64,192,220968,128,0,221139:0:0:0:0:
192,192,221053,1,0,0:0:0:0:
448,192,221139,1,0,0:0:0:0:
320,192,221139,1,0,0:0:0:0:
64,192,221225,1,0,0:0:0:0:
192,192,221225,128,0,221396:0:0:0:0:
320,192,221310,1,0,0:0:0:0:
448,192,221396,1,0,0:0:0:0:
64,192,221396,1,0,0:0:0:0:
320,192,221482,128,0,221653:0:0:0:0:
192,192,221482,1,0,0:0:0:0:
64,192,221568,1,0,0:0:0:0:
448,192,221653,128,0,221825:0:0:0:0:
192,192,221653,1,0,0:0:0:0:
64,192,221739,1,0,0:0:0:0:
320,192,221825,1,0,0:0:0:0:
192,192,221868,1,0,0:0:0:0:
320,192,221910,1,0,0:0:0:0:
192,192,221953,1,0,0:0:0:0:
64,192,221996,1,0,0:0:0:0:
448,192,221996,128,0,222339:0:0:0:0:
320,192,221996,1,0,0:0:0:0:
320,192,222339,128,0,222510:0:0:0:0:
192,192,222339,128,0,222425:0:0:0:0:
64,192,222339,128,0,222425:0:0:0:0:
448,192,222425,128,0,222596:0:0:0:0:
64,192,222510,128,0,222596:0:0:0:0:
192,192,222510,128,0,222596:0:0:0:0:
320,192,222596,128,0,222682:0:0:0:0:
448,192,222682,128,0,222768:0:0:0:0:
192,192,222682,128,0,222853:0:0:0:0:
64,192,222682,128,0,222768:0:0:0:0:
320,192,222768,128,0,222939:0:0:0:0:
448,192,222853,128,0,222939:0:0:0:0:
64,192,222853,128,0,223282:0:0:0:0:
192,192,222939,128,0,223110:0:0:0:0:
320,192,223025,128,0,223196:0:0:0:0:
448,192,223025,128,0,223110:0:0:0:0:
192,192,223196,128,0,223282:0:0:0:0:
448,192,223196,128,0,223282:0:0:0:0:
320,192,223282,128,0,223368:0:0:0:0:
192,192,223368,128,0,223453:0:0:0:0:
64,192,223368,128,0,223453:0:0:0:0:
448,192,223368,128,0,223625:0:0:0:0:
320,192,223453,128,0,223539:0:0:0:0:
192,192,223539,128,0,223882:0:0:0:0:
64,192,223539,128,0,223625:0:0:0:0:
320,192,223625,128,0,223796:0:0:0:0:
64,192,223710,128,0,223796:0:0:0:0:
448,192,223710,128,0,223968:0:0:0:0:
320,192,223882,128,0,223968:0:0:0:0:
64,192,223882,128,0,223968:0:0:0:0:
192,192,223968,128,0,224053:0:0:0:0:
64,192,224053,128,0,224139:0:0:0:0:
320,192,224053,128,0,224139:0:0:0:0:
448,192,224053,128,0,224139:0:0:0:0:
192,192,224139,128,0,224225:0:0:0:0:
448,192,224225,1,0,0:0:0:0:
64,192,224225,128,0,224310:0:0:0:0:
320,192,224268,1,0,0:0:0:0:
192,192,224310,1,0,0:0:0:0:
448,192,224353,1,0,0:0:0:0:
320,192,224396,1,0,0:0:0:0:
64,192,224396,1,0,0:0:0:0:
192,192,224453,1,0,0:0:0:0:
448,192,224510,1,0,0:0:0:0:
320,192,224510,1,0,0:0:0:0:
192,192,224568,1,0,0:0:0:0:
64,192,224568,1,0,0:0:0:0:
448,192,224653,1,0,0:0:0:0:
320,192,224653,1,0,0:0:0:0:
192,192,224739,1,0,0:0:0:0:
64,192,224739,1,0,0:0:0:0:
320,192,224825,1,0,0:0:0:0:
64,192,224910,1,0,0:0:0:0:
448,192,224910,1,0,0:0:0:0:
192,192,224939,1,0,0:0:0:0:
320,192,224968,1,0,0:0:0:0:
448,192,224996,1,0,0:0:0:0:
64,192,225039,1,0,0:0:0:0:
320,192,225082,128,0,225253:0:0:0:0:
192,192,225082,128,0,225339:0:0:0:0:
64,192,225253,128,0,225339:0:0:0:0:
448,192,225253,128,0,225339:0:0:0:0:
320,192,225339,128,0,225425:0:0:0:0:
192,192,225425,128,0,225510:0:0:0:0:
64,192,225425,128,0,225510:0:0:0:0:
448,192,225425,128,0,225596:0:0:0:0:
320,192,225510,128,0,225682:0:0:0:0:
192,192,225596,128,0,225682:0:0:0:0:
64,192,225596,128,0,225853:0:0:0:0:
448,192,225682,128,0,226025:0:0:0:0:
192,192,225768,128,0,225939:0:0:0:0:
320,192,225768,128,0,225853:0:0:0:0:
320,192,225939,128,0,226025:0:0:0:0:
64,192,225939,128,0,226025:0:0:0:0:
192,192,226025,128,0,226110:0:0:0:0:
320,192,226110,128,0,226196:0:0:0:0:
448,192,226110,128,0,226196:0:0:0:0:
64,192,226110,128,0,226282:0:0:0:0:
192,192,226196,128,0,226368:0:0:0:0:
320,192,226282,128,0,226368:0:0:0:0:
448,192,226282,128,0,226539:0:0:0:0:
64,192,226368,128,0,226710:0:0:0:0:
192,192,226453,128,0,226625:0:0:0:0:
320,192,226453,128,0,226539:0:0:0:0:
320,192,226625,128,0,226710:0:0:0:0:
448,192,226625,128,0,226710:0:0:0:0:
192,192,226710,128,0,226796:0:0:0:0:
64,192,226796,128,0,226882:0:0:0:0:
320,192,226796,128,0,226968:0:0:0:0:
448,192,226796,128,0,226882:0:0:0:0:
192,192,226882,128,0,227053:0:0:0:0:
64,192,226968,128,0,227053:0:0:0:0:
448,192,226968,128,0,227225:0:0:0:0:
320,192,227053,128,0,227139:0:0:0:0:
192,192,227139,128,0,227310:0:0:0:0:
64,192,227139,128,0,227225:0:0:0:0:
320,192,227225,128,0,227396:0:0:0:0:
448,192,227310,128,0,227396:0:0:0:0:
64,192,227310,128,0,227396:0:0:0:0:
192,192,227396,128,0,227482:0:0:0:0:
320,192,227482,128,0,227568:0:0:0:0:
448,192,227482,128,0,227739:0:0:0:0:
64,192,227482,128,0,227568:0:0:0:0:
192,192,227568,128,0,227653:0:0:0:0:
320,192,227653,128,0,227739:0:0:0:0:
64,192,227653,128,0,227825:0:0:0:0:
192,192,227739,128,0,227825:0:0:0:0:
448,192,227825,1,0,0:0:0:0:
320,192,227825,1,0,0:0:0:0:
320,192,227996,1,0,0:0:0:0:
64,192,227996,1,0,0:0:0:0:
448,192,228082,1,0,0:0:0:0:
192,192,228082,1,0,0:0:0:0:
320,192,228168,1,0,0:0:0:0:
448,192,228168,1,0,0:0:0:0:
64,192,228168,1,0,0:0:0:0:
320,192,228253,1,0,0:0:0:0:
192,192,228253,1,0,0:0:0:0:
448,192,228339,1,0,0:0:0:0:
64,192,228339,1,0,0:0:0:0:
320,192,228425,1,0,0:0:0:0:
64,192,228425,1,0,0:0:0:0:
192,192,228510,1,0,0:0:0:0:
320,192,228510,1,0,0:0:0:0:
448,192,228510,128,0,228853:0:0:0:0:
64,192,228682,1,0,0:0:0:0:
192,192,228768,1,0,0:0:0:0:
320,192,228853,1,0,0:0:0:0:
192,192,228853,1,0,0:0:0:0:
64,192,228853,1,0,0:0:0:0:
448,192,229025,1,0,0:0:0:0:
64,192,229025,1,0,0:0:0:0:
320,192,229068,1,0,0:0:0:0:
192,192,229110,1,0,0:0:0:0:
320,192,229153,1,0,0:0:0:0:
192,192,229196,1,0,0:0:0:0:
64,192,229196,1,0,0:0:0:0:
448,192,229196,1,0,0:0:0:0:
448,192,229368,1,0,0:0:0:0:
320,192,229368,1,0,0:0:0:0:
64,192,229368,1,0,0:0:0:0:
448,192,229453,1,0,0:0:0:0:
192,192,229453,1,0,0:0:0:0:
320,192,229539,1,0,0:0:0:0:
192,192,229539,1,0,0:0:0:0:
64,192,229539,1,0,0:0:0:0:
448,192,229625,1,0,0:0:0:0:
64,192,229625,1,0,0:0:0:0:
448,192,229710,1,0,0:0:0:0:
320,192,229710,1,0,0:0:0:0:
192,192,229710,1,0,0:0:0:0:
320,192,229796,1,0,0:0:0:0:
192,192,229796,1,0,0:0:0:0:
64,192,229882,1,0,0:0:0:0:
448,192,229882,1,0,0:0:0:0:
192,192,229882,128,0,230139:0:0:0:0:
448,192,229968,1,0,0:0:0:0:
448,192,230053,1,0,0:0:0:0:
448,192,230139,1,0,0:0:0:0:
64,192,230225,1,0,0:0:0:0:
192,192,230225,1,0,0:0:0:0:
320,192,230225,128,0,230482:0:0:0:0:
64,192,230310,1,0,0:0:0:0:
64,192,230396,1,0,0:0:0:0:
64,192,230482,1,0,0:0:0:0:
448,192,230568,1,0,0:0:0:0:
320,192,230568,1,0,0:0:0:0:
192,192,230568,1,0,0:0:0:0:
320,192,230739,1,0,0:0:0:0:
320,192,230825,1,0,0:0:0:0:
320,192,230910,1,0,0:0:0:0:
320,192,230996,1,0,0:0:0:0:
320,192,231082,1,0,0:0:0:0:
320,192,231168,1,0,0:0:0:0:
320,192,231253,128,0,231310:0:0:0:0:
448,192,231282,128,0,231339:0:0:0:0:
192,192,231425,128,0,231482:0:0:0:0:
448,192,231453,128,0,231510:0:0:0:0:
192,192,231596,128,0,231653:0:0:0:0:
320,192,231625,128,0,231682:0:0:0:0:
64,192,231768,128,0,231825:0:0:0:0:
448,192,231768,1,0,0:0:0:0:
320,192,231796,128,0,231853:0:0:0:0:
192,192,231853,1,0,0:0:0:0:
448,192,231896,1,0,0:0:0:0:
320,192,231939,1,0,0:0:0:0:
64,192,231939,1,0,0:0:0:0:
64,192,232110,1,0,0:0:0:0:
192,192,232110,1,0,0:0:0:0:
64,192,232196,1,0,0:0:0:0:
448,192,232196,1,0,0:0:0:0:
320,192,232282,1,0,0:0:0:0:
192,192,232282,1,0,0:0:0:0:
448,192,232453,1,0,0:0:0:0:
192,192,232453,1,0,0:0:0:0:
320,192,232625,1,0,0:0:0:0:
64,192,232625,1,0,0:0:0:0:
320,192,232710,1,0,0:0:0:0:
448,192,232796,128,0,232968:0:0:0:0:
192,192,232968,1,0,0:0:0:0:
64,192,232968,1,0,0:0:0:0:
320,192,233310,1,0,0:0:0:0:
448,192,233310,128,0,233396:0:0:0:0:
192,192,233310,128,0,233396:0:0:0:0:
64,192,233310,128,0,233396:0:0:0:0:
320,192,233396,128,0,233568:0:0:0:0:
192,192,233482,128,0,233653:0:0:0:0:
448,192,233568,128,0,233653:0:0:0:0:
64,192,233653,1,0,0:0:0:0:
320,192,233653,128,0,233739:0:0:0:0:
64,192,233739,128,0,233910:0:0:0:0:
320,192,233825,128,0,233996:0:0:0:0:
192,192,233910,128,0,233996:0:0:0:0:
448,192,233996,1,0,0:0:0:0:
64,192,233996,128,0,234082:0:0:0:0:
448,192,234082,128,0,234253:0:0:0:0:
64,192,234168,128,0,234339:0:0:0:0:
320,192,234253,128,0,234339:0:0:0:0:
192,192,234339,1,0,0:0:0:0:
448,192,234339,128,0,234425:0:0:0:0:
192,192,234425,128,0,234596:0:0:0:0:
448,192,234510,128,0,234682:0:0:0:0:
64,192,234596,128,0,234682:0:0:0:0:
320,192,234682,1,0,0:0:0:0:
192,192,234682,128,0,234939:0:0:0:0:
320,192,234768,128,0,235025:0:0:0:0:
64,192,234853,128,0,234939:0:0:0:0:
448,192,234939,128,0,235025:0:0:0:0:
192,192,235025,1,0,0:0:0:0:
64,192,235025,128,0,235196:0:0:0:0:
192,192,235110,128,0,235282:0:0:0:0:
320,192,235196,128,0,235282:0:0:0:0:
64,192,235282,128,0,235368:0:0:0:0:
320,192,235368,1,0,0:0:0:0:
192,192,235368,128,0,235539:0:0:0:0:
320,192,235453,128,0,235625:0:0:0:0:
448,192,235539,128,0,235710:0:0:0:0:
192,192,235625,128,0,235710:0:0:0:0:
64,192,235710,1,0,0:0:0:0:
320,192,235710,128,0,236053:0:0:0:0:
64,192,235796,128,0,235968:0:0:0:0:
448,192,235882,128,0,235968:0:0:0:0:
192,192,235968,128,0,236053:0:0:0:0:
448,192,236053,1,0,0:0:0:0:
64,192,236053,128,0,236310:0:0:0:0:
448,192,236139,128,0,236310:0:0:0:0:
192,192,236225,128,0,236396:0:0:0:0:
320,192,236310,128,0,236396:0:0:0:0:
64,192,236396,1,0,0:0:0:0:
448,192,236396,128,0,236739:0:0:0:0:
64,192,236482,128,0,236653:0:0:0:0:
320,192,236568,128,0,236653:0:0:0:0:
192,192,236653,128,0,236739:0:0:0:0:
320,192,236739,1,0,0:0:0:0:
64,192,236739,128,0,236996:0:0:0:0:
320,192,236825,128,0,236996:0:0:0:0:
192,192,236910,128,0,237082:0:0:0:0:
448,192,236996,128,0,237082:0:0:0:0:
64,192,237082,1,0,0:0:0:0:
320,192,237082,128,0,237425:0:0:0:0:
192,192,237168,128,0,237339:0:0:0:0:
448,192,237253,128,0,237339:0:0:0:0:
64,192,237339,128,0,237425:0:0:0:0:
448,192,237425,1,0,0:0:0:0:
192,192,237425,128,0,237682:0:0:0:0:
448,192,237510,128,0,237682:0:0:0:0:
320,192,237596,128,0,237768:0:0:0:0:
64,192,237682,128,0,237768:0:0:0:0:
192,192,237768,1,0,0:0:0:0:
448,192,237768,128,0,238110:0:0:0:0:
192,192,237853,128,0,238025:0:0:0:0:
320,192,237939,128,0,238025:0:0:0:0:
64,192,238025,128,0,238110:0:0:0:0:
320,192,238110,1,0,0:0:0:0:
192,192,238110,128,0,238368:0:0:0:0:
320,192,238196,128,0,238368:0:0:0:0:
64,192,238282,128,0,238368:0:0:0:0:
448,192,238368,128,0,238539:0:0:0:0:
64,192,238453,1,0,0:0:0:0:
320,192,238453,128,0,238539:0:0:0:0:
192,192,238453,128,0,238539:0:0:0:0:
64,192,238539,128,0,238625:0:0:0:0:
448,192,238625,128,0,238710:0:0:0:0:
192,192,238710,128,0,238796:0:0:0:0:
448,192,238796,1,0,0:0:0:0:
64,192,238796,128,0,239053:0:0:0:0:
448,192,238882,128,0,239139:0:0:0:0:
192,192,238968,128,0,239053:0:0:0:0:
320,192,239053,128,0,239139:0:0:0:0:
64,192,239139,1,0,0:0:0:0:
192,192,239139,128,0,239482:0:0:0:0:
64,192,239225,128,0,239396:0:0:0:0:
448,192,239310,128,0,239396:0:0:0:0:
320,192,239396,128,0,239482:0:0:0:0:
448,192,239482,1,0,0:0:0:0:
64,192,239482,128,0,239825:0:0:0:0:
448,192,239568,128,0,239739:0:0:0:0:
192,192,239653,128,0,239739:0:0:0:0:
320,192,239739,128,0,239825:0:0:0:0:
192,192,239825,1,0,0:0:0:0:
448,192,239825,128,0,240082:0:0:0:0:
192,192,239910,128,0,240082:0:0:0:0:
320,192,239996,128,0,240168:0:0:0:0:
64,192,240082,128,0,240168:0:0:0:0:
448,192,240168,1,0,0:0:0:0:
192,192,240168,128,0,240510:0:0:0:0:
448,192,240253,128,0,240425:0:0:0:0:
64,192,240339,128,0,240425:0:0:0:0:
320,192,240425,128,0,240510:0:0:0:0:
64,192,240510,1,0,0:0:0:0:
448,192,240510,128,0,240768:0:0:0:0:
64,192,240596,128,0,240768:0:0:0:0:
320,192,240682,128,0,240853:0:0:0:0:
192,192,240768,128,0,240853:0:0:0:0:
448,192,240853,1,0,0:0:0:0:
64,192,240853,128,0,240939:0:0:0:0:
448,192,240939,128,0,241110:0:0:0:0:
64,192,241025,128,0,241196:0:0:0:0:
320,192,241110,128,0,241196:0:0:0:0:
192,192,241196,1,0,0:0:0:0:
448,192,241196,128,0,241539:0:0:0:0:
192,192,241282,128,0,241453:0:0:0:0:
320,192,241368,128,0,241453:0:0:0:0:
64,192,241453,128,0,241539:0:0:0:0:
320,192,241539,1,0,0:0:0:0:
192,192,241539,128,0,241882:0:0:0:0:
320,192,241625,128,0,241796:0:0:0:0:
64,192,241710,128,0,241796:0:0:0:0:
448,192,241796,128,0,241882:0:0:0:0:
64,192,241882,1,0,0:0:0:0:
320,192,241882,128,0,242139:0:0:0:0:
64,192,241968,128,0,242139:0:0:0:0:
448,192,242053,128,0,242225:0:0:0:0:
192,192,242139,128,0,242225:0:0:0:0:
320,192,242225,1,0,0:0:0:0:
64,192,242225,128,0,242568:0:0:0:0:
320,192,242310,128,0,242482:0:0:0:0:
192,192,242396,128,0,242482:0:0:0:0:
448,192,242482,128,0,242568:0:0:0:0:
192,192,242568,1,0,0:0:0:0:
320,192,242568,128,0,242653:0:0:0:0:
192,192,242653,128,0,242825:0:0:0:0:
320,192,242739,128,0,242910:0:0:0:0:
64,192,242825,128,0,242910:0:0:0:0:
448,192,242910,1,0,0:0:0:0:
192,192,242910,128,0,243082:0:0:0:0:
448,192,242996,128,0,243510:0:0:0:0:
64,192,243082,1,0,0:0:0:0:
64,192,243168,1,0,0:0:0:0:
64,192,243253,1,0,0:0:0:0:
320,192,243253,128,0,243339:0:0:0:0:
64,192,243339,128,0,243596:0:0:0:0:
320,192,243425,1,0,0:0:0:0:
320,192,243510,128,0,243596:0:0:0:0:
192,192,243596,1,0,0:0:0:0:
448,192,243596,128,0,243682:0:0:0:0:
192,192,243682,128,0,244196:0:0:0:0:
448,192,243768,128,0,244110:0:0:0:0:
64,192,243853,128,0,244025:0:0:0:0:
320,192,243939,1,0,0:0:0:0:
320,192,244025,128,0,244196:0:0:0:0:
64,192,244110,128,0,244196:0:0:0:0:
448,192,244196,1,0,0:0:0:0:
448,192,244282,1,0,0:0:0:0:
320,192,244282,1,0,0:0:0:0:
192,192,244282,1,0,0:0:0:0:
64,192,244282,1,0,0:0:0:0:
192,192,244368,1,0,0:0:0:0:
320,192,244453,1,0,0:0:0:0:
192,192,244539,1,0,0:0:0:0:
448,192,244625,1,0,0:0:0:0:
192,192,244710,1,0,0:0:0:0:
320,192,244796,1,0,0:0:0:0:
192,192,244882,1,0,0:0:0:0:
320,192,244968,1,0,0:0:0:0:
192,192,245053,1,0,0:0:0:0:
448,192,245139,1,0,0:0:0:0:
192,192,245225,1,0,0:0:0:0:
320,192,245310,1,0,0:0:0:0:
192,192,245396,1,0,0:0:0:0:
320,192,245482,1,0,0:0:0:0:
192,192,245568,1,0,0:0:0:0:
448,192,245653,1,0,0:0:0:0:
192,192,245739,1,0,0:0:0:0:
320,192,245825,1,0,0:0:0:0:
192,192,245910,1,0,0:0:0:0:
320,192,245996,1,0,0:0:0:0:
192,192,246082,1,0,0:0:0:0:
448,192,246168,1,0,0:0:0:0:
192,192,246253,1,0,0:0:0:0:
320,192,246339,1,0,0:0:0:0:
192,192,246425,1,0,0:0:0:0:
320,192,246510,1,0,0:0:0:0:
192,192,246596,1,0,0:0:0:0:
448,192,246682,1,0,0:0:0:0:
192,192,246768,1,0,0:0:0:0:
320,192,246853,1,0,0:0:0:0:
192,192,246939,1,0,0:0:0:0:
448,192,247025,1,0,0:0:0:0:
64,192,247110,1,0,0:0:0:0:
320,192,247196,1,0,0:0:0:0:
64,192,247282,1,0,0:0:0:0:
320,192,247368,1,0,0:0:0:0:
64,192,247453,1,0,0:0:0:0:
448,192,247539,1,0,0:0:0:0:
64,192,247625,1,0,0:0:0:0:
320,192,247710,1,0,0:0:0:0:
64,192,247796,1,0,0:0:0:0:
320,192,247882,1,0,0:0:0:0:
64,192,247968,1,0,0:0:0:0:
448,192,248053,1,0,0:0:0:0:
64,192,248139,1,0,0:0:0:0:
320,192,248225,1,0,0:0:0:0:
64,192,248310,1,0,0:0:0:0:
320,192,248396,1,0,0:0:0:0:
64,192,248482,1,0,0:0:0:0:
448,192,248568,1,0,0:0:0:0:
64,192,248653,1,0,0:0:0:0:
320,192,248739,1,0,0:0:0:0:
64,192,248825,1,0,0:0:0:0:
320,192,248910,1,0,0:0:0:0:
64,192,248996,1,0,0:0:0:0:
448,192,249082,1,0,0:0:0:0:
64,192,249168,1,0,0:0:0:0:
320,192,249253,1,0,0:0:0:0:
64,192,249339,1,0,0:0:0:0:
448,192,249425,1,0,0:0:0:0:
64,192,249510,1,0,0:0:0:0:
320,192,249596,1,0,0:0:0:0:
64,192,249682,1,0,0:0:0:0:
448,192,249768,1,0,0:0:0:0:
192,192,249853,1,0,0:0:0:0:
320,192,249939,1,0,0:0:0:0:
192,192,250025,1,0,0:0:0:0:
448,192,250110,1,0,0:0:0:0:
192,192,250196,1,0,0:0:0:0:
320,192,250282,1,0,0:0:0:0:
192,192,250368,1,0,0:0:0:0:
320,192,250453,1,0,0:0:0:0:
192,192,250539,1,0,0:0:0:0:
448,192,250625,1,0,0:0:0:0:
192,192,250710,1,0,0:0:0:0:
320,192,250796,1,0,0:0:0:0:
192,192,250882,1,0,0:0:0:0:
320,192,250968,1,0,0:0:0:0:
192,192,251053,1,0,0:0:0:0:
448,192,251139,1,0,0:0:0:0:
192,192,251225,1,0,0:0:0:0:
320,192,251310,1,0,0:0:0:0:
192,192,251396,1,0,0:0:0:0:
320,192,251482,1,0,0:0:0:0:
192,192,251568,1,0,0:0:0:0:
448,192,251653,1,0,0:0:0:0:
192,192,251739,1,0,0:0:0:0:
320,192,251825,1,0,0:0:0:0:
192,192,251910,1,0,0:0:0:0:
320,192,251996,1,0,0:0:0:0:
192,192,252082,1,0,0:0:0:0:
448,192,252168,1,0,0:0:0:0:
192,192,252253,1,0,0:0:0:0:
320,192,252339,1,0,0:0:0:0:
192,192,252425,1,0,0:0:0:0:
448,192,252510,1,0,0:0:0:0:
320,192,252539,1,0,0:0:0:0:
64,192,252596,1,0,0:0:0:0:
320,192,252682,1,0,0:0:0:0:
64,192,252768,1,0,0:0:0:0:
320,192,252853,1,0,0:0:0:0:
448,192,252882,1,0,0:0:0:0:
64,192,252939,1,0,0:0:0:0:
448,192,253025,1,0,0:0:0:0:
64,192,253110,1,0,0:0:0:0:
320,192,253196,1,0,0:0:0:0:
448,192,253225,1,0,0:0:0:0:
64,192,253282,1,0,0:0:0:0:
320,192,253368,1,0,0:0:0:0:
64,192,253453,1,0,0:0:0:0:
448,192,253539,1,0,0:0:0:0:
320,192,253568,1,0,0:0:0:0:
64,192,253625,1,0,0:0:0:0:
320,192,253710,1,0,0:0:0:0:
64,192,253796,1,0,0:0:0:0:
320,192,253882,1,0,0:0:0:0:
448,192,253925,1,0,0:0:0:0:
64,192,253968,1,0,0:0:0:0:
192,192,254010,1,0,0:0:0:0:
448,192,254053,1,0,0:0:0:0:
320,192,254096,1,0,0:0:0:0:
192,192,254139,1,0,0:0:0:0:
64,192,254182,1,0,0:0:0:0:
320,192,254225,1,0,0:0:0:0:
448,192,254268,1,0,0:0:0:0:
64,192,254310,1,0,0:0:0:0:
192,192,254353,1,0,0:0:0:0:
320,192,254396,1,0,0:0:0:0:
448,192,254439,1,0,0:0:0:0:
64,192,254482,1,0,0:0:0:0:
192,192,254525,1,0,0:0:0:0:
448,192,254568,1,0,0:0:0:0:
320,192,254610,1,0,0:0:0:0:
64,192,254653,1,0,0:0:0:0:
192,192,254696,1,0,0:0:0:0:
320,192,254739,1,0,0:0:0:0:
448,192,254782,1,0,0:0:0:0:
64,192,254825,1,0,0:0:0:0:
192,192,254868,1,0,0:0:0:0:
448,192,254910,1,0,0:0:0:0:
320,192,254953,1,0,0:0:0:0:
192,192,254996,1,0,0:0:0:0:
64,192,255039,1,0,0:0:0:0:
320,192,255082,1,0,0:0:0:0:
448,192,255125,1,0,0:0:0:0:
192,192,255168,1,0,0:0:0:0:
64,192,255210,1,0,0:0:0:0:
320,192,255253,1,0,0:0:0:0:
448,192,255253,1,0,0:0:0:0:
192,192,256282,1,0,0:0:0:0:
64,192,256282,1,0,0:0:0:0:
448,192,256625,1,0,0:0:0:0:
64,192,256625,1,0,0:0:0:0:
192,192,257768,1,0,0:0:0:0:
448,192,257768,1,0,0:0:0:0:
64,192,257882,1,0,0:0:0:0:
320,192,257882,1,0,0:0:0:0:
448,192,257996,1,0,0:0:0:0:
192,192,257996,1,0,0:0:0:0:
448,192,259025,1,0,0:0:0:0:
320,192,259025,1,0,0:0:0:0:
192,192,259368,1,0,0:0:0:0:
320,192,259368,1,0,0:0:0:0:
320,192,260053,1,0,0:0:0:0:
64,192,260053,1,0,0:0:0:0:
448,192,260739,1,0,0:0:0:0:
192,192,260739,1,0,0:0:0:0:
192,192,261768,1,0,0:0:0:0:
64,192,261768,1,0,0:0:0:0:
448,192,262110,1,0,0:0:0:0:
64,192,262110,1,0,0:0:0:0:
320,192,263253,1,0,0:0:0:0:
64,192,263253,1,0,0:0:0:0:
448,192,263368,1,0,0:0:0:0:
192,192,263368,1,0,0:0:0:0:
320,192,263482,1,0,0:0:0:0:
64,192,263482,1,0,0:0:0:0:
320,192,264168,1,0,0:0:0:0:
192,192,264168,1,0,0:0:0:0:
64,192,264853,1,0,0:0:0:0:
320,192,264853,1,0,0:0:0:0:
64,192,265539,1,0,0:0:0:0:
192,192,265539,1,0,0:0:0:0:
320,192,266739,128,0,267139:0:0:0:0:
192,192,266739,1,0,0:0:0:0:
64,192,266910,128,0,267053:0:0:0:0:
192,192,266996,128,0,267110:0:0:0:0:
448,192,267082,128,0,267168:0:0:0:0:
192,192,267253,1,0,0:0:0:0:
64,192,267253,1,0,0:0:0:0:
192,192,267596,1,0,0:0:0:0:
448,192,267596,1,0,0:0:0:0:
192,192,268739,1,0,0:0:0:0:
448,192,268739,1,0,0:0:0:0:
320,192,268853,1,0,0:0:0:0:
64,192,268853,1,0,0:0:0:0:
448,192,268968,1,0,0:0:0:0:
192,192,268968,1,0,0:0:0:0:
320,192,269482,128,0,269882:0:0:0:0:
192,192,269482,1,0,0:0:0:0:
64,192,269653,128,0,269796:0:0:0:0:
192,192,269739,128,0,269853:0:0:0:0:
448,192,269825,128,0,269910:0:0:0:0:
320,192,269996,1,0,0:0:0:0:
192,192,269996,1,0,0:0:0:0:
320,192,270339,1,0,0:0:0:0:
64,192,270339,1,0,0:0:0:0:
192,192,271025,1,0,0:0:0:0:
64,192,271025,1,0,0:0:0:0:
320,192,271710,1,0,0:0:0:0:
64,192,271710,1,0,0:0:0:0:
192,192,272225,1,0,0:0:0:0:
320,192,272225,128,0,272625:0:0:0:0:
64,192,272396,128,0,272539:0:0:0:0:
192,192,272482,128,0,272596:0:0:0:0:
448,192,272568,128,0,272653:0:0:0:0:
192,192,272739,1,0,0:0:0:0:
64,192,272739,1,0,0:0:0:0:
448,192,273082,1,0,0:0:0:0:
64,192,273082,1,0,0:0:0:0:
320,192,274225,1,0,0:0:0:0:
64,192,274225,1,0,0:0:0:0:
448,192,274339,1,0,0:0:0:0:
192,192,274339,1,0,0:0:0:0:
320,192,274453,1,0,0:0:0:0:
64,192,274453,1,0,0:0:0:0:
64,192,274910,1,0,0:0:0:0:
192,192,274968,1,0,0:0:0:0:
320,192,274968,128,0,275368:0:0:0:0:
448,192,275025,1,0,0:0:0:0:
64,192,275139,128,0,275282:0:0:0:0:
448,192,275139,1,0,0:0:0:0:
192,192,275225,128,0,275339:0:0:0:0:
448,192,275310,128,0,275396:0:0:0:0:
320,192,275596,1,0,0:0:0:0:
64,192,275596,1,0,0:0:0:0:
320,192,275710,1,0,0:0:0:0:
192,192,275710,1,0,0:0:0:0:
448,192,275825,1,0,0:0:0:0:
320,192,275825,1,0,0:0:0:0:
448,192,276168,1,0,0:0:0:0:
64,192,276168,1,0,0:0:0:0:
448,192,276339,1,0,0:0:0:0:
448,192,276510,1,0,0:0:0:0:
192,192,276510,1,0,0:0:0:0:
64,192,276853,1,0,0:0:0:0:
448,192,276853,1,0,0:0:0:0:
448,192,277025,1,0,0:0:0:0:
448,192,277196,1,0,0:0:0:0:
320,192,277196,1,0,0:0:0:0:
64,192,277196,1,0,0:0:0:0:
192,192,277239,1,0,0:0:0:0:
320,192,277282,1,0,0:0:0:0:
64,192,277325,1,0,0:0:0:0:
192,192,277368,1,0,0:0:0:0:
448,192,277410,1,0,0:0:0:0:
320,192,277453,1,0,0:0:0:0:
64,192,277496,1,0,0:0:0:0:
192,192,277539,1,0,0:0:0:0:
448,192,277539,1,0,0:0:0:0:
320,192,277596,1,0,0:0:0:0:
448,192,277653,1,0,0:0:0:0:
64,192,277710,1,0,0:0:0:0:
192,192,277710,1,0,0:0:0:0:
320,192,277768,1,0,0:0:0:0:
64,192,277825,1,0,0:0:0:0:
448,192,277882,1,0,0:0:0:0:
192,192,277882,1,0,0:0:0:0:
320,192,277939,1,0,0:0:0:0:
64,192,277996,1,0,0:0:0:0:
192,192,278053,1,0,0:0:0:0:
320,192,278053,1,0,0:0:0:0:
448,192,278110,1,0,0:0:0:0:
64,192,278168,1,0,0:0:0:0:
192,192,278225,1,0,0:0:0:0:
448,192,278225,1,0,0:0:0:0:
320,192,278282,1,0,0:0:0:0:
192,192,278339,1,0,0:0:0:0:
64,192,278396,1,0,0:0:0:0:
448,192,278396,1,0,0:0:0:0:
320,192,278453,1,0,0:0:0:0:
192,192,278510,1,0,0:0:0:0:
448,192,278568,1,0,0:0:0:0:
320,192,278568,1,0,0:0:0:0:
64,192,278625,1,0,0:0:0:0:
320,192,278682,1,0,0:0:0:0:
448,192,278739,1,0,0:0:0:0:
64,192,278739,1,0,0:0:0:0:
192,192,278796,1,0,0:0:0:0:
320,192,278853,1,0,0:0:0:0:
64,192,278910,1,0,0:0:0:0:
448,192,278910,1,0,0:0:0:0:
192,192,278968,1,0,0:0:0:0:
448,192,279025,1,0,0:0:0:0:
320,192,279082,1,0,0:0:0:0:
192,192,279082,1,0,0:0:0:0:
64,192,279139,1,0,0:0:0:0:
320,192,279196,1,0,0:0:0:0:
448,192,279253,1,0,0:0:0:0:
64,192,279253,1,0,0:0:0:0:
192,192,279296,1,0,0:0:0:0:
320,192,279339,1,0,0:0:0:0:
64,192,279382,1,0,0:0:0:0:
192,192,279425,1,0,0:0:0:0:
448,192,279468,1,0,0:0:0:0:
64,192,279510,1,0,0:0:0:0:
320,192,279553,1,0,0:0:0:0:
192,192,279596,1,0,0:0:0:0:
448,192,279596,1,0,0:0:0:0:
64,192,279653,1,0,0:0:0:0:
320,192,279710,1,0,0:0:0:0:
448,192,279768,1,0,0:0:0:0:
64,192,279768,1,0,0:0:0:0:
192,192,279825,1,0,0:0:0:0:
320,192,279882,1,0,0:0:0:0:
448,192,279939,1,0,0:0:0:0:
64,192,279939,1,0,0:0:0:0:
192,192,279982,1,0,0:0:0:0:
320,192,280025,1,0,0:0:0:0:
64,192,280068,1,0,0:0:0:0:
192,192,280110,1,0,0:0:0:0:
448,192,280153,1,0,0:0:0:0:
320,192,280196,1,0,0:0:0:0:
64,192,280239,1,0,0:0:0:0:
448,192,280282,1,0,0:0:0:0:
192,192,280282,1,0,0:0:0:0:
320,192,280339,1,0,0:0:0:0:
64,192,280396,1,0,0:0:0:0:
192,192,280453,1,0,0:0:0:0:
320,192,280453,1,0,0:0:0:0:
448,192,280510,1,0,0:0:0:0:
192,192,280568,1,0,0:0:0:0:
64,192,280625,1,0,0:0:0:0:
448,192,280625,1,0,0:0:0:0:
320,192,280682,1,0,0:0:0:0:
192,192,280739,1,0,0:0:0:0:
448,192,280796,1,0,0:0:0:0:
320,192,280796,1,0,0:0:0:0:
64,192,280853,1,0,0:0:0:0:
448,192,280910,1,0,0:0:0:0:
320,192,280968,1,0,0:0:0:0:
64,192,280968,1,0,0:0:0:0:
192,192,281025,1,0,0:0:0:0:
320,192,281082,1,0,0:0:0:0:
64,192,281139,1,0,0:0:0:0:
448,192,281139,1,0,0:0:0:0:
192,192,281196,1,0,0:0:0:0:
448,192,281253,1,0,0:0:0:0:
320,192,281310,1,0,0:0:0:0:
192,192,281310,1,0,0:0:0:0:
64,192,281368,1,0,0:0:0:0:
320,192,281425,1,0,0:0:0:0:
192,192,281482,1,0,0:0:0:0:
448,192,281482,1,0,0:0:0:0:
64,192,281539,1,0,0:0:0:0:
448,192,281596,1,0,0:0:0:0:
320,192,281653,1,0,0:0:0:0:
192,192,281653,1,0,0:0:0:0:
64,192,281710,1,0,0:0:0:0:
448,192,281768,1,0,0:0:0:0:
320,192,281825,1,0,0:0:0:0:
64,192,281825,1,0,0:0:0:0:
192,192,281868,1,0,0:0:0:0:
448,192,281910,1,0,0:0:0:0:
320,192,281953,1,0,0:0:0:0:
192,192,281996,1,0,0:0:0:0:
64,192,281996,1,0,0:0:0:0:
448,192,282053,1,0,0:0:0:0:
320,192,282110,1,0,0:0:0:0:
192,192,282168,1,0,0:0:0:0:
64,192,282168,1,0,0:0:0:0:
448,192,282225,1,0,0:0:0:0:
64,192,282282,1,0,0:0:0:0:
448,192,282339,1,0,0:0:0:0:
192,192,282339,1,0,0:0:0:0:
320,192,282396,1,0,0:0:0:0:
64,192,282453,1,0,0:0:0:0:
192,192,282510,1,0,0:0:0:0:
320,192,282510,1,0,0:0:0:0:
448,192,282568,1,0,0:0:0:0:
64,192,282625,1,0,0:0:0:0:
192,192,282682,1,0,0:0:0:0:
448,192,282682,1,0,0:0:0:0:
320,192,282725,1,0,0:0:0:0:
64,192,282768,1,0,0:0:0:0:
192,192,282810,1,0,0:0:0:0:
448,192,282853,1,0,0:0:0:0:
64,192,282896,1,0,0:0:0:0:
320,192,282939,1,0,0:0:0:0:
192,192,282982,1,0,0:0:0:0:
448,192,283025,1,0,0:0:0:0:
64,192,283025,1,0,0:0:0:0:
320,192,283082,1,0,0:0:0:0:
192,192,283139,1,0,0:0:0:0:
448,192,283196,1,0,0:0:0:0:
320,192,283196,1,0,0:0:0:0:
64,192,283253,1,0,0:0:0:0:
192,192,283310,1,0,0:0:0:0:
64,192,283368,1,0,0:0:0:0:
448,192,283368,1,0,0:0:0:0:
320,192,283425,1,0,0:0:0:0:
192,192,283482,1,0,0:0:0:0:
448,192,283539,1,0,0:0:0:0:
64,192,283539,1,0,0:0:0:0:
320,192,283596,1,0,0:0:0:0:
192,192,283653,1,0,0:0:0:0:
448,192,283710,1,0,0:0:0:0:
320,192,283710,1,0,0:0:0:0:
64,192,283768,1,0,0:0:0:0:
448,192,283825,1,0,0:0:0:0:
320,192,283882,1,0,0:0:0:0:
64,192,283882,1,0,0:0:0:0:
192,192,283939,1,0,0:0:0:0:
320,192,283996,1,0,0:0:0:0:
64,192,284053,1,0,0:0:0:0:
448,192,284053,1,0,0:0:0:0:
192,192,284110,1,0,0:0:0:0:
448,192,284168,1,0,0:0:0:0:
320,192,284225,1,0,0:0:0:0:
64,192,284225,1,0,0:0:0:0:
192,192,284282,1,0,0:0:0:0:
320,192,284339,1,0,0:0:0:0:
192,192,284396,1,0,0:0:0:0:
64,192,284396,1,0,0:0:0:0:
448,192,284453,1,0,0:0:0:0:
64,192,284510,1,0,0:0:0:0:
448,192,284568,1,0,0:0:0:0:
192,192,284568,1,0,0:0:0:0:
320,192,284625,1,0,0:0:0:0:
192,192,284682,1,0,0:0:0:0:
448,192,284739,1,0,0:0:0:0:
320,192,284739,1,0,0:0:0:0:
64,192,284782,1,0,0:0:0:0:
192,192,284825,1,0,0:0:0:0:
448,192,284868,1,0,0:0:0:0:
64,192,284910,1,0,0:0:0:0:
320,192,284953,1,0,0:0:0:0:
192,192,284996,1,0,0:0:0:0:
448,192,285039,1,0,0:0:0:0:
320,192,285082,1,0,0:0:0:0:
64,192,285082,1,0,0:0:0:0:
192,192,285139,1,0,0:0:0:0:
448,192,285196,1,0,0:0:0:0:
320,192,285253,1,0,0:0:0:0:
192,192,285253,1,0,0:0:0:0:
64,192,285310,1,0,0:0:0:0:
320,192,285368,1,0,0:0:0:0:
448,192,285425,1,0,0:0:0:0:
64,192,285425,1,0,0:0:0:0:
192,192,285468,1,0,0:0:0:0:
320,192,285510,1,0,0:0:0:0:
64,192,285553,1,0,0:0:0:0:
192,192,285596,1,0,0:0:0:0:
448,192,285639,1,0,0:0:0:0:
64,192,285682,1,0,0:0:0:0:
320,192,285725,1,0,0:0:0:0:
448,192,285768,1,0,0:0:0:0:
192,192,285768,1,0,0:0:0:0:
64,192,285825,1,0,0:0:0:0:
448,192,285882,1,0,0:0:0:0:
320,192,285939,1,0,0:0:0:0:
64,192,285939,1,0,0:0:0:0:
192,192,285996,1,0,0:0:0:0:
320,192,286053,1,0,0:0:0:0:
448,192,286110,1,0,0:0:0:0:
64,192,286110,1,0,0:0:0:0:
192,192,286168,1,0,0:0:0:0:
320,192,286225,1,0,0:0:0:0:
192,192,286282,1,0,0:0:0:0:
64,192,286282,1,0,0:0:0:0:
448,192,286339,1,0,0:0:0:0:
320,192,286396,1,0,0:0:0:0:
448,192,286453,1,0,0:0:0:0:
192,192,286453,1,0,0:0:0:0:
64,192,286510,1,0,0:0:0:0:
320,192,286568,1,0,0:0:0:0:
192,192,286625,1,0,0:0:0:0:
64,192,286625,1,0,0:0:0:0:
448,192,286682,1,0,0:0:0:0:
192,192,286739,1,0,0:0:0:0:
64,192,286796,1,0,0:0:0:0:
320,192,286796,1,0,0:0:0:0:
448,192,286853,1,0,0:0:0:0:
192,192,286910,1,0,0:0:0:0:
320,192,286968,1,0,0:0:0:0:
448,192,286968,1,0,0:0:0:0:
64,192,287025,1,0,0:0:0:0:
192,192,287082,1,0,0:0:0:0:
448,192,287139,1,0,0:0:0:0:
64,192,287139,1,0,0:0:0:0:
320,192,287196,1,0,0:0:0:0:
192,192,287253,1,0,0:0:0:0:
64,192,287310,1,0,0:0:0:0:
448,192,287310,1,0,0:0:0:0:
320,192,287368,1,0,0:0:0:0:
448,192,287425,1,0,0:0:0:0:
64,192,287482,1,0,0:0:0:0:
192,192,287482,1,0,0:0:0:0:
320,192,287539,1,0,0:0:0:0:
448,192,287596,1,0,0:0:0:0:
192,192,287653,1,0,0:0:0:0:
64,192,287653,1,0,0:0:0:0:
320,192,287710,1,0,0:0:0:0:
448,192,287768,1,0,0:0:0:0:
192,192,287825,1,0,0:0:0:0:
64,192,287825,1,0,0:0:0:0:
192,192,287910,5,0,0:0:0:0:
64,192,287910,1,0,0:0:0:0:
192,192,287996,1,0,0:0:0:0:
64,192,287996,1,0,0:0:0:0:
192,192,288082,1,0,0:0:0:0:
64,192,288082,1,0,0:0:0:0:
320,192,288168,1,0,0:0:0:0:
192,192,288168,1,0,0:0:0:0:
64,192,288168,1,0,0:0:0:0:
448,192,288168,1,0,0:0:0:0:
448,192,288253,1,0,0:0:0:0:
64,192,288339,1,0,0:0:0:0:
320,192,288339,1,0,0:0:0:0:
192,192,288425,1,0,0:0:0:0:
320,192,288425,1,0,0:0:0:0:
448,192,288510,1,0,0:0:0:0:
64,192,288510,1,0,0:0:0:0:
192,192,288510,1,0,0:0:0:0:
448,192,288596,1,0,0:0:0:0:
320,192,288682,1,0,0:0:0:0:
64,192,288682,1,0,0:0:0:0:
192,192,288682,1,0,0:0:0:0:
64,192,288768,1,0,0:0:0:0:
448,192,288853,1,0,0:0:0:0:
320,192,288853,1,0,0:0:0:0:
192,192,288853,1,0,0:0:0:0:
448,192,288939,1,0,0:0:0:0:
64,192,288939,1,0,0:0:0:0:
320,192,289025,1,0,0:0:0:0:
192,192,289025,1,0,0:0:0:0:
64,192,289110,1,0,0:0:0:0:
448,192,289110,1,0,0:0:0:0:
320,192,289196,1,0,0:0:0:0:
192,192,289196,1,0,0:0:0:0:
64,192,289196,1,0,0:0:0:0:
320,192,289282,1,0,0:0:0:0:
192,192,289368,1,0,0:0:0:0:
64,192,289368,1,0,0:0:0:0:
448,192,289368,1,0,0:0:0:0:
192,192,289453,1,0,0:0:0:0:
448,192,289539,1,0,0:0:0:0:
320,192,289539,1,0,0:0:0:0:
64,192,289539,1,0,0:0:0:0:
448,192,289625,1,0,0:0:0:0:
320,192,289710,1,0,0:0:0:0:
192,192,289710,1,0,0:0:0:0:
320,192,289796,1,0,0:0:0:0:
64,192,289796,1,0,0:0:0:0:
64,192,289882,1,0,0:0:0:0:
192,192,289882,1,0,0:0:0:0:
448,192,289882,1,0,0:0:0:0:
448,192,289968,1,0,0:0:0:0:
192,192,290053,1,0,0:0:0:0:
320,192,290053,1,0,0:0:0:0:
64,192,290053,1,0,0:0:0:0:
64,192,290139,1,0,0:0:0:0:
320,192,290225,1,0,0:0:0:0:
192,192,290225,1,0,0:0:0:0:
448,192,290225,1,0,0:0:0:0:
448,192,290310,1,0,0:0:0:0:
192,192,290396,1,0,0:0:0:0:
320,192,290396,1,0,0:0:0:0:
64,192,290396,1,0,0:0:0:0:
64,192,290482,1,0,0:0:0:0:
448,192,290482,1,0,0:0:0:0:
320,192,290568,1,0,0:0:0:0:
192,192,290568,1,0,0:0:0:0:
448,192,290653,1,0,0:0:0:0:
192,192,290653,1,0,0:0:0:0:
320,192,290739,1,0,0:0:0:0:
64,192,290739,1,0,0:0:0:0:
448,192,290825,1,0,0:0:0:0:
192,192,290825,1,0,0:0:0:0:
448,192,290910,1,0,0:0:0:0:
320,192,290910,1,0,0:0:0:0:
64,192,290910,1,0,0:0:0:0:
64,192,290996,1,0,0:0:0:0:
192,192,291082,1,0,0:0:0:0:
448,192,291082,1,0,0:0:0:0:
448,192,291168,1,0,0:0:0:0:
320,192,291168,1,0,0:0:0:0:
320,192,291253,1,0,0:0:0:0:
192,192,291253,1,0,0:0:0:0:
64,192,291253,1,0,0:0:0:0:
64,192,291339,1,0,0:0:0:0:
192,192,291425,1,0,0:0:0:0:
320,192,291425,1,0,0:0:0:0:
448,192,291425,1,0,0:0:0:0:
448,192,291510,1,0,0:0:0:0:
192,192,291596,1,0,0:0:0:0:
320,192,291596,1,0,0:0:0:0:
64,192,291596,1,0,0:0:0:0:
64,192,291682,1,0,0:0:0:0:
448,192,291682,1,0,0:0:0:0:
320,192,291768,1,0,0:0:0:0:
192,192,291768,1,0,0:0:0:0:
64,192,291853,1,0,0:0:0:0:
448,192,291853,1,0,0:0:0:0:
320,192,291939,1,0,0:0:0:0:
448,192,291939,1,0,0:0:0:0:
192,192,291939,1,0,0:0:0:0:
192,192,292025,1,0,0:0:0:0:
64,192,292110,1,0,0:0:0:0:
320,192,292110,1,0,0:0:0:0:
448,192,292110,1,0,0:0:0:0:
320,192,292196,1,0,0:0:0:0:
64,192,292282,1,0,0:0:0:0:
192,192,292282,1,0,0:0:0:0:
448,192,292282,1,0,0:0:0:0:
64,192,292368,1,0,0:0:0:0:
320,192,292453,1,0,0:0:0:0:
192,192,292453,1,0,0:0:0:0:
448,192,292539,1,0,0:0:0:0:
192,192,292539,1,0,0:0:0:0:
64,192,292625,1,0,0:0:0:0:
448,192,292625,1,0,0:0:0:0:
320,192,292625,1,0,0:0:0:0:
64,192,292710,1,0,0:0:0:0:
448,192,292796,1,0,0:0:0:0:
320,192,292796,1,0,0:0:0:0:
192,192,292796,1,0,0:0:0:0:
448,192,292882,1,0,0:0:0:0:
192,192,292968,1,0,0:0:0:0:
320,192,292968,1,0,0:0:0:0:
64,192,292968,1,0,0:0:0:0:
64,192,293053,1,0,0:0:0:0:
192,192,293139,1,0,0:0:0:0:
320,192,293139,1,0,0:0:0:0:
448,192,293139,1,0,0:0:0:0:
448,192,293225,1,0,0:0:0:0:
64,192,293225,1,0,0:0:0:0:
192,192,293310,1,0,0:0:0:0:
320,192,293310,1,0,0:0:0:0:
64,192,293396,1,0,0:0:0:0:
448,192,293396,1,0,0:0:0:0:
320,192,293482,1,0,0:0:0:0:
448,192,293482,1,0,0:0:0:0:
192,192,293568,1,0,0:0:0:0:
64,192,293568,1,0,0:0:0:0:
64,192,293653,1,0,0:0:0:0:
448,192,293653,1,0,0:0:0:0:
320,192,293653,1,0,0:0:0:0:
192,192,293710,1,0,0:0:0:0:
320,192,293768,1,0,0:0:0:0:
448,192,293768,1,0,0:0:0:0:
64,192,293825,1,0,0:0:0:0:
192,192,293882,1,0,0:0:0:0:
448,192,293882,1,0,0:0:0:0:
320,192,293939,1,0,0:0:0:0:
192,192,293996,1,0,0:0:0:0:
64,192,293996,1,0,0:0:0:0:
448,192,294039,1,0,0:0:0:0:
320,192,294082,1,0,0:0:0:0:
64,192,294125,1,0,0:0:0:0:
192,192,294168,1,0,0:0:0:0:
448,192,294210,1,0,0:0:0:0:
64,192,294253,1,0,0:0:0:0:
320,192,294296,1,0,0:0:0:0:
192,192,294339,1,0,0:0:0:0:
448,192,294382,1,0,0:0:0:0:
320,192,294425,1,0,0:0:0:0:
64,192,294468,1,0,0:0:0:0:
448,192,294510,1,0,0:0:0:0:
192,192,294553,1,0,0:0:0:0:
320,192,294596,1,0,0:0:0:0:
64,192,294639,1,0,0:0:0:0:
448,192,294682,1,0,0:0:0:0:
192,192,294725,1,0,0:0:0:0:
320,192,294768,1,0,0:0:0:0:
448,192,294810,1,0,0:0:0:0:
64,192,294853,1,0,0:0:0:0:
320,192,294896,1,0,0:0:0:0:
192,192,294939,1,0,0:0:0:0:
448,192,294982,1,0,0:0:0:0:
320,192,295025,1,0,0:0:0:0:
64,192,295068,1,0,0:0:0:0:
192,192,295110,1,0,0:0:0:0:
448,192,295153,1,0,0:0:0:0:
64,192,295196,1,0,0:0:0:0:
320,192,295239,1,0,0:0:0:0:
192,192,295282,1,0,0:0:0:0:
448,192,295325,1,0,0:0:0:0:
320,192,295368,1,0,0:0:0:0:
64,192,295410,1,0,0:0:0:0:
448,192,295453,1,0,0:0:0:0:
192,192,295496,1,0,0:0:0:0:
320,192,295539,1,0,0:0:0:0:
64,192,295582,1,0,0:0:0:0:
192,192,295625,1,0,0:0:0:0:
448,192,295668,1,0,0:0:0:0:
64,192,295710,1,0,0:0:0:0:
320,192,295753,1,0,0:0:0:0:
192,192,295796,1,0,0:0:0:0:
448,192,295839,1,0,0:0:0:0:
320,192,295882,1,0,0:0:0:0:
64,192,295925,1,0,0:0:0:0:
448,192,295968,1,0,0:0:0:0:
192,192,296010,1,0,0:0:0:0:
320,192,296053,1,0,0:0:0:0:
64,192,296096,1,0,0:0:0:0:
192,192,296139,1,0,0:0:0:0:
448,192,296182,1,0,0:0:0:0:
320,192,296225,1,0,0:0:0:0:
64,192,296268,1,0,0:0:0:0:
192,192,296310,1,0,0:0:0:0:
320,192,296353,1,0,0:0:0:0:
64,192,296396,1,0,0:0:0:0:
448,192,296396,1,0,0:0:0:0:
448,192,296482,1,0,0:0:0:0:
192,192,296482,1,0,0:0:0:0:
320,192,296568,1,0,0:0:0:0:
64,192,296568,1,0,0:0:0:0:
64,192,296653,1,0,0:0:0:0:
192,192,296653,1,0,0:0:0:0:
448,192,296739,1,0,0:0:0:0:
320,192,296739,1,0,0:0:0:0:
192,192,296825,1,0,0:0:0:0:
448,192,296825,1,0,0:0:0:0:
64,192,296910,1,0,0:0:0:0:
320,192,296910,1,0,0:0:0:0:
64,192,296996,1,0,0:0:0:0:
448,192,296996,1,0,0:0:0:0:
192,192,297082,1,0,0:0:0:0:
320,192,297082,1,0,0:0:0:0:
320,192,297168,1,0,0:0:0:0:
448,192,297168,1,0,0:0:0:0:
192,192,297253,1,0,0:0:0:0:
64,192,297275,1,0,0:0:0:0:
320,192,297296,1,0,0:0:0:0:
448,192,297318,1,0,0:0:0:0:
192,192,297339,1,0,0:0:0:0:
64,192,297360,1,0,0:0:0:0:
320,192,297382,1,0,0:0:0:0:
448,192,297396,1,0,0:0:0:0:
192,192,297425,1,0,0:0:0:0:
64,192,297425,1,0,0:0:0:0:
448,192,297510,1,0,0:0:0:0:
320,192,297510,1,0,0:0:0:0:
320,192,297596,1,0,0:0:0:0:
448,192,297596,1,0,0:0:0:0:
192,192,297682,1,0,0:0:0:0:
64,192,297682,1,0,0:0:0:0:
448,192,297768,1,0,0:0:0:0:
320,192,297768,1,0,0:0:0:0:
192,192,297768,1,0,0:0:0:0:
64,192,297768,1,0,0:0:0:0:
448,192,297853,1,0,0:0:0:0:
320,192,297939,1,0,0:0:0:0:
64,192,297939,1,0,0:0:0:0:
448,192,298025,1,0,0:0:0:0:
320,192,298110,1,0,0:0:0:0:
192,192,298110,1,0,0:0:0:0:
192,192,298196,1,0,0:0:0:0:
448,192,298196,1,0,0:0:0:0:
448,192,298282,1,0,0:0:0:0:
64,192,298282,1,0,0:0:0:0:
320,192,298282,1,0,0:0:0:0:
64,192,298368,1,0,0:0:0:0:
192,192,298453,1,0,0:0:0:0:
320,192,298453,1,0,0:0:0:0:
448,192,298453,1,0,0:0:0:0:
320,192,298539,1,0,0:0:0:0:
64,192,298625,1,0,0:0:0:0:
448,192,298625,1,0,0:0:0:0:
64,192,298710,1,0,0:0:0:0:
320,192,298710,1,0,0:0:0:0:
448,192,298796,1,0,0:0:0:0:
192,192,298796,1,0,0:0:0:0:
448,192,298882,1,0,0:0:0:0:
320,192,298882,1,0,0:0:0:0:
192,192,298968,1,0,0:0:0:0:
64,192,298968,1,0,0:0:0:0:
448,192,299053,1,0,0:0:0:0:
320,192,299053,1,0,0:0:0:0:
448,192,299139,1,0,0:0:0:0:
320,192,299139,1,0,0:0:0:0:
192,192,299139,1,0,0:0:0:0:
64,192,299139,1,0,0:0:0:0:
448,192,299310,1,0,0:0:0:0:
192,192,299310,1,0,0:0:0:0:
320,192,299396,1,0,0:0:0:0:
64,192,299396,1,0,0:0:0:0:
448,192,299482,1,0,0:0:0:0:
192,192,299482,1,0,0:0:0:0:
64,192,299482,1,0,0:0:0:0:
448,192,299568,1,0,0:0:0:0:
320,192,299568,1,0,0:0:0:0:
192,192,299653,1,0,0:0:0:0:
64,192,299653,1,0,0:0:0:0:
448,192,299825,1,0,0:0:0:0:
64,192,299825,1,0,0:0:0:0:
192,192,299825,1,0,0:0:0:0:
64,192,299996,1,0,0:0:0:0:
448,192,299996,1,0,0:0:0:0:
320,192,300082,1,0,0:0:0:0:
192,192,300082,1,0,0:0:0:0:
448,192,300168,1,0,0:0:0:0:
320,192,300168,1,0,0:0:0:0:
64,192,300168,1,0,0:0:0:0:
192,192,300253,1,0,0:0:0:0:
64,192,300253,1,0,0:0:0:0:
448,192,300339,1,0,0:0:0:0:
320,192,300339,1,0,0:0:0:0:
320,192,300510,1,0,0:0:0:0:
192,192,300510,1,0,0:0:0:0:
64,192,300510,1,0,0:0:0:0:
64,192,300682,1,0,0:0:0:0:
320,192,300682,1,0,0:0:0:0:
448,192,300768,1,0,0:0:0:0:
192,192,300768,1,0,0:0:0:0:
448,192,300853,1,0,0:0:0:0:
320,192,300853,1,0,0:0:0:0:
64,192,300853,1,0,0:0:0:0:
320,192,300939,1,0,0:0:0:0:
64,192,300939,1,0,0:0:0:0:
448,192,301025,1,0,0:0:0:0:
192,192,301025,1,0,0:0:0:0:
448,192,301196,1,0,0:0:0:0:
320,192,301196,1,0,0:0:0:0:
64,192,301196,1,0,0:0:0:0:
448,192,301368,1,0,0:0:0:0:
192,192,301368,1,0,0:0:0:0:
320,192,301453,1,0,0:0:0:0:
64,192,301453,1,0,0:0:0:0:
192,192,301539,1,0,0:0:0:0:
64,192,301539,1,0,0:0:0:0:
448,192,301539,1,0,0:0:0:0:
320,192,301625,1,0,0:0:0:0:
448,192,301625,1,0,0:0:0:0:
192,192,301710,1,0,0:0:0:0:
64,192,301710,1,0,0:0:0:0:
320,192,301796,1,0,0:0:0:0:
64,192,301796,1,0,0:0:0:0:
448,192,301882,1,0,0:0:0:0:
320,192,301882,1,0,0:0:0:0:
192,192,301882,1,0,0:0:0:0:
448,192,302053,1,0,0:0:0:0:
192,192,302053,1,0,0:0:0:0:
64,192,302139,1,0,0:0:0:0:
448,192,302139,1,0,0:0:0:0:
192,192,302225,1,0,0:0:0:0:
320,192,302225,1,0,0:0:0:0:
64,192,302225,1,0,0:0:0:0:
448,192,302310,1,0,0:0:0:0:
192,192,302310,1,0,0:0:0:0:
448,192,302396,1,0,0:0:0:0:
320,192,302396,1,0,0:0:0:0:
448,192,302568,1,0,0:0:0:0:
320,192,302568,1,0,0:0:0:0:
64,192,302568,1,0,0:0:0:0:
448,192,302739,1,0,0:0:0:0:
64,192,302739,1,0,0:0:0:0:
64,192,302825,1,0,0:0:0:0:
320,192,302825,1,0,0:0:0:0:
448,192,302910,1,0,0:0:0:0:
320,192,302910,1,0,0:0:0:0:
192,192,302910,1,0,0:0:0:0:
448,192,302996,1,0,0:0:0:0:
64,192,302996,1,0,0:0:0:0:
320,192,303082,1,0,0:0:0:0:
192,192,303082,1,0,0:0:0:0:
448,192,303168,1,0,0:0:0:0:
64,192,303168,1,0,0:0:0:0:
64,192,303253,1,0,0:0:0:0:
192,192,303253,1,0,0:0:0:0:
320,192,303253,1,0,0:0:0:0:
192,192,303339,1,0,0:0:0:0:
448,192,303339,1,0,0:0:0:0:
448,192,303510,1,0,0:0:0:0:
192,192,303510,1,0,0:0:0:0:
448,192,303596,1,0,0:0:0:0:
320,192,303596,1,0,0:0:0:0:
64,192,303596,1,0,0:0:0:0:
192,192,303682,1,0,0:0:0:0:
64,192,303682,1,0,0:0:0:0:
448,192,303768,1,0,0:0:0:0:
320,192,303768,1,0,0:0:0:0:
448,192,303939,1,0,0:0:0:0:
192,192,303939,1,0,0:0:0:0:
64,192,303939,1,0,0:0:0:0:
320,192,304110,1,0,0:0:0:0:
64,192,304110,1,0,0:0:0:0:
64,192,304196,1,0,0:0:0:0:
448,192,304196,1,0,0:0:0:0:
448,192,304282,1,0,0:0:0:0:
192,192,304282,1,0,0:0:0:0:
320,192,304282,1,0,0:0:0:0:
320,192,304368,1,0,0:0:0:0:
64,192,304368,1,0,0:0:0:0:
192,192,304453,1,0,0:0:0:0:
64,192,304453,1,0,0:0:0:0:
448,192,304539,1,0,0:0:0:0:
320,192,304539,1,0,0:0:0:0:
448,192,304625,1,0,0:0:0:0:
192,192,304625,1,0,0:0:0:0:
64,192,304625,1,0,0:0:0:0:
64,192,304796,1,0,0:0:0:0:
320,192,304796,1,0,0:0:0:0:
192,192,304882,1,0,0:0:0:0:
448,192,304882,1,0,0:0:0:0:
64,192,304968,1,0,0:0:0:0:
320,192,304968,1,0,0:0:0:0:
448,192,304968,1,0,0:0:0:0:
64,192,305053,1,0,0:0:0:0:
192,192,305053,1,0,0:0:0:0:
320,192,305139,1,0,0:0:0:0:
448,192,305139,1,0,0:0:0:0:
64,192,305310,1,0,0:0:0:0:
448,192,305310,1,0,0:0:0:0:
320,192,305310,1,0,0:0:0:0:
448,192,305482,1,0,0:0:0:0:
64,192,305482,1,0,0:0:0:0:
192,192,305568,1,0,0:0:0:0:
320,192,305568,1,0,0:0:0:0:
64,192,305653,1,0,0:0:0:0:
192,192,305653,1,0,0:0:0:0:
448,192,305653,1,0,0:0:0:0:
320,192,305739,1,0,0:0:0:0:
448,192,305739,1,0,0:0:0:0:
64,192,305825,1,0,0:0:0:0:
192,192,305825,1,0,0:0:0:0:
192,192,305996,1,0,0:0:0:0:
320,192,305996,1,0,0:0:0:0:
448,192,305996,1,0,0:0:0:0:
448,192,306168,1,0,0:0:0:0:
192,192,306168,1,0,0:0:0:0:
64,192,306253,1,0,0:0:0:0:
320,192,306253,1,0,0:0:0:0:
64,192,306339,1,0,0:0:0:0:
192,192,306339,1,0,0:0:0:0:
448,192,306339,1,0,0:0:0:0:
192,192,306425,1,0,0:0:0:0:
448,192,306425,1,0,0:0:0:0:
64,192,306510,1,0,0:0:0:0:
320,192,306510,1,0,0:0:0:0:
64,192,306682,1,0,0:0:0:0:
192,192,306682,1,0,0:0:0:0:
448,192,306682,1,0,0:0:0:0:
64,192,306853,1,0,0:0:0:0:
320,192,306853,1,0,0:0:0:0:
192,192,306939,1,0,0:0:0:0:
448,192,306939,1,0,0:0:0:0:
320,192,307025,1,0,0:0:0:0:
448,192,307025,1,0,0:0:0:0:
64,192,307025,1,0,0:0:0:0:
192,192,307110,1,0,0:0:0:0:
64,192,307110,1,0,0:0:0:0:
320,192,307196,1,0,0:0:0:0:
448,192,307196,1,0,0:0:0:0:
192,192,307282,1,0,0:0:0:0:
448,192,307282,1,0,0:0:0:0:
64,192,307368,1,0,0:0:0:0:
192,192,307368,1,0,0:0:0:0:
320,192,307368,1,0,0:0:0:0:
64,192,307539,1,0,0:0:0:0:
320,192,307539,1,0,0:0:0:0:
448,192,307625,1,0,0:0:0:0:
64,192,307625,1,0,0:0:0:0:
320,192,307710,1,0,0:0:0:0:
192,192,307710,1,0,0:0:0:0:
448,192,307710,1,0,0:0:0:0:
64,192,307796,1,0,0:0:0:0:
320,192,307796,1,0,0:0:0:0:
64,192,307882,1,0,0:0:0:0:
192,192,307882,1,0,0:0:0:0:
64,192,308053,1,0,0:0:0:0:
192,192,308053,1,0,0:0:0:0:
448,192,308053,1,0,0:0:0:0:
64,192,308225,1,0,0:0:0:0:
448,192,308225,1,0,0:0:0:0:
448,192,308310,1,0,0:0:0:0:
192,192,308310,1,0,0:0:0:0:
64,192,308396,1,0,0:0:0:0:
192,192,308396,1,0,0:0:0:0:
320,192,308396,1,0,0:0:0:0:
64,192,308482,1,0,0:0:0:0:
448,192,308482,1,0,0:0:0:0:
192,192,308525,1,0,0:0:0:0:
320,192,308568,1,0,0:0:0:0:
448,192,308568,1,0,0:0:0:0:
64,192,308653,1,0,0:0:0:0:
192,192,308653,1,0,0:0:0:0:
448,192,308739,1,0,0:0:0:0:
320,192,308739,1,0,0:0:0:0:
192,192,308739,1,0,0:0:0:0:
320,192,308825,1,0,0:0:0:0:
64,192,308825,1,0,0:0:0:0:
64,192,308996,1,0,0:0:0:0:
320,192,308996,1,0,0:0:0:0:
64,192,309082,1,0,0:0:0:0:
192,192,309082,1,0,0:0:0:0:
448,192,309082,1,0,0:0:0:0:
448,192,309168,1,0,0:0:0:0:
192,192,309168,1,0,0:0:0:0:
448,192,309253,1,0,0:0:0:0:
192,192,309253,1,0,0:0:0:0:
448,192,309339,1,0,0:0:0:0:
192,192,309339,1,0,0:0:0:0:
64,192,309425,1,0,0:0:0:0:
320,192,309425,1,0,0:0:0:0:
448,192,309425,1,0,0:0:0:0:
64,192,309510,1,0,0:0:0:0:
448,192,309596,1,0,0:0:0:0:
320,192,309596,1,0,0:0:0:0:
192,192,309596,1,0,0:0:0:0:
448,192,309682,1,0,0:0:0:0:
320,192,309768,1,0,0:0:0:0:
192,192,309768,1,0,0:0:0:0:
64,192,309768,1,0,0:0:0:0:
64,192,309853,1,0,0:0:0:0:
448,192,309939,1,0,0:0:0:0:
320,192,309939,1,0,0:0:0:0:
192,192,309939,1,0,0:0:0:0:
64,192,309982,1,0,0:0:0:0:
448,192,310025,1,0,0:0:0:0:
320,192,310025,1,0,0:0:0:0:
192,192,310068,1,0,0:0:0:0:
64,192,310110,1,0,0:0:0:0:
448,192,310110,1,0,0:0:0:0:
320,192,310110,1,0,0:0:0:0:
192,192,310196,1,0,0:0:0:0:
448,192,310282,1,0,0:0:0:0:
320,192,310282,1,0,0:0:0:0:
448,192,310368,1,0,0:0:0:0:
192,192,310368,1,0,0:0:0:0:
320,192,310453,1,0,0:0:0:0:
192,192,310453,1,0,0:0:0:0:
64,192,310453,1,0,0:0:0:0:
448,192,310539,1,0,0:0:0:0:
64,192,310539,1,0,0:0:0:0:
448,192,310625,1,0,0:0:0:0:
192,192,310625,1,0,0:0:0:0:
320,192,310710,1,0,0:0:0:0:
192,192,310796,1,0,0:0:0:0:
64,192,310796,1,0,0:0:0:0:
448,192,310796,1,0,0:0:0:0:
320,192,310882,1,0,0:0:0:0:
448,192,310968,1,0,0:0:0:0:
64,192,310968,1,0,0:0:0:0:
64,192,311053,1,0,0:0:0:0:
320,192,311053,1,0,0:0:0:0:
448,192,311139,1,0,0:0:0:0:
320,192,311139,1,0,0:0:0:0:
192,192,311139,1,0,0:0:0:0:
448,192,311225,1,0,0:0:0:0:
64,192,311225,1,0,0:0:0:0:
320,192,311310,1,0,0:0:0:0:
64,192,311310,1,0,0:0:0:0:
192,192,311396,1,0,0:0:0:0:
448,192,311482,1,0,0:0:0:0:
320,192,311482,1,0,0:0:0:0:
64,192,311482,1,0,0:0:0:0:
192,192,311568,1,0,0:0:0:0:
448,192,311653,1,0,0:0:0:0:
320,192,311653,1,0,0:0:0:0:
448,192,311739,1,0,0:0:0:0:
192,192,311739,1,0,0:0:0:0:
320,192,311825,1,0,0:0:0:0:
192,192,311825,1,0,0:0:0:0:
64,192,311825,1,0,0:0:0:0:
64,192,311910,1,0,0:0:0:0:
448,192,311910,1,0,0:0:0:0:
448,192,311996,1,0,0:0:0:0:
192,192,311996,1,0,0:0:0:0:
320,192,312082,1,0,0:0:0:0:
192,192,312168,1,0,0:0:0:0:
64,192,312168,1,0,0:0:0:0:
448,192,312168,1,0,0:0:0:0:
320,192,312253,1,0,0:0:0:0:
192,192,312339,1,0,0:0:0:0:
64,192,312339,1,0,0:0:0:0:
448,192,312425,1,0,0:0:0:0:
64,192,312425,1,0,0:0:0:0:
448,192,312510,1,0,0:0:0:0:
192,192,312510,1,0,0:0:0:0:
320,192,312510,1,0,0:0:0:0:
320,192,312596,1,0,0:0:0:0:
64,192,312596,1,0,0:0:0:0:
192,192,312682,1,0,0:0:0:0:
64,192,312682,1,0,0:0:0:0:
448,192,312768,1,0,0:0:0:0:
320,192,312768,1,0,0:0:0:0:
448,192,312853,1,0,0:0:0:0:
64,192,312853,1,0,0:0:0:0:
192,192,312853,1,0,0:0:0:0:
320,192,312939,1,0,0:0:0:0:
192,192,313025,1,0,0:0:0:0:
64,192,313025,1,0,0:0:0:0:
320,192,313110,1,0,0:0:0:0:
64,192,313110,1,0,0:0:0:0:
448,192,313196,1,0,0:0:0:0:
192,192,313196,1,0,0:0:0:0:
320,192,313196,1,0,0:0:0:0:
448,192,313282,1,0,0:0:0:0:
64,192,313282,1,0,0:0:0:0:
320,192,313368,1,0,0:0:0:0:
192,192,313368,1,0,0:0:0:0:
64,192,313453,1,0,0:0:0:0:
448,192,313539,1,0,0:0:0:0:
320,192,313539,1,0,0:0:0:0:
192,192,313539,1,0,0:0:0:0:
64,192,313625,1,0,0:0:0:0:
448,192,313710,1,0,0:0:0:0:
320,192,313710,1,0,0:0:0:0:
448,192,313796,1,0,0:0:0:0:
192,192,313796,1,0,0:0:0:0:
320,192,313882,1,0,0:0:0:0:
192,192,313882,1,0,0:0:0:0:
64,192,313882,1,0,0:0:0:0:
448,192,313968,1,0,0:0:0:0:
64,192,313968,1,0,0:0:0:0:
448,192,314053,1,0,0:0:0:0:
192,192,314053,1,0,0:0:0:0:
64,192,314139,1,0,0:0:0:0:
320,192,314139,1,0,0:0:0:0:
448,192,314225,1,0,0:0:0:0:
192,192,314225,1,0,0:0:0:0:
64,192,314225,1,0,0:0:0:0:
448,192,314310,1,0,0:0:0:0:
320,192,314310,1,0,0:0:0:0:
192,192,314396,1,0,0:0:0:0:
448,192,314482,1,0,0:0:0:0:
320,192,314482,1,0,0:0:0:0:
448,192,314568,1,0,0:0:0:0:
192,192,314568,1,0,0:0:0:0:
64,192,314568,1,0,0:0:0:0:
320,192,314653,1,0,0:0:0:0:
64,192,314653,1,0,0:0:0:0:
448,192,314739,1,0,0:0:0:0:
192,192,314739,1,0,0:0:0:0:
320,192,314782,1,0,0:0:0:0:
64,192,314825,1,0,0:0:0:0:
192,192,314868,1,0,0:0:0:0:
448,192,314910,1,0,0:0:0:0:
320,192,314910,1,0,0:0:0:0:
64,192,314910,1,0,0:0:0:0:
448,192,314996,1,0,0:0:0:0:
192,192,314996,1,0,0:0:0:0:
320,192,315082,1,0,0:0:0:0:
64,192,315082,1,0,0:0:0:0:
192,192,315168,1,0,0:0:0:0:
448,192,315168,1,0,0:0:0:0:
192,192,315253,1,0,0:0:0:0:
320,192,315253,1,0,0:0:0:0:
448,192,315339,1,0,0:0:0:0:
320,192,315339,1,0,0:0:0:0:
192,192,315425,1,0,0:0:0:0:
64,192,315425,1,0,0:0:0:0:
448,192,315510,1,0,0:0:0:0:
320,192,315510,1,0,0:0:0:0:
448,192,315596,1,0,0:0:0:0:
192,192,315596,1,0,0:0:0:0:
64,192,315596,1,0,0:0:0:0:
64,192,315682,1,0,0:0:0:0:
448,192,315768,1,0,0:0:0:0:
192,192,315768,1,0,0:0:0:0:
448,192,315853,1,0,0:0:0:0:
320,192,315939,1,0,0:0:0:0:
64,192,315939,1,0,0:0:0:0:
320,192,316025,1,0,0:0:0:0:
64,192,316110,1,0,0:0:0:0:
192,192,316110,1,0,0:0:0:0:
448,192,316110,1,0,0:0:0:0:
64,192,316196,1,0,0:0:0:0:
192,192,316196,1,0,0:0:0:0:
448,192,316282,1,0,0:0:0:0:
64,192,316282,1,0,0:0:0:0:
320,192,316282,1,0,0:0:0:0:
448,192,316368,1,0,0:0:0:0:
320,192,316453,1,0,0:0:0:0:
64,192,316453,1,0,0:0:0:0:
64,192,316539,1,0,0:0:0:0:
448,192,316625,1,0,0:0:0:0:
192,192,316625,1,0,0:0:0:0:
192,192,316710,1,0,0:0:0:0:
64,192,316796,1,0,0:0:0:0:
448,192,316796,1,0,0:0:0:0:
320,192,316796,1,0,0:0:0:0:
448,192,316882,1,0,0:0:0:0:
320,192,316882,1,0,0:0:0:0:
64,192,316968,1,0,0:0:0:0:
448,192,316968,1,0,0:0:0:0:
192,192,316968,1,0,0:0:0:0:
320,192,316968,1,0,0:0:0:0:
64,192,317053,1,0,0:0:0:0:
192,192,317139,1,0,0:0:0:0:
448,192,317139,1,0,0:0:0:0:
448,192,317225,1,0,0:0:0:0:
320,192,317310,1,0,0:0:0:0:
64,192,317310,1,0,0:0:0:0:
320,192,317396,1,0,0:0:0:0:
64,192,317482,1,0,0:0:0:0:
192,192,317482,1,0,0:0:0:0:
448,192,317482,1,0,0:0:0:0:
64,192,317568,1,0,0:0:0:0:
192,192,317568,1,0,0:0:0:0:
448,192,317653,1,0,0:0:0:0:
320,192,317653,1,0,0:0:0:0:
64,192,317653,1,0,0:0:0:0:
448,192,317739,1,0,0:0:0:0:
64,192,317825,1,0,0:0:0:0:
320,192,317825,1,0,0:0:0:0:
64,192,317910,1,0,0:0:0:0:
192,192,317996,1,0,0:0:0:0:
448,192,317996,1,0,0:0:0:0:
192,192,318082,1,0,0:0:0:0:
320,192,318082,1,0,0:0:0:0:
320,192,318168,1,0,0:0:0:0:
448,192,318168,1,0,0:0:0:0:
64,192,318168,1,0,0:0:0:0:
320,192,318253,1,0,0:0:0:0:
448,192,318253,1,0,0:0:0:0:
192,192,318339,1,0,0:0:0:0:
448,192,318339,1,0,0:0:0:0:
320,192,318339,1,0,0:0:0:0:
64,192,318339,1,0,0:0:0:0:
192,192,318425,1,0,0:0:0:0:
64,192,318425,1,0,0:0:0:0:
448,192,318510,1,0,0:0:0:0:
320,192,318510,1,0,0:0:0:0:
192,192,318596,1,0,0:0:0:0:
64,192,318682,1,0,0:0:0:0:
448,192,318682,1,0,0:0:0:0:
192,192,318682,1,0,0:0:0:0:
320,192,318682,1,0,0:0:0:0:
448,192,318768,1,0,0:0:0:0:
320,192,318768,1,0,0:0:0:0:
192,192,318853,1,0,0:0:0:0:
64,192,318853,1,0,0:0:0:0:
320,192,318939,1,0,0:0:0:0:
448,192,319025,1,0,0:0:0:0:
320,192,319025,1,0,0:0:0:0:
192,192,319025,1,0,0:0:0:0:
64,192,319025,1,0,0:0:0:0:
192,192,319110,1,0,0:0:0:0:
64,192,319110,1,0,0:0:0:0:
320,192,319196,1,0,0:0:0:0:
192,192,319196,1,0,0:0:0:0:
448,192,319196,1,0,0:0:0:0:
448,192,319282,1,0,0:0:0:0:
320,192,319282,1,0,0:0:0:0:
320,192,319368,1,0,0:0:0:0:
192,192,319368,1,0,0:0:0:0:
64,192,319368,1,0,0:0:0:0:
64,192,319453,1,0,0:0:0:0:
64,192,319539,1,0,0:0:0:0:
64,192,319625,1,0,0:0:0:0:
448,192,319710,1,0,0:0:0:0:
192,192,319710,1,0,0:0:0:0:
320,192,319710,1,0,0:0:0:0:
64,192,319753,1,0,0:0:0:0:
320,192,319796,1,0,0:0:0:0:
192,192,319839,1,0,0:0:0:0:
448,192,319882,1,0,0:0:0:0:
320,192,319925,1,0,0:0:0:0:
64,192,319968,1,0,0:0:0:0:
192,192,320010,1,0,0:0:0:0:
448,192,320053,1,0,0:0:0:0:
320,192,320096,1,0,0:0:0:0:
64,192,320139,1,0,0:0:0:0:
192,192,320182,1,0,0:0:0:0:
448,192,320225,1,0,0:0:0:0:
192,192,320282,1,0,0:0:0:0:
320,192,320339,1,0,0:0:0:0:
64,192,320396,1,0,0:0:0:0:
448,192,320396,1,0,0:0:0:0:
192,192,320439,1,0,0:0:0:0:
320,192,320482,1,0,0:0:0:0:
64,192,320525,1,0,0:0:0:0:
192,192,320568,1,0,0:0:0:0:
448,192,320568,1,0,0:0:0:0:
320,192,320625,1,0,0:0:0:0:
192,192,320682,1,0,0:0:0:0:
448,192,320739,1,0,0:0:0:0:
320,192,320739,1,0,0:0:0:0:
64,192,320739,1,0,0:0:0:0:
448,192,320910,1,0,0:0:0:0:
320,192,320910,1,0,0:0:0:0:
64,192,320910,1,0,0:0:0:0:
448,192,321082,1,0,0:0:0:0:
320,192,321082,1,0,0:0:0:0:
64,192,321082,1,0,0:0:0:0:
448,192,321253,1,0,0:0:0:0:
192,192,321253,1,0,0:0:0:0:
320,192,321339,1,0,0:0:0:0:
64,192,321339,1,0,0:0:0:0:
192,192,321425,1,0,0:0:0:0:
64,192,321425,1,0,0:0:0:0:
448,192,321425,1,0,0:0:0:0:
448,192,321510,1,0,0:0:0:0:
320,192,321510,1,0,0:0:0:0:
64,192,321596,1,0,0:0:0:0:
192,192,321596,1,0,0:0:0:0:
320,192,321682,1,0,0:0:0:0:
64,192,321682,1,0,0:0:0:0:
448,192,321768,1,0,0:0:0:0:
320,192,321768,1,0,0:0:0:0:
192,192,321768,1,0,0:0:0:0:
448,192,321853,1,0,0:0:0:0:
64,192,321853,1,0,0:0:0:0:
320,192,321939,1,0,0:0:0:0:
192,192,321939,1,0,0:0:0:0:
64,192,322025,1,0,0:0:0:0:
448,192,322110,1,0,0:0:0:0:
192,192,322110,1,0,0:0:0:0:
320,192,322110,1,0,0:0:0:0:
320,192,322282,1,0,0:0:0:0:
64,192,322282,1,0,0:0:0:0:
448,192,322368,1,0,0:0:0:0:
320,192,322368,1,0,0:0:0:0:
192,192,322453,1,0,0:0:0:0:
448,192,322539,1,0,0:0:0:0:
320,192,322539,1,0,0:0:0:0:
448,192,322625,1,0,0:0:0:0:
192,192,322625,1,0,0:0:0:0:
64,192,322625,1,0,0:0:0:0:
320,192,322710,1,0,0:0:0:0:
448,192,322796,1,0,0:0:0:0:
192,192,322796,1,0,0:0:0:0:
64,192,322796,1,0,0:0:0:0:
64,192,322882,1,0,0:0:0:0:
320,192,322882,1,0,0:0:0:0:
192,192,322968,1,0,0:0:0:0:
448,192,322968,1,0,0:0:0:0:
64,192,323053,1,0,0:0:0:0:
320,192,323053,1,0,0:0:0:0:
448,192,323139,1,0,0:0:0:0:
320,192,323139,1,0,0:0:0:0:
192,192,323139,1,0,0:0:0:0:
192,192,323225,1,0,0:0:0:0:
64,192,323225,1,0,0:0:0:0:
448,192,323310,1,0,0:0:0:0:
320,192,323310,1,0,0:0:0:0:
448,192,323396,1,0,0:0:0:0:
320,192,323482,1,0,0:0:0:0:
192,192,323482,1,0,0:0:0:0:
64,192,323482,1,0,0:0:0:0:
192,192,323568,1,0,0:0:0:0:
64,192,323568,1,0,0:0:0:0:
320,192,323739,1,0,0:0:0:0:
192,192,323739,1,0,0:0:0:0:
320,192,323825,1,0,0:0:0:0:
448,192,323825,1,0,0:0:0:0:
64,192,323825,1,0,0:0:0:0:
64,192,323910,1,0,0:0:0:0:
448,192,323996,1,0,0:0:0:0:
320,192,323996,1,0,0:0:0:0:
192,192,323996,1,0,0:0:0:0:
448,192,324168,1,0,0:0:0:0:
192,192,324168,1,0,0:0:0:0:
64,192,324168,1,0,0:0:0:0:
320,192,324253,1,0,0:0:0:0:
64,192,324253,1,0,0:0:0:0:
448,192,324339,1,0,0:0:0:0:
192,192,324339,1,0,0:0:0:0:
448,192,324425,1,0,0:0:0:0:
320,192,324425,1,0,0:0:0:0:
320,192,324510,1,0,0:0:0:0:
192,192,324510,1,0,0:0:0:0:
64,192,324510,1,0,0:0:0:0:
192,192,324596,1,0,0:0:0:0:
64,192,324596,1,0,0:0:0:0:
448,192,324682,1,0,0:0:0:0:
320,192,324682,1,0,0:0:0:0:
448,192,324768,1,0,0:0:0:0:
192,192,324768,1,0,0:0:0:0:
320,192,324853,1,0,0:0:0:0:
192,192,324853,1,0,0:0:0:0:
64,192,324853,1,0,0:0:0:0:
192,192,325025,1,0,0:0:0:0:
64,192,325025,1,0,0:0:0:0:
64,192,325110,1,0,0:0:0:0:
320,192,325110,1,0,0:0:0:0:
320,192,325196,1,0,0:0:0:0:
64,192,325282,1,0,0:0:0:0:
192,192,325282,1,0,0:0:0:0:
448,192,325368,1,0,0:0:0:0:
320,192,325368,1,0,0:0:0:0:
192,192,325368,1,0,0:0:0:0:
448,192,325539,1,0,0:0:0:0:
320,192,325539,1,0,0:0:0:0:
64,192,325539,1,0,0:0:0:0:
448,192,325625,1,0,0:0:0:0:
192,192,325625,1,0,0:0:0:0:
320,192,325710,1,0,0:0:0:0:
64,192,325710,1,0,0:0:0:0:
192,192,325796,1,0,0:0:0:0:
64,192,325796,1,0,0:0:0:0:
320,192,325882,1,0,0:0:0:0:
448,192,325882,1,0,0:0:0:0:
192,192,325882,1,0,0:0:0:0:
448,192,325968,1,0,0:0:0:0:
320,192,325968,1,0,0:0:0:0:
192,192,326053,1,0,0:0:0:0:
64,192,326053,1,0,0:0:0:0:
320,192,326096,1,0,0:0:0:0:
448,192,326139,1,0,0:0:0:0:
64,192,326139,1,0,0:0:0:0:
320,192,326225,1,0,0:0:0:0:
192,192,326225,1,0,0:0:0:0:
448,192,326310,1,0,0:0:0:0:
64,192,326310,1,0,0:0:0:0:
320,192,326396,1,0,0:0:0:0:
192,192,326396,1,0,0:0:0:0:
448,192,326482,1,0,0:0:0:0:
320,192,326482,1,0,0:0:0:0:
64,192,326568,128,0,326782:0:0:0:0:
192,192,326653,128,0,326825:0:0:0:0:
320,192,326739,128,0,326868:0:0:0:0:
448,192,326825,128,0,326910:0:0:0:0:
64,192,326910,128,0,326996:0:0:0:0:
192,192,326910,128,0,327082:0:0:0:0:
320,192,326996,128,0,327168:0:0:0:0:
64,192,327082,1,0,0:0:0:0:
448,192,327082,128,0,327168:0:0:0:0:
192,192,327168,1,0,0:0:0:0:
448,192,327253,1,0,0:0:0:0:
320,192,327253,1,0,0:0:0:0:
64,192,327253,1,0,0:0:0:0:
192,192,327339,1,0,0:0:0:0:
448,192,327425,1,0,0:0:0:0:
320,192,327425,1,0,0:0:0:0:
64,192,327468,1,0,0:0:0:0:
192,192,327510,1,0,0:0:0:0:
320,192,327553,1,0,0:0:0:0:
64,192,327596,1,0,0:0:0:0:
448,192,327596,1,0,0:0:0:0:
192,192,327639,1,0,0:0:0:0:
320,192,327682,1,0,0:0:0:0:
192,192,327725,1,0,0:0:0:0:
64,192,327768,1,0,0:0:0:0:
448,192,327768,1,0,0:0:0:0:
320,192,327853,1,0,0:0:0:0:
192,192,327939,1,0,0:0:0:0:
64,192,327939,1,0,0:0:0:0:
448,192,327939,1,0,0:0:0:0:
320,192,328025,1,0,0:0:0:0:
192,192,328110,1,0,0:0:0:0:
64,192,328110,1,0,0:0:0:0:
320,192,328153,1,0,0:0:0:0:
64,192,328196,1,0,0:0:0:0:
320,192,328239,1,0,0:0:0:0:
192,192,328282,1,0,0:0:0:0:
448,192,328282,128,0,328539:0:0:0:0:
320,192,328368,128,0,328539:0:0:0:0:
64,192,328453,1,0,0:0:0:0:
64,192,328539,1,0,0:0:0:0:
448,192,328625,1,0,0:0:0:0:
320,192,328625,1,0,0:0:0:0:
192,192,328625,1,0,0:0:0:0:
448,192,328710,1,0,0:0:0:0:
192,192,328710,1,0,0:0:0:0:
320,192,328796,1,0,0:0:0:0:
64,192,328796,1,0,0:0:0:0:
64,192,328882,1,0,0:0:0:0:
320,192,328882,1,0,0:0:0:0:
192,192,328968,1,0,0:0:0:0:
448,192,328968,1,0,0:0:0:0:
448,192,329053,1,0,0:0:0:0:
320,192,329053,1,0,0:0:0:0:
64,192,329139,1,0,0:0:0:0:
448,192,329225,1,0,0:0:0:0:
320,192,329225,1,0,0:0:0:0:
64,192,329310,1,0,0:0:0:0:
448,192,329310,1,0,0:0:0:0:
192,192,329310,1,0,0:0:0:0:
64,192,329396,1,0,0:0:0:0:
320,192,329396,1,0,0:0:0:0:
448,192,329482,1,0,0:0:0:0:
192,192,329482,1,0,0:0:0:0:
320,192,329568,1,0,0:0:0:0:
64,192,329568,1,0,0:0:0:0:
448,192,329653,1,0,0:0:0:0:
64,192,329653,1,0,0:0:0:0:
192,192,329653,1,0,0:0:0:0:
448,192,329739,1,0,0:0:0:0:
320,192,329739,1,0,0:0:0:0:
64,192,329825,1,0,0:0:0:0:
192,192,329825,1,0,0:0:0:0:
64,192,329910,1,0,0:0:0:0:
320,192,329910,1,0,0:0:0:0:
448,192,329996,1,0,0:0:0:0:
320,192,329996,1,0,0:0:0:0:
192,192,329996,1,0,0:0:0:0:
448,192,330082,1,0,0:0:0:0:
192,192,330168,1,0,0:0:0:0:
64,192,330168,1,0,0:0:0:0:
448,192,330253,1,0,0:0:0:0:
320,192,330253,1,0,0:0:0:0:
448,192,330339,1,0,0:0:0:0:
64,192,330339,1,0,0:0:0:0:
192,192,330339,1,0,0:0:0:0:
64,192,330425,1,0,0:0:0:0:
320,192,330425,1,0,0:0:0:0:
320,192,330510,1,0,0:0:0:0:
192,192,330510,1,0,0:0:0:0:
448,192,330596,1,0,0:0:0:0:
64,192,330596,1,0,0:0:0:0:
192,192,330682,1,0,0:0:0:0:
448,192,330682,1,0,0:0:0:0:
320,192,330682,1,0,0:0:0:0:
64,192,330768,1,0,0:0:0:0:
320,192,330853,1,0,0:0:0:0:
192,192,330853,1,0,0:0:0:0:
192,192,330939,1,0,0:0:0:0:
320,192,330939,1,0,0:0:0:0:
64,192,331025,1,0,0:0:0:0:
448,192,331025,1,0,0:0:0:0:
192,192,331025,1,0,0:0:0:0:
320,192,331110,1,0,0:0:0:0:
448,192,331110,1,0,0:0:0:0:
448,192,331196,1,0,0:0:0:0:
320,192,331196,1,0,0:0:0:0:
64,192,331282,1,0,0:0:0:0:
320,192,331368,1,0,0:0:0:0:
64,192,331453,1,0,0:0:0:0:
320,192,331539,1,0,0:0:0:0:
192,192,331539,1,0,0:0:0:0:
320,192,331625,1,0,0:0:0:0:
192,192,331625,1,0,0:0:0:0:
448,192,331710,1,0,0:0:0:0:
320,192,331710,1,0,0:0:0:0:
64,192,331710,1,0,0:0:0:0:
192,192,331796,1,0,0:0:0:0:
64,192,331796,1,0,0:0:0:0:
192,192,331882,1,0,0:0:0:0:
64,192,331882,1,0,0:0:0:0:
320,192,331968,1,0,0:0:0:0:
448,192,332053,1,0,0:0:0:0:
192,192,332053,1,0,0:0:0:0:
64,192,332053,1,0,0:0:0:0:
64,192,332225,1,0,0:0:0:0:
320,192,332225,1,0,0:0:0:0:
192,192,332310,1,0,0:0:0:0:
448,192,332310,1,0,0:0:0:0:
320,192,332396,1,0,0:0:0:0:
448,192,332396,1,0,0:0:0:0:
64,192,332396,1,0,0:0:0:0:
64,192,332482,1,0,0:0:0:0:
192,192,332482,1,0,0:0:0:0:
448,192,332568,1,0,0:0:0:0:
320,192,332568,1,0,0:0:0:0:
192,192,332653,1,0,0:0:0:0:
448,192,332653,1,0,0:0:0:0:
64,192,332739,1,0,0:0:0:0:
192,192,332739,1,0,0:0:0:0:
320,192,332739,1,0,0:0:0:0:
64,192,332825,1,0,0:0:0:0:
448,192,332825,1,0,0:0:0:0:
192,192,332910,1,0,0:0:0:0:
320,192,332910,1,0,0:0:0:0:
448,192,332996,1,0,0:0:0:0:
64,192,333082,1,0,0:0:0:0:
320,192,333082,1,0,0:0:0:0:
192,192,333082,1,0,0:0:0:0:
192,192,333253,1,0,0:0:0:0:
448,192,333253,1,0,0:0:0:0:
64,192,333339,1,0,0:0:0:0:
192,192,333339,1,0,0:0:0:0:
320,192,333425,1,0,0:0:0:0:
64,192,333510,1,0,0:0:0:0:
192,192,333510,1,0,0:0:0:0:
64,192,333596,1,0,0:0:0:0:
320,192,333596,1,0,0:0:0:0:
448,192,333596,1,0,0:0:0:0:
192,192,333682,1,0,0:0:0:0:
64,192,333768,1,0,0:0:0:0:
320,192,333768,1,0,0:0:0:0:
448,192,333768,1,0,0:0:0:0:
448,192,333853,1,0,0:0:0:0:
192,192,333853,1,0,0:0:0:0:
320,192,333939,1,0,0:0:0:0:
64,192,333939,1,0,0:0:0:0:
448,192,334025,1,0,0:0:0:0:
192,192,334025,1,0,0:0:0:0:
64,192,334110,1,0,0:0:0:0:
192,192,334110,1,0,0:0:0:0:
320,192,334110,1,0,0:0:0:0:
320,192,334196,1,0,0:0:0:0:
448,192,334196,1,0,0:0:0:0:
64,192,334282,1,0,0:0:0:0:
192,192,334282,1,0,0:0:0:0:
64,192,334368,1,0,0:0:0:0:
192,192,334453,1,0,0:0:0:0:
320,192,334453,1,0,0:0:0:0:
448,192,334453,1,0,0:0:0:0:
320,192,334539,1,0,0:0:0:0:
448,192,334539,1,0,0:0:0:0:
192,192,334710,1,0,0:0:0:0:
320,192,334710,1,0,0:0:0:0:
192,192,334796,1,0,0:0:0:0:
64,192,334796,1,0,0:0:0:0:
448,192,334796,1,0,0:0:0:0:
448,192,334882,1,0,0:0:0:0:
64,192,334968,1,0,0:0:0:0:
192,192,334968,1,0,0:0:0:0:
320,192,334968,1,0,0:0:0:0:
64,192,335139,1,0,0:0:0:0:
320,192,335139,1,0,0:0:0:0:
448,192,335139,1,0,0:0:0:0:
192,192,335225,1,0,0:0:0:0:
448,192,335225,1,0,0:0:0:0:
64,192,335310,1,0,0:0:0:0:
320,192,335310,1,0,0:0:0:0:
64,192,335396,1,0,0:0:0:0:
192,192,335396,1,0,0:0:0:0:
192,192,335482,1,0,0:0:0:0:
320,192,335482,1,0,0:0:0:0:
448,192,335482,1,0,0:0:0:0:
320,192,335568,1,0,0:0:0:0:
448,192,335568,1,0,0:0:0:0:
64,192,335653,1,0,0:0:0:0:
192,192,335653,1,0,0:0:0:0:
64,192,335739,1,0,0:0:0:0:
320,192,335739,1,0,0:0:0:0:
192,192,335825,1,0,0:0:0:0:
320,192,335825,1,0,0:0:0:0:
448,192,335825,1,0,0:0:0:0:
320,192,335996,1,0,0:0:0:0:
448,192,335996,1,0,0:0:0:0:
448,192,336082,1,0,0:0:0:0:
192,192,336082,1,0,0:0:0:0:
192,192,336168,1,0,0:0:0:0:
448,192,336253,1,0,0:0:0:0:
320,192,336253,1,0,0:0:0:0:
64,192,336339,1,0,0:0:0:0:
192,192,336339,1,0,0:0:0:0:
320,192,336339,1,0,0:0:0:0:
64,192,336510,1,0,0:0:0:0:
192,192,336510,1,0,0:0:0:0:
448,192,336510,1,0,0:0:0:0:
64,192,336596,1,0,0:0:0:0:
320,192,336596,1,0,0:0:0:0:
192,192,336682,1,0,0:0:0:0:
448,192,336682,1,0,0:0:0:0:
320,192,336768,1,0,0:0:0:0:
448,192,336768,1,0,0:0:0:0:
192,192,336853,1,0,0:0:0:0:
64,192,336853,1,0,0:0:0:0:
320,192,336853,1,0,0:0:0:0:
64,192,336939,1,0,0:0:0:0:
192,192,336939,1,0,0:0:0:0:
320,192,337025,1,0,0:0:0:0:
448,192,337025,1,0,0:0:0:0:
192,192,337068,1,0,0:0:0:0:
64,192,337110,1,0,0:0:0:0:
448,192,337110,1,0,0:0:0:0:
192,192,337196,1,0,0:0:0:0:
320,192,337196,1,0,0:0:0:0:
64,192,337282,1,0,0:0:0:0:
448,192,337282,1,0,0:0:0:0:
192,192,337368,1,0,0:0:0:0:
320,192,337368,1,0,0:0:0:0:
64,192,337453,1,0,0:0:0:0:
192,192,337453,1,0,0:0:0:0:
448,192,337539,128,0,337753:0:0:0:0:
320,192,337539,1,0,0:0:0:0:
320,192,337625,128,0,337796:0:0:0:0:
192,192,337710,128,0,337839:0:0:0:0:
64,192,337710,1,0,0:0:0:0:
64,192,337796,128,0,337882:0:0:0:0:
448,192,337882,128,0,337968:0:0:0:0:
320,192,337882,128,0,338053:0:0:0:0:
192,192,337968,128,0,338096:0:0:0:0:
64,192,338053,128,0,338139:0:0:0:0:
448,192,338053,128,0,338225:0:0:0:0:
320,192,338139,128,0,338268:0:0:0:0:
192,192,338225,128,0,338310:0:0:0:0:
64,192,338225,128,0,338353:0:0:0:0:
448,192,338310,128,0,338482:0:0:0:0:
320,192,338396,128,0,338482:0:0:0:0:
192,192,338396,128,0,338568:0:0:0:0:
64,192,338482,128,0,338653:0:0:0:0:
320,192,338568,128,0,338739:0:0:0:0:
448,192,338568,128,0,338653:0:0:0:0:
192,192,338653,128,0,338825:0:0:0:0:
64,192,338739,128,0,338825:0:0:0:0:
448,192,338739,128,0,338868:0:0:0:0:
320,192,338825,128,0,338910:0:0:0:0:
192,192,338910,1,0,0:0:0:0:
64,192,338910,1,0,0:0:0:0:
320,192,338996,1,0,0:0:0:0:
64,192,338996,1,0,0:0:0:0:
192,192,339082,1,0,0:0:0:0:
320,192,339082,1,0,0:0:0:0:
448,192,339168,1,0,0:0:0:0:
192,192,339168,1,0,0:0:0:0:
448,192,339253,1,0,0:0:0:0:
320,192,339253,1,0,0:0:0:0:
64,192,339253,1,0,0:0:0:0:
192,192,339339,1,0,0:0:0:0:
64,192,339339,1,0,0:0:0:0:
448,192,339425,1,0,0:0:0:0:
320,192,339425,1,0,0:0:0:0:
448,192,339510,1,0,0:0:0:0:
192,192,339510,1,0,0:0:0:0:
320,192,339596,1,0,0:0:0:0:
192,192,339596,1,0,0:0:0:0:
64,192,339596,1,0,0:0:0:0:
448,192,339639,1,0,0:0:0:0:
64,192,339682,1,0,0:0:0:0:
192,192,339725,1,0,0:0:0:0:
448,192,339768,1,0,0:0:0:0:
320,192,339768,1,0,0:0:0:0:
64,192,339810,1,0,0:0:0:0:
192,192,339853,1,0,0:0:0:0:
448,192,339896,1,0,0:0:0:0:
320,192,339939,1,0,0:0:0:0:
64,192,339939,1,0,0:0:0:0:
192,192,339982,1,0,0:0:0:0:
448,192,340025,1,0,0:0:0:0:
320,192,340068,1,0,0:0:0:0:
192,192,340110,1,0,0:0:0:0:
64,192,340110,1,0,0:0:0:0:
448,192,340153,1,0,0:0:0:0:
320,192,340196,1,0,0:0:0:0:
64,192,340196,1,0,0:0:0:0:
192,192,340239,1,0,0:0:0:0:
448,192,340282,1,0,0:0:0:0:
320,192,340282,1,0,0:0:0:0:
448,192,340368,1,0,0:0:0:0:
192,192,340368,1,0,0:0:0:0:
64,192,340453,1,0,0:0:0:0:
320,192,340453,1,0,0:0:0:0:
64,192,340539,1,0,0:0:0:0:
448,192,340539,1,0,0:0:0:0:
192,192,340625,1,0,0:0:0:0:
320,192,340625,1,0,0:0:0:0:
320,192,340710,1,0,0:0:0:0:
64,192,340710,1,0,0:0:0:0:
448,192,340796,1,0,0:0:0:0:
192,192,340796,1,0,0:0:0:0:
192,192,340882,1,0,0:0:0:0:
320,192,340882,1,0,0:0:0:0:
64,192,340968,1,0,0:0:0:0:
448,192,340968,1,0,0:0:0:0:
448,192,341053,1,0,0:0:0:0:
192,192,341053,1,0,0:0:0:0:
320,192,341139,1,0,0:0:0:0:
64,192,341139,1,0,0:0:0:0:
64,192,341225,1,0,0:0:0:0:
448,192,341225,1,0,0:0:0:0:
192,192,341310,1,0,0:0:0:0:
320,192,341310,1,0,0:0:0:0:
320,192,341396,1,0,0:0:0:0:
64,192,341396,1,0,0:0:0:0:
448,192,341482,1,0,0:0:0:0:
192,192,341482,1,0,0:0:0:0:
320,192,341482,1,0,0:0:0:0:
192,192,341568,1,0,0:0:0:0:
448,192,341653,1,0,0:0:0:0:
320,192,341653,1,0,0:0:0:0:
64,192,341653,1,0,0:0:0:0:
192,192,341696,1,0,0:0:0:0:
448,192,341739,1,0,0:0:0:0:
320,192,341782,1,0,0:0:0:0:
64,192,341825,1,0,0:0:0:0:
448,192,341868,1,0,0:0:0:0:
192,192,341910,1,0,0:0:0:0:
320,192,341953,1,0,0:0:0:0:
64,192,341996,1,0,0:0:0:0:
448,192,342039,1,0,0:0:0:0:
192,192,342082,1,0,0:0:0:0:
64,192,342125,1,0,0:0:0:0:
320,192,342168,1,0,0:0:0:0:
192,192,342210,1,0,0:0:0:0:
448,192,342253,1,0,0:0:0:0:
320,192,342296,1,0,0:0:0:0:
64,192,342339,1,0,0:0:0:0:
192,192,342382,1,0,0:0:0:0:
448,192,342425,1,0,0:0:0:0:
64,192,342468,1,0,0:0:0:0:
320,192,342510,1,0,0:0:0:0:
192,192,342553,1,0,0:0:0:0:
448,192,342596,1,0,0:0:0:0:
64,192,342639,1,0,0:0:0:0:
192,192,342682,1,0,0:0:0:0:
320,192,342682,128,0,343025:0:0:0:0:
64,192,343025,1,0,0:0:0:0:
192,192,343025,128,0,343196:0:0:0:0:
448,192,343025,128,0,343110:0:0:0:0:
64,192,343110,128,0,343282:0:0:0:0:
448,192,343196,128,0,343282:0:0:0:0:
320,192,343196,128,0,343410:0:0:0:0:
192,192,343282,128,0,343496:0:0:0:0:
448,192,343368,1,0,0:0:0:0:
64,192,343368,1,0,0:0:0:0:
448,192,343453,128,0,343625:0:0:0:0:
64,192,343539,128,0,343625:0:0:0:0:
320,192,343539,128,0,343753:0:0:0:0:
192,192,343625,128,0,343796:0:0:0:0:
64,192,343710,1,0,0:0:0:0:
448,192,343710,128,0,343839:0:0:0:0:
64,192,343796,128,0,343968:0:0:0:0:
192,192,343882,128,0,344182:0:0:0:0:
320,192,343882,1,0,0:0:0:0:
448,192,343968,128,0,344139:0:0:0:0:
320,192,344053,1,0,0:0:0:0:
64,192,344053,1,0,0:0:0:0:
320,192,344139,128,0,344310:0:0:0:0:
64,192,344225,128,0,344482:0:0:0:0:
448,192,344225,128,0,344310:0:0:0:0:
192,192,344310,128,0,344525:0:0:0:0:
448,192,344396,1,0,0:0:0:0:
320,192,344396,128,0,344482:0:0:0:0:
448,192,344482,128,0,344653:0:0:0:0:
320,192,344568,128,0,344696:0:0:0:0:
64,192,344568,1,0,0:0:0:0:
192,192,344653,128,0,344825:0:0:0:0:
64,192,344739,1,0,0:0:0:0:
448,192,344739,128,0,344825:0:0:0:0:
64,192,344825,128,0,344953:0:0:0:0:
320,192,344825,1,0,0:0:0:0:
448,192,344910,128,0,344996:0:0:0:0:
192,192,344910,128,0,345039:0:0:0:0:
320,192,344996,128,0,345125:0:0:0:0:
448,192,345082,1,0,0:0:0:0:
64,192,345082,128,0,345210:0:0:0:0:
448,192,345168,128,0,345296:0:0:0:0:
192,192,345168,128,0,345296:0:0:0:0:
320,192,345253,128,0,345596:0:0:0:0:
64,192,345339,128,0,345510:0:0:0:0:
192,192,345425,1,0,0:0:0:0:
448,192,345425,128,0,345510:0:0:0:0:
192,192,345510,128,0,345853:0:0:0:0:
64,192,345596,128,0,345682:0:0:0:0:
448,192,345596,128,0,345682:0:0:0:0:
320,192,345682,128,0,345810:0:0:0:0:
448,192,345768,1,0,0:0:0:0:
64,192,345768,128,0,345896:0:0:0:0:
448,192,345853,128,0,346025:0:0:0:0:
320,192,345939,128,0,346153:0:0:0:0:
192,192,345939,128,0,346025:0:0:0:0:
64,192,346025,128,0,346282:0:0:0:0:
192,192,346110,1,0,0:0:0:0:
448,192,346110,128,0,346196:0:0:0:0:
192,192,346196,128,0,346325:0:0:0:0:
320,192,346282,128,0,346368:0:0:0:0:
448,192,346282,128,0,346496:0:0:0:0:
64,192,346368,128,0,346496:0:0:0:0:
320,192,346453,1,0,0:0:0:0:
192,192,346453,128,0,346582:0:0:0:0:
320,192,346539,128,0,346668:0:0:0:0:
64,192,346625,128,0,346710:0:0:0:0:
448,192,346625,128,0,346882:0:0:0:0:
192,192,346710,128,0,346839:0:0:0:0:
64,192,346796,1,0,0:0:0:0:
320,192,346796,128,0,346925:0:0:0:0:
64,192,346882,128,0,347010:0:0:0:0:
192,192,346968,128,0,347225:0:0:0:0:
448,192,346968,128,0,347053:0:0:0:0:
320,192,347053,128,0,347182:0:0:0:0:
448,192,347139,1,0,0:0:0:0:
64,192,347139,128,0,347268:0:0:0:0:
448,192,347225,128,0,347353:0:0:0:0:
320,192,347310,128,0,347610:0:0:0:0:
192,192,347310,1,0,0:0:0:0:
64,192,347396,128,0,347525:0:0:0:0:
192,192,347482,1,0,0:0:0:0:
448,192,347482,128,0,347568:0:0:0:0:
192,192,347568,128,0,347696:0:0:0:0:
448,192,347653,128,0,347739:0:0:0:0:
64,192,347653,128,0,347910:0:0:0:0:
320,192,347739,128,0,347868:0:0:0:0:
448,192,347825,1,0,0:0:0:0:
192,192,347825,128,0,347953:0:0:0:0:
448,192,347910,128,0,348082:0:0:0:0:
320,192,347996,128,0,348253:0:0:0:0:
64,192,347996,1,0,0:0:0:0:
192,192,348082,128,0,348210:0:0:0:0:
64,192,348168,1,0,0:0:0:0:
448,192,348168,128,0,348296:0:0:0:0:
64,192,348253,128,0,348382:0:0:0:0:
192,192,348339,128,0,348425:0:0:0:0:
320,192,348339,128,0,348468:0:0:0:0:
448,192,348425,128,0,348510:0:0:0:0:
64,192,348510,1,0,0:0:0:0:
192,192,348510,1,0,0:0:0:0:
320,192,348539,1,0,0:0:0:0:
448,192,348568,1,0,0:0:0:0:
64,192,348596,1,0,0:0:0:0:
192,192,348639,1,0,0:0:0:0:
448,192,348682,1,0,0:0:0:0:
64,192,348725,1,0,0:0:0:0:
320,192,348768,1,0,0:0:0:0:
192,192,348810,1,0,0:0:0:0:
448,192,348853,1,0,0:0:0:0:
64,192,348853,1,0,0:0:0:0:
192,192,348939,1,0,0:0:0:0:
320,192,348939,1,0,0:0:0:0:
448,192,349025,1,0,0:0:0:0:
192,192,349025,1,0,0:0:0:0:
64,192,349110,1,0,0:0:0:0:
320,192,349110,1,0,0:0:0:0:
448,192,349196,1,0,0:0:0:0:
192,192,349196,1,0,0:0:0:0:
320,192,349196,1,0,0:0:0:0:
192,192,349282,1,0,0:0:0:0:
448,192,349368,1,0,0:0:0:0:
448,192,349453,1,0,0:0:0:0:
192,192,349453,1,0,0:0:0:0:
64,192,349453,1,0,0:0:0:0:
64,192,349539,1,0,0:0:0:0:
320,192,349625,1,0,0:0:0:0:
192,192,349668,1,0,0:0:0:0:
320,192,349710,1,0,0:0:0:0:
64,192,349710,1,0,0:0:0:0:
448,192,349753,1,0,0:0:0:0:
64,192,349796,1,0,0:0:0:0:
448,192,349882,1,0,0:0:0:0:
320,192,349882,1,0,0:0:0:0:
192,192,349882,1,0,0:0:0:0:
320,192,349968,1,0,0:0:0:0:
192,192,350053,1,0,0:0:0:0:
64,192,350053,1,0,0:0:0:0:
448,192,350096,1,0,0:0:0:0:
64,192,350139,1,0,0:0:0:0:
448,192,350182,1,0,0:0:0:0:
320,192,350225,1,0,0:0:0:0:
192,192,350225,1,0,0:0:0:0:
448,192,350310,1,0,0:0:0:0:
64,192,350396,1,0,0:0:0:0:
192,192,350396,1,0,0:0:0:0:
448,192,350482,1,0,0:0:0:0:
320,192,350568,1,0,0:0:0:0:
64,192,350568,1,0,0:0:0:0:
448,192,350610,1,0,0:0:0:0:
192,192,350653,1,0,0:0:0:0:
320,192,350696,1,0,0:0:0:0:
64,192,350739,1,0,0:0:0:0:
192,192,350782,1,0,0:0:0:0:
448,192,350825,1,0,0:0:0:0:
64,192,350868,1,0,0:0:0:0:
320,192,350910,1,0,0:0:0:0:
192,192,350910,1,0,0:0:0:0:
448,192,350953,1,0,0:0:0:0:
64,192,350996,1,0,0:0:0:0:
320,192,351039,1,0,0:0:0:0:
192,192,351082,1,0,0:0:0:0:
448,192,351125,1,0,0:0:0:0:
320,192,351168,1,0,0:0:0:0:
64,192,351210,1,0,0:0:0:0:
192,192,351253,1,0,0:0:0:0:
448,192,351253,1,0,0:0:0:0:
320,192,351296,1,0,0:0:0:0:
64,192,351339,1,0,0:0:0:0:
192,192,351382,1,0,0:0:0:0:
448,192,351425,1,0,0:0:0:0:
320,192,351468,1,0,0:0:0:0:
448,192,351510,1,0,0:0:0:0:
320,192,351553,1,0,0:0:0:0:
192,192,351596,128,0,351768:0:0:0:0:
64,192,351596,128,0,351682:0:0:0:0:
448,192,351682,128,0,351853:0:0:0:0:
320,192,351768,128,0,351939:0:0:0:0:
64,192,351768,128,0,351853:0:0:0:0:
192,192,351853,128,0,352110:0:0:0:0:
64,192,351939,128,0,352025:0:0:0:0:
448,192,351939,128,0,352025:0:0:0:0:
320,192,352025,128,0,352196:0:0:0:0:
448,192,352110,128,0,352282:0:0:0:0:
64,192,352110,128,0,352196:0:0:0:0:
192,192,352196,128,0,352368:0:0:0:0:
64,192,352282,128,0,352368:0:0:0:0:
320,192,352282,128,0,352453:0:0:0:0:
448,192,352368,128,0,352539:0:0:0:0:
192,192,352453,1,0,0:0:0:0:
64,192,352453,1,0,0:0:0:0:
320,192,352539,1,0,0:0:0:0:
64,192,352539,1,0,0:0:0:0:
448,192,352625,1,0,0:0:0:0:
192,192,352625,128,0,352796:0:0:0:0:
448,192,352796,1,0,0:0:0:0:
320,192,352796,1,0,0:0:0:0:
448,192,352882,1,0,0:0:0:0:
64,192,352882,1,0,0:0:0:0:
320,192,352968,1,0,0:0:0:0:
192,192,352968,1,0,0:0:0:0:
64,192,353053,1,0,0:0:0:0:
448,192,353053,1,0,0:0:0:0:
192,192,353139,1,0,0:0:0:0:
64,192,353139,1,0,0:0:0:0:
448,192,353225,1,0,0:0:0:0:
320,192,353225,1,0,0:0:0:0:
448,192,353310,1,0,0:0:0:0:
192,192,353310,1,0,0:0:0:0:
64,192,353353,1,0,0:0:0:0:
320,192,353396,1,0,0:0:0:0:
192,192,353439,1,0,0:0:0:0:
448,192,353482,1,0,0:0:0:0:
64,192,353482,1,0,0:0:0:0:
448,192,353568,1,0,0:0:0:0:
64,192,353568,1,0,0:0:0:0:
192,192,353653,1,0,0:0:0:0:
320,192,353653,1,0,0:0:0:0:
192,192,353996,1,0,0:0:0:0:
448,192,353996,1,0,0:0:0:0:
320,192,353996,128,0,354082:0:0:0:0:
64,192,353996,128,0,354168:0:0:0:0:
448,192,354082,128,0,354253:0:0:0:0:
320,192,354168,128,0,354253:0:0:0:0:
192,192,354168,128,0,354382:0:0:0:0:
64,192,354253,128,0,354468:0:0:0:0:
320,192,354339,1,0,0:0:0:0:
448,192,354339,1,0,0:0:0:0:
320,192,354425,128,0,354596:0:0:0:0:
448,192,354510,128,0,354596:0:0:0:0:
192,192,354510,128,0,354725:0:0:0:0:
64,192,354596,128,0,354768:0:0:0:0:
448,192,354682,1,0,0:0:0:0:
320,192,354682,128,0,354810:0:0:0:0:
448,192,354768,128,0,354939:0:0:0:0:
64,192,354853,128,0,355153:0:0:0:0:
192,192,354853,1,0,0:0:0:0:
320,192,354939,128,0,355110:0:0:0:0:
192,192,355025,1,0,0:0:0:0:
448,192,355025,1,0,0:0:0:0:
192,192,355110,128,0,355282:0:0:0:0:
448,192,355196,128,0,355453:0:0:0:0:
320,192,355196,128,0,355282:0:0:0:0:
64,192,355282,128,0,355496:0:0:0:0:
320,192,355368,1,0,0:0:0:0:
192,192,355368,128,0,355453:0:0:0:0:
320,192,355453,128,0,355625:0:0:0:0:
192,192,355539,128,0,355668:0:0:0:0:
448,192,355539,1,0,0:0:0:0:
64,192,355625,128,0,355796:0:0:0:0:
448,192,355710,1,0,0:0:0:0:
320,192,355710,128,0,355796:0:0:0:0:
448,192,355796,128,0,355925:0:0:0:0:
192,192,355796,1,0,0:0:0:0:
320,192,355882,128,0,355968:0:0:0:0:
64,192,355882,128,0,356010:0:0:0:0:
192,192,355968,128,0,356096:0:0:0:0:
320,192,356053,1,0,0:0:0:0:
448,192,356053,128,0,356182:0:0:0:0:
320,192,356139,128,0,356268:0:0:0:0:
64,192,356139,128,0,356268:0:0:0:0:
192,192,356225,128,0,356568:0:0:0:0:
448,192,356310,128,0,356482:0:0:0:0:
64,192,356396,1,0,0:0:0:0:
320,192,356396,128,0,356482:0:0:0:0:
64,192,356482,128,0,356825:0:0:0:0:
448,192,356568,128,0,356653:0:0:0:0:
320,192,356568,128,0,356653:0:0:0:0:
192,192,356653,128,0,356782:0:0:0:0:
320,192,356739,1,0,0:0:0:0:
448,192,356739,128,0,356868:0:0:0:0:
320,192,356825,128,0,356996:0:0:0:0:
192,192,356910,128,0,357125:0:0:0:0:
64,192,356910,128,0,356996:0:0:0:0:
448,192,356996,128,0,357253:0:0:0:0:
64,192,357082,1,0,0:0:0:0:
320,192,357082,128,0,357168:0:0:0:0:
64,192,357168,128,0,357296:0:0:0:0:
192,192,357253,128,0,357339:0:0:0:0:
320,192,357253,128,0,357468:0:0:0:0:
448,192,357339,128,0,357468:0:0:0:0:
192,192,357425,1,0,0:0:0:0:
64,192,357425,128,0,357553:0:0:0:0:
192,192,357510,128,0,357639:0:0:0:0:
448,192,357596,128,0,357682:0:0:0:0:
320,192,357596,128,0,357853:0:0:0:0:
64,192,357682,128,0,357810:0:0:0:0:
448,192,357768,1,0,0:0:0:0:
192,192,357768,128,0,357896:0:0:0:0:
448,192,357853,128,0,357982:0:0:0:0:
64,192,357939,128,0,358196:0:0:0:0:
320,192,357939,128,0,358025:0:0:0:0:
192,192,358025,128,0,358153:0:0:0:0:
320,192,358110,1,0,0:0:0:0:
448,192,358110,128,0,358239:0:0:0:0:
320,192,358196,128,0,358325:0:0:0:0:
192,192,358282,128,0,358582:0:0:0:0:
64,192,358282,1,0,0:0:0:0:
448,192,358368,128,0,358496:0:0:0:0:
64,192,358453,1,0,0:0:0:0:
320,192,358453,128,0,358539:0:0:0:0:
64,192,358539,128,0,358668:0:0:0:0:
320,192,358625,128,0,358710:0:0:0:0:
448,192,358625,128,0,358882:0:0:0:0:
192,192,358710,128,0,358839:0:0:0:0:
320,192,358796,1,0,0:0:0:0:
64,192,358796,128,0,358925:0:0:0:0:
320,192,358882,128,0,359053:0:0:0:0:
192,192,358968,128,0,359225:0:0:0:0:
448,192,358968,1,0,0:0:0:0:
64,192,359053,128,0,359182:0:0:0:0:
448,192,359139,1,0,0:0:0:0:
320,192,359139,128,0,359268:0:0:0:0:
448,192,359225,128,0,359353:0:0:0:0:
64,192,359310,128,0,359396:0:0:0:0:
192,192,359310,128,0,359439:0:0:0:0:
320,192,359396,128,0,359482:0:0:0:0:
448,192,359482,1,0,0:0:0:0:
64,192,359482,1,0,0:0:0:0:
192,192,359510,1,0,0:0:0:0:
320,192,359539,1,0,0:0:0:0:
448,192,359568,1,0,0:0:0:0:
64,192,359610,1,0,0:0:0:0:
320,192,359653,1,0,0:0:0:0:
448,192,359696,1,0,0:0:0:0:
192,192,359739,1,0,0:0:0:0:
64,192,359782,1,0,0:0:0:0:
320,192,359825,1,0,0:0:0:0:
448,192,359825,1,0,0:0:0:0:
64,192,359910,1,0,0:0:0:0:
192,192,359910,1,0,0:0:0:0:
320,192,359996,1,0,0:0:0:0:
64,192,359996,1,0,0:0:0:0:
448,192,360082,1,0,0:0:0:0:
192,192,360082,1,0,0:0:0:0:
320,192,360168,1,0,0:0:0:0:
64,192,360168,1,0,0:0:0:0:
192,192,360168,1,0,0:0:0:0:
320,192,360253,1,0,0:0:0:0:
64,192,360339,1,0,0:0:0:0:
320,192,360425,1,0,0:0:0:0:
64,192,360425,1,0,0:0:0:0:
448,192,360425,1,0,0:0:0:0:
448,192,360510,1,0,0:0:0:0:
64,192,360596,1,0,0:0:0:0:
192,192,360639,1,0,0:0:0:0:
448,192,360682,1,0,0:0:0:0:
320,192,360682,1,0,0:0:0:0:
64,192,360725,1,0,0:0:0:0:
448,192,360768,1,0,0:0:0:0:
320,192,360853,1,0,0:0:0:0:
192,192,360853,1,0,0:0:0:0:
64,192,360853,1,0,0:0:0:0:
192,192,360939,1,0,0:0:0:0:
64,192,361025,1,0,0:0:0:0:
448,192,361025,1,0,0:0:0:0:
320,192,361068,1,0,0:0:0:0:
448,192,361110,1,0,0:0:0:0:
320,192,361153,1,0,0:0:0:0:
192,192,361196,128,0,361368:0:0:0:0:
64,192,361196,128,0,361282:0:0:0:0:
320,192,361282,128,0,361453:0:0:0:0:
64,192,361368,1,0,0:0:0:0:
448,192,361368,128,0,361453:0:0:0:0:
192,192,361453,1,0,0:0:0:0:
448,192,361539,1,0,0:0:0:0:
320,192,361539,1,0,0:0:0:0:
64,192,361582,1,0,0:0:0:0:
192,192,361625,1,0,0:0:0:0:
448,192,361668,1,0,0:0:0:0:
64,192,361710,1,0,0:0:0:0:
320,192,361753,1,0,0:0:0:0:
192,192,361796,1,0,0:0:0:0:
448,192,361839,1,0,0:0:0:0:
320,192,361882,1,0,0:0:0:0:
64,192,361882,1,0,0:0:0:0:
192,192,361925,1,0,0:0:0:0:
448,192,361968,1,0,0:0:0:0:
320,192,362010,1,0,0:0:0:0:
64,192,362053,1,0,0:0:0:0:
448,192,362096,1,0,0:0:0:0:
192,192,362139,1,0,0:0:0:0:
320,192,362182,1,0,0:0:0:0:
64,192,362225,1,0,0:0:0:0:
448,192,362225,1,0,0:0:0:0:
192,192,362268,1,0,0:0:0:0:
320,192,362310,1,0,0:0:0:0:
64,192,362353,1,0,0:0:0:0:
192,192,362396,1,0,0:0:0:0:
448,192,362439,1,0,0:0:0:0:
64,192,362482,1,0,0:0:0:0:
320,192,362525,1,0,0:0:0:0:
448,192,362568,1,0,0:0:0:0:
192,192,362568,1,0,0:0:0:0:
64,192,362610,1,0,0:0:0:0:
320,192,362653,1,0,0:0:0:0:
192,192,362696,1,0,0:0:0:0:
448,192,362739,1,0,0:0:0:0:
64,192,362782,1,0,0:0:0:0:
320,192,362825,1,0,0:0:0:0:
192,192,362868,1,0,0:0:0:0:
448,192,362910,1,0,0:0:0:0:
64,192,362910,1,0,0:0:0:0:
320,192,362953,1,0,0:0:0:0:
192,192,362996,1,0,0:0:0:0:
448,192,363039,1,0,0:0:0:0:
320,192,363082,1,0,0:0:0:0:
64,192,363125,1,0,0:0:0:0:
192,192,363168,1,0,0:0:0:0:
448,192,363210,1,0,0:0:0:0:
320,192,363253,1,0,0:0:0:0:
64,192,363253,1,0,0:0:0:0:
192,192,363296,1,0,0:0:0:0:
448,192,363339,1,0,0:0:0:0:
64,192,363382,1,0,0:0:0:0:
320,192,363425,1,0,0:0:0:0:
192,192,363468,1,0,0:0:0:0:
448,192,363510,1,0,0:0:0:0:
320,192,363553,1,0,0:0:0:0:
64,192,363596,1,0,0:0:0:0:
192,192,363596,1,0,0:0:0:0:
192,192,363682,1,0,0:0:0:0:
320,192,363768,1,0,0:0:0:0:
64,192,363853,1,0,0:0:0:0:
192,192,363939,1,0,0:0:0:0:
448,192,363939,1,0,0:0:0:0:
320,192,363939,1,0,0:0:0:0:
192,192,364025,1,0,0:0:0:0:
320,192,364110,1,0,0:0:0:0:
64,192,364196,1,0,0:0:0:0:
320,192,364282,1,0,0:0:0:0:
448,192,364282,1,0,0:0:0:0:
192,192,364282,1,0,0:0:0:0:
192,192,364368,1,0,0:0:0:0:
320,192,364453,1,0,0:0:0:0:
64,192,364539,1,0,0:0:0:0:
448,192,364625,1,0,0:0:0:0:
320,192,364625,1,0,0:0:0:0:
192,192,364625,1,0,0:0:0:0:
192,192,364710,1,0,0:0:0:0:
320,192,364796,1,0,0:0:0:0:
192,192,364882,1,0,0:0:0:0:
448,192,364968,1,0,0:0:0:0:
320,192,364968,1,0,0:0:0:0:
64,192,364968,1,0,0:0:0:0:
64,192,365053,1,0,0:0:0:0:
320,192,365139,1,0,0:0:0:0:
192,192,365225,1,0,0:0:0:0:
64,192,365310,1,0,0:0:0:0:
320,192,365310,1,0,0:0:0:0:
64,192,365396,1,0,0:0:0:0:
320,192,365482,1,0,0:0:0:0:
192,192,365568,1,0,0:0:0:0:
320,192,365653,1,0,0:0:0:0:
64,192,365653,1,0,0:0:0:0:
64,192,365739,1,0,0:0:0:0:
320,192,365825,1,0,0:0:0:0:
192,192,365910,1,0,0:0:0:0:
320,192,365996,1,0,0:0:0:0:
64,192,365996,1,0,0:0:0:0:
64,192,366082,1,0,0:0:0:0:
192,192,366168,1,0,0:0:0:0:
320,192,366253,1,0,0:0:0:0:
448,192,366339,1,0,0:0:0:0:
192,192,366339,1,0,0:0:0:0:
448,192,366425,1,0,0:0:0:0:
192,192,366510,1,0,0:0:0:0:
320,192,366596,1,0,0:0:0:0:
448,192,366682,1,0,0:0:0:0:
192,192,366682,1,0,0:0:0:0:
448,192,366768,1,0,0:0:0:0:
192,192,366853,1,0,0:0:0:0:
320,192,366939,1,0,0:0:0:0:
192,192,367025,1,0,0:0:0:0:
448,192,367025,1,0,0:0:0:0:
448,192,367110,1,0,0:0:0:0:
192,192,367196,1,0,0:0:0:0:
320,192,367282,1,0,0:0:0:0:
448,192,367368,1,0,0:0:0:0:
192,192,367368,1,0,0:0:0:0:
448,192,367453,1,0,0:0:0:0:
64,192,367539,1,0,0:0:0:0:
320,192,367625,1,0,0:0:0:0:
448,192,367710,1,0,0:0:0:0:
192,192,367710,1,0,0:0:0:0:
192,192,367796,1,0,0:0:0:0:
448,192,367882,1,0,0:0:0:0:
64,192,367882,128,0,367968:0:0:0:0:
320,192,367968,1,0,0:0:0:0:
448,192,368053,1,0,0:0:0:0:
192,192,368053,1,0,0:0:0:0:
64,192,368053,128,0,368139:0:0:0:0:
192,192,368139,1,0,0:0:0:0:
448,192,368225,1,0,0:0:0:0:
320,192,368310,1,0,0:0:0:0:
192,192,368396,1,0,0:0:0:0:
448,192,368396,1,0,0:0:0:0:
64,192,368396,128,0,368482:0:0:0:0:
192,192,368482,1,0,0:0:0:0:
448,192,368568,1,0,0:0:0:0:
64,192,368568,128,0,368653:0:0:0:0:
320,192,368653,1,0,0:0:0:0:
448,192,368739,1,0,0:0:0:0:
192,192,368739,1,0,0:0:0:0:
192,192,368825,1,0,0:0:0:0:
64,192,368910,1,0,0:0:0:0:
192,192,368996,1,0,0:0:0:0:
320,192,369082,1,0,0:0:0:0:
64,192,369082,1,0,0:0:0:0:
320,192,369168,1,0,0:0:0:0:
64,192,369253,1,0,0:0:0:0:
192,192,369339,1,0,0:0:0:0:
64,192,369425,1,0,0:0:0:0:
320,192,369425,1,0,0:0:0:0:
320,192,369510,1,0,0:0:0:0:
64,192,369596,1,0,0:0:0:0:
192,192,369682,1,0,0:0:0:0:
320,192,369768,1,0,0:0:0:0:
64,192,369768,1,0,0:0:0:0:
320,192,369853,1,0,0:0:0:0:
64,192,369939,1,0,0:0:0:0:
192,192,370025,1,0,0:0:0:0:
64,192,370110,1,0,0:0:0:0:
320,192,370110,1,0,0:0:0:0:
320,192,370196,1,0,0:0:0:0:
448,192,370282,1,0,0:0:0:0:
192,192,370368,1,0,0:0:0:0:
64,192,370453,1,0,0:0:0:0:
320,192,370453,1,0,0:0:0:0:
64,192,370539,1,0,0:0:0:0:
320,192,370625,1,0,0:0:0:0:
192,192,370710,1,0,0:0:0:0:
64,192,370796,1,0,0:0:0:0:
320,192,370796,1,0,0:0:0:0:
64,192,370882,1,0,0:0:0:0:
320,192,370968,1,0,0:0:0:0:
192,192,371053,1,0,0:0:0:0:
320,192,371139,1,0,0:0:0:0:
64,192,371139,1,0,0:0:0:0:
64,192,371225,1,0,0:0:0:0:
320,192,371310,1,0,0:0:0:0:
192,192,371396,1,0,0:0:0:0:
320,192,371482,1,0,0:0:0:0:
64,192,371482,1,0,0:0:0:0:
64,192,371568,1,0,0:0:0:0:
192,192,371653,1,0,0:0:0:0:
320,192,371739,1,0,0:0:0:0:
448,192,371825,1,0,0:0:0:0:
192,192,371825,1,0,0:0:0:0:
448,192,371910,1,0,0:0:0:0:
192,192,371996,1,0,0:0:0:0:
320,192,372082,1,0,0:0:0:0:
448,192,372168,1,0,0:0:0:0:
192,192,372168,1,0,0:0:0:0:
448,192,372253,1,0,0:0:0:0:
192,192,372339,1,0,0:0:0:0:
320,192,372425,1,0,0:0:0:0:
192,192,372510,1,0,0:0:0:0:
448,192,372510,1,0,0:0:0:0:
448,192,372596,1,0,0:0:0:0:
192,192,372682,1,0,0:0:0:0:
320,192,372768,1,0,0:0:0:0:
448,192,372853,1,0,0:0:0:0:
192,192,372853,1,0,0:0:0:0:
448,192,372939,1,0,0:0:0:0:
64,192,373025,1,0,0:0:0:0:
320,192,373110,1,0,0:0:0:0:
448,192,373196,1,0,0:0:0:0:
192,192,373196,1,0,0:0:0:0:
192,192,373282,1,0,0:0:0:0:
448,192,373368,1,0,0:0:0:0:
64,192,373368,128,0,373453:0:0:0:0:
320,192,373453,1,0,0:0:0:0:
448,192,373539,1,0,0:0:0:0:
192,192,373539,1,0,0:0:0:0:
64,192,373539,128,0,373625:0:0:0:0:
192,192,373625,1,0,0:0:0:0:
448,192,373710,1,0,0:0:0:0:
320,192,373796,1,0,0:0:0:0:
192,192,373882,1,0,0:0:0:0:
448,192,373882,1,0,0:0:0:0:
64,192,373882,128,0,373968:0:0:0:0:
192,192,373968,1,0,0:0:0:0:
448,192,374053,1,0,0:0:0:0:
64,192,374053,128,0,374139:0:0:0:0:
320,192,374139,1,0,0:0:0:0:
448,192,374225,1,0,0:0:0:0:
192,192,374225,1,0,0:0:0:0:
192,192,374310,1,0,0:0:0:0:
64,192,374396,1,0,0:0:0:0:
192,192,374482,1,0,0:0:0:0:
320,192,374568,1,0,0:0:0:0:
64,192,374568,1,0,0:0:0:0:
320,192,374653,1,0,0:0:0:0:
64,192,374739,1,0,0:0:0:0:
192,192,374825,1,0,0:0:0:0:
64,192,374910,1,0,0:0:0:0:
320,192,374910,1,0,0:0:0:0:
320,192,374996,1,0,0:0:0:0:
64,192,375082,1,0,0:0:0:0:
192,192,375168,1,0,0:0:0:0:
320,192,375253,1,0,0:0:0:0:
64,192,375253,1,0,0:0:0:0:
320,192,375339,1,0,0:0:0:0:
64,192,375425,1,0,0:0:0:0:
192,192,375510,1,0,0:0:0:0:
64,192,375596,1,0,0:0:0:0:
320,192,375596,1,0,0:0:0:0:
320,192,375682,1,0,0:0:0:0:
448,192,375768,1,0,0:0:0:0:
192,192,375853,1,0,0:0:0:0:
448,192,375939,1,0,0:0:0:0:
320,192,375939,1,0,0:0:0:0:
192,192,375939,1,0,0:0:0:0:
64,192,375939,1,0,0:0:0:0:
320,192,376025,1,0,0:0:0:0:
64,192,376110,1,0,0:0:0:0:
320,192,376196,1,0,0:0:0:0:
64,192,376282,1,0,0:0:0:0:
192,192,376282,1,0,0:0:0:0:
320,192,376368,1,0,0:0:0:0:
64,192,376453,1,0,0:0:0:0:
320,192,376539,1,0,0:0:0:0:
64,192,376625,1,0,0:0:0:0:
192,192,376625,1,0,0:0:0:0:
320,192,376710,1,0,0:0:0:0:
64,192,376796,1,0,0:0:0:0:
320,192,376882,1,0,0:0:0:0:
64,192,376968,1,0,0:0:0:0:
192,192,376968,1,0,0:0:0:0:
320,192,377053,1,0,0:0:0:0:
64,192,377139,1,0,0:0:0:0:
320,192,377225,1,0,0:0:0:0:
64,192,377310,1,0,0:0:0:0:
192,192,377310,1,0,0:0:0:0:
448,192,377396,1,0,0:0:0:0:
64,192,377482,1,0,0:0:0:0:
448,192,377568,1,0,0:0:0:0:
64,192,377653,1,0,0:0:0:0:
192,192,377653,1,0,0:0:0:0:
448,192,377739,1,0,0:0:0:0:
64,192,377825,1,0,0:0:0:0:
448,192,377910,1,0,0:0:0:0:
192,192,377996,1,0,0:0:0:0:
64,192,377996,1,0,0:0:0:0:
448,192,378082,1,0,0:0:0:0:
64,192,378168,1,0,0:0:0:0:
448,192,378253,1,0,0:0:0:0:
192,192,378339,1,0,0:0:0:0:
64,192,378339,1,0,0:0:0:0:
448,192,378425,1,0,0:0:0:0:
64,192,378510,1,0,0:0:0:0:
448,192,378596,1,0,0:0:0:0:
320,192,378682,1,0,0:0:0:0:
64,192,378682,1,0,0:0:0:0:
192,192,378768,1,0,0:0:0:0:
320,192,378853,1,0,0:0:0:0:
448,192,378853,128,0,378939:0:0:0:0:
192,192,378939,1,0,0:0:0:0:
320,192,379025,1,0,0:0:0:0:
64,192,379025,1,0,0:0:0:0:
448,192,379025,128,0,379110:0:0:0:0:
192,192,379110,1,0,0:0:0:0:
320,192,379196,1,0,0:0:0:0:
192,192,379282,1,0,0:0:0:0:
448,192,379368,128,0,379453:0:0:0:0:
320,192,379368,1,0,0:0:0:0:
64,192,379368,1,0,0:0:0:0:
192,192,379453,1,0,0:0:0:0:
448,192,379539,128,0,379625:0:0:0:0:
320,192,379539,1,0,0:0:0:0:
192,192,379625,1,0,0:0:0:0:
320,192,379710,1,0,0:0:0:0:
64,192,379710,1,0,0:0:0:0:
192,192,379796,1,0,0:0:0:0:
320,192,379882,1,0,0:0:0:0:
192,192,379968,1,0,0:0:0:0:
64,192,380053,1,0,0:0:0:0:
320,192,380053,128,0,380139:0:0:0:0:
448,192,380053,1,0,0:0:0:0:
192,192,380139,1,0,0:0:0:0:
64,192,380225,1,0,0:0:0:0:
192,192,380310,1,0,0:0:0:0:
64,192,380396,1,0,0:0:0:0:
448,192,380396,1,0,0:0:0:0:
192,192,380482,1,0,0:0:0:0:
64,192,380568,1,0,0:0:0:0:
448,192,380568,128,0,380653:0:0:0:0:
192,192,380653,1,0,0:0:0:0:
64,192,380739,1,0,0:0:0:0:
448,192,380739,1,0,0:0:0:0:
192,192,380825,1,0,0:0:0:0:
64,192,380910,1,0,0:0:0:0:
192,192,380996,1,0,0:0:0:0:
64,192,381082,1,0,0:0:0:0:
448,192,381082,1,0,0:0:0:0:
320,192,381082,128,0,381168:0:0:0:0:
192,192,381168,1,0,0:0:0:0:
64,192,381253,1,0,0:0:0:0:
192,192,381339,1,0,0:0:0:0:
64,192,381425,1,0,0:0:0:0:
448,192,381425,128,0,381510:0:0:0:0:
320,192,381425,1,0,0:0:0:0:
192,192,381510,1,0,0:0:0:0:
448,192,381596,1,0,0:0:0:0:
64,192,381596,128,0,381682:0:0:0:0:
192,192,381682,1,0,0:0:0:0:
448,192,381768,1,0,0:0:0:0:
320,192,381768,1,0,0:0:0:0:
192,192,381853,1,0,0:0:0:0:
448,192,381939,128,0,382025:0:0:0:0:
192,192,382025,1,0,0:0:0:0:
448,192,382110,1,0,0:0:0:0:
320,192,382110,1,0,0:0:0:0:
64,192,382110,128,0,382196:0:0:0:0:
192,192,382196,1,0,0:0:0:0:
448,192,382282,1,0,0:0:0:0:
192,192,382368,1,0,0:0:0:0:
320,192,382453,1,0,0:0:0:0:
448,192,382453,128,0,382539:0:0:0:0:
192,192,382539,1,0,0:0:0:0:
448,192,382625,1,0,0:0:0:0:
64,192,382625,128,0,382710:0:0:0:0:
192,192,382710,1,0,0:0:0:0:
320,192,382796,1,0,0:0:0:0:
448,192,382796,1,0,0:0:0:0:
64,192,382882,1,0,0:0:0:0:
448,192,382968,128,0,383053:0:0:0:0:
64,192,383053,1,0,0:0:0:0:
448,192,383139,1,0,0:0:0:0:
320,192,383139,1,0,0:0:0:0:
192,192,383139,128,0,383225:0:0:0:0:
64,192,383225,1,0,0:0:0:0:
448,192,383310,1,0,0:0:0:0:
64,192,383396,1,0,0:0:0:0:
320,192,383482,1,0,0:0:0:0:
448,192,383482,128,0,383568:0:0:0:0:
64,192,383568,1,0,0:0:0:0:
448,192,383653,1,0,0:0:0:0:
192,192,383653,128,0,383739:0:0:0:0:
64,192,383739,1,0,0:0:0:0:
448,192,383825,1,0,0:0:0:0:
320,192,383825,1,0,0:0:0:0:
64,192,383910,1,0,0:0:0:0:
448,192,383996,128,0,384082:0:0:0:0:
64,192,384082,1,0,0:0:0:0:
448,192,384168,1,0,0:0:0:0:
320,192,384168,1,0,0:0:0:0:
192,192,384253,1,0,0:0:0:0:
320,192,384339,1,0,0:0:0:0:
64,192,384339,128,0,384425:0:0:0:0:
192,192,384425,1,0,0:0:0:0:
320,192,384510,1,0,0:0:0:0:
448,192,384510,128,0,384596:0:0:0:0:
64,192,384510,1,0,0:0:0:0:
192,192,384596,1,0,0:0:0:0:
320,192,384682,1,0,0:0:0:0:
192,192,384768,1,0,0:0:0:0:
320,192,384853,1,0,0:0:0:0:
64,192,384853,128,0,384939:0:0:0:0:
192,192,384939,1,0,0:0:0:0:
320,192,385025,1,0,0:0:0:0:
448,192,385025,128,0,385110:0:0:0:0:
192,192,385110,1,0,0:0:0:0:
320,192,385196,1,0,0:0:0:0:
192,192,385282,1,0,0:0:0:0:
320,192,385368,1,0,0:0:0:0:
64,192,385368,128,0,385453:0:0:0:0:
192,192,385453,1,0,0:0:0:0:
320,192,385539,1,0,0:0:0:0:
448,192,385539,128,0,385625:0:0:0:0:
64,192,385625,1,0,0:0:0:0:
320,192,385710,1,0,0:0:0:0:
192,192,385710,128,0,385796:0:0:0:0:
64,192,385796,1,0,0:0:0:0:
320,192,385882,128,0,385968:0:0:0:0:
192,192,385968,1,0,0:0:0:0:
320,192,386053,1,0,0:0:0:0:
448,192,386053,128,0,386139:0:0:0:0:
192,192,386139,1,0,0:0:0:0:
320,192,386225,1,0,0:0:0:0:
64,192,386310,1,0,0:0:0:0:
320,192,386396,128,0,386482:0:0:0:0:
64,192,386482,1,0,0:0:0:0:
448,192,386568,128,0,386653:0:0:0:0:
192,192,386653,1,0,0:0:0:0:
320,192,386739,1,0,0:0:0:0:
448,192,386739,128,0,386825:0:0:0:0:
192,192,386825,1,0,0:0:0:0:
64,192,386910,5,0,0:0:0:0:
320,192,386910,1,0,0:0:0:0:
448,192,386910,1,0,0:0:0:0:
192,192,387082,1,0,0:0:0:0:
320,192,387253,1,0,0:0:0:0:
64,192,387425,1,0,0:0:0:0:
192,192,387596,1,0,0:0:0:0:
320,192,387768,1,0,0:0:0:0:
64,192,387939,1,0,0:0:0:0:
192,192,388110,1,0,0:0:0:0:
448,192,388282,1,0,0:0:0:0:
64,192,388453,1,0,0:0:0:0:
192,192,388625,1,0,0:0:0:0:
448,192,388796,1,0,0:0:0:0:
64,192,388968,1,0,0:0:0:0:
192,192,389139,1,0,0:0:0:0:
448,192,389310,1,0,0:0:0:0:
192,192,389482,1,0,0:0:0:0:
448,192,389653,1,0,0:0:0:0:
320,192,389825,1,0,0:0:0:0:
192,192,389996,1,0,0:0:0:0:
448,192,390168,1,0,0:0:0:0:
320,192,390339,1,0,0:0:0:0:
192,192,390510,1,0,0:0:0:0:
448,192,390682,1,0,0:0:0:0:
320,192,390853,1,0,0:0:0:0:
192,192,391025,1,0,0:0:0:0:
320,192,391196,1,0,0:0:0:0:
192,192,391368,1,0,0:0:0:0:
64,192,391539,1,0,0:0:0:0:
448,192,391710,1,0,0:0:0:0:
320,192,391882,1,0,0:0:0:0:
192,192,392053,1,0,0:0:0:0:
320,192,392225,1,0,0:0:0:0:
64,192,392396,1,0,0:0:0:0:
192,192,392568,1,0,0:0:0:0:
320,192,392739,1,0,0:0:0:0:
64,192,392910,1,0,0:0:0:0:
192,192,393082,1,0,0:0:0:0:
320,192,393253,1,0,0:0:0:0:
64,192,393425,1,0,0:0:0:0:
192,192,393596,1,0,0:0:0:0:
448,192,393768,1,0,0:0:0:0:
64,192,393939,1,0,0:0:0:0:
192,192,394110,1,0,0:0:0:0:
448,192,394282,1,0,0:0:0:0:
64,192,394453,1,0,0:0:0:0:
192,192,394625,1,0,0:0:0:0:
448,192,394796,1,0,0:0:0:0:
192,192,394968,1,0,0:0:0:0:
448,192,395139,1,0,0:0:0:0:
320,192,395310,1,0,0:0:0:0:
192,192,395482,1,0,0:0:0:0:
448,192,395653,1,0,0:0:0:0:
320,192,395825,1,0,0:0:0:0:
192,192,395996,1,0,0:0:0:0:
448,192,396168,1,0,0:0:0:0:
320,192,396339,1,0,0:0:0:0:
192,192,396510,1,0,0:0:0:0:
320,192,396682,1,0,0:0:0:0:
192,192,396853,1,0,0:0:0:0:
64,192,397025,1,0,0:0:0:0:
448,192,397196,1,0,0:0:0:0:
320,192,397368,1,0,0:0:0:0:
192,192,397539,1,0,0:0:0:0:
320,192,397710,1,0,0:0:0:0:
64,192,397882,128,0,398053:0:0:0:0:
192,192,398053,128,0,398225:0:0:0:0:
320,192,398225,128,0,398396:0:0:0:0:
64,192,398396,128,0,398739:0:0:0:0:
192,192,398568,128,0,398910:0:0:0:0:
320,192,398739,128,0,399082:0:0:0:0:
64,192,398910,128,0,399253:0:0:0:0:
192,192,399082,128,0,399425:0:0:0:0:
448,192,399253,128,0,399596:0:0:0:0:
64,192,399425,128,0,399596:0:0:0:0:
192,192,399596,128,0,399768:0:0:0:0:
448,192,399768,128,0,399939:0:0:0:0:
64,192,399939,128,0,400110:0:0:0:0:
192,192,400110,128,0,400282:0:0:0:0:
448,192,400282,128,0,400453:0:0:0:0:
192,192,400453,1,0,0:0:0:0:
448,192,400625,1,0,0:0:0:0:
320,192,400796,1,0,0:0:0:0:
192,192,400968,1,0,0:0:0:0:
448,192,401139,128,0,401310:0:0:0:0:
320,192,401310,128,0,401482:0:0:0:0:
192,192,401482,128,0,401653:0:0:0:0:
448,192,401653,128,0,401825:0:0:0:0:
320,192,401825,128,0,401996:0:0:0:0:
192,192,401996,128,0,402168:0:0:0:0:
320,192,402168,1,0,0:0:0:0:
192,192,402339,1,0,0:0:0:0:
64,192,402510,1,0,0:0:0:0:
448,192,402682,1,0,0:0:0:0:
320,192,402853,1,0,0:0:0:0:
192,192,403025,1,0,0:0:0:0:
320,192,403196,1,0,0:0:0:0:
64,192,403368,128,0,403539:0:0:0:0:
192,192,403539,128,0,403710:0:0:0:0:
320,192,403710,128,0,403882:0:0:0:0:
64,192,403882,128,0,404225:0:0:0:0:
192,192,404053,128,0,404396:0:0:0:0:
320,192,404225,128,0,404568:0:0:0:0:
64,192,404396,128,0,404739:0:0:0:0:
192,192,404568,128,0,404910:0:0:0:0:
448,192,404739,128,0,405082:0:0:0:0:
64,192,404910,128,0,405082:0:0:0:0:
192,192,405082,128,0,405253:0:0:0:0:
448,192,405253,128,0,405425:0:0:0:0:
64,192,405425,128,0,405596:0:0:0:0:
192,192,405596,128,0,405768:0:0:0:0:
448,192,405768,128,0,405939:0:0:0:0:
192,192,405939,1,0,0:0:0:0:
448,192,406110,1,0,0:0:0:0:
320,192,406282,1,0,0:0:0:0:
192,192,406453,1,0,0:0:0:0:
448,192,406625,128,0,406796:0:0:0:0:
320,192,406796,128,0,406968:0:0:0:0:
192,192,406968,128,0,407139:0:0:0:0:
448,192,407139,128,0,407310:0:0:0:0:
320,192,407310,128,0,407482:0:0:0:0:
192,192,407482,128,0,407653:0:0:0:0:
320,192,407653,1,0,0:0:0:0:
192,192,407825,1,0,0:0:0:0:
64,192,407996,1,0,0:0:0:0:
448,192,408168,1,0,0:0:0:0:
320,192,408339,1,0,0:0:0:0:
192,192,408510,128,0,408853:0:0:0:0:
320,192,408682,128,0,408853:0:0:0:0:
