osu file format v14

[General]
AudioFilename: audio.mp3
AudioLeadIn: 0
PreviewTime: 250400
Countdown: 0
SampleSet: Normal
StackLeniency: 0.3
Mode: 0
LetterboxInBreaks: 0
WidescreenStoryboard: 1

[Editor]
Bookmarks: 15121,40219,65317,90415,115513,140611,165709,190807,215905,253552,266101,278650,291199,303748,328846,353944
DistanceSpacing: 1
BeatDivisor: 4
GridSize: 4
TimelineZoom: 2.599999

[Metadata]
Title:Hitech pistol -Hitech Ninja wa 145-do Shinu-
TitleUnicode:Hitech pistol -ハイテック忍者は145度死ぬ-
Artist:Camellia
ArtistUnicode:Camellia
Creator:RLC
Version:Point Blank
Source:
Tags:c95 comiket 95 winber1 sing xlni ultra 04 UH04 megarex mrx-033 edm electronic dance music instrumental dies degrees
BeatmapID:1923718
BeatmapSetID:921229

[Difficulty]
HPDrainRate:5
CircleSize:4.5
OverallDifficulty:9
ApproachRate:9.4
SliderMultiplier:1.7
SliderTickRate:1

[Events]
//Background and Video events
0,0,"DyTpd1-UUAAxfXc.jpg",0,0
//Break Periods
2,140796,143193
2,190992,196526
2,197266,202801
//Storyboard Layer 0 (Background)
//Storyboard Layer 1 (Fail)
//Storyboard Layer 2 (Pass)
//Storyboard Layer 3 (Foreground)
//Storyboard Layer 4 (Overlay)
//Storyboard Sound Samples

[TimingPoints]
2557,392.156862745098,4,1,0,60,1,0
3145,-66.6666666666667,4,1,0,60,0,0
3733,-50,4,1,0,60,0,0
3929,-100,4,1,0,60,0,0
6282,-66.6666666666667,4,1,0,60,0,0
6870,-50,4,1,0,60,0,0
7066,-133.333333333333,4,1,0,60,0,0
8831,-100,4,1,0,60,0,0
9419,-66.6666666666667,4,1,0,60,0,0
10007,-50,4,1,0,60,0,0
10204,-100,4,1,0,60,0,0
13537,-133.333333333333,4,1,0,40,0,0
14713,-50,4,1,0,40,0,0
15106,-100,4,1,1,70,0,0
15694,-66.6666666666667,4,1,1,70,0,0
18635,-50,4,2,1,70,0,0
18831,-100,4,2,1,70,0,0
20988,-50,4,2,1,70,0,0
21380,-100,4,1,1,70,0,0
21968,-66.6666666666667,4,1,1,70,0,0
24909,-50,4,2,1,70,0,0
25106,-100,4,2,1,70,0,0
25694,-66.6666666666667,4,2,1,70,0,0
27655,-100,4,1,1,70,0,0
28047,-66.6666666666667,4,1,1,70,0,0
31184,-50,4,2,1,70,0,0
31380,-100,4,2,1,70,0,0
33537,-50,4,2,1,70,0,0
33929,-100,4,1,1,70,0,0
34321,-66.6666666666667,4,1,1,70,0,0
37066,-100,4,1,1,70,0,0
37655,-50,4,1,1,70,0,0
39419,-133.333333333333,4,1,1,70,0,0
40204,-133.333333333333,4,1,0,60,0,0
52753,-66.6666666666667,4,1,1,60,0,0
59027,-57.1428571428571,4,1,1,60,0,0
61380,-40,4,1,1,60,0,0
61576,-57.1428571428571,4,1,1,60,0,0
61772,-40,4,1,1,60,0,0
61919,-57.1428571428571,4,1,1,60,0,0
62164,-100,4,1,1,60,0,0
63733,-100,4,1,1,60,0,0
64713,-50,4,1,1,60,0,0
65302,-50,4,2,2,80,0,0
65694,-100,4,2,2,80,0,0
65890,-66.6666666666667,4,2,2,80,0,0
66870,-50,4,2,2,80,0,0
67262,-100,4,2,2,80,0,0
67851,-66.6666666666667,4,2,2,80,0,0
68439,-50,4,2,2,80,0,0
69615,-100,4,2,2,80,0,0
69811,-66.6666666666667,4,2,2,80,0,0
70204,-100,4,2,2,80,0,0
71184,-66.6666666666667,4,2,2,80,0,0
71576,-50,4,2,2,80,0,0
71968,-100,4,2,2,80,0,0
72164,-66.6666666666667,4,2,2,80,0,0
73145,-50,4,2,2,80,0,0
73537,-100,4,2,2,80,0,0
74321,-66.6666666666667,4,2,2,80,0,0
74713,-50,4,2,2,80,0,0
75792,-66.6666666666667,4,2,2,80,0,0
77851,-50,4,2,2,80,0,0
78243,-100,4,2,2,80,0,0
78439,-66.6666666666667,4,2,2,80,0,0
79419,-50,4,2,2,80,0,0
79615,-100,4,2,2,80,0,0
80400,-66.6666666666667,4,2,2,80,0,0
80988,-50,4,2,2,80,0,0
82164,-100,4,2,2,80,0,0
82360,-66.6666666666667,4,2,2,80,0,0
84125,-50,4,2,2,80,0,0
84713,-66.6666666666667,4,2,2,80,0,0
85890,-100,4,2,2,80,0,0
86674,-66.6666666666667,4,2,2,80,0,0
87655,-50,4,2,2,80,0,0
88831,-100,4,2,0,80,0,0
90400,-50,4,1,1,80,0,0
90792,-66.6666666666667,4,1,1,80,0,0
91968,-50,4,1,1,80,0,0
92360,-66.6666666666667,4,1,1,80,0,0
92949,-57.1428571428571,4,1,1,80,0,0
93145,-50,4,1,1,80,0,0
93341,-66.6666666666667,4,1,1,80,0,0
93537,-50,4,1,1,80,0,0
93733,-66.6666666666667,4,1,1,80,0,0
93929,-57.1428571428571,4,1,1,80,0,0
94321,-66.6666666666667,4,1,1,80,0,0
95106,-50,4,1,1,80,0,0
95498,-66.6666666666667,4,1,1,80,0,0
95890,-133.333333333333,4,1,1,80,0,0
96086,-40,4,1,1,80,0,0
96282,-100,4,1,1,80,0,0
96674,-40,4,1,1,80,0,0
97066,-66.6666666666667,4,1,1,80,0,0
99419,-50,4,1,1,80,0,0
99811,-66.6666666666667,4,1,1,80,0,0
101380,-50,4,1,1,80,0,0
101674,-100,4,1,1,80,0,0
101772,-40,4,1,1,80,0,0
102066,-100,4,1,1,80,0,0
102164,-40,4,1,1,80,0,0
102556,-50,4,1,1,80,0,0
102949,-66.6666666666667,4,1,1,80,0,0
104517,-50,4,1,1,70,0,0
104909,-66.6666666666667,4,1,1,70,0,0
105694,-50,4,1,1,70,0,0
106086,-66.6666666666667,4,1,1,70,0,0
106870,-50,4,1,1,70,0,0
107262,-66.6666666666667,4,1,1,70,0,0
107655,-50,4,1,1,70,0,0
108047,-66.6666666666667,4,1,1,70,0,0
108635,-40,4,1,1,70,0,0
108831,-100,4,1,1,70,0,0
109223,-58.8235294117647,4,1,1,70,0,0
113733,-133.333333333333,4,2,0,40,0,0
114321,-133.333333333333,4,1,1,40,0,0
115498,-50,4,1,1,70,0,0
115890,-66.6666666666667,4,1,1,70,0,0
117066,-50,4,1,1,70,0,0
118635,-133.333333333333,4,1,1,70,0,0
119027,-100,4,1,1,70,0,0
119223,-100,4,2,1,70,0,0
120204,-66.6666666666667,4,2,1,70,0,0
120596,-100,4,2,1,70,0,0
120792,-100,4,2,1,70,0,0
121772,-50,4,1,1,70,0,0
122360,-66.6666666666667,4,1,1,70,0,0
123341,-50,4,1,1,70,0,0
124909,-133.333333333333,4,1,1,70,0,0
125302,-100,4,1,1,70,0,0
125498,-100,4,2,1,70,0,0
126478,-66.6666666666667,4,2,1,70,0,0
127655,-100,4,2,1,70,0,0
128047,-66.6666666666667,4,1,1,80,0,0
129615,-50,4,1,1,80,0,0
132360,-66.6666666666667,4,1,1,80,0,0
134321,-50,4,1,1,80,0,0
137458,-66.6666666666667,4,1,1,80,0,0
137851,-57.1428571428571,4,1,1,80,0,0
138243,-50,4,1,1,80,0,0
138635,-44.4444444444445,4,1,1,80,0,0
139027,-44.4444444444445,4,1,1,80,0,0
140596,-44.4444444444445,4,1,4,80,0,0
140694,-44.4444444444445,4,1,1,80,0,0
143733,-100,4,1,1,80,0,0
143831,-100,4,1,1,80,0,0
146086,-100,4,1,1,80,0,0
146870,-50,4,1,1,80,0,0
150400,-44.4444444444445,4,1,1,80,0,0
150792,-40,4,1,1,80,0,0
151576,-133.333333333333,4,2,1,70,0,0
152753,-133.333333333333,4,2,0,70,0,0
153145,-50,4,1,2,80,0,0
153635,-66.6666666666667,4,1,2,80,0,0
154125,-100,4,1,2,80,0,0
154713,-50,4,1,2,80,0,0
155204,-66.6666666666667,4,1,2,80,0,0
155694,-50,4,1,2,80,0,0
155988,-66.6666666666667,4,1,2,80,0,0
157164,-50,4,1,2,80,0,0
158341,-66.6666666666667,4,1,2,80,0,0
158831,-133.333333333333,4,1,2,80,0,0
159027,-50,4,1,2,80,0,0
159909,-66.6666666666667,4,1,2,80,0,0
160204,-50,4,1,2,80,0,0
161478,-66.6666666666667,4,1,2,80,0,0
161968,-50,4,1,2,80,0,0
162458,-66.6666666666667,4,1,2,80,0,0
163537,-50,4,1,2,80,0,0
164125,-40,4,1,2,80,0,0
164713,-66.6666666666667,4,1,2,80,0,0
165106,-133.333333333333,4,1,2,80,0,0
165694,-50,4,1,2,80,0,0
165988,-83.3333333333333,4,1,2,80,0,0
166184,-50,4,1,2,80,0,0
166478,-83.3333333333333,4,1,2,80,0,0
167164,-50,4,1,2,80,0,0
167753,-50,4,1,2,80,0,0
168145,-100,4,1,2,80,0,0
168439,-50,4,1,2,80,0,0
169615,-66.6666666666667,4,1,2,80,0,0
170596,-50,4,1,2,80,0,0
170988,-50,4,1,2,80,0,0
171380,-66.6666666666667,4,1,2,80,0,0
171968,-50,4,1,2,80,0,0
172262,-83.3333333333333,4,1,2,80,0,0
172458,-50,4,1,2,80,0,0
172753,-83.3333333333333,4,1,2,80,0,0
173439,-50,4,1,2,80,0,0
173733,-50,4,1,2,80,0,0
174713,-83.3333333333333,4,1,2,80,0,0
174909,-50,4,1,2,80,0,0
175106,-50,4,1,2,80,0,0
175596,-83.3333333333333,4,1,2,80,0,0
175890,-50,4,1,2,80,0,0
176674,-66.6666666666667,4,1,2,80,0,0
178439,-100,4,1,2,60,0,0
182949,-66.6666666666667,4,1,2,60,0,0
184517,-66.6666666666667,4,1,2,80,0,0
185106,-83.3333333333333,4,1,2,80,0,0
186380,-66.6666666666667,4,1,2,80,0,0
186674,-83.3333333333333,4,1,2,80,0,0
187262,-57.1428571428571,4,1,2,80,0,0
190792,-57.1428571428571,4,1,4,80,0,0
190890,-57.1428571428571,4,1,2,60,0,0
203341,-133.333333333333,4,2,0,40,0,0
206478,-111.111111111111,4,2,0,40,0,0
208047,-100,4,2,0,40,0,0
215106,-50,4,1,0,60,0,0
215792,-100,4,1,0,60,0,0
217262,-106.382978723404,4,1,0,60,0,0
219027,-100,4,1,0,60,0,0
220400,-90.9090909090909,4,1,0,60,0,0
222164,-100,4,1,0,60,0,0
228439,-57.1428571428571,4,1,1,80,0,0
236282,-50,4,1,1,80,0,0
237851,-44.4444444444445,4,1,1,80,0,0
239419,-50,4,1,1,80,0,0
243733,-40,4,1,1,80,0,0
244125,-50,4,1,1,80,0,0
246870,-40,4,1,1,80,0,0
247262,-50,4,1,1,80,0,0
249615,-40,4,1,1,80,0,0
250400,-100,4,2,1,70,0,0
251772,-100,4,2,1,50,0,0
252360,-100,4,2,1,40,0,0
252458,-100,4,2,1,50,0,0
252556,-100,4,2,1,60,0,0
252655,-100,4,2,1,80,0,0
252753,-100,4,2,1,100,0,0
253537,-50,4,1,4,80,0,1
253635,-50,4,1,1,80,0,1
258439,-50,4,1,2,80,0,1
259811,-50,4,1,0,80,0,1
259909,-50,4,1,1,80,0,1
265694,-100,4,1,1,80,0,1
266086,-50,4,1,4,80,0,1
266184,-50,4,1,1,80,0,1
266772,-80,4,1,1,80,0,1
267655,-50,4,1,1,80,0,1
268341,-66.6666666666667,4,1,1,80,0,1
269223,-44.4444444444445,4,1,1,80,0,1
269909,-50,4,1,1,80,0,1
271478,-66.6666666666667,4,1,1,80,0,1
272360,-44.4444444444445,4,1,0,80,0,1
272458,-44.4444444444445,4,1,1,80,0,1
273047,-50,4,1,1,80,0,1
273243,-50,4,2,2,80,0,1
273537,-66.6666666666667,4,2,2,80,0,1
273929,-44.4444444444445,4,1,0,80,0,1
274027,-44.4444444444445,4,1,1,80,0,1
274615,-40,4,1,1,80,0,1
274811,-50,4,2,2,80,0,1
275498,-50,4,1,1,80,0,1
275792,-50,4,1,1,80,0,1
277655,-66.6666666666667,4,1,1,80,0,1
277851,-40,4,1,1,80,0,1
278145,-80,4,1,1,80,0,1
278635,-50,4,1,4,80,0,1
278733,-50,4,1,2,80,0,1
284909,-50,4,1,0,80,0,1
285007,-50,4,1,2,80,0,1
289615,-50,4,1,1,80,0,1
290792,-100,4,1,1,80,0,1
291576,-50,4,1,1,80,0,1
292164,-50,4,1,2,80,0,1
292557,-100,4,1,2,80,0,1
292753,-50,4,1,1,80,0,1
292949,-50,4,1,2,80,0,1
293047,-50,4,1,1,80,0,1
293733,-50,4,1,2,80,0,1
294027,-100,4,1,1,80,0,1
294125,-100,4,1,2,80,0,1
294223,-100,4,1,1,80,0,1
294321,-50,4,1,1,80,0,1
294517,-50,4,1,2,80,0,1
294615,-50,4,1,1,80,0,1
295694,-66.6666666666667,4,1,2,80,0,1
296184,-50,4,1,1,80,0,1
297851,-44.4444444444445,4,1,1,80,0,1
298243,-40,4,1,1,80,0,1
298635,-36.3636363636364,4,1,1,80,0,1
300596,-93.4579439252336,4,1,0,80,0,0
300988,-93.4579439252336,4,1,0,40,0,0
301380,-93.4579439252336,4,1,0,60,0,0
301772,-93.4579439252336,4,1,0,100,0,0
302066,-93.4579439252336,4,1,0,5,0,0
302164,-93.4579439252336,4,1,0,60,0,0
302949,-93.4579439252336,4,1,0,40,0,0
303733,-40,4,2,2,80,0,0
304125,-66.6666666666667,4,2,2,80,0,0
304517,-50,4,2,2,80,0,0
305302,-40,4,2,2,80,0,0
305694,-100,4,2,2,80,0,0
305988,-50,4,2,2,80,0,0
306478,-50,4,2,2,80,0,0
306870,-200,4,2,2,80,0,0
307262,-50,4,2,2,80,0,0
307655,-133.333333333333,4,2,2,80,0,0
308439,-40,4,2,2,80,0,0
309811,-100,4,2,2,80,0,0
310007,-40,4,2,2,80,0,0
310400,-66.6666666666667,4,2,2,80,0,0
310988,-50,4,2,2,80,0,0
311576,-40,4,2,2,80,0,0
311968,-50,4,2,2,80,0,0
313145,-200,4,2,2,80,0,0
313537,-100,4,2,2,80,0,0
313929,-50,4,2,2,80,0,0
314223,-66.6666666666667,4,2,2,80,0,0
314713,-50,4,2,2,80,0,0
315890,-44.4444444444445,4,2,2,80,0,0
316282,-200,4,2,2,80,0,0
316674,-40,4,2,2,80,0,0
317262,-66.6666666666667,4,2,2,80,0,0
318243,-50,4,2,2,80,0,0
319419,-200,4,2,2,80,0,0
319811,-50,4,2,2,80,0,0
320106,-133.333333333333,4,2,2,80,0,0
320596,-66.6666666666667,4,2,2,80,0,0
321184,-40,4,2,2,80,0,0
322164,-100,4,2,2,80,0,0
322557,-40,4,2,2,80,0,0
322949,-66.6666666666667,4,2,2,80,0,0
323341,-40,4,2,2,80,0,0
324125,-133.333333333333,4,2,2,80,0,0
324517,-50,4,2,2,80,0,0
325694,-100,4,2,2,80,0,0
326282,-50,4,2,2,80,0,0
327262,-100,4,2,0,80,0,0
328439,-100,4,2,2,80,0,0
328831,-50,4,1,2,80,0,0
329223,-66.6666666666667,4,1,2,80,0,0
330007,-57.1428571428571,4,1,2,80,0,0
330400,-100,4,1,2,80,0,0
330596,-66.6666666666667,4,1,2,80,0,0
330890,-50,4,1,1,80,0,0
331184,-100,4,1,2,80,0,0
332164,-83.3333333333333,4,1,2,80,0,0
333341,-50,4,1,2,80,0,0
333733,-83.3333333333333,4,1,1,80,0,0
334321,-57.1428571428571,4,1,2,80,0,0
334909,-50,4,1,2,80,0,0
335596,-83.3333333333333,4,1,2,80,0,0
336184,-66.6666666666667,4,1,2,80,0,0
336674,-50,4,1,1,80,0,0
338733,-66.6666666666667,4,1,2,80,0,0
339027,-40,4,1,2,80,0,0
339517,-50,4,1,2,80,0,0
339811,-33.3333333333333,4,1,1,80,0,0
340988,-40,4,1,2,80,0,0
341184,-50,4,1,2,80,0,0
341870,-66.6666666666667,4,1,2,80,0,0
342557,-57.1428571428571,4,1,2,80,0,0
344321,-33.3333333333333,4,1,2,80,0,0
344517,-50,4,1,2,80,0,0
345106,-66.6666666666667,4,1,2,80,0,0
346282,-50,4,1,2,80,0,0
346870,-100,4,1,2,80,0,0
347655,-83.3333333333333,4,1,2,80,0,0
350498,-66.6666666666667,4,1,2,80,0,0
350792,-50,4,1,2,80,0,0
351576,-40,4,1,2,80,0,0
351772,-50,4,1,2,80,0,0
351968,-33.3333333333333,4,1,2,80,0,0
352164,-50,4,1,2,80,0,0
353929,-133.333333333333,4,1,0,60,0,0
364125,-200,4,1,4,60,0,0
371772,-200,4,1,1,60,0,0

[Colours]
Combo1 : 160,75,254
Combo2 : 253,126,0
Combo3 : 255,53,154
Combo4 : 22,165,250

[HitObjects]
13,343,2557,6,0,B|55:334|55:334|77:241|77:241|127:232,1,170,0|0,0:0|2:0,0:0:0:0:
118,159,3145,6,0,B|169:167|169:167|197:315|197:315|268:326,1,255.000009727478,0|0,0:0|2:0,0:0:0:0:
304,372,3733,6,0,B|331:340|331:340|314:285,1,85,2|0,0:2|2:0,0:0:0:0:
262,247,3929,2,0,B|433:274|433:274|481:247|481:247|446:204|446:204|322:183|322:183|291:140|291:140|334:113|334:113|519:141,1,680,2|0,0:2|2:0,0:0:0:0:
452,0,5694,6,0,B|431:111|431:111|425:80|399:56,1,170,0|0,0:0|2:0,0:0:0:0:
396,68,6184,1,0,2:0:0:0:
349,168,6282,6,0,B|375:10|375:10|343:59|284:71,1,255.000009727478,0|0,0:0|2:0,0:0:0:0:
224,143,6870,6,0,B|237:123|238:103|238:103|246:121|285:139,1,85,2|0,0:2|2:0,0:0:0:0:
272,205,7066,2,0,B|235:254|263:338|263:338|224:262|129:244|178:294|94:282|52:238|52:238|88:287|56:357,1,510.000019454957,2|0,0:2|2:0,0:0:0:0:
128,366,8831,6,0,P|141:307|138:261,1,85,0|0,0:0|2:0,0:0:0:0:
124,191,9223,1,0,2:0:0:0:
213,260,9419,6,0,P|201:189|213:122,1,127.500004863739,0|0,0:0|2:0,0:0:0:0:
283,0,9811,1,0,2:0:0:0:
209,27,10007,6,0,P|227:64|268:73,1,85,2|0,0:2|2:0,0:0:0:0:
340,50,10204,2,0,B|412:85|429:231|327:301|217:207|269:90|383:133|383:133|490:172|561:115|530:16|406:18|425:189|515:219,1,765,2|0,0:2|2:0,0:0:0:0:
256,192,12066,12,0,13341,2:0:0:0:
256,192,13537,6,0,L|258:169,17,21.2500008106232
179,188,14713,6,0,L|187:242,9,28.3333333333333
185,293,15106,6,0,L|331:305,1,127.5,4|0,0:0|0:0,0:0:0:0:
369,345,15498,1,8,0:0:0:0:
391,196,15694,2,0,L|401:114,1,63.7500024318696
358,45,15890,1,4,0:0:0:0:
297,70,15988,1,4,0:0:0:0:
363,67,16086,1,4,0:0:0:0:
239,249,16282,2,0,B|193:270|193:270|87:246,1,127.500004863739,8|0,0:0|0:0,0:0:0:0:
68,53,16674,5,4,0:0:0:0:
52,304,16870,1,4,0:0:0:0:
38,214,17066,2,0,P|89:159|189:198,1,191.250007295609,8|0,0:0|0:0,0:0:0:0:
262,253,17458,2,0,L|249:340,1,63.7500024318696,0|4,0:0|0:0,0:0:0:0:
244,331,17655,1,4,0:0:0:0:
340,364,17851,1,8,0:0:0:0:
339,155,18047,1,4,0:0:0:0:
353,346,18243,6,0,B|349:295|349:295|319:263|319:263|315:200|315:200|349:152|349:152,1,191.250007295609,4|0,0:0|0:0,0:0:0:0:
430,152,18635,2,0,B|469:131|469:131|420:133,1,85,8|0,0:3|0:0,0:0:0:0:
359,89,18831,6,0,L|348:48,3,28.3333333333333
231,247,19125,1,0,1:0:0:0:
184,179,19223,2,0,L|234:163,1,42.5,0|0,1:0|0:0,0:0:0:0:
395,228,19419,2,0,B|347:215|347:215|224:250,1,170,8|0,3:3|1:0,0:0:0:0:
29,358,20007,5,0,1:0:0:0:
3,238,20204,1,8,0:3:0:0:
149,341,20400,2,0,L|189:343,3,28.3333333333333
256,272,20694,1,0,1:0:0:0:
260,353,20792,2,0,L|320:341,1,42.5,0|0,1:0|0:0,0:0:0:0:
381,333,20988,2,0,B|500:346|500:346|433:309,1,170,8|0,0:3|1:0,0:0:0:0:
256,272,21380,6,0,L|275:137,1,127.5,4|0,0:0|0:0,0:0:0:0:
245,67,21772,1,8,0:0:0:0:
245,67,21968,2,0,B|214:80|214:80|169:78,1,63.7500024318696
77,101,22164,1,4,0:0:0:0:
101,39,22262,1,4,0:0:0:0:
99,106,22360,1,4,0:0:0:0:
160,257,22557,6,0,B|151:213|151:213|168:184,1,63.7500024318696,8|0,0:0|0:0,0:0:0:0:
228,147,22753,1,0,0:0:0:0:
443,238,22949,5,4,0:0:0:0:
428,118,23145,1,4,0:0:0:0:
362,222,23341,2,0,B|284:216|284:216|254:232|254:232|156:226,1,191.250007295609,8|0,0:0|0:0,0:0:0:0:
42,204,23733,2,0,L|38:120,1,63.7500024318696,0|4,0:0|0:0,0:0:0:0:
38,116,23929,1,4,0:0:0:0:
176,228,24125,1,8,0:0:0:0:
165,54,24321,1,4,0:0:0:0:
159,221,24517,6,0,B|118:193|118:193|113:96|113:96|152:60,1,191.250007295609,4|0,0:0|0:0,0:0:0:0:
355,55,24909,2,0,B|394:70|394:70|341:80,1,85,8|0,0:3|0:0,0:0:0:0:
253,47,25106,6,0,L|248:80,3,28.3333333333333
252,250,25400,1,0,1:0:0:0:
255,163,25498,2,0,L|257:221,1,42.5,0|0,1:0|0:0,0:0:0:0:
181,313,25694,6,0,B|148:349|147:368|147:368|134:312|136:268|160:238,1,191.250007295609,8|0,0:3|0:0,0:0:0:0:
296,210,26086,2,0,P|251:228|225:234,1,63.7500024318696,0|0,1:0|0:0,0:0:0:0:
99,186,26282,2,0,P|144:168|170:162,1,63.7500024318696,0|0,1:0|0:0,0:0:0:0:
291,318,26478,6,0,B|399:298|360:367|493:332,1,191.250007295609,8|0,0:3|1:0,0:0:0:0:
506,258,26870,1,0,1:0:0:0:
512,218,26968,1,0,1:0:0:0:
473,232,27066,1,0,1:0:0:0:
496,238,27164,1,0,1:0:0:0:
496,238,27262,1,8,0:3:0:0:
255,215,27458,1,0,1:0:0:0:
42,191,27655,6,0,L|49:344,1,127.5,4|0,0:0|0:0,0:0:0:0:
22,384,28047,1,8,0:0:0:0:
109,80,28243,2,0,B|174:67|174:67|233:112,1,127.500004863739
182,164,28537,1,4,0:0:0:0:
244,116,28635,2,0,L|309:107,1,63.7500024318696,4|0,0:0|0:0,0:0:0:0:
335,105,28831,2,0,B|383:142|383:142|448:129,1,127.500004863739,8|0,0:0|0:0,0:0:0:0:
477,50,29223,5,4,0:0:0:0:
445,230,29419,1,4,0:0:0:0:
409,89,29615,2,0,B|357:117|357:117|224:95,1,191.250007295609,8|0,0:0|0:0,0:0:0:0:
175,270,30007,2,0,L|182:199,1,63.7500024318696,0|4,0:0|0:0,0:0:0:0:
186,194,30204,1,4,0:0:0:0:
76,272,30400,1,8,0:0:0:0:
265,296,30596,1,4,0:0:0:0:
167,319,30792,6,0,B|156:287|156:287|165:240|165:240|193:223|193:223|202:172|202:172|190:135,1,191.250007295609,4|0,0:0|0:0,0:0:0:0:
84,47,31184,2,0,B|41:64|41:64|51:111,1,85,8|0,0:3|0:0,0:0:0:0:
194,148,31380,6,0,L|234:162,3,28.3333333333333
128,107,31674,1,0,1:0:0:0:
90,189,31772,2,0,L|139:180,1,42.5,0|0,1:0|0:0,0:0:0:0:
290,8,31968,2,0,B|248:81|248:81|282:166,1,170,8|0,0:3|1:0,0:0:0:0:
398,361,32557,5,0,1:0:0:0:
459,125,32753,1,8,0:3:0:0:
459,265,32949,2,0,L|480:222,3,28.3333333333333
389,301,33243,1,0,1:0:0:0:
366,217,33341,2,0,L|378:276,1,42.5,0|0,1:0|0:0,0:0:0:0:
310,305,33537,2,0,B|262:286|262:286|135:318,1,170,8|0,0:3|1:0,0:0:0:0:
69,357,33929,6,0,L|88:228,1,127.5,4|0,0:0|0:0,0:0:0:0:
54,164,34321,1,8,0:0:0:0:
168,237,34517,2,0,B|200:221|200:221|236:225,1,63.7500024318696
307,242,34713,1,4,0:0:0:0:
269,302,34811,1,4,0:0:0:0:
237,239,34909,2,0,L|228:159,1,63.7500024318696,4|0,0:0|0:0,0:0:0:0:
388,195,35106,2,0,L|397:115,1,63.7500024318696,8|0,0:0|0:0,0:0:0:0:
227,150,35302,2,0,L|218:70,1,63.7500024318696
434,89,35498,6,0,B|400:94|400:94|363:75,1,63.7500024318696,4|0,0:0|0:0,0:0:0:0:
414,22,35694,1,4,0:0:0:0:
302,289,35890,2,0,B|247:253|247:253|162:271|162:271|136:318,1,191.250007295609,8|0,0:0|0:0,0:0:0:0:
263,357,36282,2,0,L|198:372,1,63.7500024318696,0|4,0:0|0:0,0:0:0:0:
183,366,36478,1,4,0:0:0:0:
20,87,36674,2,0,P|58:42|110:70,1,127.500004863739,8|4,0:0|0:0,0:0:0:0:
182,120,37066,6,0,B|172:182|172:182|197:228|197:228|186:303,1,170,4|8,0:0|0:0,0:0:0:0:
190,291,37655,6,0,L|171:93,1,170
155,47,37949,1,4,0:0:0:0:
101,129,38047,2,0,L|96:182,2,42.5,4|0|0,0:0|0:0|0:0,0:0:0:0:
254,188,38243,2,0,L|266:243,2,42.5,8|0|0,0:0|0:0|0:0,0:0:0:0:
134,305,38439,2,0,L|126:360,2,42.5
208,372,38635,5,0,0:0:0:0:
56,296,38831,1,8,0:0:0:0:
51,324,38929,1,0,0:0:0:0:
176,197,39125,1,8,0:0:0:0:
181,225,39223,1,0,0:0:0:0:
37,89,39419,6,2,P|70:124|212:106,1,191.250007295609,0|0,0:1|2:2,0:1:0:0:
246,24,40204,5,0,1:0:0:0:
306,74,40792,1,0,1:1:0:0:
284,150,41380,1,2,1:2:0:0:
284,150,41576,2,0,L|274:291,2,127.500004863739,2|0|0,1:2|2:0|2:0,0:0:0:0:
107,19,42557,2,0,L|114:121,1,95.6250036478044,0|0,2:0|2:0,0:0:0:0:
194,215,42949,6,0,B|152:191|152:191|86:205,1,95.6250036478044,4|0,1:1|2:1,0:1:0:0:
24,248,43341,5,4,1:0:0:0:
105,200,43929,1,0,0:0:0:0:
89,314,44517,1,2,0:2:0:0:
89,314,44713,2,0,B|157:311|141:346|224:339,1,127.500004863739,2|0,0:2|2:0,0:0:0:0:
244,268,45302,2,0,B|312:271|296:236|379:243,1,127.500004863739,0|0,2:0|2:0,0:0:0:0:
92,79,45890,6,0,B|26:132|26:132|68:215,1,159.375006079674,4|0,1:0|2:0,0:0:0:0:
110,313,46478,5,4,1:0:0:0:
256,280,47066,1,0,0:0:0:0:
408,244,47655,1,2,0:2:0:0:
343,189,47851,2,0,P|342:148|373:58,2,127.500004863739,2|0|0,0:2|2:0|2:0,0:0:0:0:
296,29,48831,2,0,P|266:54|214:81,1,95.6250036478044,0|0,2:0|2:0,0:0:0:0:
39,72,49223,6,0,B|88:63|88:63|133:92,1,95.6250036478044,4|0,1:0|2:0,0:0:0:0:
182,144,49615,6,0,L|165:259,1,95.6250036478044,4|0,1:0|2:0,0:0:0:0:
168,238,50007,2,0,L|63:255,1,95.6250036478044,2|0,2:2|2:0,0:0:0:0:
250,258,50400,2,0,L|354:240,1,95.6250036478044,2|0,2:2|2:0,0:0:0:0:
416,262,50792,2,0,B|479:250|479:250|447:286,1,95.6250036478044,2|0,2:2|2:0,0:0:0:0:
412,193,51184,2,0,B|391:144|421:104|505:62|444:-22|383:-37|315:61|405:88,1,318.750012159348,2|0,2:0|2:0,0:0:0:0:
508,368,52557,1,0,0:0:0:0:
508,368,52655,1,0,0:0:0:0:
508,368,52753,6,0,L|373:355,1,127.500004863739
178,334,53047,2,0,L|304:346,1,127.500004863739,8|0,0:0|0:0,0:0:0:0:
381,355,53341,1,8,0:2:0:0:
396,357,53439,1,0,0:2:0:0:
351,280,53537,2,0,L|216:267,1,127.500004863739
21,246,53831,2,0,L|147:258,1,127.500004863739,8|0,0:0|0:0,0:0:0:0:
224,267,54125,1,8,0:2:0:0:
239,269,54223,1,0,0:2:0:0:
200,191,54321,6,0,L|178:103,1,63.7500024318696
97,157,54517,1,0,0:0:0:0:
97,157,54615,2,0,L|118:89,1,63.7500024318696,8|0,0:0|0:0,0:0:0:0:
28,75,54811,1,0,0:0:0:0:
28,75,54909,2,0,L|72:21,1,63.7500024318696,8|0,0:0|0:0,0:0:0:0:
337,53,55106,5,2,0:3:0:0:
337,53,55204,1,0,0:0:0:0:
337,53,55302,2,0,B|302:64|302:64|267:47,1,63.7500024318696
147,194,55498,1,2,0:3:0:0:
147,194,55596,1,0,0:0:0:0:
147,194,55694,2,0,B|182:205|182:205|217:188,1,63.7500024318696
465,100,55890,6,0,L|448:235,1,127.500004863739
350,334,56184,2,0,L|369:197,1,127.500004863739,8|0,0:0|0:0,0:0:0:0:
449,226,56478,1,8,0:0:0:0:
451,243,56576,1,0,0:0:0:0:
367,207,56674,2,0,L|383:76,1,127.500004863739
277,239,56968,2,0,L|261:370,1,127.500004863739,8|0,0:0|0:0,0:0:0:0:
276,154,57262,1,8,0:0:0:0:
287,145,57360,1,0,0:0:0:0:
227,88,57458,6,0,L|172:32,1,63.7500024318696
155,294,57655,1,0,0:0:0:0:
151,305,57753,2,0,L|120:378,1,63.7500024318696,8|0,0:0|0:0,0:0:0:0:
85,86,57949,1,0,0:0:0:0:
82,78,58047,2,0,L|64:6,1,63.7500024318696,8|0,0:0|0:0,0:0:0:0:
16,169,58243,5,2,0:3:0:0:
31,173,58341,1,0,0:0:0:0:
46,177,58439,1,0,0:0:0:0:
61,181,58537,1,0,0:0:0:0:
116,141,58635,5,2,0:3:0:0:
131,137,58733,1,0,0:0:0:0:
146,133,58831,1,0,0:0:0:0:
161,129,58929,1,0,0:0:0:0:
211,180,59027,6,0,L|328:190,1,111.562501063943,4|0,0:0|0:0,0:0:0:0:
331,191,59223,2,2,L|343:234,4,37.1875003546476,2|2|2|2|2,0:2|0:2|0:2|0:2|0:2,0:2:0:0:
430,105,59615,2,2,L|442:62,2,37.1875003546476,2|2|2,0:2|0:2|0:2,0:2:0:0:
430,105,59811,6,0,L|313:95,1,111.562501063943,4|0,0:0|0:0,0:0:0:0:
310,95,60007,2,2,L|298:138,4,37.1875003546476,2|2|2|2|2,0:2|0:2|0:2|0:2|0:2,0:2:0:0:
31,150,60400,6,2,L|14:183,1,37.1875003546476,2|2,0:2|0:2,0:2:0:0:
34,160,60498,2,2,L|29:196,1,37.1875003546476,2|2,0:2|0:2,0:2:0:0:
38,169,60596,2,0,P|66:222|95:229,1,74.3750007092953,4|0,0:0|0:0,0:0:0:0:
222,233,60792,2,2,L|258:230,1,37.1875003546476,2|2,0:2|0:2,0:2:0:0:
227,223,60890,2,2,L|260:209,1,37.1875003546476,2|2,0:2|0:2,0:2:0:0:
233,216,60988,2,0,P|264:163|256:135,1,74.3750007092953,4|0,0:0|0:0,0:0:0:0:
90,224,61184,6,2,L|53:243,1,37.1875003546476,2|2,0:2|0:2,0:2:0:0:
90,235,61282,2,2,L|53:254,1,37.1875003546476,2|2,0:2|0:2,0:2:0:0:
90,244,61380,2,0,L|98:358,1,106.25,4|4,0:0|0:0,0:0:0:0:
263,141,61576,2,2,L|303:117,1,37.1875003546476,2|2,0:2|0:2,0:2:0:0:
259,131,61674,2,2,L|301:106,1,37.1875003546476,2|2,0:2|0:2,0:2:0:0:
255,122,61772,2,0,L|223:14,1,106.25,4|4,0:0|0:0,0:0:0:0:
98,349,61968,6,0,L|150:345,1,37.1875003546476,2|2,0:2|0:2,0:0:0:0:
116,355,62066,2,0,L|168:351,1,37.1875003546476,2|2,0:2|0:2,0:0:0:0:
173,334,62164,6,2,B|235:339|235:339|270:361|270:361|340:366,1,170,4|0,3:1|3:1,0:1:0:0:
256,192,62655,12,0,63537,2:0:0:0:
387,90,63733,5,0,2:0:0:0:
387,90,63831,2,0,L|389:143,1,42.5,0|0,2:0|2:0,0:0:0:0:
306,159,64027,2,0,P|302:118|302:67,1,85,0|0,2:0|2:0,0:0:0:0:
315,56,64321,1,0,2:0:0:0:
386,196,64517,1,0,2:0:0:0:
210,215,64713,6,2,B|154:207|154:207|124:251|124:251|44:273,2,170,0|0|2,0:1|0:1|0:1,0:1:0:0:
383,325,65302,6,2,L|407:127,1,170,0|2,1:1|2:1,0:1:0:0:
399,312,65694,6,0,L|407:252,1,42.5,0|0,1:1|0:0,0:0:0:0:
303,63,65890,2,0,P|280:121|299:180,1,127.500004863739,0|0,0:2|1:0,0:0:0:0:
373,187,66184,1,2,0:2:0:0:
307,341,66282,2,0,L|236:336,1,63.7500024318696,2|0,0:2|0:0,0:0:0:0:
374,311,66478,6,2,L|172:327,1,191.250007295609,0|2,1:1|2:1,0:1:0:0:
183,326,66870,6,0,B|231:339|231:339|257:293,1,85,4|0,1:3|0:0,0:0:0:0:
289,78,67066,1,8,0:3:0:0:
289,78,67262,6,0,L|229:87,1,42.5,0|0,1:0|0:0,0:0:0:0:
99,57,67458,1,2,0:2:0:0:
81,48,67556,2,0,P|56:93|75:148,1,85,2|2,1:2|0:2,0:0:0:0:
119,211,67851,2,0,L|124:296,1,63.7500024318696,2|0,1:2|0:0,0:0:0:0:
127,349,68047,1,0,1:2:0:0:
265,56,68243,5,0,1:0:0:0:
265,56,68341,1,0,1:0:0:0:
265,56,68439,2,0,L|261:102,1,42.5,0|0,1:0|2:0,0:0:0:0:
495,50,68831,2,0,B|463:81|463:81|457:141|457:141|476:168|476:168|471:220,1,170,0|2,1:0|0:3,0:0:0:0:
464,328,69125,1,2,0:3:0:0:
464,328,69223,2,0,B|414:294|414:294|400:224|400:224|355:276|355:276|289:289,1,255,0|2,1:0|0:3,0:0:0:0:
301,286,69615,6,0,L|309:350,1,42.5,0|0,1:0|0:0,0:0:0:0:
326,76,69811,2,2,L|313:216,1,127.500004863739,0|2,0:1|1:1,0:1:0:0:
314,202,70106,1,0,1:0:0:0:
240,231,70204,6,0,P|228:189|235:146,1,85,0|0,1:0|1:0,0:0:0:0:
409,19,70596,1,0,1:0:0:0:
492,228,70792,2,0,P|441:222|398:220,1,85,0|0,1:0|0:0,0:0:0:0:
351,267,71086,1,0,0:0:0:0:
386,332,71184,2,0,P|424:334|457:336,1,63.7500024318696,0|0,1:0|0:0,0:0:0:0:
239,226,71380,2,0,P|201:224|168:222,1,63.7500024318696,0|0,1:0|0:0,0:0:0:0:
280,349,71576,6,2,L|267:150,1,170,0|2,1:1|0:1,0:1:0:0:
292,330,71968,6,0,L|289:274,1,42.5,0|0,1:0|0:0,0:0:0:0:
332,108,72164,2,0,B|281:73|281:73|217:91,1,127.500004863739,0|0,0:0|1:0,0:0:0:0:
115,126,72458,1,2,0:2:0:0:
151,200,72556,1,2,0:2:0:0:
142,117,72655,1,2,0:2:0:0:
217,91,72753,6,2,L|439:100,1,191.250007295609,0|2,1:1|0:1,0:1:0:0:
408,98,73145,6,0,B|364:86|364:86|327:111,1,85,4|0,1:3|0:0,0:0:0:0:
390,324,73341,1,8,0:3:0:0:
390,324,73537,6,0,P|420:317|461:308,1,42.5,0|0,1:0|0:0,0:0:0:0:
327,376,73733,1,2,0:2:0:0:
253,341,73831,2,0,P|208:334|159:328,1,85,2|2,1:2|0:2,0:0:0:0:
168,329,74125,1,2,1:2:0:0:
334,212,74321,2,0,P|382:198|464:206,1,127.500004863739,0|0,1:0|1:0,0:0:0:0:
458,204,74615,1,0,1:0:0:0:
317,209,74713,6,0,L|270:202,1,42.5,0|0,1:0|2:0,0:0:0:0:
475,51,74909,1,2,0:3:0:0:
475,51,75007,1,2,0:3:0:0:
475,51,75106,2,0,B|428:82|428:82|280:68,1,170,0|0,1:0|0:0,0:0:0:0:
254,117,75400,1,0,0:0:0:0:
235,16,75498,6,0,L|250:194,1,170,0|0,1:0|0:0,0:0:0:0:
212,41,75792,2,0,L|220:173,1,127.500004863739,0|0,1:0|0:0,0:0:0:0:
70,149,76086,2,0,L|34:146,3,31.8750012159348,0|0|0|0,1:0|0:0|0:0|0:0,0:0:0:0:
71,73,76282,6,2,L|64:34,4,31.8750012159348,4|2|2|2|2,1:1|0:2|0:2|0:2|0:2,0:2:0:0:
125,211,76576,6,2,L|132:250,4,31.8750012159348,4|2|2|2|2,1:1|0:2|0:2|0:2|0:2,0:2:0:0:
164,127,76870,6,2,L|157:88,4,31.8750012159348,4|2|2|2|2,1:1|0:2|0:2|0:2|0:2,0:2:0:0:
218,265,77164,6,2,L|225:304,4,31.8750012159348,4|2|2|2|2,1:1|0:2|0:2|0:2|0:2,0:2:0:0:
271,117,77458,6,0,P|335:105|405:135,1,127.500004863739,8|0,1:0|0:0,0:0:0:0:
440,186,77753,1,0,0:0:0:0:
509,120,77851,6,2,L|337:104,1,170,0|2,1:1|0:1,0:1:0:0:
488,101,78243,6,0,L|419:95,1,42.5,0|0,1:0|0:0,0:0:0:0:
269,326,78439,2,0,B|317:320|317:320|344:331|344:331|402:325,1,127.500004863739,8|0,0:2|1:0,0:0:0:0:
364,170,78733,1,2,0:2:0:0:
373,246,78831,2,0,L|381:173,1,63.7500024318696,10|0,0:2|0:0,0:0:0:0:
428,324,79027,6,2,L|227:332,1,191.250007295609,0|2,1:1|0:1,0:1:0:0:
236,331,79419,6,0,B|195:348|195:348|150:317,1,85,0|0,1:0|0:0,0:0:0:0:
76,136,79615,1,8,0:2:0:0:
76,136,79811,5,0,1:0:0:0:
146,97,79909,1,2,0:2:0:0:
188,209,80007,1,10,0:2:0:0:
258,168,80106,2,0,P|262:230|265:275,1,85,2|2,1:2|0:2,0:0:0:0:
348,364,80400,2,0,P|387:355|417:351,1,63.7500024318696,10|0,1:2|0:0,0:0:0:0:
478,367,80596,1,0,1:0:0:0:
177,331,80792,5,8,1:2:0:0:
177,331,80890,1,0,1:0:0:0:
177,331,80988,2,0,L|120:342,1,42.5,0|0,1:0|2:0,0:0:0:0:
410,196,81380,2,0,B|375:149|375:149|298:140|298:140|255:164,1,170,0|8,1:0|0:2,0:0:0:0:
115,82,81674,1,2,0:3:0:0:
166,19,81772,2,0,B|210:23|210:23|242:80|242:80|173:133|173:133|189:190,1,255,0|2,1:0|0:3,0:0:0:0:
268,156,82164,6,0,L|321:153,1,42.5,0|0,1:0|0:0,0:0:0:0:
61,199,82360,2,2,L|211:187,1,127.500004863739,8|2,0:2|1:1,0:1:0:0:
188,188,82655,1,0,1:0:0:0:
220,265,82753,6,0,B|201:298|201:298|178:263,1,63.7500024318696,8|0,1:2|0:0,0:0:0:0:
157,116,82949,2,0,B|176:83|176:83|199:118,1,63.7500024318696,0|0,1:0|0:0,0:0:0:0:
268,171,83145,1,8,1:2:0:0:
277,189,83243,1,0,1:0:0:0:
332,136,83341,6,0,P|402:113|456:214,1,191.250007295609,0|0,1:0|0:0,0:0:0:0:
381,81,83733,6,0,P|426:89|456:117,1,63.7500024318696,0|0,1:0|0:0,0:0:0:0:
487,174,83929,2,0,P|489:219|482:250,1,63.7500024318696,8|0,1:2|0:0,0:0:0:0:
338,204,84125,6,2,L|137:198,1,170,0|2,1:1|0:1,0:1:0:0:
168,198,84517,6,0,B|209:175|209:175|262:193,1,85
338,204,84713,2,0,L|328:336,1,127.500004863739,0|0,0:0|1:0,0:0:0:0:
253,317,85007,1,0,1:0:0:0:
326,353,85106,1,0,1:0:0:0:
241,338,85204,2,2,B|196:335|196:335|170:352|170:352|102:348,1,127.500004863739,0|0,1:1|0:1,0:1:0:0:
338,204,85498,2,2,B|383:201|383:201|409:218|409:218|477:214,1,127.500004863739,0|0,1:1|1:1,0:1:0:0:
226,82,85890,6,0,P|206:122|209:180,1,85,0|0,1:0|0:0,0:0:0:0:
264,208,86184,1,0,0:0:0:0:
279,207,86282,1,0,1:0:0:0:
204,161,86380,2,0,P|148:153|108:151,1,85
64,216,86674,6,0,B|37:196|37:196|36:150,1,63.7500024318696,4|0,1:0|0:0,0:0:0:0:
158,77,86870,2,0,B|145:47|145:47|167:6,1,63.7500024318696,4|0,1:0|0:0,0:0:0:0:
285,171,87066,2,0,B|288:138|288:138|327:114,1,63.7500024318696,4|0,1:1|0:3,0:3:0:0:
395,117,87262,5,4,1:0:0:0:
395,117,87458,2,0,P|430:124|464:113,1,63.7500024318696,2|0,0:3|0:0,0:0:0:0:
476,41,87655,2,0,P|434:26|337:72,1,127.5,2|0,0:3|0:0,0:0:0:0:
346,55,87851,2,0,L|303:47,4,42.5,0|0|0|0|0,1:0|1:0|1:0|1:0|1:0,1:0:0:0:
272,262,88243,1,0,1:0:0:0:
253,333,88341,2,0,B|201:360|201:360|155:243,1,170,0|0,1:0|0:0,0:0:0:0:
100,87,88635,1,0,0:0:0:0:
160,256,88831,6,0,P|203:246|244:218,1,85,2|0,0:0|0:0,0:0:0:0:
237,224,89125,1,2,0:0:0:0:
385,160,89321,1,2,0:2:0:0:
392,182,89419,2,0,P|359:176|341:169,1,42.5,2|0,0:2|0:0,0:0:0:0:
266,62,89615,2,0,L|276:155,1,85,2|2,0:0|0:0,0:0:0:0:
182,44,90007,2,0,L|174:174,1,127.5,2|0,0:0|0:0,0:0:0:0:
230,273,90400,6,0,B|269:231|269:231|71:276,1,255
50,260,90792,2,0,L|37:324,1,63.7500024318696,8|0,0:0|2:0,0:0:0:0:
109,371,90988,2,0,L|122:307,1,63.7500024318696,0|0,0:0|2:0,0:0:0:0:
162,124,91184,6,0,P|230:112|276:151,1,127.500004863739
351,161,91478,1,0,0:0:0:0:
272,145,91576,2,0,L|258:218,1,63.7500024318696,8|0,0:0|2:0,0:0:0:0:
304,285,91772,2,0,L|318:358,1,63.7500024318696,0|0,0:0|2:0,0:0:0:0:
317,348,91968,6,0,B|307:305|307:305|335:160|335:160|273:146,1,255
273,146,92360,2,0,B|260:89|260:89|270:85,1,63.7500024318696,8|0,0:0|2:0,0:0:0:0:
177,316,92556,2,0,B|188:259|188:259|180:255,1,63.7500024318696,0|0,0:0|2:0,0:0:0:0:
199,177,92753,5,2,0:2:0:0:
199,177,92851,1,2,0:2:0:0:
199,177,92949,2,2,L|86:201,1,111.562501063943,8|0,0:1|2:1,0:1:0:0:
23,133,93145,6,2,B|13:206|13:206|0:215,1,85,8|0,0:1|2:1,0:1:0:0:
79,347,93341,2,0,L|66:284,1,63.7500024318696,0|0,0:0|2:0,0:0:0:0:
39,128,93537,6,0,L|24:226,1,85,0|0,0:0|2:0,0:0:0:0:
27,213,93733,2,0,L|89:200,1,63.7500024318696,0|0,0:0|2:0,0:0:0:0:
155,253,93929,2,0,L|314:274,1,148.750001418591,8|0,0:0|0:0,0:0:0:0:
333,202,94223,1,0,0:0:0:0:
286,135,94321,6,0,L|275:58,1,63.7500024318696,0|0,0:0|2:0,0:0:0:0:
411,194,94517,2,0,L|488:205,1,63.7500024318696,0|0,0:0|2:0,0:0:0:0:
343,212,94713,5,8,0:0:0:0:
343,212,94811,1,0,0:0:0:0:
343,212,94909,1,0,0:0:0:0:
343,212,95007,1,0,0:0:0:0:
403,274,95106,6,0,B|393:332|393:332|319:321|319:321|255:355|255:355|214:291,1,255
146,288,95498,2,0,L|161:215,1,63.7500024318696,8|0,0:0|2:0,0:0:0:0:
165,203,95694,1,0,0:0:0:0:
96,64,95890,5,0,0:0:0:0:
20,83,95988,1,0,0:0:0:0:
96,64,96086,6,2,B|172:50|172:50|174:46|174:46|259:29,1,159.375,8|0,0:1|2:1,0:1:0:0:
333,84,96282,2,2,L|324:135,1,42.5,8|0,0:1|2:1,0:1:0:0:
304,121,96478,2,2,L|313:70,1,42.5,0|0,0:1|2:1,0:1:0:0:
389,28,96674,6,0,P|464:87|324:122,1,318.75
189,79,97066,2,0,L|255:87,1,63.7500024318696,8|0,0:0|2:0,0:0:0:0:
243,161,97262,2,0,L|177:153,1,63.7500024318696,0|0,0:0|2:0,0:0:0:0:
69,117,97458,5,0,0:0:0:0:
64,91,97556,1,0,0:0:0:0:
84,194,97655,2,0,L|96:258,1,63.7500024318696,0|0,0:0|2:0,0:0:0:0:
48,318,97851,5,8,0:0:0:0:
97,331,97949,1,0,0:0:0:0:
145,345,98047,1,0,0:0:0:0:
187,316,98145,1,0,0:0:0:0:
228,285,98243,6,0,B|245:266|245:266|219:123|219:123|233:104,1,191.250007295609
470,147,98635,2,0,B|422:160|422:160|405:137|405:137|323:122|323:122|298:140,1,191.250007295609,8|0,0:0|0:0,0:0:0:0:
331,375,99027,2,0,B|313:218|313:218|346:191,1,191.250007295609
496,219,99419,6,0,P|494:174|468:146,1,85,8|0,0:0|2:0,0:0:0:0:
338,196,99615,2,0,P|340:241|366:269,1,85,0|0,0:0|2:0,0:0:0:0:
323,34,99811,6,0,P|287:45|264:71,1,63.7500024318696,0|0,0:0|2:0,0:0:0:0:
127,53,100007,2,0,P|164:57|191:79,1,63.7500024318696,0|0,0:0|2:0,0:0:0:0:
239,205,100204,2,0,L|233:133,1,63.7500024318696,8|0,0:0|2:0,0:0:0:0:
223,0,100400,2,0,L|229:72,1,63.7500024318696,0|0,0:0|2:0,0:0:0:0:
239,205,100596,6,0,B|212:185|212:185|48:210,1,191.250007295609
274,134,100988,2,0,B|301:154|301:154|402:139,1,127.500004863739,8|0,0:0|0:0,0:0:0:0:
449,84,101282,1,0,0:0:0:0:
495,249,101380,6,0,B|471:166|471:166|419:234,1,170,4|0,0:0|0:0,0:0:0:0:
434,329,101674,6,0,L|405:335,1,21.25
434,329,101772,2,0,B|344:352|344:352|335:341|335:341|244:325|244:325|227:332,1,212.5,4|0,0:0|0:0,0:0:0:0:
69,307,102066,6,0,L|90:313,1,21.25
69,307,102164,2,0,B|97:314|97:314|237:252|237:252|274:259,1,212.5,4|0,0:0|0:0,0:0:0:0:
266,257,102458,5,0,0:0:0:0:
130,211,102556,2,0,L|123:121,1,85,2|0,0:1|0:0,0:0:0:0:
123,126,102753,2,0,L|116:36,1,85,2|0,0:1|0:0,0:0:0:0:
310,138,102949,6,0,P|263:99|183:105,1,127.500004863739
369,87,103243,1,0,0:0:0:0:
396,69,103341,2,0,L|390:132,1,63.7500024318696,8|0,0:0|2:0,0:0:0:0:
244,255,103537,2,0,L|238:192,1,63.7500024318696,8|0,0:3|2:0,0:0:0:0:
345,300,103733,5,0,0:0:0:0:
348,331,103831,2,0,B|326:310|326:310|317:208,1,127.500004863739,8|8,0:3|0:3,0:0:0:0:
314,188,104125,5,8,0:0:0:0:
25,296,104321,1,0,0:0:0:0:
25,296,104419,1,0,0:0:0:0:
25,296,104517,2,0,B|114:313|114:313|125:334|125:334|243:319|243:319|240:289,1,255
171,243,104909,6,0,P|162:216|191:210,1,63.7500024318696,8|0,0:0|2:0,0:0:0:0:
265,177,105106,2,0,P|274:150|245:144,1,63.7500024318696,8|0,0:3|2:0,0:0:0:0:
168,116,105302,1,0,0:0:0:0:
163,89,105400,1,8,0:3:0:0:
473,84,105596,5,0,0:0:0:0:
469,55,105694,2,2,B|423:11|423:11|454:206,1,255,8|0,0:1|0:1,0:1:0:0:
489,216,106086,5,0,0:0:0:0:
450,309,106184,2,0,L|318:327,1,127.500004863739,8|8,0:3|0:3,0:0:0:0:
302,301,106478,2,0,L|291:375,1,63.7500024318696,8|0,0:0|2:0,0:0:0:0:
394,173,106674,2,0,L|405:247,1,63.7500024318696,0|0,0:0|2:0,0:0:0:0:
274,144,106870,5,0,0:0:0:0:
314,225,106968,2,0,B|234:216|234:216|226:208|226:208|149:199,1,170,8|8,0:3|0:3,0:0:0:0:
148,198,107262,2,0,P|172:215|162:243,1,63.7500024318696,8|0,0:1|2:0,0:0:0:0:
77,333,107458,2,0,P|101:316|91:288,1,63.7500024318696,0|0,0:0|2:0,0:0:0:0:
25,186,107655,6,0,B|69:210|69:210|45:86,1,170,0|8,0:0|0:3,0:0:0:0:
112,48,107949,1,0,0:0:0:0:
120,15,108047,5,8,0:0:0:0:
388,62,108243,1,0,0:0:0:0:
206,262,108439,5,2,0:2:0:0:
186,186,108537,1,2,0:2:0:0:
206,262,108635,2,2,B|225:252|225:252|344:282|344:282|363:270,1,159.375,8|0,0:1|2:1,0:1:0:0:
431,216,108831,6,2,L|437:262,1,42.5,8|0,0:1|2:1,0:1:0:0:
461,254,109027,2,2,L|455:208,1,42.5,0|0,0:1|2:1,0:1:0:0:
499,39,109223,6,0,L|422:28,1,72.2500013780594
342,14,109419,2,2,L|304:9,2,36.1250006890297,2|2|2,0:2|0:2|0:2,0:2:0:0:
371,101,109615,6,0,L|294:112,1,72.2500013780594
214,126,109811,2,2,L|176:131,2,36.1250006890297,2|2|2,0:2|0:2|0:2,0:2:0:0:
119,7,110007,6,0,L|108:84,1,72.2500013780594
94,164,110203,2,2,L|89:202,2,36.1250006890297,2|2|2,0:2|0:2|0:2,0:2:0:0:
239,283,110400,6,0,L|228:206,1,72.2500013780594
214,126,110596,2,2,L|209:88,2,36.1250006890297,2|2|2,0:2|0:2|0:2,0:2:0:0:
50,305,110792,5,0,0:0:0:0:
79,336,110890,1,0,0:0:0:0:
121,329,110988,1,2,0:3:0:0:
163,322,111086,1,2,0:3:0:0:
222,269,111184,5,0,0:0:0:0:
271,279,111282,1,0,0:0:0:0:
320,289,111380,1,2,0:3:0:0:
369,299,111478,1,2,0:3:0:0:
430,353,111576,5,0,0:0:0:0:
482,303,111674,1,0,0:0:0:0:
464,233,111772,1,2,0:3:0:0:
445,163,111870,1,2,0:3:0:0:
383,109,111968,6,0,L|342:103,1,36.1250006890297
389,80,112066,2,0,L|348:74,1,36.1250006890297
395,51,112164,2,0,L|354:45,1,36.1250006890297,2|0,0:3|0:0,0:0:0:0:
401,22,112262,2,0,L|360:16,1,36.1250006890297,2|0,0:3|0:0,0:0:0:0:
476,36,112360,5,4,0:3:0:0:
108,97,113733,5,0,1:2:0:0:
90,180,113929,2,0,P|139:178|180:138,1,95.6250036478044,2|0,2:2|2:0,0:0:0:0:
249,154,114321,6,0,L|247:126,11,21.2500008106232
257,242,115106,6,0,L|255:217,6,15.9375006079674
263,325,115498,6,0,B|158:307|158:307|143:279|143:279|28:259,1,255,4|0,0:0|0:0,0:0:0:0:
209,239,115890,1,4,0:0:0:0:
88,182,116086,2,0,P|83:149|76:114,1,63.7500024318696,2|0,0:3|0:0,0:0:0:0:
230,124,116282,6,0,P|235:91|242:56,1,63.7500024318696,4|0,0:0|0:0,0:0:0:0:
247,36,116478,1,2,0:3:0:0:
63,197,116674,2,0,P|58:164|51:129,1,63.7500024318696,4|0,0:0|0:0,0:0:0:0:
46,109,116870,1,2,0:3:0:0:
283,298,117066,6,0,B|328:241|328:241|143:270,1,255,4|2,0:0|0:3,0:0:0:0:
73,283,117458,1,4,0:0:0:0:
210,342,117655,1,2,0:3:0:0:
287,157,117851,2,0,B|242:100|242:100|427:129,1,255,4|0,0:0|0:0,0:0:0:0:
196,175,118243,2,0,B|241:232|241:232|56:203,1,255,4|0,0:0|0:0,0:0:0:0:
38,200,118635,6,0,P|29:168|9:141,1,63.7500024318696,4|0,0:1|0:1,0:1:0:0:
114,31,119027,1,4,0:0:0:0:
172,94,119223,6,2,L|179:55,2,21.25,2|2|2,0:2|0:2|0:2,0:2:0:0:
90,114,119419,2,0,P|103:136|101:159,1,42.5,0|0,1:3|0:0,0:0:0:0:
120,231,119615,6,2,L|113:270,2,21.25,2|2|2,0:2|0:2|0:2,0:2:0:0:
202,211,119811,2,0,P|189:189|191:166,1,42.5,8|0,1:3|0:0,0:0:0:0:
291,308,120007,2,0,L|285:351,1,42.5
327,179,120204,6,0,L|302:375,1,191.250007295609,0|0,1:0|0:0,0:0:0:0:
427,319,120596,2,0,L|419:268,1,42.5,0|0,1:0|0:0,0:0:0:0:
415,242,120792,6,2,L|448:251,2,21.25,2|2|2,0:2|0:2|0:2,0:2:0:0:
415,242,120988,2,0,L|407:191,1,42.5,0|0,1:0|0:0,0:0:0:0:
347,60,121184,6,2,L|380:51,2,21.25,2|2|2,0:2|0:2|0:2,0:2:0:0:
347,60,121380,2,0,L|339:111,1,42.5,8|0,1:3|0:0,0:0:0:0:
266,80,121576,2,0,L|258:29,1,42.5,0|0,0:3|0:0,0:0:0:0:
23,44,121772,6,0,B|188:66|188:66|200:130|200:130|172:151,1,255,4|0,0:0|0:0,0:0:0:0:
102,177,122164,1,4,0:0:0:0:
263,229,122360,2,0,P|267:261|273:296,1,63.7500024318696,2|0,0:3|0:0,0:0:0:0:
88,272,122556,6,0,P|84:304|78:339,1,63.7500024318696,4|0,0:0|0:0,0:0:0:0:
74,361,122753,1,2,0:3:0:0:
289,213,122949,2,0,P|293:245|299:280,1,63.7500024318696,4|0,0:0|0:0,0:0:0:0:
303,302,123146,1,2,0:3:0:0:
23,154,123341,6,0,P|120:161|238:67,1,255,4|2,0:0|0:3,0:0:0:0:
174,25,123733,1,4,0:0:0:0:
397,93,123929,1,2,0:3:0:0:
233,199,124125,6,0,P|330:192|448:286,1,255,4|0,0:0|0:3,0:0:0:0:
254,108,124517,2,0,P|157:115|39:21,1,255,4|0,0:0|0:3,0:0:0:0:
38,20,124909,6,0,P|68:40|66:79,1,63.7500024318696,4|0,0:0|0:0,0:0:0:0:
29,170,125302,1,4,0:0:0:0:
97,230,125498,6,2,L|92:199,2,21.25,2|2|2,0:2|0:2|0:2,0:2:0:0:
174,220,125694,2,0,P|170:242|167:272,1,42.5,0|0,1:3|0:0,0:0:0:0:
121,344,125890,6,2,L|116:313,2,21.25,2|2|2,0:2|0:2|0:2,0:2:0:0:
198,334,126086,2,0,P|194:356|191:386,1,42.5,8|0,1:3|0:0,0:0:0:0:
268,368,126282,2,0,P|272:346|275:316,1,42.5
262,195,126478,6,2,B|371:185|359:314|481:299,1,255.000009727478,0|0,1:1|1:1,0:1:0:0:
386,103,127066,1,2,0:2:0:0:
213,29,127262,2,2,P|215:117|119:163,1,191.250007295609,2|0,1:2|0:1,0:1:0:0:
57,122,127655,6,0,L|54:94,6,21.25,2|0|0|0|0|0|0,0:2|0:0|0:0|0:0|0:0|0:0|0:0,0:0:0:0:
50,297,128047,6,0,L|139:287,1,63.7500024318696,4|0,0:0|2:0,0:0:0:0:
205,257,128243,1,2,0:2:0:0:
205,257,128341,1,2,0:2:0:0:
205,257,128439,2,0,L|194:330,1,63.7500024318696,8|0,0:0|2:0,0:0:0:0:
193,342,128635,5,0,0:0:0:0:
346,164,128831,2,0,L|354:234,1,63.7500024318696,4|0,0:0|2:0,0:0:0:0:
366,304,129027,5,2,2:2:0:0:
233,61,129223,2,0,L|223:150,1,63.7500024318696,10|0,0:2|2:0,0:0:0:0:
205,257,129419,1,2,2:0:0:0:
366,304,129615,6,0,B|332:286|332:286|306:67,1,255,4|0,0:0|0:0,0:0:0:0:
359,9,130007,1,8,0:0:0:0:
236,150,130204,1,2,0:2:0:0:
241,193,130302,1,2,0:2:0:0:
209,268,130400,6,0,B|170:256|170:256|149:74|149:74|115:64,1,255,4|0,0:0|0:0,0:0:0:0:
294,145,130792,2,0,B|255:157|255:157|234:339|234:339|200:349,1,255,8|0,0:0|0:0,0:0:0:0:
129,363,131184,5,4,0:0:0:0:
53,331,131380,1,2,0:3:0:0:
129,363,131576,5,8,0:0:0:0:
118,273,131772,1,2,1:2:0:0:
118,273,131821,1,2,2:2:0:0:
129,363,131968,5,4,0:0:0:0:
196,308,132164,1,2,1:2:0:0:
196,308,132213,1,2,2:2:0:0:
103,85,132360,6,0,L|98:150,1,63.7500024318696,8|0,0:3|2:0,0:0:0:0:
97,170,132556,1,2,0:3:0:0:
374,128,132753,5,4,0:0:0:0:
450,96,132949,1,2,0:3:0:0:
374,128,133145,5,8,0:0:0:0:
385,38,133341,1,2,0:2:0:0:
385,38,133390,1,2,2:2:0:0:
374,128,133537,5,4,0:0:0:0:
307,73,133733,1,2,0:2:0:0:
307,73,133782,1,2,2:2:0:0:
479,232,133929,6,0,P|411:211|313:278,1,191.250007295609,8|0,0:3|0:0,0:0:0:0:
63,182,134321,6,0,L|77:360,1,170,0|2,0:0|0:2,0:0:0:0:
227,272,134615,1,2,0:2:0:0:
153,251,134713,6,0,P|169:210|161:160,1,85
290,222,134909,2,0,L|311:308,1,85,2|0,0:2|0:0,0:0:0:0:
334,377,135106,5,0,0:0:0:0:
412,352,135204,1,0,0:0:0:0:
334,377,135302,1,2,0:2:0:0:
386,159,135498,2,0,L|407:73,1,85
180,39,135694,5,2,0:2:0:0:
231,98,135792,1,2,0:2:0:0:
211,173,135890,2,0,L|232:259,1,85
256,330,136086,5,2,0:2:0:0:
256,330,136184,1,2,0:2:0:0:
256,330,136282,1,0,0:0:0:0:
307,72,136478,1,2,0:2:0:0:
71,169,136674,5,0,0:0:0:0:
146,205,136772,2,0,P|201:145|182:65,1,170,2|2,0:2|0:2,0:0:0:0:
76,250,137066,5,0,0:0:0:0:
67,275,137164,1,2,0:2:0:0:
151,315,137262,1,2,0:2:0:0:
230,261,137360,1,2,0:2:0:0:
221,236,137458,6,0,P|256:240|281:258,1,63.7500024318696,4|0,0:2|0:0,0:0:0:0:
362,332,137655,2,0,L|352:292,2,31.8750012159348
200,190,137851,6,0,P|232:175|276:181,1,74.3750007092953,4|0,0:2|0:0,0:0:0:0:
407,233,138048,2,0,L|376:199,2,37.1875003546476
167,159,138243,6,0,P|195:125|234:112,1,85,4|0,0:2|0:0,0:0:0:0:
391,105,138440,2,0,L|344:89,2,42.5
122,144,138635,6,0,P|128:99|164:62,1,95.6250036478044,4|0,0:2|0:0,0:0:0:0:
295,0,138832,2,0,L|246:6,2,47.8125018239022
337,227,139027,6,2,B|345:149|345:149|356:135|356:135|367:34,1,191.250007295609,0|2,0:1|0:1,0:1:0:0:
62,19,139321,2,0,B|54:97|54:97|43:111|43:111|32:212,1,191.250007295609,2|0,0:1|0:0,0:0:0:0:
77,362,139615,2,2,L|88:260,1,95.6250036478044,0|2,0:1|0:1,0:1:0:0:
152,126,139811,5,2,0:1:0:0:
256,192,139909,12,4,140596,1:1:0:0:
81,95,143733,6,2,B|98:133|145:148|145:148|169:148|219:169|234:253|180:277|120:276|99:199|143:148|143:148|186:112|181:71|181:71|200:99|230:112|230:112|227:85|237:51|237:51|249:83|273:98|273:98|274:73|285:53|285:53|312:90|312:90|321:65|334:52|334:52|352:87|391:92|391:92|390:128|363:153|363:153|389:137|426:137,1,977.5,2|0,2:1|2:1,0:1:0:0:
487,176,146086,5,8,0:0:0:0:
289,223,146282,1,0,0:1:0:0:
335,244,146380,1,0,0:1:0:0:
348,293,146478,2,0,P|370:296|393:306,1,42.5
451,254,146674,1,0,0:1:0:0:
185,165,146870,6,0,L|177:256,1,85
156,351,147066,1,0,0:0:0:0:
82,335,147164,2,0,L|74:244,1,85,8|0,0:0|0:0,0:0:0:0:
189,132,147360,1,0,0:0:0:0:
263,148,147458,2,0,L|271:239,1,85,8|0,0:0|0:0,0:0:0:0:
136,368,147655,1,4,0:0:0:0:
62,352,147753,2,0,L|54:261,2,85,2|2|2,0:2|0:2|0:2,0:0:0:0:
165,188,148047,5,8,0:0:0:0:
153,265,148145,1,0,0:0:0:0:
194,193,148243,5,8,0:0:0:0:
182,270,148341,1,0,0:0:0:0:
262,242,148439,6,0,P|294:216|341:213,1,85,4|0,0:0|0:0,0:0:0:0:
471,239,148635,1,0,0:0:0:0:
483,162,148733,2,0,P|451:188|404:191,1,85,8|0,0:0|0:0,0:0:0:0:
259,132,148929,1,0,0:0:0:0:
247,209,149027,2,0,P|279:183|326:180,1,85,8|0,0:0|0:0,0:0:0:0:
493,259,149223,1,4,0:0:0:0:
505,182,149321,2,0,P|473:208|426:211,2,85,2|2|2,0:2|0:2|0:2,0:0:0:0:
374,54,149615,5,8,0:0:0:0:
392,128,149713,1,0,0:0:0:0:
411,202,149811,1,8,0:0:0:0:
430,275,149909,1,0,0:0:0:0:
377,352,150007,6,0,B|342:344|342:344|338:348|338:348|287:338,1,85,4|0,0:2|0:0,0:0:0:0:
199,319,150204,2,0,P|208:339|217:369,2,42.5
402,164,150400,6,0,B|359:177|359:177|359:183|359:183|309:197,1,95.6250036478044,4|0,0:2|0:0,0:0:0:0:
239,234,150596,2,0,P|262:246|281:272,2,47.8125018239022
356,9,150792,6,0,B|323:42|323:42|324:47|324:47|280:95,1,106.25,4|0,0:2|0:0,0:0:0:0:
223,159,150988,2,0,P|250:158|284:172,2,53.125
256,307,151184,6,0,P|229:308|195:294,6,53.125,4|0|0|0|0|0|0,0:2|0:0|0:0|0:0|0:0|0:0|0:0,0:0:0:0:
343,278,151576,5,0,0:0:0:0:
364,260,151674,2,0,L|371:305,2,31.8750012159348,2|0|2,0:2|0:0|0:2,0:0:0:0:
458,297,151968,1,0,0:0:0:0:
475,273,152066,2,0,P|464:241|436:221,1,63.7500024318696,2|0,0:2|0:0,0:0:0:0:
316,175,152360,2,0,P|349:181|404:152,1,95.6250036478044,2|0,0:2|0:0,0:0:0:0:
413,31,152753,5,2,0:2:0:0:
473,109,152851,2,2,P|474:93|479:67,2,31.8750012159348,2|2|2,0:2|0:2|0:2,0:2:0:0:
259,47,153145,6,0,B|110:71|110:71|115:102,1,170,4|8,0:0|0:2,0:0:0:0:
77,160,153439,1,0,0:0:0:0:
189,182,153537,1,8,0:1:0:0:
204,261,153635,6,2,B|229:283|229:283|234:248,1,63.7500024318696,0|8,0:1|2:2,0:1:0:0:
267,145,153831,2,2,B|292:123|292:123|296:153,1,63.7500024318696,0|4,0:1|1:1,0:1:0:0:
315,341,154027,1,0,0:0:0:0:
384,287,154125,6,2,P|413:283|397:319,1,85,8|10,0:2|0:1,0:1:0:0:
290,246,154419,1,0,0:0:0:0:
295,220,154517,1,8,0:2:0:0:
320,315,154615,1,0,0:0:0:0:
315,341,154713,6,0,B|287:322|287:322|150:342,1,170,4|8,1:0|0:2,0:0:0:0:
84,297,155007,1,0,0:0:0:0:
192,243,155106,1,8,0:1:0:0:
115,217,155204,6,2,P|100:202|130:197,1,63.7500024318696,0|8,0:1|2:2,0:1:0:0:
250,184,155400,2,2,P|265:169|235:164,1,63.7500024318696,0|4,0:1|1:1,0:1:0:0:
122,106,155596,1,0,0:0:0:0:
108,75,155694,2,2,B|178:78|178:78|200:65|200:65|274:69,1,170,8|10,0:2|0:1,0:1:0:0:
349,37,155988,5,0,0:0:0:0:
382,116,156086,1,8,0:2:0:0:
329,181,156184,2,0,P|328:219|304:245,1,63.7500024318696,0|4,0:0|1:0,0:0:0:0:
237,256,156380,5,0,0:0:0:0:
296,373,156478,2,0,L|285:296,1,63.7500024318696,8|0,0:2|2:0,0:0:0:0:
428,354,156674,1,8,0:1:0:0:
458,363,156772,2,2,L|469:286,1,63.7500024318696,0|8,0:1|2:2,0:1:0:0:
386,230,156968,2,2,L|375:307,1,63.7500024318696,0|4,0:1|1:1,0:1:0:0:
214,338,157164,5,0,0:0:0:0:
214,338,157262,2,2,B|142:379|142:379|57:347,1,170,8|10,0:2|0:1,0:1:0:0:
66,187,157556,1,0,0:0:0:0:
176,260,157655,1,8,0:2:0:0:
97,263,157753,1,0,0:0:0:0:
200,181,157851,6,0,B|276:171|276:171|290:180|290:180|374:165,1,170,4|8,1:0|0:2,0:0:0:0:
438,126,158145,1,0,0:0:0:0:
463,258,158243,1,8,0:1:0:0:
376,293,158341,6,2,P|380:262|357:240,1,63.7500024318696,0|8,0:1|2:2,0:1:0:0:
347,113,158537,2,2,P|342:143|364:165,1,63.7500024318696,0|4,0:1|1:1,0:1:0:0:
487,186,158733,5,0,0:0:0:0:
508,188,158831,2,2,L|512:153,1,31.8750012159348,8|0,0:2|2:1,0:1:0:0:
217,50,159027,5,10,0:1:0:0:
203,131,159125,1,2,0:2:0:0:
265,185,159223,5,10,0:1:0:0:
279,266,159321,1,2,0:2:0:0:
235,336,159419,6,2,B|205:303|205:303|39:336|39:336|9:304,1,255,4|0,1:1|0:1,0:1:0:0:
16,158,159811,1,8,0:1:0:0:
74,254,159909,6,2,P|85:229|50:230,1,63.7500024318696,0|8,0:1|2:2,0:1:0:0:
145,84,160105,1,0,0:0:0:0:
122,156,160204,6,2,P|214:163|329:57,1,255,4|0,1:1|0:1,0:1:0:0:
391,110,160596,5,8,0:1:0:0:
411,104,160694,1,0,0:0:0:0:
328,59,160792,1,8,0:2:0:0:
308,65,160890,1,0,0:0:0:0:
391,110,160988,6,0,B|379:253|379:253|414:258,1,170,4|8,1:1|0:2,0:1:0:0:
435,325,161282,1,0,0:0:0:0:
325,356,161380,1,8,0:1:0:0:
282,290,161478,6,2,B|289:258|289:258|313:279,1,63.7500024318696,0|8,0:1|2:2,0:1:0:0:
172,321,161674,2,2,B|179:353|179:353|203:332,1,63.7500024318696,0|4,0:1|1:1,0:1:0:0:
69,270,161870,5,0,0:0:0:0:
84,238,161968,2,2,B|66:109|66:109|94:145,1,170,8|10,0:2|0:1,0:1:0:0:
151,295,162262,5,0,0:0:0:0:
172,182,162360,1,8,0:2:0:0:
254,164,162458,2,0,P|273:190|273:234,1,63.7500024318696,0|4,0:0|1:0,0:0:0:0:
429,237,162655,6,0,L|440:204,2,31.8750012159348,0|0|8,0:1|0:0|0:2,0:0:0:0:
316,290,162851,2,0,L|386:299,1,63.7500024318696,0|8,0:0|2:1,0:0:0:0:
497,365,163047,2,2,L|427:356,1,63.7500024318696,0|8,0:1|2:2,0:1:0:0:
254,338,163243,5,2,0:1:0:0:
429,237,163439,1,0,0:0:0:0:
436,202,163537,2,2,P|377:253|273:233,1,170,8|10,0:2|0:1,0:1:0:0:
178,143,163831,5,0,0:0:0:0:
236,192,163929,1,8,0:2:0:0:
209,296,164027,1,0,0:0:0:0:
130,306,164125,6,0,B|124:215|124:215|101:193|101:193|94:97,1,212.5,4|0,0:0|0:2,0:0:0:0:
294,38,164419,2,0,B|300:129|300:129|323:151|323:151|330:247,1,212.5,4|0,0:0|0:0,0:0:0:0:
94,103,164713,2,0,B|151:109|151:109|158:117,1,63.7500024318696,4|0,1:1|2:0,0:0:0:0:
238,149,164909,5,0,0:0:0:0:
232,177,165007,1,0,0:0:0:0:
132,220,165106,2,0,L|125:175,1,31.8750012159348,0|0,0:2|2:0,0:0:0:0:
97,33,165302,5,10,0:1:0:0:
186,47,165400,1,2,0:2:0:0:
238,149,165498,5,10,0:1:0:0:
327,135,165596,1,2,0:2:0:0:
377,57,165694,6,2,B|419:102|419:102|400:239,1,170,4|0,1:1|0:1,0:1:0:0:
405,209,165988,2,0,P|360:205|340:203,1,50.9999984436036,0|8,0:0|2:1,0:0:0:0:
103,179,166184,2,2,P|98:243|95:285,1,85,0|8,0:1|2:2,0:1:0:0:
166,319,166380,2,2,P|171:255|174:217,1,85,0|4,0:1|1:1,0:1:0:0:
172,234,166576,1,0,0:0:0:0:
250,202,166674,6,2,P|261:155|219:113,1,101.999996887207,8|10,0:2|0:1,0:1:0:0:
161,30,166968,5,0,0:0:0:0:
97,87,167066,1,8,0:2:0:0:
212,104,167164,2,0,B|254:115|254:115|293:89,1,85,0|4,0:0|1:0,0:0:0:0:
422,90,167360,2,0,B|351:144|351:144|373:229,1,170
438,323,167655,5,8,0:1:0:0:
487,270,167753,2,2,B|451:245|451:245|312:268,1,170,0|2,0:1|0:1,0:1:0:0:
165,150,168047,1,4,1:0:0:0:
165,150,168145,2,2,L|128:111,2,42.5,4|8|6,0:1|2:2|0:1,0:1:0:0:
269,201,168439,1,4,0:0:0:0:
269,201,168537,1,2,2:2:0:0:
269,201,168635,1,2,2:2:0:0:
269,201,168733,1,2,2:2:0:0:
182,261,168831,5,4,0:0:0:0:
125,211,168929,2,0,L|139:32,1,170,2|0,0:1|0:0,0:0:0:0:
138,41,169223,1,12,0:0:0:0:
61,107,169321,2,2,B|118:80|118:80|233:113,1,170,0|2,0:1|0:1,0:1:0:0:
220,110,169615,5,4,1:0:0:0:
233,128,169713,1,2,0:1:0:0:
299,68,169811,2,0,B|333:16|333:16|342:81,1,127.500004863739,2|8,0:1|0:1,0:0:0:0:
305,142,170106,5,0,0:0:0:0:
217,216,170204,1,8,0:2:0:0:
296,191,170302,5,0,0:0:0:0:
182,181,170400,2,0,L|93:173,1,63.7500024318696,4|0,0:0|0:0,0:0:0:0:
367,331,170596,6,0,L|279:340,1,85,4|0,0:0|2:0,0:0:0:0:
283,339,170792,1,8,0:1:0:0:
118,175,170988,2,0,B|86:143|86:143|220:161,1,170,4|2,1:0|2:3,0:0:0:0:
216,161,171282,1,2,2:3:0:0:
222,164,171380,2,0,P|236:194|220:188,1,63.7500024318696,2|0,2:3|2:0,0:0:0:0:
173,230,171576,5,2,2:1:0:0:
184,314,171674,1,2,2:2:0:0:
163,244,171772,5,2,2:1:0:0:
174,328,171870,1,2,2:2:0:0:
99,353,171968,6,2,B|53:310|53:310|69:181,1,170,4|0,1:1|0:1,0:1:0:0:
66,203,172262,2,0,L|127:197,1,50.9999984436036,0|8,0:0|2:1,0:0:0:0:
386,96,172458,2,2,P|328:101|283:104,1,85,0|8,0:1|2:2,0:1:0:0:
232,32,172655,2,2,P|290:27|335:24,1,85,0|4,0:1|1:1,0:1:0:0:
316,25,172851,1,0,0:0:0:0:
285,105,172949,6,2,P|279:159|307:200,1,101.999996887207,8|10,0:2|0:1,0:1:0:0:
442,216,173243,5,0,0:0:0:0:
387,154,173341,1,8,0:2:0:0:
319,210,173439,2,0,L|235:222,1,85,0|4,0:0|1:0,0:0:0:0:
110,345,173635,2,0,B|135:298|135:298|117:169,1,170
180,131,173929,5,8,0:1:0:0:
105,101,174027,1,0,0:0:0:0:
249,66,174125,2,0,B|248:103|248:103|255:121|255:121|251:173,1,85,8|0,0:2|2:0,0:0:0:0:
242,275,174321,5,4,1:0:0:0:
319,269,174419,2,0,B|354:245|354:245|311:247,1,85,0|8,0:0|2:2,0:0:0:0:
142,185,174615,1,0,0:0:0:0:
136,166,174713,2,2,L|141:62,1,101.999996887207,8|2,0:1|0:1,0:1:0:0:
364,357,175106,6,0,L|357:163,1,170,4|4,0:0|0:0,0:0:0:0:
357,187,175400,1,8,0:1:0:0:
162,164,175596,2,0,L|173:100,1,50.9999984436036,8|0,0:1|0:1,0:0:0:0:
183,30,175792,1,8,0:1:0:0:
251,81,175890,2,0,B|210:109|210:109|83:91,1,170,4|4,0:0|0:0,0:0:0:0:
90,92,176184,1,8,0:1:0:0:
128,276,176380,1,8,0:1:0:0:
128,276,176478,2,0,P|153:260|137:293,1,85,4|0,1:0|0:0,0:0:0:0:
63,234,176674,6,0,P|222:226|155:370,1,382.500014591218,4|0,1:0|2:0,0:0:0:0:
256,192,177458,12,0,178243,0:0:0:0:
179,95,178439,6,0,L|185:136,1,42.5,2|0,0:2|0:0,0:0:0:0:
136,200,178635,1,0,0:0:0:0:
136,200,178831,1,2,0:2:0:0:
267,38,179027,5,0,0:0:0:0:
318,33,179125,1,0,0:0:0:0:
298,78,179223,1,2,0:2:0:0:
271,187,179419,2,0,L|371:195,1,85,2|0,0:2|0:0,0:0:0:0:
421,248,179811,5,0,0:0:0:0:
497,96,180007,1,2,0:2:0:0:
497,96,180106,1,0,0:0:0:0:
497,96,180204,1,0,0:0:0:0:
417,103,180400,2,0,L|428:157,1,42.5,2|0,0:2|0:0,0:0:0:0:
493,261,180596,5,0,1:2:0:0:
421,248,180694,1,0,1:2:0:0:
360,268,180792,1,2,2:2:0:0:
320,306,180890,1,2,2:2:0:0:
273,313,180988,1,0,1:2:0:0:
237,299,181086,1,0,1:2:0:0:
213,281,181184,1,2,2:2:0:0:
203,262,181282,1,2,2:2:0:0:
203,249,181380,6,0,L|197:333,1,85,0|2,0:0|0:2,0:0:0:0:
196,333,181674,1,2,0:2:0:0:
123,350,181772,1,0,0:0:0:0:
123,350,181968,1,2,0:2:0:0:
56,142,182164,2,0,L|52:88,2,42.5,0|0|2,0:0|0:0|0:2,0:0:0:0:
373,172,182556,1,2,0:2:0:0:
59,219,182753,1,0,0:0:0:0:
192,288,182949,6,0,B|228:243|228:243|213:174,1,127.500004863739,0|2,0:0|0:3,0:0:0:0:
156,130,183243,1,2,0:3:0:0:
143,127,183341,1,2,0:3:0:0:
132,134,183439,1,2,0:3:0:0:
131,146,183537,1,2,0:3:0:0:
144,152,183635,1,2,0:3:0:0:
213,174,183733,6,0,B|256:148|256:148|309:165,2,95.6250036478044,8|8|8,0:0|0:0|0:0,0:0:0:0:
380,351,184125,2,0,B|336:364|336:364|293:338,2,95.6250036478044,8|8|8,0:0|0:0|0:0,0:0:0:0:
213,174,184517,5,4,0:0:0:0:
152,344,184713,1,2,0:2:0:0:
167,329,184811,2,0,P|232:333|320:342,1,127.500004863739,4|2,0:1|0:2,0:0:0:0:
348,154,185106,2,0,P|353:210|325:261,1,101.999996887207,4|4,0:1|0:2,0:0:0:0:
250,278,185400,1,0,0:0:0:0:
235,227,185498,1,0,0:0:0:0:
273,190,185596,1,0,0:0:0:0:
334,250,185694,5,4,0:2:0:0:
132,68,185890,2,0,L|145:131,1,50.9999984436036
111,186,186086,1,4,0:0:0:0:
364,44,186282,1,2,0:2:0:0:
347,26,186380,2,0,L|332:172,1,127.500004863739,4|2,0:1|0:2,0:0:0:0:
333,152,186674,1,4,0:1:0:0:
333,152,186772,1,0,0:0:0:0:
237,187,186870,5,4,0:2:0:0:
178,137,186968,2,0,P|215:110|285:127,1,101.999996887207,0|0,0:3|0:3,0:3:0:0:
229,292,187262,5,4,0:2:0:0:
219,303,187360,2,0,B|166:295|166:295|122:315|122:315|78:265,1,148.750001418591
43,217,187655,6,0,L|57:133,1,74.3750007092953
130,109,187851,2,2,L|136:64,2,37.1875003546476,2|2|2,0:2|0:2|0:2,0:2:0:0:
43,217,188047,5,0,0:0:0:0:
259,287,188243,2,2,L|265:332,2,37.1875003546476,2|2|2,0:2|0:2|0:2,0:2:0:0:
187,166,188439,5,0,0:0:0:0:
408,96,188635,2,2,L|414:51,2,37.1875003546476,2|2|2,0:2|0:2|0:2,0:2:0:0:
330,238,188831,5,0,0:0:0:0:
81,59,189027,2,2,L|69:10,2,37.1875003546476,2|2|2,0:2|0:2|0:2,0:2:0:0:
36,132,189223,5,0,0:0:0:0:
36,132,189321,1,0,0:0:0:0:
36,132,189419,1,2,0:3:0:0:
36,132,189517,1,2,0:3:0:0:
71,200,189615,5,0,0:0:0:0:
115,163,189713,1,0,0:0:0:0:
171,173,189811,1,2,0:3:0:0:
227,184,189909,1,2,0:3:0:0:
288,246,190007,5,0,0:0:0:0:
360,261,190105,1,0,0:0:0:0:
346,187,190204,1,2,0:3:0:0:
331,114,190302,1,2,0:3:0:0:
379,57,190400,2,2,L|401:27,6,37.1875003546476,2|2|2|2|2|2|2,0:2|0:2|0:2|0:2|0:2|0:2|0:2,0:2:0:0:
507,124,190792,5,4,0:0:0:0:
5,260,197066,5,2,2:0:0:0:
507,124,203341,6,0,P|460:112|401:93,2,95.6250036478044,2|0|0,0:0|0:0|0:0,0:0:0:0:
507,124,204223,1,0,0:0:0:0:
415,97,204517,2,0,P|423:131|430:169,1,63.7500024318696
145,193,204909,6,0,P|139:241|132:291,2,95.6250036478044,2|0|0,0:0|0:0|0:0,0:0:0:0:
145,193,205792,1,0,0:0:0:0:
132,287,206086,2,0,P|163:279|196:273,1,63.7500024318696
458,333,206478,6,0,P|403:332|357:292,2,114.749996498108,2|0|0,0:0|0:0|0:0,0:0:0:0:
458,333,207360,1,0,0:0:0:0:
358,295,207654,2,0,P|355:254|349:215,1,76.4999976654053
102,37,208047,6,0,P|96:99|86:174,2,127.5,2|0|0,0:0|0:0|0:0,0:0:0:0:
102,37,208929,1,0,0:0:0:0:
87,163,209223,2,0,P|123:145|167:148,1,85
464,240,209615,6,0,P|469:175|477:108,2,127.5,2|0|0,0:0|0:0|0:0,0:0:0:0:
464,240,210498,1,0,0:0:0:0:
476,113,210792,2,0,P|440:136|396:133,1,85
85,330,211184,6,0,P|80:265|72:198,2,127.5,2|0|0,0:0|0:0|0:0,0:0:0:0:
276,163,211968,2,0,P|281:228|289:295,1,127.5,2|0,0:0|0:0,0:0:0:0:
213,319,212360,2,0,P|209:276|204:234,1,85
432,277,212753,6,0,P|482:242|484:164,1,127.5,2|0,0:0|0:0,0:0:0:0:
460,144,213145,2,0,L|371:128,1,85
234,219,213537,5,0,0:0:0:0:
240,253,213635,2,0,P|285:251|324:277,1,85
335,294,213929,1,0,0:0:0:0:
370,210,214125,1,0,0:0:0:0:
148,228,214321,6,0,L|139:187,3,42.5,2|0|0|0,0:0|0:0|0:0|0:0,0:0:0:0:
67,202,214713,2,0,L|58:243,3,42.5
56,104,215106,6,0,L|77:287,1,170,8|4,1:3|0:3,0:0:0:0:
86,347,215400,1,4,0:3:0:0:
118,357,215498,5,8,0:3:0:0:
169,230,215596,1,8,0:3:0:0:
204,317,215694,1,4,0:3:0:0:
496,361,215890,6,0,P|453:315|356:331,1,170,0|0,0:0|2:0,0:0:0:0:
355,331,216478,2,0,P|416:316|450:224,1,170,0|0,0:0|2:0,0:0:0:0:
355,143,217066,5,2,0:2:0:0:
449,222,217262,2,0,B|418:271|344:304|225:281|211:216|222:144|268:108|328:114|370:169|354:241|280:277,1,479.399992684937,2|0,0:2|2:0,0:0:0:0:
291,271,218635,6,0,L|296:303,6,19.9749996952057
82,360,219027,6,0,P|125:314|222:330,1,170,0|0,0:0|2:0,0:0:0:0:
223,330,219615,2,0,P|162:315|128:223,1,170,0|0,0:0|2:0,0:0:0:0:
243,146,220204,5,2,0:2:0:0:
128,221,220400,2,0,B|168:216|200:251|200:251|230:191|313:143|390:174|409:242|379:290|296:279|252:244|245:173,1,467.500014266968,2|0,0:2|2:0,0:0:0:0:
245,177,221576,6,0,L|254:146,10,23.3750007133484
280,32,222164,6,0,P|323:78|420:62,1,170,0|0,0:0|2:0,0:0:0:0:
421,62,222752,2,0,P|360:77|326:169,1,170,0|0,0:0|2:0,0:0:0:0:
426,236,223341,5,2,0:2:0:0:
326,170,223537,2,0,B|363:174|400:153|400:153|416:222|387:289|274:309|224:298|190:244|213:171|262:163|316:189|331:228|334:285,1,510,2|0,0:2|2:0,0:0:0:0:
333,278,224909,6,0,L|331:303,6,21.25
448,353,225302,6,0,P|442:328|430:309,1,42.5,2|0,2:0|2:0,2:0:0:0:
467,348,225498,2,0,P|461:323|449:304,1,42.5,2|0,2:0|2:0,2:0:0:0:
388,210,225694,6,0,P|382:235|370:254,1,42.5,0|0,2:0|2:0,2:0:0:0:
407,215,225890,2,0,P|401:240|389:259,1,42.5,2|0,2:0|2:0,2:0:0:0:
291,331,226086,6,0,L|244:326,3,42.5,2|0|0|0,2:0|2:0|2:0|2:0,2:0:0:0:
195,267,226478,2,0,L|148:272,3,42.5,2|0|0|0,2:0|2:0|2:0|2:0,2:0:0:0:
256,192,226870,12,0,228243,0:0:0:0:
55,96,228439,6,0,P|95:89|136:79,1,74.3750007092953
127,81,228635,1,0,0:0:0:0:
99,203,228733,2,0,P|139:210|180:220,1,74.3750007092953,8|0,0:0|0:0,0:0:0:0:
231,162,228929,1,0,0:0:0:0:
254,232,229027,1,8,0:0:0:0:
275,303,229125,1,0,0:0:0:0:
347,286,229223,6,0,L|333:364,2,74.3750007092953
361,178,229517,1,8,0:0:0:0:
435,192,229615,2,0,L|421:114,1,74.3750007092953
414,372,229811,5,8,0:0:0:0:
414,372,229909,1,0,0:0:0:0:
414,372,230007,2,0,L|488:357,1,74.3750007092953
486,357,230204,1,0,0:0:0:0:
347,286,230302,2,0,L|273:271,1,74.3750007092953,8|0,0:0|0:0,0:0:0:0:
210,311,230498,1,0,0:0:0:0:
200,237,230596,1,8,0:0:0:0:
190,163,230694,1,0,0:0:0:0:
284,192,230792,6,0,P|290:154|297:110,3,74.3750007092953,4|0|0|0,0:2|0:0|0:0|0:0,0:0:0:0:
379,111,231184,1,4,0:2:0:0:
372,80,231282,1,0,0:0:0:0:
447,65,231380,1,0,0:0:0:0:
454,96,231478,1,0,0:0:0:0:
379,111,231576,6,0,P|355:77|358:44,1,74.3750007092953
401,190,231772,1,0,0:0:0:0:
477,170,231870,2,0,P|501:204|498:237,1,74.3750007092953,8|0,0:0|0:0,0:0:0:0:
381,366,232066,1,0,0:0:0:0:
389,292,232164,1,8,0:0:0:0:
397,218,232262,1,0,0:0:0:0:
430,315,232360,6,0,P|393:325|350:335,2,74.3750007092953
234,253,232654,1,8,0:0:0:0:
160,276,232753,2,0,L|146:202,1,74.3750007092953
297,295,232949,2,0,L|283:369,1,74.3750007092953,8|0,0:0|0:0,0:0:0:0:
261,226,233145,2,0,B|284:92|284:92|300:80,1,148.750001418591
237,315,233439,2,0,L|226:237,1,74.3750007092953,8|0,0:0|0:0,0:0:0:0:
209,125,233635,1,0,0:0:0:0:
280,143,233733,1,8,0:0:0:0:
351,162,233831,1,0,0:0:0:0:
427,121,233929,6,0,P|434:82|442:46,3,74.3750007092953,4|0|0|0,0:2|0:0|0:0|0:0,0:0:0:0:
489,177,234321,1,4,0:2:0:0:
498,207,234419,1,0,0:0:0:0:
425,231,234517,1,0,0:0:0:0:
416,201,234615,1,0,0:0:0:0:
498,207,234713,6,0,P|413:223|387:280,1,148.750001418591
136,293,235008,2,0,L|58:300,1,74.3750007092953,8|0,0:0|0:0,0:0:0:0:
359,366,235204,1,0,0:0:0:0:
359,366,235302,1,8,0:0:0:0:
359,366,235400,1,0,0:0:0:0:
312,292,235498,5,4,0:2:0:0:
274,289,235596,1,2,0:2:0:0:
239,302,235694,1,2,0:2:0:0:
220,334,235792,1,2,0:2:0:0:
166,270,235890,5,4,0:2:0:0:
128,273,235988,1,2,0:2:0:0:
93,260,236086,1,2,0:2:0:0:
74,228,236184,1,2,0:2:0:0:
26,291,236282,6,0,P|131:279|153:224,1,170
388,213,236576,2,0,L|476:200,1,85,8|0,0:0|0:0,0:0:0:0:
164,159,236772,1,0,0:0:0:0:
164,159,236870,1,8,0:0:0:0:
164,159,236968,1,0,0:0:0:0:
225,215,237066,5,4,0:2:0:0:
269,221,237164,1,2,0:2:0:0:
311,208,237262,1,2,0:2:0:0:
337,172,237360,1,2,0:2:0:0:
342,95,237458,5,4,0:2:0:0:
386,89,237557,1,2,0:2:0:0:
428,102,237655,1,2,0:2:0:0:
454,138,237753,1,2,0:2:0:0:
469,222,237851,6,0,P|454:140|438:32,1,191.250007295609
113,27,238145,2,0,P|107:75|98:127,1,95.6250036478044,8|0,0:0|0:0,0:0:0:0:
358,155,238341,1,0,0:0:0:0:
358,155,238439,1,8,0:0:0:0:
358,155,238537,1,0,0:0:0:0:
328,76,238635,5,4,0:2:0:0:
280,73,238733,1,2,0:2:0:0:
239,97,238831,1,2,0:2:0:0:
223,142,238929,1,2,0:2:0:0:
157,96,239027,5,4,0:2:0:0:
109,99,239125,1,2,0:2:0:0:
68,75,239223,1,2,0:2:0:0:
52,30,239321,1,2,0:2:0:0:
17,136,239419,6,0,P|101:125|188:111,1,170
404,179,239713,2,0,P|451:184|490:190,1,85,8|0,0:0|0:0,0:0:0:0:
274,97,239909,1,0,0:0:0:0:
274,97,240008,1,8,0:0:0:0:
274,97,240106,1,0,0:0:0:0:
323,164,240204,5,4,0:2:0:0:
319,197,240302,1,2,0:2:0:0:
314,230,240400,1,2,0:2:0:0:
309,263,240498,1,2,0:2:0:0:
225,257,240596,5,4,0:2:0:0:
229,290,240694,1,2,0:2:0:0:
234,323,240792,1,2,0:2:0:0:
239,356,240890,1,2,0:2:0:0:
145,350,240988,5,4,0:0:0:0:
120,376,241086,1,0,0:2:0:0:
119,320,241184,1,2,0:2:0:0:
89,340,241282,1,2,0:2:0:0:
101,286,241380,1,4,0:0:0:0:
67,299,241478,1,0,0:2:0:0:
92,249,241576,1,2,0:2:0:0:
55,253,241674,1,2,0:2:0:0:
91,210,241772,1,4,0:0:0:0:
55,207,241870,1,0,0:0:0:0:
99,173,241968,1,2,0:2:0:0:
65,161,242066,1,2,0:2:0:0:
116,138,242164,1,4,0:0:0:0:
85,119,242262,1,0,0:0:0:0:
141,108,242360,1,2,0:2:0:0:
115,82,242458,1,2,0:2:0:0:
187,50,242557,5,4,0:0:0:0:
243,63,242655,1,4,0:0:0:0:
278,17,242753,1,8,0:3:0:0:
335,8,242851,1,8,0:3:0:0:
392,2,242949,1,4,0:0:0:0:
430,45,243047,1,4,0:0:0:0:
456,96,243145,1,8,0:3:0:0:
439,151,243243,1,8,0:3:0:0:
421,205,243341,1,4,0:0:0:0:
366,225,243439,1,4,0:0:0:0:
377,281,243537,1,8,0:3:0:0:
391,337,243635,1,8,0:3:0:0:
311,324,243733,6,0,L|256:335,1,53.125,4|0,0:0|0:0,0:0:0:0:
249,337,243831,2,0,L|194:348,1,53.125,4|0,0:0|0:0,0:0:0:0:
187,351,243929,2,0,L|132:362,1,53.125,4|0,0:0|0:0,0:0:0:0:
126,365,244027,2,0,L|71:376,1,53.125,4|0,0:0|0:0,0:0:0:0:
47,306,244125,6,0,B|32:279|32:279|16:337,3,85,4|0|2|2,0:0|0:0|0:2|0:2,0:0:0:0:
129,241,244517,2,0,B|144:214|144:214|160:272,3,85,4|0|2|2,0:0|0:0|0:2|0:2,0:0:0:0:
72,120,244909,1,4,0:0:0:0:
91,65,245008,1,4,0:0:0:0:
148,57,245106,1,8,0:3:0:0:
205,49,245204,1,8,0:3:0:0:
262,42,245302,1,4,0:0:0:0:
296,88,245400,1,4,0:0:0:0:
330,134,245498,1,8,0:3:0:0:
361,182,245596,1,8,0:3:0:0:
452,172,245694,6,0,B|478:140|478:140|435:135,3,85,4|0|2|2,0:0|0:0|0:2|0:2,0:0:0:0:
274,202,246086,2,0,B|248:234|248:234|291:239,3,85,4|0|2|2,0:0|0:0|0:2|0:2,0:0:0:0:
441,294,246478,2,0,B|467:262|467:262|424:257,3,85,4|4|8|8,0:0|0:0|0:3|0:3,0:0:0:0:
350,314,246870,6,0,L|295:303,1,53.125,4|0,0:0|0:0,0:0:0:0:
288,301,246968,2,0,L|233:290,1,53.125,4|0,0:0|0:0,0:0:0:0:
226,287,247066,2,0,L|171:276,1,53.125,4|0,0:0|0:0,0:0:0:0:
165,273,247164,2,0,L|110:262,1,53.125,4|0,0:0|0:0,0:0:0:0:
90,258,247262,5,4,0:0:0:0:
51,61,247458,5,2,0:2:0:0:
51,61,247507,1,2,0:2:0:0:
51,61,247557,2,0,L|40:12,2,42.5,2|0|4,0:2|0:0|0:0,0:0:0:0:
256,44,247851,5,2,0:2:0:0:
256,44,247900,1,2,0:2:0:0:
256,44,247949,2,0,L|256:0,2,42.5,2|0|4,0:2|0:0|0:0,0:0:0:0:
461,61,248243,5,2,0:2:0:0:
461,61,248292,1,2,0:2:0:0:
461,61,248341,2,0,L|472:12,2,42.5,2|0|4,0:2|0:0|0:0,0:0:0:0:
379,145,248635,2,0,L|368:96,2,42.5,2|2|2,0:2|0:2|0:2,0:0:0:0:
457,275,248831,5,4,0:0:0:0:
382,257,248929,1,4,0:0:0:0:
330,313,249027,2,0,L|336:360,1,42.5,8|0,0:3|0:0,0:0:0:0:
312,316,249125,2,0,L|318:363,1,42.5,8|0,0:3|0:0,0:0:0:0:
256,261,249223,5,4,0:0:0:0:
181,279,249321,1,4,0:0:0:0:
129,223,249419,2,0,L|135:176,1,42.5,8|0,0:3|0:0,0:0:0:0:
111,220,249517,2,0,L|117:173,1,42.5,8|0,0:3|0:0,0:0:0:0:
32,212,249615,6,0,P|27:180|18:155,6,53.125,4|0|0|0|0|0|0,0:0|0:0|0:0|0:0|0:0|0:0|0:0,0:0:0:0:
121,33,250007,2,0,P|126:65|135:90,6,53.125,4|0|0|0|0|0|0,0:0|0:0|0:0|0:0|0:0|0:0|0:0,0:0:0:0:
132,84,250400,6,0,B|281:98|221:1|367:18,1,255,2|2,0:2|0:2,0:2:0:0:
445,37,251086,1,2,0:2:0:0:
464,58,251184,2,0,P|464:108|480:187,1,127.5,2|2,0:2|0:2,0:0:0:0:
410,292,251772,1,2,0:2:0:0:
468,345,251968,6,0,P|396:301|314:322,1,170,2|2,0:2|0:2,0:0:0:0:
304,351,252458,1,2,0:2:0:0:
275,332,252557,1,2,0:2:0:0:
241,325,252655,1,2,0:2:0:0:
208,333,252753,5,2,0:2:0:0:
94,242,253047,2,0,P|104:302|113:370,1,127.5,2|0,0:2|0:0,0:0:0:0:
182,135,253537,5,4,0:0:0:0:
499,244,253733,1,2,0:2:0:0:
512,229,253831,2,0,B|473:212|473:212|421:221,1,85,2|8,0:1|2:0,0:0:0:0:
368,262,254027,1,2,0:1:0:0:
182,135,254223,2,0,B|307:115|307:115|370:139,1,170,2|0,0:1|0:0,0:0:0:0:
283,233,254517,1,2,0:2:0:0:
283,233,254615,1,2,0:2:0:0:
283,233,254713,2,0,L|100:222,1,170,8|2,0:0|0:2,0:0:0:0:
113,222,255007,1,2,0:2:0:0:
45,241,255106,6,0,B|3:225|3:225|46:210,1,85,0|0,0:0|2:0,0:0:0:0:
184,271,255302,1,0,0:0:0:0:
191,194,255400,2,0,B|201:152|201:152|192:103,1,85,2|8,0:1|2:0,0:0:0:0:
191,285,255596,2,0,B|181:327|181:327|190:376,1,85,2|0,0:1|2:0,0:0:0:0:
461,225,255792,2,0,B|399:215|399:215|358:233|358:233|274:223,1,170,2|0,0:1|0:0,0:0:0:0:
272,322,256086,2,0,P|287:344|290:309,1,85,2|2,0:2|2:2,0:0:0:0:
189,110,256282,2,0,P|204:88|207:123,1,85,8|0,0:0|2:0,0:0:0:0:
164,219,256478,1,2,0:2:0:0:
164,219,256576,1,2,0:2:0:0:
98,171,256674,5,0,0:0:0:0:
86,162,256772,2,0,P|92:221|94:255,1,85,0|0,0:0|2:0,0:0:0:0:
75,316,256968,1,2,0:1:0:0:
38,93,257164,1,2,0:1:0:0:
75,335,257360,2,2,P|161:327|250:320,1,170,0|2,0:1|0:1,0:1:0:0:
343,271,257655,2,2,P|339:320|336:367,1,85,0|2,0:1|2:1,0:1:0:0:
336,355,257851,1,8,0:0:0:0:
258,226,257949,2,2,P|262:177|265:130,1,85,0|2,0:1|2:2,0:1:0:0:
340,188,258145,1,2,0:2:0:0:
180,208,258243,5,4,0:2:0:0:
180,208,258341,1,2,0:2:0:0:
180,208,258439,2,0,P|133:200|79:216,1,85,8|2,0:2|2:2,0:1:0:0:
96,207,258635,1,8,0:1:0:0:
352,308,258831,2,0,P|398:300|453:316,1,85,8|2,0:2|2:2,0:0:0:0:
436,307,259027,1,4,0:2:0:0:
219,360,259223,2,2,L|224:274,1,85,8|2,0:2|2:1,0:1:0:0:
162,216,259419,5,10,0:0:0:0:
229,163,259517,1,2,0:2:0:0:
302,248,259615,1,2,0:0:0:0:
369,195,259713,1,2,0:2:0:0:
441,230,259811,6,0,B|431:170|431:170|446:129|446:129|437:60,1,170,4|0,0:0|0:0,0:0:0:0:
437,64,260106,1,2,0:1:0:0:
225,215,260302,2,0,B|184:227|184:227|137:206,1,85,2|0,0:1|2:0,0:0:0:0:
45,105,260498,2,0,B|101:43|101:43|193:59,1,170,2|0,0:1|0:0,0:0:0:0:
332,133,260792,1,2,0:2:0:0:
332,133,260890,1,2,0:2:0:0:
332,133,260988,2,0,L|143:154,1,170,8|2,0:0|0:2,0:0:0:0:
163,151,261282,1,2,0:2:0:0:
233,172,261380,5,0,0:0:0:0:
249,177,261478,1,0,0:0:0:0:
101,135,261576,1,0,0:0:0:0:
85,129,261674,2,0,B|70:175|70:175|91:218,1,85,2|8,0:1|2:0,0:0:0:0:
208,69,261870,2,0,B|197:21|197:21|158:-5,1,85,2|0,0:1|2:0,0:0:0:0:
209,214,262066,2,0,B|293:225|293:225|370:164,1,170,2|0,0:1|0:0,0:0:0:0:
355,31,262360,1,2,0:2:0:0:
355,31,262458,1,2,0:2:0:0:
355,31,262557,2,0,B|396:23|396:23|443:42,1,85,8|0,0:0|2:0,0:0:0:0:
464,103,262753,5,2,0:2:0:0:
355,149,262851,1,2,0:2:0:0:
448,220,262949,5,0,0:0:0:0:
459,213,263047,2,0,P|467:162|474:121,1,85,0|0,0:1|2:0,0:0:0:0:
355,31,263243,2,0,P|347:82|340:123,1,85,2|8,0:1|2:0,0:0:0:0:
170,114,263439,2,0,P|163:72|157:31,1,85,2|0,0:1|2:0,0:0:0:0:
39,129,263635,2,0,P|46:171|53:213,1,85,2|0,0:1|2:0,0:0:0:0:
118,250,263831,1,0,0:0:0:0:
74,314,263929,5,2,0:2:0:0:
74,314,264027,1,2,0:2:0:0:
74,314,264125,2,0,B|108:337|108:337|158:320,1,85,8|0,0:0|2:0,0:0:0:0:
389,222,264321,2,0,B|355:199|355:199|305:216,1,85,2|2,0:2|2:2,0:0:0:0:
174,311,264517,5,4,0:0:0:0:
238,366,264615,2,0,L|244:194,1,170,4|8,0:0|0:3,0:0:0:0:
243,196,264909,1,4,0:1:0:0:
332,215,265007,2,0,L|249:200,1,85,4|8,0:1|2:3,0:0:0:0:
170,183,265204,1,8,0:3:0:0:
289,132,265302,5,4,0:0:0:0:
302,125,265400,1,4,0:0:0:0:
216,108,265498,5,8,0:3:0:0:
201,103,265596,1,8,0:3:0:0:
272,57,265694,6,0,B|303:41|303:41|362:54|362:54|384:88,1,127.5,4|0,0:3|0:1,0:1:0:0:
468,75,266086,6,0,L|449:248,1,170,4|0,0:0|0:0,0:0:0:0:
425,371,266380,2,0,B|434:330|434:330|464:361,1,85,2|8,0:1|2:0,0:0:0:0:
375,231,266576,2,0,B|366:272|366:272|336:241,1,85,2|0,0:1|2:0,0:0:0:0:
260,353,266772,6,0,B|238:368|238:368|248:284,1,106.25,2|0,0:1|0:0,0:0:0:0:
259,208,267066,1,2,0:2:0:0:
262,178,267164,1,2,0:2:0:0:
337,153,267262,5,8,0:0:0:0:
351,233,267360,2,0,P|356:263|360:293,1,53.125,2|0,0:2|2:0,0:0:0:0:
179,246,267557,1,2,0:2:0:0:
162,326,267655,6,0,P|86:310|54:216,1,170
32,139,267949,2,0,B|21:106|21:106|9:172,1,85,2|8,0:1|2:0,0:0:0:0:
151,217,268145,2,0,B|140:250|140:250|128:184,1,85,2|0,0:1|2:0,0:0:0:0:
96,42,268341,6,0,P|137:92|195:80,1,127.500004863739,2|0,0:1|0:0,0:0:0:0:
257,29,268635,1,2,0:2:0:0:
291,24,268733,1,2,0:2:0:0:
270,114,268831,5,8,0:0:0:0:
350,135,268929,1,2,0:2:0:0:
293,198,269027,2,0,P|300:233|306:261,1,63.7500024318696,0|2,0:2|2:0,0:0:0:0:
482,330,269223,5,0,0:0:0:0:
488,361,269321,2,0,P|447:341|384:352,1,95.6250036478044,0|0,0:0|2:0,0:0:0:0:
398,345,269517,2,0,P|385:295|375:251,1,95.6250036478044,2|8,0:1|2:0,0:0:0:0:
433,78,269713,2,0,P|446:128|456:172,1,95.6250036478044,2|0,0:1|2:0,0:0:0:0:
398,345,269909,6,2,B|406:311|406:311|272:270,1,170,0|2,0:1|0:1,0:1:0:0:
147,159,270204,1,2,0:1:0:0:
210,115,270302,1,2,0:2:0:0:
220,197,270400,6,2,P|262:189|315:177,1,85,8|2,0:1|0:1,0:1:0:0:
377,133,270596,1,2,0:2:0:0:
383,162,270694,1,2,0:2:0:0:
453,198,270792,6,2,B|436:213|436:213|411:362,1,170
257,363,271086,2,0,B|283:329|283:329|317:356,1,85,0|8,0:0|2:0,0:0:0:0:
227,275,271282,2,0,B|200:308|200:308|166:281,1,85,0|0,0:0|2:0,0:0:0:0:
74,301,271478,6,0,P|32:258|41:181,1,127.500004863739
82,111,271772,5,2,0:2:0:0:
163,140,271870,1,2,0:2:0:0:
158,227,271968,5,10,0:0:0:0:
134,219,272066,1,2,0:2:0:0:
235,177,272164,5,2,0:0:0:0:
259,168,272262,1,2,0:2:0:0:
227,275,272360,6,0,B|265:264|265:264|394:352,1,191.250007295609,4|0,0:0|0:0,0:0:0:0:
350,143,272655,2,0,B|319:213|319:213|339:227,1,95.6250036478044,6|0,0:1|2:0,0:0:0:0:
468,342,272851,2,0,B|459:308|459:308|405:269,1,95.6250036478044,6|0,0:1|2:0,0:0:0:0:
221,365,273047,6,0,L|401:348,1,170,6|0,0:1|0:0,0:0:0:0:
130,315,273341,2,0,P|89:310|38:303,1,85,8|2,0:2|2:0,0:0:0:0:
167,175,273537,5,8,0:0:0:0:
183,253,273635,1,2,0:0:0:0:
245,197,273733,2,0,P|242:164|240:129,1,63.7500024318696,8|2,0:0|2:0,0:0:0:0:
467,46,273929,6,0,B|329:114|329:114|332:164,1,191.250007295609,4|0,0:0|0:0,0:0:0:0:
346,323,274223,2,0,B|363:299|363:299|358:225,1,95.6250036478044,6|0,0:1|2:0,0:0:0:0:
484,123,274419,2,0,B|410:157|410:157|417:177,1,95.6250036478044,6|0,0:1|2:0,0:0:0:0:
420,361,274615,6,0,B|443:320|443:320|282:365,1,212.5,6|0,0:1|0:0,0:0:0:0:
184,288,274909,1,8,0:0:0:0:
206,366,275008,1,2,0:0:0:0:
204,265,275106,5,8,0:0:0:0:
128,348,275204,1,2,0:0:0:0:
56,328,275302,2,0,P|49:284|31:244,1,85,8|2,0:0|2:0,0:0:0:0:
108,144,275498,5,4,0:0:0:0:
195,133,275596,1,4,0:0:0:0:
113,119,275694,5,4,0:0:0:0:
200,108,275792,2,0,P|202:84|205:61,1,42.5,6|0,0:1|2:0,0:0:0:0:
113,119,275988,2,0,P|111:143|108:166,1,42.5,6|0,0:1|2:0,0:0:0:0:
338,171,276184,2,0,B|256:151|267:214|170:195,1,170,6|0,0:1|0:0,0:0:0:0:
97,287,276478,5,0,0:0:0:0:
107,360,276576,1,0,0:0:0:0:
249,343,276674,6,0,P|252:319|255:300,2,42.5
261,275,276870,5,0,0:0:0:0:
417,317,276968,1,0,0:0:0:0:
417,317,277066,2,0,P|409:272|404:226,1,85,0|0,0:0|2:0,0:0:0:0:
265,52,277262,5,0,0:0:0:0:
279,128,277360,1,0,0:0:0:0:
329,190,277459,5,0,0:0:0:0:
315,266,277557,1,0,0:0:0:0:
238,279,277655,2,0,P|232:241|225:214,1,63.7500024318696,0|0,0:0|2:0,0:0:0:0:
413,59,277851,6,2,P|486:128|456:229,1,212.5,2|0,0:1|0:1,0:1:0:0:
238,279,278145,2,2,P|165:210|195:109,1,212.5,0|0,0:1|0:1,0:1:0:0:
413,59,278635,5,4,0:0:0:0:
95,92,278831,1,8,0:2:0:0:
85,79,278929,2,0,B|178:90,1,85,2|8,0:0|0:0,0:0:0:0:
265,219,279125,2,0,L|296:257,2,42.5,2|0|0,0:1|3:0|0:0,0:0:0:0:
170,89,279321,2,0,B|103:46|103:46|145:127,1,170,2|0,0:1|0:0,0:0:0:0:
148,210,279615,6,0,P|106:216|46:225,1,85,10|2,0:2|0:2,0:2:0:0:
63,222,279811,1,8,0:0:0:0:
10,173,279909,2,0,B|30:136|30:136|72:148,1,85,0|10,0:0|0:2,0:0:0:0:
148,210,280106,1,0,0:0:0:0:
72,301,280204,6,0,B|135:290|135:290|152:254|152:254|225:245,1,170,0|8,0:2|0:2,0:2:0:0:
351,287,280498,2,0,L|401:295,2,42.5,2|0|0,0:1|3:0|0:0,0:0:0:0:
148,210,280694,2,0,B|113:182|113:182|101:134,1,85,2|0,0:0|0:0,0:0:0:0:
330,8,280890,2,0,B|361:87|361:87|300:162,1,170,2|0,0:0|0:0,0:0:0:0:
307,153,281184,5,10,0:2:0:0:
321,172,281282,1,2,0:2:0:0:
255,85,281380,5,8,0:1:0:0:
241,66,281478,1,0,0:2:0:0:
227,148,281576,2,0,L|216:238,1,85,10|2,0:2|0:2,0:0:0:0:
206,310,281772,5,0,0:0:0:0:
280,295,281870,1,0,0:0:0:0:
145,245,281968,5,8,0:2:0:0:
217,233,282066,2,0,B|347:211|347:211|297:248,1,170,2|2,0:0|0:0,0:0:0:0:
48,356,282458,1,2,0:0:0:0:
316,233,282655,2,2,B|336:195|336:195|321:144,1,85,0|10,0:0|0:2,0:0:0:0:
322,73,282851,1,2,0:2:0:0:
313,148,282949,2,2,L|298:330,1,170,8|10,0:0|0:2,0:0:0:0:
299,317,283243,1,2,0:2:0:0:
402,270,283341,6,0,P|414:310|409:354,1,85,6|2,0:2|0:2,0:0:0:0:
207,370,283537,2,0,P|195:330|200:286,1,85,10|2,0:2|0:2,0:0:0:0:
199,287,283733,1,8,0:0:0:0:
232,31,283929,2,0,P|206:76|179:95,1,85,2|2,0:2|0:2,0:0:0:0:
179,94,284125,1,4,0:2:0:0:
127,161,284223,1,0,0:0:0:0:
117,175,284321,6,0,P|114:148|102:85,1,85,8|0,0:2|0:0,0:0:0:0:
372,167,284517,2,2,B|372:134|360:102|360:102|374:80|392:67|392:67|392:28|401:-9,1,170,8|2,0:1|0:1,0:1:0:0:
60,269,284909,6,0,B|88:291|88:291|156:277,1,85,4|0,0:0|0:0,0:0:0:0:
260,109,285106,2,2,B|232:87|232:87|164:101,1,85,8|2,0:2|0:1,0:1:0:0:
172,121,285302,1,8,0:0:0:0:
117,175,285400,2,0,B|56:196|56:196|77:64,1,170,2|2,0:1|0:0,0:0:0:0:
172,121,285694,2,0,B|202:151|202:151|192:197,1,85
270,361,285890,2,0,B|300:331|300:331|290:285,1,85,10|2,0:2|0:2,0:0:0:0:
354,211,286086,6,0,L|257:203,1,85,8|0,0:0|0:0,0:0:0:0:
193,193,286282,1,10,0:2:0:0:
175,191,286380,1,2,0:2:0:0:
179,346,286478,6,0,B|215:313|215:313|193:191,1,170,0|8,0:0|0:2,0:0:0:0:
176,48,286772,2,0,L|72:40,1,85,2|8,0:1|0:0,0:0:0:0:
91,41,286968,1,2,0:1:0:0:
179,346,287164,2,0,B|63:362|63:362|101:319,1,170,2|0,0:1|0:0,0:0:0:0:
282,315,287458,5,10,0:2:0:0:
303,288,287557,1,2,0:2:0:0:
214,269,287655,5,8,0:0:0:0:
187,247,287753,1,0,0:0:0:0:
276,215,287851,5,10,0:2:0:0:
296,188,287949,1,2,0:2:0:0:
213,159,288047,5,0,0:0:0:0:
464,309,288243,2,2,B|426:305|426:305|405:314|405:314|370:312,1,85,8|2,0:2|0:1,0:1:0:0:
80,239,288439,1,8,0:0:0:0:
128,184,288537,2,2,B|175:254|175:254|155:337,2,170,0|6|0,0:1|0:1|0:1,0:1:0:0:
212,177,289027,5,6,0:0:0:0:
243,292,289125,1,0,0:0:0:0:
346,239,289223,1,10,0:0:0:0:
346,239,289321,1,0,0:0:0:0:
346,239,289419,2,0,P|378:246|357:221,1,85,10|2,0:2|0:2,0:0:0:0:
267,218,289615,5,4,0:0:0:0:
243,292,289713,2,0,L|57:278,1,170,4|8,0:0|0:3,0:0:0:0:
73,279,290007,1,4,0:0:0:0:
147,332,290106,2,0,L|153:245,1,85,4|8,0:0|0:3,0:0:0:0:
161,172,290302,1,8,0:3:0:0:
98,124,290400,5,4,0:0:0:0:
153,191,290498,1,4,0:0:0:0:
217,77,290596,5,8,0:3:0:0:
230,170,290694,1,8,0:3:0:0:
333,95,290792,6,0,B|326:149|326:149|333:175|333:175|322:246,1,127.5,4|0,0:3|0:0,0:0:0:0:
335,348,291184,5,4,0:3:0:0:
335,348,291282,1,4,0:3:0:0:
335,348,291380,2,0,P|329:320|323:297,1,42.5,4|6,0:3|0:3,0:0:0:0:
323,286,291576,5,8,0:0:0:0:
459,321,291674,2,2,P|465:278|474:226,1,85,8|2,0:3|0:1,0:1:0:0:
433,77,291870,6,2,P|443:155|366:199,1,170,8|2,0:3|0:1,0:1:0:0:
294,171,292164,1,10,0:2:0:0:
373,199,292262,1,2,0:2:0:0:
316,257,292360,5,8,0:0:0:0:
323,286,292458,1,0,0:0:0:0:
409,262,292557,2,0,P|412:237|414:219,1,42.5,10|2,0:2|0:2,0:0:0:0:
433,77,292753,6,0,B|452:56|452:56|309:81,1,170,0|8,0:0|0:2,0:0:0:0:
136,110,293047,2,2,B|119:134|119:134|111:74,1,85,2|8,0:1|0:1,0:1:0:0:
212,262,293243,2,2,B|229:238|229:238|237:298,1,85,8|0,0:3|0:1,0:1:0:0:
243,133,293439,6,2,B|220:129|220:129|142:229|142:229|121:224,1,170,8|2,0:3|0:1,0:1:0:0:
44,204,293733,1,10,0:2:0:0:
65,281,293831,1,2,0:2:0:0:
37,178,293929,5,8,0:0:0:0:
94,115,294027,2,0,L|101:68,1,42.5,8|8,0:3|0:2,0:0:0:0:
103,52,294223,1,8,0:3:0:0:
265,33,294321,6,0,B|301:44|301:44|164:86,1,170,0|8,0:0|0:2,0:0:0:0:
174,176,294615,2,0,B|164:160|164:160|150:228,1,85,2|8,0:0|0:0,0:0:0:0:
317,246,294811,2,2,B|327:262|327:262|341:194,1,85,8|0,0:3|0:1,0:1:0:0:
174,82,295007,6,2,B|192:257,1,170,8|2,0:3|0:1,0:1:0:0:
205,327,295302,1,2,0:1:0:0:
309,363,295400,1,2,0:2:0:0:
213,368,295498,5,10,0:1:0:0:
314,324,295596,1,2,0:2:0:0:
394,356,295694,2,0,P|402:315|409:285,1,63.7500024318696,10|2,0:2|0:2,0:0:0:0:
425,213,295890,5,2,0:2:0:0:
425,213,295988,1,2,0:2:0:0:
425,213,296086,1,2,0:2:0:0:
353,148,296184,2,0,P|347:102|342:55,1,85,8|8,0:3|0:0,0:0:0:0:
422,5,296380,2,0,P|427:51|433:98,1,85,8|0,0:3|0:3,0:3:0:0:
353,148,296576,2,0,B|271:120|273:179|186:156,1,170,8|0,0:3|0:3,0:0:0:0:
111,129,296870,1,0,0:0:0:0:
97,49,296968,1,0,0:0:0:0:
210,25,297066,5,10,0:1:0:0:
123,86,297164,1,2,0:2:0:0:
224,121,297262,1,2,0:1:0:0:
313,60,297360,1,2,0:2:0:0:
424,112,297458,6,0,P|448:76|446:25,1,85,4|4,0:1|0:0,0:0:0:0:
272,180,297655,2,0,P|267:157|260:134,2,42.5,8|0|8,0:3|0:0|0:3,0:0:0:0:
426,195,297851,6,0,P|475:174|500:134,1,95.6250036478044,4|4,0:1|0:0,0:0:0:0:
243,190,298048,2,0,P|248:166|249:140,2,47.8125018239022,8|0|8,0:3|0:0|0:3,0:0:0:0:
384,269,298243,6,0,P|444:278|494:247,1,106.25,4|4,0:1|0:0,0:0:0:0:
210,190,298439,2,0,P|222:169|236:141,2,53.125,8|0|8,0:3|0:0|0:3,0:0:0:0:
304,326,298635,6,0,P|356:361|417:364,1,116.875001114607,4|4,0:1|0:0,0:0:0:0:
174,182,298831,2,0,P|197:164|216:137,2,58.4375005573034,8|0|8,0:3|0:0|0:3,0:0:0:0:
8,255,299027,5,4,0:2:0:0:
87,249,299125,1,4,0:0:0:0:
138,309,299223,2,0,L|149:378,1,58.4375005573034,8|0,0:3|0:0,0:0:0:0:
167,302,299321,2,0,L|178:371,1,58.4375005573034,8|0,0:3|0:0,0:0:0:0:
233,256,299419,5,4,0:2:0:0:
300,297,299517,1,4,0:0:0:0:
367,256,299615,2,0,L|378:187,1,58.4375005573034,8|0,0:3|0:0,0:0:0:0:
396,263,299713,2,0,L|407:194,1,58.4375005573034,8|0,0:3|0:0,0:0:0:0:
446,194,299811,6,0,P|476:189|510:184,6,58.4375005573034,4|0|0|0|0|0|0,0:0|0:0|0:0|0:0|0:0|0:0|0:0,0:0:0:0:
307,41,300204,2,0,P|277:46|243:51,6,58.4375005573034,4|0|0|0|0|0|0,0:0|0:0|0:0|0:0|0:0|0:0|0:0,0:0:0:0:
228,55,300596,6,0,B|235:134|190:206|86:208|65:117|129:70|188:98|220:132|220:132|258:183|310:215|379:204|398:123|343:100|281:113|257:164|257:164|245:199|240:229,1,682.124979183198,4|0,1:3|2:1,0:1:0:0:
106,247,302164,2,2,B|42:220|27:148|27:148|18:211|65:287|123:303,1,318.324990285492,0|2,2:1|2:1,0:1:0:0:
180,263,302949,2,0,L|186:296,14,22.7374993061066,0|0|0|0|0|0|0|0|0|0|0|0|0|0|0,0:3|0:0|0:0|0:0|0:0|0:0|0:0|0:0|0:0|0:0|0:0|0:0|0:0|0:0|0:0,0:0:0:0:
262,334,303733,6,2,B|367:326|367:326|376:315|376:315|472:304,1,212.5,0|2,1:1|0:1,0:1:0:0:
468,304,304125,2,0,P|471:275|475:235,1,63.7500024318696,0|0,1:0|0:0,0:0:0:0:
198,159,304321,2,0,P|195:188|191:228,1,63.7500024318696,2|0,0:2|0:0,0:0:0:0:
362,203,304517,5,0,1:0:0:0:
337,125,304615,1,2,0:2:0:0:
362,203,304713,2,0,B|398:215|398:215|372:121,1,127.5,2|0,0:2|0:0,0:0:0:0:
355,32,304909,6,2,L|398:41,2,42.5,0|0|2,1:1|0:1|0:1,0:1:0:0:
253,102,305106,2,2,L|296:93,2,42.5,0|0|0,0:1|0:1|0:1,0:1:0:0:
74,29,305302,6,0,P|46:73|57:124,1,106.25,0|0,1:0|0:0,0:0:0:0:
91,130,305498,2,0,P|118:84|107:33,1,106.25,2|0,1:0|0:0,0:0:0:0:
196,55,305694,5,0,1:0:0:0:
181,129,305792,1,2,0:2:0:0:
246,198,305890,1,2,0:2:0:0:
261,124,305988,6,0,B|299:134|299:134|356:256,1,170,0|2,1:0|0:2,0:0:0:0:
163,343,306282,2,0,P|120:333|82:361,1,85,0|0,1:0|0:0,0:0:0:0:
87,354,306478,6,0,B|111:299|181:273|251:307|251:307|229:331|211:357,1,255,0|0,1:0|0:0,0:0:0:0:
33,275,306870,6,0,L|26:229,1,42.5,0|0,1:0|0:0,0:0:0:0:
436,150,307262,6,0,L|427:254,1,85,0|0,1:0|0:0,0:0:0:0:
426,251,307458,1,0,1:0:0:0:
375,82,307655,5,0,1:0:0:0:
367,55,307753,2,0,L|413:64,1,31.8750012159348,2|0,1:3|0:0,0:0:0:0:
297,91,307949,1,2,1:3:0:0:
305,118,308047,2,0,L|259:109,1,31.8750012159348,0|0,1:0|0:0,0:0:0:0:
249,106,308243,2,0,L|203:97,1,31.8750012159348,2|0,1:3|0:0,0:0:0:0:
196,96,308439,5,0,1:0:0:0:
41,39,308635,2,0,L|49:152,1,106.25,2|0,1:1|0:0,0:0:0:0:
143,360,308831,2,0,L|135:247,1,106.25,0|0,1:0|0:0,0:0:0:0:
118,35,309027,2,0,L|126:148,1,106.25,2|0,1:1|0:0,0:0:0:0:
65,368,309223,2,0,L|57:255,1,106.25,0|0,1:0|0:0,0:0:0:0:
53,230,309419,5,0,0:0:0:0:
233,157,309615,1,0,1:0:0:0:
226,194,309713,1,0,1:0:0:0:
295,253,309811,2,0,P|299:275|304:301,1,42.5,0|0,1:0|0:0,0:0:0:0:
302,294,310007,6,2,L|337:70,1,212.5,0|2,1:1|0:1,0:1:0:0:
334,84,310400,2,0,P|372:79|410:71,1,63.7500024318696,0|0,1:0|0:0,0:0:0:0:
212,304,310596,2,0,P|174:309|136:317,1,63.7500024318696,2|0,0:2|0:0,0:0:0:0:
391,245,310792,5,0,1:0:0:0:
403,166,310890,1,2,0:2:0:0:
391,245,310988,2,0,B|491:275|491:275|482:310,1,127.5,2|0,0:2|0:0,0:0:0:0:
410,369,311184,6,2,L|401:321,2,42.5,0|0|2,1:1|0:1|0:1,0:1:0:0:
302,294,311380,2,2,L|311:246,2,42.5,0|0|0,0:1|0:1|0:1,0:1:0:0:
51,343,311576,6,0,P|111:347|153:316,1,106.25,0|0,1:0|0:0,0:0:0:0:
139,277,311772,2,0,P|78:272|36:303,1,106.25,2|0,0:2|0:0,0:0:0:0:
219,348,311968,5,0,1:0:0:0:
269,280,312066,1,2,0:2:0:0:
348,311,312164,1,2,0:2:0:0:
269,280,312262,2,0,B|281:316|281:316|418:353,1,170,0|2,1:0|0:2,0:0:0:0:
499,212,312557,2,0,L|416:230,1,85,0|0,1:0|0:0,0:0:0:0:
415,230,312753,6,0,B|397:142|397:142|378:69|449:56|449:56|461:105,1,255,0|0,1:0|0:0,0:0:0:0:
339,231,313145,6,0,L|329:185,1,42.5,0|0,1:0|0:0,0:0:0:0:
323,236,313537,6,0,L|313:190,1,42.5,0|0,1:0|0:0,0:0:0:0:
343,312,313733,2,0,L|353:358,1,42.5,2|2,0:3|0:3,0:0:0:0:
388,30,313929,6,0,P|366:53|272:47,1,127.5,0|0,1:0|0:0,0:0:0:0:
260,32,314125,1,0,0:0:0:0:
180,170,314223,6,0,P|241:174|286:131,1,127.5,0|0,1:0|0:0,0:0:0:0:
159,97,314517,1,2,1:2:0:0:
104,154,314615,1,2,0:2:0:0:
85,80,314713,6,2,P|81:57|77:36,4,42.5,4|2|2|2|2,1:0|0:2|0:2|0:2|0:2,0:2:0:0:
116,230,315007,6,2,P|120:253|124:274,4,42.5,4|2|2|2|2,1:0|0:2|0:2|0:2|0:2,0:2:0:0:
159,97,315302,6,2,P|155:74|151:53,4,42.5,4|2|2|2|2,1:0|0:2|0:2|0:2|0:2,0:2:0:0:
190,247,315596,6,2,P|194:270|198:291,4,42.5,4|2|2|2|2,1:0|0:2|0:2|0:2|0:2,0:2:0:0:
30,174,315890,6,0,B|182:144|134:268|300:231,1,286.875010943413,8|0,0:1|0:0,0:0:0:0:
298,231,316282,6,2,L|304:186,1,42.5,0|2,1:1|0:1,0:1:0:0:
303,189,316674,6,0,P|340:232|337:284,1,106.25,0|0,1:0|0:0,0:0:0:0:
134,354,316870,2,0,P|97:311|100:259,1,106.25,10|0,0:2|0:0,0:0:0:0:
338,279,317066,5,0,1:0:0:0:
329,306,317164,1,2,0:2:0:0:
249,321,317262,2,0,P|242:282|236:255,1,63.7500024318696,10|0,0:2|0:0,0:0:0:0:
432,348,317458,6,2,P|435:331|439:313,2,31.8750012159348,0|0|2,1:1|0:1|0:1,0:1:0:0:
459,356,317655,2,2,P|462:339|466:321,2,31.8750012159348,8|0|0,0:2|0:1|0:1,0:1:0:0:
468,249,317851,5,0,1:0:0:0:
74,332,318047,1,2,0:2:0:0:
59,252,318243,5,0,1:0:0:0:
93,243,318341,1,2,0:0:0:0:
161,279,318439,1,10,0:2:0:0:
195,270,318537,2,0,L|214:96,1,170,0|2,1:0|0:0,0:0:0:0:
42,38,318831,5,8,1:2:0:0:
297,155,319027,2,0,P|316:60|229:141,1,255,0|0,1:0|0:0,0:0:0:0:
117,145,319419,6,0,L|112:93,1,42.5,0|0,1:0|0:0,0:0:0:0:
470,168,319811,6,0,P|446:200|451:248,1,85,0|0,1:0|0:0,0:0:0:0:
501,303,320007,1,8,1:2:0:0:
492,331,320106,2,0,L|456:340,1,31.8750012159348,2|0,1:3|0:0,0:0:0:0:
367,310,320302,2,0,L|397:302,1,31.8750012159348,2|8,1:3|0:2,0:0:0:0:
492,331,320498,5,0,1:0:0:0:
502,236,320596,2,0,L|314:270,1,191.250007295609,2|0,1:3|0:0,0:0:0:0:
84,305,320988,5,0,1:0:0:0:
113,33,321184,2,0,P|170:45|183:88,1,106.25,2|0,0:1|0:0,0:0:0:0:
94,214,321380,2,0,P|37:202|24:159,1,106.25,0|0,1:0|0:0,0:0:0:0:
183,85,321576,2,0,P|240:97|253:140,1,106.25,2|0,0:1|0:0,0:0:0:0:
164,266,321772,5,2,1:2:0:0:
156,296,321870,1,2,0:2:0:0:
222,345,321968,1,8,0:2:0:0:
61,360,322164,6,0,P|55:331|51:311,1,42.5,0|0,1:0|0:0,0:0:0:0:
246,229,322360,2,0,P|252:258|256:278,1,42.5,8|0,0:2|0:0,0:0:0:0:
52,318,322557,6,2,B|146:326|146:326|158:340|158:340|262:345,1,212.5,0|2,1:1|0:1,0:1:0:0:
480,346,322949,2,0,L|468:282,1,63.7500024318696
392,282,323145,2,0,L|404:346,1,63.7500024318696,0|0,0:2|0:0,0:0:0:0:
428,41,323341,6,0,B|393:199|393:199|338:223,1,212.5,0|0,1:0|0:0,0:0:0:0:
181,18,323635,2,2,B|218:23|218:23|288:137|288:137|332:144,1,212.5,0|2,1:1|0:1,0:1:0:0:
242,317,323929,2,2,L|270:212,1,106.25,0|2,1:1|0:1,0:1:0:0:
174,102,324125,6,0,L|194:137,1,31.8750012159348,0|0,1:0|0:0,0:0:0:0:
128,166,324321,2,0,L|108:131,1,31.8750012159348,0|0,1:0|0:0,0:0:0:0:
86,93,324517,5,2,0:2:0:0:
128,166,324615,1,2,0:2:0:0:
95,239,324713,2,0,B|114:289|114:289|305:354,1,255,0|0,1:0|0:0,0:0:0:0:
442,272,325106,2,0,L|358:299,1,85,4|0,1:0|0:0,0:0:0:0:
509,321,325302,5,4,1:0:0:0:
290,269,325498,2,0,P|284:242|279:223,2,42.5,4|0|0,1:0|0:0|0:0,0:0:0:0:
290,269,325694,6,0,P|314:226|302:179,1,85,0|2,1:0|0:3,0:0:0:0:
240,149,325988,1,0,0:0:0:0:
228,115,326086,5,2,0:3:0:0:
301,94,326184,1,0,0:0:0:0:
375,79,326282,2,0,P|377:52|381:36,2,42.5,0|0|0,1:0|1:0|1:0,1:0:0:0:
460,128,326478,6,0,B|411:198|411:198|444:277,1,170,0|0,1:0|1:0,0:0:0:0:
326,375,326772,2,0,B|375:305|375:305|342:226,1,170,0|0,1:0|0:0,0:0:0:0:
244,338,327066,2,0,L|237:292,2,42.5
172,244,327262,6,0,P|133:242|98:271,1,85,2|0,0:0|0:0,0:0:0:0:
98,269,327557,2,0,L|52:262,1,42.5,2|0,0:0|0:0,0:0:0:0:
95,178,327753,2,0,L|49:185,2,42.5,2|2|0,0:0|0:0|0:0,0:0:0:0:
47,111,328047,2,0,L|36:14,1,85,2|2,0:0|0:0,0:0:0:0:
388,173,328439,5,2,0:1:0:0:
386,100,328537,1,2,0:2:0:0:
328,57,328635,1,2,0:1:0:0:
257,67,328733,1,2,0:2:0:0:
221,129,328831,6,0,P|216:170|243:201,1,85,4|0,0:0|2:0,0:0:0:0:
326,374,329027,2,0,P|351:347|344:296,1,85,2|0,0:3|2:3,0:0:0:0:
328,57,329223,5,8,0:0:0:0:
314,39,329321,2,0,P|310:115|306:191,1,127.500004863739,8|8,0:2|0:2,0:0:0:0:
365,229,329615,5,2,0:2:0:0:
417,163,329713,2,0,P|417:126|403:100,1,63.7500024318696,2|2,0:2|0:1,0:1:0:0:
294,273,329909,1,2,0:2:0:0:
365,229,330007,2,2,B|476:245|476:245|502:300,1,148.750001418591,8|2,0:1|0:1,0:1:0:0:
418,310,330302,1,0,0:0:0:0:
294,273,330400,6,0,P|288:216|308:169,1,85,4|2,0:0|0:3,0:0:0:0:
376,96,330694,1,0,0:0:0:0:
423,39,330792,1,8,0:0:0:0:
376,96,330890,2,0,B|332:130|332:130|207:113,1,170,8|8,0:3|0:3,0:0:0:0:
42,47,331184,1,2,0:2:0:0:
42,47,331282,1,2,0:2:0:0:
42,47,331380,2,0,L|107:56,1,42.5,10|2,0:1|2:2,0:0:0:0:
218,114,331576,5,8,0:0:0:0:
220,41,331674,1,2,0:2:0:0:
152,14,331772,1,2,0:1:0:0:
110,72,331870,1,2,0:2:0:0:
148,133,331968,1,4,0:0:0:0:
197,303,332164,5,2,0:3:0:0:
197,303,332262,1,0,0:0:0:0:
197,303,332360,1,8,0:0:0:0:
264,344,332458,2,0,P|274:294|235:231,1,101.999996887207,8|8,0:2|0:2,0:0:0:0:
87,318,332753,2,0,P|126:314|149:312,1,50.9999984436036,2|2,0:2|2:2,0:0:0:0:
417,315,332949,2,2,P|378:311|355:309,1,50.9999984436036,2|2,0:2|2:1,0:1:0:0:
244,210,333145,1,8,0:0:0:0:
261,133,333243,1,0,0:0:0:0:
263,206,333341,2,2,L|252:378,1,170,0|4,0:1|0:1,0:1:0:0:
393,115,333733,6,0,L|457:122,1,50.9999984436036,2|0,0:3|2:0,0:0:0:0:
459,124,333929,1,8,0:0:0:0:
488,53,334027,2,0,P|455:33|378:41,1,101.999996887207,8|8,0:3|0:3,0:0:0:0:
372,191,334321,1,2,0:2:0:0:
332,225,334419,1,2,0:2:0:0:
280,218,334517,1,10,0:1:0:0:
229,207,334615,1,2,0:2:0:0:
183,149,334713,6,0,P|160:185|156:228,1,74.3750007092953,8|0,0:0|2:0,0:0:0:0:
197,328,334909,2,2,L|190:375,2,42.5,2|2|2,0:1|0:2|0:2,0:2:0:0:
335,159,335106,5,4,0:0:0:0:
347,158,335204,1,4,0:0:0:0:
266,167,335302,2,0,L|164:178,1,85,2|0,0:3|2:0,0:0:0:0:
96,161,335498,5,8,0:0:0:0:
168,188,335596,2,0,B|180:137|180:137|157:86,1,101.999996887207,8|8,0:2|0:2,0:0:0:0:
221,27,335890,5,2,0:2:0:0:
245,21,335988,1,2,0:2:0:0:
310,95,336086,1,2,0:2:0:0:
286,101,336184,2,2,P|228:96|133:90,1,127.500004863739,10|2,0:1|0:1,0:1:0:0:
130,236,336478,1,10,0:1:0:0:
135,273,336576,1,0,0:0:0:0:
71,315,336674,6,0,B|19:241|19:241|102:168,1,170,4|2,0:0|0:3,0:0:0:0:
307,307,337066,1,8,0:0:0:0:
337,240,337164,2,0,P|380:234|412:263,1,85,8|0,0:3|2:0,0:0:0:0:
444,341,337360,2,0,P|489:286|443:184,1,170,8|0,0:3|0:0,0:0:0:0:
463,197,337655,1,0,2:1:0:0:
249,55,337851,5,2,2:0:0:0:
246,91,337949,1,2,2:0:0:0:
256,58,338047,1,2,2:0:0:0:
253,94,338145,1,2,2:0:0:0:
188,144,338243,6,0,B|149:163|149:163|97:149,1,85,4|0,0:0|2:0,0:0:0:0:
108,152,338439,1,2,1:3:0:0:
34,310,338635,1,0,0:0:0:0:
86,259,338733,2,0,L|233:272,1,127.500004863739,8|0,0:2|0:0,0:0:0:0:
292,361,339027,6,0,B|289:319|289:319|301:297|301:297|297:250,1,106.25,4|0,0:0|2:0,0:0:0:0:
297,258,339223,1,2,1:3:0:0:
412,104,339419,1,0,0:0:0:0:
348,68,339517,2,0,B|308:147|308:147|379:216,1,170,8|0,0:2|0:0,0:0:0:0:
484,202,339811,6,0,B|436:182|436:182|456:258,1,127.500004863739,4|0,0:0|0:0,0:0:0:0:
357,341,340007,2,0,B|405:361|405:361|385:285,1,127.500004863739,2|0,0:3|0:0,0:0:0:0:
423,85,340204,5,0,0:0:0:0:
348,68,340302,1,8,0:3:0:0:
271,143,340400,1,0,0:0:0:0:
196,126,340498,2,2,B|147:136|147:136|118:173|118:173|23:190|23:190|73:126,1,255.000009727478,8|2,0:3|0:1,0:1:0:0:
60,141,340792,6,0,L|81:278,1,127.500004863739,6|0,0:0|2:0,0:0:0:0:
314,347,340988,6,0,L|330:221,1,106.25,6|0,0:0|2:0,0:0:0:0:
64,280,341184,6,0,L|153:270,1,85,6|0,0:0|2:0,0:0:0:0:
375,253,341380,6,0,P|328:218|292:228,1,85,4|0,0:0|2:0,0:0:0:0:
175,363,341576,2,0,P|216:361|244:331,1,85,2|0,0:3|2:0,0:0:0:0:
305,221,341772,1,8,0:0:0:0:
293,194,341870,2,0,P|300:132|312:40,1,127.500004863739,8|8,0:2|0:2,0:0:0:0:
422,89,342164,5,2,0:2:0:0:
427,165,342262,2,0,L|501:134,1,63.7500024318696,2|2,0:2|0:2,0:0:0:0:
308,67,342458,1,2,0:2:0:0:
380,29,342557,2,0,B|469:64|469:64|414:94,1,148.750001418591,8|0,0:0|0:2,0:0:0:0:
348,137,342851,1,0,0:2:0:0:
308,67,342949,5,4,0:0:0:0:
271,60,343047,1,0,0:0:0:0:
234,54,343145,1,2,0:3:0:0:
220,88,343243,1,0,0:0:0:0:
208,123,343341,6,0,L|129:143,1,74.3750007092953,8|0,0:0|2:0,0:0:0:0:
135,141,343537,1,8,0:0:0:0:
312,297,343733,5,4,0:0:0:0:
367,176,343831,1,4,0:0:0:0:
452,238,343929,1,4,0:0:0:0:
452,238,344027,1,4,0:0:0:0:
452,238,344125,2,0,P|479:252|472:219,1,74.3750007092953,4|0,0:0|2:0,0:0:0:0:
312,297,344321,2,2,B|277:280|262:316|262:316|242:351|196:332,1,127.500004863739,6|0,0:1|2:1,0:1:0:0:
76,348,344517,6,0,B|21:361|21:361|50:260|50:260|139:293,1,255,4|0,0:0|0:0,0:0:0:0:
201,339,344909,1,8,0:0:0:0:
217,300,345007,1,0,0:0:0:0:
234,259,345106,2,0,L|221:125,1,127.500004863739,0|2,0:0|0:2,0:0:0:0:
136,104,345400,1,2,0:2:0:0:
73,156,345498,1,2,0:2:0:0:
144,105,345596,2,0,L|156:231,1,127.500004863739,8|0,0:0|0:0,0:0:0:0:
80,255,345890,6,0,L|158:231,1,63.7500024318696,8|0,0:0|0:0,0:0:0:0:
381,154,346086,1,4,0:0:0:0:
322,221,346282,5,0,0:0:0:0:
427,101,346380,1,4,0:0:0:0:
350,288,346576,5,0,0:0:0:0:
455,169,346674,1,4,0:0:0:0:
237,22,346870,5,4,0:3:0:0:
227,68,346968,1,4,0:3:0:0:
251,140,347066,5,4,0:3:0:0:
241,186,347164,1,4,0:3:0:0:
171,157,347262,6,2,B|118:161|98:134|98:134|86:166|99:186,1,127.5,4|0,0:3|0:1,0:1:0:0:
125,268,347655,6,0,L|69:290,2,50.9999984436036,4|0|0,0:0|0:0|0:0,0:0:0:0:
214,263,347949,2,0,L|270:241,2,50.9999984436036,8|0|0,0:0|0:0|0:0,0:0:0:0:
176,337,348243,1,8,0:0:0:0:
223,354,348341,1,0,0:0:0:0:
270,372,348439,1,4,0:0:0:0:
306,336,348537,1,4,0:0:0:0:
339,297,348635,1,4,0:0:0:0:
389,298,348733,1,4,0:0:0:0:
461,336,348831,5,10,0:2:0:0:
461,336,348929,1,2,0:2:0:0:
461,336,349027,2,0,P|463:307|456:274,1,50.9999984436036,10|0,0:2|2:0,0:0:0:0:
438,127,349223,6,0,L|453:67,2,50.9999984436036,4|0|0,0:0|0:0|0:0,0:0:0:0:
366,187,349517,2,0,L|351:247,2,50.9999984436036,8|0|0,0:0|0:0|0:0,0:0:0:0:
355,71,349811,2,0,L|370:11,2,50.9999984436036,8|0|0,0:0|0:0|0:0,0:0:0:0:
291,160,350106,1,4,0:0:0:0:
279,106,350204,1,4,0:0:0:0:
268,51,350302,1,4,0:0:0:0:
208,139,350400,5,2,0:2:0:0:
170,106,350498,2,0,P|91:111|43:112,1,127.500004863739,10|8,0:2|0:2,0:0:0:0:
42,112,350792,1,0,0:2:0:0:
104,335,350988,6,0,L|92:289,2,42.5
104,335,351184,2,0,L|220:328,1,85,4|0,0:2|0:0,0:0:0:0:
301,245,351380,6,0,L|313:199,2,42.5
301,245,351576,2,0,L|186:251,1,106.25,4|0,0:2|0:0,0:0:0:0:
99,175,351772,6,0,L|87:129,2,42.5
99,175,351968,2,0,L|234:168,1,127.500004863739,4|0,0:2|0:0,0:0:0:0:
291,99,352164,6,0,L|299:53,2,42.5
241,167,352360,2,0,B|229:213|229:213|251:255,1,85,4|0,0:2|0:0,0:0:0:0:
401,128,352557,2,0,B|413:82|413:82|391:40,1,85
255,262,352753,5,0,0:0:0:0:
317,204,352851,1,0,0:0:0:0:
400,221,352949,1,0,0:0:0:0:
430,300,353047,2,0,L|487:313,4,42.5,2|0|0|0|0,0:1|0:0|0:0|0:0|0:0,0:0:0:0:
364,172,353341,6,0,L|316:181,2,42.5,2|0|0,0:1|0:0|0:0,0:0:0:0:
312,103,353537,2,0,L|254:104,2,42.5,2|0|0,0:1|0:0|0:0,0:0:0:0:
285,29,353733,2,0,L|234:15,2,42.5,2|0|0,0:1|0:0|0:0,0:0:0:0:
451,169,353929,5,4,0:0:0:0:
256,304,354517,5,0,0:0:0:0:
62,174,355106,1,2,0:2:0:0:
44,68,355302,2,0,B|87:19|157:33|175:90|160:138|160:138|149:187|176:250|245:245|277:208,1,382.500014591218,2|0,0:2|2:0,0:0:0:0:
328,35,356870,5,0,0:0:0:0:
259,332,357458,1,2,0:2:0:0:
333,292,357655,2,0,P|342:215|192:305,1,382.500014591218,2|0,0:2|2:0,0:0:0:0:
256,192,359027,12,0,360596,0:0:0:0:
39,266,360988,6,0,L|167:283,1,127.500004863739,4|0,0:0|2:0,0:0:0:0:
468,72,361576,2,0,B|412:38|412:38|353:74,1,127.500004863739,4|0,0:0|2:0,0:0:0:0:
198,113,362164,5,0,0:0:0:0:
276,234,362360,2,0,B|229:255|229:255|245:172|245:172|276:155|276:155|253:48|253:48|192:82|192:82|199:117,1,382.500014591218,4|0,1:0|2:0,2:0:0:0:
276,234,363635,6,0,B|308:324|266:284|294:363,1,127.500004863739,0|0,1:0|2:0,2:0:0:0:
195,229,364125,6,0,P|260:202|367:218,1,170,4|0,0:0|2:0,0:0:0:0:
256,192,365106,12,4,371772,3:1:0:0:
