osu file format v14

[General]
AudioFilename: audio.mp3
AudioLeadIn: 0
PreviewTime: 284763
Countdown: 0
SampleSet: Normal
StackLeniency: 0.7
Mode: 1
LetterboxInBreaks: 0
WidescreenStoryboard: 0

[Editor]
Bookmarks: 65844,91790,117736,143682,169628,195574,221520,286385,364223
DistanceSpacing: 1
BeatDivisor: 8
GridSize: 32
TimelineZoom: 2.6

[Metadata]
Title:Hi-technology Droppers
TitleUnicode:Hi-technology Droppers
Artist:Camellia
ArtistUnicode:かめりあ
Creator:Faputa
Version:T3CHN0 3XTR3M3
Source:
Tags:Featured Artist FA Comiket 92 C92 UHO3 MRX-017 O3 MEGAREX Techno Extreme Overkill Hi-Tech Fullon Ultra Hitech 03 かめるかめりあ Kamel cametek 大箭将也 masaya oya kamelcamellia drumstep dubstep trance Curiossity
BeatmapID:1851472
BeatmapSetID:885882

[Difficulty]
HPDrainRate:5
CircleSize:2
OverallDifficulty:6.5
ApproachRate:10
SliderMultiplier:1.6
SliderTickRate:1

[Events]
//Background and Video events
0,0,"BG.jpg",0,0
//Break Periods
2,117966,123803
//Storyboard Layer 0 (Background)
//Storyboard Layer 1 (Fail)
//Storyboard Layer 2 (Pass)
//Storyboard Layer 3 (Foreground)
//Storyboard Sound Samples

[TimingPoints]
1010,405.405405405405,4,1,0,5,1,0
1010,-250,4,1,0,5,0,0
3847,-222.222222222222,4,1,0,10,0,0
5469,-200,4,1,0,20,0,0
7091,-181.818181818182,4,1,0,30,0,0
8712,-166.666666666667,4,1,0,40,0,0
10334,-153.846153846154,4,1,0,50,0,0
11955,-142.857142857143,4,1,0,60,0,0
13577,-133.333333333333,4,1,0,70,0,0
13982,-133.333333333333,4,1,0,80,0,0
39523,-125,4,1,0,80,0,0
39928,-117.647058823529,4,1,0,80,0,0
40334,-116.279069767442,4,1,0,80,0,0
41550,-114.942528735632,4,1,0,80,0,0
43982,-113.636363636364,4,1,0,80,0,0
44591,-112.359550561798,4,1,0,80,0,0
46314,-111.111111111111,4,1,0,80,0,0
47023,-109.89010989011,4,1,0,80,0,0
47834,-108.695652173913,4,1,0,80,0,0
48847,-107.52688172043,4,1,0,80,0,0
49455,-106.382978723404,4,1,0,80,0,0
50469,-105.263157894737,4,1,0,80,0,0
51280,-104.166666666667,4,1,0,80,0,0
52091,-103.092783505155,4,1,0,80,0,0
52800,-102.040816326531,4,1,0,80,0,0
56145,-101.010101010101,4,1,0,80,0,0
59388,-100,4,1,0,80,0,0
59591,-99.009900990099,4,1,0,80,0,0
59692,-98.6066875055466,4,1,0,80,0,0
59793,-98.206648393683,4,1,0,80,0,0
59895,-97.8099376852887,4,1,0,80,0,0
59996,-97.4163242482869,4,1,0,80,0,0
60097,-97.0259602659288,4,1,0,80,0,0
60199,-96.6386189181693,4,1,0,80,0,0
60300,-96.254450565158,4,1,0,80,0,0
60401,-95.8733244938128,4,1,0,80,0,0
60503,-95.4951135150414,4,1,0,80,0,0
60604,-95.1199653002367,4,1,0,80,0,0
60705,-94.7476632857542,4,1,0,80,0,0
60807,-94.3783533808686,4,1,0,80,0,0
60908,-94.0118229268513,4,1,0,80,0,0
61009,-93.6482160951316,4,1,0,80,0,0
61111,-93.2873240251241,4,1,0,80,0,0
61212,-92.9292891745742,4,1,0,80,0,0
61314,-92.5739920775178,4,1,0,80,0,0
61415,-92.2213164039589,4,1,0,80,0,0
61516,-91.8714020862158,4,1,0,80,0,0
61618,-91.5240493168187,4,1,0,80,0,0
61719,-91.1793963741601,4,1,0,80,0,0
61820,-90.8372469047208,4,1,0,80,0,0
61922,-90.4977375565611,4,1,0,80,0,0
62023,-90.1607566290696,4,1,0,80,0,0
62124,-89.8261952947242,4,1,0,80,0,0
62226,-89.4941877999733,4,1,0,80,0,0
62327,-89.1645460365468,4,1,0,80,0,0
62428,-88.8374026786254,4,1,0,80,0,0
62530,-88.5125727683989,4,1,0,80,0,0
62631,-88.1901874306053,4,1,0,80,0,0
62699,-87.9765137898787,4,1,0,80,0,0
62766,-87.7639500798652,4,1,0,80,0,0
62834,-87.5523344078923,4,1,0,80,0,0
62935,-87.2368935291162,4,1,0,80,0,0
63037,-86.9236419267494,4,1,0,80,0,0
63104,-86.7161295469602,4,1,0,80,0,0
63172,-86.5095307550033,4,1,0,80,0,0
63239,-86.3039140551102,4,1,0,80,0,0
63341,-85.9973891192663,4,1,0,80,0,0
63442,-85.6929604089954,4,1,0,80,0,0
63509,-85.4912756153235,4,1,0,80,0,0
63577,-85.2904652083134,4,1,0,80,0,0
63645,-85.0906683616728,4,1,0,80,0,0
63746,-84.7926142241306,4,1,0,80,0,0
63847,-84.496712232927,4,1,0,80,0,0
63915,-84.3005415466789,4,1,0,80,0,0
63982,-84.1052796248232,4,1,0,80,0,0
64050,-83.9109905776349,4,1,0,80,0,0
64151,-83.6211293869735,4,1,0,80,0,0
64253,-83.3333333333333,4,1,0,80,0,0
65874,-66.6666666666667,4,1,0,80,0,0
65976,-100,4,1,0,80,0,0
72361,-66.6666666666667,4,1,0,80,0,0
72462,-100,4,1,0,80,0,0
77226,-90.9090909090909,4,1,0,80,0,0
78037,-83.3333333333333,4,1,0,80,0,0
78341,-76.9230769230769,4,1,0,80,0,0
78645,-71.4285714285714,4,1,0,80,0,0
78847,-66.6666666666667,4,1,0,80,0,0
78949,-100,4,1,0,80,0,0
85131,-90.9090909090909,4,1,0,80,0,0
85232,-76.9230769230769,4,1,0,80,0,0
85334,-66.6666666666667,4,1,0,80,0,0
85435,-100,4,1,0,80,0,0
88577,-99.009900990099,4,1,0,80,0,0
88645,-98.0392156862745,4,1,0,80,0,0
88712,-97.0873786407767,4,1,0,80,0,0
88780,-96.1538461538461,4,1,0,80,0,0
88881,-95.2380952380952,4,1,0,80,0,0
89185,-90.9090909090909,4,1,0,80,0,0
89489,-86.9565217391304,4,1,0,80,0,0
89793,-83.3333333333333,4,1,0,80,0,0
89996,-86.9565217391304,4,1,0,80,0,0
90199,-90.9090909090909,4,1,0,80,0,0
91415,-100,4,1,0,80,0,0
91618,-66.6666666666667,4,1,0,80,0,0
91922,-100,4,1,0,80,0,0
102564,-99.009900990099,4,1,0,80,0,0
102665,-97.8792502840945,4,1,0,80,0,0
102766,-96.774224765879,4,1,0,80,0,0
102868,-95.6937799043062,4,1,0,80,0,0
102969,-94.6371941207589,4,1,0,80,0,0
103070,-93.6037733553115,4,1,0,80,0,0
103172,-92.5925925925926,4,1,0,80,0,0
103374,-90.6344684696279,4,1,0,80,0,0
103476,-89.6860986547085,4,1,0,80,0,0
103577,-88.7573701901272,4,1,0,80,0,0
103678,-87.8477563243796,4,1,0,80,0,0
103780,-86.9565217391304,4,1,0,80,0,0
103982,-90.9090909090909,4,1,0,80,0,0
104084,-92.9936708507619,4,1,0,80,0,0
104185,-95.1760042258146,4,1,0,80,0,0
104287,-97.463322115305,4,1,0,80,0,0
104388,-99.8631874332165,4,1,0,80,0,0
104591,-105.035948553392,4,1,0,80,0,0
104793,-66.6666666666667,4,1,0,80,0,0
104895,-100,4,1,0,80,0,0
109658,-99.009900990099,4,1,0,80,0,0
109759,-97.3406533504653,4,1,0,80,0,0
109861,-95.7268491794773,4,1,0,80,0,0
109962,-94.1655939636088,4,1,0,80,0,0
110064,-92.6545338643056,4,1,0,80,0,0
110165,-91.191120173482,4,1,0,80,0,0
110266,-89.7732149045082,4,1,0,80,0,0
110368,-88.3988059089298,4,1,0,80,0,0
110469,-87.0657703535828,4,1,0,80,0,0
110672,-66.6666666666667,4,1,0,80,0,0
111685,-100,4,1,0,80,0,0
116145,-100,4,1,0,80,0,0
116280,-102.127624807617,4,1,0,80,0,0
116415,-104.347862381865,4,1,0,80,0,0
116550,-106.666666666667,4,1,0,80,0,0
116685,-109.090869421502,4,1,0,80,0,0
116820,-111.627948512725,4,1,0,80,0,0
116955,-114.285714285714,4,1,0,80,0,0
117023,-115.662695195256,4,1,0,80,0,0
117091,-117.073125044634,4,1,0,80,0,0
117158,-118.518518518519,4,1,0,80,0,0
117259,-120.754716981132,4,1,0,80,0,0
117361,-123.076923076923,4,1,0,80,0,0
117428,-124.675376488468,4,1,0,80,0,0
117496,-126.315736288111,4,1,0,80,0,0
117564,-128,4,1,0,80,0,0
117766,-133.333333333333,4,1,0,80,0,0
125874,-114.942528735632,4,1,0,80,0,0
127496,-114.942528735632,4,1,0,80,0,0
127699,-113.879003558719,4,1,0,80,0,0
127901,-112.834978843441,4,1,0,80,0,0
128104,-111.809923130678,4,1,0,80,0,0
128205,-111.304285882832,4,1,0,80,0,0
128408,-110.30685159978,4,1,0,80,0,0
128509,-109.814687714482,4,1,0,80,0,0
128611,-109.326896165687,4,1,0,80,0,0
128814,-108.36443392587,4,1,0,80,0,0
128915,-107.889413351315,4,1,0,80,0,0
129016,-107.418539150835,4,1,0,80,0,0
129118,-106.951871657754,4,1,0,80,0,0
129320,-106.030483764082,4,1,0,80,0,0
129624,-104.67784346894,4,1,0,80,0,0
129726,-104.234527687296,4,1,0,80,0,0
129827,-103.794950998404,4,1,0,80,0,0
129928,-103.359173126615,4,1,0,80,0,0
130131,-102.498398462524,4,1,0,80,0,0
130334,-101.651842439644,4,1,0,80,0,0
130435,-101.23383801776,4,1,0,80,0,0
130537,-100.819155639572,4,1,0,80,0,0
130638,-100.40795753145,4,1,0,80,0,0
130739,-100,4,1,0,80,0,0
137226,-100,4,1,0,80,0,0
137327,-99.5763028314522,4,1,0,80,0,0
137428,-99.1560825811518,4,1,0,80,0,0
137530,-98.7394916496012,4,1,0,80,0,0
137631,-98.3263865741219,4,1,0,80,0,0
137732,-97.9166279080015,4,1,0,80,0,0
137834,-97.5103653518369,4,1,0,80,0,0
137935,-97.1074600864062,4,1,0,80,0,0
138037,-96.70777714273,4,1,0,80,0,0
138138,-96.3114635682627,4,1,0,80,0,0
138239,-95.9183849646013,4,1,0,80,0,0
138341,-95.5284106269625,4,1,0,80,0,0
138442,-95.141684997298,4,1,0,80,0,0
138543,-94.7580778892449,4,1,0,80,0,0
138645,-94.377551733055,4,1,0,80,0,0
138746,-93.9999812000038,4,1,0,80,0,0
138847,-93.6255073332179,4,1,0,80,0,0
138949,-93.2540052595259,4,1,0,80,0,0
139050,-92.8853534659241,4,1,0,80,0,0
139151,-92.5196905031313,4,1,0,80,0,0
139253,-92.1568952710611,4,1,0,80,0,0
139354,-91.7968498992989,4,1,0,80,0,0
139455,-91.4396904949356,4,1,0,80,0,0
139557,-91.0852995613332,4,1,0,80,0,0
139658,-90.7335627077799,4,1,0,80,0,0
139759,-90.3846136464498,4,1,0,80,0,0
139861,-90.0383383244586,4,1,0,80,0,0
139962,-89.6946256774187,4,1,0,80,0,0
140064,-89.3536070710871,4,1,0,80,0,0
140165,-89.0151717458724,4,1,0,80,0,0
140266,-88.6792118191653,4,1,0,80,0,0
140368,-88.3458563584721,4,1,0,80,0,0
140469,-88.0149977556176,4,1,0,80,0,0
140537,-87.7957729847139,4,1,0,80,0,0
140604,-87.5776375757109,4,1,0,80,0,0
140672,-87.3605834289204,4,1,0,80,0,0
140773,-87.0370499314148,4,1,0,80,0,0
140874,-86.7159039569334,4,1,0,80,0,0
140942,-86.503095080742,4,1,0,80,0,0
141009,-86.2913281529773,4,1,0,80,0,0
141077,-86.0805955399922,4,1,0,80,0,0
141178,-85.7664562243719,4,1,0,80,0,0
141280,-85.4545283636398,4,1,0,80,0,0
141347,-85.247858147564,4,1,0,80,0,0
141415,-85.0421851759565,4,1,0,80,0,0
141482,-84.8375742222728,4,1,0,80,0,0
141584,-84.5323543359603,4,1,0,80,0,0
141685,-84.2293936999783,4,1,0,80,0,0
141753,-84.0285999742872,4,1,0,80,0,0
141820,-83.8287613126913,4,1,0,80,0,0
141888,-83.6298709172942,4,1,0,80,0,0
141989,-83.3333333333333,4,1,0,80,0,0
142091,-66.6666666666667,4,1,0,80,0,0
143712,-66.6666666666667,4,1,0,90,0,1
143915,-100,4,1,0,90,0,1
146955,-66.6666666666667,4,1,0,90,0,1
147158,-100,4,1,0,90,0,1
150199,-66.6666666666667,4,1,0,90,0,1
150401,-100,4,1,0,90,0,1
153442,-66.6666666666667,4,1,0,90,0,1
153645,-100,4,1,0,90,0,1
156685,-66.6666666666667,4,1,0,90,0,1
156888,-100,4,1,0,90,0,1
159928,-66.6666666666667,4,1,0,90,0,1
160131,-100,4,1,0,90,0,1
163172,-66.6666666666667,4,1,0,90,0,1
163374,-105.263157894737,4,1,0,90,0,1
163476,-104.665463013842,4,1,0,90,0,1
163577,-104.074517354426,4,1,0,90,0,1
163678,-103.49020723914,4,1,0,90,0,1
163780,-102.912421529279,4,1,0,90,0,1
163881,-102.341051554305,4,1,0,90,0,1
163982,-101.775991043713,4,1,0,90,0,1
164084,-101.217136061135,4,1,0,90,0,1
164185,-100.664384940608,4,1,0,90,0,1
164287,-100.117638224914,4,1,0,90,0,1
164388,-99.5767986059248,4,1,0,90,0,1
164489,-99.0417708668631,4,1,0,90,0,1
164591,-98.512558873568,4,1,0,90,0,1
164692,-97.9888763027621,4,1,0,90,0,1
164793,-97.4707319759559,4,1,0,90,0,1
164895,-96.9580385000979,4,1,0,90,0,1
164996,-96.4507103112561,4,1,0,90,0,1
165097,-95.948663627013,4,1,0,90,0,1
165199,-95.4518164003402,4,1,0,90,0,1
165300,-94.9600882748981,4,1,0,90,0,1
165401,-94.4734005417105,4,1,0,90,0,1
165503,-93.9916760971648,4,1,0,90,0,1
165604,-93.5148394022905,4,1,0,90,0,1
165705,-93.0428164432709,4,1,0,90,0,1
165807,-92.5755346931445,4,1,0,90,0,1
165908,-92.1129230746557,4,1,0,90,0,1
166009,-91.6549119242124,4,1,0,90,0,1
166212,-90.7524192326157,4,1,0,90,0,1
166415,-89.8675262795114,4,1,0,90,0,1
166482,-89.5764378137975,4,1,0,90,0,1
166550,-89.2871492577559,4,1,0,90,0,1
166618,-88.9997232108608,4,1,0,90,0,1
166719,-88.5720764129018,4,1,0,90,0,1
166820,-88.1485973795185,4,1,0,90,0,1
166888,-87.8684433665915,4,1,0,90,0,1
166955,-87.5900644838055,4,1,0,90,0,1
167023,-87.313520149341,4,1,0,90,0,1
167124,-86.9018869006703,4,1,0,90,0,1
167226,-86.4941166701841,4,1,0,90,0,1
167293,-86.2243644186538,4,1,0,90,0,1
167361,-85.9562895076596,4,1,0,90,0,1
167428,-85.6899497685514,4,1,0,90,0,1
167530,-85.2934478426302,4,1,0,90,0,1
167631,-84.9005983794174,4,1,0,90,0,1
167699,-84.6406791568096,4,1,0,90,0,1
167766,-84.3824177419096,4,1,0,90,0,1
167834,-84.1256568110656,4,1,0,90,0,1
167935,-83.7434669627836,4,1,0,90,0,1
168037,-83.3333333333333,4,1,0,80,0,0
168239,-90.9090909090909,4,1,0,80,0,0
168341,-92.5925925925926,4,1,0,80,0,0
168442,-94.3396226415094,4,1,0,80,0,0
168543,-96.1538461538461,4,1,0,80,0,0
168645,-98.0392156862745,4,1,0,80,0,0
168847,-100,4,1,0,80,0,0
169050,-96.1538461538461,4,1,0,80,0,0
169151,-92.5925925925926,4,1,0,80,0,0
169253,-89.2857142857143,4,1,0,80,0,0
169354,-86.2068965517241,4,1,0,80,0,0
169455,-83.3333333333333,4,1,0,80,0,0
169523,-76.9230769230769,4,1,0,80,0,0
169591,-71.4285714285714,4,1,0,80,0,0
169658,-66.6666666666667,4,1,0,90,0,1
169861,-95.2380952380952,4,1,0,90,0,1
176145,-66.6666666666667,4,1,0,90,0,1
176347,-95.2380952380952,4,1,0,90,0,1
182631,-66.6666666666667,4,1,0,90,0,1
182834,-95.2380952380952,4,1,0,90,0,1
189118,-66.6666666666667,4,1,0,90,0,1
189320,-105.263157894737,4,1,0,90,0,1
189388,-104.652866442012,4,1,0,90,0,1
189455,-104.049610854455,4,1,0,90,0,1
189523,-103.45327015787,4,1,0,90,0,1
189624,-102.571361460452,4,1,0,90,0,1
189726,-101.704465131133,4,1,0,90,0,1
189827,-100.852099387727,4,1,0,90,0,1
189928,-100.013901932369,4,1,0,90,0,1
190030,-99.1894240268525,4,1,0,90,0,1
190131,-98.3785251485024,4,1,0,90,0,1
190232,-97.5807773675048,4,1,0,90,0,1
190334,-96.7958633319846,4,1,0,90,0,1
190435,-96.0233836143778,4,1,0,90,0,1
190537,-95.2632265845371,4,1,0,90,0,1
190638,-94.5150104013769,4,1,0,90,0,1
190739,-93.7784559002122,4,1,0,90,0,1
190807,-93.293677300902,4,1,0,90,0,1
190874,-92.813971101442,4,1,0,90,0,1
190942,-92.3391728626252,4,1,0,90,0,1
191043,-91.6360144198432,4,1,0,90,0,1
191145,-90.9434840812525,4,1,0,90,0,1
191212,-90.4875014138672,4,1,0,90,0,1
191280,-90.0361495140299,4,1,0,90,0,1
191347,-89.5892779552143,4,1,0,90,0,1
191449,-88.9272264042721,4,1,0,90,0,1
191550,-88.2748880012359,4,1,0,90,0,1
191618,-87.8452097128691,4,1,0,90,0,1
191685,-87.4197705056185,4,1,0,90,0,1
191753,-86.9984322882502,4,1,0,90,0,1
191854,-86.3739855375399,4,1,0,90,0,1
191955,-85.7584390591956,4,1,0,90,0,1
192023,-85.3528529617867,4,1,0,90,0,1
192091,-84.9511573320919,4,1,0,90,0,1
192158,-84.5532249868308,4,1,0,90,0,1
192259,-83.9632677496249,4,1,0,90,0,1
192361,-83.3333333333333,4,1,0,80,0,0
193982,-90.9090909090909,4,1,0,80,0,0
195199,-100,4,1,0,80,0,0
206955,-101.010101010101,4,1,0,80,0,0
207361,-103.092783505155,4,1,0,80,0,0
207766,-105.263157894737,4,1,0,80,0,0
208172,-107.52688172043,4,1,0,80,0,0
208577,-109.89010989011,4,1,0,80,0,0
208982,-112.359550561798,4,1,0,80,0,0
209185,-113.636363636364,4,1,0,80,0,0
209591,-116.279069767442,4,1,0,80,0,0
209793,-117.647058823529,4,1,0,80,0,0
210199,-120.481927710843,4,1,0,80,0,0
210604,-123.456790123457,4,1,0,80,0,0
211009,-126.582278481013,4,1,0,80,0,0
211415,-129.87012987013,4,1,0,80,0,0
211820,-133.333333333333,4,1,0,80,0,0
213442,-136.986301369863,4,1,0,80,0,0
215064,-142.857142857143,4,1,0,80,0,0
216685,-153.846153846154,4,1,0,80,0,0
218307,-166.666666666667,4,1,0,80,0,0
219928,-181.818181818182,4,1,0,80,0,0
221550,-200,4,1,0,80,0,0
222158,-196.078431372549,4,1,0,80,0,0
222766,-192.307692307692,4,1,0,80,0,0
224793,-188.679245283019,4,1,0,80,0,0
225401,-185.185185185185,4,1,0,80,0,0
226009,-181.818181818182,4,1,0,80,0,0
227226,-178.571428571429,4,1,0,80,0,0
227631,-175.438596491228,4,1,0,80,0,0
228037,-172.413793103448,4,1,0,80,0,0
228645,-169.491525423729,4,1,0,80,0,0
229253,-166.666666666667,4,1,0,80,0,0
231280,-163.934426229508,4,1,0,80,0,0
231888,-161.290322580645,4,1,0,80,0,0
232496,-158.730158730159,4,1,0,80,0,0
233712,-156.25,4,1,0,80,0,0
234118,-153.846153846154,4,1,0,80,0,0
234523,-151.515151515152,4,1,0,80,0,0
235131,-149.253731343284,4,1,0,80,0,0
235739,-147.058823529412,4,1,0,80,0,0
236955,-144.927536231884,4,1,0,80,0,0
237766,-142.857142857143,4,1,0,80,0,0
238374,-140.845070422535,4,1,0,80,0,0
238982,-138.888888888889,4,1,0,80,0,0
240199,-136.986301369863,4,1,0,80,0,0
240604,-135.135135135135,4,1,0,80,0,0
241009,-133.333333333333,4,1,0,80,0,0
241618,-131.578947368421,4,1,0,80,0,0
242226,-129.87012987013,4,1,0,80,0,0
243442,-128.205128205128,4,1,0,80,0,0
244253,-126.582278481013,4,1,0,80,0,0
244861,-125,4,1,0,80,0,0
245469,-123.456790123457,4,1,0,80,0,0
246685,-121.951219512195,4,1,0,80,0,0
247091,-120.481927710843,4,1,0,80,0,0
247293,-119.047619047619,4,1,0,80,0,0
248104,-117.647058823529,4,1,0,80,0,0
248509,-116.279069767442,4,1,0,80,0,0
248712,-114.942528735632,4,1,0,80,0,0
248915,-113.636363636364,4,1,0,80,0,0
249523,-112.359550561798,4,1,0,80,0,0
249928,-111.111111111111,4,1,0,80,0,0
250131,-109.89010989011,4,1,0,80,0,0
250739,-108.695652173913,4,1,0,80,0,0
251145,-107.52688172043,4,1,0,80,0,0
251347,-106.382978723404,4,1,0,80,0,0
251753,-105.263157894737,4,1,0,80,0,0
251955,-104.166666666667,4,1,0,80,0,0
252158,-103.092783505155,4,1,0,80,0,0
252766,-102.040816326531,4,1,0,80,0,0
252969,-101.010101010101,4,1,0,80,0,0
253172,-100,4,1,0,80,0,0
260469,-99.009900990099,4,1,0,80,0,0
263712,-98.0392156862745,4,1,0,80,0,0
266955,-97.0873786407767,4,1,0,80,0,0
270199,-96.1538461538461,4,1,0,80,0,0
273442,-95.2380952380952,4,1,0,80,0,0
275064,-94.3396226415094,4,1,0,80,0,0
276685,-93.4579439252336,4,1,0,80,0,0
278307,-92.5925925925926,4,1,0,80,0,0
279928,-91.743119266055,4,1,0,80,0,0
283982,-92.5925925925926,4,1,0,80,0,0
284084,-93.4579439252336,4,1,0,80,0,0
284185,-94.3396226415094,4,1,0,80,0,0
284287,-95.2380952380952,4,1,0,80,0,0
284388,-96.1538461538461,4,1,0,80,0,0
284489,-97.0873786407767,4,1,0,80,0,0
284591,-98.0392156862745,4,1,0,80,0,0
284692,-99.009900990099,4,1,0,80,0,0
284793,-100,4,1,0,80,0,0
284996,-105.263157894737,4,1,0,80,0,0
285097,-104.166666666667,4,1,0,80,0,0
285199,-103.092783505155,4,1,0,80,0,0
285300,-102.040816326531,4,1,0,80,0,0
285401,-101.010101010101,4,1,0,80,0,0
285503,-100,4,1,0,80,0,0
285604,-99.009900990099,4,1,0,80,0,0
285705,-98.0392156862745,4,1,0,80,0,0
285807,-97.0873786407767,4,1,0,80,0,0
285908,-96.1538461538461,4,1,0,80,0,0
286009,-95.2380952380952,4,1,0,80,0,0
286212,-93.4579439252336,4,1,0,80,0,0
286415,-91.743119266055,4,1,0,80,0,1
306077,-105.263157894737,4,1,0,80,0,1
306178,-104.545426033066,4,1,0,80,0,1
306280,-103.837523350463,4,1,0,80,0,1
306381,-103.139036578259,4,1,0,80,0,1
306482,-102.449884077956,4,1,0,80,0,1
306584,-101.769879982781,4,1,0,80,0,1
306685,-101.098945537998,4,1,0,80,0,1
306787,-100.436698766236,4,1,0,80,0,1
306888,-99.7830716023365,4,1,0,80,0,1
306989,-99.1378968490011,4,1,0,80,0,1
307091,-98.5011086299776,4,1,0,80,0,1
307192,-97.8723529198748,4,1,0,80,0,1
307293,-97.2515732873268,4,1,0,80,0,1
307395,-96.6386189181693,4,1,0,80,0,1
307496,-96.0334350007299,4,1,0,80,0,1
307597,-95.4356925672774,4,1,0,80,0,1
307699,-94.8453451801492,4,1,0,80,0,1
307800,-94.2622564498949,4,1,0,80,0,1
307901,-93.6863810918398,4,1,0,80,0,1
308003,-93.1174126768183,4,1,0,80,0,1
308104,-92.5553133691522,4,1,0,80,0,1
308205,-91.9999595200178,4,1,0,80,0,1
308307,-91.4513140639318,4,1,0,80,0,1
308408,-90.9090909090909,4,1,0,80,0,1
308509,-90.3732596369525,4,1,0,80,0,1
308611,-89.8437886047529,4,1,0,80,0,1
308712,-89.3204056932827,4,1,0,80,0,1
308814,-88.8030853743983,4,1,0,80,0,1
308915,-88.2917229158518,4,1,0,80,0,1
309016,-87.7862930482035,4,1,0,80,0,1
309118,-87.2865407645603,4,1,0,80,0,1
309185,-86.9565217391304,4,1,0,80,0,1
309253,-86.6289888317908,4,1,0,80,0,1
309320,-86.3039140551102,4,1,0,80,0,1
309422,-85.8209243428477,4,1,0,80,0,1
309523,-85.3432377005459,4,1,0,80,0,1
309591,-85.0277232891784,4,1,0,80,0,1
309658,-84.7145332017434,4,1,0,80,0,1
309726,-84.4036418483385,4,1,0,80,0,1
309827,-83.9416303479213,4,1,0,80,0,1
309928,-83.4845795633089,4,1,0,80,0,1
309996,-83.1826341278384,4,1,0,80,0,1
310064,-82.8828649622634,4,1,0,80,0,1
310131,-82.585248622891,4,1,0,80,0,1
310232,-82.1428776785766,4,1,0,80,0,1
310334,-81.7051538794016,4,1,0,80,0,1
310401,-81.4159205576014,4,1,0,80,0,1
310469,-81.1287277636298,4,1,0,80,0,1
310537,-80.8435539796452,4,1,0,80,0,1
310638,-80.4195972908246,4,1,0,80,0,1
310739,-80,4,1,0,80,0,1
311550,-80,4,1,0,80,0,0
312158,-100,4,1,0,80,0,0
312361,-95.2380952380952,4,1,0,90,0,1
318037,-95.2380952380952,4,1,0,80,0,0
318847,-95.2380952380952,4,1,0,90,0,1
324523,-90.9090909090909,4,1,0,80,0,0
324726,-76.9230769230769,4,1,0,80,0,0
324928,-66.6666666666667,4,1,0,80,0,0
325131,-71.4285714285714,4,1,0,80,0,0
325232,-76.9230769230769,4,1,0,80,0,0
325334,-83.3333333333333,4,1,0,90,0,1
325537,-95.2380952380952,4,1,0,90,0,1
330199,-95.2380952380952,4,1,0,80,0,0
331820,-95.2380952380952,4,1,0,90,0,1
332023,-105.263157894737,4,1,0,90,0,1
332124,-104.545426033066,4,1,0,90,0,1
332226,-103.837523350463,4,1,0,90,0,1
332327,-103.139036578259,4,1,0,90,0,1
332428,-102.449884077956,4,1,0,90,0,1
332530,-101.769879982781,4,1,0,90,0,1
332631,-101.098945537998,4,1,0,90,0,1
332732,-100.436698766236,4,1,0,90,0,1
332834,-99.7830716023365,4,1,0,90,0,1
332935,-99.1378968490011,4,1,0,90,0,1
333037,-98.5011086299776,4,1,0,90,0,1
333138,-97.8723529198748,4,1,0,90,0,1
333239,-97.2515732873268,4,1,0,90,0,1
333341,-96.6386189181693,4,1,0,90,0,1
333442,-96.0334350007299,4,1,0,90,0,1
333543,-95.4356925672774,4,1,0,90,0,1
333645,-94.8453451801492,4,1,0,90,0,1
333746,-94.2622564498949,4,1,0,90,0,1
333847,-93.6863810918398,4,1,0,90,0,1
333949,-93.1174126768183,4,1,0,90,0,1
334050,-92.5553133691522,4,1,0,90,0,1
334151,-91.9999595200178,4,1,0,90,0,1
334253,-91.4513140639318,4,1,0,90,0,1
334354,-90.9090909090909,4,1,0,90,0,1
334455,-90.3732596369525,4,1,0,90,0,1
334557,-89.8437886047529,4,1,0,90,0,1
334658,-89.3204056932827,4,1,0,90,0,1
334759,-88.8030853743983,4,1,0,90,0,1
334861,-88.2917229158518,4,1,0,90,0,1
334962,-87.7862930482035,4,1,0,90,0,1
335064,-87.2865407645603,4,1,0,90,0,1
335131,-86.9565217391304,4,1,0,90,0,1
335199,-86.6289888317908,4,1,0,90,0,1
335266,-86.3039140551102,4,1,0,90,0,1
335368,-85.8209243428477,4,1,0,90,0,1
335469,-85.3432377005459,4,1,0,90,0,1
335537,-85.0277232891784,4,1,0,90,0,1
335604,-84.7145332017434,4,1,0,90,0,1
335672,-84.4036418483385,4,1,0,90,0,1
335773,-83.9416303479213,4,1,0,90,0,1
335874,-83.4845795633089,4,1,0,90,0,1
335942,-83.1826341278384,4,1,0,90,0,1
336009,-82.8828649622634,4,1,0,90,0,1
336077,-82.585248622891,4,1,0,90,0,1
336178,-82.1428776785766,4,1,0,90,0,1
336280,-81.7051538794016,4,1,0,90,0,1
336347,-81.4159205576014,4,1,0,90,0,1
336415,-81.1287277636298,4,1,0,90,0,1
336482,-80.8435539796452,4,1,0,90,0,1
336584,-80.4195972908246,4,1,0,90,0,1
336685,-80,4,1,0,80,0,0
338307,-66.6666666666667,4,1,0,80,0,0
338408,-100,4,1,0,80,0,0
344793,-66.6666666666667,4,1,0,80,0,0
344895,-100,4,1,0,80,0,0
349658,-90.9090909090909,4,1,0,80,0,0
350469,-83.3333333333333,4,1,0,80,0,0
350773,-76.9230769230769,4,1,0,80,0,0
351077,-71.4285714285714,4,1,0,80,0,0
351280,-66.6666666666667,4,1,0,80,0,0
351381,-100,4,1,0,80,0,0
357564,-90.9090909090909,4,1,0,80,0,0
357665,-76.9230769230769,4,1,0,80,0,0
357766,-66.6666666666667,4,1,0,80,0,0
357868,-100,4,1,0,80,0,0
361009,-99.009900990099,4,1,0,80,0,0
361077,-98.0392156862745,4,1,0,80,0,0
361145,-97.0873786407767,4,1,0,80,0,0
361212,-96.1538461538461,4,1,0,80,0,0
361314,-95.2380952380952,4,1,0,80,0,0
361618,-90.9090909090909,4,1,0,80,0,0
361922,-86.9565217391304,4,1,0,80,0,0
362226,-83.3333333333333,4,1,0,80,0,0
362428,-86.9565217391304,4,1,0,80,0,0
362631,-90.9090909090909,4,1,0,80,0,0
363847,-100,4,1,0,80,0,0
364050,-66.6666666666667,4,1,0,80,0,0
364354,-100,4,1,0,80,0,0
367091,-101.010101010101,4,1,0,80,0,0
367496,-102.040816326531,4,1,0,80,0,0
370334,-103.092783505155,4,1,0,80,0,0
370739,-104.166666666667,4,1,0,80,0,0
373577,-105.263157894737,4,1,0,80,0,0
373982,-106.382978723404,4,1,0,80,0,0
376719,-107.52688172043,4,1,0,80,0,0
377226,-108.695652173913,4,1,0,80,0,0
377631,-109.89010989011,4,1,0,80,0,0
377935,-111.111111111111,4,1,0,80,0,0
378239,-112.359550561798,4,1,0,80,0,0
378442,-113.636363636364,4,1,0,80,0,0
378645,-114.942528735632,4,1,0,80,0,0
378847,-116.279069767442,4,1,0,80,0,0
379455,-117.647058823529,4,1,0,80,0,0
380064,-119.047619047619,4,1,0,80,0,0
380469,-120.481927710843,4,1,0,80,0,0
380874,-121.951219512195,4,1,0,80,0,0
381178,-123.456790123457,4,1,0,80,0,0
381685,-125,4,1,0,80,0,0
381888,-126.582278481013,4,1,0,80,0,0
382091,-128.205128205128,4,1,0,80,0,0
382901,-129.87012987013,4,1,0,80,0,0
383104,-131.578947368421,4,1,0,80,0,0
383509,-133.333333333333,4,1,0,80,0,0
390199,-142.857142857143,4,1,0,70,0,0
391820,-153.846153846154,4,1,0,65,0,0
393442,-166.666666666667,4,1,0,60,0,0
395064,-181.818181818182,4,1,0,55,0,0
396685,-200,4,1,0,50,0,0
398307,-222.222222222222,4,1,0,45,0,0
399928,-250,4,1,0,35,0,0
401550,-250,4,1,0,25,0,0
403172,-250,4,1,0,15,0,0
404793,-250,4,1,0,5,0,0

[HitObjects]
256,192,3847,8,0,13577,0:0:0:0:
256,192,13982,5,4,0:0:0:0:
256,192,14388,1,0,0:0:0:0:
256,192,14591,1,8,0:0:0:0:
256,192,14996,1,8,0:0:0:0:
256,192,15199,1,0,0:0:0:0:
256,192,15401,1,8,0:0:0:0:
256,192,15503,1,0,0:0:0:0:
256,192,15604,1,8,0:0:0:0:
256,192,16009,1,0,0:0:0:0:
256,192,16618,1,0,0:0:0:0:
256,192,16820,1,8,0:0:0:0:
256,192,17226,1,4,0:0:0:0:
256,192,17631,1,8,0:0:0:0:
256,192,17732,1,8,0:0:0:0:
256,192,17834,1,0,0:0:0:0:
256,192,18239,1,8,0:0:0:0:
256,192,18442,1,0,0:0:0:0:
256,192,18645,1,0,0:0:0:0:
256,192,18746,1,0,0:0:0:0:
256,192,18847,1,8,0:0:0:0:
256,192,19253,1,0,0:0:0:0:
256,192,19455,1,8,0:0:0:0:
256,192,19658,1,4,0:0:0:0:
256,192,19861,1,0,0:0:0:0:
256,192,20064,1,8,0:0:0:0:
256,192,20266,1,0,0:0:0:0:
256,192,20469,1,12,0:0:0:0:
256,192,20874,1,0,0:0:0:0:
256,192,21077,1,8,0:0:0:0:
256,192,21482,1,8,0:0:0:0:
256,192,21685,1,0,0:0:0:0:
256,192,21888,1,8,0:0:0:0:
256,192,21989,1,0,0:0:0:0:
256,192,22091,1,8,0:0:0:0:
256,192,22496,1,0,0:0:0:0:
256,192,22800,1,8,0:0:0:0:
256,192,23104,1,0,0:0:0:0:
256,192,23307,1,8,0:0:0:0:
256,192,23712,1,4,0:0:0:0:
256,192,24118,1,8,0:0:0:0:
256,192,24320,1,0,0:0:0:0:
256,192,24726,1,8,0:0:0:0:
256,192,24928,1,0,0:0:0:0:
256,192,25030,1,8,0:0:0:0:
256,192,25131,1,0,0:0:0:0:
256,192,25232,1,0,0:0:0:0:
256,192,25334,1,8,0:0:0:0:
256,192,25739,1,0,0:0:0:0:
256,192,25942,1,0,0:0:0:0:
256,192,26145,1,12,0:0:0:0:
256,192,26550,1,8,0:0:0:0:
256,192,26955,1,4,0:0:0:0:
256,192,27158,1,8,0:0:0:0:
256,192,27361,1,0,0:0:0:0:
256,192,27564,1,8,0:0:0:0:
256,192,27665,1,8,0:0:0:0:
256,192,27969,1,8,0:0:0:0:
256,192,28172,1,0,0:0:0:0:
256,192,28374,1,8,0:0:0:0:
256,192,28476,1,0,0:0:0:0:
256,192,28577,1,8,0:0:0:0:
256,192,29084,1,0,0:0:0:0:
256,192,29591,1,0,0:0:0:0:
256,192,29793,1,8,0:0:0:0:
256,192,30199,1,4,0:0:0:0:
256,192,30604,1,8,0:0:0:0:
256,192,30705,1,8,0:0:0:0:
256,192,30807,1,0,0:0:0:0:
256,192,31212,1,8,0:0:0:0:
256,192,31415,1,0,0:0:0:0:
256,192,31618,1,0,0:0:0:0:
256,192,31719,1,0,0:0:0:0:
256,192,31820,1,8,0:0:0:0:
256,192,32023,1,0,0:0:0:0:
256,192,32226,1,0,0:0:0:0:
256,192,32428,1,8,0:0:0:0:
256,192,32631,1,4,0:0:0:0:
256,192,32834,1,8,0:0:0:0:
256,192,32935,1,0,0:0:0:0:
256,192,33037,1,8,0:0:0:0:
256,192,33239,1,0,0:0:0:0:
256,192,33442,1,12,0:0:0:0:
256,192,33645,1,8,0:0:0:0:
256,192,33847,1,0,0:0:0:0:
256,192,34050,1,8,0:0:0:0:
256,192,34151,1,8,0:0:0:0:
256,192,34455,1,8,0:0:0:0:
256,192,34658,1,0,0:0:0:0:
256,192,34861,1,8,0:0:0:0:
256,192,34962,1,0,0:0:0:0:
256,192,35064,1,8,0:0:0:0:
256,192,35469,1,0,0:0:0:0:
256,192,35672,1,8,0:0:0:0:
256,192,36077,1,0,0:0:0:0:
256,192,36280,1,8,0:0:0:0:
256,192,36685,1,4,0:0:0:0:
256,192,37091,1,8,0:0:0:0:
256,192,37293,1,0,0:0:0:0:
256,192,37699,1,8,0:0:0:0:
256,192,37901,1,0,0:0:0:0:
256,192,38003,1,8,0:0:0:0:
256,192,38104,1,0,0:0:0:0:
256,192,38205,1,8,0:0:0:0:
256,192,38307,1,8,0:0:0:0:
256,192,38712,1,0,0:0:0:0:
256,192,38915,1,0,0:0:0:0:
256,192,39118,1,12,0:0:0:0:
256,192,39523,1,8,0:0:0:0:
256,192,39928,1,4,0:0:0:0:
256,192,40334,1,0,0:0:0:0:
256,192,40435,1,0,0:0:0:0:
256,192,40537,1,8,0:0:0:0:
256,192,40739,1,0,0:0:0:0:
256,192,40942,1,8,0:0:0:0:
256,192,41145,1,8,0:0:0:0:
256,192,41246,1,0,0:0:0:0:
256,192,41550,1,0,0:0:0:0:
256,192,41651,1,0,0:0:0:0:
256,192,41753,1,8,0:0:0:0:
256,192,41854,1,0,0:0:0:0:
256,192,41955,1,8,0:0:0:0:
256,192,42158,1,8,0:0:0:0:
256,192,42259,1,8,0:0:0:0:
256,192,42361,1,0,0:0:0:0:
256,192,42462,1,0,0:0:0:0:
256,192,42665,1,8,0:0:0:0:
256,192,42766,1,0,0:0:0:0:
256,192,42969,1,8,0:0:0:0:
256,192,43172,1,0,0:0:0:0:
256,192,43374,1,8,0:0:0:0:
256,192,43577,1,8,0:0:0:0:
256,192,43982,1,0,0:0:0:0:
256,192,44185,1,8,0:0:0:0:
256,192,44287,1,0,0:0:0:0:
256,192,44591,1,8,0:0:0:0:
256,192,44692,1,8,0:0:0:0:
256,192,44793,1,8,0:0:0:0:
256,192,44895,1,0,0:0:0:0:
256,192,44996,1,8,0:0:0:0:
256,192,45199,1,0,0:0:0:0:
256,192,45300,1,0,0:0:0:0:
256,192,45401,1,0,0:0:0:0:
256,192,45604,1,8,0:0:0:0:
256,192,45705,1,8,0:0:0:0:
256,192,45807,1,0,0:0:0:0:
256,192,46009,1,8,0:0:0:0:
256,192,46314,1,0,0:0:0:0:
256,192,46415,1,8,0:0:0:0:
256,192,46618,1,0,0:0:0:0:
256,192,46719,1,8,0:0:0:0:
256,192,46820,1,0,0:0:0:0:
256,192,47023,1,8,0:0:0:0:
256,192,47124,1,0,0:0:0:0:
256,192,47226,1,0,0:0:0:0:
256,192,47327,1,0,0:0:0:0:
256,192,47428,1,8,0:0:0:0:
256,192,47631,1,0,0:0:0:0:
256,192,47834,1,8,0:0:0:0:
256,192,47935,1,8,0:0:0:0:
256,192,48037,1,0,0:0:0:0:
256,192,48239,1,0,0:0:0:0:
256,192,48442,1,8,0:0:0:0:
256,192,48645,1,8,0:0:0:0:
256,192,48847,1,0,0:0:0:0:
256,192,49050,1,8,0:0:0:0:
256,192,49253,1,0,0:0:0:0:
256,192,49455,1,8,0:0:0:0:
256,192,49557,1,8,0:0:0:0:
256,192,49658,1,0,0:0:0:0:
256,192,49861,1,0,0:0:0:0:
256,192,49962,1,8,0:0:0:0:
256,192,50064,1,8,0:0:0:0:
256,192,50266,1,0,0:0:0:0:
256,192,50469,1,8,0:0:0:0:
256,192,50570,1,8,0:0:0:0:
256,192,50773,1,0,0:0:0:0:
256,192,50874,1,8,0:0:0:0:
256,192,51077,1,0,0:0:0:0:
256,192,51280,1,8,0:0:0:0:
256,192,51381,1,0,0:0:0:0:
256,192,51482,1,8,0:0:0:0:
256,192,51584,1,8,0:0:0:0:
256,192,51787,1,8,0:0:0:0:
256,192,51888,1,0,0:0:0:0:
256,192,52091,1,0,0:0:0:0:
256,192,52192,1,0,0:0:0:0:
256,192,52293,1,8,0:0:0:0:
256,192,52395,1,8,0:0:0:0:
256,192,52496,1,0,0:0:0:0:
256,192,52597,1,8,0:0:0:0:
256,192,52800,1,8,0:0:0:0:
256,192,52901,1,0,0:0:0:0:
256,192,53003,1,0,0:0:0:0:
256,192,53104,1,8,0:0:0:0:
256,192,53205,1,0,0:0:0:0:
256,192,53307,1,8,0:0:0:0:
256,192,53408,1,8,0:0:0:0:
256,192,53509,1,0,0:0:0:0:
256,192,53611,1,8,0:0:0:0:
256,192,53712,1,0,0:0:0:0:
256,192,53814,1,0,0:0:0:0:
256,192,53915,1,8,0:0:0:0:
256,192,54016,1,0,0:0:0:0:
256,192,54118,1,8,0:0:0:0:
256,192,54219,1,8,0:0:0:0:
256,192,54320,1,8,0:0:0:0:
256,192,54422,1,8,0:0:0:0:
256,192,54523,1,0,0:0:0:0:
256,192,54624,1,0,0:0:0:0:
256,192,54726,1,8,0:0:0:0:
256,192,54827,1,0,0:0:0:0:
256,192,54928,1,8,0:0:0:0:
256,192,55030,1,8,0:0:0:0:
256,192,55131,1,0,0:0:0:0:
256,192,55232,1,8,0:0:0:0:
256,192,55334,1,0,0:0:0:0:
256,192,55435,1,0,0:0:0:0:
256,192,55537,1,8,0:0:0:0:
256,192,55638,1,0,0:0:0:0:
256,192,55739,1,8,0:0:0:0:
256,192,55841,1,8,0:0:0:0:
256,192,55942,1,8,0:0:0:0:
256,192,56145,1,8,0:0:0:0:
256,192,56246,1,8,0:0:0:0:
256,192,56347,1,0,0:0:0:0:
256,192,56449,1,8,0:0:0:0:
256,192,56550,1,0,0:0:0:0:
256,192,56651,1,0,0:0:0:0:
256,192,56753,1,8,0:0:0:0:
256,192,56854,1,0,0:0:0:0:
256,192,56955,1,8,0:0:0:0:
256,192,57057,1,8,0:0:0:0:
256,192,57158,1,0,0:0:0:0:
256,192,57259,1,8,0:0:0:0:
256,192,57361,1,0,0:0:0:0:
256,192,57462,1,0,0:0:0:0:
256,192,57564,1,0,0:0:0:0:
256,192,57665,1,0,0:0:0:0:
256,192,57766,1,8,0:0:0:0:
256,192,57868,1,8,0:0:0:0:
256,192,57969,1,0,0:0:0:0:
256,192,58070,1,8,0:0:0:0:
256,192,58172,1,0,0:0:0:0:
256,192,58273,1,0,0:0:0:0:
256,192,58374,1,8,0:0:0:0:
256,192,58476,1,0,0:0:0:0:
256,192,58577,1,8,0:0:0:0:
256,192,58678,1,8,0:0:0:0:
256,192,58780,1,0,0:0:0:0:
256,192,58881,1,8,0:0:0:0:
256,192,58982,1,0,0:0:0:0:
256,192,59084,1,0,0:0:0:0:
256,192,59185,1,0,0:0:0:0:
256,192,59388,1,12,0:0:0:0:
256,192,59591,1,8,0:0:0:0:
256,192,59692,1,8,0:0:0:0:
256,192,59793,1,0,0:0:0:0:
256,192,59895,1,8,0:0:0:0:
256,192,59996,1,8,0:0:0:0:
256,192,60097,1,0,0:0:0:0:
256,192,60199,1,8,0:0:0:0:
256,192,60300,1,0,0:0:0:0:
256,192,60401,1,8,0:0:0:0:
256,192,60503,1,8,0:0:0:0:
256,192,60604,1,0,0:0:0:0:
256,192,60705,1,8,0:0:0:0:
256,192,60807,1,8,0:0:0:0:
256,192,60908,1,0,0:0:0:0:
256,192,61009,1,8,0:0:0:0:
256,192,61111,1,0,0:0:0:0:
256,192,61212,1,8,0:0:0:0:
256,192,61314,1,8,0:0:0:0:
256,192,61415,1,0,0:0:0:0:
256,192,61516,1,8,0:0:0:0:
256,192,61618,1,8,0:0:0:0:
256,192,61719,1,0,0:0:0:0:
256,192,61820,1,8,0:0:0:0:
256,192,61922,1,0,0:0:0:0:
256,192,62023,1,8,0:0:0:0:
256,192,62124,1,8,0:0:0:0:
256,192,62226,1,0,0:0:0:0:
256,192,62327,1,8,0:0:0:0:
256,192,62428,1,8,0:0:0:0:
256,192,62530,1,0,0:0:0:0:
256,192,62631,1,8,0:0:0:0:
256,192,62699,1,8,0:0:0:0:
256,192,62766,1,0,0:0:0:0:
256,192,62834,1,8,0:0:0:0:
256,192,62935,1,0,0:0:0:0:
256,192,63037,1,8,0:0:0:0:
256,192,63104,1,8,0:0:0:0:
256,192,63172,1,8,0:0:0:0:
256,192,63239,1,8,0:0:0:0:
256,192,63341,1,0,0:0:0:0:
256,192,63442,1,8,0:0:0:0:
256,192,63509,1,8,0:0:0:0:
256,192,63577,1,0,0:0:0:0:
256,192,63645,1,8,0:0:0:0:
256,192,63746,1,0,0:0:0:0:
256,192,63847,1,8,0:0:0:0:
256,192,63915,1,8,0:0:0:0:
256,192,63982,1,8,0:0:0:0:
256,192,64050,1,8,0:0:0:0:
256,192,64151,1,0,0:0:0:0:
256,192,64253,1,8,0:0:0:0:
256,192,65874,1,4,0:0:0:0:
256,192,66280,1,0,0:0:0:0:
256,192,66482,1,0,0:0:0:0:
256,192,66584,1,8,0:0:0:0:
256,192,66787,1,8,0:0:0:0:
256,192,66888,1,0,0:0:0:0:
256,192,67091,1,0,0:0:0:0:
256,192,67293,1,8,0:0:0:0:
256,192,67496,1,0,0:0:0:0:
256,192,67699,1,0,0:0:0:0:
256,192,67800,1,8,0:0:0:0:
256,192,67901,1,8,0:0:0:0:
256,192,68104,1,0,0:0:0:0:
256,192,68307,1,12,0:0:0:0:
256,192,68712,1,12,0:0:0:0:
256,192,69118,1,0,0:0:0:0:
256,192,69185,1,0,0:0:0:0:
256,192,69253,1,0,0:0:0:0:
256,192,69320,1,8,0:0:0:0:
256,192,69388,1,8,0:0:0:0:
256,192,69455,1,8,0:0:0:0:
256,192,69523,1,0,0:0:0:0:
256,192,69726,1,8,0:0:0:0:
256,192,69827,1,8,0:0:0:0:
256,192,69928,1,0,0:0:0:0:
256,192,70030,1,8,0:0:0:0:
256,192,70131,1,0,0:0:0:0:
256,192,70334,1,8,0:0:0:0:
256,192,70537,1,0,0:0:0:0:
256,192,70638,1,0,0:0:0:0:
256,192,70739,1,0,0:0:0:0:
256,192,71043,1,8,0:0:0:0:
256,192,71145,1,0,0:0:0:0:
256,192,71347,1,0,0:0:0:0:
256,192,71449,1,0,0:0:0:0:
256,192,71550,1,8,0:0:0:0:
256,192,71651,1,0,0:0:0:0:
256,192,71854,1,8,0:0:0:0:
256,192,71955,1,0,0:0:0:0:
256,192,72158,1,8,0:0:0:0:
256,192,72361,1,4,0:0:0:0:
256,192,72766,1,0,0:0:0:0:
256,192,72969,1,8,0:0:0:0:
256,192,73172,1,0,0:0:0:0:
256,192,73273,1,0,0:0:0:0:
256,192,73374,1,8,0:0:0:0:
256,192,73577,1,0,0:0:0:0:
256,192,73780,1,8,0:0:0:0:
256,192,73982,1,0,0:0:0:0:
256,192,74185,1,0,0:0:0:0:
256,192,74287,1,8,0:0:0:0:
256,192,74388,1,8,0:0:0:0:
256,192,74591,1,0,0:0:0:0:
256,192,74793,1,12,0:0:0:0:
256,192,75199,1,12,0:0:0:0:
256,192,75604,1,0,0:0:0:0:
256,192,75672,1,0,0:0:0:0:
256,192,75739,1,0,0:0:0:0:
256,192,75807,1,8,0:0:0:0:
256,192,75874,1,8,0:0:0:0:
256,192,75942,1,8,0:0:0:0:
256,192,76009,1,0,0:0:0:0:
256,192,76212,1,0,0:0:0:0:
256,192,76280,1,0,0:0:0:0:
256,192,76347,1,0,0:0:0:0:
256,192,76415,1,8,0:0:0:0:
256,192,76516,1,8,0:0:0:0:
256,192,76618,1,0,0:0:0:0:
256,192,76820,1,8,0:0:0:0:
256,192,77023,1,8,0:0:0:0:
256,192,77226,1,4,0:0:0:0:
256,192,78037,1,4,0:0:0:0:
256,192,78341,1,4,0:0:0:0:
256,192,78645,1,4,0:0:0:0:
256,192,78847,1,12,0:0:0:0:
256,192,79101,1,0,0:0:0:0:
256,192,79151,1,8,0:0:0:0:
256,192,79253,1,0,0:0:0:0:
256,192,79455,1,0,0:0:0:0:
256,192,79557,1,8,0:0:0:0:
256,192,79759,1,8,0:0:0:0:
256,192,79861,1,0,0:0:0:0:
256,192,80064,1,0,0:0:0:0:
256,192,80266,1,8,0:0:0:0:
256,192,80469,1,0,0:0:0:0:
256,192,80672,1,0,0:0:0:0:
256,192,80773,1,8,0:0:0:0:
256,192,80874,1,8,0:0:0:0:
256,192,81077,1,0,0:0:0:0:
256,192,81280,1,12,0:0:0:0:
256,192,81685,1,12,0:0:0:0:
256,192,82091,1,0,0:0:0:0:
256,192,82158,1,0,0:0:0:0:
256,192,82226,1,0,0:0:0:0:
256,192,82293,1,8,0:0:0:0:
256,192,82361,1,8,0:0:0:0:
256,192,82428,1,8,0:0:0:0:
256,192,82496,1,0,0:0:0:0:
256,192,82699,1,0,0:0:0:0:
256,192,82800,1,8,0:0:0:0:
256,192,83003,1,8,0:0:0:0:
256,192,83104,1,8,0:0:0:0:
256,192,83307,1,0,0:0:0:0:
256,192,83509,1,0,0:0:0:0:
256,192,83712,1,8,0:0:0:0:
256,192,83814,1,8,0:0:0:0:
256,192,83915,1,0,0:0:0:0:
256,192,84016,1,8,0:0:0:0:
256,192,84118,1,0,0:0:0:0:
256,192,84320,1,0,0:0:0:0:
256,192,84523,1,8,0:0:0:0:
256,192,84624,1,0,0:0:0:0:
256,192,84827,1,8,0:0:0:0:
256,192,84928,1,0,0:0:0:0:
256,192,85131,1,8,0:0:0:0:
256,192,85232,1,0,0:0:0:0:
256,192,85334,1,12,0:0:0:0:
256,192,85587,1,0,0:0:0:0:
256,192,85638,1,8,0:0:0:0:
256,192,85739,1,0,0:0:0:0:
256,192,85942,1,8,0:0:0:0:
256,192,86043,1,0,0:0:0:0:
256,192,86145,1,8,0:0:0:0:
256,192,86347,1,8,0:0:0:0:
256,192,86550,1,0,0:0:0:0:
256,192,86753,1,8,0:0:0:0:
256,192,86854,1,0,0:0:0:0:
256,192,86955,1,0,0:0:0:0:
256,192,87158,1,8,0:0:0:0:
256,192,87259,1,0,0:0:0:0:
256,192,87361,1,8,0:0:0:0:
256,192,87564,1,0,0:0:0:0:
256,192,87766,1,12,0:0:0:0:
256,192,88070,1,12,0:0:0:0:
256,192,88273,1,8,0:0:0:0:
256,192,88374,1,0,0:0:0:0:
256,192,88476,1,0,0:0:0:0:
256,192,88577,1,8,0:0:0:0:
256,192,88645,1,8,0:0:0:0:
256,192,88712,1,0,0:0:0:0:
256,192,88780,1,8,0:0:0:0:
256,192,88881,1,4,0:0:0:0:
256,192,89185,1,4,0:0:0:0:
256,192,89489,1,12,0:0:0:0:
256,192,89793,1,12,0:0:0:0:
256,192,89996,1,12,0:0:0:0:
256,192,90199,1,0,0:0:0:0:
256,192,91415,1,0,0:0:0:0:
256,192,91618,1,8,0:0:0:0:
256,192,91719,1,8,0:0:0:0:
256,192,91820,1,4,0:0:0:0:
256,192,92023,1,8,0:0:0:0:
256,192,92124,1,0,0:0:0:0:
256,192,92226,1,0,0:0:0:0:
256,192,92428,1,8,0:0:0:0:
256,192,92530,1,8,0:0:0:0:
256,192,92631,1,0,0:0:0:0:
256,192,92732,1,0,0:0:0:0:
256,192,92834,1,8,0:0:0:0:
256,192,92935,1,8,0:0:0:0:
256,192,93037,1,0,0:0:0:0:
256,192,93239,1,8,0:0:0:0:
256,192,93341,1,0,0:0:0:0:
256,192,93442,1,0,0:0:0:0:
256,192,93645,1,8,0:0:0:0:
256,192,93746,1,0,0:0:0:0:
256,192,93847,1,8,0:0:0:0:
256,192,93949,1,8,0:0:0:0:
256,192,94050,1,0,0:0:0:0:
256,192,94151,1,0,0:0:0:0:
256,192,94253,1,8,0:0:0:0:
256,192,94455,1,0,0:0:0:0:
256,192,94557,1,8,0:0:0:0:
256,192,94658,1,0,0:0:0:0:
256,192,94861,1,8,0:0:0:0:
256,192,94962,1,0,0:0:0:0:
256,192,95064,1,8,0:0:0:0:
256,192,95266,1,8,0:0:0:0:
256,192,95368,1,8,0:0:0:0:
256,192,95469,1,0,0:0:0:0:
256,192,95570,1,0,0:0:0:0:
256,192,95672,1,8,0:0:0:0:
256,192,95773,1,0,0:0:0:0:
256,192,95874,1,0,0:0:0:0:
256,192,96077,1,8,0:0:0:0:
256,192,96178,1,8,0:0:0:0:
256,192,96280,1,0,0:0:0:0:
256,192,96381,1,8,0:0:0:0:
256,192,96482,1,8,0:0:0:0:
256,192,96584,1,0,0:0:0:0:
256,192,96685,1,0,0:0:0:0:
256,192,96888,1,8,0:0:0:0:
256,192,96989,1,0,0:0:0:0:
256,192,97091,1,8,0:0:0:0:
256,192,97192,1,8,0:0:0:0:
256,192,97293,1,0,0:0:0:0:
256,192,97496,1,0,0:0:0:0:
256,192,97597,1,0,0:0:0:0:
256,192,97699,1,8,0:0:0:0:
256,192,97800,1,0,0:0:0:0:
256,192,97901,1,8,0:0:0:0:
256,192,98104,1,8,0:0:0:0:
256,192,98205,1,8,0:0:0:0:
256,192,98307,1,0,0:0:0:0:
256,192,98509,1,0,0:0:0:0:
256,192,98611,1,0,0:0:0:0:
256,192,98712,1,8,0:0:0:0:
256,192,98915,1,0,0:0:0:0:
256,192,99016,1,0,0:0:0:0:
256,192,99118,1,8,0:0:0:0:
256,192,99219,1,8,0:0:0:0:
256,192,99320,1,0,0:0:0:0:
256,192,99422,1,0,0:0:0:0:
256,192,99523,1,8,0:0:0:0:
256,192,99726,1,0,0:0:0:0:
256,192,99827,1,8,0:0:0:0:
256,192,99928,1,8,0:0:0:0:
256,192,100131,1,0,0:0:0:0:
256,192,100232,1,8,0:0:0:0:
256,192,100334,1,0,0:0:0:0:
256,192,100435,1,0,0:0:0:0:
256,192,100537,1,8,0:0:0:0:
256,192,100638,1,8,0:0:0:0:
256,192,100739,1,0,0:0:0:0:
256,192,100942,1,8,0:0:0:0:
256,192,101043,1,0,0:0:0:0:
256,192,101145,1,8,0:0:0:0:
256,192,101347,1,0,0:0:0:0:
256,192,101449,1,8,0:0:0:0:
256,192,101550,1,0,0:0:0:0:
256,192,101651,1,8,0:0:0:0:
256,192,101753,1,8,0:0:0:0:
256,192,101854,1,8,0:0:0:0:
256,192,101955,1,0,0:0:0:0:
256,192,102158,1,0,0:0:0:0:
256,192,102259,1,8,0:0:0:0:
256,192,102361,1,0,0:0:0:0:
256,192,102564,1,8,0:0:0:0:
256,192,102665,1,0,0:0:0:0:
256,192,102766,1,8,0:0:0:0:
256,192,102868,1,8,0:0:0:0:
256,192,102969,1,8,0:0:0:0:
256,192,103070,1,8,0:0:0:0:
256,192,103172,1,0,0:0:0:0:
256,192,103374,1,0,0:0:0:0:
256,192,103476,1,8,0:0:0:0:
256,192,103577,1,0,0:0:0:0:
256,192,103678,1,0,0:0:0:0:
256,192,103780,1,8,0:0:0:0:
256,192,103982,1,8,0:0:0:0:
256,192,104084,1,8,0:0:0:0:
256,192,104185,1,8,0:0:0:0:
256,192,104287,1,8,0:0:0:0:
256,192,104388,1,0,0:0:0:0:
256,192,104591,1,0,0:0:0:0:
256,192,104793,1,12,0:0:0:0:
256,192,104996,1,0,0:0:0:0:
256,192,105097,1,0,0:0:0:0:
256,192,105199,1,8,0:0:0:0:
256,192,105401,1,0,0:0:0:0:
256,192,105604,1,8,0:0:0:0:
256,192,105705,1,8,0:0:0:0:
256,192,105807,1,0,0:0:0:0:
256,192,105908,1,0,0:0:0:0:
256,192,106009,1,8,0:0:0:0:
256,192,106212,1,0,0:0:0:0:
256,192,106415,1,8,0:0:0:0:
256,192,106516,1,8,0:0:0:0:
256,192,106618,1,8,0:0:0:0:
256,192,106719,1,8,0:0:0:0:
256,192,106820,1,0,0:0:0:0:
256,192,106922,1,8,0:0:0:0:
256,192,107023,1,8,0:0:0:0:
256,192,107124,1,8,0:0:0:0:
256,192,107226,1,0,0:0:0:0:
256,192,107428,1,0,0:0:0:0:
256,192,107530,1,8,0:0:0:0:
256,192,107631,1,0,0:0:0:0:
256,192,107834,1,8,0:0:0:0:
256,192,107935,1,0,0:0:0:0:
256,192,108037,1,8,0:0:0:0:
256,192,108138,1,8,0:0:0:0:
256,192,108239,1,0,0:0:0:0:
256,192,108341,1,0,0:0:0:0:
256,192,108442,1,8,0:0:0:0:
256,192,108645,1,0,0:0:0:0:
256,192,108847,1,8,0:0:0:0:
256,192,108949,1,0,0:0:0:0:
256,192,109050,1,8,0:0:0:0:
256,192,109151,1,8,0:0:0:0:
256,192,109253,1,0,0:0:0:0:
256,192,109455,1,8,0:0:0:0:
256,192,109658,1,0,0:0:0:0:
256,192,109759,1,0,0:0:0:0:
256,192,109861,1,0,0:0:0:0:
256,192,109962,1,0,0:0:0:0:
256,192,110064,1,8,0:0:0:0:
256,192,110165,1,8,0:0:0:0:
256,192,110266,1,8,0:0:0:0:
256,192,110368,1,8,0:0:0:0:
256,192,110469,1,0,0:0:0:0:
256,192,110672,1,12,0:0:0:0:
256,192,111077,1,8,0:0:0:0:
256,192,111280,1,4,0:0:0:0:
256,192,111685,1,8,0:0:0:0:
256,192,111888,1,4,0:0:0:0:
256,192,112293,1,4,0:0:0:0:
256,192,112496,1,8,0:0:0:0:
256,192,112699,1,0,0:0:0:0:
256,192,112901,1,4,0:0:0:0:
256,192,113104,1,0,0:0:0:0:
256,192,113205,1,0,0:0:0:0:
256,192,113307,1,8,0:0:0:0:
256,192,113509,1,4,0:0:0:0:
256,192,113712,1,8,0:0:0:0:
256,192,113915,1,4,0:0:0:0:
256,192,114118,1,8,0:0:0:0:
256,192,114219,1,4,0:0:0:0:
256,192,114422,1,0,0:0:0:0:
256,192,114523,1,8,0:0:0:0:
256,192,114624,1,0,0:0:0:0:
256,192,114726,1,8,0:0:0:0:
256,192,114827,1,0,0:0:0:0:
256,192,114928,1,8,0:0:0:0:
256,192,115030,1,8,0:0:0:0:
256,192,115131,1,4,0:0:0:0:
256,192,115334,1,8,0:0:0:0:
256,192,115435,1,8,0:0:0:0:
256,192,115537,1,4,0:0:0:0:
256,192,115739,1,8,0:0:0:0:
256,192,115942,1,4,0:0:0:0:
256,192,116145,1,8,0:0:0:0:
256,192,116280,1,0,0:0:0:0:
256,192,116415,1,8,0:0:0:0:
256,192,116550,1,8,0:0:0:0:
256,192,116685,1,0,0:0:0:0:
256,192,116820,1,8,0:0:0:0:
256,192,116955,1,8,0:0:0:0:
256,192,117023,1,8,0:0:0:0:
256,192,117091,1,0,0:0:0:0:
256,192,117158,1,8,0:0:0:0:
256,192,117259,1,0,0:0:0:0:
256,192,117361,1,8,0:0:0:0:
256,192,117428,1,0,0:0:0:0:
256,192,117496,1,0,0:0:0:0:
256,192,117564,1,8,0:0:0:0:
256,192,117766,1,12,0:0:0:0:
256,192,124253,12,0,127091,0:0:0:0:
256,192,127496,5,0,0:0:0:0:
256,192,127699,1,0,0:0:0:0:
256,192,127901,1,8,0:0:0:0:
256,192,128104,1,8,0:0:0:0:
256,192,128205,1,8,0:0:0:0:
256,192,128408,1,8,0:0:0:0:
256,192,128509,1,0,0:0:0:0:
256,192,128611,1,0,0:0:0:0:
256,192,128814,1,8,0:0:0:0:
256,192,128915,1,8,0:0:0:0:
256,192,129016,1,8,0:0:0:0:
256,192,129118,1,0,0:0:0:0:
256,192,129320,1,0,0:0:0:0:
256,192,129624,1,8,0:0:0:0:
256,192,129726,1,8,0:0:0:0:
256,192,129827,1,0,0:0:0:0:
256,192,129928,1,0,0:0:0:0:
256,192,130131,1,0,0:0:0:0:
256,192,130334,1,8,0:0:0:0:
256,192,130435,1,0,0:0:0:0:
256,192,130537,1,0,0:0:0:0:
256,192,130638,1,0,0:0:0:0:
256,192,130739,1,8,0:0:0:0:
256,192,130841,1,8,0:0:0:0:
256,192,130942,1,0,0:0:0:0:
256,192,131043,1,0,0:0:0:0:
256,192,131145,1,8,0:0:0:0:
256,192,131246,1,0,0:0:0:0:
256,192,131347,1,0,0:0:0:0:
256,192,131449,1,0,0:0:0:0:
256,192,131550,1,8,0:0:0:0:
256,192,131651,1,8,0:0:0:0:
256,192,131753,1,0,0:0:0:0:
256,192,131854,1,0,0:0:0:0:
256,192,131955,1,8,0:0:0:0:
256,192,132057,1,0,0:0:0:0:
256,192,132158,1,0,0:0:0:0:
256,192,132259,1,0,0:0:0:0:
256,192,132361,1,8,0:0:0:0:
256,192,132462,1,8,0:0:0:0:
256,192,132564,1,0,0:0:0:0:
256,192,132665,1,0,0:0:0:0:
256,192,132766,1,8,0:0:0:0:
256,192,132868,1,0,0:0:0:0:
256,192,132969,1,0,0:0:0:0:
256,192,133070,1,0,0:0:0:0:
256,192,133172,1,8,0:0:0:0:
256,192,133273,1,8,0:0:0:0:
256,192,133374,1,0,0:0:0:0:
256,192,133476,1,0,0:0:0:0:
256,192,133577,1,8,0:0:0:0:
256,192,133780,1,0,0:0:0:0:
256,192,133982,1,0,0:0:0:0:
256,192,134084,1,0,0:0:0:0:
256,192,134185,1,8,0:0:0:0:
256,192,134287,1,8,0:0:0:0:
256,192,134388,1,0,0:0:0:0:
256,192,134489,1,8,0:0:0:0:
256,192,134591,1,8,0:0:0:0:
256,192,134692,1,8,0:0:0:0:
256,192,134793,1,0,0:0:0:0:
256,192,134895,1,0,0:0:0:0:
256,192,134996,1,8,0:0:0:0:
256,192,135097,1,8,0:0:0:0:
256,192,135199,1,0,0:0:0:0:
256,192,135300,1,8,0:0:0:0:
256,192,135401,1,8,0:0:0:0:
256,192,135503,1,8,0:0:0:0:
256,192,135604,1,0,0:0:0:0:
256,192,135705,1,0,0:0:0:0:
256,192,135807,1,8,0:0:0:0:
256,192,135908,1,8,0:0:0:0:
256,192,136009,1,0,0:0:0:0:
256,192,136111,1,8,0:0:0:0:
256,192,136212,1,8,0:0:0:0:
256,192,136314,1,8,0:0:0:0:
256,192,136415,1,0,0:0:0:0:
256,192,136516,1,0,0:0:0:0:
256,192,136618,1,8,0:0:0:0:
256,192,136719,1,8,0:0:0:0:
256,192,136820,1,0,0:0:0:0:
256,192,136922,1,0,0:0:0:0:
256,192,137023,1,0,0:0:0:0:
256,192,137226,1,8,0:0:0:0:
256,192,137327,1,8,0:0:0:0:
256,192,137428,1,0,0:0:0:0:
256,192,137530,1,8,0:0:0:0:
256,192,137631,1,0,0:0:0:0:
256,192,137732,1,0,0:0:0:0:
256,192,137834,1,8,0:0:0:0:
256,192,137935,1,0,0:0:0:0:
256,192,138037,1,8,0:0:0:0:
256,192,138138,1,8,0:0:0:0:
256,192,138239,1,0,0:0:0:0:
256,192,138341,1,8,0:0:0:0:
256,192,138442,1,0,0:0:0:0:
256,192,138543,1,0,0:0:0:0:
256,192,138645,1,8,0:0:0:0:
256,192,138746,1,0,0:0:0:0:
256,192,138847,1,8,0:0:0:0:
256,192,138949,1,8,0:0:0:0:
256,192,139050,1,0,0:0:0:0:
256,192,139151,1,8,0:0:0:0:
256,192,139253,1,0,0:0:0:0:
256,192,139354,1,0,0:0:0:0:
256,192,139455,1,8,0:0:0:0:
256,192,139557,1,0,0:0:0:0:
256,192,139658,1,8,0:0:0:0:
256,192,139759,1,8,0:0:0:0:
256,192,139861,1,8,0:0:0:0:
256,192,139962,1,0,0:0:0:0:
256,192,140064,1,8,0:0:0:0:
256,192,140165,1,8,0:0:0:0:
256,192,140266,1,8,0:0:0:0:
256,192,140368,1,0,0:0:0:0:
256,192,140469,1,8,0:0:0:0:
256,192,140537,1,8,0:0:0:0:
256,192,140604,1,0,0:0:0:0:
256,192,140672,1,8,0:0:0:0:
256,192,140773,1,0,0:0:0:0:
256,192,140874,1,8,0:0:0:0:
256,192,140942,1,8,0:0:0:0:
256,192,141009,1,8,0:0:0:0:
256,192,141077,1,8,0:0:0:0:
256,192,141178,1,0,0:0:0:0:
256,192,141280,1,8,0:0:0:0:
256,192,141347,1,8,0:0:0:0:
256,192,141415,1,0,0:0:0:0:
256,192,141482,1,8,0:0:0:0:
256,192,141584,1,0,0:0:0:0:
256,192,141685,1,8,0:0:0:0:
256,192,141753,1,8,0:0:0:0:
256,192,141820,1,8,0:0:0:0:
256,192,141888,1,8,0:0:0:0:
256,192,141989,1,0,0:0:0:0:
256,192,142091,2,0,L|424:229,3,160.000006103516
256,192,143712,1,4,0:0:0:0:
256,192,143915,1,0,0:0:0:0:
256,192,144016,1,0,0:0:0:0:
256,192,144118,1,8,0:0:0:0:
256,192,144219,1,0,0:0:0:0:
256,192,144422,1,0,0:0:0:0:
256,192,144523,1,8,0:0:0:0:
256,192,144624,1,0,0:0:0:0:
256,192,144726,1,8,0:0:0:0:
256,192,144928,1,8,0:0:0:0:
256,192,145030,1,0,0:0:0:0:
280,160,145131,1,0,0:0:0:0:
256,192,145334,1,0,0:0:0:0:
256,192,145435,1,0,0:0:0:0:
256,192,145537,1,8,0:0:0:0:
256,192,145638,1,8,0:0:0:0:
256,192,145739,1,0,0:0:0:0:
256,192,145841,1,0,0:0:0:0:
256,192,145942,1,8,0:0:0:0:
256,192,146043,1,8,0:0:0:0:
256,192,146145,1,0,0:0:0:0:
192,128,146347,1,8,0:0:0:0:
256,192,146449,1,8,0:0:0:0:
256,192,146550,1,0,0:0:0:0:
256,192,146651,1,0,0:0:0:0:
256,192,146753,1,0,0:0:0:0:
256,192,146955,1,12,0:0:0:0:
256,192,147158,1,0,0:0:0:0:
256,192,147259,1,0,0:0:0:0:
256,192,147361,1,8,0:0:0:0:
256,192,147462,1,0,0:0:0:0:
256,192,147665,1,0,0:0:0:0:
256,192,147766,1,8,0:0:0:0:
256,192,147868,1,8,0:0:0:0:
256,192,147969,1,0,0:0:0:0:
256,192,148172,1,8,0:0:0:0:
256,192,148273,1,0,0:0:0:0:
256,192,148476,1,0,0:0:0:0:
256,192,148577,1,8,0:0:0:0:
256,192,148780,1,8,0:0:0:0:
256,192,148881,1,8,0:0:0:0:
256,192,148982,1,0,0:0:0:0:
256,192,149084,1,8,0:0:0:0:
256,192,149185,1,0,0:0:0:0:
256,192,149388,1,8,0:0:0:0:
256,192,149591,1,8,0:0:0:0:
256,192,149793,1,0,0:0:0:0:
256,192,149895,1,0,0:0:0:0:
256,192,149996,1,0,0:0:0:0:
256,192,150199,1,12,0:0:0:0:
256,192,150401,1,0,0:0:0:0:
256,192,150503,1,0,0:0:0:0:
256,192,150604,1,8,0:0:0:0:
256,192,150705,1,0,0:0:0:0:
256,192,150908,1,0,0:0:0:0:
256,192,151009,1,8,0:0:0:0:
256,192,151111,1,0,0:0:0:0:
256,192,151212,1,8,0:0:0:0:
256,192,151415,1,8,0:0:0:0:
256,192,151516,1,0,0:0:0:0:
256,192,151719,1,8,0:0:0:0:
256,192,151820,1,0,0:0:0:0:
256,192,151922,1,0,0:0:0:0:
256,192,152023,1,8,0:0:0:0:
256,192,152124,1,8,0:0:0:0:
256,192,152226,1,0,0:0:0:0:
256,192,152327,1,0,0:0:0:0:
256,192,152428,1,8,0:0:0:0:
256,192,152530,1,8,0:0:0:0:
256,192,152631,1,0,0:0:0:0:
192,128,152834,1,8,0:0:0:0:
256,192,152935,1,8,0:0:0:0:
256,192,153037,1,0,0:0:0:0:
256,192,153138,1,0,0:0:0:0:
256,192,153239,1,0,0:0:0:0:
256,192,153442,1,12,0:0:0:0:
256,192,153645,1,0,0:0:0:0:
256,192,153746,1,0,0:0:0:0:
256,192,153847,1,8,0:0:0:0:
256,192,153949,1,0,0:0:0:0:
256,192,154151,1,0,0:0:0:0:
256,192,154253,1,8,0:0:0:0:
256,192,154354,1,8,0:0:0:0:
256,192,154455,1,0,0:0:0:0:
256,192,154658,1,8,0:0:0:0:
256,192,154759,1,0,0:0:0:0:
256,192,154962,1,0,0:0:0:0:
256,192,155064,1,8,0:0:0:0:
256,192,155165,1,8,0:0:0:0:
256,192,155266,1,0,0:0:0:0:
256,192,155368,1,0,0:0:0:0:
256,192,155469,1,8,0:0:0:0:
256,192,155570,1,0,0:0:0:0:
256,192,155773,1,0,0:0:0:0:
256,192,155874,1,8,0:0:0:0:
256,192,156077,1,8,0:0:0:0:
256,192,156280,1,0,0:0:0:0:
256,192,156381,1,0,0:0:0:0:
256,192,156482,1,0,0:0:0:0:
256,192,156685,1,12,0:0:0:0:
256,192,156888,1,0,0:0:0:0:
256,192,156989,1,0,0:0:0:0:
256,192,157091,1,8,0:0:0:0:
256,192,157192,1,8,0:0:0:0:
256,192,157395,1,0,0:0:0:0:
256,192,157496,1,8,0:0:0:0:
256,192,157597,1,0,0:0:0:0:
256,192,157699,1,0,0:0:0:0:
256,192,157800,1,8,0:0:0:0:
256,192,157901,1,8,0:0:0:0:
256,192,158003,1,0,0:0:0:0:
256,192,158205,1,8,0:0:0:0:
256,192,158307,1,0,0:0:0:0:
256,192,158408,1,0,0:0:0:0:
256,192,158510,1,8,0:0:0:0:
256,192,158611,1,8,0:0:0:0:
256,192,158712,1,0,0:0:0:0:
256,192,158814,1,0,0:0:0:0:
256,192,158915,1,8,0:0:0:0:
256,192,159016,1,8,0:0:0:0:
256,192,159118,1,0,0:0:0:0:
192,128,159320,1,8,0:0:0:0:
256,192,159422,1,8,0:0:0:0:
256,192,159523,1,0,0:0:0:0:
256,192,159624,1,0,0:0:0:0:
256,192,159726,1,0,0:0:0:0:
256,192,159928,1,12,0:0:0:0:
256,192,160131,1,0,0:0:0:0:
256,192,160232,1,0,0:0:0:0:
256,192,160334,1,8,0:0:0:0:
256,192,160435,1,0,0:0:0:0:
256,192,160638,1,0,0:0:0:0:
256,192,160739,1,8,0:0:0:0:
256,192,160841,1,8,0:0:0:0:
256,192,160942,1,0,0:0:0:0:
256,192,161145,1,8,0:0:0:0:
256,192,161246,1,0,0:0:0:0:
256,192,161449,1,0,0:0:0:0:
256,192,161550,1,8,0:0:0:0:
256,192,161753,1,0,0:0:0:0:
256,192,161854,1,8,0:0:0:0:
256,192,161955,1,8,0:0:0:0:
256,192,162057,1,0,0:0:0:0:
256,192,162158,1,8,0:0:0:0:
256,192,162361,1,8,0:0:0:0:
256,192,162462,1,0,0:0:0:0:
256,192,162564,1,8,0:0:0:0:
256,192,162665,1,8,0:0:0:0:
256,192,162766,1,0,0:0:0:0:
256,192,162868,1,0,0:0:0:0:
256,192,162969,1,0,0:0:0:0:
256,192,163172,1,12,0:0:0:0:
256,192,163374,1,0,0:0:0:0:
256,192,163476,1,0,0:0:0:0:
256,192,163577,1,8,0:0:0:0:
256,192,163678,1,0,0:0:0:0:
256,192,163780,1,0,0:0:0:0:
256,192,163881,1,8,0:0:0:0:
256,192,163982,1,0,0:0:0:0:
256,192,164084,1,0,0:0:0:0:
256,192,164185,1,8,0:0:0:0:
256,192,164287,1,0,0:0:0:0:
256,192,164388,1,0,0:0:0:0:
256,192,164489,1,8,0:0:0:0:
256,192,164591,1,0,0:0:0:0:
256,192,164692,1,0,0:0:0:0:
256,192,164793,1,8,0:0:0:0:
256,192,164895,1,0,0:0:0:0:
256,192,164996,1,0,0:0:0:0:
256,192,165097,1,8,0:0:0:0:
256,192,165199,1,8,0:0:0:0:
256,192,165300,1,0,0:0:0:0:
256,192,165401,1,8,0:0:0:0:
256,192,165503,1,8,0:0:0:0:
256,192,165604,1,0,0:0:0:0:
256,192,165705,1,8,0:0:0:0:
192,128,165807,1,8,0:0:0:0:
256,192,165908,1,0,0:0:0:0:
256,192,166009,1,8,0:0:0:0:
256,192,166212,1,0,0:0:0:0:
256,192,166415,1,0,0:0:0:0:
256,192,166482,1,0,0:0:0:0:
256,192,166550,1,8,0:0:0:0:
256,192,166618,1,0,0:0:0:0:
256,192,166719,1,8,0:0:0:0:
256,192,166820,1,0,0:0:0:0:
256,192,166888,1,0,0:0:0:0:
256,192,166955,1,0,0:0:0:0:
256,192,167023,1,0,0:0:0:0:
256,192,167124,1,8,0:0:0:0:
256,192,167226,1,0,0:0:0:0:
256,192,167293,1,0,0:0:0:0:
256,192,167361,1,8,0:0:0:0:
256,192,167428,1,0,0:0:0:0:
256,192,167530,1,8,0:0:0:0:
256,192,167631,1,0,0:0:0:0:
256,192,167699,1,0,0:0:0:0:
256,192,167766,1,0,0:0:0:0:
256,192,167834,1,0,0:0:0:0:
256,192,167935,1,8,0:0:0:0:
256,192,168037,1,4,0:0:0:0:
256,192,168239,1,0,0:0:0:0:
256,192,168341,1,0,0:0:0:0:
256,192,168442,1,8,0:0:0:0:
256,192,168543,1,0,0:0:0:0:
256,192,168645,1,0,0:0:0:0:
256,192,168847,1,8,0:0:0:0:
256,192,169050,1,8,0:0:0:0:
256,192,169151,1,8,0:0:0:0:
256,192,169253,1,8,0:0:0:0:
256,192,169354,1,8,0:0:0:0:
256,192,169455,1,0,0:0:0:0:
256,192,169523,1,0,0:0:0:0:
256,192,169591,1,0,0:0:0:0:
256,192,169658,1,12,0:0:0:0:
256,192,169861,1,0,0:0:0:0:
256,192,170064,1,8,0:0:0:0:
256,192,170165,1,0,0:0:0:0:
256,192,170266,1,8,0:0:0:0:
256,192,170368,1,8,0:0:0:0:
256,192,170469,1,0,0:0:0:0:
256,192,170570,1,0,0:0:0:0:
256,192,170672,1,8,0:0:0:0:
256,192,170773,1,8,0:0:0:0:
256,192,170874,1,0,0:0:0:0:
256,192,170976,1,8,0:0:0:0:
256,192,171077,1,8,0:0:0:0:
256,192,171178,1,0,0:0:0:0:
256,192,171280,1,8,0:0:0:0:
256,192,171381,1,0,0:0:0:0:
256,192,171482,1,8,0:0:0:0:
256,192,171584,1,8,0:0:0:0:
256,192,171685,1,0,0:0:0:0:
256,192,171787,1,8,0:0:0:0:
256,192,171888,1,0,0:0:0:0:
256,192,171989,1,0,0:0:0:0:
256,192,172091,1,8,0:0:0:0:
256,192,172192,1,8,0:0:0:0:
256,192,172293,1,0,0:0:0:0:
256,192,172395,1,8,0:0:0:0:
256,192,172496,1,8,0:0:0:0:
256,192,172699,1,0,0:0:0:0:
256,192,172800,1,0,0:0:0:0:
256,192,172901,1,8,0:0:0:0:
256,192,173104,1,0,0:0:0:0:
256,192,173307,1,8,0:0:0:0:
256,192,173408,1,0,0:0:0:0:
256,192,173509,1,8,0:0:0:0:
256,192,173611,1,8,0:0:0:0:
256,192,173712,1,0,0:0:0:0:
256,192,173814,1,8,0:0:0:0:
256,192,173915,1,8,0:0:0:0:
256,192,174016,1,0,0:0:0:0:
256,192,174118,1,0,0:0:0:0:
256,192,174219,1,8,0:0:0:0:
256,192,174320,1,0,0:0:0:0:
256,192,174422,1,0,0:0:0:0:
256,192,174523,1,8,0:0:0:0:
256,192,174726,1,0,0:0:0:0:
256,192,174827,1,0,0:0:0:0:
256,192,174928,1,8,0:0:0:0:
256,192,175030,1,0,0:0:0:0:
256,192,175131,1,8,0:0:0:0:
256,192,175232,1,0,0:0:0:0:
256,192,175334,1,0,0:0:0:0:
256,192,175537,1,8,0:0:0:0:
256,192,175739,1,0,0:0:0:0:
256,192,176145,1,12,0:0:0:0:
256,192,176347,1,0,0:0:0:0:
256,192,176550,1,8,0:0:0:0:
256,192,176651,1,0,0:0:0:0:
256,192,176752,1,8,0:0:0:0:
256,192,176854,1,8,0:0:0:0:
256,192,176955,1,0,0:0:0:0:
256,192,177056,1,0,0:0:0:0:
256,192,177158,1,8,0:0:0:0:
256,192,177259,1,8,0:0:0:0:
256,192,177360,1,0,0:0:0:0:
256,192,177462,1,8,0:0:0:0:
256,192,177563,1,8,0:0:0:0:
256,192,177664,1,0,0:0:0:0:
256,192,177766,1,8,0:0:0:0:
256,192,177867,1,0,0:0:0:0:
256,192,177968,1,8,0:0:0:0:
256,192,178070,1,8,0:0:0:0:
256,192,178171,1,0,0:0:0:0:
256,192,178273,1,8,0:0:0:0:
256,192,178374,1,0,0:0:0:0:
256,192,178475,1,0,0:0:0:0:
256,192,178577,1,8,0:0:0:0:
256,192,178678,1,8,0:0:0:0:
256,192,178779,1,0,0:0:0:0:
256,192,178881,1,8,0:0:0:0:
256,192,178982,1,8,0:0:0:0:
256,192,179185,1,0,0:0:0:0:
256,192,179388,1,8,0:0:0:0:
256,192,179591,1,0,0:0:0:0:
256,192,179692,1,0,0:0:0:0:
256,192,179793,1,8,0:0:0:0:
256,192,179895,1,8,0:0:0:0:
256,192,179996,1,0,0:0:0:0:
256,192,180097,1,0,0:0:0:0:
256,192,180199,1,8,0:0:0:0:
256,192,180401,1,0,0:0:0:0:
256,192,180604,1,8,0:0:0:0:
256,192,180807,1,8,0:0:0:0:
256,192,181009,1,0,0:0:0:0:
256,192,181212,1,0,0:0:0:0:
256,192,181314,1,0,0:0:0:0:
256,192,181415,1,8,0:0:0:0:
256,192,181820,1,8,0:0:0:0:
256,192,182226,1,0,0:0:0:0:
256,192,182631,1,12,0:0:0:0:
256,192,182834,1,0,0:0:0:0:
256,192,183037,1,8,0:0:0:0:
256,192,183138,1,0,0:0:0:0:
256,192,183239,1,8,0:0:0:0:
256,192,183341,1,8,0:0:0:0:
256,192,183442,1,0,0:0:0:0:
256,192,183543,1,0,0:0:0:0:
256,192,183645,1,8,0:0:0:0:
256,192,183746,1,8,0:0:0:0:
256,192,183847,1,0,0:0:0:0:
256,192,183949,1,8,0:0:0:0:
256,192,184050,1,8,0:0:0:0:
256,192,184151,1,0,0:0:0:0:
256,192,184253,1,8,0:0:0:0:
256,192,184354,1,0,0:0:0:0:
256,192,184455,1,8,0:0:0:0:
256,192,184557,1,8,0:0:0:0:
256,192,184658,1,0,0:0:0:0:
256,192,184760,1,8,0:0:0:0:
256,192,184861,1,0,0:0:0:0:
256,192,184962,1,0,0:0:0:0:
256,192,185064,1,8,0:0:0:0:
256,192,185165,1,8,0:0:0:0:
256,192,185266,1,0,0:0:0:0:
256,192,185368,1,8,0:0:0:0:
256,192,185469,1,8,0:0:0:0:
256,192,185672,1,0,0:0:0:0:
256,192,185773,1,0,0:0:0:0:
256,192,185874,1,8,0:0:0:0:
256,192,186077,1,0,0:0:0:0:
256,192,186280,1,8,0:0:0:0:
256,192,186381,1,0,0:0:0:0:
256,192,186482,1,8,0:0:0:0:
256,192,186584,1,8,0:0:0:0:
256,192,186685,1,0,0:0:0:0:
256,192,186787,1,8,0:0:0:0:
256,192,186888,1,8,0:0:0:0:
256,192,186989,1,0,0:0:0:0:
256,192,187091,1,0,0:0:0:0:
256,192,187192,1,8,0:0:0:0:
256,192,187293,1,8,0:0:0:0:
256,192,187395,1,0,0:0:0:0:
256,192,187496,1,8,0:0:0:0:
256,192,187597,1,0,0:0:0:0:
256,192,187699,1,8,0:0:0:0:
256,192,187800,1,8,0:0:0:0:
256,192,187901,1,0,0:0:0:0:
256,192,188003,1,0,0:0:0:0:
256,192,188104,1,8,0:0:0:0:
256,192,188205,1,0,0:0:0:0:
256,192,188307,1,8,0:0:0:0:
256,192,188509,1,0,0:0:0:0:
256,192,188611,1,0,0:0:0:0:
256,192,188712,1,8,0:0:0:0:
256,192,188915,1,8,0:0:0:0:
256,192,189118,1,4,0:0:0:0:
256,192,189320,1,8,0:0:0:0:
256,192,189388,1,8,0:0:0:0:
256,192,189455,1,0,0:0:0:0:
256,192,189523,1,8,0:0:0:0:
256,192,189624,1,0,0:0:0:0:
256,192,189726,1,8,0:0:0:0:
256,192,189827,1,8,0:0:0:0:
256,192,189928,1,0,0:0:0:0:
256,192,190030,1,0,0:0:0:0:
256,192,190131,1,8,0:0:0:0:
256,192,190232,1,8,0:0:0:0:
256,192,190334,1,0,0:0:0:0:
256,192,190435,1,0,0:0:0:0:
256,192,190537,1,8,0:0:0:0:
256,192,190638,1,8,0:0:0:0:
256,192,190739,1,0,0:0:0:0:
256,192,190807,1,0,0:0:0:0:
256,192,190874,1,8,0:0:0:0:
256,192,190942,1,0,0:0:0:0:
256,192,191043,1,8,0:0:0:0:
256,192,191145,1,0,0:0:0:0:
256,192,191212,1,0,0:0:0:0:
256,192,191280,1,0,0:0:0:0:
256,192,191347,1,0,0:0:0:0:
256,192,191449,1,8,0:0:0:0:
256,192,191550,1,0,0:0:0:0:
256,192,191618,1,0,0:0:0:0:
256,192,191685,1,8,0:0:0:0:
256,192,191753,1,0,0:0:0:0:
256,192,191854,1,8,0:0:0:0:
256,192,191955,1,0,0:0:0:0:
256,192,192023,1,0,0:0:0:0:
256,192,192091,1,0,0:0:0:0:
256,192,192158,1,0,0:0:0:0:
256,192,192259,1,8,0:0:0:0:
256,192,192361,1,4,0:0:0:0:
256,192,195199,1,8,0:0:0:0:
256,192,195401,1,8,0:0:0:0:
256,192,195604,1,0,0:0:0:0:
256,192,195705,1,8,0:0:0:0:
256,192,195807,1,8,0:0:0:0:
256,192,196009,1,0,0:0:0:0:
256,192,196111,1,0,0:0:0:0:
256,192,196212,1,8,0:0:0:0:
256,192,196415,1,0,0:0:0:0:
256,192,196516,1,8,0:0:0:0:
256,192,196618,1,8,0:0:0:0:
256,192,196820,1,0,0:0:0:0:
256,192,196922,1,0,0:0:0:0:
256,192,197023,1,8,0:0:0:0:
256,192,197226,1,0,0:0:0:0:
256,192,197428,1,8,0:0:0:0:
256,192,197530,1,8,0:0:0:0:
256,192,197631,1,0,0:0:0:0:
256,192,197834,1,8,0:0:0:0:
256,192,197935,1,0,0:0:0:0:
256,192,198037,1,0,0:0:0:0:
256,192,198239,1,8,0:0:0:0:
256,192,198341,1,8,0:0:0:0:
256,192,198442,1,0,0:0:0:0:
256,192,198645,1,8,0:0:0:0:
256,192,198847,1,0,0:0:0:0:
256,192,198949,1,0,0:0:0:0:
256,192,199050,1,8,0:0:0:0:
256,192,199253,1,0,0:0:0:0:
256,192,199354,1,8,0:0:0:0:
256,192,199455,1,0,0:0:0:0:
256,192,199658,1,0,0:0:0:0:
256,192,199759,1,0,0:0:0:0:
256,192,199861,1,8,0:0:0:0:
256,192,200064,1,0,0:0:0:0:
256,192,200165,1,8,0:0:0:0:
256,192,200266,1,0,0:0:0:0:
256,192,200469,1,0,0:0:0:0:
256,192,200672,1,8,0:0:0:0:
256,192,200773,1,8,0:0:0:0:
256,192,200874,1,0,0:0:0:0:
256,192,201077,1,8,0:0:0:0:
256,192,201178,1,0,0:0:0:0:
256,192,201280,1,8,0:0:0:0:
256,192,201482,1,8,0:0:0:0:
256,192,201584,1,8,0:0:0:0:
256,192,201685,1,0,0:0:0:0:
256,192,201888,1,8,0:0:0:0:
256,192,202091,1,0,0:0:0:0:
256,192,202496,1,8,0:0:0:0:
256,192,202699,1,8,0:0:0:0:
256,192,202901,1,0,0:0:0:0:
256,192,203104,1,8,0:0:0:0:
256,192,203205,1,8,0:0:0:0:
256,192,203307,1,0,0:0:0:0:
256,192,203408,1,8,0:0:0:0:
256,192,203509,1,0,0:0:0:0:
256,192,203712,1,8,0:0:0:0:
256,192,204118,1,0,0:0:0:0:
256,192,204320,1,0,0:0:0:0:
256,192,204523,1,8,0:0:0:0:
256,192,204726,1,0,0:0:0:0:
256,192,204928,1,8,0:0:0:0:
256,192,205131,1,0,0:0:0:0:
256,192,205232,1,0,0:0:0:0:
256,192,205334,1,8,0:0:0:0:
256,192,205739,1,0,0:0:0:0:
256,192,205942,1,8,0:0:0:0:
256,192,206145,1,0,0:0:0:0:
256,192,206550,1,8,0:0:0:0:
256,192,206955,1,0,0:0:0:0:
256,192,207361,1,0,0:0:0:0:
256,192,207766,1,0,0:0:0:0:
256,192,208172,1,8,0:0:0:0:
256,192,208577,1,0,0:0:0:0:
256,192,208982,1,8,0:0:0:0:
256,192,209185,1,0,0:0:0:0:
256,192,209591,1,0,0:0:0:0:
256,192,209793,1,8,0:0:0:0:
256,192,210199,1,0,0:0:0:0:
256,192,210604,1,0,0:0:0:0:
256,192,211009,1,0,0:0:0:0:
256,192,211415,1,8,0:0:0:0:
256,192,211820,8,4,221145,0:0:0:0:
256,192,221550,5,4,0:0:0:0:
256,192,222158,1,0,0:0:0:0:
256,192,222766,1,0,0:0:0:0:
256,192,224793,1,8,0:0:0:0:
256,192,225401,1,8,0:0:0:0:
256,192,226009,1,8,0:0:0:0:
256,192,227226,1,0,0:0:0:0:
256,192,227631,1,8,0:0:0:0:
256,192,228037,1,0,0:0:0:0:
256,192,228645,1,0,0:0:0:0:
256,192,229253,1,0,0:0:0:0:
256,192,231280,1,8,0:0:0:0:
256,192,231888,1,8,0:0:0:0:
256,192,232496,1,8,0:0:0:0:
256,192,233712,1,0,0:0:0:0:
256,192,234118,1,8,0:0:0:0:
256,192,234523,1,0,0:0:0:0:
256,192,235131,1,0,0:0:0:0:
256,192,235739,1,0,0:0:0:0:
256,192,236955,1,0,0:0:0:0:
256,192,237766,1,8,0:0:0:0:
256,192,238374,1,8,0:0:0:0:
256,192,238982,1,8,0:0:0:0:
256,192,240199,1,0,0:0:0:0:
256,192,240604,1,8,0:0:0:0:
256,192,241009,1,0,0:0:0:0:
256,192,241618,1,0,0:0:0:0:
256,192,242226,1,0,0:0:0:0:
256,192,243442,1,0,0:0:0:0:
256,192,244253,1,8,0:0:0:0:
256,192,244861,1,8,0:0:0:0:
256,192,245469,1,8,0:0:0:0:
256,192,246685,1,0,0:0:0:0:
256,192,247091,1,8,0:0:0:0:
256,192,247293,1,0,0:0:0:0:
256,192,247395,1,0,0:0:0:0:
256,192,247496,1,0,0:0:0:0:
256,192,248104,1,0,0:0:0:0:
256,192,248509,1,8,0:0:0:0:
256,192,248712,1,0,0:0:0:0:
256,192,248915,1,0,0:0:0:0:
256,192,249016,1,0,0:0:0:0:
256,192,249118,1,8,0:0:0:0:
256,192,249523,1,0,0:0:0:0:
256,192,249928,1,8,0:0:0:0:
256,192,250131,1,0,0:0:0:0:
256,192,250334,1,8,0:0:0:0:
256,192,250739,1,8,0:0:0:0:
256,192,251145,1,0,0:0:0:0:
256,192,251347,1,8,0:0:0:0:
256,192,251753,1,0,0:0:0:0:
256,192,251955,1,8,0:0:0:0:
256,192,252158,1,8,0:0:0:0:
256,192,252259,1,0,0:0:0:0:
256,192,252361,1,8,0:0:0:0:
256,192,252766,1,0,0:0:0:0:
256,192,252969,1,8,0:0:0:0:
256,192,253172,1,8,0:0:0:0:
256,192,253374,1,8,0:0:0:0:
256,192,253476,1,0,0:0:0:0:
256,192,253577,1,0,0:0:0:0:
256,192,253678,1,8,0:0:0:0:
256,192,253780,1,0,0:0:0:0:
256,192,253982,1,4,0:0:0:0:
256,192,254185,1,0,0:0:0:0:
256,192,254388,1,8,0:0:0:0:
256,192,254591,1,0,0:0:0:0:
256,192,254692,1,8,0:0:0:0:
256,192,254793,1,0,0:0:0:0:
256,192,254895,1,0,0:0:0:0:
256,192,254996,1,8,0:0:0:0:
256,192,255199,1,0,0:0:0:0:
256,192,255300,1,0,0:0:0:0:
256,192,255401,1,8,0:0:0:0:
256,192,255503,1,8,0:0:0:0:
256,192,255604,1,8,0:0:0:0:
256,192,255705,1,0,0:0:0:0:
256,192,255807,1,0,0:0:0:0:
256,192,255908,1,0,0:0:0:0:
256,192,256009,1,8,0:0:0:0:
256,192,256111,1,8,0:0:0:0:
256,192,256212,1,0,0:0:0:0:
256,192,256314,1,0,0:0:0:0:
256,192,256415,1,0,0:0:0:0:
256,192,256516,1,0,0:0:0:0:
256,192,256618,1,8,0:0:0:0:
256,192,256719,1,0,0:0:0:0:
256,192,256820,1,8,0:0:0:0:
256,192,256922,1,8,0:0:0:0:
256,192,257023,1,0,0:0:0:0:
256,192,257124,1,0,0:0:0:0:
256,192,257226,1,8,0:0:0:0:
256,192,257327,1,8,0:0:0:0:
256,192,257428,1,8,0:0:0:0:
256,192,257530,1,8,0:0:0:0:
256,192,257631,1,0,0:0:0:0:
256,192,257732,1,0,0:0:0:0:
256,192,257834,1,0,0:0:0:0:
256,192,257935,1,0,0:0:0:0:
256,192,258037,1,8,0:0:0:0:
256,192,258138,1,0,0:0:0:0:
256,192,258239,1,8,0:0:0:0:
256,192,258341,1,8,0:0:0:0:
256,192,258442,1,0,0:0:0:0:
256,192,258543,1,8,0:0:0:0:
256,192,258645,1,0,0:0:0:0:
256,192,258746,1,0,0:0:0:0:
256,192,258847,1,8,0:0:0:0:
256,192,260469,1,8,0:0:0:0:
256,192,260570,1,8,0:0:0:0:
256,192,260672,1,0,0:0:0:0:
256,192,260773,1,8,0:0:0:0:
256,192,260874,1,0,0:0:0:0:
256,192,260976,1,0,0:0:0:0:
256,192,261077,1,8,0:0:0:0:
256,192,261178,1,0,0:0:0:0:
256,192,261280,1,8,0:0:0:0:
256,192,261381,1,8,0:0:0:0:
256,192,261482,1,0,0:0:0:0:
256,192,261584,1,8,0:0:0:0:
256,192,261685,1,0,0:0:0:0:
256,192,261787,1,0,0:0:0:0:
256,192,261888,1,8,0:0:0:0:
256,192,261989,1,0,0:0:0:0:
256,192,262091,1,8,0:0:0:0:
256,192,262192,1,8,0:0:0:0:
256,192,262293,1,0,0:0:0:0:
256,192,262395,1,8,0:0:0:0:
256,192,262496,1,0,0:0:0:0:
256,192,262597,1,0,0:0:0:0:
256,192,262699,1,8,0:0:0:0:
256,192,262800,1,0,0:0:0:0:
256,192,262901,1,8,0:0:0:0:
256,192,263003,1,8,0:0:0:0:
256,192,263104,1,0,0:0:0:0:
256,192,263205,1,8,0:0:0:0:
256,192,263307,1,0,0:0:0:0:
256,192,263712,1,0,0:0:0:0:
256,192,263814,1,0,0:0:0:0:
256,192,263915,1,8,0:0:0:0:
256,192,264016,1,0,0:0:0:0:
256,192,264118,1,8,0:0:0:0:
256,192,264219,1,8,0:0:0:0:
256,192,264320,1,0,0:0:0:0:
256,192,264422,1,8,0:0:0:0:
256,192,264523,1,0,0:0:0:0:
256,192,264624,1,0,0:0:0:0:
256,192,264726,1,8,0:0:0:0:
256,192,264827,1,0,0:0:0:0:
256,192,264928,1,8,0:0:0:0:
256,192,265030,1,8,0:0:0:0:
256,192,265131,1,0,0:0:0:0:
256,192,265232,1,8,0:0:0:0:
256,192,265334,1,0,0:0:0:0:
256,192,265435,1,0,0:0:0:0:
256,192,265537,1,8,0:0:0:0:
256,192,265638,1,0,0:0:0:0:
256,192,265739,1,8,0:0:0:0:
256,192,265841,1,8,0:0:0:0:
256,192,265942,1,0,0:0:0:0:
256,192,266043,1,8,0:0:0:0:
256,192,266145,1,0,0:0:0:0:
256,192,266246,1,0,0:0:0:0:
256,192,266347,1,8,0:0:0:0:
256,192,266449,1,0,0:0:0:0:
256,192,266550,1,8,0:0:0:0:
256,192,266753,1,8,0:0:0:0:
256,192,266955,1,0,0:0:0:0:
256,192,267057,1,8,0:0:0:0:
256,192,267158,1,0,0:0:0:0:
256,192,267259,1,0,0:0:0:0:
256,192,267361,1,8,0:0:0:0:
256,192,267462,1,8,0:0:0:0:
256,192,267564,1,0,0:0:0:0:
256,192,267665,1,8,0:0:0:0:
256,192,267766,1,0,0:0:0:0:
256,192,267868,1,8,0:0:0:0:
256,192,267969,1,0,0:0:0:0:
256,192,268070,1,0,0:0:0:0:
256,192,268172,1,8,0:0:0:0:
256,192,268273,1,8,0:0:0:0:
256,192,268374,1,0,0:0:0:0:
256,192,268476,1,8,0:0:0:0:
256,192,268577,1,0,0:0:0:0:
256,192,268678,1,8,0:0:0:0:
256,192,268780,1,0,0:0:0:0:
256,192,268881,1,0,0:0:0:0:
256,192,268982,1,8,0:0:0:0:
256,192,269084,1,8,0:0:0:0:
256,192,269185,1,0,0:0:0:0:
256,192,269287,1,8,0:0:0:0:
256,192,269388,1,0,0:0:0:0:
256,192,269489,1,8,0:0:0:0:
256,192,269591,1,0,0:0:0:0:
256,192,269692,1,0,0:0:0:0:
256,192,269793,1,8,0:0:0:0:
256,192,270199,1,8,0:0:0:0:
256,192,270300,1,0,0:0:0:0:
256,192,270401,1,8,0:0:0:0:
256,192,270503,1,8,0:0:0:0:
256,192,270604,1,0,0:0:0:0:
256,192,270705,1,0,0:0:0:0:
256,192,270807,1,8,0:0:0:0:
256,192,270908,1,0,0:0:0:0:
256,192,271009,1,8,0:0:0:0:
256,192,271111,1,0,0:0:0:0:
256,192,271212,1,8,0:0:0:0:
256,192,271314,1,8,0:0:0:0:
256,192,271415,1,0,0:0:0:0:
256,192,271516,1,0,0:0:0:0:
256,192,271618,1,8,0:0:0:0:
256,192,271719,1,0,0:0:0:0:
256,192,271820,1,8,0:0:0:0:
256,192,271922,1,0,0:0:0:0:
256,192,272023,1,8,0:0:0:0:
256,192,272124,1,8,0:0:0:0:
256,192,272226,1,0,0:0:0:0:
256,192,272327,1,0,0:0:0:0:
256,192,272428,1,8,0:0:0:0:
256,192,272530,1,0,0:0:0:0:
256,192,272631,1,8,0:0:0:0:
256,192,272732,1,0,0:0:0:0:
256,192,272834,1,8,0:0:0:0:
256,192,272935,1,8,0:0:0:0:
256,192,273037,1,0,0:0:0:0:
256,192,273239,1,8,0:0:0:0:
256,192,273442,1,0,0:0:0:0:
256,192,273509,1,0,0:0:0:0:
256,192,273577,1,8,0:0:0:0:
256,192,273645,1,0,0:0:0:0:
256,192,273746,1,8,0:0:0:0:
256,192,273847,1,0,0:0:0:0:
256,192,273915,1,0,0:0:0:0:
256,192,273982,1,0,0:0:0:0:
256,192,274050,1,0,0:0:0:0:
256,192,274151,1,8,0:0:0:0:
256,192,274253,1,0,0:0:0:0:
256,192,274320,1,0,0:0:0:0:
256,192,274388,1,8,0:0:0:0:
256,192,274455,1,0,0:0:0:0:
256,192,274557,1,8,0:0:0:0:
256,192,274658,1,0,0:0:0:0:
256,192,275064,1,8,0:0:0:0:
256,192,275131,1,8,0:0:0:0:
256,192,275199,1,0,0:0:0:0:
256,192,275266,1,8,0:0:0:0:
256,192,275368,1,0,0:0:0:0:
256,192,275469,1,8,0:0:0:0:
256,192,275537,1,8,0:0:0:0:
256,192,275604,1,8,0:0:0:0:
256,192,275672,1,8,0:0:0:0:
256,192,275773,1,0,0:0:0:0:
256,192,275874,1,8,0:0:0:0:
256,192,275942,1,8,0:0:0:0:
256,192,276009,1,0,0:0:0:0:
256,192,276077,1,8,0:0:0:0:
256,192,276178,1,0,0:0:0:0:
256,192,276280,1,8,0:0:0:0:
256,192,276482,1,8,0:0:0:0:
256,192,276685,1,0,0:0:0:0:
256,192,276753,1,0,0:0:0:0:
256,192,276820,1,8,0:0:0:0:
256,192,276888,1,0,0:0:0:0:
256,192,276989,1,8,0:0:0:0:
256,192,277091,1,0,0:0:0:0:
256,192,277158,1,0,0:0:0:0:
256,192,277226,1,0,0:0:0:0:
256,192,277293,1,0,0:0:0:0:
256,192,277395,1,8,0:0:0:0:
256,192,277496,1,0,0:0:0:0:
256,192,277564,1,0,0:0:0:0:
256,192,277631,1,8,0:0:0:0:
256,192,277699,1,0,0:0:0:0:
256,192,277800,1,8,0:0:0:0:
256,192,277901,1,0,0:0:0:0:
256,192,278003,1,0,0:0:0:0:
256,192,278104,1,0,0:0:0:0:
256,192,278307,1,8,0:0:0:0:
256,192,278374,1,8,0:0:0:0:
256,192,278442,1,0,0:0:0:0:
256,192,278509,1,8,0:0:0:0:
256,192,278611,1,0,0:0:0:0:
256,192,278712,1,8,0:0:0:0:
256,192,278780,1,8,0:0:0:0:
256,192,278847,1,8,0:0:0:0:
256,192,278915,1,8,0:0:0:0:
256,192,279016,1,0,0:0:0:0:
256,192,279118,1,8,0:0:0:0:
256,192,279185,1,8,0:0:0:0:
256,192,279253,1,0,0:0:0:0:
256,192,279320,1,8,0:0:0:0:
256,192,279422,1,0,0:0:0:0:
256,192,279523,1,8,0:0:0:0:
256,192,279624,1,8,0:0:0:0:
256,192,279726,1,0,0:0:0:0:
256,192,279928,1,8,0:0:0:0:
256,192,279996,1,8,0:0:0:0:
256,192,280064,1,0,0:0:0:0:
256,192,280131,1,8,0:0:0:0:
256,192,280232,1,0,0:0:0:0:
256,192,280334,1,8,0:0:0:0:
256,192,280401,1,8,0:0:0:0:
256,192,280469,1,0,0:0:0:0:
256,192,280537,1,8,0:0:0:0:
256,192,280638,1,0,0:0:0:0:
256,192,280739,1,8,0:0:0:0:
256,192,280807,1,8,0:0:0:0:
256,192,280874,1,8,0:0:0:0:
256,192,280942,1,0,0:0:0:0:
256,192,281043,1,0,0:0:0:0:
256,192,281145,1,8,0:0:0:0:
256,192,281212,1,8,0:0:0:0:
256,192,281280,1,8,0:0:0:0:
256,192,281347,1,0,0:0:0:0:
256,192,281449,1,0,0:0:0:0:
256,192,281550,1,8,0:0:0:0:
256,192,281618,1,0,0:0:0:0:
256,192,281685,1,8,0:0:0:0:
256,192,281753,1,8,0:0:0:0:
256,192,281854,1,0,0:0:0:0:
256,192,281955,1,8,0:0:0:0:
256,192,282023,1,0,0:0:0:0:
256,192,282091,1,8,0:0:0:0:
256,192,282158,1,8,0:0:0:0:
256,192,282259,1,0,0:0:0:0:
256,192,282361,1,8,0:0:0:0:
256,192,282428,1,8,0:0:0:0:
256,192,282496,1,8,0:0:0:0:
256,192,282564,1,0,0:0:0:0:
256,192,282665,1,0,0:0:0:0:
256,192,282766,1,8,0:0:0:0:
256,192,282834,1,8,0:0:0:0:
256,192,282901,1,8,0:0:0:0:
256,192,282969,1,0,0:0:0:0:
256,192,283070,1,0,0:0:0:0:
256,192,283172,1,8,0:0:0:0:
256,192,283273,1,0,0:0:0:0:
256,192,283374,1,8,0:0:0:0:
256,192,283476,1,0,0:0:0:0:
256,192,283577,1,8,0:0:0:0:
256,192,283678,1,8,0:0:0:0:
256,192,283780,1,8,0:0:0:0:
256,192,283881,1,0,0:0:0:0:
256,192,283982,1,8,0:0:0:0:
256,192,284084,1,8,0:0:0:0:
256,192,284185,1,8,0:0:0:0:
256,192,284287,1,0,0:0:0:0:
256,192,284388,1,8,0:0:0:0:
256,192,284489,1,8,0:0:0:0:
256,192,284591,1,0,0:0:0:0:
256,192,284692,1,0,0:0:0:0:
256,192,284793,1,12,0:0:0:0:
256,192,284996,1,8,0:0:0:0:
256,192,285097,1,8,0:0:0:0:
256,192,285199,1,8,0:0:0:0:
256,192,285300,1,8,0:0:0:0:
256,192,285401,1,8,0:0:0:0:
256,192,285503,1,8,0:0:0:0:
256,192,285604,1,8,0:0:0:0:
256,192,285705,1,8,0:0:0:0:
256,192,285807,1,8,0:0:0:0:
256,192,285908,1,8,0:0:0:0:
256,192,286009,1,8,0:0:0:0:
256,192,286212,1,0,0:0:0:0:
256,192,286415,1,12,0:0:0:0:
256,192,286618,1,0,0:0:0:0:
256,192,286719,1,8,0:0:0:0:
256,192,286820,1,0,0:0:0:0:
256,192,286922,1,8,0:0:0:0:
256,192,287023,1,0,0:0:0:0:
256,192,287124,1,8,0:0:0:0:
256,192,287327,1,0,0:0:0:0:
256,192,287428,1,0,0:0:0:0:
256,192,287530,1,8,0:0:0:0:
256,192,287631,1,0,0:0:0:0:
256,192,287732,1,8,0:0:0:0:
256,192,287834,1,0,0:0:0:0:
256,192,287935,1,8,0:0:0:0:
256,192,288138,1,8,0:0:0:0:
256,192,288239,1,0,0:0:0:0:
256,192,288341,1,0,0:0:0:0:
256,192,288442,1,8,0:0:0:0:
256,192,288543,1,8,0:0:0:0:
256,192,288645,1,0,0:0:0:0:
256,192,288746,1,8,0:0:0:0:
256,192,288949,1,8,0:0:0:0:
256,192,289050,1,8,0:0:0:0:
256,192,289151,1,0,0:0:0:0:
256,192,289253,1,0,0:0:0:0:
256,192,289354,1,8,0:0:0:0:
256,192,289455,1,0,0:0:0:0:
256,192,289557,1,0,0:0:0:0:
256,192,289658,1,8,0:0:0:0:
256,192,289861,1,0,0:0:0:0:
256,192,289962,1,8,0:0:0:0:
256,192,290064,1,0,0:0:0:0:
256,192,290165,1,8,0:0:0:0:
256,192,290266,1,0,0:0:0:0:
256,192,290368,1,8,0:0:0:0:
256,192,290570,1,0,0:0:0:0:
256,192,290672,1,0,0:0:0:0:
256,192,290773,1,8,0:0:0:0:
256,192,290874,1,0,0:0:0:0:
256,192,290976,1,8,0:0:0:0:
256,192,291077,1,0,0:0:0:0:
256,192,291178,1,8,0:0:0:0:
256,192,291381,1,8,0:0:0:0:
256,192,291482,1,8,0:0:0:0:
256,192,291584,1,0,0:0:0:0:
256,192,291685,1,0,0:0:0:0:
256,192,291787,1,8,0:0:0:0:
256,192,291888,1,0,0:0:0:0:
256,192,291989,1,8,0:0:0:0:
256,192,292192,1,0,0:0:0:0:
256,192,292293,1,8,0:0:0:0:
256,192,292395,1,8,0:0:0:0:
256,192,292496,1,0,0:0:0:0:
256,192,292597,1,8,0:0:0:0:
256,192,292699,1,0,0:0:0:0:
256,192,292800,1,0,0:0:0:0:
256,192,292901,1,12,0:0:0:0:
256,192,293104,1,0,0:0:0:0:
256,192,293205,1,8,0:0:0:0:
256,192,293306,1,0,0:0:0:0:
256,192,293408,1,8,0:0:0:0:
256,192,293509,1,0,0:0:0:0:
256,192,293610,1,8,0:0:0:0:
256,192,293813,1,0,0:0:0:0:
256,192,293914,1,0,0:0:0:0:
256,192,294016,1,8,0:0:0:0:
256,192,294117,1,0,0:0:0:0:
256,192,294218,1,8,0:0:0:0:
256,192,294320,1,0,0:0:0:0:
256,192,294421,1,8,0:0:0:0:
256,192,294624,1,8,0:0:0:0:
256,192,294725,1,0,0:0:0:0:
256,192,294827,1,0,0:0:0:0:
256,192,294928,1,8,0:0:0:0:
256,192,295029,1,8,0:0:0:0:
256,192,295131,1,0,0:0:0:0:
256,192,295232,1,8,0:0:0:0:
256,192,295435,1,8,0:0:0:0:
256,192,295536,1,8,0:0:0:0:
256,192,295637,1,0,0:0:0:0:
256,192,295739,1,0,0:0:0:0:
256,192,295840,1,8,0:0:0:0:
256,192,295941,1,0,0:0:0:0:
256,192,296043,1,0,0:0:0:0:
256,192,296144,1,8,0:0:0:0:
256,192,296347,1,0,0:0:0:0:
256,192,296448,1,8,0:0:0:0:
256,192,296550,1,0,0:0:0:0:
256,192,296651,1,8,0:0:0:0:
256,192,296753,1,8,0:0:0:0:
256,192,296854,1,0,0:0:0:0:
256,192,297056,1,0,0:0:0:0:
256,192,297158,1,0,0:0:0:0:
256,192,297259,1,8,0:0:0:0:
256,192,297360,1,0,0:0:0:0:
256,192,297462,1,8,0:0:0:0:
256,192,297563,1,0,0:0:0:0:
256,192,297664,1,8,0:0:0:0:
256,192,297867,1,8,0:0:0:0:
256,192,297969,1,8,0:0:0:0:
256,192,298070,1,0,0:0:0:0:
256,192,298172,1,12,0:0:0:0:
256,192,298577,1,12,0:0:0:0:
256,192,298982,1,4,0:0:0:0:
256,192,299388,1,12,0:0:0:0:
256,192,299591,1,0,0:0:0:0:
256,192,299692,1,8,0:0:0:0:
256,192,299793,1,0,0:0:0:0:
256,192,299895,1,8,0:0:0:0:
256,192,299996,1,8,0:0:0:0:
256,192,300097,1,0,0:0:0:0:
256,192,300199,1,8,0:0:0:0:
256,192,300401,1,0,0:0:0:0:
256,192,300503,1,8,0:0:0:0:
256,192,300604,1,0,0:0:0:0:
256,192,300705,1,8,0:0:0:0:
256,192,300807,1,8,0:0:0:0:
256,192,300908,1,0,0:0:0:0:
256,192,301009,1,8,0:0:0:0:
256,192,301212,1,0,0:0:0:0:
256,192,301314,1,0,0:0:0:0:
256,192,301415,1,8,0:0:0:0:
256,192,301516,1,0,0:0:0:0:
256,192,301618,1,8,0:0:0:0:
256,192,301820,1,0,0:0:0:0:
256,192,301922,1,8,0:0:0:0:
256,192,302023,1,8,0:0:0:0:
256,192,302124,1,0,0:0:0:0:
256,192,302226,1,0,0:0:0:0:
256,192,302327,1,8,0:0:0:0:
256,192,302428,1,0,0:0:0:0:
256,192,302530,1,8,0:0:0:0:
256,192,302631,1,0,0:0:0:0:
256,192,302834,1,0,0:0:0:0:
256,192,302935,1,8,0:0:0:0:
256,192,303037,1,0,0:0:0:0:
256,192,303138,1,8,0:0:0:0:
256,192,303239,1,8,0:0:0:0:
256,192,303341,1,0,0:0:0:0:
256,192,303442,1,0,0:0:0:0:
256,192,303645,1,8,0:0:0:0:
256,192,303746,1,8,0:0:0:0:
256,192,303847,1,0,0:0:0:0:
256,192,303949,1,0,0:0:0:0:
256,192,304050,1,8,0:0:0:0:
256,192,304151,1,0,0:0:0:0:
256,192,304253,1,8,0:0:0:0:
256,192,304455,1,0,0:0:0:0:
256,192,304557,1,0,0:0:0:0:
256,192,304658,1,8,0:0:0:0:
256,192,304759,1,0,0:0:0:0:
256,192,304861,1,8,0:0:0:0:
256,192,305064,1,0,0:0:0:0:
256,192,305165,1,8,0:0:0:0:
256,192,305266,1,8,0:0:0:0:
256,192,305368,1,0,0:0:0:0:
256,192,305469,1,8,0:0:0:0:
256,192,305672,1,0,0:0:0:0:
256,192,305874,1,12,0:0:0:0:
256,192,306077,1,0,0:0:0:0:
256,192,306178,1,8,0:0:0:0:
256,192,306280,1,0,0:0:0:0:
256,192,306381,1,0,0:0:0:0:
256,192,306482,1,8,0:0:0:0:
256,192,306584,1,0,0:0:0:0:
256,192,306685,1,8,0:0:0:0:
256,192,306787,1,8,0:0:0:0:
256,192,306888,1,0,0:0:0:0:
256,192,306989,1,8,0:0:0:0:
256,192,307091,1,0,0:0:0:0:
256,192,307192,1,0,0:0:0:0:
256,192,307293,1,8,0:0:0:0:
256,192,307395,1,0,0:0:0:0:
256,192,307496,1,8,0:0:0:0:
256,192,307597,1,8,0:0:0:0:
256,192,307699,1,0,0:0:0:0:
256,192,307800,1,8,0:0:0:0:
256,192,307901,1,0,0:0:0:0:
256,192,308003,1,0,0:0:0:0:
256,192,308104,1,8,0:0:0:0:
256,192,308205,1,0,0:0:0:0:
256,192,308307,1,8,0:0:0:0:
256,192,308408,1,8,0:0:0:0:
256,192,308509,1,0,0:0:0:0:
256,192,308611,1,8,0:0:0:0:
256,192,308712,1,0,0:0:0:0:
256,192,308814,1,0,0:0:0:0:
256,192,308915,1,8,0:0:0:0:
256,192,309016,1,0,0:0:0:0:
256,192,309118,1,8,0:0:0:0:
256,192,309185,1,8,0:0:0:0:
256,192,309253,1,0,0:0:0:0:
256,192,309320,1,8,0:0:0:0:
256,192,309422,1,0,0:0:0:0:
256,192,309523,1,8,0:0:0:0:
256,192,309591,1,8,0:0:0:0:
256,192,309658,1,0,0:0:0:0:
256,192,309726,1,8,0:0:0:0:
256,192,309827,1,0,0:0:0:0:
256,192,309928,1,8,0:0:0:0:
256,192,309996,1,8,0:0:0:0:
256,192,310064,1,8,0:0:0:0:
256,192,310131,1,0,0:0:0:0:
256,192,310232,1,0,0:0:0:0:
256,192,310334,1,8,0:0:0:0:
256,192,310401,1,8,0:0:0:0:
256,192,310469,1,8,0:0:0:0:
256,192,310537,1,0,0:0:0:0:
256,192,310638,1,0,0:0:0:0:
256,192,310739,1,8,0:0:0:0:
256,192,310841,1,8,0:0:0:0:
256,192,310942,1,0,0:0:0:0:
256,192,311043,1,8,0:0:0:0:
256,192,311145,1,0,0:0:0:0:
256,192,311246,1,8,0:0:0:0:
256,192,311347,1,8,0:0:0:0:
256,192,311449,1,0,0:0:0:0:
256,192,311550,1,12,0:0:0:0:
256,192,312158,1,0,0:0:0:0:
256,192,312361,1,12,0:0:0:0:
256,192,312564,1,0,0:0:0:0:
256,192,312766,1,8,0:0:0:0:
256,192,312868,1,8,0:0:0:0:
256,192,312969,1,0,0:0:0:0:
256,192,313070,1,8,0:0:0:0:
256,192,313273,1,8,0:0:0:0:
256,192,313374,1,0,0:0:0:0:
256,192,313476,1,0,0:0:0:0:
256,192,313577,1,8,0:0:0:0:
256,192,313678,1,8,0:0:0:0:
256,192,313780,1,0,0:0:0:0:
256,192,313881,1,0,0:0:0:0:
256,192,313982,1,8,0:0:0:0:
256,192,314185,1,0,0:0:0:0:
256,192,314287,1,8,0:0:0:0:
256,192,314489,1,0,0:0:0:0:
256,192,314591,1,8,0:0:0:0:
256,192,314793,1,0,0:0:0:0:
256,192,314895,1,8,0:0:0:0:
256,192,314996,1,8,0:0:0:0:
256,192,315097,1,0,0:0:0:0:
256,192,315199,1,8,0:0:0:0:
256,192,315401,1,0,0:0:0:0:
256,192,315604,1,8,0:0:0:0:
256,192,315807,1,0,0:0:0:0:
256,192,315908,1,0,0:0:0:0:
256,192,316009,1,8,0:0:0:0:
256,192,316212,1,8,0:0:0:0:
256,192,316314,1,0,0:0:0:0:
256,192,316415,1,8,0:0:0:0:
256,192,316516,1,8,0:0:0:0:
256,192,316618,1,0,0:0:0:0:
256,192,316719,1,0,0:0:0:0:
256,192,316820,1,8,0:0:0:0:
256,192,316922,1,8,0:0:0:0:
256,192,317023,1,0,0:0:0:0:
256,192,317124,1,0,0:0:0:0:
256,192,317226,1,8,0:0:0:0:
256,192,317428,1,0,0:0:0:0:
256,192,317530,1,8,0:0:0:0:
256,192,317732,1,8,0:0:0:0:
256,192,317834,1,0,0:0:0:0:
256,192,317935,1,8,0:0:0:0:
256,192,318037,1,0,0:0:0:0:
256,192,318138,1,8,0:0:0:0:
256,192,318442,1,8,0:0:0:0:
256,192,318645,1,0,0:0:0:0:
256,192,318746,1,0,0:0:0:0:
256,192,318847,1,12,0:0:0:0:
256,192,319050,1,0,0:0:0:0:
256,192,319151,1,8,0:0:0:0:
256,192,319253,1,0,0:0:0:0:
256,192,319455,1,0,0:0:0:0:
256,192,319557,1,8,0:0:0:0:
256,192,319658,1,8,0:0:0:0:
256,192,319861,1,0,0:0:0:0:
256,192,319962,1,0,0:0:0:0:
256,192,320064,1,8,0:0:0:0:
256,192,320165,1,8,0:0:0:0:
256,192,320266,1,0,0:0:0:0:
256,192,320368,1,0,0:0:0:0:
256,192,320469,1,8,0:0:0:0:
160,192,320672,1,0,0:0:0:0:
256,192,320874,1,8,0:0:0:0:
256,192,320976,1,0,0:0:0:0:
256,192,321077,1,8,0:0:0:0:
256,192,321280,1,0,0:0:0:0:
256,192,321482,2,8,L|448:192,1,167.999994873047
256,192,322091,1,0,0:0:0:0:
256,192,322293,1,8,0:0:0:0:
256,192,322395,1,8,0:0:0:0:
256,192,322496,1,0,0:0:0:0:
256,192,322699,1,8,0:0:0:0:
256,192,322901,1,0,0:0:0:0:
256,192,323104,1,8,0:0:0:0:
256,192,323205,1,0,0:0:0:0:
256,192,323307,1,0,0:0:0:0:
256,192,323408,1,8,0:0:0:0:
256,192,323509,1,0,0:0:0:0:
256,192,323611,1,0,0:0:0:0:
256,192,323712,1,8,0:0:0:0:
256,192,323915,1,8,0:0:0:0:
256,192,324016,1,0,0:0:0:0:
256,192,324118,1,8,0:0:0:0:
256,192,324320,1,8,0:0:0:0:
256,192,324422,1,8,0:0:0:0:
256,192,324523,1,4,0:0:0:0:
256,192,324726,1,4,0:0:0:0:
256,192,324928,1,4,0:0:0:0:
256,192,325131,1,8,0:0:0:0:
256,192,325232,1,8,0:0:0:0:
256,192,325334,1,4,0:0:0:0:
256,192,325537,1,8,0:0:0:0:
256,192,325739,1,0,0:0:0:0:
256,192,325841,1,0,0:0:0:0:
256,192,325942,1,8,0:0:0:0:
256,192,326043,1,8,0:0:0:0:
256,192,326145,1,0,0:0:0:0:
256,192,326347,1,0,0:0:0:0:
256,192,326449,1,8,0:0:0:0:
256,192,326651,1,0,0:0:0:0:
256,192,326753,1,8,0:0:0:0:
256,192,326803,1,8,0:0:0:0:
256,192,326854,1,8,0:0:0:0:
256,192,326955,1,0,0:0:0:0:
256,192,327158,1,8,0:0:0:0:
256,192,327259,1,8,0:0:0:0:
256,192,327361,1,0,0:0:0:0:
256,192,327564,1,0,0:0:0:0:
256,192,327665,1,8,0:0:0:0:
256,192,327868,1,8,0:0:0:0:
256,192,327969,1,0,0:0:0:0:
256,192,328070,1,8,0:0:0:0:
256,192,328273,1,8,0:0:0:0:
256,192,328374,1,0,0:0:0:0:
256,192,328476,1,0,0:0:0:0:
256,192,328577,1,12,0:0:0:0:
256,192,328780,1,8,0:0:0:0:
256,192,328881,1,8,0:0:0:0:
256,192,328982,1,0,0:0:0:0:
256,192,329084,1,0,0:0:0:0:
256,192,329287,1,8,0:0:0:0:
256,192,329388,1,4,0:0:0:0:
256,192,329591,1,0,0:0:0:0:
256,192,329692,1,8,0:0:0:0:
256,192,329793,1,0,0:0:0:0:
256,192,329895,1,0,0:0:0:0:
256,192,329996,1,8,0:0:0:0:
256,192,330097,1,8,0:0:0:0:
256,192,330199,1,0,0:0:0:0:
256,192,330401,1,8,0:0:0:0:
256,192,330773,1,8,0:0:0:0:
256,192,330908,1,8,0:0:0:0:
256,192,331043,1,8,0:0:0:0:
256,192,331178,1,8,0:0:0:0:
256,192,331314,1,8,0:0:0:0:
256,192,331449,1,8,0:0:0:0:
256,192,331820,1,12,0:0:0:0:
256,192,332023,1,0,0:0:0:0:
256,192,332124,1,8,0:0:0:0:
256,192,332226,1,0,0:0:0:0:
256,192,332327,1,0,0:0:0:0:
256,192,332428,1,8,0:0:0:0:
256,192,332530,1,0,0:0:0:0:
256,192,332631,1,8,0:0:0:0:
256,192,332732,1,8,0:0:0:0:
256,192,332834,1,0,0:0:0:0:
256,192,332935,1,8,0:0:0:0:
256,192,333037,1,0,0:0:0:0:
256,192,333138,1,0,0:0:0:0:
256,192,333239,1,8,0:0:0:0:
256,192,333341,1,0,0:0:0:0:
256,192,333442,1,8,0:0:0:0:
256,192,333543,1,8,0:0:0:0:
256,192,333645,1,0,0:0:0:0:
256,192,333746,1,8,0:0:0:0:
256,192,333847,1,0,0:0:0:0:
256,192,333949,1,0,0:0:0:0:
256,192,334050,1,8,0:0:0:0:
256,192,334151,1,0,0:0:0:0:
256,192,334253,1,8,0:0:0:0:
256,192,334354,1,8,0:0:0:0:
256,192,334455,1,0,0:0:0:0:
256,192,334557,1,8,0:0:0:0:
256,192,334658,1,0,0:0:0:0:
256,192,334759,1,0,0:0:0:0:
256,192,334861,1,8,0:0:0:0:
256,192,334962,1,0,0:0:0:0:
256,192,335064,1,8,0:0:0:0:
256,192,335131,1,8,0:0:0:0:
256,192,335199,1,0,0:0:0:0:
256,192,335266,1,8,0:0:0:0:
256,192,335368,1,0,0:0:0:0:
256,192,335469,1,8,0:0:0:0:
256,192,335537,1,8,0:0:0:0:
256,192,335604,1,0,0:0:0:0:
256,192,335672,1,8,0:0:0:0:
256,192,335773,1,0,0:0:0:0:
256,192,335874,1,8,0:0:0:0:
256,192,335942,1,8,0:0:0:0:
256,192,336009,1,8,0:0:0:0:
256,192,336077,1,0,0:0:0:0:
256,192,336178,1,0,0:0:0:0:
256,192,336280,1,8,0:0:0:0:
256,192,336347,1,8,0:0:0:0:
256,192,336415,1,8,0:0:0:0:
256,192,336482,1,0,0:0:0:0:
256,192,336584,1,0,0:0:0:0:
256,192,336685,1,12,0:0:0:0:
256,192,337901,1,12,0:0:0:0:
256,192,338307,1,4,0:0:0:0:
256,192,338712,1,0,0:0:0:0:
256,192,338915,1,0,0:0:0:0:
256,192,339016,1,8,0:0:0:0:
256,192,339219,1,8,0:0:0:0:
256,192,339320,1,0,0:0:0:0:
256,192,339523,1,0,0:0:0:0:
256,192,339726,1,8,0:0:0:0:
256,192,339928,1,0,0:0:0:0:
256,192,340131,1,0,0:0:0:0:
256,192,340232,1,8,0:0:0:0:
256,192,340334,1,8,0:0:0:0:
256,192,340537,1,0,0:0:0:0:
256,192,340739,1,12,0:0:0:0:
256,192,341145,1,12,0:0:0:0:
256,192,341550,1,0,0:0:0:0:
256,192,341618,1,0,0:0:0:0:
256,192,341685,1,0,0:0:0:0:
256,192,341753,1,8,0:0:0:0:
256,192,341820,1,8,0:0:0:0:
256,192,341888,1,8,0:0:0:0:
256,192,341955,1,0,0:0:0:0:
256,192,342158,1,8,0:0:0:0:
256,192,342259,1,8,0:0:0:0:
256,192,342361,1,0,0:0:0:0:
256,192,342462,1,8,0:0:0:0:
256,192,342564,1,0,0:0:0:0:
256,192,342766,1,8,0:0:0:0:
256,192,342969,1,0,0:0:0:0:
256,192,343070,1,0,0:0:0:0:
256,192,343172,1,0,0:0:0:0:
256,192,343476,1,8,0:0:0:0:
256,192,343577,1,0,0:0:0:0:
256,192,343780,1,0,0:0:0:0:
256,192,343881,1,0,0:0:0:0:
256,192,343982,1,8,0:0:0:0:
256,192,344084,1,0,0:0:0:0:
256,192,344287,1,8,0:0:0:0:
256,192,344388,1,0,0:0:0:0:
256,192,344591,1,8,0:0:0:0:
256,192,344793,1,4,0:0:0:0:
256,192,345199,1,0,0:0:0:0:
256,192,345401,1,8,0:0:0:0:
256,192,345604,1,0,0:0:0:0:
256,192,345705,1,0,0:0:0:0:
256,192,345807,1,8,0:0:0:0:
256,192,346009,1,0,0:0:0:0:
256,192,346212,1,8,0:0:0:0:
256,192,346415,1,0,0:0:0:0:
256,192,346618,1,0,0:0:0:0:
256,192,346719,1,8,0:0:0:0:
256,192,346820,1,8,0:0:0:0:
256,192,347023,1,0,0:0:0:0:
256,192,347226,1,12,0:0:0:0:
256,192,347631,1,12,0:0:0:0:
256,192,348037,1,0,0:0:0:0:
256,192,348104,1,0,0:0:0:0:
256,192,348172,1,0,0:0:0:0:
256,192,348239,1,8,0:0:0:0:
256,192,348307,1,8,0:0:0:0:
256,192,348374,1,8,0:0:0:0:
256,192,348442,1,0,0:0:0:0:
256,192,348645,1,0,0:0:0:0:
256,192,348712,1,0,0:0:0:0:
256,192,348780,1,0,0:0:0:0:
256,192,348847,1,8,0:0:0:0:
256,192,348949,1,8,0:0:0:0:
256,192,349050,1,0,0:0:0:0:
256,192,349253,1,8,0:0:0:0:
256,192,349455,1,8,0:0:0:0:
256,192,349658,1,4,0:0:0:0:
256,192,350469,1,4,0:0:0:0:
256,192,350773,1,4,0:0:0:0:
256,192,351077,1,4,0:0:0:0:
256,192,351280,1,12,0:0:0:0:
256,192,351533,1,0,0:0:0:0:
256,192,351584,1,8,0:0:0:0:
256,192,351685,1,0,0:0:0:0:
256,192,351888,1,0,0:0:0:0:
256,192,351989,1,8,0:0:0:0:
256,192,352192,1,8,0:0:0:0:
256,192,352293,1,0,0:0:0:0:
256,192,352496,1,0,0:0:0:0:
256,192,352699,1,8,0:0:0:0:
256,192,352901,1,0,0:0:0:0:
256,192,353104,1,0,0:0:0:0:
256,192,353205,1,8,0:0:0:0:
256,192,353307,1,8,0:0:0:0:
256,192,353509,1,0,0:0:0:0:
256,192,353712,1,12,0:0:0:0:
256,192,354118,1,12,0:0:0:0:
256,192,354523,1,0,0:0:0:0:
256,192,354591,1,0,0:0:0:0:
256,192,354658,1,0,0:0:0:0:
256,192,354726,1,8,0:0:0:0:
256,192,354793,1,8,0:0:0:0:
256,192,354861,1,8,0:0:0:0:
256,192,354928,1,0,0:0:0:0:
256,192,355131,1,0,0:0:0:0:
256,192,355232,1,8,0:0:0:0:
256,192,355435,1,8,0:0:0:0:
256,192,355537,1,8,0:0:0:0:
256,192,355739,1,0,0:0:0:0:
256,192,355942,1,0,0:0:0:0:
256,192,356145,1,8,0:0:0:0:
256,192,356246,1,8,0:0:0:0:
256,192,356347,1,0,0:0:0:0:
256,192,356449,1,8,0:0:0:0:
256,192,356550,1,0,0:0:0:0:
256,192,356753,1,0,0:0:0:0:
256,192,356955,1,8,0:0:0:0:
256,192,357057,1,0,0:0:0:0:
256,192,357259,1,8,0:0:0:0:
256,192,357361,1,0,0:0:0:0:
256,192,357564,1,8,0:0:0:0:
256,192,357665,1,0,0:0:0:0:
256,192,357766,1,12,0:0:0:0:
256,192,358020,1,0,0:0:0:0:
256,192,358070,1,8,0:0:0:0:
256,192,358172,1,0,0:0:0:0:
256,192,358374,1,8,0:0:0:0:
256,192,358476,1,0,0:0:0:0:
256,192,358577,1,8,0:0:0:0:
256,192,358780,1,8,0:0:0:0:
256,192,358982,1,0,0:0:0:0:
256,192,359185,1,8,0:0:0:0:
256,192,359287,1,0,0:0:0:0:
256,192,359388,1,0,0:0:0:0:
256,192,359591,1,8,0:0:0:0:
256,192,359692,1,0,0:0:0:0:
256,192,359793,1,8,0:0:0:0:
256,192,359996,1,0,0:0:0:0:
256,192,360199,1,12,0:0:0:0:
256,192,360503,1,12,0:0:0:0:
256,192,360705,1,8,0:0:0:0:
256,192,360807,1,0,0:0:0:0:
256,192,360908,1,0,0:0:0:0:
256,192,361009,1,8,0:0:0:0:
256,192,361077,1,8,0:0:0:0:
256,192,361145,1,0,0:0:0:0:
256,192,361212,1,8,0:0:0:0:
256,192,361314,1,4,0:0:0:0:
256,192,361618,1,4,0:0:0:0:
256,192,361922,1,12,0:0:0:0:
256,192,362226,1,12,0:0:0:0:
256,192,362428,1,12,0:0:0:0:
256,192,362631,1,0,0:0:0:0:
256,192,363847,1,0,0:0:0:0:
256,192,364050,1,8,0:0:0:0:
256,192,364151,1,8,0:0:0:0:
256,192,364253,1,4,0:0:0:0:
256,192,364455,1,8,0:0:0:0:
256,192,364557,1,0,0:0:0:0:
256,192,364658,1,0,0:0:0:0:
256,192,364861,1,8,0:0:0:0:
256,192,365064,1,0,0:0:0:0:
256,192,365165,1,0,0:0:0:0:
256,192,365266,1,8,0:0:0:0:
256,192,365368,1,8,0:0:0:0:
256,192,365469,1,0,0:0:0:0:
256,192,365672,1,8,0:0:0:0:
256,192,365773,1,0,0:0:0:0:
256,192,365874,1,0,0:0:0:0:
256,192,366077,1,8,0:0:0:0:
256,192,366178,1,0,0:0:0:0:
256,192,366280,1,8,0:0:0:0:
256,192,366381,1,8,0:0:0:0:
256,192,366482,1,0,0:0:0:0:
256,192,366685,1,8,0:0:0:0:
256,192,367091,1,0,0:0:0:0:
256,192,367496,1,8,0:0:0:0:
256,192,367699,1,8,0:0:0:0:
256,192,367800,1,8,0:0:0:0:
256,192,367901,1,0,0:0:0:0:
256,192,368104,1,8,0:0:0:0:
256,192,368307,1,0,0:0:0:0:
256,192,368509,1,8,0:0:0:0:
256,192,368611,1,8,0:0:0:0:
256,192,368712,1,0,0:0:0:0:
256,192,368814,1,8,0:0:0:0:
256,192,368915,1,8,0:0:0:0:
256,192,369118,1,0,0:0:0:0:
256,192,369320,1,8,0:0:0:0:
256,192,369422,1,0,0:0:0:0:
256,192,369523,1,8,0:0:0:0:
256,192,369624,1,8,0:0:0:0:
256,192,369726,1,0,0:0:0:0:
256,192,369928,1,0,0:0:0:0:
256,192,370334,1,8,0:0:0:0:
256,192,370739,1,0,0:0:0:0:
256,192,370942,1,0,0:0:0:0:
256,192,371043,1,0,0:0:0:0:
256,192,371145,1,8,0:0:0:0:
256,192,371347,1,0,0:0:0:0:
256,192,371449,1,0,0:0:0:0:
256,192,371550,1,8,0:0:0:0:
256,192,371651,1,8,0:0:0:0:
256,192,371753,1,0,0:0:0:0:
256,192,371955,1,8,0:0:0:0:
256,192,372158,1,0,0:0:0:0:
256,192,372259,1,8,0:0:0:0:
256,192,372361,1,8,0:0:0:0:
256,192,372564,1,0,0:0:0:0:
256,192,372665,1,8,0:0:0:0:
256,192,372766,1,0,0:0:0:0:
256,192,372868,1,0,0:0:0:0:
256,192,372969,1,8,0:0:0:0:
256,192,373172,1,0,0:0:0:0:
256,192,373577,1,8,0:0:0:0:
256,192,373982,1,0,0:0:0:0:
256,192,374084,1,8,0:0:0:0:
256,192,374185,1,8,0:0:0:0:
256,192,374287,1,8,0:0:0:0:
256,192,374388,1,0,0:0:0:0:
256,192,374591,1,0,0:0:0:0:
256,192,374793,1,0,0:0:0:0:
256,192,374996,1,8,0:0:0:0:
256,192,375097,1,0,0:0:0:0:
256,192,375199,1,8,0:0:0:0:
256,192,375401,1,8,0:0:0:0:
256,192,375503,1,8,0:0:0:0:
256,192,375604,1,0,0:0:0:0:
256,192,375807,1,0,0:0:0:0:
256,192,375908,1,8,0:0:0:0:
256,192,376009,1,0,0:0:0:0:
256,192,376111,1,0,0:0:0:0:
256,192,376212,1,8,0:0:0:0:
256,192,376415,1,8,0:0:0:0:
256,192,376719,1,8,0:0:0:0:
256,192,376820,1,0,0:0:0:0:
256,192,377023,1,8,0:0:0:0:
256,192,377226,1,0,0:0:0:0:
256,192,377631,1,8,0:0:0:0:
256,192,377935,1,8,0:0:0:0:
256,192,378037,1,0,0:0:0:0:
256,192,378239,1,8,0:0:0:0:
256,192,378442,1,8,0:0:0:0:
256,192,378645,1,0,0:0:0:0:
256,192,378847,1,8,0:0:0:0:
256,192,379455,1,8,0:0:0:0:
256,192,379557,1,8,0:0:0:0:
256,192,379658,1,0,0:0:0:0:
256,192,380064,1,0,0:0:0:0:
256,192,380469,1,8,0:0:0:0:
256,192,380874,1,8,0:0:0:0:
256,192,381178,1,0,0:0:0:0:
256,192,381280,1,8,0:0:0:0:
256,192,381381,1,0,0:0:0:0:
256,192,381482,1,8,0:0:0:0:
256,192,381685,1,0,0:0:0:0:
256,192,381888,1,8,0:0:0:0:
256,192,382091,1,0,0:0:0:0:
256,192,382901,1,8,0:0:0:0:
256,192,383104,1,0,0:0:0:0:
256,192,383509,1,8,0:0:0:0:
256,192,383712,1,0,0:0:0:0:
256,192,384118,1,0,0:0:0:0:
256,192,384726,1,0,0:0:0:0:
256,192,384928,1,8,0:0:0:0:
256,192,385131,1,0,0:0:0:0:
256,192,385334,1,0,0:0:0:0:
256,192,386145,1,8,0:0:0:0:
256,192,386955,1,0,0:0:0:0:
256,192,387766,1,8,0:0:0:0:
256,192,387868,1,8,0:0:0:0:
256,192,387969,1,0,0:0:0:0:
256,192,388172,1,8,0:0:0:0:
256,192,388374,1,0,0:0:0:0:
256,192,388577,1,8,0:0:0:0:
256,192,389388,1,0,0:0:0:0:
256,192,390199,8,0,404793,0:0:0:0:
