osu file format v14

[General]
AudioFilename: audio.mp3
AudioLeadIn: 0
PreviewTime: 106274
Countdown: 0
SampleSet: Normal
StackLeniency: 0.7
Mode: 1
LetterboxInBreaks: 0
WidescreenStoryboard: 0

[Editor]
Bookmarks: 2160,19615,41433,58888,80706,89433
DistanceSpacing: 1.3
BeatDivisor: 4
GridSize: 32
TimelineZoom: 2.7

[Metadata]
Title:Heart of Android : Even If It's Only By Mechanism
TitleUnicode:Heart of Android : Even If It's Only By Mechanism
Artist:Camellia
ArtistUnicode:かめりあ
Creator:_DUSK_
Version:Oni
Source:osu!
Tags:かめるかめりあ KamelCamellia Cametek 大箭将也 Masaya Oya CTCD-0018 C95 Future Bass Glitch Hop Swing Breakbeat Vocoder fa featured artist electronic japanese
BeatmapID:2126198
BeatmapSetID:1015817

[Difficulty]
HPDrainRate:4.5
CircleSize:5
OverallDifficulty:5.5
ApproachRate:9
SliderMultiplier:1.4
SliderTickRate:1

[Events]
//Background and Video events
0,0,"BGjp.jpg",0,0
//Break Periods
//Storyboard Layer 0 (Background)
//Storyboard Layer 1 (Fail)
//Storyboard Layer 2 (Pass)
//Storyboard Layer 3 (Foreground)
//Storyboard Layer 4 (Overlay)
//Storyboard Sound Samples

[TimingPoints]
-21,272.727272727273,4,1,0,15,1,0
-21,-166.666666666667,4,1,0,15,0,0
2092,-166.666666666667,4,1,0,55,0,0
18524,-161.290322580645,4,1,0,55,0,0
19069,-156.25,4,1,0,55,0,0
19547,-142.857142857143,4,1,0,75,0,0
30797,-140.845070422535,4,1,0,75,0,0
30979,-138.888888888889,4,1,0,75,0,0
31342,-136.986301369863,4,1,0,75,0,0
31615,-135.135135135135,4,1,0,75,0,0
31888,-133.333333333333,4,1,0,75,0,0
32069,-131.578947368421,4,1,0,75,0,0
32433,-129.87012987013,4,1,0,75,0,0
32706,-128.205128205128,4,1,0,85,0,0
37342,-126.582278481013,4,1,0,85,0,0
37524,-125,4,1,0,85,0,0
37615,-123.456790123457,4,1,0,85,0,0
37888,-121.951219512195,4,1,0,85,0,0
38069,-120.481927710843,4,1,0,85,0,0
38160,-119.047619047619,4,1,0,85,0,0
38342,-117.647058823529,4,1,0,85,0,0
38524,-116.279069767442,4,1,0,85,0,0
38706,-114.942528735632,4,1,0,85,0,0
38797,-113.636363636364,4,1,0,85,0,0
38888,-112.359550561798,4,1,0,85,0,0
38979,-111.111111111111,4,1,0,85,0,0
39069,-109.89010989011,4,1,0,85,0,0
39433,-112.359550561798,4,1,0,85,0,0
39615,-114.942528735632,4,1,0,85,0,0
39797,-117.647058823529,4,1,0,85,0,0
39979,-120.481927710843,4,1,0,85,0,0
40160,-123.456790123457,4,1,0,85,0,0
40251,-126.582278481013,4,1,0,85,0,0
40342,-129.87012987013,4,1,0,85,0,0
41342,-133.333333333333,4,1,0,95,0,0
41433,-125,4,1,0,95,0,0
43615,-117.647058823529,4,1,0,95,0,1
49615,-117.647058823529,4,1,0,95,0,1
50160,-117.647058823529,4,1,0,95,0,0
52342,-117.647058823529,4,1,0,95,0,1
56706,-117.647058823529,4,1,0,95,0,0
56774,-66.6666666666667,4,1,0,95,0,0
57797,-83.3333333333333,4,1,0,95,0,0
58615,-100,4,1,0,95,0,0
58888,-117.647058823529,4,1,0,95,0,0
63251,-117.647058823529,4,1,0,95,0,1
71979,-117.647058823529,4,1,0,95,0,0
73251,-120.481927710843,4,1,0,95,0,0
73433,-123.456790123457,4,1,0,95,0,0
73615,-126.582278481013,4,1,0,95,0,0
74160,-117.647058823529,4,1,0,95,0,0
75433,-120.481927710843,4,1,0,95,0,0
75797,-123.456790123457,4,1,0,95,0,0
76342,-117.647058823529,4,1,0,95,0,0
78524,-116.279069767442,4,1,0,95,0,1
78706,-114.942528735632,4,1,0,95,0,1
78888,-113.636363636364,4,1,0,95,0,1
79069,-112.359550561798,4,1,0,95,0,1
79251,-111.111111111111,4,1,0,95,0,1
79433,-109.89010989011,4,1,0,95,0,1
79615,-108.695652173913,4,1,0,95,0,0
80706,-142.857142857143,4,1,0,95,0,0
82888,-140.845070422535,4,1,0,95,0,0
83160,-138.888888888889,4,1,0,95,0,0
83342,-136.986301369863,4,1,0,95,0,0
83961,-135.135135135135,4,1,0,95,0,0
84160,-133.333333333333,4,1,0,95,0,0
84251,-131.578947368421,4,1,0,95,0,0
84433,-129.87012987013,4,1,0,95,0,0
85069,-128.205128205128,4,1,0,95,0,0
85342,-126.582278481013,4,1,0,95,0,0
85524,-125,4,1,0,95,0,0
85615,-123.456790123457,4,1,0,95,0,0
85888,-121.951219512195,4,1,0,95,0,0
86069,-120.481927710843,4,1,0,95,0,0
86160,-119.047619047619,4,1,0,95,0,0
86342,-117.647058823529,4,1,0,95,0,0
86433,-116.279069767442,4,1,0,95,0,0
86615,-114.942528735632,4,1,0,95,0,0
86706,-113.636363636364,4,1,0,95,0,0
86888,-112.359550561798,4,1,0,95,0,0
86979,-111.111111111111,4,1,0,95,0,0
87069,-109.89010989011,4,1,0,95,0,0
87160,-108.695652173913,4,1,0,95,0,0
87251,-107.52688172043,4,1,0,95,0,0
87319,-66.6666666666667,4,1,0,15,0,0
88342,-142.857142857143,4,1,0,15,0,0
88819,-126.582278481013,4,1,0,100,0,0
89024,-125,4,1,0,100,0,0
89160,-123.456790123457,4,1,0,100,0,0
89229,-121.951219512195,4,1,0,100,0,0
89297,-120.481927710843,4,1,0,100,0,0
89365,-119.047619047619,4,1,0,100,0,0
89433,-117.647058823529,4,1,0,100,0,0
106888,-111.111111111111,4,1,0,100,0,1
110706,-111.111111111111,4,1,0,100,0,0
111251,-111.111111111111,4,1,0,100,0,1
115069,-111.111111111111,4,1,0,100,0,0
115615,-111.111111111111,4,1,0,100,0,1
120251,-109.89010989011,4,1,0,100,0,1
120524,-108.695652173913,4,1,0,100,0,1
120797,-107.52688172043,4,1,0,100,0,1
121069,-106.382978723404,4,1,0,100,0,1
121342,-105.263157894737,4,1,0,100,0,1
121615,-104.166666666667,4,1,0,100,0,1
121888,-103.092783505155,4,1,0,100,0,1
122160,-102.040816326531,4,1,0,100,0,1
122433,-101.010101010101,4,1,0,100,0,1
122706,-100,4,1,0,100,0,1
122979,-99.009900990099,4,1,0,100,0,1
123251,-99.009900990099,4,1,0,100,0,0
123433,-101.010101010101,4,1,0,100,0,0
123615,-103.092783505155,4,1,0,100,0,0
123797,-105.263157894737,4,1,0,100,0,0
123979,-107.52688172043,4,1,0,100,0,0
124160,-108.695652173913,4,1,0,100,0,0
124342,-111.111111111111,4,1,0,100,0,0
124410,-111.111111111111,4,1,0,75,0,0
125433,-142.857142857143,4,1,0,75,0,0
126524,-138.888888888889,4,1,0,75,0,0
140433,-136.986301369863,4,1,0,75,0,0
140706,-135.135135135135,4,1,0,75,0,0
140888,-133.333333333333,4,1,0,75,0,0
140979,-131.578947368421,4,1,0,75,0,0
141251,-129.87012987013,4,1,0,75,0,0
154524,-128.205128205128,4,1,0,75,0,0
154706,-126.582278481013,4,1,0,75,0,0
154888,-125,4,1,0,85,0,0
159251,-123.456790123457,4,1,0,85,0,0
159524,-121.951219512195,4,1,0,85,0,0
159706,-120.481927710843,4,1,0,85,0,0
159797,-119.047619047619,4,1,0,85,0,0
160069,-117.647058823529,4,1,0,85,0,0
160251,-116.279069767442,4,1,0,85,0,0
160342,-114.942528735632,4,1,0,85,0,0
160524,-113.636363636364,4,1,0,85,0,0
160706,-112.359550561798,4,1,0,85,0,0
160888,-111.111111111111,4,1,0,85,0,0
160979,-109.89010989011,4,1,0,85,0,0
161069,-108.695652173913,4,1,0,85,0,0
161160,-107.52688172043,4,1,0,85,0,0
161251,-106.382978723404,4,1,0,85,0,0
161615,-108.695652173913,4,1,0,85,0,0
161797,-111.111111111111,4,1,0,85,0,0
161979,-113.636363636364,4,1,0,85,0,0
162160,-116.279069767442,4,1,0,85,0,0
162342,-119.047619047619,4,1,0,85,0,0
162433,-120.481927710843,4,1,0,85,0,0
162524,-121.951219512195,4,1,0,85,0,0
163115,272.727272727273,4,1,0,45,1,8
163115,-136.986301369863,4,1,0,45,0,0
163660,272.727272727273,4,1,0,45,1,0
163660,-153.846153846154,4,1,0,45,0,0
178864,-136.986301369863,4,1,0,35,0,0
180524,272.727272727273,4,1,0,85,1,8
180524,-136.986301369863,4,1,0,85,0,8
181069,272.727272727273,4,1,0,85,1,0
181069,-153.846153846154,4,1,0,85,0,0
189796,-142.857142857143,4,1,0,85,0,0
194159,-133.333333333333,4,1,0,85,0,0
198523,-131.578947368421,4,1,0,85,0,0
198705,-129.87012987013,4,1,0,85,0,0
198796,-128.205128205128,4,1,0,85,0,0
198978,-126.582278481013,4,1,0,85,0,0
199069,-125,4,1,0,85,0,0
199250,-123.456790123457,4,1,0,85,0,0
199341,-121.951219512195,4,1,0,85,0,0
199523,-120.481927710843,4,1,0,85,0,0
199614,-119.047619047619,4,1,0,85,0,0
199796,-117.647058823529,4,1,0,85,0,0
199887,-116.279069767442,4,1,0,85,0,0
199978,-114.942528735632,4,1,0,85,0,0
200069,-113.636363636364,4,1,0,85,0,0
200159,-112.359550561798,4,1,0,85,0,0
200341,-111.111111111111,4,1,0,85,0,0
200432,-109.89010989011,4,1,0,85,0,0
200523,-108.695652173913,4,1,0,85,0,0
200614,-107.52688172043,4,1,0,85,0,0
200887,-109.89010989011,4,1,0,85,0,0
201069,-112.359550561798,4,1,0,85,0,0
201250,-114.942528735632,4,1,0,85,0,0
201432,-117.647058823529,4,1,0,85,0,0
201614,-120.481927710843,4,1,0,85,0,0
201705,-123.456790123457,4,1,0,85,0,0
201796,-126.582278481013,4,1,0,85,0,0
202069,-128.205128205128,4,1,0,85,0,0
202250,-129.87012987013,4,1,0,85,0,0
202341,-131.578947368421,4,1,0,85,0,0
202523,-133.333333333333,4,1,0,85,0,0
202614,-135.135135135135,4,1,0,85,0,0
202887,-142.857142857143,4,1,0,85,0,0
203159,-128.205128205128,4,1,0,85,0,0
203250,-125,4,1,0,85,0,0
203341,-121.951219512195,4,1,0,85,0,0
203432,-117.647058823529,4,1,0,100,0,1
210796,-114.942528735632,4,1,0,100,0,1
211250,-111.111111111111,4,1,0,100,0,1
211614,-106.382978723404,4,1,0,100,0,1
211887,-117.647058823529,4,1,0,100,0,1
215978,-100,4,1,0,100,0,1
218159,-100,4,1,0,100,0,0
218228,-66.6666666666667,4,1,0,55,0,0
219250,-125,4,1,0,55,0,0
220000,-125,4,1,0,100,0,0
220069,-100,4,1,0,100,0,0
220341,-117.647058823529,4,1,0,100,0,0
224159,-117.647058823529,4,1,0,100,0,0
224705,-117.647058823529,4,1,0,100,0,1
229069,-117.647058823529,4,1,0,100,0,0
229614,-117.647058823529,4,1,0,100,0,1
233432,-100,4,1,0,100,0,0
233705,-125,4,1,0,100,0,0
235614,-100,4,1,0,100,0,0
235887,-125,4,1,0,100,0,0
237796,-100,4,1,0,100,0,0
238069,-111.111111111111,4,1,0,100,0,0
239978,-108.695652173913,4,1,0,100,0,1
240159,-106.382978723404,4,1,0,100,0,1
240341,-104.166666666667,4,1,0,100,0,1
240523,-102.040816326531,4,1,0,100,0,1
240705,-100,4,1,0,100,0,1
240887,-98.0392156862745,4,1,0,100,0,1
241023,-96.1538461538461,4,1,0,100,0,1
241069,-96.1538461538461,4,1,0,100,0,0
241137,-142.857142857143,4,1,0,55,0,0

[HitObjects]
256,192,1069,12,0,1888,0:0:0:0:
256,192,2160,5,0,0:0:0:0:
256,192,2433,1,0,0:0:0:0:
256,192,2615,1,8,0:0:0:0:
256,192,4342,1,0,0:0:0:0:
256,192,4615,1,0,0:0:0:0:
256,192,4797,1,8,0:0:0:0:
256,192,6524,1,8,0:0:0:0:
256,192,6797,1,0,0:0:0:0:
256,192,6979,1,8,0:0:0:0:
256,192,8706,1,8,0:0:0:0:
256,192,8979,1,8,0:0:0:0:
256,192,9160,1,0,0:0:0:0:
256,192,9524,1,8,0:0:0:0:
256,192,9797,1,8,0:0:0:0:
256,192,10888,1,0,0:0:0:0:
256,192,11160,1,0,0:0:0:0:
256,192,11342,1,8,0:0:0:0:
256,192,13069,1,8,0:0:0:0:
256,192,13342,1,8,0:0:0:0:
256,192,13524,1,0,0:0:0:0:
256,192,14160,1,8,0:0:0:0:
256,192,14433,1,0,0:0:0:0:
256,192,14615,1,0,0:0:0:0:
256,192,15251,1,0,0:0:0:0:
256,192,15524,1,0,0:0:0:0:
256,192,15706,1,8,0:0:0:0:
256,192,16342,1,0,0:0:0:0:
256,192,16615,1,8,0:0:0:0:
256,192,16797,1,8,0:0:0:0:
256,192,17433,1,0,0:0:0:0:
256,192,17706,1,0,0:0:0:0:
256,192,17888,1,8,0:0:0:0:
256,192,18524,1,0,0:0:0:0:
256,192,19069,1,8,0:0:0:0:
256,192,19615,1,0,0:0:0:0:
256,192,19888,1,8,0:0:0:0:
256,192,20069,1,0,0:0:0:0:
256,192,20433,1,0,0:0:0:0:
256,192,20706,1,0,0:0:0:0:
256,192,20979,1,8,0:0:0:0:
256,192,21251,1,8,0:0:0:0:
256,192,21797,1,8,0:0:0:0:
256,192,22069,1,0,0:0:0:0:
256,192,22251,1,8,0:0:0:0:
256,192,22615,1,0,0:0:0:0:
256,192,22888,1,0,0:0:0:0:
256,192,23069,1,0,0:0:0:0:
256,192,23160,1,0,0:0:0:0:
256,192,23433,1,8,0:0:0:0:
256,192,23979,1,0,0:0:0:0:
256,192,24251,1,8,0:0:0:0:
256,192,24433,1,0,0:0:0:0:
256,192,24797,1,8,0:0:0:0:
256,192,25069,1,8,0:0:0:0:
256,192,25342,1,0,0:0:0:0:
256,192,25615,1,8,0:0:0:0:
256,192,26160,1,8,0:0:0:0:
256,192,26433,1,0,0:0:0:0:
256,192,26615,1,8,0:0:0:0:
256,192,26979,1,0,0:0:0:0:
256,192,27251,1,8,0:0:0:0:
256,192,27433,1,0,0:0:0:0:
256,192,27524,1,0,0:0:0:0:
256,192,27797,1,8,0:0:0:0:
256,192,27979,1,8,0:0:0:0:
256,192,28342,1,0,0:0:0:0:
256,192,28615,1,0,0:0:0:0:
256,192,28797,1,8,0:0:0:0:
256,192,29160,1,0,0:0:0:0:
256,192,29433,1,0,0:0:0:0:
256,192,29706,1,8,0:0:0:0:
256,192,29979,1,8,0:0:0:0:
256,192,30524,1,8,0:0:0:0:
256,192,30797,1,0,0:0:0:0:
256,192,30979,1,8,0:0:0:0:
256,192,31342,1,8,0:0:0:0:
256,192,31615,1,0,0:0:0:0:
256,192,31797,1,0,0:0:0:0:
256,192,31888,1,0,0:0:0:0:
256,192,32069,1,8,0:0:0:0:
256,192,32433,1,8,0:0:0:0:
256,192,32706,1,0,0:0:0:0:
256,192,32979,1,0,0:0:0:0:
256,192,33160,1,0,0:0:0:0:
256,192,33251,1,8,0:0:0:0:
256,192,33524,1,8,0:0:0:0:
256,192,33592,1,8,0:0:0:0:
256,192,33660,1,8,0:0:0:0:
256,192,33797,1,8,0:0:0:0:
256,192,33979,1,8,0:0:0:0:
256,192,34069,1,8,0:0:0:0:
256,192,34342,1,8,0:0:0:0:
256,192,34615,1,8,0:0:0:0:
256,192,34683,1,8,0:0:0:0:
256,192,34751,1,8,0:0:0:0:
256,192,34888,1,8,0:0:0:0:
256,192,35160,1,8,0:0:0:0:
256,192,35342,1,8,0:0:0:0:
256,192,35706,1,8,0:0:0:0:
256,192,35774,1,8,0:0:0:0:
256,192,35842,1,8,0:0:0:0:
256,192,35979,1,8,0:0:0:0:
256,192,36160,1,8,0:0:0:0:
256,192,36251,1,8,0:0:0:0:
256,192,36524,1,8,0:0:0:0:
256,192,36797,1,8,0:0:0:0:
256,192,36865,1,8,0:0:0:0:
256,192,36933,1,8,0:0:0:0:
256,192,37069,1,0,0:0:0:0:
256,192,37342,1,8,0:0:0:0:
256,192,37524,1,8,0:0:0:0:
256,192,37615,1,0,0:0:0:0:
256,192,37888,1,8,0:0:0:0:
256,192,38069,1,8,0:0:0:0:
256,192,38160,1,0,0:0:0:0:
256,192,38342,1,0,0:0:0:0:
256,192,38524,1,0,0:0:0:0:
256,192,38706,1,0,0:0:0:0:
256,192,38797,1,0,0:0:0:0:
256,192,38888,1,8,0:0:0:0:
256,192,38979,1,0,0:0:0:0:
256,192,39069,1,8,0:0:0:0:
256,192,39251,1,8,0:0:0:0:
256,192,39433,1,0,0:0:0:0:
256,192,39615,1,0,0:0:0:0:
256,192,39797,1,8,0:0:0:0:
256,192,39979,1,0,0:0:0:0:
256,192,40160,1,0,0:0:0:0:
256,192,40251,1,0,0:0:0:0:
256,192,40342,1,8,0:0:0:0:
256,192,41433,1,4,0:0:0:0:
256,192,41979,1,8,0:0:0:0:
256,192,42160,1,8,0:0:0:0:
256,192,42342,1,8,0:0:0:0:
256,192,42524,1,8,0:0:0:0:
256,192,42706,1,8,0:0:0:0:
256,192,42797,1,0,0:0:0:0:
256,192,42888,1,8,0:0:0:0:
256,192,43069,1,0,0:0:0:0:
256,192,43160,1,0,0:0:0:0:
256,192,43251,1,0,0:0:0:0:
256,192,43342,1,0,0:0:0:0:
256,192,43615,1,12,0:0:0:0:
256,192,43797,1,0,0:0:0:0:
256,192,43888,1,8,0:0:0:0:
256,192,44160,1,8,0:0:0:0:
256,192,44342,1,8,0:0:0:0:
256,192,44433,1,0,0:0:0:0:
256,192,44706,1,8,0:0:0:0:
256,192,44888,1,0,0:0:0:0:
256,192,44979,1,0,0:0:0:0:
256,192,45251,1,8,0:0:0:0:
256,192,45433,1,0,0:0:0:0:
256,192,45797,1,4,0:0:0:0:
256,192,46069,1,0,0:0:0:0:
256,192,46251,1,0,0:0:0:0:
256,192,46342,1,8,0:0:0:0:
256,192,46615,1,0,0:0:0:0:
256,192,46888,1,8,0:0:0:0:
256,192,47160,1,0,0:0:0:0:
256,192,47342,1,0,0:0:0:0:
256,192,47433,1,8,0:0:0:0:
256,192,47706,1,8,0:0:0:0:
256,192,47888,1,8,0:0:0:0:
256,192,47979,1,4,0:0:0:0:
256,192,48251,1,0,0:0:0:0:
256,192,48524,1,8,0:0:0:0:
256,192,48615,1,8,0:0:0:0:
256,192,48706,1,8,0:0:0:0:
256,192,48797,1,0,0:0:0:0:
256,192,48979,1,0,0:0:0:0:
256,192,49069,1,8,0:0:0:0:
256,192,49251,1,0,0:0:0:0:
256,192,49342,1,0,0:0:0:0:
256,192,49615,1,8,0:0:0:0:
256,192,50160,1,4,0:0:0:0:
256,192,50433,1,0,0:0:0:0:
256,192,50615,1,0,0:0:0:0:
256,192,50706,1,8,0:0:0:0:
256,192,50888,1,8,0:0:0:0:
256,192,51069,1,8,0:0:0:0:
256,192,51251,1,8,0:0:0:0:
256,192,51433,1,8,0:0:0:0:
256,192,51524,1,0,0:0:0:0:
256,192,51615,1,8,0:0:0:0:
256,192,51797,1,8,0:0:0:0:
256,192,52069,1,8,0:0:0:0:
256,192,52251,1,8,0:0:0:0:
256,192,52342,1,4,0:0:0:0:
256,192,52524,1,8,0:0:0:0:
256,192,52615,1,0,0:0:0:0:
256,192,52888,1,8,0:0:0:0:
256,192,53069,1,0,0:0:0:0:
256,192,53160,1,8,0:0:0:0:
256,192,53433,1,8,0:0:0:0:
256,192,53615,1,0,0:0:0:0:
256,192,53706,1,0,0:0:0:0:
256,192,53888,1,0,0:0:0:0:
256,192,53979,1,8,0:0:0:0:
256,192,54160,1,0,0:0:0:0:
256,192,54524,1,4,0:0:0:0:
256,192,54797,1,0,0:0:0:0:
256,192,55069,1,8,0:0:0:0:
256,192,55160,1,0,0:0:0:0:
256,192,55251,1,8,0:0:0:0:
256,192,55342,1,0,0:0:0:0:
256,192,55433,1,8,0:0:0:0:
256,192,55615,1,12,0:0:0:0:
256,192,55888,1,8,0:0:0:0:
256,192,56160,1,0,0:0:0:0:
256,192,56251,1,8,0:0:0:0:
256,192,56342,1,0,0:0:0:0:
256,192,56433,1,8,0:0:0:0:
256,192,56524,1,0,0:0:0:0:
256,192,56706,1,4,0:0:0:0:
256,192,56842,12,0,58342,0:0:0:0:
256,192,58615,5,12,0:0:0:0:
256,192,58888,5,4,0:0:0:0:
256,192,59160,1,0,0:0:0:0:
256,192,59433,1,8,0:0:0:0:
256,192,59615,1,8,0:0:0:0:
256,192,59706,1,8,0:0:0:0:
256,192,59774,1,8,0:0:0:0:
256,192,59842,1,8,0:0:0:0:
256,192,59979,1,8,0:0:0:0:
256,192,60160,1,8,0:0:0:0:
256,192,60251,1,0,0:0:0:0:
256,192,60433,1,0,0:0:0:0:
256,192,60979,1,8,0:0:0:0:
256,192,61069,1,4,0:0:0:0:
256,192,61342,1,0,0:0:0:0:
256,192,61524,1,8,0:0:0:0:
256,192,61615,1,0,0:0:0:0:
256,192,61797,1,0,0:0:0:0:
256,192,61888,1,0,0:0:0:0:
256,192,62069,1,0,0:0:0:0:
256,192,62160,1,8,0:0:0:0:
256,192,62342,1,0,0:0:0:0:
256,192,62433,1,8,0:0:0:0:
256,192,62524,1,0,0:0:0:0:
256,192,62615,1,0,0:0:0:0:
256,192,62706,1,8,0:0:0:0:
256,192,63251,1,4,0:0:0:0:
256,192,63524,1,8,0:0:0:0:
256,192,63706,1,0,0:0:0:0:
256,192,63797,1,8,0:0:0:0:
256,192,64069,1,0,0:0:0:0:
256,192,64342,1,8,0:0:0:0:
256,192,64524,1,8,0:0:0:0:
256,192,64615,1,0,0:0:0:0:
256,192,64797,1,0,0:0:0:0:
256,192,64888,1,8,0:0:0:0:
256,192,65069,1,0,0:0:0:0:
256,192,65251,1,8,0:0:0:0:
256,192,65433,1,4,0:0:0:0:
256,192,65706,1,8,0:0:0:0:
256,192,65888,1,8,0:0:0:0:
256,192,65979,1,4,0:0:0:0:
256,192,66251,1,8,0:0:0:0:
256,192,66433,1,8,0:0:0:0:
256,192,66524,1,4,0:0:0:0:
256,192,66706,1,8,0:0:0:0:
256,192,66797,1,8,0:0:0:0:
256,192,66979,1,8,0:0:0:0:
256,192,67069,1,0,0:0:0:0:
256,192,67160,1,0,0:0:0:0:
256,192,67251,1,0,0:0:0:0:
256,192,67342,1,0,0:0:0:0:
256,192,67615,1,4,0:0:0:0:
256,192,67888,1,8,0:0:0:0:
256,192,68160,1,8,0:0:0:0:
256,192,68433,1,0,0:0:0:0:
256,192,68706,1,8,0:0:0:0:
256,192,68979,1,0,0:0:0:0:
256,192,69160,1,0,0:0:0:0:
256,192,69251,1,8,0:0:0:0:
256,192,69524,1,8,0:0:0:0:
256,192,69592,1,8,0:0:0:0:
256,192,69660,1,0,0:0:0:0:
256,192,69729,1,0,0:0:0:0:
256,192,69797,1,8,0:0:0:0:
256,192,69979,1,8,0:0:0:0:
256,192,70069,1,0,0:0:0:0:
256,192,70342,1,8,0:0:0:0:
256,192,70524,1,8,0:0:0:0:
256,192,70615,1,8,0:0:0:0:
256,192,70888,1,8,0:0:0:0:
256,192,71069,1,0,0:0:0:0:
256,192,71160,1,0,0:0:0:0:
256,192,71433,1,8,0:0:0:0:
256,192,71501,1,8,0:0:0:0:
256,192,71569,1,8,0:0:0:0:
256,192,71638,1,8,0:0:0:0:
256,192,71706,1,8,0:0:0:0:
256,192,71979,1,4,0:0:0:0:
256,192,72251,1,8,0:0:0:0:
256,192,72342,1,8,0:0:0:0:
256,192,72433,1,8,0:0:0:0:
256,192,72524,1,8,0:0:0:0:
256,192,72706,1,8,0:0:0:0:
256,192,72797,1,0,0:0:0:0:
256,192,72888,1,8,0:0:0:0:
256,192,72979,1,8,0:0:0:0:
256,192,73069,1,0,0:0:0:0:
256,192,73251,1,0,0:0:0:0:
256,192,73433,1,0,0:0:0:0:
256,192,73615,1,8,0:0:0:0:
256,192,74160,1,4,0:0:0:0:
256,192,74433,1,0,0:0:0:0:
256,192,74524,1,0,0:0:0:0:
256,192,74615,1,0,0:0:0:0:
256,192,74706,1,0,0:0:0:0:
256,192,74888,1,0,0:0:0:0:
256,192,74979,1,8,0:0:0:0:
256,192,75069,1,0,0:0:0:0:
256,192,75160,1,0,0:0:0:0:
256,192,75251,1,8,0:0:0:0:
256,192,75433,1,0,0:0:0:0:
256,192,75797,1,8,0:0:0:0:
256,192,76342,1,4,0:0:0:0:
256,192,76615,1,8,0:0:0:0:
256,192,76706,1,0,0:0:0:0:
256,192,76797,1,0,0:0:0:0:
256,192,76888,1,8,0:0:0:0:
256,192,77069,1,8,0:0:0:0:
256,192,77160,1,0,0:0:0:0:
256,192,77251,1,8,0:0:0:0:
256,192,77433,1,8,0:0:0:0:
256,192,77615,1,8,0:0:0:0:
256,192,77706,1,0,0:0:0:0:
256,192,77797,1,8,0:0:0:0:
256,192,77979,1,8,0:0:0:0:
256,192,78069,1,0,0:0:0:0:
256,192,78160,1,8,0:0:0:0:
256,192,78251,1,8,0:0:0:0:
256,192,78524,1,0,0:0:0:0:
256,192,78706,1,8,0:0:0:0:
256,192,78888,1,8,0:0:0:0:
256,192,79069,1,0,0:0:0:0:
256,192,79251,1,0,0:0:0:0:
256,192,79433,1,8,0:0:0:0:
256,192,79615,1,4,0:0:0:0:
256,192,80706,1,4,0:0:0:0:
256,192,80979,1,8,0:0:0:0:
256,192,81160,1,8,0:0:0:0:
256,192,81524,1,8,0:0:0:0:
256,192,81592,1,8,0:0:0:0:
256,192,81660,1,8,0:0:0:0:
256,192,81797,1,8,0:0:0:0:
256,192,81979,1,8,0:0:0:0:
256,192,82069,1,8,0:0:0:0:
256,192,82251,1,8,0:0:0:0:
256,192,82615,1,8,0:0:0:0:
256,192,82683,1,8,0:0:0:0:
256,192,82751,1,8,0:0:0:0:
256,192,82888,1,8,0:0:0:0:
256,192,83160,1,8,0:0:0:0:
256,192,83342,1,8,0:0:0:0:
256,192,83706,1,8,0:0:0:0:
256,192,83774,1,8,0:0:0:0:
256,192,83842,1,8,0:0:0:0:
256,192,83979,1,8,0:0:0:0:
256,192,84160,1,8,0:0:0:0:
256,192,84251,1,8,0:0:0:0:
256,192,84433,1,8,0:0:0:0:
256,192,84797,1,8,0:0:0:0:
256,192,84865,1,8,0:0:0:0:
256,192,84933,1,8,0:0:0:0:
256,192,85069,1,0,0:0:0:0:
256,192,85342,1,8,0:0:0:0:
256,192,85524,1,8,0:0:0:0:
256,192,85615,1,0,0:0:0:0:
256,192,85888,1,8,0:0:0:0:
256,192,86069,1,8,0:0:0:0:
256,192,86160,1,0,0:0:0:0:
256,192,86342,1,8,0:0:0:0:
256,192,86433,1,8,0:0:0:0:
256,192,86615,1,8,0:0:0:0:
256,192,86706,1,0,0:0:0:0:
256,192,86888,1,8,0:0:0:0:
256,192,86979,1,8,0:0:0:0:
256,192,87069,1,8,0:0:0:0:
256,192,87160,1,8,0:0:0:0:
256,192,87251,1,0,0:0:0:0:
256,192,87388,12,0,88751,0:0:0:0:
256,192,88888,5,0,0:0:0:0:
256,192,89024,1,8,0:0:0:0:
256,192,89160,5,0,0:0:0:0:
256,192,89229,1,0,0:0:0:0:
256,192,89297,1,8,0:0:0:0:
256,192,89365,1,8,0:0:0:0:
256,192,89433,5,4,0:0:0:0:
256,192,89706,1,12,0:0:0:0:
256,192,89979,1,4,0:0:0:0:
256,192,90251,1,12,0:0:0:0:
256,192,90524,1,4,0:0:0:0:
256,192,90797,1,0,0:0:0:0:
256,192,90979,1,0,0:0:0:0:
256,192,91069,1,8,0:0:0:0:
256,192,91251,1,8,0:0:0:0:
256,192,91342,1,0,0:0:0:0:
256,192,91524,1,0,0:0:0:0:
256,192,91615,1,0,0:0:0:0:
256,192,91888,1,8,0:0:0:0:
256,192,92160,1,0,0:0:0:0:
256,192,92433,1,8,0:0:0:0:
256,192,92706,1,8,0:0:0:0:
256,192,92888,1,0,0:0:0:0:
256,192,92979,1,0,0:0:0:0:
256,192,93251,1,8,0:0:0:0:
256,192,93797,1,4,0:0:0:0:
256,192,94069,1,12,0:0:0:0:
256,192,94342,1,4,0:0:0:0:
256,192,94615,1,12,0:0:0:0:
256,192,94888,1,4,0:0:0:0:
256,192,95160,1,0,0:0:0:0:
256,192,95342,1,0,0:0:0:0:
256,192,95433,1,8,0:0:0:0:
256,192,95615,1,8,0:0:0:0:
256,192,95706,1,0,0:0:0:0:
256,192,95888,1,0,0:0:0:0:
256,192,95979,1,0,0:0:0:0:
256,192,96251,1,8,0:0:0:0:
256,192,96524,1,8,0:0:0:0:
256,192,96797,1,0,0:0:0:0:
256,192,97069,1,8,0:0:0:0:
256,192,97251,1,0,0:0:0:0:
256,192,97342,1,0,0:0:0:0:
256,192,97615,1,8,0:0:0:0:
256,192,97751,1,0,0:0:0:0:
256,192,97888,1,8,0:0:0:0:
256,192,97956,1,8,0:0:0:0:
256,192,98024,1,0,0:0:0:0:
256,192,98092,1,0,0:0:0:0:
256,192,98160,1,12,0:0:0:0:
256,192,98433,1,12,0:0:0:0:
256,192,98706,1,4,0:0:0:0:
256,192,98979,1,12,0:0:0:0:
256,192,99251,1,4,0:0:0:0:
256,192,99524,1,0,0:0:0:0:
256,192,99797,1,8,0:0:0:0:
256,192,99979,1,8,0:0:0:0:
256,192,100069,1,0,0:0:0:0:
256,192,100251,1,0,0:0:0:0:
256,192,100342,1,0,0:0:0:0:
256,192,100615,1,8,0:0:0:0:
256,192,100888,1,0,0:0:0:0:
256,192,101160,1,0,0:0:0:0:
256,192,101433,1,8,0:0:0:0:
256,192,101615,1,0,0:0:0:0:
256,192,101706,1,0,0:0:0:0:
256,192,101979,1,8,0:0:0:0:
256,192,102524,1,4,0:0:0:0:
256,192,102797,1,12,0:0:0:0:
256,192,103069,1,4,0:0:0:0:
256,192,103342,1,12,0:0:0:0:
256,192,103615,1,4,0:0:0:0:
256,192,103888,1,0,0:0:0:0:
256,192,104160,1,8,0:0:0:0:
256,192,104342,1,8,0:0:0:0:
256,192,104433,1,0,0:0:0:0:
256,192,104524,1,0,0:0:0:0:
256,192,104615,1,0,0:0:0:0:
256,192,104706,1,8,0:0:0:0:
256,192,104979,1,8,0:0:0:0:
256,192,105251,1,0,0:0:0:0:
256,192,105524,1,8,0:0:0:0:
256,192,105615,1,0,0:0:0:0:
256,192,105706,1,0,0:0:0:0:
256,192,105797,1,8,0:0:0:0:
256,192,106069,1,0,0:0:0:0:
256,192,106160,1,0,0:0:0:0:
256,192,106251,1,0,0:0:0:0:
256,192,106342,1,8,0:0:0:0:
256,192,106888,1,4,0:0:0:0:
256,192,107160,1,8,0:0:0:0:
256,192,107433,1,8,0:0:0:0:
256,192,107615,1,8,0:0:0:0:
256,192,107797,1,8,0:0:0:0:
256,192,107979,1,8,0:0:0:0:
256,192,108160,1,8,0:0:0:0:
256,192,108342,1,8,0:0:0:0:
256,192,108524,1,8,0:0:0:0:
256,192,108592,1,8,0:0:0:0:
256,192,108660,1,8,0:0:0:0:
256,192,108729,1,8,0:0:0:0:
256,192,108797,1,0,0:0:0:0:
256,192,108979,1,0,0:0:0:0:
256,192,109069,1,8,0:0:0:0:
256,192,109251,1,0,0:0:0:0:
256,192,109342,1,8,0:0:0:0:
256,192,109524,1,8,0:0:0:0:
256,192,109615,1,0,0:0:0:0:
256,192,109797,1,0,0:0:0:0:
256,192,109888,1,0,0:0:0:0:
256,192,110160,1,8,0:0:0:0:
256,192,110342,1,8,0:0:0:0:
256,192,110433,1,8,0:0:0:0:
256,192,110615,1,0,0:0:0:0:
256,192,110706,1,8,0:0:0:0:
256,192,111251,1,4,0:0:0:0:
256,192,111524,1,12,0:0:0:0:
256,192,111797,1,4,0:0:0:0:
256,192,112069,1,12,0:0:0:0:
256,192,112342,1,4,0:0:0:0:
256,192,112524,1,0,0:0:0:0:
256,192,112615,1,8,0:0:0:0:
256,192,112888,1,0,0:0:0:0:
256,192,112956,1,0,0:0:0:0:
256,192,113024,1,0,0:0:0:0:
256,192,113092,1,0,0:0:0:0:
256,192,113160,1,8,0:0:0:0:
256,192,113342,1,0,0:0:0:0:
256,192,113433,1,8,0:0:0:0:
256,192,113706,1,8,0:0:0:0:
256,192,113888,1,0,0:0:0:0:
256,192,113979,1,8,0:0:0:0:
256,192,114251,1,0,0:0:0:0:
256,192,114524,1,8,0:0:0:0:
256,192,114706,1,0,0:0:0:0:
256,192,114797,1,0,0:0:0:0:
256,192,115069,1,8,0:0:0:0:
256,192,115138,1,8,0:0:0:0:
256,192,115206,1,8,0:0:0:0:
256,192,115342,1,0,0:0:0:0:
256,192,115410,1,0,0:0:0:0:
256,192,115479,1,0,0:0:0:0:
256,192,115615,1,4,0:0:0:0:
256,192,115888,1,8,0:0:0:0:
256,192,116160,1,8,0:0:0:0:
256,192,116342,1,8,0:0:0:0:
256,192,116524,1,8,0:0:0:0:
256,192,116706,1,8,0:0:0:0:
256,192,116888,1,8,0:0:0:0:
256,192,117069,1,8,0:0:0:0:
256,192,117251,1,8,0:0:0:0:
256,192,117319,1,8,0:0:0:0:
256,192,117388,1,8,0:0:0:0:
256,192,117456,1,8,0:0:0:0:
256,192,117524,1,0,0:0:0:0:
256,192,117706,1,0,0:0:0:0:
256,192,117797,1,8,0:0:0:0:
256,192,118069,1,8,0:0:0:0:
256,192,118251,1,0,0:0:0:0:
256,192,118342,1,8,0:0:0:0:
256,192,118524,1,8,0:0:0:0:
256,192,118615,1,0,0:0:0:0:
256,192,118888,1,8,0:0:0:0:
256,192,119069,1,8,0:0:0:0:
256,192,119160,1,0,0:0:0:0:
256,192,119342,1,8,0:0:0:0:
256,192,119433,1,0,0:0:0:0:
256,192,119615,1,0,0:0:0:0:
256,192,119706,1,8,0:0:0:0:
256,192,119888,1,8,0:0:0:0:
256,192,119979,1,4,0:0:0:0:
256,192,120251,1,8,0:0:0:0:
256,192,120524,1,0,0:0:0:0:
256,192,120797,1,8,0:0:0:0:
256,192,121069,1,0,0:0:0:0:
256,192,121342,1,8,0:0:0:0:
256,192,121615,1,0,0:0:0:0:
256,192,121888,1,0,0:0:0:0:
256,192,122160,1,8,0:0:0:0:
256,192,122433,1,8,0:0:0:0:
256,192,122706,1,0,0:0:0:0:
256,192,122979,1,8,0:0:0:0:
256,192,123251,1,8,0:0:0:0:
256,192,123433,1,0,0:0:0:0:
256,192,123615,1,0,0:0:0:0:
256,192,123797,1,8,0:0:0:0:
256,192,123979,1,0,0:0:0:0:
256,192,124160,1,0,0:0:0:0:
256,192,124342,1,8,0:0:0:0:
256,192,125706,1,0,0:0:0:0:
256,192,125979,1,8,0:0:0:0:
256,192,126524,1,0,0:0:0:0:
256,192,126797,1,0,0:0:0:0:
256,192,126979,1,8,0:0:0:0:
256,192,127342,1,8,0:0:0:0:
256,192,127615,1,8,0:0:0:0:
256,192,127797,1,0,0:0:0:0:
256,192,127888,1,0,0:0:0:0:
256,192,128160,1,8,0:0:0:0:
256,192,128706,1,0,0:0:0:0:
256,192,128979,1,8,0:0:0:0:
256,192,129160,1,0,0:0:0:0:
256,192,129524,1,8,0:0:0:0:
256,192,129797,1,8,0:0:0:0:
256,192,130069,1,0,0:0:0:0:
256,192,130342,1,8,0:0:0:0:
256,192,130888,1,0,0:0:0:0:
256,192,131160,1,0,0:0:0:0:
256,192,131251,1,0,0:0:0:0:
256,192,131342,1,0,0:0:0:0:
256,192,131433,1,8,0:0:0:0:
256,192,131706,1,8,0:0:0:0:
256,192,131888,1,0,0:0:0:0:
256,192,132160,1,0,0:0:0:0:
256,192,132251,1,8,0:0:0:0:
256,192,132433,1,0,0:0:0:0:
256,192,133069,1,0,0:0:0:0:
256,192,133342,1,0,0:0:0:0:
256,192,133524,1,8,0:0:0:0:
256,192,133888,1,0,0:0:0:0:
256,192,134160,1,0,0:0:0:0:
256,192,134433,1,8,0:0:0:0:
256,192,134706,1,0,0:0:0:0:
256,192,134888,1,8,0:0:0:0:
256,192,135160,1,8,0:0:0:0:
256,192,135251,1,0,0:0:0:0:
256,192,135524,1,8,0:0:0:0:
256,192,135706,1,0,0:0:0:0:
256,192,136069,1,8,0:0:0:0:
256,192,136342,1,0,0:0:0:0:
256,192,136524,1,0,0:0:0:0:
256,192,136615,1,0,0:0:0:0:
256,192,136797,1,8,0:0:0:0:
256,192,137160,1,8,0:0:0:0:
256,192,137433,1,0,0:0:0:0:
256,192,137615,1,0,0:0:0:0:
256,192,137706,1,8,0:0:0:0:
256,192,137888,1,0,0:0:0:0:
256,192,138251,1,8,0:0:0:0:
256,192,138524,1,0,0:0:0:0:
256,192,138706,1,8,0:0:0:0:
256,192,138797,1,0,0:0:0:0:
256,192,138979,1,8,0:0:0:0:
256,192,139342,1,0,0:0:0:0:
256,192,139615,1,8,0:0:0:0:
256,192,139797,1,0,0:0:0:0:
256,192,139888,1,0,0:0:0:0:
256,192,140069,1,8,0:0:0:0:
256,192,140433,1,8,0:0:0:0:
256,192,140706,1,0,0:0:0:0:
256,192,140888,1,0,0:0:0:0:
256,192,140979,1,0,0:0:0:0:
256,192,141251,1,8,0:0:0:0:
256,192,141706,1,8,0:0:0:0:
256,192,141797,1,0,0:0:0:0:
256,192,142069,1,0,0:0:0:0:
256,192,142251,1,8,0:0:0:0:
256,192,142615,1,8,0:0:0:0:
256,192,142888,1,0,0:0:0:0:
256,192,143160,1,8,0:0:0:0:
256,192,143433,1,8,0:0:0:0:
256,192,143615,1,0,0:0:0:0:
256,192,143888,1,8,0:0:0:0:
256,192,143979,1,0,0:0:0:0:
256,192,144251,1,0,0:0:0:0:
256,192,144433,1,8,0:0:0:0:
256,192,144797,1,0,0:0:0:0:
256,192,145069,1,8,0:0:0:0:
256,192,145251,1,0,0:0:0:0:
256,192,145342,1,0,0:0:0:0:
256,192,145615,1,8,0:0:0:0:
256,192,146069,1,8,0:0:0:0:
256,192,146160,1,0,0:0:0:0:
256,192,146433,1,0,0:0:0:0:
256,192,146615,1,8,0:0:0:0:
256,192,146979,1,8,0:0:0:0:
256,192,147251,1,8,0:0:0:0:
256,192,147524,1,0,0:0:0:0:
256,192,147797,1,8,0:0:0:0:
256,192,148251,1,0,0:0:0:0:
256,192,148342,1,8,0:0:0:0:
256,192,148615,1,8,0:0:0:0:
256,192,148706,1,0,0:0:0:0:
256,192,148797,1,0,0:0:0:0:
256,192,148888,1,8,0:0:0:0:
256,192,149160,1,8,0:0:0:0:
256,192,149342,1,0,0:0:0:0:
256,192,149433,1,8,0:0:0:0:
256,192,149615,1,0,0:0:0:0:
256,192,149706,1,0,0:0:0:0:
256,192,149979,1,8,0:0:0:0:
256,192,150251,1,0,0:0:0:0:
256,192,150433,1,8,0:0:0:0:
256,192,150524,1,0,0:0:0:0:
256,192,150797,1,0,0:0:0:0:
256,192,150979,1,8,0:0:0:0:
256,192,151342,1,8,0:0:0:0:
256,192,151615,1,8,0:0:0:0:
256,192,151888,1,0,0:0:0:0:
256,192,152160,1,8,0:0:0:0:
256,192,152342,1,0,0:0:0:0:
256,192,152615,1,8,0:0:0:0:
256,192,152706,1,0,0:0:0:0:
256,192,152979,1,0,0:0:0:0:
256,192,153160,1,8,0:0:0:0:
256,192,153524,1,8,0:0:0:0:
256,192,153797,1,0,0:0:0:0:
256,192,153979,1,0,0:0:0:0:
256,192,154069,1,0,0:0:0:0:
256,192,154251,1,0,0:0:0:0:
256,192,154342,1,8,0:0:0:0:
256,192,154524,1,8,0:0:0:0:
256,192,154706,1,8,0:0:0:0:
256,192,154888,1,4,0:0:0:0:
256,192,155160,1,0,0:0:0:0:
256,192,155342,1,0,0:0:0:0:
256,192,155433,1,8,0:0:0:0:
256,192,155706,1,8,0:0:0:0:
256,192,155774,1,8,0:0:0:0:
256,192,155842,1,8,0:0:0:0:
256,192,155979,1,8,0:0:0:0:
256,192,156160,1,8,0:0:0:0:
256,192,156251,1,8,0:0:0:0:
256,192,156524,1,8,0:0:0:0:
256,192,156797,1,8,0:0:0:0:
256,192,156865,1,8,0:0:0:0:
256,192,156933,1,8,0:0:0:0:
256,192,157069,1,8,0:0:0:0:
256,192,157342,1,8,0:0:0:0:
256,192,157524,1,8,0:0:0:0:
256,192,157888,1,8,0:0:0:0:
256,192,157956,1,8,0:0:0:0:
256,192,158024,1,8,0:0:0:0:
256,192,158160,1,8,0:0:0:0:
256,192,158342,1,8,0:0:0:0:
256,192,158433,1,8,0:0:0:0:
256,192,158706,1,8,0:0:0:0:
256,192,158979,1,8,0:0:0:0:
256,192,159047,1,8,0:0:0:0:
256,192,159115,1,8,0:0:0:0:
256,192,159251,1,0,0:0:0:0:
256,192,159524,1,8,0:0:0:0:
256,192,159706,1,8,0:0:0:0:
256,192,159797,1,0,0:0:0:0:
256,192,160069,1,8,0:0:0:0:
256,192,160251,1,8,0:0:0:0:
256,192,160342,1,0,0:0:0:0:
256,192,160524,1,0,0:0:0:0:
256,192,160706,1,0,0:0:0:0:
256,192,160888,1,0,0:0:0:0:
256,192,160979,1,0,0:0:0:0:
256,192,161069,1,8,0:0:0:0:
256,192,161160,1,0,0:0:0:0:
256,192,161251,1,8,0:0:0:0:
256,192,161433,1,8,0:0:0:0:
256,192,161615,1,0,0:0:0:0:
256,192,161797,1,0,0:0:0:0:
256,192,161979,1,8,0:0:0:0:
256,192,162160,1,0,0:0:0:0:
256,192,162342,1,0,0:0:0:0:
256,192,162433,1,0,0:0:0:0:
256,192,162524,1,8,0:0:0:0:
256,192,163115,1,8,0:0:0:0:
256,192,163660,1,8,0:0:0:0:
256,192,165296,1,8,0:0:0:0:
256,192,165841,1,0,0:0:0:0:
256,192,167478,1,0,0:0:0:0:
256,192,168023,1,8,0:0:0:0:
256,192,170205,1,0,0:0:0:0:
256,192,171841,1,8,0:0:0:0:
256,192,172387,1,8,0:0:0:0:
256,192,174023,1,8,0:0:0:0:
256,192,174569,1,0,0:0:0:0:
256,192,176205,1,0,0:0:0:0:
256,192,176750,1,8,0:0:0:0:
256,192,177841,1,0,0:0:0:0:
256,192,178932,12,0,180524,0:0:0:0:
256,192,181069,5,4,0:0:0:0:
256,192,183250,1,0,0:0:0:0:
256,192,183796,1,8,0:0:0:0:
256,192,185432,1,0,0:0:0:0:
256,192,185978,1,8,0:0:0:0:
256,192,187614,1,0,0:0:0:0:
256,192,187978,1,8,0:0:0:0:
256,192,189796,1,0,0:0:0:0:
256,192,190341,1,0,0:0:0:0:
256,192,190887,1,0,0:0:0:0:
256,192,191432,1,8,0:0:0:0:
256,192,191978,1,0,0:0:0:0:
256,192,192523,1,0,0:0:0:0:
256,192,193069,1,0,0:0:0:0:
256,192,193614,1,8,0:0:0:0:
256,192,194159,1,4,0:0:0:0:
256,192,194432,1,0,0:0:0:0:
256,192,194614,1,8,0:0:0:0:
256,192,194705,1,0,0:0:0:0:
256,192,194978,1,8,0:0:0:0:
256,192,195046,1,8,0:0:0:0:
256,192,195114,1,8,0:0:0:0:
256,192,195250,1,0,0:0:0:0:
256,192,195523,1,0,0:0:0:0:
256,192,195705,1,8,0:0:0:0:
256,192,195796,1,0,0:0:0:0:
256,192,196069,1,8,0:0:0:0:
256,192,196137,1,8,0:0:0:0:
256,192,196205,1,8,0:0:0:0:
256,192,196341,1,0,0:0:0:0:
256,192,196523,1,8,0:0:0:0:
256,192,196614,1,0,0:0:0:0:
256,192,196796,1,8,0:0:0:0:
256,192,196887,1,0,0:0:0:0:
256,192,197159,1,8,0:0:0:0:
256,192,197228,1,8,0:0:0:0:
256,192,197296,1,8,0:0:0:0:
256,192,197432,1,0,0:0:0:0:
256,192,197614,1,8,0:0:0:0:
256,192,197705,1,0,0:0:0:0:
256,192,197887,1,8,0:0:0:0:
256,192,197978,1,0,0:0:0:0:
256,192,198250,1,8,0:0:0:0:
256,192,198319,1,8,0:0:0:0:
256,192,198387,1,8,0:0:0:0:
256,192,198523,1,0,0:0:0:0:
256,192,198705,1,0,0:0:0:0:
256,192,198796,1,0,0:0:0:0:
256,192,198978,1,8,0:0:0:0:
256,192,199069,1,0,0:0:0:0:
256,192,199250,1,0,0:0:0:0:
256,192,199341,1,0,0:0:0:0:
256,192,199523,1,8,0:0:0:0:
256,192,199614,1,0,0:0:0:0:
256,192,199796,1,8,0:0:0:0:
256,192,199887,1,8,0:0:0:0:
256,192,199978,1,0,0:0:0:0:
256,192,200069,1,0,0:0:0:0:
256,192,200159,1,8,0:0:0:0:
256,192,200341,1,0,0:0:0:0:
256,192,200432,1,8,0:0:0:0:
256,192,200523,1,0,0:0:0:0:
256,192,200614,1,0,0:0:0:0:
256,192,200705,1,8,0:0:0:0:
256,192,200887,1,0,0:0:0:0:
256,192,201069,1,0,0:0:0:0:
256,192,201250,1,8,0:0:0:0:
256,192,201432,1,0,0:0:0:0:
256,192,201614,1,8,0:0:0:0:
256,192,201705,1,0,0:0:0:0:
256,192,201796,1,8,0:0:0:0:
256,192,202069,1,8,0:0:0:0:
256,192,202250,1,0,0:0:0:0:
256,192,202341,1,8,0:0:0:0:
256,192,202523,1,0,0:0:0:0:
256,192,202614,1,0,0:0:0:0:
256,192,202887,1,0,0:0:0:0:
256,192,203159,1,0,0:0:0:0:
256,192,203250,1,0,0:0:0:0:
256,192,203341,1,0,0:0:0:0:
256,192,203432,1,12,0:0:0:0:
256,192,203705,1,0,0:0:0:0:
256,192,203978,1,8,0:0:0:0:
256,192,204159,1,8,0:0:0:0:
256,192,204250,1,0,0:0:0:0:
256,192,204523,1,8,0:0:0:0:
256,192,204796,1,0,0:0:0:0:
256,192,204978,1,8,0:0:0:0:
256,192,205069,1,0,0:0:0:0:
256,192,205341,1,8,0:0:0:0:
256,192,205432,1,0,0:0:0:0:
256,192,205523,1,0,0:0:0:0:
256,192,205614,1,8,0:0:0:0:
256,192,205796,1,8,0:0:0:0:
256,192,205887,1,8,0:0:0:0:
256,192,206159,1,0,0:0:0:0:
256,192,206341,1,0,0:0:0:0:
256,192,206432,1,0,0:0:0:0:
256,192,206705,1,8,0:0:0:0:
256,192,206887,1,0,0:0:0:0:
256,192,207250,1,4,0:0:0:0:
256,192,207523,1,0,0:0:0:0:
256,192,207705,1,0,0:0:0:0:
256,192,207796,1,8,0:0:0:0:
256,192,208069,1,0,0:0:0:0:
256,192,208341,1,8,0:0:0:0:
256,192,208523,1,8,0:0:0:0:
256,192,208614,1,0,0:0:0:0:
256,192,208796,1,0,0:0:0:0:
256,192,208887,1,8,0:0:0:0:
256,192,209159,1,8,0:0:0:0:
256,192,209341,1,8,0:0:0:0:
256,192,209432,1,0,0:0:0:0:
256,192,209705,1,0,0:0:0:0:
256,192,209887,1,0,0:0:0:0:
256,192,209978,1,8,0:0:0:0:
256,192,210069,1,0,0:0:0:0:
256,192,210159,1,8,0:0:0:0:
256,192,210250,1,8,0:0:0:0:
256,192,210432,1,0,0:0:0:0:
256,192,210523,1,8,0:0:0:0:
256,192,210796,1,12,0:0:0:0:
256,192,211250,1,4,0:0:0:0:
256,192,211614,1,12,0:0:0:0:
256,192,211887,1,0,0:0:0:0:
256,192,211978,1,0,0:0:0:0:
256,192,212069,1,0,0:0:0:0:
256,192,212159,1,8,0:0:0:0:
256,192,212432,1,0,0:0:0:0:
256,192,212705,1,8,0:0:0:0:
256,192,212887,1,8,0:0:0:0:
256,192,212978,1,0,0:0:0:0:
256,192,213250,1,8,0:0:0:0:
256,192,213523,1,0,0:0:0:0:
256,192,213705,1,8,0:0:0:0:
256,192,213796,1,0,0:0:0:0:
256,192,214069,1,8,0:0:0:0:
256,192,214159,1,0,0:0:0:0:
256,192,214250,1,0,0:0:0:0:
256,192,214341,1,8,0:0:0:0:
256,192,214523,1,8,0:0:0:0:
256,192,214614,1,8,0:0:0:0:
256,192,214887,1,0,0:0:0:0:
256,192,215069,1,0,0:0:0:0:
256,192,215159,1,0,0:0:0:0:
256,192,215432,1,8,0:0:0:0:
256,192,215614,1,8,0:0:0:0:
256,192,215978,1,4,0:0:0:0:
256,192,217069,1,12,0:0:0:0:
256,192,218159,1,12,0:0:0:0:
256,192,218296,12,0,219796,0:0:0:0:
256,192,220069,5,12,0:0:0:0:
256,192,220341,1,4,0:0:0:0:
256,192,220614,1,0,0:0:0:0:
256,192,220887,1,8,0:0:0:0:
256,192,221069,1,8,0:0:0:0:
256,192,221159,1,8,0:0:0:0:
256,192,221228,1,8,0:0:0:0:
256,192,221296,1,8,0:0:0:0:
256,192,221432,1,8,0:0:0:0:
256,192,221614,1,8,0:0:0:0:
256,192,221705,1,0,0:0:0:0:
256,192,221978,1,8,0:0:0:0:
256,192,222432,1,8,0:0:0:0:
256,192,222523,1,4,0:0:0:0:
256,192,222796,1,0,0:0:0:0:
256,192,223069,1,8,0:0:0:0:
256,192,223250,1,8,0:0:0:0:
256,192,223341,1,0,0:0:0:0:
256,192,223523,1,0,0:0:0:0:
256,192,223614,1,8,0:0:0:0:
256,192,223796,1,0,0:0:0:0:
256,192,223887,1,8,0:0:0:0:
256,192,223978,1,8,0:0:0:0:
256,192,224069,1,0,0:0:0:0:
256,192,224159,1,8,0:0:0:0:
256,192,224705,1,4,0:0:0:0:
256,192,224978,1,8,0:0:0:0:
256,192,225159,1,0,0:0:0:0:
256,192,225250,1,8,0:0:0:0:
256,192,225523,1,0,0:0:0:0:
256,192,225796,1,8,0:0:0:0:
256,192,225978,1,8,0:0:0:0:
256,192,226069,1,0,0:0:0:0:
256,192,226341,1,8,0:0:0:0:
256,192,226523,1,0,0:0:0:0:
256,192,226705,1,0,0:0:0:0:
256,192,226887,1,12,0:0:0:0:
256,192,227159,1,0,0:0:0:0:
256,192,227432,1,12,0:0:0:0:
256,192,227705,1,0,0:0:0:0:
256,192,227978,1,12,0:0:0:0:
256,192,228250,1,0,0:0:0:0:
256,192,228523,1,12,0:0:0:0:
256,192,228796,1,8,0:0:0:0:
256,192,229069,1,0,0:0:0:0:
256,192,229250,1,0,0:0:0:0:
256,192,229341,1,8,0:0:0:0:
256,192,229432,1,0,0:0:0:0:
256,192,229523,1,0,0:0:0:0:
256,192,229614,1,12,0:0:0:0:
256,192,229887,1,0,0:0:0:0:
256,192,230159,1,8,0:0:0:0:
256,192,230341,1,8,0:0:0:0:
256,192,230432,1,0,0:0:0:0:
256,192,230705,1,8,0:0:0:0:
256,192,230978,1,8,0:0:0:0:
256,192,231046,1,8,0:0:0:0:
256,192,231114,1,0,0:0:0:0:
256,192,231182,1,0,0:0:0:0:
256,192,231250,1,8,0:0:0:0:
256,192,231432,1,8,0:0:0:0:
256,192,231523,1,0,0:0:0:0:
256,192,231591,1,0,0:0:0:0:
256,192,231659,1,0,0:0:0:0:
256,192,231796,1,8,0:0:0:0:
256,192,231978,1,0,0:0:0:0:
256,192,232069,1,8,0:0:0:0:
256,192,232341,1,8,0:0:0:0:
256,192,232523,1,0,0:0:0:0:
256,192,232614,1,0,0:0:0:0:
256,192,232887,1,8,0:0:0:0:
256,192,233069,1,0,0:0:0:0:
256,192,233250,1,0,0:0:0:0:
256,192,233432,1,12,0:0:0:0:
256,192,233705,1,8,0:0:0:0:
256,192,233796,1,8,0:0:0:0:
256,192,233887,1,8,0:0:0:0:
256,192,233978,1,8,0:0:0:0:
256,192,234159,1,8,0:0:0:0:
256,192,234250,1,0,0:0:0:0:
256,192,234341,1,8,0:0:0:0:
256,192,234432,1,8,0:0:0:0:
256,192,234523,1,0,0:0:0:0:
256,192,234705,1,0,0:0:0:0:
256,192,234887,1,0,0:0:0:0:
256,192,235069,1,8,0:0:0:0:
256,192,235614,1,4,0:0:0:0:
256,192,235887,1,0,0:0:0:0:
256,192,235978,1,0,0:0:0:0:
256,192,236069,1,0,0:0:0:0:
256,192,236159,1,8,0:0:0:0:
256,192,236341,1,8,0:0:0:0:
256,192,236432,1,8,0:0:0:0:
256,192,236523,1,8,0:0:0:0:
256,192,236614,1,0,0:0:0:0:
256,192,236705,1,8,0:0:0:0:
256,192,236887,1,0,0:0:0:0:
256,192,237250,1,8,0:0:0:0:
256,192,237796,1,4,0:0:0:0:
256,192,238069,1,8,0:0:0:0:
256,192,238159,1,8,0:0:0:0:
256,192,238250,1,0,0:0:0:0:
256,192,238341,1,8,0:0:0:0:
256,192,238523,1,8,0:0:0:0:
256,192,238614,1,0,0:0:0:0:
256,192,238705,1,8,0:0:0:0:
256,192,238796,1,0,0:0:0:0:
256,192,238887,1,8,0:0:0:0:
256,192,239069,1,8,0:0:0:0:
256,192,239250,1,8,0:0:0:0:
256,192,239432,1,8,0:0:0:0:
256,192,239614,1,8,0:0:0:0:
256,192,239705,1,8,0:0:0:0:
256,192,239978,1,0,0:0:0:0:
256,192,240159,1,0,0:0:0:0:
256,192,240341,1,0,0:0:0:0:
256,192,240523,1,0,0:0:0:0:
256,192,240705,1,0,0:0:0:0:
256,192,240887,1,0,0:0:0:0:
256,192,241069,1,12,0:0:0:0:
256,192,242159,1,0,0:0:0:0:
256,192,242432,1,0,0:0:0:0:
256,192,242614,1,8,0:0:0:0:
256,192,244341,1,8,0:0:0:0:
256,192,244614,1,0,0:0:0:0:
256,192,244796,1,8,0:0:0:0:
256,192,246523,1,0,0:0:0:0:
256,192,246796,1,0,0:0:0:0:
256,192,246978,1,8,0:0:0:0:
256,192,248705,1,0,0:0:0:0:
256,192,248978,1,8,0:0:0:0:
256,192,249159,1,0,0:0:0:0:
256,192,249523,1,8,0:0:0:0:
256,192,249796,1,0,0:0:0:0:
256,192,250887,1,0,0:0:0:0:
256,192,251159,1,0,0:0:0:0:
256,192,251341,1,8,0:0:0:0:
256,192,253069,1,8,0:0:0:0:
256,192,253341,1,0,0:0:0:0:
256,192,253523,1,8,0:0:0:0:
256,192,254159,1,0,0:0:0:0:
256,192,254432,1,0,0:0:0:0:
256,192,254614,1,8,0:0:0:0:
256,192,255250,1,0,0:0:0:0:
256,192,255523,1,8,0:0:0:0:
256,192,255705,1,0,0:0:0:0:
256,192,256341,1,0,0:0:0:0:
256,192,256614,1,0,0:0:0:0:
256,192,256796,1,8,0:0:0:0:
256,192,257432,1,0,0:0:0:0:
256,192,257705,1,8,0:0:0:0:
256,192,257887,1,0,0:0:0:0:
