osu file format v14

[General]
AudioFilename: 11 HELIXFOSSIL.mp3
AudioLeadIn: 0
PreviewTime: 208713
Countdown: 0
SampleSet: None
StackLeniency: 0.3
Mode: 0
LetterboxInBreaks: 1
WidescreenStoryboard: 1

[Editor]
Bookmarks: 3000,3429,17143,30857,58286,70286,72000,99429,126857,154286,168000,180000,181714,209143,236571,264000,277714,291429,298071,300643
DistanceSpacing: 1.9
BeatDivisor: 12
GridSize: 4
TimelineZoom: 1.9

[Metadata]
Title:HELIXFOSSIL
TitleUnicode:HELIXFOSSIL
Artist:Camellia
ArtistUnicode:かめりあ
Creator:Cryptic
Version:PERMINERALIZATION
Source:
Tags:かいのカセキ
BeatmapID:1527862
BeatmapSetID:723713

[Difficulty]
HPDrainRate:5.7
CircleSize:3.5
OverallDifficulty:8.5
ApproachRate:9.7
SliderMultiplier:2.25
SliderTickRate:1

[Events]
//Background and Video events
0,0,"background.png",0,0
//Break Periods
//Storyboard Layer 0 (Background)
//Storyboard Layer 1 (Fail)
//Storyboard Layer 2 (Pass)
//Storyboard Layer 3 (Foreground)
//Storyboard Sound Samples

[TimingPoints]
3000,311.688311688312,4,2,0,60,1,0
3429,428.571428571429,4,2,0,60,1,0
3429,-200,4,2,0,60,0,0
17143,-40,4,2,0,60,0,0
17214,-40,4,2,0,5,0,0
17500,-200,4,2,0,60,0,0
20571,-40,4,2,0,60,0,0
20643,-40,4,2,0,5,0,0
20714,-200,4,2,0,60,0,0
24000,-40,4,2,0,60,0,0
24071,-40,4,2,0,5,0,0
24357,-200,4,2,0,60,0,0
27429,-34.7222222222222,4,2,0,60,0,0
27500,-34.7222222222222,4,2,0,5,0,0
27571,-200,4,2,0,60,0,0
29143,-40,4,2,0,60,0,0
29214,-40,4,2,0,5,0,0
29500,-200,4,2,0,60,0,0
30857,-100,4,2,0,60,0,0
31714,-66.6666666666667,4,2,0,60,0,0
32571,-100,4,2,0,60,0,0
33857,-133.333333333333,4,2,0,60,0,0
34286,-100,4,2,0,60,0,0
35143,-66.6666666666667,4,2,0,60,0,0
36000,-100,4,2,0,60,0,0
37286,-133.333333333333,4,2,0,60,0,0
37714,-100,4,2,0,60,0,0
38571,-66.6666666666667,4,2,0,60,0,0
39429,-100,4,2,0,60,0,0
40714,-133.333333333333,4,2,0,60,0,0
41143,-100,4,2,0,60,0,0
42000,-66.6666666666667,4,2,0,60,0,0
42857,-100,4,2,0,60,0,0
44143,-133.333333333333,4,2,0,60,0,0
44571,-100,4,2,0,60,0,0
45429,-66.6666666666667,4,2,0,60,0,0
46286,-100,4,2,0,60,0,0
47571,-133.333333333333,4,2,0,60,0,0
48000,-100,4,2,0,60,0,0
48857,-66.6666666666667,4,2,0,60,0,0
49714,-100,4,2,0,60,0,0
51000,-133.333333333333,4,2,0,60,0,0
51429,-100,4,2,0,60,0,0
52286,-66.6666666666667,4,2,0,60,0,0
53143,-100,4,2,0,60,0,0
54429,-133.333333333333,4,2,0,60,0,0
54857,-100,4,2,0,60,0,0
55714,-66.6666666666667,4,2,0,60,0,0
56571,-100,4,2,0,60,0,0
70286,-200,4,2,0,60,0,0
71571,311.688311688312,4,2,0,60,1,0
71999,428.571428571429,4,2,0,60,1,0
71999,-50,4,2,0,60,0,0
72570,-50,4,2,0,5,0,0
72641,-80,4,2,0,60,0,0
72713,-80,4,2,0,5,0,0
72784,-80,4,2,0,60,0,0
72999,-36.3636363636364,4,2,0,60,0,0
73141,-36.3636363636364,4,2,0,5,0,0
73213,-58.8235294117647,4,2,0,60,0,0
73570,-58.8235294117647,4,2,0,5,0,0
73641,-58.8235294117647,4,2,0,60,0,0
73784,-58.8235294117647,4,2,0,5,0,0
73856,-50,4,2,0,60,0,0
74356,-80,4,2,0,60,0,0
74427,-80,4,2,0,5,0,0
74499,-80,4,2,0,60,0,0
74784,-33.3333333333333,4,2,0,60,0,0
75427,-50,4,2,0,60,0,0
75999,-50,4,2,0,5,0,0
76070,-80,4,2,0,60,0,0
76141,-80,4,2,0,5,0,0
76213,-80,4,2,0,60,0,0
76427,-36.3636363636364,4,2,0,60,0,0
76570,-36.3636363636364,4,2,0,5,0,0
76641,-58.8235294117647,4,2,0,60,0,0
76999,-58.8235294117647,4,2,0,5,0,0
77070,-58.8235294117647,4,2,0,60,0,0
77213,-58.8235294117647,4,2,0,5,0,0
77284,-58.8235294117647,4,2,0,60,0,0
77356,-50,4,2,0,60,0,0
77427,-50,4,2,0,5,0,0
77499,-50,4,2,0,60,0,0
77570,-44.4444444444445,4,2,0,60,0,0
77784,-80,4,2,0,60,0,0
77856,-80,4,2,0,5,0,0
77927,-80,4,2,0,60,0,0
77999,-50,4,2,0,60,0,0
79427,-50,4,2,0,5,0,0
79499,-80,4,2,0,60,0,0
79570,-80,4,2,0,5,0,0
79641,-80,4,2,0,60,0,0
79856,-36.3636363636364,4,2,0,60,0,0
79999,-36.3636363636364,4,2,0,5,0,0
80070,-58.8235294117647,4,2,0,60,0,0
80427,-58.8235294117647,4,2,0,5,0,0
80499,-58.8235294117647,4,2,0,60,0,0
80641,-58.8235294117647,4,2,0,5,0,0
80713,-50,4,2,0,60,0,0
81213,-80,4,2,0,60,0,0
81284,-80,4,2,0,5,0,0
81356,-80,4,2,0,60,0,0
81784,-30.7692307692308,4,2,0,60,0,0
81856,-30.7692307692308,4,2,0,5,0,0
81927,-36.3636363636364,4,2,0,60,0,0
81999,-36.3636363636364,4,2,0,5,0,0
82070,-44.4444444444445,4,2,0,60,0,0
82141,-44.4444444444445,4,2,0,5,0,0
82213,-100,4,2,0,60,0,0
82856,-100,4,2,0,5,0,0
82927,-100,4,2,0,60,0,0
83999,-80,4,2,0,60,0,0
84284,-80,4,2,0,5,0,0
84356,-80,4,2,0,60,0,0
84999,-80,4,2,0,5,0,0
85070,-80,4,2,0,60,0,0
85641,-80,4,2,0,5,0,0
85713,-50,4,2,0,60,0,0
86284,-50,4,2,0,5,0,0
86356,-80,4,2,0,60,0,0
86427,-80,4,2,0,5,0,0
86499,-80,4,2,0,60,0,0
86713,-36.3636363636364,4,2,0,60,0,0
86856,-36.3636363636364,4,2,0,5,0,0
86927,-58.8235294117647,4,2,0,60,0,0
87284,-58.8235294117647,4,2,0,5,0,0
87356,-58.8235294117647,4,2,0,60,0,0
87499,-58.8235294117647,4,2,0,5,0,0
87570,-50,4,2,0,60,0,0
88070,-80,4,2,0,60,0,0
88141,-80,4,2,0,5,0,0
88213,-80,4,2,0,60,0,0
88499,-33.3333333333333,4,2,0,60,0,0
89141,-50,4,2,0,60,0,0
89713,-50,4,2,0,5,0,0
89784,-80,4,2,0,60,0,0
89856,-80,4,2,0,5,0,0
89927,-80,4,2,0,60,0,0
90141,-36.3636363636364,4,2,0,60,0,0
90284,-36.3636363636364,4,2,0,5,0,0
90356,-58.8235294117647,4,2,0,60,0,0
90713,-58.8235294117647,4,2,0,5,0,0
90784,-58.8235294117647,4,2,0,60,0,0
90927,-58.8235294117647,4,2,0,5,0,0
90999,-58.8235294117647,4,2,0,60,0,0
91070,-50,4,2,0,60,0,0
91141,-50,4,2,0,5,0,0
91213,-44.4444444444445,4,2,0,60,0,0
91499,-80,4,2,0,60,0,0
91570,-80,4,2,0,5,0,0
91641,-80,4,2,0,60,0,0
91713,-50,4,2,0,60,0,0
92570,-1000,4,2,0,60,0,0
93141,-1000,4,2,0,5,0,0
93213,-80,4,2,0,60,0,0
93284,-80,4,2,0,5,0,0
93356,-80,4,2,0,60,0,0
99427,-50,4,2,0,60,0,1
126856,-100,4,2,0,60,0,0
181284,311.688311688312,4,2,0,60,1,0
181713,428.571428571429,4,2,0,60,1,0
209141,-50,4,2,0,60,0,1
236570,-100,4,2,0,60,0,0

[Colours]
Combo1 : 128,0,64
Combo2 : 0,76,76
Combo3 : 142,0,142
Combo4 : 0,64,128

[HitObjects]
256,192,506,12,0,2922,0:0:0:0:
302,122,3000,5,0,0:0:0:0:
305,129,3038,1,0,0:0:0:0:
308,135,3077,1,0,0:0:0:0:
311,142,3116,1,0,0:0:0:0:
313,148,3155,1,0,0:0:0:0:
314,155,3194,1,0,0:0:0:0:
315,162,3233,1,0,0:0:0:0:
316,169,3272,1,0,0:0:0:0:
316,176,3311,1,0,0:0:0:0:
316,183,3350,1,0,0:0:0:0:
315,190,3389,1,0,0:0:0:0:
313,197,3429,6,0,P|367:184|452:238,1,150
454,244,4072,1,0,0:0:0:0:
350,350,4286,2,0,L|360:295,1,56.25
348,364,4643,1,0,0:0:0:0:
399,72,4929,1,0,0:0:0:0:
199,197,5143,6,0,P|145:184|60:238,1,150
58,244,5786,1,0,0:0:0:0:
162,350,6000,2,0,L|152:295,1,56.25
164,364,6357,1,0,0:0:0:0:
115,86,6571,1,0,0:0:0:0:
113,72,6643,1,0,0:0:0:0:
292,341,6857,6,0,P|238:354|153:300,1,150
151,294,7500,1,0,0:0:0:0:
300,233,7714,2,0,L|245:243,1,56.25
314,231,8071,1,0,0:0:0:0:
22,282,8357,1,0,0:0:0:0:
292,43,8572,6,0,P|238:30|153:84,1,150
151,90,9215,1,0,0:0:0:0:
300,151,9429,2,0,L|245:141,1,56.25
314,153,9785,1,0,0:0:0:0:
36,104,10000,1,0,0:0:0:0:
22,102,10071,1,0,0:0:0:0:
190,343,10286,6,0,P|203:289|149:204,1,150
143,202,10929,1,0,0:0:0:0:
36,284,11143,2,0,L|91:294,1,56.25
22,282,11500,1,0,0:0:0:0:
314,333,11786,1,0,0:0:0:0:
190,41,12000,6,0,P|203:95|149:180,1,150
143,182,12643,1,0,0:0:0:0:
36,100,12857,2,0,L|91:90,1,56.25
22,102,13214,1,0,0:0:0:0:
300,53,13429,1,0,0:0:0:0:
314,51,13500,1,0,0:0:0:0:
328,335,13714,6,0,P|315:281|369:196,1,150
375,194,14357,1,0,0:0:0:0:
436,343,14571,2,0,L|426:288,1,56.25
438,357,14929,1,0,0:0:0:0:
387,65,15213,1,0,0:0:0:0:
184,335,15429,6,0,P|197:281|143:196,1,150
137,194,16072,1,0,0:0:0:0:
76,343,16286,2,0,L|86:288,1,56.25
74,357,16642,1,0,0:0:0:0:
123,79,16857,1,0,0:0:0:0:
125,65,16928,1,0,0:0:0:0:
31,149,17143,6,0,L|51:267,1,93.75
45,230,17500,5,0,0:0:0:0:
59,311,17786,1,0,0:0:0:0:
137,194,18000,5,0,0:0:0:0:
151,275,18357,1,0,0:0:0:0:
165,356,18571,1,0,0:0:0:0:
347,356,18857,5,0,0:0:0:0:
389,113,19214,1,0,0:0:0:0:
375,194,19500,1,0,0:0:0:0:
361,275,19714,1,0,0:0:0:0:
347,356,20071,1,0,0:0:0:0:
389,113,20357,1,0,0:0:0:0:
481,149,20571,6,0,L|463:253,1,93.75
467,230,20714,5,0,0:0:0:0:
453,311,20929,1,0,0:0:0:0:
403,32,21143,1,0,0:0:0:0:
297,77,21357,1,0,0:0:0:0:
299,63,21429,1,0,0:0:0:0:
283,158,21786,1,0,0:0:0:0:
269,239,22000,1,0,0:0:0:0:
255,320,22286,5,0,0:0:0:0:
403,32,22643,1,0,0:0:0:0:
389,113,22929,1,0,0:0:0:0:
375,194,23143,1,0,0:0:0:0:
361,275,23500,1,0,0:0:0:0:
347,356,23714,1,0,0:0:0:0:
109,32,24000,6,0,L|126:130,1,93.75
123,113,24357,5,0,0:0:0:0:
137,194,24643,1,0,0:0:0:0:
31,149,24857,5,0,0:0:0:0:
45,230,25214,1,0,0:0:0:0:
59,311,25429,1,0,0:0:0:0:
165,356,25714,1,0,0:0:0:0:
109,32,26071,5,0,0:0:0:0:
107,18,26143,1,0,0:0:0:0:
123,113,26357,1,0,0:0:0:0:
151,275,26571,1,0,0:0:0:0:
165,356,26929,1,0,0:0:0:0:
137,194,27214,1,0,0:0:0:0:
215,77,27357,5,0,0:0:0:0:
213,62,27429,2,0,L|231:174,1,108.000002636719
229,158,27571,5,0,0:0:0:0:
243,239,27786,1,0,0:0:0:0:
257,320,28000,1,0,0:0:0:0:
123,113,28286,5,0,0:0:0:0:
137,194,28643,1,0,0:0:0:0:
151,275,28857,1,0,0:0:0:0:
165,356,29143,6,0,L|148:257,1,93.75
389,113,29500,5,0,0:0:0:0:
347,356,29786,1,0,0:0:0:0:
361,275,30000,1,0,0:0:0:0:
375,194,30357,1,0,0:0:0:0:
402,32,30571,1,0,0:0:0:0:
467,230,30857,6,0,P|341:286|302:128,1,337.5
307,124,31643,5,0,0:0:0:0:
297,133,31714,2,0,P|277:194|295:249,1,112.500004291535
311,267,31929,2,0,P|273:226|266:172,1,112.500004291535
256,226,32143,2,0,P|298:274|354:286,1,112.500004291535
379,290,32357,2,0,P|348:300|304:295,1,56.2500021457673
362,191,32500,5,0,0:0:0:0:
375,194,32571,2,0,B|485:213|485:213|500:299,1,187.5
496,275,33000,2,0,L|482:201,1,75
464,93,33214,1,0,0:0:0:0:
455,348,33357,1,0,0:0:0:0:
453,360,33429,1,0,0:0:0:0:
482,201,33571,1,0,0:0:0:0:
485,188,33643,1,0,0:0:0:0:
336,283,33786,5,0,0:0:0:0:
323,280,33857,2,0,L|399:293,1,56.2500021457673
249,266,34071,1,0,0:0:0:0:
235,263,34142,1,0,0:0:0:0:
221,261,34213,1,0,0:0:0:0:
189,349,34286,6,0,B|136:336|110:281|117:231|141:206|147:197|147:197|154:188|188:151|181:98|140:63,1,337.5
128,56,35072,5,0,0:0:0:0:
139,62,35143,2,0,P|171:117|165:175,1,112.500004291535
153,196,35358,2,0,P|181:147|177:93,1,112.500004291535
198,144,35572,2,0,P|166:199|114:223,1,112.500004291535
90,232,35786,2,0,P|122:235|164:221,1,56.2500021457673
86,131,35929,5,0,0:0:0:0:
73,137,36000,2,0,B|40:322,1,187.5
43,309,36429,2,0,L|117:295,1,75
224,275,36643,1,0,0:0:0:0:
154,368,36786,1,0,0:0:0:0:
142,370,36858,1,0,0:0:0:0:
301,341,37000,1,0,0:0:0:0:
314,338,37072,1,0,0:0:0:0:
240,177,37214,5,0,0:0:0:0:
243,164,37286,2,0,L|230:240,1,56.2500021457673
257,90,37500,1,0,0:0:0:0:
259,76,37571,1,0,0:0:0:0:
261,62,37642,1,0,0:0:0:0:
338,0,37714,6,0,B|362:33|366:69|349:106|349:106|377:115|411:148|412:192|412:192|454:186|491:203|516:242,1,337.5
512,247,38500,5,0,0:0:0:0:
510,233,38571,2,0,P|458:195|400:195,1,112.500004291535
376,203,38786,2,0,P|426:179|480:189,1,112.500004291535
432,164,39000,2,0,P|373:189|344:238,1,112.500004291535
334,260,39214,2,0,P|334:227|352:187,1,56.2500021457673
432,276,39357,5,0,0:0:0:0:
431,289,39429,2,0,B|417:363|417:363|307:382,1,187.5
319,380,39857,2,0,L|393:366,1,75
501,348,40071,1,0,0:0:0:0:
245,339,40214,1,0,0:0:0:0:
233,337,40286,1,0,0:0:0:0:
392,366,40428,1,0,0:0:0:0:
405,369,40500,1,0,0:0:0:0:
340,217,40643,5,0,0:0:0:0:
343,204,40714,2,0,L|330:280,1,56.2500021457673
357,130,40928,1,0,0:0:0:0:
360,116,40999,1,0,0:0:0:0:
362,102,41070,1,0,0:0:0:0:
285,40,41143,6,0,B|261:72|257:108|274:146|274:146|250:198|186:232|120:210|91:148,1,337.5
89,142,41929,5,0,0:0:0:0:
94,155,42000,2,0,P|139:199|197:207,1,112.500004291535
220,200,42215,2,0,P|165:215|114:198,1,112.500004291535
160,231,42429,2,0,P|221:213|256:168,1,112.500004291535
271,149,42643,2,0,P|266:180|242:218,1,56.2500021457673
174,120,42786,5,0,0:0:0:0:
180,107,42857,2,0,B|365:74,1,187.5
352,77,43286,2,0,L|338:151,1,75
318,258,43500,1,0,0:0:0:0:
411,188,43643,1,0,0:0:0:0:
413,176,43715,1,0,0:0:0:0:
384,335,43857,1,0,0:0:0:0:
381,348,43929,1,0,0:0:0:0:
220,274,44072,5,0,0:0:0:0:
207,277,44144,2,0,L|283:264,1,56.2500021457673
133,291,44358,1,0,0:0:0:0:
119,293,44429,1,0,0:0:0:0:
105,295,44500,1,0,0:0:0:0:
28,357,44571,6,0,B|1:323|1:283|15:251|15:251|29:222|67:188|64:125|20:98|-51:129|-31:191|16:193,1,337.5
130,182,45357,5,0,0:0:0:0:
130,168,45429,2,0,P|114:108|65:63,1,112.500004291535
66,63,45643,2,0,P|118:80|156:121,1,112.500004291535
160,63,45857,2,0,P|106:46|52:57,1,112.500004291535
35,55,46071,2,0,P|66:25|93:12,1,56.2500021457673,0|0,0:3|0:3,0:3:0:0:
256,94,46214,5,0,0:0:0:0:
269,100,46286,2,0,B|253:192|253:192|269:285,1,187.5
342,286,46714,2,0,L|268:272,1,75
161,252,46928,1,0,0:0:0:0:
412,207,47071,1,0,0:0:0:0:
424,205,47143,1,0,0:0:0:0:
284,363,47286,1,0,0:0:0:0:
272,365,47358,1,0,0:0:0:0:
449,333,47500,5,0,0:0:0:0:
461,331,47571,2,0,L|470:275,1,56.2500021457673
333,230,47786,1,0,0:0:0:0:
338,258,47857,1,0,0:0:0:0:
342,286,47928,1,0,0:0:0:0:
412,207,48000,6,0,B|403:159|348:129|294:153|294:153|265:168|240:167|199:161|194:98|226:59|276:78,1,337.5
207,233,48786,5,0,0:0:0:0:
195,227,48857,2,0,P|146:179|133:120,1,112.500004291535
132,121,49071,2,0,P|123:175|141:228,1,112.500004291535
87,200,49286,2,0,P|98:145|134:103,1,112.500004291535
138,86,49500,2,0,P|97:98|69:124,1,56.2500021457673
67,298,49643,5,0,0:0:0:0:
73,310,49714,2,0,B|165:294|165:294|258:310,1,187.5
259,383,50143,2,0,L|245:310,1,75
225,202,50356,1,0,0:0:0:0:
367,328,50500,1,0,0:0:0:0:
365,340,50572,1,0,0:0:0:0:
386,217,50714,1,0,0:0:0:0:
388,205,50786,1,0,0:0:0:0:
511,342,50929,5,0,0:3:0:0:
505,352,51000,2,0,L|449:361,1,56.2500021457673
386,217,51214,1,0,0:0:0:0:
421,222,51286,1,0,0:0:0:0:
456,227,51357,1,0,0:0:0:0:
343,290,51429,6,0,B|307:269|292:234|290:183|336:147|336:147|386:109|385:66|376:28|337:1,1,337.5
388,205,52214,5,0,0:0:0:0:
400,197,52286,2,0,P|436:156|455:98,1,112.500004291535
457,85,52500,2,0,P|468:139|457:194,1,112.500004291535
512,163,52714,2,0,P|494:110|458:69,1,112.500004291535
457,51,52929,2,0,P|509:68|527:80,1,56.2500021457673,0|0,0:3|0:3,0:3:0:0:
200,266,53071,5,0,0:0:0:0:
188,260,53143,2,0,L|223:59,1,187.5
292,72,53572,2,0,L|218:86,1,75
111,106,53786,1,0,0:0:0:0:
362,152,53929,1,0,0:0:0:0:
374,154,54001,1,0,0:0:0:0:
234,0,54144,1,0,0:0:0:0:
222,0,54214,1,0,0:0:0:0:
399,26,54358,5,0,0:0:0:0:
411,27,54429,2,0,L|421:83,1,56.2500021457673
276,168,54643,1,0,0:0:0:0:
283,126,54714,1,0,0:0:0:0:
290,84,54786,1,0,0:0:0:0:
330,232,54857,6,0,B|299:259|257:257|229:240|229:240|185:214|129:228|106:289|151:338|214:327|228:302|231:268,1,337.5
95,192,55643,5,0,0:0:0:0:
85,202,55714,2,0,P|63:250|68:309,1,112.500004291535
73,324,55929,2,0,P|41:278|35:223,1,112.500004291535
0,269,56143,2,0,P|32:314|83:338,1,112.500004291535
93,351,56357,2,0,P|37:356|14:349,1,56.2500021457673
276,168,56499,5,0,0:0:0:0:
289,169,56571,2,0,L|324:369,1,187.5
244,329,57000,2,0,L|318:341,1,75
425,358,57214,1,0,0:0:0:0:
205,229,57357,1,0,0:0:0:0:
195,224,57429,5,0,0:0:0:0:
187,210,57500,1,0,0:0:0:0:
180,192,57571,1,0,0:0:0:0:
177,169,57643,1,0,0:0:0:0:
180,143,57714,1,0,0:0:0:0:
192,115,57786,1,0,0:0:0:0:
214,89,57857,1,0,0:0:0:0:
247,72,57929,1,0,0:0:0:0:
290,69,58000,1,0,0:0:0:0:
334,87,58071,1,0,0:0:0:0:
368,129,58143,1,0,0:0:0:0:
373,188,58214,1,0,0:0:0:0:
331,251,58286,5,0,0:0:0:0:
250,265,58643,1,0,0:0:0:0:
169,279,58929,1,0,0:0:0:0:
367,343,59143,5,0,0:0:0:0:
286,357,59500,1,0,0:0:0:0:
205,371,59714,1,0,0:0:0:0:
88,293,60000,1,0,0:0:0:0:
331,251,60357,5,0,0:0:0:0:
250,265,60643,1,0,0:0:0:0:
169,279,60857,1,0,0:0:0:0:
88,293,61214,1,0,0:0:0:0:
412,237,61500,1,0,0:0:0:0:
331,133,61714,5,0,0:0:0:0:
250,119,62071,1,0,0:0:0:0:
169,105,62357,1,0,0:0:0:0:
367,41,62571,5,0,0:0:0:0:
286,27,62928,1,0,0:0:0:0:
205,13,63142,1,0,0:0:0:0:
88,91,63428,1,0,0:0:0:0:
331,133,63785,5,0,0:0:0:0:
250,119,64071,1,0,0:0:0:0:
169,105,64285,1,0,0:0:0:0:
88,91,64642,1,0,0:0:0:0:
412,147,64928,1,0,0:0:0:0:
331,251,65143,6,0,L|294:257,4,37.5,0|0|0|0|0,0:3|0:3|0:3|0:3|0:3,0:3:0:0:
205,272,65500,2,0,L|169:279,3,37.5,0|0|0|0,0:3|0:3|0:3|0:3,0:3:0:0:
80,293,65786,2,0,L|43:299,2,37.5,0|0|0,0:3|0:3|0:3,0:3:0:0:
135,362,66000,6,0,L|171:368,11,37.5,0|0|0|0|0|0|0|0|0|0|0|0,0:3|0:3|0:3|0:3|0:3|0:3|0:3|0:3|0:3|0:3|0:3|0:3,0:3:0:0:
191,197,66857,6,0,L|185:161,5,37.5,0|0|0|0|0|0,0:3|0:3|0:3|0:3|0:3|0:3,0:3:0:0:
287,294,67286,6,0,L|293:257,1,37.5,0|0,0:3|0:3,0:3:0:0:
308,168,67429,2,0,L|314:131,1,37.5,0|0,0:3|0:3,0:3:0:0:
329,43,67571,2,0,L|335:6,1,37.5,0|0,0:3|0:3,0:3:0:0:
409,236,67714,6,0,L|426:204,1,37.5,0|0,0:3|0:3,0:3:0:0:
308,168,67857,2,0,L|314:131,1,37.5,0|0,0:3|0:3,0:3:0:0:
191,197,68000,2,0,L|185:161,1,37.5,0|0,0:3|0:3,0:3:0:0:
471,125,68143,6,0,L|489:92,1,37.5,0|0,0:3|0:3,0:3:0:0:
329,43,68286,2,0,L|335:6,1,37.5,0|0,0:3|0:3,0:3:0:0:
170,72,68429,2,0,L|164:35,1,37.5,0|0,0:3|0:3,0:3:0:0:
308,168,68571,6,0,L|314:131,1,37.5,0|0,0:3|0:3,0:3:0:0:
329,43,68714,2,0,L|335:6,1,37.5,0|0,0:3|0:3,0:3:0:0:
287,294,68857,2,0,L|293:257,1,37.5,0|0,0:3|0:3,0:3:0:0:
409,236,69000,6,0,L|427:203,1,37.5,0|0,0:3|0:3,0:3:0:0:
471,125,69143,2,0,L|489:92,1,37.5,0|0,0:3|0:3,0:3:0:0:
346,347,69286,2,0,L|364:314,1,37.5,0|0,0:3|0:3,0:3:0:0:
191,197,69429,6,0,L|185:160,1,37.5,0|0,0:3|0:3,0:3:0:0:
170,72,69572,2,0,L|164:35,1,37.5,0|0,0:3|0:3,0:3:0:0:
212,323,69715,2,0,L|206:286,1,37.5,0|0,0:3|0:3,0:3:0:0:
454,314,69857,6,0,L|473:281,1,37.5,0|0,0:3|0:3,0:3:0:0:
308,168,70000,6,0,L|314:131,1,37.5,0|0,0:3|0:3,0:3:0:0:
121,256,70143,6,0,L|113:219,1,37.5,0|0,0:3|0:3,0:3:0:0:
335,5,70286,6,0,L|326:53,1,37.5
314,130,70500,1,0,0:0:0:0:
180,23,70643,5,0,0:0:0:0:
177,5,70714,1,0,0:0:0:0:
198,130,70857,1,0,0:0:0:0:
202,149,70929,2,0,L|176:144,2,18.75
308,168,71143,5,0,0:0:0:0:
96,130,71286,1,0,0:0:0:0:
428,71,71429,1,0,0:0:0:0:
293,256,71571,5,0,0:0:0:0:
284,254,71609,1,0,0:0:0:0:
276,251,71648,1,0,0:0:0:0:
269,248,71687,1,0,0:0:0:0:
261,243,71726,1,0,0:0:0:0:
254,239,71765,1,0,0:0:0:0:
248,233,71804,1,0,0:0:0:0:
242,227,71843,1,0,0:0:0:0:
236,221,71882,1,0,0:0:0:0:
232,214,71921,1,0,0:0:0:0:
228,206,71960,1,0,0:0:0:0:
224,199,71999,6,0,B|193:116|272:39|375:63|396:151|396:151|410:213|364:246|376:299|376:299|386:345|426:379|469:373|506:363,1,600
510,272,72641,6,0,L|464:281,1,46.875
233,320,72784,1,0,0:0:0:0:
293,256,72856,1,0,0:0:0:0:
491,366,72999,6,0,P|548:306|490:195,1,206.250001966953
390,331,73213,6,0,P|529:339|506:202,1,318.750006079674
448,267,73641,5,0,0:0:0:0:
464,281,73713,2,0,L|528:269,1,63.7500012159348,0|0,0:3|0:3,0:3:0:0:
389,331,73856,6,0,L|316:318,1,75
144,180,74070,5,0,0:0:0:0:
160,194,74141,2,0,L|307:168,1,150
307,167,74356,6,0,L|261:158,1,46.875
100,130,74499,1,0,0:0:0:0:
160,194,74570,2,0,P|185:154|181:98,1,93.75
100,130,74784,6,0,L|44:121,16,56.2500021457673
131,46,75428,6,0,B|48:15|-29:94|-5:197|83:218|83:218|145:232|178:186|231:198|231:198|277:208|311:248|305:291|295:328,1,600
204,332,76070,6,0,L|213:286,1,46.875
252,55,76212,1,0,0:0:0:0:
188,115,76284,1,0,0:0:0:0:
298,313,76427,6,0,P|238:370|127:312,1,206.250001966953
263,212,76641,6,0,P|271:351|134:328,1,318.750006079674
199,269,77069,5,0,0:0:0:0:
213,285,77141,2,0,L|201:349,1,63.7500012159348,0|0,0:3|0:3,0:3:0:0:
12,314,77284,5,0,0:0:0:0:
0,240,77356,2,0,L|73:252,1,75
134,190,77499,5,0,0:0:0:0:
147,174,77570,2,0,L|116:1,1,168.750006437302,0|0,0:3|0:3,0:3:0:0:
117,7,77785,6,0,L|108:53,1,46.875
80,214,77928,1,0,0:0:0:0:
144,154,77999,6,0,P|104:129|1:175,1,150
16,274,78213,2,0,P|56:299|159:253,1,150
208,94,78427,5,0,0:0:0:0:
232,98,78498,1,0,0:0:0:0:
256,102,78569,1,0,0:0:0:0:
281,106,78641,1,0,0:0:0:0:
305,111,78712,1,0,0:0:0:0:
329,115,78784,1,0,0:0:0:0:
386,46,78856,6,0,B|469:15|546:94|522:197|434:218|434:218|372:232|339:186|286:198|286:198|240:208|206:248|212:291|222:328,1,600
313,332,79499,6,0,L|304:286,1,46.875
265,55,79640,1,0,0:0:0:0:
329,115,79713,1,0,0:0:0:0:
219,313,79856,6,0,P|279:370|390:312,1,206.250001966953
254,212,80070,6,0,P|246:351|383:328,1,318.750006079674
317,269,80499,5,0,0:0:0:0:
303,285,80570,2,0,L|318:355,1,63.7500012159348,0|0,0:3|0:3,0:3:0:0:
395,254,80713,6,0,L|408:181,1,75
241,48,80928,5,0,0:0:0:0:
227,64,80999,2,0,L|253:211,1,150
254,211,81214,6,0,L|263:165,1,46.875
291,4,81357,1,0,0:0:0:0:
227,64,81427,2,0,P|267:89|361:54,1,140.625
498,239,81784,6,0,P|538:225|495:226,1,121.875003486872,0|0,0:3|0:3,0:3:0:0:
387,258,81927,6,0,P|423:269|396:250,1,103.125000983477,0|0,0:3|0:3,0:3:0:0:
314,171,82070,6,0,P|318:204|328:176,1,84.3750032186509,0|0,0:3|0:3,0:3:0:0:
352,65,82213,5,0,0:3:0:0:
358,58,82284,6,0,B|315:109|250:108|197:61|202:-3|202:-3|180:34|135:46|110:36,1,300
123,41,82927,1,0,0:0:0:0:
103,151,83070,5,0,0:0:0:0:
98,160,83141,6,0,B|111:119|156:106|200:123|224:171|202:209|170:244|125:230|103:202|103:202|76:173|11:174|-14:234|31:265|63:239|42:206,1,412.5
96,292,83999,6,0,P|169:301|258:232,1,187.5
267,214,84356,1,0,0:0:0:0:
272,191,84427,2,0,P|272:150|249:102,1,93.75
249,103,84641,1,0,0:0:0:0:
200,379,84784,5,0,0:0:0:0:
189,384,84856,6,0,P|232:367|283:365,1,93.75
313,331,85070,2,0,P|412:293|266:216,1,375
189,384,85713,6,0,B|216:343|231:264|173:208|136:191|136:191|96:174|62:128|93:65|93:65|166:52|166:52|176:27|176:27|44:47,1,600
10,132,86356,6,0,L|56:141,1,46.875
287,180,86499,1,0,0:0:0:0:
227,116,86569,1,0,0:0:0:0:
78,311,86713,6,0,B|120:337|120:337|224:319|224:319|258:277,1,206.250001966953
362,263,86927,6,0,B|322:310|322:310|132:345|132:345|78:311,1,318.750006079674
152,177,87356,5,0,0:0:0:0:
166,193,87427,2,0,L|151:263,1,63.7500012159348,0|0,0:3|0:3,0:3:0:0:
10,132,87570,6,0,L|90:117,1,75
331,63,87784,5,0,0:0:0:0:
315,77,87856,2,0,L|162:48,1,150
183,90,88070,6,0,L|229:99,1,46.875
390,127,88213,1,0,0:0:0:0:
331,63,88284,2,0,P|304:102|306:155,1,93.75,0|0,0:3|0:3,0:3:0:0:
416,43,88499,6,0,L|471:34,16,56.2500021457673
484,161,89141,6,0,B|502:205|464:293|376:283|339:248|339:248|296:212|221:206|201:251|201:251|268:235|307:268|346:309|328:375,1,600,0|0,0:3|0:3,0:3:0:0:
161,368,89784,6,0,L|152:322,1,46.875
113,91,89925,1,0,0:0:0:0:
177,151,89998,1,0,0:0:0:0:
32,253,90141,6,0,B|75:278|75:278|92:174|92:174|42:183,1,206.250001966953
259,77,90356,6,0,B|196:66|196:66|229:255|229:255|284:223,1,318.750006079674
165,305,90784,5,0,0:0:0:0:
151,321,90856,2,0,L|162:383,1,63.7500012159348,0|0,0:3|0:3,0:3:0:0:
244,156,90999,5,0,0:0:0:0:
283,223,91071,2,0,L|271:296,1,75
45,269,91213,5,0,0:0:0:0:
32,253,91284,2,0,L|205:222,1,168.750006437302,0|0,0:3|0:3,0:3:0:0:
197,148,91499,6,0,L|243:155,1,46.875
428,189,91641,1,0,0:0:0:0:
340,199,91713,6,0,P|346:152|448:102,1,150
512,177,91927,2,0,P|491:246|425:276,1,150
255,122,92141,5,0,0:0:0:0:
231,126,92212,1,0,0:0:0:0:
207,130,92283,1,0,0:0:0:0:
182,134,92355,1,0,0:0:0:0:
158,139,92426,1,0,0:0:0:0:
134,143,92498,1,0,0:0:0:0:
77,73,92570,6,0,L|48:68,1,30
30,64,93213,6,0,L|76:73,1,46.875
307,112,93355,1,0,0:0:0:0:
247,48,93427,1,0,0:0:0:0:
