osu file format v14

[General]
AudioFilename: audio.mp3
AudioLeadIn: 0
PreviewTime: 96096
Countdown: 0
SampleSet: Soft
StackLeniency: 0.3
Mode: 0
LetterboxInBreaks: 0
WidescreenStoryboard: 0

[Editor]
Bookmarks: 524,7381,14238,21096,27953,41238,55381,62239,69096,75953,82810,90096,96524,103381,110238,117096,123953,130810,137667,144525,151382,158239,165096,171953,178810,190810,192525,206239,213096,219953,226810,233667,240525,247382,254239,261096
DistanceSpacing: 0.8
BeatDivisor: 8
GridSize: 16
TimelineZoom: 2.6

[Metadata]
Title:Glitch Nerds
TitleUnicode:Glitch Nerds
Artist:Camellia
ArtistUnicode:Camellia
Creator:cubealert25
Version:GAME OVER
Source:beatmania IIDX 23 copula
Tags:edm camellia
BeatmapID:1244683
BeatmapSetID:587845

[Difficulty]
HPDrainRate:5
CircleSize:4.3
OverallDifficulty:8
ApproachRate:9.5
SliderMultiplier:2
SliderTickRate:1

[Events]
//Background and Video events
//Break Periods
2,36096,40381
2,152010,157382
//Storyboard Layer 0 (Background)
//Storyboard Layer 1 (Fail)
//Storyboard Layer 2 (Pass)
//Storyboard Layer 3 (Foreground)
//Storyboard Sound Samples

[TimingPoints]
525,428.571428571429,4,1,0,70,1,0
525,-100,4,2,0,70,0,0
14238,-66.6666666666667,4,2,0,80,0,0
21524,-57.1428571428571,4,2,0,85,0,0
22596,-66.6666666666667,4,2,0,70,0,0
22810,-57.1428571428571,4,2,0,85,0,0
41238,-100,4,2,0,60,0,0
41667,-100,4,2,0,70,0,0
55381,-80,4,2,0,80,0,0
56667,-133.333333333333,4,2,0,70,0,0
57096,-80,4,2,0,80,0,0
60096,-133.333333333333,4,2,0,70,0,0
60524,-80,4,2,0,80,0,0
65667,-66.6666666666667,4,2,0,80,0,0
69096,-66.6666666666667,4,1,0,85,0,1
81096,-66.6666666666667,4,1,0,75,0,0
82810,-66.6666666666667,4,1,0,85,0,1
96525,-100,4,2,0,70,0,0
106810,-80,4,2,0,75,0,0
108524,-80,4,2,0,80,0,0
110239,-50,4,1,0,85,0,1
122239,-50,4,1,0,75,0,0
123953,-50,4,1,0,85,0,1
127382,-133.333333333333,4,1,0,85,0,1
127810,-100,4,1,0,85,0,1
128239,-80,4,1,0,85,0,1
128560,-66.6666666666667,4,1,0,85,0,1
128882,-57.1428571428571,4,1,0,85,0,1
129096,-50,4,1,0,85,0,1
129953,-57.1428571428571,4,1,0,85,0,1
130275,-66.6666666666667,4,1,0,85,0,1
130596,-80,4,1,0,85,0,1
130810,-50,4,1,0,85,0,1
134239,-133.333333333333,4,1,0,85,0,1
134667,-100,4,1,0,85,0,1
135096,-80,4,1,0,85,0,1
135417,-66.6666666666667,4,1,0,85,0,1
135739,-57.1428571428571,4,1,0,85,0,1
135953,-50,4,1,0,85,0,1
136810,-57.1428571428571,4,1,0,85,0,1
137132,-66.6666666666667,4,1,0,85,0,1
137453,-80,4,1,0,85,0,1
137667,-100,4,2,0,70,0,0
150525,-80,4,2,0,75,0,0
158239,-80,4,2,0,75,0,0
165096,-66.6666666666667,4,2,0,80,0,0
166382,-100,4,2,0,70,0,0
166810,-66.6666666666667,4,2,0,80,0,0
169810,-100,4,2,0,70,0,0
170239,-66.6666666666667,4,2,0,80,0,0
175382,-57.1428571428571,4,2,0,80,0,0
178810,-50,4,1,0,85,0,1
190810,-66.6666666666667,4,2,0,70,0,0
192096,-57.1428571428571,4,2,0,80,0,0
192525,-50,4,1,0,85,0,1
206239,-66.6666666666667,4,1,0,85,0,0

[HitObjects]
64,96,525,6,0,L|48:88,12,12.5,12|0|0|0|0|0|0|0|0|0|0|0|0,0:0|0:0|0:0|0:0|0:0|0:0|0:0|0:0|0:0|0:0|0:0|0:0|0:0,0:0:0:0:
144,144,953,5,8,0:0:0:0:
384,112,1382,1,0,0:0:0:0:
304,224,1703,1,0,0:0:0:0:
464,224,2025,2,0,L|464:256,3,25,8|0|0|0,0:0|0:0|0:0|0:0,0:0:0:0:
480,208,2239,1,0,0:0:0:0:
392,103,2667,6,0,L|240:240,1,200
192,240,3203,5,0,0:0:0:0:
144,240,3310,2,0,L|112:240,1,25,2|0,0:0|0:0,0:0:0:0:
240,144,3525,2,0,L|208:144,1,25,2|0,0:0|0:0,0:0:0:0:
336,64,3739,2,0,L|304:64,1,25,2|0,0:0|0:0,0:0:0:0:
464,64,3953,6,0,L|464:272,2,200,0|0|2,0:0|0:0|0:0,0:0:0:0:
288,144,4953,6,0,L|328:144,1,33.3333333333333,2|0,0:0|0:0,0:0:0:0:
432,64,5096,2,0,L|392:64,1,33.3333333333333,2|0,0:0|0:0,0:0:0:0:
288,144,5238,2,0,L|304:144,12,16.6666666666667,8|0|0|0|0|0|0|0|0|0|0|0|0,0:0|0:0|0:0|0:0|0:0|0:0|0:0|0:0|0:0|0:0|0:0|0:0|0:0,0:0:0:0:
48,48,5881,6,0,L|32:80,1,25,2|0,0:0|0:0,0:0:0:0:
464,48,6310,2,0,L|480:80,1,25,2|0,0:0|0:0,0:0:0:0:
144,336,6738,6,0,L|144:304,1,25,2|0,0:0|0:0,0:0:0:0:
368,336,7060,2,0,L|368:304,1,25,2|0,0:0|0:0,0:0:0:0:
256,80,7381,6,0,L|256:64,12,12.5,12|0|0|0|0|0|0|0|0|0|0|0|0,0:0|0:0|0:0|0:0|0:0|0:0|0:0|0:0|0:0|0:0|0:0|0:0|0:0,0:0:0:0:
256,144,7810,5,8,0:0:0:0:
256,272,8238,1,0,0:0:0:0:
384,336,8560,1,0,0:0:0:0:
140,199,8881,2,0,L|140:167,3,25,8|0|0|0,0:0|0:0|0:0|0:0,0:0:0:0:
144,224,9096,1,0,0:0:0:0:
256,297,9524,2,0,P|160:288|144:192,1,200
96,168,10060,5,0,0:0:0:0:
64,128,10167,2,0,L|48:96,1,25,2|0,0:0|0:0,0:0:0:0:
232,168,10381,2,0,L|232:136,1,25,2|0,0:0|0:0,0:0:0:0:
360,304,10596,2,0,L|376:272,1,25,2|0,0:0|0:0,0:0:0:0:
464,48,10810,6,0,L|464:256,2,200,0|0|2,0:0|0:0|0:0,0:0:0:0:
256,48,11810,2,0,L|223:48,1,33.3333333333333,2|0,0:0|0:0,0:0:0:0:
416,48,11953,2,0,L|456:48,1,33.3333333333333,2|0,0:0|0:0,0:0:0:0:
256,48,12096,2,0,L|240:48,12,16.6666666666667,8|0|0|0|0|0|0|0|0|0|0|0|0,0:0|0:0|0:0|0:0|0:0|0:0|0:0|0:0|0:0|0:0|0:0|0:0|0:0,0:0:0:0:
64,64,12738,6,0,L|80:96,1,25,2|0,0:0|0:0,0:0:0:0:
448,64,13167,2,0,L|464:40,2,25
442,75,13328,2,0,L|423:103,1,25
384,160,13488,5,0,0:0:0:0:
128,160,13703,5,0,0:0:0:0:
256,336,14024,5,0,0:0:0:0:
256,80,14238,6,0,L|256:56,12,18.7500007152558,12|0|0|0|0|0|0|0|0|0|0|0|0,0:0|0:0|0:0|0:0|0:0|0:0|0:0|0:0|0:0|0:0|0:0|0:0|0:0,0:0:0:0:
256,160,14667,1,8,0:0:0:0:
464,336,15096,1,0,0:0:0:0:
320,304,15417,1,0,0:0:0:0:
464,272,15739,2,0,L|416:272,3,37.5000014305115
464,240,15953,5,0,0:0:0:0:
464,231,16168,1,0,0:0:0:0:
464,48,16381,1,0,0:0:0:0:
464,57,16596,1,0,0:0:0:0:
352,192,16810,1,0,0:0:0:0:
320,160,16917,1,0,0:0:0:0:
288,128,17024,2,0,P|304:112|288:80,1,37.5000014305115,2|0,0:0|0:0,0:0:0:0:
288,256,17238,2,0,P|304:272|288:304,1,37.5000014305115,2|0,0:0|0:0,0:0:0:0:
176,192,17453,2,0,L|224:192,1,37.5000014305115,2|0,0:0|0:0,0:0:0:0:
352,192,17667,5,0,0:0:0:0:
368,192,17881,1,0,0:0:0:0:
160,192,18096,1,0,0:0:0:0:
144,192,18310,1,0,0:0:0:0:
256,64,18524,2,0,L|272:16,1,50.0000019073487,2|0,0:0|0:0,0:0:0:0:
256,160,18667,2,0,L|240:112,1,50.0000019073487,2|0,0:0|0:0,0:0:0:0:
256,256,18810,2,0,L|272:208,1,50.0000019073487,2|0,0:0|0:0,0:0:0:0:
256,336,18953,2,0,L|240:304,12,25.0000009536744,8|0|0|0|0|0|0|0|0|0|0|0|0,0:0|0:0|0:0|0:0|0:0|0:0|0:0|0:0|0:0|0:0|0:0|0:0|0:0,0:0:0:0:
112,288,19596,6,0,L|96:240,1,37.5000014305115,2|0,0:0|0:0,0:0:0:0:
256,208,19810,1,8,0:0:0:0:
400,288,20024,2,0,L|416:240,1,37.5000014305115,2|0,0:0|0:0,0:0:0:0:
256,208,20238,1,8,0:0:0:0:
112,192,20453,6,0,L|96:144,1,37.5000014305115,2|0,0:0|0:0,0:0:0:0:
384,224,20667,1,8,0:0:0:0:
400,192,20774,2,0,B|368:176|368:176|432:208|432:208|368:176|368:176,1,150.000005722046,2|0,0:0|0:0,0:0:0:0:
416,160,21096,6,0,L|432:128,12,18.7500007152558,12|0|0|0|0|0|0|0|0|0|0|0|0,0:0|0:0|0:0|0:0|0:0|0:0|0:0|0:0|0:0|0:0|0:0|0:0|0:0,0:0:0:0:
448,112,21524,6,8,L|480:48,1,43.7500004172325
256,144,21738,1,0,0:0:0:0:
64,112,21953,2,8,L|32:48,1,43.7500004172325
256,224,22167,1,0,0:0:0:0:
256,80,22381,2,8,L|256:32,1,43.7500004172325
256,144,22596,2,0,L|256:192,3,37.5000014305115
256,224,22810,6,8,L|256:272,1,43.7500004172325
352,192,23024,1,0,0:0:0:0:
256,79,23238,2,8,L|256:36,1,43.7500004172325
160,192,23453,1,0,0:0:0:0:
256,304,23667,2,8,L|256:348,1,43.7500004172325
384,192,23881,6,0,L|400:144,1,43.7500004172325,2|0,0:0|0:0,0:0:0:0:
256,144,24096,2,0,L|256:96,1,43.7500004172325,2|0,0:0|0:0,0:0:0:0:
128,192,24310,6,0,L|112:144,4,43.7500004172325,2|0|8|0|0,0:0|0:0|0:0|0:0|0:0,0:0:0:0:
144,320,24738,2,0,L|192:320,1,43.7500004172325,8|0,0:0|0:0,0:0:0:0:
368,320,24953,2,0,L|324:320,1,43.7500004172325,8|0,0:0|0:0,0:0:0:0:
384,192,25167,6,0,L|397:150,4,43.7500004172325,10|0|8|0|0,0:0|0:0|0:0|0:0|0:0,0:0:0:0:
368,64,25596,2,0,L|324:64,1,43.7500004172325,8|0,0:0|0:0,0:0:0:0:
144,64,25810,2,0,L|187:64,1,43.7500004172325,8|0,0:0|0:0,0:0:0:0:
256,208,26024,6,0,L|256:160,3,43.7500004172325,8|0|0|0,0:0|0:0|0:0|0:0,0:0:0:0:
208,160,26239,5,0,0:0:0:0:
192,208,26346,1,0,0:0:0:0:
192,240,26453,1,0,0:0:0:0:
208,288,26560,1,0,0:0:0:0:
304,288,26667,1,0,0:0:0:0:
320,240,26775,1,0,0:0:0:0:
320,208,26882,1,0,0:0:0:0:
304,160,26989,1,0,0:0:0:0:
256,80,27096,1,8,0:0:0:0:
256,352,27310,6,0,L|256:304,3,43.7500004172325,8|0|0|0,0:0|0:0|0:0|0:0,0:0:0:0:
256,96,27632,2,0,L|256:48,3,43.7500004172325,8|0|0|0,0:0|0:0|0:0|0:0,0:0:0:0:
256,208,27953,1,12,0:0:0:0:
256,192,28006,12,0,34381,0:0:0:0:
256,192,41238,6,0,L|256:176,8,12.5,2|0|0|0|0|0|0|0|0,0:0|0:0|0:0|0:0|0:0|0:0|0:0|0:0|0:0,0:0:0:0:
176,240,41667,5,12,0:0:0:0:
128,288,41774,1,0,0:0:0:0:
80,336,41881,2,0,P|64:288|80:240,1,100
128,96,42203,2,0,P|144:144|128:192,1,100
80,144,42631,1,0,0:0:0:0:
80,144,42738,1,0,0:0:0:0:
256,64,42953,5,0,0:0:0:0:
260,55,43060,1,0,0:0:0:0:
267,49,43167,1,0,0:0:0:0:
276,47,43274,1,0,0:0:0:0:
288,48,43381,5,0,0:0:0:0:
350,48,43488,1,0,0:0:0:0:
416,48,43596,2,0,P|431:94|417:141,1,100
367,287,43918,2,0,P|351:240|365:193,1,100
416,240,44346,1,0,0:0:0:0:
416,240,44453,1,0,0:0:0:0:
224,144,44667,5,0,0:0:0:0:
217,137,44774,1,0,0:0:0:0:
210,130,44881,1,0,0:0:0:0:
204,124,44988,1,0,0:0:0:0:
192,112,45096,5,0,0:0:0:0:
142,112,45203,1,0,0:0:0:0:
92,112,45310,2,0,B|64:128|64:128|80:208,1,100
112,320,45631,2,0,B|140:304|140:304|124:224,1,100
64,256,46060,1,0,0:0:0:0:
64,256,46167,1,0,0:0:0:0:
176,128,46381,5,0,0:0:0:0:
188,119,46488,1,0,0:0:0:0:
203,113,46596,2,0,L|208:144,1,25,2|0,0:0|0:0,0:0:0:0:
218,110,46702,1,0,0:0:0:0:
240,112,46810,5,0,0:0:0:0:
288,112,46917,2,0,L|288:144,1,25,2|0,0:0|0:0,0:0:0:0:
340,112,47024,1,0,0:0:0:0:
464,192,47238,6,0,L|448:240,2,50
384,240,47560,2,0,L|368:288,2,50
304,288,47881,2,0,L|288:336,2,50
112,192,48524,5,0,0:0:0:0:
89,147,48631,1,0,0:0:0:0:
67,102,48738,2,0,P|112:64|160:64,1,100
176,224,49060,2,0,P|137:179|137:131,1,100
208,80,49488,1,0,0:0:0:0:
255,64,49596,2,0,L|287:95,1,25
304,64,49703,2,0,L|272:64,3,25
368,64,49917,6,0,L|368:144,1,75
432,128,50131,6,0,L|432:208,1,75
368,208,50346,6,0,L|368:288,1,75
432,272,50560,6,0,L|432:352,1,75
368,352,50774,6,0,L|256:352,1,100
80,256,51203,1,0,0:0:0:0:
80,240,51310,1,0,0:0:0:0:
160,96,51524,1,0,0:0:0:0:
170,89,51631,1,0,0:0:0:0:
180,82,51738,1,0,0:0:0:0:
191,75,51845,1,0,0:0:0:0:
208,64,51953,5,0,0:0:0:0:
208,114,52060,1,0,0:0:0:0:
208,164,52167,2,0,L|208:272,1,100
336,320,52488,2,0,L|336:220,1,100
256,32,52917,1,0,0:0:0:0:
256,48,53024,1,0,0:0:0:0:
256,224,53238,5,0,0:0:0:0:
259,248,53345,1,0,0:0:0:0:
263,273,53452,1,0,0:0:0:0:
266,298,53559,1,0,0:0:0:0:
270,322,53667,5,0,0:0:0:0:
472,320,53881,2,0,P|400:304|408:200,1,175
448,256,54310,2,0,L|480:240,2,25
344,200,54471,2,0,L|312:216,1,25
352,320,54631,1,0,0:0:0:0:
192,256,54846,1,0,0:0:0:0:
224,96,55060,1,0,0:0:0:0:
240,80,55167,1,0,0:0:0:0:
464,208,55381,6,0,L|384:256,1,93.75,12|0,0:0|0:0,0:0:0:0:
352,272,55596,1,0,0:0:0:0:
112,256,55810,1,8,0:0:0:0:
208,96,56024,1,0,0:0:0:0:
240,80,56131,2,0,L|320:96,1,62.5,0|8,0:0|0:0,0:0:0:0:
416,160,56346,1,0,0:0:0:0:
320,288,56560,1,0,0:0:0:0:
288,304,56667,2,0,P|224:304|224:240,1,131.25000500679,8|0,0:0|0:0,0:0:0:0:
240,224,57096,6,0,L|320:160,1,93.75,8|0,0:0|0:0,0:0:0:0:
336,144,57310,1,0,0:0:0:0:
432,320,57524,1,8,0:0:0:0:
240,320,57738,1,0,0:0:0:0:
194,319,57846,2,0,L|126:319,1,62.5,0|8,0:0|0:0,0:0:0:0:
240,192,58060,1,0,0:0:0:0:
190,65,58274,1,8,0:0:0:0:
144,64,58381,1,0,0:0:0:0:
192,320,58596,1,0,0:0:0:0:
416,320,58810,6,0,L|386:231,1,93.75,8|0,0:0|0:0,0:0:0:0:
368,192,59024,1,0,0:0:0:0:
192,256,59238,1,8,0:0:0:0:
352,336,59453,1,0,0:0:0:0:
368,304,59560,2,0,L|400:240,1,62.5,0|8,0:0|0:0,0:0:0:0:
400,64,59774,1,0,0:0:0:0:
192,128,59988,1,0,0:0:0:0:
160,144,60096,2,0,B|144:152|144:152|104:208|144:264,1,131.25000500679,8|0,0:0|0:0,0:0:0:0:
192,208,60524,6,0,L|288:208,1,93.75,8|0,0:0|0:0,0:0:0:0:
320,208,60738,1,0,0:0:0:0:
432,64,60953,1,8,0:0:0:0:
208,64,61167,1,0,0:0:0:0:
224,96,61274,2,0,L|264:160,1,62.5
368,288,61488,1,0,0:0:0:0:
120,336,61703,1,0,0:0:0:0:
88,320,61810,1,8,0:0:0:0:
248,240,62024,5,0,0:0:0:0:
272,214,62131,2,0,L|297:238,1,31.25
297,188,62238,2,0,P|359:148|410:172,1,125
358,216,62560,1,0,0:0:0:0:
420,245,62667,2,0,P|414:323|458:350,1,125
469,287,62988,6,0,L|441:305,1,31.25
358,216,63096,2,0,P|352:294|396:321,1,125
407,258,63417,1,0,0:0:0:0:
297,188,63524,2,0,P|291:266|335:293,1,125
346,229,63846,6,0,L|318:247,1,31.25
235,159,63954,2,0,P|229:237|273:264,1,125
284,201,64275,1,0,0:0:0:0:
174,130,64382,2,0,P|168:208|212:235,1,125
224,172,64703,6,0,L|196:190,1,31.25
113,101,64811,2,0,P|107:179|151:206,1,125
162,143,65132,1,0,0:0:0:0:
52,73,65239,2,0,P|46:151|90:178,1,125
128,116,65561,6,0,L|100:134,1,31.25
208,112,65667,2,0,P|208:144|192:192,1,75.0000028610231
304,112,65881,2,0,P|304:144|320:192,1,75.0000028610231
176,160,66096,2,0,P|160:187|122:219,1,75.0000028610231
336,160,66310,2,0,P|352:187|389:221,1,75.0000028610231
144,208,66524,2,0,P|116:224|66:236,1,75.0000028610231
368,208,66738,2,0,P|395:224|444:234,1,75.0000028610231
112,256,66953,2,0,P|80:256|32:240,1,75.0000028610231
400,256,67167,2,0,P|431:256|480:240,1,75.0000028610231
192,304,67381,5,0,0:0:0:0:
320,304,67489,1,0,0:0:0:0:
176,320,67596,1,0,0:0:0:0:
336,288,67703,1,0,0:0:0:0:
160,304,67810,1,0,0:0:0:0:
352,304,67917,1,0,0:0:0:0:
176,288,68025,1,0,0:0:0:0:
336,320,68131,1,0,0:0:0:0:
176,304,68239,6,0,L|160:320,6,18.7500007152558
336,304,68667,6,0,L|352:320,10,18.7500007152558
256,80,69096,6,0,L|256:48,12,18.7500007152558,12|0|0|0|0|0|0|0|0|0|0|0|0,1:0|2:0|2:0|2:0|2:0|2:0|2:0|2:0|2:0|2:0|2:0|2:0|2:0,2:0:0:0:
176,112,69524,2,0,B|168:160|120:160,1,75.0000028610231,0|0,0:0|2:0,0:0:0:0:
256,224,69739,2,0,L|152:280,1,112.500004291535,0|0,0:0|2:0,0:0:0:0:
128,296,69953,1,8,0:0:0:0:
104,200,70060,2,0,B|104:168|104:168|152:152,1,75.0000028610231,0|0,0:0|2:0,0:0:0:0:
224,96,70274,2,0,L|264:80,2,37.5000014305115,0|0|0,1:0|2:0|2:0,2:0:0:0:
344,40,70488,6,0,L|344:88,1,37.5000014305115,0|0,0:0|2:0,0:0:0:0:
400,72,70596,2,0,L|383:117,1,37.5000014305115,0|0,0:0|2:0,0:0:0:0:
432,136,70703,2,0,L|401:172,1,37.5000014305115,0|0,0:0|2:0,0:0:0:0:
432,216,70810,1,0,0:0:0:0:
240,256,71024,6,0,L|272:224,1,37.5000014305115,0|0,0:0|2:0,0:0:0:0:
288,272,71131,2,0,L|288:224,1,37.5000014305115,0|0,0:0|2:0,0:0:0:0:
336,256,71239,2,0,L|256:176,1,112.500004291535,0|0,0:0|2:0,0:0:0:0:
224,144,71453,1,0,0:0:0:0:
368,288,71560,2,0,L|304:224,1,75.0000028610231,0|0,0:0|2:0,0:0:0:0:
224,144,71881,1,0,0:0:0:0:
314,234,71988,1,0,0:0:0:0:
192,112,72096,2,0,L|148:100,1,37.5000014305115,0|0,0:0|2:0,0:0:0:0:
346,266,72310,2,0,L|314:298,1,37.5000014305115,0|0,0:0|2:0,0:0:0:0:
192,240,72524,6,0,L|169:262,12,18.7500007152558,12|0|0|0|0|0|0|0|0|0|0|0|0,1:0|2:0|2:0|2:0|2:0|2:0|2:0|2:0|2:0|2:0|2:0|2:0|2:0,2:0:0:0:
256,304,72953,2,0,L|320:256,1,75.0000028610231,0|0,0:0|2:0,0:0:0:0:
256,192,73167,2,0,L|144:192,1,112.500004291535,0|0,0:0|2:0,0:0:0:0:
96,192,73381,6,0,L|32:192,1,50.0000019073487,0|0,0:0|2:0,0:0:0:0:
176,240,73525,2,0,L|112:240,1,50.0000019073487,0|0,0:0|2:0,0:0:0:0:
256,288,73667,2,0,L|192:288,1,50.0000019073487,0|0,0:0|2:0,0:0:0:0:
336,336,73810,2,0,L|304:336,10,25.0000009536744,0|0|0|0|0|0|0|0|0|0|0,1:0|2:0|2:0|2:0|2:0|2:0|2:0|2:0|2:0|2:0|2:0,2:0:0:0:
384,336,74238,6,0,L|384:96,1,225.000008583069
320,336,74667,2,0,L|320:96,1,225.000008583069
256,336,75096,6,0,L|256:176,1,150.000005722046
192,336,75417,2,0,L|192:176,1,150.000005722046
128,336,75739,6,0,L|128:288,3,37.5000014305115,0|0|0|0,1:0|2:0|2:0|2:0,2:0:0:0:
64,336,75953,6,0,L|64:304,12,18.7500007152558,12|0|0|0|0|0|0|0|0|0|0|0|0,1:0|2:0|2:0|2:0|2:0|2:0|2:0|2:0|2:0|2:0|2:0|2:0|2:0,2:0:0:0:
64,240,76381,2,0,L|64:160,1,75.0000028610231,0|0,0:0|2:0,0:0:0:0:
64,48,76596,2,0,P|64:96|128:128,1,112.500004291535,0|0,0:0|2:0,0:0:0:0:
160,128,76810,1,0,0:0:0:0:
208,64,76917,2,0,L|128:64,1,75.0000028610231,0|0,0:0|2:0,0:0:0:0:
64,128,77131,2,0,L|64:176,2,37.5000014305115,0|0|0,1:0|2:0|2:0,2:0:0:0:
160,192,77346,6,0,L|128:224,1,37.5000014305115,0|0,0:0|2:0,0:0:0:0:
208,224,77453,2,0,L|240:192,1,37.5000014305115,0|0,0:0|2:0,0:0:0:0:
240,272,77560,2,0,L|208:304,1,37.5000014305115,0|0,0:0|2:0,0:0:0:0:
288,304,77667,1,0,0:0:0:0:
448,176,77881,6,0,L|464:224,1,37.5000014305115,0|0,0:0|2:0,0:0:0:0:
384,128,77988,2,0,L|384:176,1,37.5000014305115,0|0,0:0|2:0,0:0:0:0:
320,80,78096,2,0,L|304:192,1,112.500004291535,0|0,0:0|2:0,0:0:0:0:
296,224,78310,1,0,0:0:0:0:
192,336,78417,2,0,L|112:336,1,75.0000028610231,0|0,0:0|2:0,0:0:0:0:
64,192,78738,1,0,0:0:0:0:
128,64,78846,1,0,0:0:0:0:
192,192,78953,2,0,L|225:175,1,37.5000014305115,0|0,0:0|2:0,0:0:0:0:
320,304,79167,2,0,L|368:280,1,37.5000014305115,0|0,0:0|2:0,0:0:0:0:
384,128,79381,6,0,L|368:144,7,18.7500007152558,12|0|0|0|0|0|0|0,1:0|2:0|2:0|2:0|2:0|2:0|2:0|2:0,2:0:0:0:
352,112,79596,6,0,L|352:134,7,18.7500007152558,0|0|0|0|0|0|0|0,1:0|2:0|2:0|2:0|2:0|2:0|2:0|2:0,2:0:0:0:
320,128,79810,6,0,L|353:161,3,37.5000014305115,0|0|0|0,1:0|2:0|2:0|2:0,2:0:0:0:
304,160,80024,6,0,L|352:160,3,37.5000014305115,0|0|0|0,1:0|2:0|2:0|2:0,2:0:0:0:
272,192,80238,6,0,L|208:192,1,50.0000019073487,0|0,0:0|2:0,2:0:0:0:
240,256,80381,2,0,L|176:256,1,50.0000019073487,0|0,0:0|2:0,2:0:0:0:
192,320,80524,2,0,L|128:320,1,50.0000019073487,0|0,0:0|2:0,2:0:0:0:
112,352,80667,2,0,L|80:352,11,25.0000009536744,0|0|0|0|0|0|0|0|0|0|0|0,0:0|2:0|2:0|2:0|2:0|2:0|2:0|2:0|2:0|2:0|2:0|2:0,2:0:0:0:
160,368,81096,5,0,2:0:0:0:
214,323,81203,1,0,2:0:0:0:
287,334,81310,1,0,2:0:0:0:
359,334,81417,1,0,2:0:0:0:
428,317,81524,1,0,2:0:0:0:
493,351,81631,1,0,2:0:0:0:
464,320,81738,1,0,2:0:0:0:
434,251,81845,1,0,2:0:0:0:
426,176,81952,5,0,2:0:0:0:
440,103,82059,1,0,2:0:0:0:
475,37,82166,1,0,2:0:0:0:
432,64,82274,1,0,2:0:0:0:
398,129,82381,1,0,2:0:0:0:
343,179,82488,1,0,2:0:0:0:
273,206,82595,1,0,2:0:0:0:
199,206,82702,1,0,2:0:0:0:
130,178,82810,6,0,L|104:160,12,18.7500007152558,12|0|0|0|0|0|0|0|0|0|0|0|0,1:0|2:0|2:0|2:0|2:0|2:0|2:0|2:0|2:0|2:0|2:0|2:0|2:0,2:0:0:0:
208,256,83238,2,0,L|283:256,1,75.0000028610231,0|0,0:0|2:0,0:0:0:0:
352,336,83453,2,0,L|240:336,1,112.500004291535,8|0,0:0|2:0,0:0:0:0:
208,336,83667,1,0,0:0:0:0:
80,240,83774,2,0,L|144:192,1,75.0000028610231
256,112,83988,2,0,L|296:80,2,37.5000014305115
256,224,84203,6,0,L|256:272,1,37.5000014305115,0|0,0:0|2:0,0:0:0:0:
288,256,84310,2,0,L|304:304,1,37.5000014305115,0|0,0:0|2:0,0:0:0:0:
336,288,84417,2,0,L|368:320,1,37.5000014305115,0|0,0:0|2:0,0:0:0:0:
400,304,84524,1,0,0:0:0:0:
368,80,84738,6,0,L|352:128,1,37.5000014305115,0|0,0:0|2:0,0:0:0:0:
288,64,84846,2,0,L|288:112,1,37.5000014305115,0|0,0:0|2:0,0:0:0:0:
208,96,84953,2,0,L|128:176,1,112.500004291535,0|0,0:0|2:0,0:0:0:0:
96,208,85167,1,0,0:0:0:0:
64,320,85274,2,0,L|0:384,1,75.0000028610231,0|0,0:0|2:0,0:0:0:0:
256,304,85596,1,0,0:0:0:0:
320,272,85703,1,0,0:0:0:0:
384,240,85810,2,0,L|400:288,1,37.5000014305115,0|0,0:0|2:0,0:0:0:0:
224,112,86024,2,0,L|261:145,1,37.5000014305115,0|0,0:0|2:0,0:0:0:0:
384,240,86238,6,0,L|400:288,4,37.5000014305115,12|0|0|0|0,0:0|0:0|0:0|0:0|0:0,0:0:0:0:
224,112,86667,2,0,L|304:184,1,75.0000028610231,0|0,0:0|2:0,0:0:0:0:
352,48,86881,2,0,L|464:48,1,112.500004291535,0|0,0:0|2:0,0:0:0:0:
416,128,87096,6,0,L|480:128,1,50.0000019073487,0|0,0:0|2:0,0:0:0:0:
336,176,87239,2,0,L|400:176,1,50.0000019073487,0|0,0:0|2:0,0:0:0:0:
256,224,87382,2,0,L|320:224,1,50.0000019073487,0|0,0:0|2:0,0:0:0:0:
176,272,87525,2,0,L|208:272,10,25.0000009536744,0|0|0|0|0|0|0|0|0|0|0,1:0|2:0|2:0|2:0|2:0|2:0|2:0|2:0|2:0|2:0|2:0,2:0:0:0:
120,232,87953,6,0,P|152:336|240:296,1,225.000008583069
59,200,88381,2,0,P|91:304|179:264,1,225.000008583069
198,114,88810,2,0,L|115:239,1,150.000005722046
175,271,89131,2,0,L|260:144,1,150.000005722046
192,192,89453,2,0,L|152:248,3,37.5000014305115,0|0|0|0,1:0|2:0|2:0|2:0,2:0:0:0:
104,296,89667,6,0,L|104:328,9,25.0000009536744,0|0|0|0|0|0|0|0|0|0,2:0|2:0|2:0|2:0|2:0|2:0|2:0|2:0|2:0|2:0,2:0:0:0:
112,80,90096,6,0,L|112:48,12,18.7500007152558,12|0|0|0|0|0|0|0|0|0|0|0|0,1:0|2:0|2:0|2:0|2:0|2:0|2:0|2:0|2:0|2:0|2:0|2:0|2:0,2:0:0:0:
144,192,90524,1,0,0:0:0:0:
48,256,90631,2,0,L|64:176,1,75.0000028610231
128,80,90846,2,0,L|80:64,2,37.5000014305115
256,96,91060,2,0,L|304:112,1,37.5000014305115,0|0,0:0|2:0,0:0:0:0:
304,192,91167,2,0,L|352:208,1,37.5000014305115,0|0,0:0|2:0,0:0:0:0:
352,272,91274,2,0,L|400:288,1,37.5000014305115,0|0,0:0|2:0,0:0:0:0:
400,352,91381,1,0,0:0:0:0:
208,336,91596,6,0,L|170:336,1,37.5000014305115,0|0,0:0|2:0,0:0:0:0:
144,240,91703,2,0,L|106:240,1,37.5000014305115,0|0,0:0|2:0,0:0:0:0:
80,128,91810,2,0,P|128:112|208:128,1,112.500004291535,0|0,0:0|2:0,0:0:0:0:
224,128,92024,1,0,0:0:0:0:
368,144,92131,2,0,L|448:144,1,75.0000028610231,0|0,0:0|2:0,0:0:0:0:
288,272,92453,1,0,0:0:0:0:
224,304,92560,1,0,0:0:0:0:
160,336,92667,2,0,L|160:288,1,37.5000014305115,0|0,0:0|2:0,0:0:0:0:
160,112,92881,2,0,L|160:160,1,37.5000014305115,0|0,0:0|2:0,0:0:0:0:
160,336,93096,6,0,L|160:304,12,18.7500007152558,12|0|0|0|0|0|0|0|0|0|0|0|0,1:0|2:0|2:0|2:0|2:0|2:0|2:0|2:0|2:0|2:0|2:0|2:0|2:0,2:0:0:0:
352,336,93524,6,0,L|352:304,12,18.7500007152558,12|0|0|0|0|0|0|0|0|0|0|0|0,1:0|2:0|2:0|2:0|2:0|2:0|2:0|2:0|2:0|2:0|2:0|2:0|2:0,2:0:0:0:
96,272,93953,6,0,L|48:224,1,50.0000019073487,8|0,0:0|2:0,0:0:0:0:
192,192,94096,6,0,L|168:128,1,50.0000019073487,8|0,0:0|2:0,0:0:0:0:
320,192,94238,6,0,L|344:128,1,50.0000019073487,8|0,0:0|2:0,0:0:0:0:
416,272,94381,6,0,L|432:256,12,18.7500007152558,8|0|0|0|0|0|0|0|0|0|0|0|0,1:0|2:0|2:0|2:0|2:0|2:0|2:0|2:0|2:0|2:0|2:0|2:0|2:0,2:0:0:0:
256,304,94810,5,12,0:0:0:0:
256,192,94863,12,0,95988,2:0:0:0:
256,192,96096,6,0,L|256:160,9,25.0000009536744,0|0|0|0|0|0|0|0|0|0,2:0|2:0|2:0|2:0|2:0|2:0|2:0|2:0|2:0|2:0,2:0:0:0:
144,96,96525,6,0,L|112:192,1,100,12|0,0:0|0:0,0:0:0:0:
368,192,96953,2,0,L|400:288,1,100,8|0,0:0|0:0,0:0:0:0:
256,336,97381,2,0,L|256:304,1,25,8|0,0:0|0:0,0:0:0:0:
256,240,97703,2,0,L|256:208,1,25,8|0,0:0|0:0,0:0:0:0:
256,144,98024,2,0,L|256:112,1,25,8|0,0:0|0:0,0:0:0:0:
256,10,98453,5,8,0:0:0:0:
176,96,98667,2,0,P|144:128|176:160,1,100,8|0,0:0|0:0,0:0:0:0:
256,160,99096,2,0,L|304:160,1,37.5000014305115,8|0,0:0|0:0,0:0:0:0:
416,304,99418,2,0,L|384:304,1,25,8|0,0:0|0:0,0:0:0:0:
256,160,99739,2,0,L|288:160,1,25,8|0,0:0|0:0,0:0:0:0:
416,304,99953,2,0,L|384:304,1,25,8|0,0:0|0:0,0:0:0:0:
138,304,100382,5,8,0:0:0:0:
373,80,100810,2,0,L|336:80,1,25,8|0,0:0|0:0,0:0:0:0:
373,192,101131,2,0,L|336:192,1,25,8|0,0:0|0:0,0:0:0:0:
373,304,101453,2,0,L|336:304,1,25,8|0,0:0|0:0,0:0:0:0:
128,304,101882,5,8,0:0:0:0:
64,192,102096,2,0,L|80:224,1,25,8|0,0:0|0:0,0:0:0:0:
400,80,102525,2,0,L|422:91,1,25,8|0,0:0|0:0,0:0:0:0:
272,144,102846,2,0,L|297:144,1,25,8|0,0:0|0:0,0:0:0:0:
224,128,102953,2,0,L|203:114,6,25,0|0|0|0|8|0|0,0:0|0:0|0:0|0:0|0:0|0:0|0:0,0:0:0:0:
352,64,103381,6,0,L|352:48,12,12.5,12|0|0|0|0|0|0|0|0|0|0|0|0,0:0|0:0|0:0|0:0|0:0|0:0|0:0|0:0|0:0|0:0|0:0|0:0|0:0,0:0:0:0:
464,160,103810,2,0,L|464:192,1,25,8|0,0:0|0:0,0:0:0:0:
176,272,104238,2,0,L|208:248,1,25,8|0,0:0|0:0,0:0:0:0:
304,144,104560,2,0,L|272:168,1,25,8|0,0:0|0:0,0:0:0:0:
144,304,104881,2,0,L|176:280,1,25,8|0,0:0|0:0,0:0:0:0:
336,112,105096,2,0,L|304:136,1,25
112,336,105310,1,8,0:0:0:0:
240,256,105524,6,0,L|240:208,1,25,8|0,0:0|0:0,0:0:0:0:
304,48,105953,2,0,L|256:48,1,25,8|0,0:0|0:0,0:0:0:0:
208,112,106274,2,0,L|256:112,1,25,8|0,0:0|0:0,0:0:0:0:
336,80,106596,2,0,L|288:80,1,25,8|0,0:0|0:0,0:0:0:0:
176,80,106810,6,0,L|208:80,1,31.25,8|0,0:0|0:0,0:0:0:0:
368,96,107024,2,0,L|336:96,1,31.25,8|0,0:0|0:0,0:0:0:0:
144,64,107238,2,0,L|176:64,1,31.25,8|0,0:0|0:0,0:0:0:0:
400,80,107453,2,0,L|368:80,1,31.25,8|0,0:0|0:0,0:0:0:0:
112,80,107667,2,0,L|144:80,1,31.25,8|0,0:0|0:0,0:0:0:0:
432,64,107881,2,0,L|400:64,1,31.25,8|0,0:0|0:0,0:0:0:0:
80,96,108096,2,0,L|112:96,1,31.25,8|0,0:0|0:0,0:0:0:0:
464,80,108310,2,0,L|432:80,1,31.25,8|0,0:0|0:0,0:0:0:0:
208,80,108524,5,0,0:0:0:0:
304,80,108631,1,0,0:0:0:0:
192,96,108738,1,0,0:0:0:0:
320,64,108846,1,0,0:0:0:0:
176,80,108953,1,0,0:0:0:0:
336,80,109060,1,0,0:0:0:0:
192,64,109167,1,0,0:0:0:0:
320,96,109274,1,0,0:0:0:0:
208,80,109381,1,12,0:0:0:0:
256,192,109435,12,0,110131,0:0:0:0:
256,192,110239,6,0,L|256:160,12,25,0|0|0|0|0|0|0|0|0|0|0|0|0,1:0|2:0|2:0|2:0|2:0|2:0|2:0|2:0|2:0|2:0|2:0|2:0|2:0,2:0:0:0:
160,224,110667,2,0,B|176:240|176:240|160:288|160:288|192:304,1,100,0|0,0:0|2:0,0:0:0:0:
352,224,110881,2,0,B|304:288|304:288|384:272,1,150,0|0,0:0|2:0,0:0:0:0:
416,256,111096,1,0,0:0:0:0:
416,96,111203,2,0,B|400:64|400:64|352:112,1,100,0|0,0:0|2:0,0:0:0:0:
272,208,111417,2,0,B|256:224|256:224|224:240,1,50,0|0,0:0|2:0,0:0:0:0:
192,256,111525,2,0,B|176:256|176:256|144:240,8,50
448,192,112167,6,0,B|440:184|440:184|400:208,1,50,0|0,0:0|2:0,0:0:0:0:
240,256,112275,2,0,B|248:264|248:264|288:240,1,50,0|0,0:0|2:0,0:0:0:0:
336,224,112382,2,0,B|336:176|336:176|288:128|288:128|240:128,1,150,0|0,2:0|2:0,2:0:0:0:
208,128,112596,1,0,1:0:0:0:
48,128,112703,2,0,B|64:144|64:144|144:128,1,100,0|0,0:0|2:0,0:0:0:0:
368,64,113025,1,0,0:0:0:0:
288,176,113132,1,0,0:0:0:0:
208,288,113239,2,0,L|160:352,1,50,0|0,0:0|2:0,0:0:0:0:
368,64,113453,2,0,L|320:128,1,50,0|0,0:0|2:0,0:0:0:0:
208,288,113667,6,0,L|192:312,12,25,12|0|0|0|0|0|0|0|0|0|0|0|0,1:0|2:0|2:0|2:0|2:0|2:0|2:0|2:0|2:0|2:0|2:0|2:0|2:0,2:0:0:0:
128,224,114096,6,0,B|112:224|112:224|80:112|80:112|48:112,1,150,0|0,0:0|2:0,0:0:0:0:
80,96,114310,2,0,B|96:112|96:112|224:96,1,150,0|0,0:0|2:0,0:0:0:0:
240,80,114525,2,0,B|272:128|272:128|192:256,1,200,0|0,1:0|0:0,0:0:0:0:
176,272,114810,1,0,0:0:0:0:
152,304,114882,1,0,0:0:0:0:
128,336,114953,2,0,P|143:234|141:328,1,350,0|0,0:0|2:0,0:0:0:0:
104,280,115382,6,0,L|104:168,1,100,0|0,0:0|2:0,0:0:0:0:
176,104,115596,2,0,L|176:204,1,100,0|0,0:0|2:0,0:0:0:0:
56,328,115810,2,0,L|56:216,1,100,0|0,0:0|2:0,0:0:0:0:
224,64,116025,2,0,L|224:164,1,100,0|0,0:0|2:0,0:0:0:0:
96,256,116239,5,0,0:0:0:0:
192,128,116346,1,0,0:0:0:0:
80,272,116453,5,0,0:0:0:0:
208,112,116560,1,0,0:0:0:0:
64,288,116667,5,0,0:0:0:0:
224,96,116775,1,0,0:0:0:0:
48,304,116882,5,0,0:0:0:0:
240,80,116989,1,0,0:0:0:0:
144,192,117096,6,0,L|144:224,12,25,12|0|0|0|0|0|0|0|0|0|0|0|0,1:0|2:0|2:0|2:0|2:0|2:0|2:0|2:0|2:0|2:0|2:0|2:0|2:0,2:0:0:0:
240,96,117525,2,0,B|224:80|224:80|128:96,1,100,0|0,0:0|2:0,0:0:0:0:
256,192,117739,2,0,B|272:208|272:208|304:176|336:240|352:160|384:176|384:176|400:192,1,150,0|0,0:0|2:0,0:0:0:0:
416,192,117953,1,0,0:0:0:0:
352,80,118060,2,0,B|336:64|336:64|256:80,1,100,0|0,0:0|2:0,0:0:0:0:
136,128,118275,2,0,B|128:144|128:144|136:200,1,50,0|0,0:0|2:0,0:0:0:0:
168,208,118382,2,0,B|190:203|190:203|174:230|174:230|168:208,8,50
408,136,119025,6,0,B|416:120|416:120|396:94,1,50,0|0,0:0|2:0,0:0:0:0:
248,24,119132,2,0,B|240:40|240:40|259:65,1,50,0|0,0:0|2:0,0:0:0:0:
328,80,119239,2,0,B|328:148|328:148|312:164|312:164|312:224,1,150,0|0,0:0|2:0,0:0:0:0:
336,264,119453,1,0,0:0:0:0:
464,336,119560,2,0,B|464:312|464:312|392:280,1,100,0|0,0:0|2:0,0:0:0:0:
152,200,119882,1,0,0:0:0:0:
304,176,119989,1,0,0:0:0:0:
432,160,120096,2,0,L|488:152,1,50,0|0,0:0|2:0,0:0:0:0:
152,200,120310,2,0,L|208:192,1,50,0|0,0:0|2:0,0:0:0:0:
432,160,120525,6,0,L|480:152,12,25,12|0|0|0|0|0|0|0|0|0|0|0|0,1:0|2:0|2:0|2:0|2:0|2:0|2:0|2:0|2:0|2:0|2:0|2:0|2:0,2:0:0:0:
336,176,120953,6,0,B|336:184|336:184|216:200|216:200|224:168,1,150,2|0,0:0|2:0,0:0:0:0:
240,120,121167,2,0,B|112:64|112:64|104:80,1,150,2|0,0:0|2:0,0:0:0:0:
72,136,121382,2,0,B|88:136|88:136|56:276|56:276|96:264|96:264|104:264,1,200,2|0,0:0|1:0,0:0:0:0:
128,256,121667,1,0,0:0:0:0:
152,248,121739,1,0,0:0:0:0:
176,240,121810,2,0,P|296:264|176:232,1,350,0|0,0:0|2:0,0:0:0:0:
240,236,122239,6,0,L|288:208,1,50,8|0,0:0|2:0,0:0:0:0:
216,288,122667,2,0,L|264:260,1,50,8|0,0:0|2:0,0:0:0:0:
192,344,123096,1,8,0:0:0:0:
256,192,123150,12,0,123846,2:0:0:0:
240,236,123953,6,0,L|276:216,12,25,12|0|0|0|0|0|0|0|0|0|0|0|0,1:0|2:0|2:0|2:0|2:0|2:0|2:0|2:0|2:0|2:0|2:0|2:0|2:0,2:0:0:0:
112,160,124382,2,0,B|96:160|96:160|160:80,1,100,0|0,0:0|2:0,0:0:0:0:
320,128,124596,2,0,B|352:128|352:128|352:144|336:176|384:192|368:208|368:224|368:224|400:224,1,150,0|0,0:0|2:0,0:0:0:0:
384,256,124810,1,0,0:0:0:0:
224,304,124917,2,0,B|184:312|144:304|144:304|160:272,1,100,0|0,0:0|2:0,0:0:0:0:
224,168,125132,2,0,B|216:168|216:168|232:136|232:136|232:128,1,50,0|0,0:0|2:0,0:0:0:0:
192,72,125239,2,0,P|200:80|168:48,8,50
160,272,125882,6,0,L|144:320,1,50,0|0,0:0|2:0,0:0:0:0:
352,240,125989,2,0,L|368:192,1,50,0|0,0:0|2:0,0:0:0:0:
256,256,126096,2,0,B|240:256|240:256|224:144|224:144|208:176,1,150,0|0,0:0|2:0,0:0:0:0:
192,120,126310,1,0,0:0:0:0:
352,64,126417,2,0,B|432:96|432:96|400:112,1,100,0|0,0:0|2:0,0:0:0:0:
288,256,126739,1,0,0:0:0:0:
144,176,126846,1,0,0:0:0:0:
16,112,126953,2,0,L|-32:88,1,50,0|0,0:0|2:0,0:0:0:0:
288,256,127167,2,0,L|240:232,1,50,0|0,0:0|2:0,0:0:0:0:
16,112,127382,6,0,P|64:112|16:104,1,131.25000500679,8|0,0:0|2:0,0:0:0:0:
16,112,127810,6,0,P|72:152|148:88,1,175,8|0,0:0|2:0,0:0:0:0:
80,88,128239,6,0,B|88:116|88:116|56:136|48:168|56:192|64:216|96:232,1,156.25,8|0,0:0|2:0,0:0:0:0:
132,172,128560,6,0,B|132:164|132:164|196:156|260:188|260:188|284:164|284:164|252:140,1,187.500007152558,8|0,0:0|2:0,0:0:0:0:
224,96,128882,6,0,B|212:96|212:96|172:200|172:200|180:208,1,131.250001251698,8|0,0:0|2:0,0:0:0:0:
224,264,129096,6,0,B|224:272|224:272|344:224|344:224|344:240,1,150,8|0,0:0|2:0,0:0:0:0:
324,108,129310,6,0,B|352:80|352:80|264:128|264:128|256:120,1,150,8|0,0:0|2:0,0:0:0:0:
192,304,129525,6,0,B|144:320|144:320|160:328|160:328|200:256,1,150,8|0,0:0|2:0,0:0:0:0:
352,72,129739,6,0,B|408:48|408:48|384:48|384:48|408:72|408:72|384:96,1,150,8|0,0:0|2:0,0:0:0:0:
240,256,129953,6,0,P|256:176|264:256,1,218.750002086163,8|0,0:0|2:0,0:0:0:0:
278,290,130275,6,0,P|255:223|239:291,1,187.500007152558,8|0,0:0|2:0,0:0:0:0:
256,208,130596,6,0,L|256:112,1,93.75,8|0,0:0|2:0,0:0:0:0:
256,48,130810,6,0,L|256:24,12,25,12|0|0|0|0|0|0|0|0|0|0|0|0,2:0|2:0|2:0|2:0|2:0|2:0|2:0|2:0|2:0|2:0|2:0|2:0|2:0,2:0:0:0:
332,216,131239,6,0,B|332:236|320:208|320:208|356:260|356:260|344:272,1,100,0|0,0:0|2:0,0:0:0:0:
192,288,131453,2,0,B|176:304|176:304|192:272|160:192|160:192|128:192,1,150,0|0,0:0|2:0,0:0:0:0:
128,144,131667,1,0,0:0:0:0:
336,88,131775,2,0,B|320:72|320:72|376:128|376:128,1,100,0|0,0:0|2:0,0:0:0:0:
368,288,131989,2,0,B|352:304|352:304|320:320,1,50,0|0,0:0|2:0,0:0:0:0:
256,320,132096,2,0,B|256:340|256:340|240:308|224:324,8,50
448,208,132739,6,0,P|456:192|440:224,1,50,0|0,0:0|2:0,0:0:0:0:
240,88,132846,2,0,P|248:72|232:104,1,50,0|0,0:0|2:0,0:0:0:0:
344,152,132953,2,0,B|368:104|328:180|328:180|264:192|264:192|272:176,1,150,0|0,0:0|2:0,0:0:0:0:
232,192,133167,5,0,0:0:0:0:
64,248,133275,2,0,L|120:232,1,50,0|0,0:0|2:0,0:0:0:0:
224,176,133382,6,0,B|232:212|220:156,1,50,0|0,0:0|2:0,0:0:0:0:
368,320,133703,6,0,B|376:356|364:300,1,50,0|0,0:0|2:0,0:0:0:0:
400,128,134025,6,0,B|408:164|396:108,1,50,0|0,0:0|2:0,0:0:0:0:
456,112,134239,6,0,P|472:88|400:72,1,131.25000500679,8|0,0:0|2:0,0:0:0:0:
396,80,134667,6,0,B|388:80|388:80|380:112|348:136|300:144|260:120|260:120|260:136,1,175,8|0,0:0|2:0,0:0:0:0:
292,176,135096,6,0,B|276:180|276:180|256:220|268:268|316:280|316:280|292:300,1,156.25,8|0,0:0|2:0,0:0:0:0:
340,216,135417,6,0,B|232:216|232:216|200:192|200:228|200:228|168:216,1,187.500007152558,8|0,0:0|2:0,0:0:0:0:
184,136,135739,6,0,B|168:152|168:152|192:184|192:184|160:224|192:256,1,131.250001251698,8|0,0:0|2:0,0:0:0:0:
312,288,135953,6,0,B|344:288|312:328|272:288|312:280|312:248|312:248|288:224|328:200,1,150,8|0,0:0|2:0,0:0:0:0:
312,64,136167,6,0,B|272:80|328:24|320:64|320:72|320:72|320:128|280:152,1,150,8|0,0:0|2:0,0:0:0:0:
144,296,136382,6,0,B|177:307|115:335|115:267|155:284|155:284|177:273|177:273|177:239|177:239|206:245,1,150,8|0,0:0|2:0,0:0:0:0:
352,56,136596,6,0,B|328:56|352:8|352:80|408:56|352:56|296:104|296:104|320:104,1,150,8|0,0:0|2:0,0:0:0:0:
240,320,136810,6,0,L|208:288,4,43.7500004172325,8|0|0|0|0,1:0|2:0|2:0|2:0|2:0,2:0:0:0:
272,224,137132,6,0,L|320:176,3,50.0000019073487,8|0|0|0,1:0|2:0|2:0|2:0,2:0:0:0:
224,144,137453,6,0,L|176:96,1,62.5,8|0,1:0|2:0,2:0:0:0:
272,80,137667,6,0,L|288:64,12,12.5,12|0|0|0|0|0|0|0|0|0|0|0|0,1:0|0:0|0:0|0:0|0:0|0:0|0:0|0:0|0:0|0:0|0:0|0:0|0:0,0:0:0:0:
128,208,138310,5,8,0:0:0:0:
144,240,138525,2,0,P|160:288|208:272,1,100,8|0,0:0|0:0,0:0:0:0:
240,272,138846,1,8,0:0:0:0:
64,80,139167,1,8,0:0:0:0:
240,272,139382,2,0,L|272:304,14,25,8|0|0|0|0|0|0|0|0|0|0|0|0|0|0,0:0|0:0|0:0|0:0|0:0|0:0|0:0|0:0|0:0|0:0|0:0|0:0|0:0|0:0|0:0,0:0:0:0:
160,176,140239,5,0,0:0:0:0:
155,171,140346,1,0,0:0:0:0:
151,167,140453,1,0,0:0:0:0:
146,162,140560,1,0,0:0:0:0:
142,158,140667,6,0,P|96:112|96:192,1,175,8|0,0:0|0:0,0:0:0:0:
112,208,141096,6,0,P|176:240|224:144,1,200,8|0,0:0|0:0,0:0:0:0:
48,48,141739,5,8,0:0:0:0:
168,176,141953,1,8,0:0:0:0:
368,80,142275,1,8,0:0:0:0:
352,304,142596,1,8,0:0:0:0:
224,176,142810,6,0,L|144:96,1,100,8|8,0:0|0:0,0:0:0:0:
64,80,143132,2,0,L|144:160,1,100,8|8,0:0|0:0,0:0:0:0:
144,224,143453,2,0,L|80:160,1,75,8|8,0:0|2:0,0:0:0:0:
0,144,143667,2,0,L|80:224,1,100,8|8,0:0|0:0,0:0:0:0:
112,256,143989,2,0,L|80:288,1,25,8|0,0:0|0:0,0:0:0:0:
160,288,144096,2,0,P|224:288|192:240,1,150,8|0,0:0|0:0,0:0:0:0:
160,208,144525,6,0,L|144:224,12,12.5,12|0|0|0|0|0|0|0|0|0|0|0|0,2:0|2:0|2:0|2:0|2:0|2:0|2:0|2:0|2:0|2:0|2:0|2:0|2:0,2:0:0:0:
320,96,145167,5,8,0:0:0:0:
352,80,145382,2,0,B|352:96|352:96|368:80|368:80|368:96|368:96|400:128,1,100,8|0,0:0|0:0,0:0:0:0:
432,144,145703,1,8,0:0:0:0:
240,288,146025,1,8,0:0:0:0:
432,144,146239,2,0,L|464:112,14,25,8|0|0|0|0|0|0|0|0|0|0|0|0|0|0,0:0|0:0|0:0|0:0|0:0|0:0|0:0|0:0|0:0|0:0|0:0|0:0|0:0|0:0|0:0,0:0:0:0:
344,216,147096,5,0,0:0:0:0:
339,220,147203,1,0,0:0:0:0:
334,224,147310,1,0,0:0:0:0:
329,228,147417,1,0,0:0:0:0:
325,232,147525,6,0,P|256:256|284:208,1,175,8|0,0:0|0:0,0:0:0:0:
292,240,147953,6,0,P|216:240|232:224,1,200,8|0,0:0|0:0,0:0:0:0:
384,48,148596,5,8,0:0:0:0:
272,176,148810,1,8,0:0:0:0:
48,48,149132,1,8,0:0:0:0:
48,320,149453,1,8,0:0:0:0:
48,176,149667,6,0,L|32:160,8,12.5,8|0|0|0|0|0|0|0|0,0:0|0:0|0:0|0:0|0:0|0:0|0:0|0:0|0:0,0:0:0:0:
96,176,149989,1,8,0:0:0:0:
320,32,150310,1,8,0:0:0:0:
464,163,150525,6,0,L|464:192,4,15.625,12|0|0|0|0,0:0|0:0|0:0|0:0|0:0,0:0:0:0:
384,207,150739,5,8,0:0:0:0:
333,284,150846,1,8,0:0:0:0:
247,319,150953,1,8,0:0:0:0:
157,301,151060,1,8,0:0:0:0:
93,234,151167,1,8,0:0:0:0:
77,143,151274,1,8,0:0:0:0:
116,59,151382,6,0,L|127:39,16,15.625,12|0|0|0|0|0|0|0|0|0|0|0|0|0|0|0|0,0:0|0:0|0:0|0:0|0:0|0:0|0:0|0:0|0:0|0:0|0:0|0:0|0:0|0:0|0:0|0:0|0:0,0:0:0:0:
77,143,158239,5,0,0:0:0:0:
68,187,158346,1,0,0:0:0:0:
93,226,158453,2,0,L|224:232,1,125
288,160,158775,2,0,L|163:165,2,125
344,232,159310,2,0,P|392:240|408:176,1,125
360,120,159632,5,0,0:0:0:0:
306,60,159739,1,0,0:0:0:0:
230,78,159846,1,0,0:0:0:0:
191,143,159953,5,0,0:0:0:0:
169,183,160060,1,0,0:0:0:0:
124,189,160167,2,0,P|71:143|111:111,1,125
224,112,160489,2,0,L|352:128,2,125
80,80,161025,2,0,B|72:96|72:96|80:160|144:176,1,125
208,216,161346,5,0,0:0:0:0:
281,249,161453,1,0,0:0:0:0:
355,216,161560,1,0,0:0:0:0:
378,138,161667,5,0,0:0:0:0:
333,143,161774,1,0,0:0:0:0:
304,104,161882,2,0,B|312:80|312:80|368:48|416:88,1,125
464,140,162203,2,0,B|472:96|440:56|440:56|464:32,2,125
360,232,162739,2,0,P|392:288|336:312,1,125
280,296,163060,5,0,0:0:0:0:
217,259,163167,1,0,0:0:0:0:
145,258,163274,1,0,0:0:0:0:
82,293,163382,6,0,P|72:328|40:344,2,62.5
208,160,163810,1,0,0:0:0:0:
328,272,164025,2,0,L|344:304,2,31.25
384,168,164185,2,0,L|416:176,1,31.25
352,56,164346,1,0,0:0:0:0:
208,160,164560,1,0,0:0:0:0:
376,120,164775,1,0,0:0:0:0:
416,108,164882,1,0,0:0:0:0:
352,320,165096,6,0,L|240:304,1,112.500004291535,8|0,0:0|0:0,0:0:0:0:
192,240,165310,2,0,B|144:288|96:240|96:240|64:272,2,150.000005722046,0|8|0,0:0|0:0|0:0,0:0:0:0:
288,208,165846,2,0,B|304:224|304:224|288:288,1,75.0000028610231,0|8,0:0|0:0,0:0:0:0:
208,336,166060,2,0,B|176:320|176:320|128:272|160:208,1,150.000005722046
224,256,166382,2,0,P|272:272|272:176,1,175,8|0,0:0|0:0,0:0:0:0:
224,80,166810,6,0,L|224:192,1,112.500004291535,8|0,0:0|0:0,0:0:0:0:
256,224,167025,2,0,B|368:272|368:272|384:304,2,150.000005722046,0|8|0,0:0|0:0|0:0,0:0:0:0:
176,192,167560,2,0,L|96:160,1,75.0000028610231,0|8,0:0|0:0,0:0:0:0:
64,96,167775,2,0,B|96:80|96:80|144:128|224:80,1,150.000005722046
288,64,168096,2,0,B|336:64|336:64|368:112|320:160,1,150.000005722046,8|0,0:0|0:0,0:0:0:0:
256,304,168525,6,0,P|304:304|368:272,1,112.500004291535,8|0,0:0|0:0,0:0:0:0:
400,240,168739,2,0,B|432:208|432:208|384:208|400:112,2,150.000005722046,0|8|0,0:0|0:0|0:0,0:0:0:0:
352,336,169275,2,0,L|320:256,1,75.0000028610231,0|8,0:0|0:0,0:0:0:0:
352,160,169489,2,0,L|291:22,1,150.000005722046
208,48,169810,2,0,P|224:128|144:128,1,175,8|0,0:0|0:0,0:0:0:0:
128,64,170239,6,0,L|224:128,1,112.500004291535,8|0,0:0|0:0,0:0:0:0:
296,144,170453,2,0,P|368:112|432:144,2,150.000005722046,0|8|0,0:0|0:0|0:0,0:0:0:0:
368,184,170989,2,0,B|336:208|336:208|296:224,1,75.0000028610231,0|8,0:0|0:0,0:0:0:0:
240,176,171203,2,0,B|208:160|208:128|208:128|112:128,1,150.000005722046
64,208,171525,2,0,B|96:224|96:224|112:288|192:272,1,150.000005722046,8|0,0:0|0:0,0:0:0:0:
272,288,171846,6,0,L|256:240,1,37.5000014305115
320,272,171953,2,0,P|368:240|320:160,1,150.000005722046
256,144,172275,1,0,0:0:0:0:
172,164,172382,2,0,P|139:226|192:272,1,150.000005722046
240,288,172703,6,0,L|256:240,1,37.5000014305115
336,288,172810,2,0,P|388:242|356:180,1,150.000005722046
256,144,173132,1,0,0:0:0:0:
155,180,173239,2,0,P|123:242|176:288,1,150.000005722046
272,288,173560,6,0,L|256:240,1,37.5000014305115
352,304,173667,2,0,P|404:258|372:196,1,150.000005722046
256,144,173989,1,0,0:0:0:0:
139,196,174096,2,0,P|107:258|160:304,1,150.000005722046
240,288,174417,6,0,L|256:240,1,37.5000014305115
368,320,174525,2,0,P|420:274|388:212,1,150.000005722046
256,144,174847,1,0,0:0:0:0:
123,212,174953,2,0,P|91:274|144:320,1,150.000005722046
272,288,175275,6,0,L|256:240,1,37.5000014305115
384,336,175382,2,0,L|416:240,1,87.500000834465
128,336,175596,2,0,L|96:240,1,87.500000834465
368,304,175810,2,0,L|384:208,1,87.500000834465
144,304,176025,2,0,L|128:208,1,87.500000834465
352,272,176239,2,0,L|352:176,1,87.500000834465
160,272,176453,2,0,L|160:176,1,87.500000834465
320,240,176667,5,0,0:0:0:0:
192,240,176775,1,0,0:0:0:0:
304,208,176882,1,0,0:0:0:0:
208,208,176989,1,0,0:0:0:0:
256,128,177096,1,0,0:0:0:0:
256,192,177150,12,0,177846,0:0:0:0:
176,80,177953,6,0,L|160:64,6,21.8750002086163
336,80,178382,6,0,L|352:64,10,21.8750002086163
280,152,178810,5,0,0:0:0:0:
307,169,178917,1,0,0:0:0:0:
319,199,179024,1,0,0:0:0:0:
312,231,179131,1,0,0:0:0:0:
272,304,179239,5,0,0:0:0:0:
225,320,179346,1,0,0:0:0:0:
175,316,179453,1,0,0:0:0:0:
132,292,179560,1,0,0:0:0:0:
144,208,179667,5,0,0:0:0:0:
208,207,179774,1,0,0:0:0:0:
246,156,179881,1,0,0:0:0:0:
227,94,179988,1,0,0:0:0:0:
288,48,180096,5,0,0:0:0:0:
368,46,180203,1,0,0:0:0:0:
420,108,180310,1,0,0:0:0:0:
404,187,180417,1,0,0:0:0:0:
368,256,180525,6,0,L|384:368,1,100,0|0,0:0|2:0,0:0:0:0:
288,288,180739,2,0,L|302:189,1,100,0|0,0:0|2:0,0:0:0:0:
208,112,180953,2,0,L|224:224,1,100,0|0,0:0|2:0,0:0:0:0:
128,144,181167,2,0,L|142:45,1,100,0|0,0:0|2:0,0:0:0:0:
224,32,181382,5,0,0:0:0:0:
303,42,181489,1,0,0:0:0:0:
343,111,181596,1,0,0:0:0:0:
312,185,181703,1,0,0:0:0:0:
224,160,181810,5,0,0:0:0:0:
164,212,181917,1,0,0:0:0:0:
178,290,182024,1,0,0:0:0:0:
252,318,182131,1,0,0:0:0:0:
320,272,182239,6,0,L|352:160,1,100,0|0,0:0|2:0,0:0:0:0:
224,320,182453,2,0,L|256:208,1,100
176,224,182667,2,0,L|148:127,1,100
80,176,182881,2,0,L|52:79,1,100,0|0,0:0|2:0,0:0:0:0:
224,48,183096,6,0,L|112:48,1,100,0|0,0:0|2:0,0:0:0:0:
288,128,183310,2,0,L|176:128,1,100,0|0,0:0|0:0,0:0:0:0:
112,208,183525,2,0,L|212:208,1,100
176,288,183739,2,0,L|276:288,1,100,0|0,0:0|2:0,0:0:0:0:
368,272,183953,5,0,0:0:0:0:
426,218,184060,1,0,0:0:0:0:
405,141,184167,1,0,0:0:0:0:
327,124,184274,1,0,0:0:0:0:
288,208,184382,5,0,0:0:0:0:
271,285,184489,1,0,0:0:0:0:
194,306,184596,1,0,0:0:0:0:
140,248,184703,1,0,0:0:0:0:
64,80,184810,6,0,L|96:192,1,100,0|0,0:0|2:0,0:0:0:0:
160,48,185025,2,0,L|176:160,1,100
256,32,185239,2,0,L|256:144,1,100,0|0,0:0|0:0,0:0:0:0:
352,16,185453,2,0,L|336:128,1,100,0|0,0:0|2:0,0:0:0:0:
400,192,185667,5,0,0:0:0:0:
407,224,185774,1,0,0:0:0:0:
426,251,185881,1,0,0:0:0:0:
454,268,185988,1,0,0:0:0:0:
416,336,186096,5,0,0:0:0:0:
371,325,186203,1,0,0:0:0:0:
323,339,186310,1,0,0:0:0:0:
273,339,186417,1,0,0:0:0:0:
240,272,186525,5,0,0:0:0:0:
298,247,186632,1,0,0:0:0:0:
307,184,186739,1,0,0:0:0:0:
258,144,186846,1,0,0:0:0:0:
176,128,186953,5,0,0:0:0:0:
153,205,187060,1,0,0:0:0:0:
172,283,187167,1,0,0:0:0:0:
122,346,187274,1,0,0:0:0:0:
48,304,187382,6,0,L|32:192,1,100,0|0,0:0|2:0,0:0:0:0:
112,96,187596,2,0,L|112:208,1,100,0|0,0:0|2:0,0:0:0:0:
176,304,187810,2,0,L|192:192,1,100,0|0,0:0|2:0,0:0:0:0:
288,112,188025,2,0,L|256:224,1,100,0|0,0:0|2:0,0:0:0:0:
272,304,188239,5,0,0:0:0:0:
326,329,188346,1,0,0:0:0:0:
386,304,188453,1,0,0:0:0:0:
450,319,188560,1,0,0:0:0:0:
480,240,188667,5,0,0:0:0:0:
399,227,188774,1,0,0:0:0:0:
347,164,188881,1,0,0:0:0:0:
350,83,188988,1,0,0:0:0:0:
272,32,189096,6,0,L|240:128,1,100,0|0,0:0|2:0,0:0:0:0:
192,256,189310,6,0,L|240:272,1,50,0|0,0:0|2:0,0:0:0:0:
176,304,189417,2,0,L|224:320,1,50,0|0,0:0|2:0,0:0:0:0:
160,352,189525,2,0,P|96:336|80:288,1,100,0|0,0:0|2:0,0:0:0:0:
128,176,189739,6,0,L|80:160,1,50,0|0,0:0|2:0,0:0:0:0:
144,128,189846,2,0,L|96:112,1,50,0|0,0:0|2:0,0:0:0:0:
160,80,189953,2,0,B|208:96|208:96|208:144|256:160,1,100,0|0,0:0|2:0,0:0:0:0:
320,208,190167,6,0,L|336:160,1,50,0|0,0:0|2:0,0:0:0:0:
368,224,190274,2,0,L|384:176,1,50,0|0,0:0|2:0,0:0:0:0:
400,272,190382,6,0,L|352:256,1,50,0|0,0:0|2:0,0:0:0:0:
240,256,190542,6,0,L|288:272,1,50,0|0,0:0|2:0,0:0:0:0:
384,336,190703,6,0,L|336:320,1,50,0|0,0:0|2:0,0:0:0:0:
272,336,190810,5,0,1:0:0:0:
256,192,190864,12,0,191989,0:0:0:0:
256,192,192096,6,0,L|256:224,9,29.1666669448217
176,64,192525,6,0,L|144:160,1,100,12|0,0:0|2:0,0:0:0:0:
192,224,192739,2,0,L|160:320,1,100,0|0,0:0|2:0,0:0:0:0:
320,224,192953,2,0,L|352:320,1,100,0|0,0:0|2:0,0:0:0:0:
336,64,193167,2,0,L|368:160,1,100,0|0,0:0|2:0,0:0:0:0:
224,16,193382,6,0,L|224:128,1,100,0|0,0:0|2:0,0:0:0:0:
224,192,193596,1,0,0:0:0:0:
224,280,193703,1,0,0:0:0:0:
288,352,193810,2,0,L|288:240,1,100,0|0,0:0|2:0,0:0:0:0:
288,176,194024,1,0,0:0:0:0:
288,88,194131,1,0,0:0:0:0:
224,16,194239,6,0,L|160:96,1,100,0|0,0:0|2:0,0:0:0:0:
224,112,194453,2,0,L|176:208,1,100,0|0,0:0|2:0,0:0:0:0:
240,192,194667,2,0,L|208:288,1,100,0|0,0:0|2:0,0:0:0:0:
272,256,194882,2,0,L|240:368,1,100,0|0,0:0|2:0,0:0:0:0:
352,352,195096,6,0,L|368:240,1,100,0|0,0:0|2:0,0:0:0:0:
384,176,195310,1,0,0:0:0:0:
400,88,195417,1,0,0:0:0:0:
336,32,195525,2,0,L|320:144,1,100,0|0,0:0|2:0,0:0:0:0:
304,208,195739,1,0,0:0:0:0:
288,296,195846,1,0,0:0:0:0:
192,336,195953,6,0,L|88:336,1,100,0|0,0:0|2:0,0:0:0:0:
240,256,196167,2,0,L|136:272,1,100,0|0,0:0|2:0,0:0:0:0:
288,168,196382,2,0,L|184:200,1,100,0|0,0:0|2:0,0:0:0:0:
312,80,196596,2,0,L|208:128,1,100,0|0,0:0|2:0,0:0:0:0:
144,96,196810,6,0,L|128:208,1,100,0|0,0:0|2:0,0:0:0:0:
112,272,197025,1,0,0:0:0:0:
96,352,197132,1,0,0:0:0:0:
176,320,197239,2,0,L|192:208,1,100,0|0,0:0|2:0,0:0:0:0:
208,144,197454,1,0,0:0:0:0:
224,64,197561,1,0,0:0:0:0:
304,32,197667,5,8,2:0:0:0:
350,16,197738,1,0,2:0:0:0:
399,23,197809,1,0,2:0:0:0:
440,51,197881,1,8,2:0:0:0:
463,95,197952,1,0,2:0:0:0:
440,140,198025,1,0,2:0:0:0:
415,183,198096,1,8,2:0:0:0:
407,232,198167,1,0,2:0:0:0:
418,280,198239,1,0,2:0:0:0:
445,322,198310,5,8,2:0:0:0:
400,340,198382,1,0,2:0:0:0:
366,311,198453,1,0,2:0:0:0:
324,298,198524,1,8,2:0:0:0:
280,301,198596,1,0,2:0:0:0:
248,316,198667,1,0,2:0:0:0:
223,317,198738,1,8,2:0:0:0:
198,312,198809,1,0,2:0:0:0:
176,300,198881,1,0,2:0:0:0:
152,300,198953,6,0,L|128:308,12,25,8|0|0|0|0|0|0|0|0|0|0|0|0,2:0|2:0|2:0|2:0|2:0|2:0|2:0|2:0|2:0|2:0|2:0|2:0|2:0,2:0:0:0:
160,160,199382,6,0,L|256:96,1,100,0|0,0:0|2:0,0:0:0:0:
371,216,199596,2,0,L|288:272,1,100,0|0,0:0|2:0,0:0:0:0:
128,144,199810,2,0,L|224:80,1,100,0|0,0:0|2:0,0:0:0:0:
403,232,200025,2,0,L|320:288,1,100,0|0,0:0|2:0,0:0:0:0:
168,200,200239,6,0,L|264:136,1,100,0|0,0:0|2:0,0:0:0:0:
312,104,200453,1,0,0:0:0:0:
384,72,200560,1,0,0:0:0:0:
432,128,200667,6,0,L|348:183,1,100,0|0,0:0|2:0,0:0:0:0:
288,224,200881,1,0,0:0:0:0:
224,264,200988,1,0,0:0:0:0:
160,304,201096,6,0,L|224:384,1,100,0|0,0:0|2:0,0:0:0:0:
80,256,201310,2,0,L|112:352,1,100,0|0,0:0|2:0,0:0:0:0:
144,128,201525,2,0,L|144:256,1,100,0|0,0:0|2:0,0:0:0:0:
240,48,201739,2,0,L|208:160,1,100,0|0,0:0|2:0,0:0:0:0:
212,239,201953,6,0,L|240:336,1,100,0|0,0:0|2:0,0:0:0:0:
320,352,202167,1,0,0:0:0:0:
400,352,202275,1,0,0:0:0:0:
464,304,202382,6,0,L|436:207,1,100,0|0,0:0|2:0,0:0:0:0:
356,191,202596,1,0,0:0:0:0:
276,191,202704,1,0,0:0:0:0:
192,192,202810,6,0,L|176:304,1,100,0|0,0:0|2:0,0:0:0:0:
320,192,203025,2,0,L|336:304,1,100,0|0,0:0|2:0,0:0:0:0:
160,176,203239,2,0,L|128:288,1,100,0|0,0:0|2:0,0:0:0:0:
352,176,203453,2,0,L|384:288,1,100,0|0,0:0|2:0,0:0:0:0:
128,160,203667,2,0,L|80:256,1,100,0|0,0:0|2:0,0:0:0:0:
384,160,203882,2,0,L|432:256,1,100,0|0,0:0|2:0,0:0:0:0:
96,144,204096,2,0,L|32:224,1,100,0|0,0:0|2:0,0:0:0:0:
416,144,204310,2,0,L|480:224,1,100,0|0,0:0|2:0,0:0:0:0:
256,120,204525,5,0,2:0:0:0:
253,117,204596,1,0,2:0:0:0:
250,115,204667,1,0,2:0:0:0:
247,113,204739,1,0,2:0:0:0:
243,111,204810,1,0,2:0:0:0:
240,109,204882,1,0,2:0:0:0:
237,108,204953,1,0,2:0:0:0:
233,106,205025,1,0,2:0:0:0:
230,105,205096,1,0,2:0:0:0:
226,104,205167,5,0,2:0:0:0:
223,103,205239,1,0,2:0:0:0:
219,103,205310,1,0,2:0:0:0:
215,102,205382,1,0,2:0:0:0:
212,102,205453,1,0,2:0:0:0:
208,102,205525,1,0,2:0:0:0:
204,103,205596,1,0,2:0:0:0:
201,103,205667,1,0,2:0:0:0:
197,104,205739,1,0,2:0:0:0:
193,104,205810,5,0,2:0:0:0:
80,192,206239,6,0,L|64:216,12,18.7500007152558,12|0|0|0|0|0|0|0|0|0|0|0|0,2:0|2:0|2:0|2:0|2:0|2:0|2:0|2:0|2:0|2:0|2:0|2:0|2:0,2:0:0:0:
144,96,206667,2,0,B|160:112|160:112|224:128,1,75.0000028610231,0|0,0:0|2:0,0:0:0:0:
256,208,206882,2,0,B|272:224|272:224|304:192|320:144,1,112.500004291535,0|0,0:0|2:0,0:0:0:0:
344,112,207096,1,0,0:0:0:0:
464,64,207203,2,0,L|448:144,1,75.0000028610231,0|0,0:0|2:0,0:0:0:0:
416,320,207417,2,0,L|408:368,2,37.5000014305115,0|0|0,1:0|2:0|2:0,2:0:0:0:
312,216,207632,6,0,P|304:200|280:192,1,37.5000014305115,0|0,0:0|2:0,0:0:0:0:
272,232,207739,2,0,P|257:222|232:227,1,37.5000014305115,0|0,0:0|2:0,0:0:0:0:
224,264,207846,2,0,P|206:262|187:279,1,37.5000014305115,0|0,0:0|2:0,0:0:0:0:
200,328,207953,1,0,0:0:0:0:
64,208,208167,6,0,L|112:224,1,37.5000014305115,0|0,0:0|2:0,0:0:0:0:
80,144,208275,2,0,L|128:144,1,37.5000014305115,0|0,0:0|2:0,0:0:0:0:
112,80,208382,2,0,P|192:48|224:64,1,112.500004291535,0|0,0:0|2:0,0:0:0:0:
240,64,208596,1,0,0:0:0:0:
368,128,208703,2,0,L|448:160,1,75.0000028610231,0|0,0:0|2:0,0:0:0:0:
336,336,209025,1,0,0:0:0:0:
208,272,209132,1,0,0:0:0:0:
80,208,209239,2,0,L|16:176,1,37.5000014305115,0|0,0:0|2:0,0:0:0:0:
288,144,209453,2,0,L|288:80,1,37.5000014305115,0|0,0:0|2:0,0:0:0:0:
160,112,209667,6,0,L|144:80,12,18.7500007152558,12|0|0|0|0|0|0|0|0|0|0|0|0,2:0|2:0|2:0|2:0|2:0|2:0|2:0|2:0|2:0|2:0|2:0|2:0|2:0,2:0:0:0:
256,176,210096,6,0,L|240:256,1,75.0000028610231,0|0,0:0|2:0,0:0:0:0:
352,304,210310,2,0,L|224:320,1,112.500004291535,0|0,0:0|2:0,0:0:0:0:
160,336,210525,6,0,L|96:344,1,50.0000019073487,0|0,0:0|2:0,0:0:0:0:
224,248,210667,2,0,L|167:279,1,50.0000019073487,0|0,0:0|2:0,0:0:0:0:
272,144,210810,2,0,L|231:194,1,50.0000019073487,0|0,0:0|2:0,0:0:0:0:
296,56,210953,2,0,L|296:104,10,25.0000009536744,0|0|0|0|0|0|0|0|0|0|0,1:0|2:0|2:0|2:0|2:0|2:0|2:0|2:0|2:0|2:0|2:0,2:0:0:0:
320,64,211382,6,0,P|408:32|416:160,1,262.500010013581
384,96,211810,6,0,L|384:128,9,25.0000009536744,0|0|0|0|0|0|0|0|0|0,2:0|2:0|2:0|2:0|2:0|2:0|2:0|2:0|2:0|2:0,2:0:0:0:
128,96,212239,6,0,L|128:128,6,25.0000009536744,0|0|0|0|0|0|0,2:0|2:0|2:0|2:0|2:0|2:0|2:0,2:0:0:0:
336,96,212560,6,0,L|336:128,6,25.0000009536744,0|0|0|0|0|0|0,2:0|2:0|2:0|2:0|2:0|2:0|2:0,2:0:0:0:
176,96,212882,6,0,L|176:128,5,25.0000009536744,0|0|0|0|0|0,2:0|2:0|2:0|2:0|2:0|2:0,2:0:0:0:
256,96,213096,6,0,L|256:120,12,18.7500007152558,12|0|0|0|0|0|0|0|0|0|0|0|0,2:0|2:0|2:0|2:0|2:0|2:0|2:0|2:0|2:0|2:0|2:0|2:0|2:0,2:0:0:0:
256,208,213525,6,0,L|256:184,12,18.7500007152558,12|0|0|0|0|0|0|0|0|0|0|0|0,2:0|2:0|2:0|2:0|2:0|2:0|2:0|2:0|2:0|2:0|2:0|2:0|2:0,2:0:0:0:
