osu file format v14

[General]
AudioFilename: audio.mp3
AudioLeadIn: 0
PreviewTime: 204635
Countdown: 1
SampleSet: None
StackLeniency: 0.7
Mode: 3
LetterboxInBreaks: 0
SpecialStyle: 0
WidescreenStoryboard: 0

[Editor]
Bookmarks: 96635,137777,151492
DistanceSpacing: 1
BeatDivisor: 4
GridSize: 8
TimelineZoom: 1.799998

[Metadata]
Title:Glitch Nerds
TitleUnicode:Glitch Nerds
Artist:Camellia
ArtistUnicode:かめりあ
Creator:Evening
Version:overloaded_.
Source:
Tags:
BeatmapID:991010
BeatmapSetID:462748

[Difficulty]
HPDrainRate:8.7
CircleSize:7
OverallDifficulty:6.3
ApproachRate:5
SliderMultiplier:1.4
SliderTickRate:1

[Events]
//Background and Video events
0,0,"Konachan.com - 133526 asgr flowers glasses grass original robot.jpg",0,0
//Break Periods
//Storyboard Layer 0 (Background)
//Storyboard Layer 1 (Fail)
//Storyboard Layer 2 (Pass)
//Storyboard Layer 3 (Foreground)
//Storyboard Sound Samples

[TimingPoints]
635,428.571428571429,4,3,0,15,1,0
635,-125,4,3,0,15,0,0
742,-83.3333333333333,4,3,0,15,0,0
849,-100,4,3,0,15,0,0
2349,-66.6666666666667,4,3,0,15,0,0
2402,-120.481927710843,4,3,0,15,0,0
2563,-66.6666666666667,4,3,0,15,0,0
2617,-120.481927710843,4,3,0,15,0,0
2777,-66.6666666666667,4,3,0,15,0,0
2831,-120.481927710843,4,3,0,15,0,0
2992,-100,4,3,0,15,0,0
4063,-66.6666666666667,4,3,0,15,0,0
4117,-120.481927710843,4,3,0,15,0,0
4277,-66.6666666666667,4,3,0,15,0,0
4331,-120.481927710843,4,3,0,15,0,0
4492,-66.6666666666667,4,3,0,15,0,0
4545,-120.481927710843,4,3,0,15,0,0
4706,-100,4,3,0,15,0,0
7492,-125,4,3,0,15,0,0
7599,-83.3333333333333,4,3,0,15,0,0
7706,-100,4,3,0,15,0,0
9206,-66.6666666666667,4,3,0,15,0,0
9260,-120.481927710843,4,3,0,15,0,0
9420,-66.6666666666667,4,3,0,15,0,0
9474,-120.481927710843,4,3,0,15,0,0
9635,-66.6666666666667,4,3,0,15,0,0
9688,-120.481927710843,4,3,0,15,0,0
9849,-100,4,3,0,15,0,0
10920,-66.6666666666667,4,3,0,15,0,0
10974,-120.481927710843,4,3,0,15,0,0
11135,-66.6666666666667,4,3,0,15,0,0
11188,-120.481927710843,4,3,0,15,0,0
11349,-66.6666666666667,4,3,0,15,0,0
11402,-120.481927710843,4,3,0,15,0,0
11563,-100,4,3,0,15,0,0
13277,-90.9090909090909,4,3,0,15,0,0
13331,-83.3333333333333,4,3,0,15,0,0
13385,-52.6315789473684,4,3,0,15,0,0
13411,-1000,4,3,0,15,0,0
13438,-52.6315789473684,4,3,0,15,0,0
13465,-1000,4,3,0,15,0,0
13492,-40,4,3,0,15,0,0
13518,-200,4,3,0,15,0,0
13599,-22.2222222222222,4,3,0,15,0,0
13626,-200,4,3,0,15,0,0
13813,-15.3846153846154,4,3,0,15,0,0
13840,-200,4,3,0,15,0,0
14135,-100,4,3,0,15,0,0
14349,-66.6666666666667,4,3,0,15,0,0
14376,-100,4,3,0,15,0,0
14456,-83.3333333333333,4,3,0,15,0,0
14563,-100,4,3,0,15,0,0
16063,-50,4,3,0,15,0,0
16117,-149.253731343284,4,3,0,15,0,0
16277,-50,4,3,0,15,0,0
16331,-149.253731343284,4,3,0,15,0,0
16492,-50,4,3,0,15,0,0
16545,-149.253731343284,4,3,0,15,0,0
16706,-100,4,3,0,15,0,0
17777,-50,4,3,0,15,0,0
17831,-149.253731343284,4,3,0,15,0,0
17992,-50,4,3,0,15,0,0
18045,-149.253731343284,4,3,0,15,0,0
18206,-50,4,3,0,15,0,0
18260,-149.253731343284,4,3,0,15,0,0
18420,-100,4,3,0,15,0,0
21206,-66.6666666666667,4,3,0,15,0,0
21233,-100,4,3,0,15,0,0
21313,-83.3333333333333,4,3,0,15,0,0
21420,-100,4,3,0,15,0,0
22920,-50,4,3,0,15,0,0
22974,-149.253731343284,4,3,0,15,0,0
23135,-50,4,3,0,15,0,0
23188,-149.253731343284,4,3,0,15,0,0
23349,-50,4,3,0,15,0,0
23402,-149.253731343284,4,3,0,15,0,0
23563,-100,4,3,0,15,0,0
26349,-98.0392156862745,4,3,0,15,0,0
26777,-95.2380952380952,4,3,0,15,0,0
27206,-93.4579439252336,4,3,0,15,0,0
27527,-90.9090909090909,4,3,0,15,0,0
27742,-100,4,3,0,15,0,0
28063,-50,4,3,0,15,0,0
28090,-101.010101010101,4,3,0,15,0,0
28492,-102.040816326531,4,3,0,15,0,0
28920,-103.092783505155,4,3,0,15,0,0
29349,-104.166666666667,4,3,0,15,0,0
29777,-105.263157894737,4,3,0,15,0,0
30206,-106.382978723404,4,3,0,15,0,0
30635,-107.52688172043,4,3,0,15,0,0
31063,-108.695652173913,4,3,0,15,0,0
31492,-109.89010989011,4,3,0,15,0,0
31920,-111.111111111111,4,3,0,15,0,0
35992,-108.695652173913,4,3,0,15,0,0
36635,-106.382978723404,4,3,0,15,0,0
37063,-104.166666666667,4,3,0,15,0,0
37492,-102.040816326531,4,3,0,15,0,0
37920,-100,4,3,0,15,0,0
38349,-98.0392156862745,4,3,0,15,0,0
38777,-96.1538461538461,4,3,0,15,0,0
39206,-94.3396226415094,4,3,0,15,0,0
39635,-92.5925925925926,4,3,0,15,0,0
40063,-90.9090909090908,4,3,0,15,0,0
40492,-89.2857142857143,4,3,0,15,0,0
40920,-86.9565217391304,4,3,0,15,0,0
41349,-10,4,3,0,15,0,0
41376,-1000,4,3,0,15,0,0
41563,-250,4,3,0,15,0,0
41670,-52.6315789473684,4,3,0,15,0,0
41777,-100,4,3,0,15,0,0
46706,-52.6315789473684,4,3,0,15,0,0
46719,-1000,4,3,0,15,0,0
46733,-52.6315789473684,4,3,0,15,0,0
46746,-1000,4,3,0,15,0,0
46760,-52.6315789473684,4,3,0,15,0,0
46773,-1000,4,3,0,15,0,0
46786,-52.6315789473684,4,3,0,15,0,0
46800,-1000,4,3,0,15,0,0
46813,-52.6315789473684,4,3,0,15,0,0
46831,-1000,4,3,0,15,0,0
46849,-52.6315789473684,4,3,0,15,0,0
46867,-1000,4,3,0,15,0,0
46885,-52.6315789473684,4,3,0,15,0,0
46902,-1000,4,3,0,15,0,0
46920,-100,4,3,0,15,0,0
49063,-52.6315789473684,4,3,0,15,0,0
49090,-1000,4,3,0,15,0,0
49117,-52.6315789473684,4,3,0,15,0,0
49143,-1000,4,3,0,15,0,0
49170,-52.6315789473684,4,3,0,15,0,0
49197,-1000,4,3,0,15,0,0
49224,-52.6315789473684,4,3,0,15,0,0
49251,-1000,4,3,0,15,0,0
49277,-100,4,3,0,15,0,0
49331,-52.6315789473684,4,3,0,15,0,0
49358,-1000,4,3,0,15,0,0
49385,-100,4,3,0,15,0,0
49438,-52.6315789473684,4,3,0,15,0,0
49465,-1000,4,3,0,15,0,0
49492,-100,4,3,0,15,0,0
49599,-52.6315789473684,4,3,0,15,0,0
49626,-1000,4,3,0,15,0,0
49652,-100,4,3,0,15,0,0
53563,-52.6315789473684,4,3,0,15,0,0
53590,-1000,4,3,0,15,0,0
53617,-52.6315789473684,4,3,0,15,0,0
53643,-1000,4,3,0,15,0,0
53670,-52.6315789473684,4,3,0,15,0,0
53697,-1000,4,3,0,15,0,0
53724,-52.6315789473684,4,3,0,15,0,0
53751,-1000,4,3,0,15,0,0
53777,-52.6315789473684,4,3,0,15,0,0
53804,-1000,4,3,0,15,0,0
53831,-100,4,3,0,15,0,0
53992,-52.6315789473684,4,3,0,15,0,0
54018,-1000,4,3,0,15,0,0
54045,-100,4,3,0,15,0,0
55492,-50,4,3,0,15,0,0
55518,-100,4,3,0,15,0,0
55920,-50,4,3,0,15,0,0
55947,-100,4,3,0,15,0,0
56349,-50,4,3,0,15,0,0
56376,-100,4,3,0,15,0,0
56563,-149.253731343284,4,3,0,15,0,0
56724,-50,4,3,0,15,0,0
56777,-43.4782608695652,4,3,0,15,0,0
56804,-100,4,3,0,15,0,0
57206,-50,4,3,0,15,0,0
57233,-100,4,3,0,15,0,0
57635,-50,4,3,0,15,0,0
57661,-100,4,3,0,15,0,0
58063,-50,4,3,0,15,0,0
58090,-100,4,3,0,15,0,0
58277,-149.253731343284,4,3,0,15,0,0
58438,-50,4,3,0,15,0,0
58492,-43.4782608695652,4,3,0,15,0,0
58518,-100,4,3,0,15,0,0
58920,-50,4,3,0,15,0,0
58947,-100,4,3,0,15,0,0
59349,-50,4,3,0,15,0,0
59376,-100,4,3,0,15,0,0
59777,-50,4,3,0,15,0,0
59804,-100,4,3,0,15,0,0
59992,-149.253731343284,4,3,0,15,0,0
60152,-50,4,3,0,15,0,0
60206,-43.4782608695652,4,3,0,15,0,0
60233,-100,4,3,0,15,0,0
60635,-50,4,3,0,15,0,0
60661,-100,4,3,0,15,0,0
61063,-50,4,3,0,15,0,0
61090,-100,4,3,0,15,0,0
61492,-50,4,3,0,15,0,0
61518,-100,4,3,0,15,0,0
61706,-149.253731343284,4,3,0,15,0,0
61867,-50,4,3,0,15,0,0
61920,-43.4782608695652,4,3,0,15,0,0
61947,-100,4,3,0,15,0,0
62135,-52.6315789473684,4,3,0,15,0,0
62188,-1000,4,3,0,15,0,0
62242,-52.6315789473684,4,3,0,15,0,0
62268,-1000,4,3,0,15,0,0
62295,-52.6315789473684,4,3,0,15,0,0
62322,-1000,4,3,0,15,0,0
62349,-50,4,3,0,15,0,0
62376,-100,4,3,0,15,0,0
62777,-50,4,3,0,15,0,0
62804,-100,4,3,0,15,0,0
63099,-52.6315789473684,4,3,0,15,0,0
63126,-1000,4,3,0,15,0,0
63152,-52.6315789473684,4,3,0,15,0,0
63179,-1000,4,3,0,15,0,0
63206,-50,4,3,0,15,0,0
63233,-100,4,3,0,15,0,0
63635,-50,4,3,0,15,0,0
63661,-100,4,3,0,15,0,0
63956,-52.6315789473684,4,3,0,15,0,0
63983,-1000,4,3,0,15,0,0
64010,-52.6315789473684,4,3,0,15,0,0
64036,-1000,4,3,0,15,0,0
64063,-50,4,3,0,15,0,0
64090,-100,4,3,0,15,0,0
64492,-50,4,3,0,15,0,0
64518,-100,4,3,0,15,0,0
64813,-52.6315789473684,4,3,0,15,0,0
64840,-1000,4,3,0,15,0,0
64867,-52.6315789473684,4,3,0,15,0,0
64893,-1000,4,3,0,15,0,0
64920,-50,4,3,0,15,0,0
64947,-100,4,3,0,15,0,0
65349,-50,4,3,0,15,0,0
65376,-100,4,3,0,15,0,0
65670,-52.6315789473684,4,3,0,15,0,0
65697,-1000,4,3,0,15,0,0
65724,-52.6315789473684,4,3,0,15,0,0
65751,-1000,4,3,0,15,0,0
65777,-50,4,3,0,15,0,0
65804,-100,4,3,0,15,0,0
65992,-50,4,3,0,15,0,0
66018,-100,4,3,0,15,0,0
66099,-52.6315789473684,4,3,0,15,0,0
66126,-1000,4,3,0,15,0,0
66152,-52.6315789473684,4,3,0,15,0,0
66179,-1000,4,3,0,15,0,0
66206,-50,4,3,0,15,0,0
66233,-100,4,3,0,15,0,0
66420,-50,4,3,0,15,0,0
66447,-100,4,3,0,15,0,0
66527,-52.6315789473684,4,3,0,15,0,0
66554,-1000,4,3,0,15,0,0
66581,-52.6315789473684,4,3,0,15,0,0
66608,-1000,4,3,0,15,0,0
66635,-50,4,3,0,15,0,0
66661,-100,4,3,0,15,0,0
66849,-50,4,3,0,15,0,0
66876,-100,4,3,0,15,0,0
66956,-52.6315789473684,4,3,0,15,0,0
66983,-1000,4,3,0,15,0,0
67010,-52.6315789473684,4,3,0,15,0,0
67036,-1000,4,3,0,15,0,0
67063,-50,4,3,0,15,0,0
67090,-100,4,3,0,15,0,0
67277,-50,4,3,0,15,0,0
67304,-100,4,3,0,15,0,0
67385,-52.6315789473684,4,3,0,15,0,0
67411,-1000,4,3,0,15,0,0
67438,-52.6315789473684,4,3,0,15,0,0
67465,-1000,4,3,0,15,0,0
67492,-33.3333333333333,4,3,0,15,0,0
67518,-303.030303030303,4,3,0,15,0,0
67599,-33.3333333333333,4,3,0,15,0,0
67626,-303.030303030303,4,3,0,15,0,0
67706,-33.3333333333333,4,3,0,15,0,0
67733,-303.030303030303,4,3,0,15,0,0
67813,-33.3333333333333,4,3,0,15,0,0
67840,-303.030303030303,4,3,0,15,0,0
67920,-33.3333333333333,4,3,0,15,0,0
67947,-303.030303030303,4,3,0,15,0,0
68027,-33.3333333333333,4,3,0,15,0,0
68054,-303.030303030303,4,3,0,15,0,0
68135,-33.3333333333333,4,3,0,15,0,0
68161,-303.030303030303,4,3,0,15,0,0
68242,-33.3333333333333,4,3,0,15,0,0
68268,-303.030303030303,4,3,0,15,0,0
68349,-50,4,3,0,15,0,0
68402,-333.333333333333,4,3,0,15,0,0
68456,-62.5,4,3,0,15,0,0
68510,-250,4,3,0,15,0,0
68563,-83.3333333333333,4,3,0,15,0,0
68617,-200,4,3,0,15,0,0
68670,-100,4,3,0,15,0,0
68777,-52.6315789473684,4,3,0,15,0,0
68831,-1000,4,3,0,15,0,0
68885,-52.6315789473684,4,3,0,15,0,0
68938,-1000,4,3,0,15,0,0
68992,-149.253731343284,4,3,0,15,0,0
69152,-50,4,3,0,15,0,0
69206,-125,4,3,0,15,0,1
69420,-83.3333333333333,4,3,0,15,0,1
69635,-100,4,3,0,15,0,1
70492,-52.6315789473684,4,3,0,15,0,1
70518,-1000,4,3,0,15,0,1
70545,-52.6315789473684,4,3,0,15,0,1
70572,-1000,4,3,0,15,0,1
70599,-52.6315789473684,4,3,0,15,0,1
70626,-1000,4,3,0,15,0,1
70652,-52.6315789473684,4,3,0,15,0,1
70679,-1000,4,3,0,15,0,1
70706,-52.6315789473684,4,3,0,15,0,1
70733,-1000,4,3,0,15,0,1
70760,-52.6315789473684,4,3,0,15,0,1
70786,-1000,4,3,0,15,0,1
70813,-52.6315789473684,4,3,0,15,0,1
70840,-1000,4,3,0,15,0,1
70867,-52.6315789473684,4,3,0,15,0,1
70893,-1000,4,3,0,15,0,1
70920,-52.6315789473684,4,3,0,15,0,1
70974,-1000,4,3,0,15,0,1
71027,-52.6315789473684,4,3,0,15,0,1
71081,-1000,4,3,0,15,0,1
71135,-52.6315789473684,4,3,0,15,0,1
71188,-1000,4,3,0,15,0,1
71242,-52.6315789473684,4,3,0,15,0,1
71295,-1000,4,3,0,15,0,1
71349,-50,4,3,0,15,0,1
71402,-149.253731343284,4,3,0,15,0,1
71563,-52.6315789473684,4,3,0,15,0,1
71617,-1000,4,3,0,15,0,1
71670,-52.6315789473684,4,3,0,15,0,1
71724,-1000,4,3,0,15,0,1
71777,-100,4,3,0,15,0,1
72635,-83.3333333333333,4,3,0,15,0,1
72849,-125,4,3,0,15,0,1
73063,-100,4,3,0,15,0,1
76063,-125,4,3,0,15,0,1
76277,-83.3333333333333,4,3,0,15,0,1
76492,-100,4,3,0,15,0,1
77349,-52.6315789473684,4,3,0,15,0,1
77376,-1000,4,3,0,15,0,1
77402,-52.6315789473684,4,3,0,15,0,1
77429,-1000,4,3,0,15,0,1
77456,-52.6315789473684,4,3,0,15,0,1
77483,-1000,4,3,0,15,0,1
77510,-52.6315789473684,4,3,0,15,0,1
77536,-1000,4,3,0,15,0,1
77563,-52.6315789473684,4,3,0,15,0,1
77590,-1000,4,3,0,15,0,1
77617,-52.6315789473684,4,3,0,15,0,1
77643,-1000,4,3,0,15,0,1
77670,-52.6315789473684,4,3,0,15,0,1
77697,-1000,4,3,0,15,0,1
77724,-52.6315789473684,4,3,0,15,0,1
77751,-1000,4,3,0,15,0,1
77777,-52.6315789473684,4,3,0,15,0,1
77831,-1000,4,3,0,15,0,1
77885,-52.6315789473684,4,3,0,15,0,1
77938,-1000,4,3,0,15,0,1
77992,-52.6315789473684,4,3,0,15,0,1
78045,-1000,4,3,0,15,0,1
78099,-52.6315789473684,4,3,0,15,0,1
78152,-1000,4,3,0,15,0,1
78206,-50,4,3,0,15,0,1
78260,-149.253731343284,4,3,0,15,0,1
78420,-52.6315789473684,4,3,0,15,0,1
78474,-1000,4,3,0,15,0,1
78527,-52.6315789473684,4,3,0,15,0,1
78581,-1000,4,3,0,15,0,1
78635,-100,4,3,0,15,0,1
79063,-50,4,3,0,15,0,1
79090,-100,4,3,0,15,0,1
79492,-111.111111111111,4,3,0,15,0,1
79706,-83.3333333333333,4,3,0,15,0,1
79920,-111.111111111111,4,3,0,15,0,1
80135,-52.6315789473684,4,3,0,15,0,1
80170,-1000,4,3,0,15,0,1
80206,-52.6315789473684,4,3,0,15,0,1
80242,-1000,4,3,0,15,0,1
80277,-52.6315789473684,4,3,0,15,0,1
80313,-1000,4,3,0,15,0,1
80349,-50,4,3,0,15,0,1
80385,-149.253731343284,4,3,0,15,0,1
80492,-50,4,3,0,15,0,1
80527,-149.253731343284,4,3,0,15,0,1
80635,-100,4,3,0,15,0,1
80670,-66.6666666666667,4,3,0,15,0,1
80724,-200,4,3,0,15,0,1
80777,-100,4,3,0,15,0,1
81420,-58.8235294117647,4,3,0,15,0,1
81474,-333.333333333333,4,3,0,15,0,1
81527,-58.8235294117647,4,3,0,15,0,1
81581,-333.333333333333,4,3,0,15,0,1
81635,-58.8235294117647,4,3,0,15,0,1
81688,-333.333333333333,4,3,0,15,0,1
81742,-58.8235294117647,4,3,0,15,0,1
81795,-333.333333333333,4,3,0,15,0,1
81849,-58.8235294117647,4,3,0,15,0,1
81902,-333.333333333333,4,3,0,15,0,1
81956,-58.8235294117647,4,3,0,15,0,1
82010,-333.333333333333,4,3,0,15,0,1
82063,-52.6315789473684,4,3,0,15,0,1
82090,-1000,4,3,0,15,0,1
82117,-52.6315789473684,4,3,0,15,0,1
82143,-1000,4,3,0,15,0,1
82170,-52.6315789473684,4,3,0,15,0,1
82224,-1000,4,3,0,15,0,1
82277,-52.6315789473684,4,3,0,15,0,1
82331,-1000,4,3,0,15,0,1
82385,-52.6315789473684,4,3,0,15,0,1
82438,-1000,4,3,0,15,0,1
82492,-50,4,3,0,15,0,1
82545,-1000,4,3,0,15,0,1
82599,-47.6190476190476,4,3,0,15,0,1
82652,-1000,4,3,0,15,0,1
82706,-45.4545454545455,4,3,0,15,0,1
82760,-1000,4,3,0,15,0,1
82813,-43.4782608695652,4,3,0,15,0,1
82867,-1000,4,3,0,15,0,1
82920,-125,4,3,0,15,0,1
83135,-83.3333333333333,4,3,0,15,0,1
83349,-100,4,3,0,15,0,1
84206,-52.6315789473684,4,3,0,15,0,1
84233,-1000,4,3,0,15,0,1
84260,-52.6315789473684,4,3,0,15,0,1
84286,-1000,4,3,0,15,0,1
84313,-52.6315789473684,4,3,0,15,0,1
84340,-1000,4,3,0,15,0,1
84367,-52.6315789473684,4,3,0,15,0,1
84393,-1000,4,3,0,15,0,1
84420,-52.6315789473684,4,3,0,15,0,1
84447,-1000,4,3,0,15,0,1
84474,-52.6315789473684,4,3,0,15,0,1
84501,-1000,4,3,0,15,0,1
84527,-52.6315789473684,4,3,0,15,0,1
84554,-1000,4,3,0,15,0,1
84581,-52.6315789473684,4,3,0,15,0,1
84608,-1000,4,3,0,15,0,1
84635,-52.6315789473684,4,3,0,15,0,1
84688,-1000,4,3,0,15,0,1
84742,-52.6315789473684,4,3,0,15,0,1
84795,-1000,4,3,0,15,0,1
84849,-52.6315789473684,4,3,0,15,0,1
84902,-1000,4,3,0,15,0,1
84956,-52.6315789473684,4,3,0,15,0,1
85010,-1000,4,3,0,15,0,1
85063,-50,4,3,0,15,0,1
85117,-149.253731343284,4,3,0,15,0,1
85277,-52.6315789473684,4,3,0,15,0,1
85331,-1000,4,3,0,15,0,1
85385,-52.6315789473684,4,3,0,15,0,1
85438,-1000,4,3,0,15,0,1
85492,-100,4,3,0,15,0,1
86349,-50,4,3,0,15,0,1
86402,-149.253731343284,4,3,0,15,0,1
86563,-100,4,3,0,15,0,1
86992,-149.253731343284,4,3,0,15,0,1
87152,-50,4,3,0,15,0,1
87206,-100,4,3,0,15,0,1
89777,-52.6315789473684,4,3,0,15,0,1
89795,-1000,4,3,0,15,0,1
89813,-52.6315789473684,4,3,0,15,0,1
89831,-1000,4,3,0,15,0,1
89849,-52.6315789473684,4,3,0,15,0,1
89867,-1000,4,3,0,15,0,1
89885,-52.6315789473684,4,3,0,15,0,1
89902,-1000,4,3,0,15,0,1
89920,-52.6315789473684,4,3,0,15,0,1
89938,-1000,4,3,0,15,0,1
89956,-52.6315789473684,4,3,0,15,0,1
89974,-1000,4,3,0,15,0,1
89992,-52.6315789473684,4,3,0,15,0,1
90010,-1000,4,3,0,15,0,1
90027,-52.6315789473684,4,3,0,15,0,1
90045,-1000,4,3,0,15,0,1
90063,-52.6315789473684,4,3,0,15,0,1
90081,-1000,4,3,0,15,0,1
90099,-52.6315789473684,4,3,0,15,0,1
90117,-1000,4,3,0,15,0,1
90135,-52.6315789473684,4,3,0,15,0,1
90152,-1000,4,3,0,15,0,1
90170,-52.6315789473684,4,3,0,15,0,1
90188,-1000,4,3,0,15,0,1
90206,-100,4,3,0,15,0,1
90635,-75.187969924812,4,3,0,15,0,1
90688,-149.253731343284,4,3,0,15,0,1
90742,-50,4,3,0,15,0,1
90795,-149.253731343284,4,3,0,15,0,1
90956,-75.187969924812,4,3,0,15,0,1
91010,-149.253731343284,4,3,0,15,0,1
91063,-52.6315789473684,4,3,0,15,0,1
91090,-1000,4,3,0,15,0,1
91117,-52.6315789473684,4,3,0,15,0,1
91143,-1000,4,3,0,15,0,1
91170,-52.6315789473684,4,3,0,15,0,1
91197,-1000,4,3,0,15,0,1
91224,-52.6315789473684,4,3,0,15,0,1
91251,-1000,4,3,0,15,0,1
91277,-52.6315789473684,4,3,0,15,0,1
91304,-1000,4,3,0,15,0,1
91331,-52.6315789473684,4,3,0,15,0,1
91358,-1000,4,3,0,15,0,1
91385,-52.6315789473684,4,3,0,15,0,1
91411,-1000,4,3,0,15,0,1
91438,-52.6315789473684,4,3,0,15,0,1
91465,-1000,4,3,0,15,0,1
91492,-52.6315789473684,4,3,0,15,0,1
91545,-1000,4,3,0,15,0,1
91599,-52.6315789473684,4,3,0,15,0,1
91652,-1000,4,3,0,15,0,1
91706,-52.6315789473684,4,3,0,15,0,1
91760,-1000,4,3,0,15,0,1
91813,-52.6315789473684,4,3,0,15,0,1
91867,-1000,4,3,0,15,0,1
91920,-50,4,3,0,15,0,1
91974,-149.253731343284,4,3,0,15,0,1
92135,-52.6315789473684,4,3,0,15,0,1
92188,-1000,4,3,0,15,0,1
92242,-52.6315789473684,4,3,0,15,0,1
92295,-1000,4,3,0,15,0,1
92349,-100,4,3,0,15,0,1
92456,-52.6315789473684,4,3,0,15,0,1
92483,-1000,4,3,0,15,0,1
92510,-52.6315789473684,4,3,0,15,0,1
92536,-1000,4,3,0,15,0,1
92563,-52.6315789473684,4,3,0,15,0,1
92617,-1000,4,3,0,15,0,1
92670,-52.6315789473684,4,3,0,15,0,1
92724,-1000,4,3,0,15,0,1
92777,-100,4,3,0,15,0,1
93206,-32.258064516129,4,3,0,15,0,1
93260,-142.857142857143,4,3,0,15,0,1
93635,-32.258064516129,4,3,0,15,0,1
93688,-142.857142857143,4,3,0,15,0,1
94063,-142.857142857143,4,3,0,15,0,1
94170,-52.6315789473684,4,3,0,15,0,1
94206,-142.857142857143,4,3,0,15,0,1
94313,-52.6315789473684,4,3,0,15,0,1
94349,-142.857142857143,4,3,0,15,0,1
94456,-52.6315789473684,4,3,0,15,0,1
94492,-95.2380952380952,4,3,0,15,0,1
94599,-90.9090909090909,4,3,0,15,0,1
94706,-86.9565217391304,4,3,0,15,0,1
94813,-83.3333333333333,4,3,0,15,0,1
94920,-250,4,3,0,15,0,1
94992,-83.3333333333333,4,3,0,15,0,1
95063,-250,4,3,0,15,0,1
95135,-76.9230769230769,4,3,0,15,0,1
95206,-250,4,3,0,15,0,1
95277,-71.4285714285714,4,3,0,15,0,1
95349,-250,4,3,0,15,0,1
95420,-66.6666666666667,4,3,0,15,0,1
95492,-250,4,3,0,15,0,1
95563,-62.5,4,3,0,15,0,1
95635,-250,4,3,0,15,0,1
95706,-58.8235294117647,4,3,0,15,0,1
95777,-250,4,3,0,15,0,1
95831,-57.1428571428571,4,3,0,15,0,1
95885,-250,4,3,0,15,0,1
95938,-55.5555555555556,4,3,0,15,0,1
95992,-250,4,3,0,15,0,1
96045,-60.6060606060606,4,3,0,15,0,1
96099,-250,4,3,0,15,0,1
96152,-111.111111111111,4,3,0,15,0,1
96206,-100,4,3,0,15,0,1
96635,-50,4,3,0,15,0,0
96688,-100,4,3,0,15,0,0
103492,-50,4,3,0,15,0,0
103545,-100,4,3,0,15,0,0
108635,-76.9230769230769,4,3,0,15,0,0
108688,-142.857142857143,4,3,0,15,0,0
108742,-71.4285714285714,4,3,0,15,0,0
108795,-166.666666666667,4,3,0,15,0,0
108849,-66.6666666666667,4,3,0,15,0,0
108902,-200,4,3,0,15,0,0
108956,-62.5,4,3,0,15,0,0
109010,-250,4,3,0,15,0,0
109063,-58.8235294117647,4,3,0,15,0,0
109117,-333.333333333333,4,3,0,15,0,0
109170,-55.5555555555556,4,3,0,15,0,0
109224,-500,4,3,0,15,0,0
109277,-52.6315789473684,4,3,0,15,0,0
109331,-1000,4,3,0,15,0,0
109385,-52.6315789473684,4,3,0,15,0,0
109438,-1000,4,3,0,15,0,0
109492,-111.111111111111,4,3,0,15,0,0
110349,-50,4,3,0,15,0,0
110402,-83.3333333333333,4,3,0,15,0,0
110670,-111.111111111111,4,3,0,15,0,0
110777,-76.9230769230769,4,3,0,15,0,0
110831,-142.857142857143,4,3,0,15,0,0
110885,-100,4,3,0,15,0,0
110992,-76.9230769230769,4,3,0,15,0,0
111045,-142.857142857143,4,3,0,15,0,0
111099,-100,4,3,0,15,0,0
111313,-52.6315789473684,4,3,0,15,0,0
111340,-1000,4,3,0,15,0,0
111367,-100,4,3,0,15,0,0
111527,-52.6315789473684,4,3,0,15,0,0
111554,-1000,4,3,0,15,0,0
111581,-100,4,3,0,15,0,0
111635,-52.6315789473684,4,3,0,15,0,0
111661,-1000,4,3,0,15,0,0
111688,-52.6315789473684,4,3,0,15,0,0
111715,-1000,4,3,0,15,0,0
111742,-52.6315789473684,4,3,0,15,0,0
111768,-1000,4,3,0,15,0,0
111795,-52.6315789473684,4,3,0,15,0,0
111822,-1000,4,3,0,15,0,0
111849,-52.6315789473684,4,3,0,15,0,0
111876,-1000,4,3,0,15,0,0
111902,-52.6315789473684,4,3,0,15,0,0
111929,-1000,4,3,0,15,0,0
111956,-52.6315789473684,4,3,0,15,0,0
111983,-1000,4,3,0,15,0,0
112010,-52.6315789473684,4,3,0,15,0,0
112036,-1000,4,3,0,15,0,0
112063,-52.6315789473684,4,3,0,15,0,0
112117,-1000,4,3,0,15,0,0
112170,-52.6315789473684,4,3,0,15,0,0
112224,-1000,4,3,0,15,0,0
112277,-52.6315789473684,4,3,0,15,0,0
112331,-1000,4,3,0,15,0,0
112385,-52.6315789473684,4,3,0,15,0,0
112438,-1000,4,3,0,15,0,0
112492,-50,4,3,0,15,0,0
112545,-149.253731343284,4,3,0,15,0,0
112706,-100,4,3,0,15,0,0
113027,-52.6315789473684,4,3,0,15,0,0
113054,-1000,4,3,0,15,0,0
113081,-52.6315789473684,4,3,0,15,0,0
113108,-1000,4,3,0,15,0,0
113135,-52.6315789473684,4,3,0,15,0,0
113188,-1000,4,3,0,15,0,0
113242,-52.6315789473684,4,3,0,15,0,0
113295,-1000,4,3,0,15,0,0
113349,-41.6666666666667,4,3,0,15,0,0
113376,-125,4,3,0,15,0,0
113563,-100,4,3,0,15,0,0
113777,-50,4,3,0,15,0,0
113831,-83.3333333333333,4,3,0,15,0,0
114099,-111.111111111111,4,3,0,15,0,0
114206,-66.6666666666667,4,3,0,15,0,0
114260,-200,4,3,0,15,0,0
114313,-100,4,3,0,15,0,0
114420,-66.6666666666667,4,3,0,15,0,0
114474,-200,4,3,0,15,0,0
114527,-100,4,3,0,15,0,0
114742,-66.6666666666667,4,3,0,15,0,0
114795,-200,4,3,0,15,0,0
114849,-100,4,3,0,15,0,0
115063,-33.3333333333333,4,3,0,15,0,0
115099,-200,4,3,0,15,0,0
115170,-151.515151515152,4,3,0,15,0,0
115277,-100,4,3,0,15,0,0
115331,-95.2380952380952,4,3,0,15,0,0
115385,-90.9090909090909,4,3,0,15,0,0
115492,-50,4,3,0,15,0,0
115518,-100,4,3,0,15,0,0
115706,-66.6666666666667,4,3,0,15,0,0
115760,-200,4,3,0,15,0,0
115813,-100,4,3,0,15,0,0
115920,-33.3333333333333,4,3,0,15,0,0
115947,-140.845070422535,4,3,0,15,0,0
116135,-52.6315789473684,4,3,0,15,0,0
116161,-1000,4,3,0,15,0,0
116188,-52.6315789473684,4,3,0,15,0,0
116215,-1000,4,3,0,15,0,0
116242,-52.6315789473684,4,3,0,15,0,0
116268,-1000,4,3,0,15,0,0
116295,-52.6315789473684,4,3,0,15,0,0
116322,-1000,4,3,0,15,0,0
116349,-100,4,3,0,15,0,0
116456,-52.6315789473684,4,3,0,15,0,0
116483,-1000,4,3,0,15,0,0
116510,-100,4,3,0,15,0,0
116563,-52.6315789473684,4,3,0,15,0,0
116590,-1000,4,3,0,15,0,0
116617,-100,4,3,0,15,0,0
116670,-52.6315789473684,4,3,0,15,0,0
116697,-1000,4,3,0,15,0,0
116724,-100,4,3,0,15,0,0
116777,-52.6315789473684,4,3,0,15,0,0
116804,-1000,4,3,0,15,0,0
116831,-100,4,3,0,15,0,0
116885,-52.6315789473684,4,3,0,15,0,0
116911,-1000,4,3,0,15,0,0
116938,-100,4,3,0,15,0,0
116992,-52.6315789473684,4,3,0,15,0,0
117018,-1000,4,3,0,15,0,0
117045,-100,4,3,0,15,0,0
117099,-52.6315789473684,4,3,0,15,0,0
117126,-1000,4,3,0,15,0,0
117152,-83.3333333333333,4,3,0,15,0,0
117206,-50,4,3,0,15,0,0
117260,-83.3333333333333,4,3,0,15,0,0
117527,-111.111111111111,4,3,0,15,0,0
117635,-66.6666666666667,4,3,0,15,0,0
117688,-200,4,3,0,15,0,0
117742,-100,4,3,0,15,0,0
117849,-66.6666666666667,4,3,0,15,0,0
117902,-200,4,3,0,15,0,0
117956,-100,4,3,0,15,0,0
118170,-52.6315789473684,4,3,0,15,0,0
118197,-1000,4,3,0,15,0,0
118224,-100,4,3,0,15,0,0
118385,-52.6315789473684,4,3,0,15,0,0
118411,-1000,4,3,0,15,0,0
118438,-100,4,3,0,15,0,0
118492,-52.6315789473684,4,3,0,15,0,0
118518,-1000,4,3,0,15,0,0
118545,-52.6315789473684,4,3,0,15,0,0
118572,-1000,4,3,0,15,0,0
118599,-52.6315789473684,4,3,0,15,0,0
118626,-1000,4,3,0,15,0,0
118652,-52.6315789473684,4,3,0,15,0,0
118679,-1000,4,3,0,15,0,0
118706,-52.6315789473684,4,3,0,15,0,0
118733,-1000,4,3,0,15,0,0
118760,-52.6315789473684,4,3,0,15,0,0
118786,-1000,4,3,0,15,0,0
118813,-52.6315789473684,4,3,0,15,0,0
118840,-1000,4,3,0,15,0,0
118867,-52.6315789473684,4,3,0,15,0,0
118893,-1000,4,3,0,15,0,0
118920,-52.6315789473684,4,3,0,15,0,0
118974,-1000,4,3,0,15,0,0
119027,-52.6315789473684,4,3,0,15,0,0
119081,-1000,4,3,0,15,0,0
119135,-52.6315789473684,4,3,0,15,0,0
119188,-1000,4,3,0,15,0,0
119242,-52.6315789473684,4,3,0,15,0,0
119295,-1000,4,3,0,15,0,0
119349,-50,4,3,0,15,0,0
119402,-149.253731343284,4,3,0,15,0,0
119563,-66.6666666666667,4,3,0,15,0,0
119590,-200,4,3,0,15,0,0
119617,-100,4,3,0,15,0,0
119670,-66.6666666666667,4,3,0,15,0,0
119697,-200,4,3,0,15,0,0
119724,-100,4,3,0,15,0,0
119885,-52.6315789473684,4,3,0,15,0,0
119911,-1000,4,3,0,15,0,0
119938,-52.6315789473684,4,3,0,15,0,0
119965,-1000,4,3,0,15,0,0
119992,-52.6315789473684,4,3,0,15,0,0
120045,-1000,4,3,0,15,0,0
120099,-52.6315789473684,4,3,0,15,0,0
120152,-1000,4,3,0,15,0,0
120206,-50,4,3,0,15,0,0
120260,-200,4,3,0,15,0,0
120367,-100,4,3,0,15,0,0
120420,-52.6315789473684,4,3,0,15,0,0
120447,-1000,4,3,0,15,0,0
120474,-100,4,3,0,15,0,0
120527,-52.6315789473684,4,3,0,15,0,0
120554,-1000,4,3,0,15,0,0
120581,-100,4,3,0,15,0,0
120635,-50,4,3,0,15,0,0
120688,-83.3333333333333,4,3,0,15,0,0
120956,-111.111111111111,4,3,0,15,0,0
121063,-52.6315789473684,4,3,0,15,0,0
121117,-1000,4,3,0,15,0,0
121170,-100,4,3,0,15,0,0
121277,-52.6315789473684,4,3,0,15,0,0
121331,-1000,4,3,0,15,0,0
121385,-100,4,3,0,15,0,0
121599,-52.6315789473684,4,3,0,15,0,0
121652,-1000,4,3,0,15,0,0
121706,-100,4,3,0,15,0,0
121920,-50,4,3,0,15,0,0
121974,-149.253731343284,4,3,0,15,0,0
122135,-100,4,3,0,15,0,0
122188,-95.2380952380952,4,3,0,15,0,0
122242,-90.9090909090909,4,3,0,15,0,0
122295,-86.9565217391304,4,3,0,15,0,0
122349,-588.235294117647,4,3,0,15,0,0
122510,-28.5714285714286,4,3,0,15,0,0
122563,-588.235294117647,4,3,0,15,0,0
122724,-28.5714285714286,4,3,0,15,0,0
122777,-588.235294117647,4,3,0,15,0,0
122938,-28.5714285714286,4,3,0,15,0,0
122992,-588.235294117647,4,3,0,15,0,0
123152,-28.5714285714286,4,3,0,15,0,0
123206,-100,4,3,0,15,0,0
123635,-58.8235294117647,4,3,0,15,0,0
123688,-333.333333333333,4,3,0,15,0,0
123742,-58.8235294117647,4,3,0,15,0,0
123795,-333.333333333333,4,3,0,15,0,0
123849,-55.5555555555556,4,3,0,15,0,0
123902,-333.333333333333,4,3,0,15,0,0
123956,-52.6315789473684,4,3,0,15,0,0
124010,-333.333333333333,4,3,0,15,0,0
124063,-50,4,3,0,15,0,0
124117,-100,4,3,0,15,0,0
124492,-52.6315789473684,4,3,0,15,0,0
124545,-1000,4,3,0,15,0,0
124599,-100,4,3,0,15,0,0
124706,-52.6315789473684,4,3,0,15,0,0
124760,-1000,4,3,0,15,0,0
124813,-100,4,3,0,15,0,0
125027,-52.6315789473684,4,3,0,15,0,0
125054,-1000,4,3,0,15,0,0
125081,-100,4,3,0,15,0,0
125242,-52.6315789473684,4,3,0,15,0,0
125268,-1000,4,3,0,15,0,0
125295,-100,4,3,0,15,0,0
125349,-52.6315789473684,4,3,0,15,0,0
125376,-1000,4,3,0,15,0,0
125402,-52.6315789473684,4,3,0,15,0,0
125429,-1000,4,3,0,15,0,0
125456,-52.6315789473684,4,3,0,15,0,0
125483,-1000,4,3,0,15,0,0
125510,-52.6315789473684,4,3,0,15,0,0
125536,-1000,4,3,0,15,0,0
125563,-52.6315789473684,4,3,0,15,0,0
125590,-1000,4,3,0,15,0,0
125617,-52.6315789473684,4,3,0,15,0,0
125643,-1000,4,3,0,15,0,0
125670,-52.6315789473684,4,3,0,15,0,0
125697,-1000,4,3,0,15,0,0
125724,-52.6315789473684,4,3,0,15,0,0
125751,-1000,4,3,0,15,0,0
125777,-52.6315789473684,4,3,0,15,0,0
125831,-1000,4,3,0,15,0,0
125885,-52.6315789473684,4,3,0,15,0,0
125938,-1000,4,3,0,15,0,0
125992,-52.6315789473684,4,3,0,15,0,0
126045,-1000,4,3,0,15,0,0
126099,-52.6315789473684,4,3,0,15,0,0
126152,-1000,4,3,0,15,0,0
126206,-50,4,3,0,15,0,0
126260,-149.253731343284,4,3,0,15,0,0
126420,-52.6315789473684,4,3,0,15,0,0
126447,-1000,4,3,0,15,0,0
126474,-100,4,3,0,15,0,0
126527,-52.6315789473684,4,3,0,15,0,0
126554,-1000,4,3,0,15,0,0
126581,-100,4,3,0,15,0,0
126742,-52.6315789473684,4,3,0,15,0,0
126768,-1000,4,3,0,15,0,0
126795,-52.6315789473684,4,3,0,15,0,0
126822,-1000,4,3,0,15,0,0
126849,-52.6315789473684,4,3,0,15,0,0
126902,-1000,4,3,0,15,0,0
126956,-52.6315789473684,4,3,0,15,0,0
127010,-1000,4,3,0,15,0,0
127063,-50,4,3,0,15,0,0
127117,-200,4,3,0,15,0,0
127224,-100,4,3,0,15,0,0
127277,-52.6315789473684,4,3,0,15,0,0
127304,-1000,4,3,0,15,0,0
127331,-100,4,3,0,15,0,0
127385,-52.6315789473684,4,3,0,15,0,0
127411,-1000,4,3,0,15,0,0
127438,-100,4,3,0,15,0,0
127492,-71.4285714285714,4,3,0,15,0,0
127545,-100,4,3,0,15,0,0
127920,-71.4285714285714,4,3,0,15,0,0
127974,-100,4,3,0,15,0,0
128349,-71.4285714285714,4,3,0,15,0,0
128402,-100,4,3,0,15,0,0
128777,-71.4285714285714,4,3,0,15,0,0
128831,-100,4,3,0,15,0,0
129206,-71.4285714285714,4,3,0,15,0,0
129260,-100,4,3,0,15,0,0
129635,-71.4285714285714,4,3,0,15,0,0
129688,-100,4,3,0,15,0,0
130063,-71.4285714285714,4,3,0,15,0,0
130117,-100,4,3,0,15,0,0
130385,-71.4285714285714,4,3,0,15,0,0
130438,-100,4,3,0,15,0,0
130706,-71.4285714285714,4,3,0,15,0,0
130760,-100,4,3,0,15,0,0
130920,-71.4285714285714,4,3,0,15,0,0
130974,-100,4,3,0,15,0,0
131349,-52.6315789473684,4,3,0,15,0,0
131402,-1000,4,3,0,15,0,0
131456,-100,4,3,0,15,0,0
131563,-52.6315789473684,4,3,0,15,0,0
131617,-1000,4,3,0,15,0,0
131670,-100,4,3,0,15,0,0
131885,-52.6315789473684,4,3,0,15,0,0
131911,-1000,4,3,0,15,0,0
131938,-100,4,3,0,15,0,0
132099,-52.6315789473684,4,3,0,15,0,0
132126,-1000,4,3,0,15,0,0
132152,-100,4,3,0,15,0,0
132206,-52.6315789473684,4,3,0,15,0,0
132233,-1000,4,3,0,15,0,0
132260,-52.6315789473684,4,3,0,15,0,0
132286,-1000,4,3,0,15,0,0
132313,-52.6315789473684,4,3,0,15,0,0
132340,-1000,4,3,0,15,0,0
132367,-52.6315789473684,4,3,0,15,0,0
132393,-1000,4,3,0,15,0,0
132420,-52.6315789473684,4,3,0,15,0,0
132447,-1000,4,3,0,15,0,0
132474,-52.6315789473684,4,3,0,15,0,0
132501,-1000,4,3,0,15,0,0
132527,-52.6315789473684,4,3,0,15,0,0
132554,-1000,4,3,0,15,0,0
132581,-52.6315789473684,4,3,0,15,0,0
132608,-1000,4,3,0,15,0,0
132635,-52.6315789473684,4,3,0,15,0,0
132688,-1000,4,3,0,15,0,0
132742,-52.6315789473684,4,3,0,15,0,0
132795,-1000,4,3,0,15,0,0
132849,-52.6315789473684,4,3,0,15,0,0
132902,-1000,4,3,0,15,0,0
132956,-52.6315789473684,4,3,0,15,0,0
133010,-1000,4,3,0,15,0,0
133063,-50,4,3,0,15,0,0
133117,-149.253731343284,4,3,0,15,0,0
133277,-52.6315789473684,4,3,0,15,0,0
133304,-1000,4,3,0,15,0,0
133331,-100,4,3,0,15,0,0
133385,-52.6315789473684,4,3,0,15,0,0
133411,-1000,4,3,0,15,0,0
133438,-100,4,3,0,15,0,0
133599,-52.6315789473684,4,3,0,15,0,0
133626,-1000,4,3,0,15,0,0
133652,-52.6315789473684,4,3,0,15,0,0
133679,-1000,4,3,0,15,0,0
133706,-52.6315789473684,4,3,0,15,0,0
133760,-1000,4,3,0,15,0,0
133813,-52.6315789473684,4,3,0,15,0,0
133867,-1000,4,3,0,15,0,0
133920,-50,4,3,0,15,0,0
133974,-200,4,3,0,15,0,0
134081,-100,4,3,0,15,0,0
134135,-52.6315789473684,4,3,0,15,0,0
134161,-1000,4,3,0,15,0,0
134188,-100,4,3,0,15,0,0
134242,-52.6315789473684,4,3,0,15,0,0
134268,-1000,4,3,0,15,0,0
134295,-100,4,3,0,15,0,0
134349,-71.4285714285714,4,3,0,15,0,0
134402,-100,4,3,0,15,0,0
134777,-71.4285714285714,4,3,0,15,0,0
134831,-100,4,3,0,15,0,0
135206,-71.4285714285714,4,3,0,15,0,0
135260,-100,4,3,0,15,0,0
135635,-71.4285714285714,4,3,0,15,0,0
135688,-100,4,3,0,15,0,0
136063,-71.4285714285714,4,3,0,15,0,0
136117,-100,4,3,0,15,0,0
136492,-71.4285714285714,4,3,0,15,0,0
136545,-97.0873786407767,4,3,0,15,0,0
136920,-71.4285714285714,4,3,0,15,0,0
136974,-93.4579439252336,4,3,0,15,0,0
137242,-71.4285714285714,4,3,0,15,0,0
137295,-90.9090909090909,4,3,0,15,0,0
137563,-71.4285714285714,4,3,0,15,0,0
137617,-86.9565217391304,4,3,0,15,0,0
137777,-10,4,3,0,15,0,0
137804,-142.857142857143,4,3,0,15,0,0
144635,-33.3333333333333,4,3,0,15,0,0
144688,-142.857142857143,4,3,0,15,0,0
150420,-62.5,4,3,0,15,0,0
150447,-1000,4,3,0,15,0,0
150474,-55.5555555555556,4,3,0,15,0,0
150501,-1000,4,3,0,15,0,0
150527,-52.6315789473684,4,3,0,15,0,0
150554,-1000,4,3,0,15,0,0
150581,-50,4,3,0,15,0,0
150608,-1000,4,3,0,15,0,0
150635,-100,4,3,0,15,0,0
151492,-10,4,3,0,15,0,0
151518,-117.647058823529,4,3,0,15,0,0
163277,-55.5555555555556,4,3,0,15,0,0
163304,-1000,4,3,0,15,0,0
163331,-55.5555555555556,4,3,0,15,0,0
163358,-1000,4,3,0,15,0,0
163385,-55.5555555555556,4,3,0,15,0,0
163411,-1000,4,3,0,15,0,0
163438,-55.5555555555556,4,3,0,15,0,0
163465,-1000,4,3,0,15,0,0
163492,-55.5555555555556,4,3,0,15,0,0
163518,-1000,4,3,0,15,0,0
163545,-55.5555555555556,4,3,0,15,0,0
163572,-1000,4,3,0,15,0,0
163599,-117.647058823529,4,3,0,15,0,0
163706,-55.5555555555556,4,3,0,15,0,0
163733,-1000,4,3,0,15,0,0
163760,-55.5555555555556,4,3,0,15,0,0
163786,-1000,4,3,0,15,0,0
163813,-105.263157894737,4,3,0,15,0,0
164135,-52.6315789473684,4,3,0,15,0,0
164161,-1000,4,3,0,15,0,0
164188,-52.6315789473684,4,3,0,15,0,0
164215,-1000,4,3,0,15,0,0
164242,-52.6315789473684,4,3,0,15,0,0
164268,-1000,4,3,0,15,0,0
164295,-52.6315789473684,4,3,0,15,0,0
164322,-1000,4,3,0,15,0,0
164349,-105.263157894737,4,3,0,15,0,0
164456,-52.6315789473684,4,3,0,15,0,0
164483,-1000,4,3,0,15,0,0
164510,-105.263157894737,4,3,0,15,0,0
164670,-52.6315789473684,4,3,0,15,0,0
164697,-1000,4,3,0,15,0,0
164724,-105.263157894737,4,3,0,15,0,0
165206,-50,4,3,0,15,0,0
165232,-100,4,3,0,15,0,0
165634,-50,4,3,0,15,0,0
165661,-100,4,3,0,15,0,0
166063,-50,4,3,0,15,0,0
166090,-100,4,3,0,15,0,0
166277,-149.253731343284,4,3,0,15,0,0
166438,-50,4,3,0,15,0,0
166491,-43.4782608695652,4,3,0,15,0,0
166518,-100,4,3,0,15,0,0
166920,-50,4,3,0,15,0,0
166947,-100,4,3,0,15,0,0
167349,-50,4,3,0,15,0,0
167375,-100,4,3,0,15,0,0
167777,-50,4,3,0,15,0,0
167804,-100,4,3,0,15,0,0
167991,-149.253731343284,4,3,0,15,0,0
168152,-50,4,3,0,15,0,0
168206,-43.4782608695652,4,3,0,15,0,0
168232,-100,4,3,0,15,0,0
168634,-50,4,3,0,15,0,0
168661,-100,4,3,0,15,0,0
169063,-50,4,3,0,15,0,0
169090,-100,4,3,0,15,0,0
169491,-50,4,3,0,15,0,0
169518,-100,4,3,0,15,0,0
169706,-149.253731343284,4,3,0,15,0,0
169866,-50,4,3,0,15,0,0
169920,-43.4782608695652,4,3,0,15,0,0
169947,-100,4,3,0,15,0,0
170349,-50,4,3,0,15,0,0
170375,-100,4,3,0,15,0,0
170777,-50,4,3,0,15,0,0
170804,-100,4,3,0,15,0,0
171206,-50,4,3,0,15,0,0
171232,-100,4,3,0,15,0,0
171420,-149.253731343284,4,3,0,15,0,0
171581,-50,4,3,0,15,0,0
171634,-43.4782608695652,4,3,0,15,0,0
171661,-100,4,3,0,15,0,0
171849,-52.6315789473684,4,3,0,15,0,0
171902,-1000,4,3,0,15,0,0
171956,-52.6315789473684,4,3,0,15,0,0
171982,-1000,4,3,0,15,0,0
172009,-52.6315789473684,4,3,0,15,0,0
172036,-1000,4,3,0,15,0,0
172063,-50,4,3,0,15,0,0
172090,-100,4,3,0,15,0,0
172491,-50,4,3,0,15,0,0
172518,-100,4,3,0,15,0,0
172920,-50,4,3,0,15,0,0
172947,-100,4,3,0,15,0,0
173349,-50,4,3,0,15,0,0
173375,-100,4,3,0,15,0,0
173777,-50,4,3,0,15,0,0
173804,-100,4,3,0,15,0,0
174206,-50,4,3,0,15,0,0
174232,-100,4,3,0,15,0,0
174634,-50,4,3,0,15,0,0
174661,-100,4,3,0,15,0,0
175063,-50,4,3,0,15,0,0
175090,-100,4,3,0,15,0,0
175491,-50,4,3,0,15,0,0
175518,-100,4,3,0,15,0,0
175706,-50,4,3,0,15,0,0
175733,-100,4,3,0,15,0,0
175920,-50,4,3,0,15,0,0
175947,-100,4,3,0,15,0,0
176135,-50,4,3,0,15,0,0
176161,-100,4,3,0,15,0,0
176349,-50,4,3,0,15,0,0
176376,-100,4,3,0,15,0,0
176563,-50,4,3,0,15,0,0
176590,-100,4,3,0,15,0,0
176777,-52.6315789473684,4,3,0,15,0,0
176831,-1000,4,3,0,15,0,0
176885,-52.6315789473684,4,3,0,15,0,0
176938,-1000,4,3,0,15,0,0
176992,-52.6315789473684,4,3,0,15,0,0
177045,-1000,4,3,0,15,0,0
177099,-52.6315789473684,4,3,0,15,0,0
177152,-1000,4,3,0,15,0,0
177206,-52.6315789473684,4,3,0,15,0,0
177260,-1000,4,3,0,15,0,0
177313,-52.6315789473684,4,3,0,15,0,0
177367,-1000,4,3,0,15,0,0
177420,-52.6315789473684,4,3,0,15,0,0
177492,-1000,4,3,0,15,0,0
177563,-52.6315789473684,4,3,0,15,0,0
177635,-1000,4,3,0,15,0,0
177670,-52.6315789473684,4,3,0,15,0,0
177706,-1000,4,3,0,15,0,0
177742,-100,4,3,0,15,0,0
177849,-52.6315789473684,4,3,0,15,0,0
177902,-1000,4,3,0,15,0,0
177956,-52.6315789473684,4,3,0,15,0,0
178010,-1000,4,3,0,15,0,0
178063,-52.6315789473684,4,3,0,15,0,0
178117,-1000,4,3,0,15,0,0
178170,-52.6315789473684,4,3,0,15,0,0
178224,-1000,4,3,0,15,0,0
178277,-100,4,3,0,15,0,0
178492,-10,4,3,0,15,0,0
178545,-1000,4,3,0,15,0,0
178599,-52.6315789473684,4,3,0,15,0,0
178652,-1000,4,3,0,15,0,0
178706,-52.6315789473684,4,3,0,15,0,0
178760,-1000,4,3,0,15,0,0
178813,-52.6315789473684,4,3,0,15,0,0
178867,-1000,4,3,0,15,0,0
178920,-125,4,3,0,15,0,1
179134,-83.3333333333333,4,3,0,15,0,1
179349,-100,4,3,0,15,0,1
180206,-52.6315789473684,4,3,0,15,0,1
180232,-1000,4,3,0,15,0,1
180259,-52.6315789473684,4,3,0,15,0,1
180286,-1000,4,3,0,15,0,1
180313,-52.6315789473684,4,3,0,15,0,1
180340,-1000,4,3,0,15,0,1
180366,-52.6315789473684,4,3,0,15,0,1
180393,-1000,4,3,0,15,0,1
180420,-52.6315789473684,4,3,0,15,0,1
180447,-1000,4,3,0,15,0,1
180474,-52.6315789473684,4,3,0,15,0,1
180500,-1000,4,3,0,15,0,1
180527,-52.6315789473684,4,3,0,15,0,1
180554,-1000,4,3,0,15,0,1
180581,-52.6315789473684,4,3,0,15,0,1
180607,-1000,4,3,0,15,0,1
180634,-52.6315789473684,4,3,0,15,0,1
180688,-1000,4,3,0,15,0,1
180741,-52.6315789473684,4,3,0,15,0,1
180795,-1000,4,3,0,15,0,1
180849,-52.6315789473684,4,3,0,15,0,1
180902,-1000,4,3,0,15,0,1
180956,-52.6315789473684,4,3,0,15,0,1
181009,-1000,4,3,0,15,0,1
181063,-50,4,3,0,15,0,1
181116,-149.253731343284,4,3,0,15,0,1
181277,-52.6315789473684,4,3,0,15,0,1
181331,-1000,4,3,0,15,0,1
181384,-52.6315789473684,4,3,0,15,0,1
181438,-1000,4,3,0,15,0,1
181491,-100,4,3,0,15,0,1
182349,-83.3333333333333,4,3,0,15,0,1
182563,-125,4,3,0,15,0,1
182777,-100,4,3,0,15,0,1
185777,-125,4,3,0,15,0,1
185991,-83.3333333333333,4,3,0,15,0,1
186206,-100,4,3,0,15,0,1
187063,-52.6315789473684,4,3,0,15,0,1
187090,-1000,4,3,0,15,0,1
187116,-52.6315789473684,4,3,0,15,0,1
187143,-1000,4,3,0,15,0,1
187170,-52.6315789473684,4,3,0,15,0,1
187197,-1000,4,3,0,15,0,1
187224,-52.6315789473684,4,3,0,15,0,1
187250,-1000,4,3,0,15,0,1
187277,-52.6315789473684,4,3,0,15,0,1
187304,-1000,4,3,0,15,0,1
187331,-52.6315789473684,4,3,0,15,0,1
187357,-1000,4,3,0,15,0,1
187384,-52.6315789473684,4,3,0,15,0,1
187411,-1000,4,3,0,15,0,1
187438,-52.6315789473684,4,3,0,15,0,1
187465,-1000,4,3,0,15,0,1
187491,-52.6315789473684,4,3,0,15,0,1
187545,-1000,4,3,0,15,0,1
187599,-52.6315789473684,4,3,0,15,0,1
187652,-1000,4,3,0,15,0,1
187706,-52.6315789473684,4,3,0,15,0,1
187759,-1000,4,3,0,15,0,1
187813,-52.6315789473684,4,3,0,15,0,1
187866,-1000,4,3,0,15,0,1
187920,-50,4,3,0,15,0,1
187974,-149.253731343284,4,3,0,15,0,1
188134,-52.6315789473684,4,3,0,15,0,1
188188,-1000,4,3,0,15,0,1
188241,-52.6315789473684,4,3,0,15,0,1
188295,-1000,4,3,0,15,0,1
188349,-100,4,3,0,15,0,1
188777,-50,4,3,0,15,0,1
188804,-100,4,3,0,15,0,1
189206,-111.111111111111,4,3,0,15,0,1
189420,-83.3333333333333,4,3,0,15,0,1
189634,-111.111111111111,4,3,0,15,0,1
189849,-52.6315789473684,4,3,0,15,0,1
189884,-1000,4,3,0,15,0,1
189920,-52.6315789473684,4,3,0,15,0,1
189956,-1000,4,3,0,15,0,1
189991,-52.6315789473684,4,3,0,15,0,1
190027,-1000,4,3,0,15,0,1
190063,-50,4,3,0,15,0,1
190099,-149.253731343284,4,3,0,15,0,1
190206,-50,4,3,0,15,0,1
190241,-149.253731343284,4,3,0,15,0,1
190349,-100,4,3,0,15,0,1
190384,-66.6666666666667,4,3,0,15,0,1
190438,-200,4,3,0,15,0,1
190491,-100,4,3,0,15,0,1
191134,-58.8235294117647,4,3,0,15,0,1
191188,-333.333333333333,4,3,0,15,0,1
191241,-58.8235294117647,4,3,0,15,0,1
191295,-333.333333333333,4,3,0,15,0,1
191349,-58.8235294117647,4,3,0,15,0,1
191402,-333.333333333333,4,3,0,15,0,1
191456,-58.8235294117647,4,3,0,15,0,1
191509,-333.333333333333,4,3,0,15,0,1
191563,-58.8235294117647,4,3,0,15,0,1
191616,-333.333333333333,4,3,0,15,0,1
191670,-58.8235294117647,4,3,0,15,0,1
191724,-333.333333333333,4,3,0,15,0,1
191777,-52.6315789473684,4,3,0,15,0,1
191804,-1000,4,3,0,15,0,1
191831,-52.6315789473684,4,3,0,15,0,1
191857,-1000,4,3,0,15,0,1
191884,-52.6315789473684,4,3,0,15,0,1
191938,-1000,4,3,0,15,0,1
191991,-52.6315789473684,4,3,0,15,0,1
192045,-1000,4,3,0,15,0,1
192099,-52.6315789473684,4,3,0,15,0,1
192152,-1000,4,3,0,15,0,1
192206,-50,4,3,0,15,0,1
192259,-1000,4,3,0,15,0,1
192313,-47.6190476190476,4,3,0,15,0,1
192366,-1000,4,3,0,15,0,1
192420,-45.4545454545455,4,3,0,15,0,1
192474,-1000,4,3,0,15,0,1
192527,-43.4782608695652,4,3,0,15,0,1
192581,-1000,4,3,0,15,0,1
192634,-125,4,3,0,15,0,1
192849,-83.3333333333333,4,3,0,15,0,1
193063,-100,4,3,0,15,0,1
193920,-52.6315789473684,4,3,0,15,0,1
193947,-1000,4,3,0,15,0,1
193974,-52.6315789473684,4,3,0,15,0,1
194000,-1000,4,3,0,15,0,1
194027,-52.6315789473684,4,3,0,15,0,1
194054,-1000,4,3,0,15,0,1
194081,-52.6315789473684,4,3,0,15,0,1
194107,-1000,4,3,0,15,0,1
194134,-52.6315789473684,4,3,0,15,0,1
194161,-1000,4,3,0,15,0,1
194188,-52.6315789473684,4,3,0,15,0,1
194215,-1000,4,3,0,15,0,1
194241,-52.6315789473684,4,3,0,15,0,1
194268,-1000,4,3,0,15,0,1
194295,-52.6315789473684,4,3,0,15,0,1
194322,-1000,4,3,0,15,0,1
194349,-52.6315789473684,4,3,0,15,0,1
194402,-1000,4,3,0,15,0,1
194456,-52.6315789473684,4,3,0,15,0,1
194509,-1000,4,3,0,15,0,1
194563,-52.6315789473684,4,3,0,15,0,1
194616,-1000,4,3,0,15,0,1
194670,-52.6315789473684,4,3,0,15,0,1
194724,-1000,4,3,0,15,0,1
194777,-50,4,3,0,15,0,1
194831,-149.253731343284,4,3,0,15,0,1
194991,-52.6315789473684,4,3,0,15,0,1
195045,-1000,4,3,0,15,0,1
195099,-52.6315789473684,4,3,0,15,0,1
195152,-1000,4,3,0,15,0,1
195206,-100,4,3,0,15,0,1
196063,-50,4,3,0,15,0,1
196116,-149.253731343284,4,3,0,15,0,1
196277,-100,4,3,0,15,0,1
196706,-149.253731343284,4,3,0,15,0,1
196866,-50,4,3,0,15,0,1
196920,-100,4,3,0,15,0,1
199491,-52.6315789473684,4,3,0,15,0,1
199509,-1000,4,3,0,15,0,1
199527,-52.6315789473684,4,3,0,15,0,1
199545,-1000,4,3,0,15,0,1
199563,-52.6315789473684,4,3,0,15,0,1
199581,-1000,4,3,0,15,0,1
199599,-52.6315789473684,4,3,0,15,0,1
199616,-1000,4,3,0,15,0,1
199634,-52.6315789473684,4,3,0,15,0,1
199652,-1000,4,3,0,15,0,1
199670,-52.6315789473684,4,3,0,15,0,1
199688,-1000,4,3,0,15,0,1
199706,-52.6315789473684,4,3,0,15,0,1
199724,-1000,4,3,0,15,0,1
199741,-52.6315789473684,4,3,0,15,0,1
199759,-1000,4,3,0,15,0,1
199777,-52.6315789473684,4,3,0,15,0,1
199795,-1000,4,3,0,15,0,1
199813,-52.6315789473684,4,3,0,15,0,1
199831,-1000,4,3,0,15,0,1
199849,-52.6315789473684,4,3,0,15,0,1
199866,-1000,4,3,0,15,0,1
199884,-52.6315789473684,4,3,0,15,0,1
199902,-1000,4,3,0,15,0,1
199920,-100,4,3,0,15,0,1
200349,-75.187969924812,4,3,0,15,0,1
200402,-149.253731343284,4,3,0,15,0,1
200456,-50,4,3,0,15,0,1
200509,-149.253731343284,4,3,0,15,0,1
200670,-75.187969924812,4,3,0,15,0,1
200724,-149.253731343284,4,3,0,15,0,1
200777,-52.6315789473684,4,3,0,15,0,1
200804,-1000,4,3,0,15,0,1
200831,-52.6315789473684,4,3,0,15,0,1
200857,-1000,4,3,0,15,0,1
200884,-52.6315789473684,4,3,0,15,0,1
200911,-1000,4,3,0,15,0,1
200938,-52.6315789473684,4,3,0,15,0,1
200965,-1000,4,3,0,15,0,1
200991,-52.6315789473684,4,3,0,15,0,1
201018,-1000,4,3,0,15,0,1
201045,-52.6315789473684,4,3,0,15,0,1
201072,-1000,4,3,0,15,0,1
201099,-52.6315789473684,4,3,0,15,0,1
201125,-1000,4,3,0,15,0,1
201152,-52.6315789473684,4,3,0,15,0,1
201179,-1000,4,3,0,15,0,1
201206,-52.6315789473684,4,3,0,15,0,1
201259,-1000,4,3,0,15,0,1
201313,-52.6315789473684,4,3,0,15,0,1
201366,-1000,4,3,0,15,0,1
201420,-52.6315789473684,4,3,0,15,0,1
201474,-1000,4,3,0,15,0,1
201527,-52.6315789473684,4,3,0,15,0,1
201581,-1000,4,3,0,15,0,1
201634,-50,4,3,0,15,0,1
201688,-149.253731343284,4,3,0,15,0,1
201849,-52.6315789473684,4,3,0,15,0,1
201902,-1000,4,3,0,15,0,1
201956,-52.6315789473684,4,3,0,15,0,1
202009,-1000,4,3,0,15,0,1
202063,-100,4,3,0,15,0,1
202170,-52.6315789473684,4,3,0,15,0,1
202197,-1000,4,3,0,15,0,1
202224,-52.6315789473684,4,3,0,15,0,1
202250,-1000,4,3,0,15,0,1
202277,-52.6315789473684,4,3,0,15,0,1
202331,-1000,4,3,0,15,0,1
202384,-52.6315789473684,4,3,0,15,0,1
202438,-1000,4,3,0,15,0,1
202491,-100,4,3,0,15,0,1
202920,-32.258064516129,4,3,0,15,0,1
202974,-142.857142857143,4,3,0,15,0,1
203349,-32.258064516129,4,3,0,15,0,1
203402,-142.857142857143,4,3,0,15,0,1
203777,-142.857142857143,4,3,0,15,0,1
203884,-52.6315789473684,4,3,0,15,0,1
203920,-142.857142857143,4,3,0,15,0,1
204027,-52.6315789473684,4,3,0,15,0,1
204063,-142.857142857143,4,3,0,15,0,1
204170,-52.6315789473684,4,3,0,15,0,1
204206,-95.2380952380952,4,3,0,15,0,1
204313,-90.9090909090909,4,3,0,15,0,1
204420,-86.9565217391304,4,3,0,15,0,1
204527,-83.3333333333333,4,3,0,15,0,1
204635,-250,4,3,0,15,0,0
204706,-83.3333333333333,4,3,0,15,0,0
204777,-250,4,3,0,15,0,0
204849,-76.9230769230769,4,3,0,15,0,0
204920,-250,4,3,0,15,0,0
204991,-71.4285714285714,4,3,0,15,0,0
205063,-250,4,3,0,15,0,0
205134,-66.6666666666667,4,3,0,15,0,0
205206,-250,4,3,0,15,0,0
205277,-62.5,4,3,0,15,0,0
205349,-250,4,3,0,15,0,0
205420,-58.8235294117647,4,3,0,15,0,0
205491,-250,4,3,0,15,0,0
205545,-57.1428571428571,4,3,0,15,0,0
205599,-250,4,3,0,15,0,0
205652,-55.5555555555556,4,3,0,15,0,0
205706,-250,4,3,0,15,0,0
205759,-60.6060606060606,4,3,0,15,0,0
205813,-250,4,3,0,15,0,0
205866,-111.111111111111,4,3,0,15,0,0
205920,-100,4,3,0,15,0,0
206349,-66.6666666666667,4,3,0,15,0,1
206402,-100,4,3,0,15,0,1
206777,-76.9230769230769,4,3,0,15,0,1
206831,-100,4,3,0,15,0,1
207206,-76.9230769230769,4,3,0,15,0,1
207260,-100,4,3,0,15,0,1
207635,-76.9230769230769,4,3,0,15,0,1
207688,-100,4,3,0,15,0,1
208063,-76.9230769230769,4,3,0,15,0,1
208117,-100,4,3,0,15,0,1
208492,-76.9230769230769,4,3,0,15,0,1
208545,-100,4,3,0,15,0,1
208920,-76.9230769230769,4,3,0,15,0,1
208974,-100,4,3,0,15,0,1
209349,-76.9230769230769,4,3,0,15,0,1
209402,-100,4,3,0,15,0,1
209777,-76.9230769230769,4,3,0,15,0,1
209831,-100,4,3,0,15,0,1
210206,-76.9230769230769,4,3,0,15,0,1
210260,-100,4,3,0,15,0,1
210635,-76.9230769230769,4,3,0,15,0,1
210688,-100,4,3,0,15,0,1
211063,-76.9230769230769,4,3,0,15,0,1
211117,-100,4,3,0,15,0,1
211492,-76.9230769230769,4,3,0,15,0,1
211545,-97.0873786407767,4,3,0,15,0,1
211920,-76.9230769230769,4,3,0,15,0,1
211974,-94.3396226415094,4,3,0,15,0,1
212349,-76.9230769230769,4,3,0,15,0,1
212402,-91.743119266055,4,3,0,15,0,1
212670,-76.9230769230769,4,3,0,15,0,1
212724,-89.2857142857143,4,3,0,15,0,1
212992,-76.9230769230769,4,3,0,15,0,1
213045,-86.9565217391304,4,3,0,15,0,1
213206,-71.4285714285714,4,3,0,15,0,1
213260,-100,4,3,0,15,0,1
213635,-71.4285714285714,4,3,0,15,0,1
213688,-100,4,3,0,15,0,1
214063,-71.4285714285714,4,3,0,15,0,1
214117,-100,4,3,0,15,0,1
214492,-71.4285714285714,4,3,0,15,0,1
214545,-100,4,3,0,15,0,1
214920,-71.4285714285714,4,3,0,15,0,1
214974,-100,4,3,0,15,0,1
215349,-71.4285714285714,4,3,0,15,0,1
215402,-100,4,3,0,15,0,1
215777,-71.4285714285714,4,3,0,15,0,1
215831,-100,4,3,0,15,0,1
216206,-71.4285714285714,4,3,0,15,0,1
216260,-100,4,3,0,15,0,1
216635,-71.4285714285714,4,3,0,15,0,1
216688,-100,4,3,0,15,0,1
216849,-52.6315789473684,4,3,0,15,0,1
216876,-1000,4,3,0,15,0,1
216902,-52.6315789473684,4,3,0,15,0,1
216929,-1000,4,3,0,15,0,1
216956,-52.6315789473684,4,3,0,15,0,1
216983,-1000,4,3,0,15,0,1
217010,-52.6315789473684,4,3,0,15,0,1
217036,-1000,4,3,0,15,0,1
217063,-100,4,3,0,15,0,1
217277,-52.6315789473684,4,3,0,15,0,1
217304,-1000,4,3,0,15,0,1
217331,-52.6315789473684,4,3,0,15,0,1
217358,-1000,4,3,0,15,0,1
217385,-52.6315789473684,4,3,0,15,0,1
217411,-1000,4,3,0,15,0,1
217438,-52.6315789473684,4,3,0,15,0,1
217465,-1000,4,3,0,15,0,1
217492,-100,4,3,0,15,0,1
217706,-52.6315789473684,4,3,0,15,0,1
217733,-1000,4,3,0,15,0,1
217760,-52.6315789473684,4,3,0,15,0,1
217786,-1000,4,3,0,15,0,1
217813,-52.6315789473684,4,3,0,15,0,1
217840,-1000,4,3,0,15,0,1
217867,-52.6315789473684,4,3,0,15,0,1
217893,-1000,4,3,0,15,0,1
217920,-66.6666666666667,4,3,0,15,0,1
217992,-200,4,3,0,15,0,1
218063,-66.6666666666667,4,3,0,15,0,1
218135,-200,4,3,0,15,0,1
218206,-66.6666666666667,4,3,0,15,0,1
218277,-200,4,3,0,15,0,1
218349,-50,4,3,0,15,0,1
218402,-149.253731343284,4,3,0,15,0,1
218563,-52.6315789473684,4,3,0,15,0,1
218599,-1000,4,3,0,15,0,1
218635,-52.6315789473684,4,3,0,15,0,1
218670,-1000,4,3,0,15,0,1
218706,-52.6315789473684,4,3,0,15,0,1
218742,-1000,4,3,0,15,0,1
218777,-100,4,3,0,15,0,1
219206,-58.8235294117647,4,3,0,15,0,1
219260,-333.333333333333,4,3,0,15,0,1
219313,-58.8235294117647,4,3,0,15,0,1
219367,-333.333333333333,4,3,0,15,0,1
219420,-58.8235294117647,4,3,0,15,0,1
219474,-333.333333333333,4,3,0,15,0,1
219527,-58.8235294117647,4,3,0,15,0,1
219581,-333.333333333333,4,3,0,15,0,1
219635,-52.6315789473684,4,3,0,15,0,1
219661,-1000,4,3,0,15,0,1
219688,-52.6315789473684,4,3,0,15,0,1
219715,-1000,4,3,0,15,0,1
219742,-52.6315789473684,4,3,0,15,0,1
219768,-1000,4,3,0,15,0,1
219795,-52.6315789473684,4,3,0,15,0,1
219822,-1000,4,3,0,15,0,1
219849,-52.6315789473684,4,3,0,15,0,1
219876,-1000,4,3,0,15,0,1
219902,-52.6315789473684,4,3,0,15,0,1
219929,-1000,4,3,0,15,0,1
219956,-52.6315789473684,4,3,0,15,0,1
219983,-1000,4,3,0,15,0,1
220010,-52.6315789473684,4,3,0,15,0,1
220036,-1000,4,3,0,15,0,1
220063,-76.9230769230769,4,3,0,15,0,1
220117,-100,4,3,0,15,0,1
220492,-76.9230769230769,4,3,0,15,0,1
220545,-100,4,3,0,15,0,1
220920,-76.9230769230769,4,3,0,15,0,1
220974,-100,4,3,0,15,0,1
221349,-76.9230769230769,4,3,0,15,0,1
221402,-100,4,3,0,15,0,1
221777,-76.9230769230769,4,3,0,15,0,1
221831,-100,4,3,0,15,0,1
222206,-76.9230769230769,4,3,0,15,0,1
222260,-100,4,3,0,15,0,1
222635,-76.9230769230769,4,3,0,15,0,1
222688,-100,4,3,0,15,0,1
223063,-76.9230769230769,4,3,0,15,0,1
223117,-100,4,3,0,15,0,1
223492,-76.9230769230769,4,3,0,15,0,1
223545,-100,4,3,0,15,0,1
223920,-76.9230769230769,4,3,0,15,0,1
223974,-100,4,3,0,15,0,1
224349,-76.9230769230769,4,3,0,15,0,1
224402,-100,4,3,0,15,0,1
224777,-76.9230769230769,4,3,0,15,0,1
224831,-100,4,3,0,15,0,1
225206,-76.9230769230769,4,3,0,15,0,1
225260,-100,4,3,0,15,0,1
225635,-76.9230769230769,4,3,0,15,0,1
225688,-100,4,3,0,15,0,1
226063,-76.9230769230769,4,3,0,15,0,1
226117,-100,4,3,0,15,0,1
226920,-76.9230769230769,4,3,0,15,0,1
226974,-100,4,3,0,15,0,1
227349,-76.9230769230769,4,3,0,15,0,1
227402,-100,4,3,0,15,0,1
227777,-76.9230769230769,4,3,0,15,0,1
227831,-100,4,3,0,15,0,1
228206,-76.9230769230769,4,3,0,15,0,1
228260,-100,4,3,0,15,0,1
228635,-76.9230769230769,4,3,0,15,0,1
228688,-100,4,3,0,15,0,1
229063,-76.9230769230769,4,3,0,15,0,1
229117,-100,4,3,0,15,0,1
229492,-76.9230769230769,4,3,0,15,0,1
229545,-100,4,3,0,15,0,1
229920,-76.9230769230769,4,3,0,15,0,1
229974,-100,4,3,0,15,0,1
230349,-76.9230769230769,4,3,0,15,0,1
230402,-100,4,3,0,15,0,1
230777,-76.9230769230769,4,3,0,15,0,1
230831,-100,4,3,0,15,0,1
231206,-76.9230769230769,4,3,0,15,0,1
231260,-100,4,3,0,15,0,1
231635,-76.9230769230769,4,3,0,15,0,1
231688,-100,4,3,0,15,0,1
232063,-52.6315789473684,4,3,0,15,0,0
232090,-1000,4,3,0,15,0,0
232117,-52.6315789473684,4,3,0,15,0,0
232143,-1000,4,3,0,15,0,0
232170,-52.6315789473684,4,3,0,15,0,0
232197,-1000,4,3,0,15,0,0
232224,-52.6315789473684,4,3,0,15,0,0
232251,-1000,4,3,0,15,0,0
232277,-52.6315789473684,4,3,0,15,0,0
232304,-1000,4,3,0,15,0,0
232331,-52.6315789473684,4,3,0,15,0,0
232358,-1000,4,3,0,15,0,0
232385,-52.6315789473684,4,3,0,15,0,0
232411,-1000,4,3,0,15,0,0
232438,-52.6315789473684,4,3,0,15,0,0
232465,-1000,4,3,0,15,0,0
232492,-52.6315789473684,4,3,0,15,0,0
232518,-1000,4,3,0,15,0,0
232545,-52.6315789473684,4,3,0,15,0,0
232572,-1000,4,3,0,15,0,0
232599,-52.6315789473684,4,3,0,15,0,0
232626,-1000,4,3,0,15,0,0
232652,-52.6315789473684,4,3,0,15,0,0
232679,-1000,4,3,0,15,0,0
232706,-52.6315789473684,4,3,0,15,0,0
232733,-1000,4,3,0,15,0,0
232760,-52.6315789473684,4,3,0,15,0,0
232786,-1000,4,3,0,15,0,0
232813,-52.6315789473684,4,3,0,15,0,0
232840,-1000,4,3,0,15,0,0
232867,-52.6315789473684,4,3,0,15,0,0
232893,-1000,4,3,0,15,0,0
232920,-52.6315789473684,4,3,0,15,0,0
232947,-1000,4,3,0,15,0,0
232974,-52.6315789473684,4,3,0,15,0,0
233001,-1000,4,3,0,15,0,0
233027,-52.6315789473684,4,3,0,15,0,0
233054,-1000,4,3,0,15,0,0
233081,-52.6315789473684,4,3,0,15,0,0
233108,-1000,4,3,0,15,0,0
233135,-52.6315789473684,4,3,0,15,0,0
233161,-1000,4,3,0,15,0,0
233188,-52.6315789473684,4,3,0,15,0,0
233215,-1000,4,3,0,15,0,0
233242,-52.6315789473684,4,3,0,15,0,0
233268,-1000,4,3,0,15,0,0
233295,-52.6315789473684,4,3,0,15,0,0
233322,-1000,4,3,0,15,0,0
233349,-100,4,3,0,15,0,0
233777,-125,4,3,0,15,0,1
233991,-83.3333333333333,4,3,0,15,0,1
234206,-100,4,3,0,15,0,1
235063,-52.6315789473684,4,3,0,15,0,1
235089,-1000,4,3,0,15,0,1
235116,-52.6315789473684,4,3,0,15,0,1
235143,-1000,4,3,0,15,0,1
235170,-52.6315789473684,4,3,0,15,0,1
235197,-1000,4,3,0,15,0,1
235223,-52.6315789473684,4,3,0,15,0,1
235250,-1000,4,3,0,15,0,1
235277,-52.6315789473684,4,3,0,15,0,1
235304,-1000,4,3,0,15,0,1
235331,-52.6315789473684,4,3,0,15,0,1
235357,-1000,4,3,0,15,0,1
235384,-52.6315789473684,4,3,0,15,0,1
235411,-1000,4,3,0,15,0,1
235438,-52.6315789473684,4,3,0,15,0,1
235464,-1000,4,3,0,15,0,1
235491,-52.6315789473684,4,3,0,15,0,1
235545,-1000,4,3,0,15,0,1
235598,-52.6315789473684,4,3,0,15,0,1
235652,-1000,4,3,0,15,0,1
235706,-52.6315789473684,4,3,0,15,0,1
235759,-1000,4,3,0,15,0,1
235813,-52.6315789473684,4,3,0,15,0,1
235866,-1000,4,3,0,15,0,1
235920,-50,4,3,0,15,0,1
235973,-149.253731343284,4,3,0,15,0,1
236134,-52.6315789473684,4,3,0,15,0,1
236188,-1000,4,3,0,15,0,1
236241,-52.6315789473684,4,3,0,15,0,1
236295,-1000,4,3,0,15,0,1
236348,-100,4,3,0,15,0,1
237206,-83.3333333333333,4,3,0,15,0,1
237420,-125,4,3,0,15,0,1
237634,-100,4,3,0,15,0,1
239777,-52.6315789473684,4,3,0,15,0,1
239795,-1000,4,3,0,15,0,1
239813,-52.6315789473684,4,3,0,15,0,1
239831,-1000,4,3,0,15,0,1
239849,-52.6315789473684,4,3,0,15,0,1
239867,-1000,4,3,0,15,0,1
239884,-52.6315789473684,4,3,0,15,0,1
239902,-1000,4,3,0,15,0,1
239920,-52.6315789473684,4,3,0,15,0,1
239938,-1000,4,3,0,15,0,1
239956,-52.6315789473684,4,3,0,15,0,1
239974,-1000,4,3,0,15,0,1
239992,-100,4,3,0,15,0,1
240099,-52.6315789473684,4,3,0,15,0,1
240117,-1000,4,3,0,15,0,1
240134,-52.6315789473684,4,3,0,15,0,1
240152,-1000,4,3,0,15,0,1
240170,-52.6315789473684,4,3,0,15,0,1
240188,-1000,4,3,0,15,0,1
240206,-52.6315789473684,4,3,0,15,0,1
240224,-1000,4,3,0,15,0,1
240242,-52.6315789473684,4,3,0,15,0,1
240259,-1000,4,3,0,15,0,1
240277,-52.6315789473684,4,3,0,15,0,1
240295,-1000,4,3,0,15,0,1
240313,-100,4,3,0,15,0,1
240420,-52.6315789473684,4,3,0,15,0,1
240438,-1000,4,3,0,15,0,1
240456,-52.6315789473684,4,3,0,15,0,1
240474,-1000,4,3,0,15,0,1
240492,-52.6315789473684,4,3,0,15,0,1
240509,-1000,4,3,0,15,0,1
240527,-52.6315789473684,4,3,0,15,0,1
240545,-1000,4,3,0,15,0,1
240563,-52.6315789473684,4,3,0,15,0,1
240581,-1000,4,3,0,15,0,1
240599,-52.6315789473684,4,3,0,15,0,1
240617,-1000,4,3,0,15,0,1
240634,-52.6315789473684,4,3,0,15,0,1
240670,-1000,4,3,0,15,0,1
240706,-52.6315789473684,4,3,0,15,0,1
240742,-1000,4,3,0,15,0,1
240777,-52.6315789473684,4,3,0,15,0,1
240813,-1000,4,3,0,15,0,1
240849,-52.6315789473684,4,3,0,15,0,1
240884,-1000,4,3,0,15,0,1
240920,-52.6315789473684,4,3,0,15,0,1
240956,-1000,4,3,0,15,0,1
240992,-52.6315789473684,4,3,0,15,0,1
241027,-1000,4,3,0,15,0,1
241063,-83.3333333333333,4,3,0,15,0,1
241277,-100,4,3,0,15,0,1
241920,-52.6315789473684,4,3,0,15,0,1
241947,-1000,4,3,0,15,0,1
241973,-52.6315789473684,4,3,0,15,0,1
242000,-1000,4,3,0,15,0,1
242027,-52.6315789473684,4,3,0,15,0,1
242054,-1000,4,3,0,15,0,1
242081,-52.6315789473684,4,3,0,15,0,1
242107,-1000,4,3,0,15,0,1
242134,-52.6315789473684,4,3,0,15,0,1
242161,-1000,4,3,0,15,0,1
242188,-52.6315789473684,4,3,0,15,0,1
242214,-1000,4,3,0,15,0,1
242241,-52.6315789473684,4,3,0,15,0,1
242268,-1000,4,3,0,15,0,1
242295,-52.6315789473684,4,3,0,15,0,1
242322,-1000,4,3,0,15,0,1
242348,-52.6315789473684,4,3,0,15,0,1
242402,-1000,4,3,0,15,0,1
242456,-52.6315789473684,4,3,0,15,0,1
242509,-1000,4,3,0,15,0,1
242563,-52.6315789473684,4,3,0,15,0,1
242616,-1000,4,3,0,15,0,1
242670,-52.6315789473684,4,3,0,15,0,1
242723,-1000,4,3,0,15,0,1
242777,-50,4,3,0,15,0,1
242831,-149.253731343284,4,3,0,15,0,1
242991,-52.6315789473684,4,3,0,15,0,1
243045,-1000,4,3,0,15,0,1
243098,-52.6315789473684,4,3,0,15,0,1
243152,-1000,4,3,0,15,0,1
243206,-100,4,3,0,15,0,1
243634,-50,4,3,0,15,0,1
243661,-100,4,3,0,15,0,1
244277,-52.6315789473684,4,3,0,15,0,1
244313,-1000,4,3,0,15,0,1
244349,-52.6315789473684,4,3,0,15,0,1
244384,-1000,4,3,0,15,0,1
244420,-52.6315789473684,4,3,0,15,0,1
244456,-1000,4,3,0,15,0,1
244492,-52.6315789473684,4,3,0,15,0,1
244527,-1000,4,3,0,15,0,1
244563,-52.6315789473684,4,3,0,15,0,1
244599,-1000,4,3,0,15,0,1
244634,-52.6315789473684,4,3,0,15,0,1
244670,-1000,4,3,0,15,0,1
244706,-52.6315789473684,4,3,0,15,0,1
244759,-1000,4,3,0,15,0,1
244813,-52.6315789473684,4,3,0,15,0,1
244867,-1000,4,3,0,15,0,1
244920,-50,4,3,0,15,0,1
244956,-149.253731343284,4,3,0,15,0,1
245063,-50,4,3,0,15,0,1
245098,-149.253731343284,4,3,0,15,0,1
245206,-66.6666666666667,4,3,0,15,0,1
245277,-200,4,3,0,15,0,1
245348,-52.6315789473684,4,3,0,15,0,1
245384,-1000,4,3,0,15,0,1
245420,-52.6315789473684,4,3,0,15,0,1
245456,-1000,4,3,0,15,0,1
245492,-52.6315789473684,4,3,0,15,0,1
245527,-1000,4,3,0,15,0,1
245563,-52.6315789473684,4,3,0,15,0,1
245599,-1000,4,3,0,15,0,1
245634,-52.6315789473684,4,3,0,15,0,1
245670,-1000,4,3,0,15,0,1
245724,-52.6315789473684,4,3,0,15,0,1
245777,-100,4,3,0,15,0,1
245991,-58.8235294117647,4,3,0,15,0,1
246045,-333.333333333333,4,3,0,15,0,1
246098,-58.8235294117647,4,3,0,15,0,1
246152,-333.333333333333,4,3,0,15,0,1
246206,-58.8235294117647,4,3,0,15,0,1
246259,-333.333333333333,4,3,0,15,0,1
246313,-58.8235294117647,4,3,0,15,0,1
246366,-333.333333333333,4,3,0,15,0,1
246420,-58.8235294117647,4,3,0,15,0,1
246473,-333.333333333333,4,3,0,15,0,1
246527,-58.8235294117647,4,3,0,15,0,1
246581,-333.333333333333,4,3,0,15,0,1
246634,-52.6315789473684,4,3,0,15,0,1
246661,-1000,4,3,0,15,0,1
246688,-52.6315789473684,4,3,0,15,0,1
246714,-1000,4,3,0,15,0,1
246741,-52.6315789473684,4,3,0,15,0,1
246795,-1000,4,3,0,15,0,1
246848,-52.6315789473684,4,3,0,15,0,1
246902,-1000,4,3,0,15,0,1
246956,-52.6315789473684,4,3,0,15,0,1
247009,-1000,4,3,0,15,0,1
247063,-50,4,3,0,15,0,1
247116,-1000,4,3,0,15,0,1
247170,-47.6190476190476,4,3,0,15,0,1
247223,-1000,4,3,0,15,0,1
247277,-45.4545454545455,4,3,0,15,0,1
247331,-1000,4,3,0,15,0,1
247384,-43.4782608695652,4,3,0,15,0,1
247438,-1000,4,3,0,15,0,1
247491,-125,4,3,0,15,0,1
247706,-83.3333333333333,4,3,0,15,0,1
247920,-100,4,3,0,15,0,1
248777,-52.6315789473684,4,3,0,15,0,1
248804,-1000,4,3,0,15,0,1
248831,-52.6315789473684,4,3,0,15,0,1
248857,-1000,4,3,0,15,0,1
248884,-52.6315789473684,4,3,0,15,0,1
248911,-1000,4,3,0,15,0,1
248938,-52.6315789473684,4,3,0,15,0,1
248964,-1000,4,3,0,15,0,1
248991,-52.6315789473684,4,3,0,15,0,1
249018,-1000,4,3,0,15,0,1
249045,-52.6315789473684,4,3,0,15,0,1
249072,-1000,4,3,0,15,0,1
249098,-52.6315789473684,4,3,0,15,0,1
249125,-1000,4,3,0,15,0,1
249152,-52.6315789473684,4,3,0,15,0,1
249179,-1000,4,3,0,15,0,1
249206,-52.6315789473684,4,3,0,15,0,1
249259,-1000,4,3,0,15,0,1
249313,-52.6315789473684,4,3,0,15,0,1
249366,-1000,4,3,0,15,0,1
249420,-52.6315789473684,4,3,0,15,0,1
249473,-1000,4,3,0,15,0,1
249527,-52.6315789473684,4,3,0,15,0,1
249581,-1000,4,3,0,15,0,1
249634,-50,4,3,0,15,0,1
249688,-149.253731343284,4,3,0,15,0,1
249848,-52.6315789473684,4,3,0,15,0,1
249902,-1000,4,3,0,15,0,1
249956,-50,4,3,0,15,0,1
250009,-149.253731343284,4,3,0,15,0,1
250170,-100,4,3,0,15,0,1
250920,-10,4,3,0,15,0,1
250934,-333.333333333333,4,3,0,15,0,1
251134,-125,4,3,0,15,0,1
251188,-111.111111111111,4,3,0,15,0,1
251242,-90.9090909090909,4,3,0,15,0,1
251295,-83.3333333333334,4,3,0,15,0,1
251349,-100,4,3,0,15,0,1
251563,-149.253731343284,4,3,0,15,0,1
251723,-50,4,3,0,15,0,1
251777,-100,4,3,0,15,0,1
255206,-75.187969924812,4,3,0,15,0,1
255259,-149.253731343284,4,3,0,15,0,1
255313,-50,4,3,0,15,0,1
255366,-149.253731343284,4,3,0,15,0,1
255527,-75.187969924812,4,3,0,15,0,1
255581,-149.253731343284,4,3,0,15,0,1
255634,-52.6315789473684,4,3,0,15,0,1
255661,-1000,4,3,0,15,0,1
255688,-52.6315789473684,4,3,0,15,0,1
255714,-1000,4,3,0,15,0,1
255741,-52.6315789473684,4,3,0,15,0,1
255768,-1000,4,3,0,15,0,1
255795,-52.6315789473684,4,3,0,15,0,1
255822,-1000,4,3,0,15,0,1
255848,-52.6315789473684,4,3,0,15,0,1
255875,-1000,4,3,0,15,0,1
255902,-52.6315789473684,4,3,0,15,0,1
255929,-1000,4,3,0,15,0,1
255956,-52.6315789473684,4,3,0,15,0,1
255982,-1000,4,3,0,15,0,1
256009,-52.6315789473684,4,3,0,15,0,1
256036,-1000,4,3,0,15,0,1
256063,-52.6315789473684,4,3,0,15,0,1
256116,-1000,4,3,0,15,0,1
256170,-52.6315789473684,4,3,0,15,0,1
256223,-1000,4,3,0,15,0,1
256277,-52.6315789473684,4,3,0,15,0,1
256331,-1000,4,3,0,15,0,1
256384,-52.6315789473684,4,3,0,15,0,1
256438,-1000,4,3,0,15,0,1
256491,-50,4,3,0,15,0,1
256545,-149.253731343284,4,3,0,15,0,1
256706,-52.6315789473684,4,3,0,15,0,1
256759,-1000,4,3,0,15,0,1
256813,-52.6315789473684,4,3,0,15,0,1
256866,-1000,4,3,0,15,0,1
256920,-100,4,3,0,15,0,1
257027,-52.6315789473684,4,3,0,15,0,1
257054,-1000,4,3,0,15,0,1
257081,-52.6315789473684,4,3,0,15,0,1
257107,-1000,4,3,0,15,0,1
257134,-52.6315789473684,4,3,0,15,0,1
257188,-1000,4,3,0,15,0,1
257241,-52.6315789473684,4,3,0,15,0,1
257295,-1000,4,3,0,15,0,1
257348,-100,4,3,0,15,0,1
257777,-32.258064516129,4,3,0,15,0,1
257831,-142.857142857143,4,3,0,15,0,1
258206,-32.258064516129,4,3,0,15,0,1
258259,-142.857142857143,4,3,0,15,0,1
258741,-52.6315789473684,4,3,0,15,0,1
258777,-100,4,3,0,15,0,1
259063,-95.2380952380952,4,3,0,15,0,1
259170,-90.9090909090909,4,3,0,15,0,1
259277,-86.9565217391304,4,3,0,15,0,1
259384,-83.3333333333333,4,3,0,15,0,1
259492,-200,4,3,0,15,0,0
259545,-1000,4,3,0,15,0,0
259599,-200,4,3,0,15,0,0
259652,-1000,4,3,0,15,0,0
259706,-200,4,3,0,15,0,0
259760,-1000,4,3,0,15,0,0
259813,-200,4,3,0,15,0,0
259867,-1000,4,3,0,15,0,0
259920,-100,4,3,0,15,0,0
259974,-1000,4,3,0,15,0,0
260027,-200,4,3,0,15,0,0
260081,-1000,4,3,0,15,0,0
260135,-100,4,3,0,15,0,0
260188,-1000,4,3,0,15,0,0
260242,-200,4,3,0,15,0,0
260295,-1000,4,3,0,15,0,0
260349,-100,4,3,0,15,0,0
260402,-1000,4,3,0,15,0,0
260456,-200,4,3,0,15,0,0
260510,-1000,4,3,0,15,0,0
260563,-66.6666666666667,4,3,0,15,0,0
260617,-1000,4,3,0,15,0,0
260670,-200,4,3,0,15,0,0
260724,-1000,4,3,0,15,0,0
260777,-100,4,3,0,15,0,0
260831,-1000,4,3,0,15,0,0
260885,-200,4,3,0,15,0,0
260938,-1000,4,3,0,15,0,0
260992,-142.857142857143,4,3,0,15,0,0
261045,-1000,4,3,0,15,0,0
261099,-111.111111111111,4,3,0,15,0,0
261152,-1000,4,3,0,15,0,0
261206,-125,4,3,0,15,0,0
261313,-83.3333333333333,4,3,0,15,0,0
261420,-100,4,3,0,15,0,0
262920,-50,4,3,0,15,0,0
262973,-149.253731343284,4,3,0,15,0,0
263134,-50,4,3,0,15,0,0
263188,-149.253731343284,4,3,0,15,0,0
263348,-50,4,3,0,15,0,0
263402,-149.253731343284,4,3,0,15,0,0
263563,-100,4,3,0,15,0,0
264634,-50,4,3,0,15,0,0
264688,-149.253731343284,4,3,0,15,0,0
264848,-50,4,3,0,15,0,0
264902,-149.253731343284,4,3,0,15,0,0
265063,-50,4,3,0,15,0,0
265116,-149.253731343284,4,3,0,15,0,0
265277,-100,4,3,0,15,0,0
268063,-125,4,3,0,15,0,0
268170,-83.3333333333333,4,3,0,15,0,0
268277,-100,4,3,0,15,0,0
269777,-50,4,3,0,15,0,0
269831,-149.253731343284,4,3,0,15,0,0
269991,-50,4,3,0,15,0,0
270045,-149.253731343284,4,3,0,15,0,0
270206,-50,4,3,0,15,0,0
270259,-149.253731343284,4,3,0,15,0,0
270420,-100,4,3,0,15,0,0
271491,-50,4,3,0,15,0,0
271545,-149.253731343284,4,3,0,15,0,0
271706,-50,4,3,0,15,0,0
271759,-149.253731343284,4,3,0,15,0,0
271920,-50,4,3,0,15,0,0
271973,-149.253731343284,4,3,0,15,0,0
272134,-100,4,3,0,15,0,0
273848,-90.9090909090909,4,3,0,15,0,0
273902,-83.3333333333333,4,3,0,15,0,0
273956,-52.6315789473684,4,3,0,15,0,0
273982,-1000,4,3,0,15,0,0
274009,-52.6315789473684,4,3,0,15,0,0
274036,-1000,4,3,0,15,0,0
274063,-40,4,3,0,15,0,0
274089,-200,4,3,0,15,0,0
274170,-22.2222222222222,4,3,0,15,0,0
274197,-200,4,3,0,15,0,0
274384,-15.3846153846154,4,3,0,15,0,0
274411,-200,4,3,0,15,0,0
274706,-100,4,3,0,15,0,0
274920,-50,4,3,0,15,0,0
274974,-83.3333333333333,4,3,0,15,0,0
275349,-100,4,3,0,15,0,0
276635,-66.6666666666667,4,3,0,15,0,0
276688,-149.253731343284,4,3,0,15,0,0
276849,-66.6666666666667,4,3,0,15,0,0
276902,-149.253731343284,4,3,0,15,0,0
277063,-66.6666666666667,4,3,0,15,0,0
277117,-149.253731343284,4,3,0,15,0,0
277277,-100,4,3,0,15,0,0
278349,-66.6666666666667,4,3,0,15,0,0
278402,-149.253731343284,4,3,0,15,0,0
278563,-66.6666666666667,4,3,0,15,0,0
278617,-149.253731343284,4,3,0,15,0,0
278777,-66.6666666666667,4,3,0,15,0,0
278831,-149.253731343284,4,3,0,15,0,0
278992,-100,4,3,0,15,0,0
281777,-50,4,3,0,15,0,0
281831,-149.253731343284,4,3,0,15,0,0
281992,-100,4,3,0,15,0,0
283492,-50,4,3,0,15,0,0
283545,-149.253731343284,4,3,0,15,0,0
283706,-50,4,3,0,15,0,0
283760,-149.253731343284,4,3,0,15,0,0
283920,-50,4,3,0,15,0,0
283974,-149.253731343284,4,3,0,15,0,0
284135,-100,4,3,0,15,0,0
285206,-50,4,3,0,15,0,0
285260,-149.253731343284,4,3,0,15,0,0
285420,-50,4,3,0,15,0,0
285474,-149.253731343284,4,3,0,15,0,0
285635,-50,4,3,0,15,0,0
285688,-149.253731343284,4,3,0,15,0,0
285849,-66.6666666666667,4,3,0,15,0,0
285902,-200,4,3,0,15,0,0
285956,-52.6315789473684,4,3,0,15,0,0
285983,-1000,4,3,0,15,0,0
286009,-52.6315789473684,4,3,0,15,0,0
286036,-1000,4,3,0,15,0,0
286063,-100,4,3,0,15,0,0
286920,-52.6315789473684,4,3,0,15,0,0
286974,-1000,4,3,0,15,0,0
287027,-52.6315789473684,4,3,0,15,0,0
287081,-1000,4,3,0,15,0,0
287135,-52.6315789473684,4,3,0,15,0,0
287152,-1000,4,3,0,15,0,0
287170,-52.6315789473684,4,3,0,15,0,0
287188,-1000,4,3,0,15,0,0
287206,-52.6315789473684,4,3,0,15,0,0
287224,-1000,4,3,0,15,0,0
287242,-52.6315789473684,4,3,0,15,0,0
287268,-1000,4,3,0,15,0,0
287295,-52.6315789473684,4,3,0,15,0,0
287322,-1000,4,3,0,15,0,0
287349,-52.6315789473684,4,3,0,15,0,0
287402,-1000,4,3,0,15,0,0
287456,-52.6315789473684,4,3,0,15,0,0
287509,-1000,4,3,0,15,0,0
287563,-52.6315789473684,4,3,0,15,0,0
287581,-1000,4,3,0,15,0,0
287599,-52.6315789473684,4,3,0,15,0,0
287617,-1000,4,3,0,15,0,0
287634,-52.6315789473684,4,3,0,15,0,0
287652,-1000,4,3,0,15,0,0
287670,-52.6315789473684,4,3,0,15,0,0
287697,-1000,4,3,0,15,0,0
287724,-52.6315789473684,4,3,0,15,0,0
287751,-1000,4,3,0,15,0,0
287777,-50,4,3,0,15,0,0
287831,-149.253731343284,4,3,0,15,0,0
287992,-100,4,3,0,15,0,0
288099,-50,4,3,0,15,0,0
288152,-149.253731343284,4,3,0,15,0,0
288313,-100,4,3,0,15,0,0
288420,-52.6315789473684,4,3,0,15,0,0
288447,-1000,4,3,0,15,0,0
288474,-52.6315789473684,4,3,0,15,0,0
288501,-1000,4,3,0,15,0,0
288527,-52.6315789473684,4,3,0,15,0,0
288554,-1000,4,3,0,15,0,0
288581,-52.6315789473684,4,3,0,15,0,0
288608,-1000,4,3,0,15,0,0
288634,-500,4,3,0,15,0,0
295492,-43.4782608695652,4,3,0,15,0,0
295518,-1000,4,3,0,15,0,0
295545,-43.4782608695652,4,3,0,15,0,0
295571,-1000,4,3,0,15,0,0
295599,-43.4782608695652,4,3,0,15,0,0
295625,-1000,4,3,0,15,0,0
295652,-43.4782608695652,4,3,0,15,0,0
295678,-1000,4,3,0,15,0,0
295706,-43.4782608695652,4,3,0,15,0,0
295732,-1000,4,3,0,15,0,0
295760,-43.4782608695652,4,3,0,15,0,0
295786,-1000,4,3,0,15,0,0
295813,-43.4782608695652,4,3,0,15,0,0
295839,-1000,4,3,0,15,0,0
295867,-43.4782608695652,4,3,0,15,0,0
295893,-1000,4,3,0,15,0,0
295920,-43.4782608695652,4,3,0,15,0,0
295946,-1000,4,3,0,15,0,0
295974,-43.4782608695652,4,3,0,15,0,0
296000,-1000,4,3,0,15,0,0
296027,-43.4782608695652,4,3,0,15,0,0
296053,-1000,4,3,0,15,0,0
296081,-43.4782608695652,4,3,0,15,0,0
296107,-1000,4,3,0,15,0,0
296135,-43.4782608695652,4,3,0,15,0,0
296161,-1000,4,3,0,15,0,0
296188,-43.4782608695652,4,3,0,15,0,0
296214,-1000,4,3,0,15,0,0
296242,-43.4782608695652,4,3,0,15,0,0
296268,-1000,4,3,0,15,0,0
296295,-43.4782608695652,4,3,0,15,0,0
296321,-1000,4,3,0,15,0,0
296349,-43.4782608695652,4,3,0,15,0,0
296375,-1000,4,3,0,15,0,0
296402,-43.4782608695652,4,3,0,15,0,0
296428,-1000,4,3,0,15,0,0
296456,-43.4782608695652,4,3,0,15,0,0
296482,-1000,4,3,0,15,0,0
296510,-43.4782608695652,4,3,0,15,0,0
296536,-1000,4,3,0,15,0,0
296563,-43.4782608695652,4,3,0,15,0,0
296589,-1000,4,3,0,15,0,0
296617,-43.4782608695652,4,3,0,15,0,0
296643,-1000,4,3,0,15,0,0
296670,-43.4782608695652,4,3,0,15,0,0
296696,-1000,4,3,0,15,0,0
296724,-43.4782608695652,4,3,0,15,0,0
296750,-1000,4,3,0,15,0,0
296777,-43.4782608695652,4,3,0,15,0,0
296803,-1000,4,3,0,15,0,0
296831,-43.4782608695652,4,3,0,15,0,0
296857,-1000,4,3,0,15,0,0
296885,-43.4782608695652,4,3,0,15,0,0
296911,-1000,4,3,0,15,0,0
296938,-43.4782608695652,4,3,0,15,0,0
296964,-1000,4,3,0,15,0,0
296992,-43.4782608695652,4,3,0,15,0,0
297018,-1000,4,3,0,15,0,0
297045,-43.4782608695652,4,3,0,15,0,0
297071,-1000,4,3,0,15,0,0
297099,-43.4782608695652,4,3,0,15,0,0
297125,-1000,4,3,0,15,0,0
297152,-43.4782608695652,4,3,0,15,0,0
297178,-1000,4,3,0,15,0,0
297206,-43.4782608695652,4,3,0,15,0,0
297232,-1000,4,3,0,15,0,0
297260,-43.4782608695652,4,3,0,15,0,0
297286,-1000,4,3,0,15,0,0
297313,-43.4782608695652,4,3,0,15,0,0
297339,-1000,4,3,0,15,0,0
297367,-43.4782608695652,4,3,0,15,0,0
297393,-1000,4,3,0,15,0,0
297420,-43.4782608695652,4,3,0,15,0,0
297446,-1000,4,3,0,15,0,0
297474,-43.4782608695652,4,3,0,15,0,0
297500,-1000,4,3,0,15,0,0
297527,-43.4782608695652,4,3,0,15,0,0
297553,-1000,4,3,0,15,0,0
297581,-43.4782608695652,4,3,0,15,0,0
297607,-1000,4,3,0,15,0,0
297635,-43.4782608695652,4,3,0,15,0,0
297661,-1000,4,3,0,15,0,0
297688,-43.4782608695652,4,3,0,15,0,0
297714,-1000,4,3,0,15,0,0
297742,-43.4782608695652,4,3,0,15,0,0
297768,-1000,4,3,0,15,0,0
297795,-43.4782608695652,4,3,0,15,0,0
297821,-1000,4,3,0,15,0,0
297849,-43.4782608695652,4,3,0,15,0,0
297875,-1000,4,3,0,15,0,0
297902,-43.4782608695652,4,3,0,15,0,0
297928,-1000,4,3,0,15,0,0
297956,-43.4782608695652,4,3,0,15,0,0
297982,-1000,4,3,0,15,0,0
298010,-43.4782608695652,4,3,0,15,0,0
298036,-1000,4,3,0,15,0,0
298063,-43.4782608695652,4,3,0,15,0,0
298089,-1000,4,3,0,15,0,0
298117,-43.4782608695652,4,3,0,15,0,0
298143,-1000,4,3,0,15,0,0
298170,-43.4782608695652,4,3,0,15,0,0
298196,-1000,4,3,0,15,0,0
298224,-43.4782608695652,4,3,0,15,0,0
298250,-1000,4,3,0,15,0,0
298277,-43.4782608695652,4,3,0,15,0,0
298303,-1000,4,3,0,15,0,0
298331,-43.4782608695652,4,3,0,15,0,0
298357,-1000,4,3,0,15,0,0
298385,-43.4782608695652,4,3,0,15,0,0
298411,-1000,4,3,0,15,0,0
298438,-43.4782608695652,4,3,0,15,0,0
298464,-1000,4,3,0,15,0,0
298492,-43.4782608695652,4,3,0,15,0,0
298518,-1000,4,3,0,15,0,0
298545,-43.4782608695652,4,3,0,15,0,0
298571,-1000,4,3,0,15,0,0
298599,-43.4782608695652,4,3,0,15,0,0
298625,-1000,4,3,0,15,0,0
298652,-43.4782608695652,4,3,0,15,0,0
298678,-1000,4,3,0,15,0,0
298706,-43.4782608695652,4,3,0,15,0,0
298732,-1000,4,3,0,15,0,0
298760,-43.4782608695652,4,3,0,15,0,0
298786,-1000,4,3,0,15,0,0
298813,-43.4782608695652,4,3,0,15,0,0
298839,-1000,4,3,0,15,0,0
298867,-43.4782608695652,4,3,0,15,0,0
298893,-1000,4,3,0,15,0,0
298920,-43.4782608695652,4,3,0,15,0,0
298946,-1000,4,3,0,15,0,0
298974,-43.4782608695652,4,3,0,15,0,0
299000,-1000,4,3,0,15,0,0
299027,-43.4782608695652,4,3,0,15,0,0
299053,-1000,4,3,0,15,0,0
299081,-43.4782608695652,4,3,0,15,0,0
299107,-1000,4,3,0,15,0,0
299135,-43.4782608695652,4,3,0,15,0,0
299161,-1000,4,3,0,15,0,0
299188,-43.4782608695652,4,3,0,15,0,0
299214,-1000,4,3,0,15,0,0
299242,-43.4782608695652,4,3,0,15,0,0
299268,-1000,4,3,0,15,0,0
299295,-43.4782608695652,4,3,0,15,0,0
299321,-1000,4,3,0,15,0,0
299349,-43.4782608695652,4,3,0,15,0,0
299375,-1000,4,3,0,15,0,0
299402,-43.4782608695652,4,3,0,15,0,0
299428,-1000,4,3,0,15,0,0
299456,-43.4782608695652,4,3,0,15,0,0
299482,-1000,4,3,0,15,0,0
299510,-43.4782608695652,4,3,0,15,0,0
299536,-1000,4,3,0,15,0,0
299563,-43.4782608695652,4,3,0,15,0,0
299589,-1000,4,3,0,15,0,0
299617,-43.4782608695652,4,3,0,15,0,0
299643,-1000,4,3,0,15,0,0
299670,-43.4782608695652,4,3,0,15,0,0
299696,-1000,4,3,0,15,0,0
299724,-43.4782608695652,4,3,0,15,0,0
299750,-1000,4,3,0,15,0,0
299777,-43.4782608695652,4,3,0,15,0,0
299803,-1000,4,3,0,15,0,0
299831,-43.4782608695652,4,3,0,15,0,0
299857,-1000,4,3,0,15,0,0
299885,-43.4782608695652,4,3,0,15,0,0
299911,-1000,4,3,0,15,0,0
299938,-43.4782608695652,4,3,0,15,0,0
299964,-1000,4,3,0,15,0,0
299992,-43.4782608695652,4,3,0,15,0,0
300018,-1000,4,3,0,15,0,0
300045,-43.4782608695652,4,3,0,15,0,0
300071,-1000,4,3,0,15,0,0
300099,-43.4782608695652,4,3,0,15,0,0
300125,-1000,4,3,0,15,0,0
300152,-43.4782608695652,4,3,0,15,0,0
300178,-1000,4,3,0,15,0,0
300206,-43.4782608695652,4,3,0,15,0,0
300232,-1000,4,3,0,15,0,0
300260,-43.4782608695652,4,3,0,15,0,0
300286,-1000,4,3,0,15,0,0
300313,-43.4782608695652,4,3,0,15,0,0
300339,-1000,4,3,0,15,0,0
300367,-43.4782608695652,4,3,0,15,0,0
300393,-1000,4,3,0,15,0,0
300420,-43.4782608695652,4,3,0,15,0,0
300446,-1000,4,3,0,15,0,0
300474,-43.4782608695652,4,3,0,15,0,0
300500,-1000,4,3,0,15,0,0
300527,-43.4782608695652,4,3,0,15,0,0
300553,-1000,4,3,0,15,0,0
300581,-43.4782608695652,4,3,0,15,0,0
300607,-1000,4,3,0,15,0,0
300635,-43.4782608695652,4,3,0,15,0,0
300661,-1000,4,3,0,15,0,0
300688,-43.4782608695652,4,3,0,15,0,0
300714,-1000,4,3,0,15,0,0
300742,-43.4782608695652,4,3,0,15,0,0
300768,-1000,4,3,0,15,0,0
300795,-43.4782608695652,4,3,0,15,0,0
300821,-1000,4,3,0,15,0,0
300849,-43.4782608695652,4,3,0,15,0,0
300875,-1000,4,3,0,15,0,0
300902,-43.4782608695652,4,3,0,15,0,0
300928,-1000,4,3,0,15,0,0
300956,-43.4782608695652,4,3,0,15,0,0
300982,-1000,4,3,0,15,0,0
301010,-43.4782608695652,4,3,0,15,0,0
301036,-1000,4,3,0,15,0,0
301063,-43.4782608695652,4,3,0,15,0,0
301089,-1000,4,3,0,15,0,0
301117,-43.4782608695652,4,3,0,15,0,0
301143,-1000,4,3,0,15,0,0
301170,-43.4782608695652,4,3,0,15,0,0
301196,-1000,4,3,0,15,0,0
301224,-43.4782608695652,4,3,0,15,0,0
301250,-1000,4,3,0,15,0,0
301277,-43.4782608695652,4,3,0,15,0,0
301303,-1000,4,3,0,15,0,0
301331,-43.4782608695652,4,3,0,15,0,0
301357,-1000,4,3,0,15,0,0
301385,-43.4782608695652,4,3,0,15,0,0
301411,-1000,4,3,0,15,0,0
301438,-43.4782608695652,4,3,0,15,0,0
301464,-1000,4,3,0,15,0,0
301492,-100,4,3,0,15,0,0

[HitObjects]
475,192,635,5,0,0:0:0:0:
402,192,635,1,0,0:0:0:0:
329,192,635,1,0,0:0:0:0:
36,192,635,128,0,849:0:0:0:0:
109,192,635,128,0,849:0:0:0:0:
256,192,635,1,0,0:0:0:0:
182,192,849,1,0,0:0:0:0:
475,192,849,1,0,0:0:0:0:
402,192,902,1,0,0:0:0:0:
256,192,956,1,0,0:0:0:0:
329,192,1010,1,0,0:0:0:0:
475,192,1063,1,0,0:0:0:0:
36,192,1063,1,0,0:0:0:0:
109,192,1063,1,0,0:0:0:0:
402,192,1063,1,0,0:0:0:0:
329,192,1277,1,0,0:0:0:0:
182,192,1277,1,0,0:0:0:0:
475,192,1385,1,0,0:0:0:0:
402,192,1385,1,0,0:0:0:0:
36,192,1385,1,0,0:0:0:0:
256,192,1492,1,0,0:0:0:0:
182,192,1492,1,0,0:0:0:0:
109,192,1492,1,0,0:0:0:0:
475,192,1599,1,0,0:0:0:0:
402,192,1599,1,0,0:0:0:0:
36,192,1599,1,0,0:0:0:0:
475,192,1706,1,0,0:0:0:0:
256,192,1706,1,0,0:0:0:0:
182,192,1706,1,0,0:0:0:0:
329,192,1813,1,0,0:0:0:0:
109,192,1813,1,0,0:0:0:0:
36,192,1813,1,0,0:0:0:0:
256,192,1920,1,0,0:0:0:0:
36,192,1920,1,0,0:0:0:0:
182,192,1920,1,0,0:0:0:0:
402,192,1920,128,0,2135:0:0:0:0:
475,192,2135,1,0,0:0:0:0:
256,192,2135,1,0,0:0:0:0:
109,192,2135,1,0,0:0:0:0:
329,192,2188,1,0,0:0:0:0:
402,192,2242,1,0,0:0:0:0:
182,192,2242,1,0,0:0:0:0:
256,192,2295,1,0,0:0:0:0:
329,192,2349,1,0,0:0:0:0:
36,192,2349,1,0,0:0:0:0:
109,192,2349,1,0,0:0:0:0:
475,192,2349,1,0,0:0:0:0:
109,192,2563,1,0,0:0:0:0:
36,192,2563,1,0,0:0:0:0:
329,192,2563,1,0,0:0:0:0:
475,192,2777,1,0,0:0:0:0:
402,192,2777,1,0,0:0:0:0:
182,192,2777,1,0,0:0:0:0:
36,192,2777,1,0,0:0:0:0:
329,192,2992,1,0,0:0:0:0:
36,192,2992,1,0,0:0:0:0:
475,192,3099,1,0,0:0:0:0:
329,192,3099,1,0,0:0:0:0:
109,192,3099,1,0,0:0:0:0:
182,192,3206,1,0,0:0:0:0:
36,192,3206,1,0,0:0:0:0:
256,192,3206,1,0,0:0:0:0:
329,192,3313,1,0,0:0:0:0:
402,192,3313,1,0,0:0:0:0:
182,192,3313,1,0,0:0:0:0:
475,192,3420,1,0,0:0:0:0:
256,192,3420,1,0,0:0:0:0:
36,192,3420,128,0,3527:0:0:0:0:
402,192,3420,1,0,0:0:0:0:
109,192,3456,128,0,3527:0:0:0:0:
182,192,3492,128,0,3527:0:0:0:0:
329,192,3527,1,0,0:0:0:0:
109,192,3635,1,0,0:0:0:0:
36,192,3635,1,0,0:0:0:0:
475,192,3635,1,0,0:0:0:0:
402,192,3635,1,0,0:0:0:0:
475,192,3849,1,0,0:0:0:0:
256,192,3849,1,0,0:0:0:0:
36,192,3849,128,0,3956:0:0:0:0:
402,192,3849,1,0,0:0:0:0:
109,192,3885,128,0,3956:0:0:0:0:
329,192,3920,1,0,0:0:0:0:
182,192,3920,128,0,3956:0:0:0:0:
402,192,3992,1,0,0:0:0:0:
475,192,3992,1,0,0:0:0:0:
36,192,4063,1,0,0:0:0:0:
109,192,4063,1,0,0:0:0:0:
256,192,4063,1,0,0:0:0:0:
329,192,4063,1,0,0:0:0:0:
109,192,4277,1,0,0:0:0:0:
36,192,4277,1,0,0:0:0:0:
329,192,4277,1,0,0:0:0:0:
475,192,4492,1,0,0:0:0:0:
402,192,4492,1,0,0:0:0:0:
182,192,4492,1,0,0:0:0:0:
36,192,4492,1,0,0:0:0:0:
329,192,4706,1,0,0:0:0:0:
109,192,4706,1,0,0:0:0:0:
402,192,4813,1,0,0:0:0:0:
256,192,4813,1,0,0:0:0:0:
182,192,4813,1,0,0:0:0:0:
329,192,4920,1,0,0:0:0:0:
109,192,4920,1,0,0:0:0:0:
475,192,4920,1,0,0:0:0:0:
36,192,4920,1,0,0:0:0:0:
182,192,4956,1,0,0:0:0:0:
475,192,5027,1,0,0:0:0:0:
329,192,5027,1,0,0:0:0:0:
109,192,5063,1,0,0:0:0:0:
36,192,5063,1,0,0:0:0:0:
182,192,5099,1,0,0:0:0:0:
256,192,5135,1,0,0:0:0:0:
109,192,5206,1,0,0:0:0:0:
36,192,5206,1,0,0:0:0:0:
182,192,5242,1,0,0:0:0:0:
329,192,5242,1,0,0:0:0:0:
475,192,5349,1,0,0:0:0:0:
402,192,5349,1,0,0:0:0:0:
36,192,5349,1,0,0:0:0:0:
109,192,5385,1,0,0:0:0:0:
182,192,5420,1,0,0:0:0:0:
256,192,5456,1,0,0:0:0:0:
329,192,5492,1,0,0:0:0:0:
402,192,5527,1,0,0:0:0:0:
36,192,5563,1,0,0:0:0:0:
475,192,5563,1,0,0:0:0:0:
109,192,5563,1,0,0:0:0:0:
182,192,5599,1,0,0:0:0:0:
256,192,5635,1,0,0:0:0:0:
329,192,5670,1,0,0:0:0:0:
109,192,5706,1,0,0:0:0:0:
182,192,5742,1,0,0:0:0:0:
475,192,5777,1,0,0:0:0:0:
256,192,5777,1,0,0:0:0:0:
402,192,5777,1,0,0:0:0:0:
475,192,5992,1,0,0:0:0:0:
182,192,5992,1,0,0:0:0:0:
36,192,5992,1,0,0:0:0:0:
402,192,6027,1,0,0:0:0:0:
329,192,6063,1,0,0:0:0:0:
256,192,6099,1,0,0:0:0:0:
475,192,6206,1,0,0:0:0:0:
402,192,6206,1,0,0:0:0:0:
109,192,6206,1,0,0:0:0:0:
36,192,6206,1,0,0:0:0:0:
475,192,6420,1,0,0:0:0:0:
109,192,6420,1,0,0:0:0:0:
36,192,6420,1,0,0:0:0:0:
402,192,6456,1,0,0:0:0:0:
329,192,6492,1,0,0:0:0:0:
256,192,6527,1,0,0:0:0:0:
182,192,6527,1,0,0:0:0:0:
109,192,6635,1,0,0:0:0:0:
36,192,6635,1,0,0:0:0:0:
402,192,6635,1,0,0:0:0:0:
329,192,6742,1,0,0:0:0:0:
256,192,6742,1,0,0:0:0:0:
182,192,6742,1,0,0:0:0:0:
36,192,6849,1,0,0:0:0:0:
475,192,6849,1,0,0:0:0:0:
109,192,6849,1,0,0:0:0:0:
402,192,6885,1,0,0:0:0:0:
329,192,6920,1,0,0:0:0:0:
256,192,6956,1,0,0:0:0:0:
109,192,6956,1,0,0:0:0:0:
36,192,6956,1,0,0:0:0:0:
475,192,7063,1,0,0:0:0:0:
402,192,7063,1,0,0:0:0:0:
329,192,7063,1,0,0:0:0:0:
182,192,7063,1,0,0:0:0:0:
256,192,7170,1,0,0:0:0:0:
329,192,7206,1,0,0:0:0:0:
402,192,7242,1,0,0:0:0:0:
475,192,7277,1,0,0:0:0:0:
109,192,7277,1,0,0:0:0:0:
36,192,7277,1,0,0:0:0:0:
182,192,7349,1,0,0:0:0:0:
329,192,7420,1,0,0:0:0:0:
402,192,7492,1,0,0:0:0:0:
182,192,7492,1,0,0:0:0:0:
475,192,7492,1,0,0:0:0:0:
256,192,7492,1,0,0:0:0:0:
109,192,7492,128,0,7706:0:0:0:0:
36,192,7492,128,0,7706:0:0:0:0:
475,192,7706,1,0,0:0:0:0:
182,192,7706,1,0,0:0:0:0:
402,192,7760,1,0,0:0:0:0:
256,192,7813,1,0,0:0:0:0:
329,192,7867,1,0,0:0:0:0:
475,192,7920,1,0,0:0:0:0:
182,192,7920,1,0,0:0:0:0:
402,192,7920,1,0,0:0:0:0:
36,192,7920,1,0,0:0:0:0:
182,192,8135,1,0,0:0:0:0:
329,192,8135,1,0,0:0:0:0:
475,192,8242,1,0,0:0:0:0:
329,192,8242,1,0,0:0:0:0:
109,192,8242,1,0,0:0:0:0:
402,192,8349,1,0,0:0:0:0:
256,192,8349,1,0,0:0:0:0:
36,192,8349,1,0,0:0:0:0:
182,192,8456,1,0,0:0:0:0:
36,192,8456,1,0,0:0:0:0:
329,192,8456,1,0,0:0:0:0:
475,192,8563,1,0,0:0:0:0:
256,192,8563,1,0,0:0:0:0:
109,192,8563,1,0,0:0:0:0:
475,192,8670,1,0,0:0:0:0:
329,192,8670,1,0,0:0:0:0:
182,192,8670,1,0,0:0:0:0:
402,192,8777,1,0,0:0:0:0:
256,192,8777,1,0,0:0:0:0:
109,192,8777,1,0,0:0:0:0:
36,192,8777,1,0,0:0:0:0:
475,192,8992,1,0,0:0:0:0:
36,192,8992,1,0,0:0:0:0:
256,192,8992,1,0,0:0:0:0:
109,192,9045,1,0,0:0:0:0:
182,192,9099,1,0,0:0:0:0:
329,192,9099,1,0,0:0:0:0:
402,192,9152,1,0,0:0:0:0:
475,192,9206,1,0,0:0:0:0:
256,192,9206,1,0,0:0:0:0:
109,192,9206,1,0,0:0:0:0:
36,192,9206,1,0,0:0:0:0:
109,192,9420,1,0,0:0:0:0:
36,192,9420,1,0,0:0:0:0:
329,192,9420,1,0,0:0:0:0:
109,192,9635,1,0,0:0:0:0:
36,192,9635,1,0,0:0:0:0:
475,192,9635,1,0,0:0:0:0:
256,192,9635,1,0,0:0:0:0:
36,192,9849,1,0,0:0:0:0:
402,192,9849,1,0,0:0:0:0:
402,192,9956,1,0,0:0:0:0:
256,192,9956,1,0,0:0:0:0:
109,192,9956,1,0,0:0:0:0:
182,192,10063,1,0,0:0:0:0:
36,192,10063,1,0,0:0:0:0:
475,192,10063,1,0,0:0:0:0:
256,192,10170,1,0,0:0:0:0:
36,192,10170,1,0,0:0:0:0:
329,192,10170,1,0,0:0:0:0:
109,192,10277,1,0,0:0:0:0:
182,192,10277,1,0,0:0:0:0:
475,192,10277,128,0,10385:0:0:0:0:
402,192,10313,128,0,10385:0:0:0:0:
329,192,10349,128,0,10385:0:0:0:0:
182,192,10385,1,0,0:0:0:0:
475,192,10492,1,0,0:0:0:0:
402,192,10492,1,0,0:0:0:0:
256,192,10492,1,0,0:0:0:0:
109,192,10492,1,0,0:0:0:0:
475,192,10706,128,0,10813:0:0:0:0:
36,192,10706,1,0,0:0:0:0:
256,192,10706,1,0,0:0:0:0:
109,192,10706,1,0,0:0:0:0:
402,192,10742,128,0,10813:0:0:0:0:
329,192,10777,128,0,10813:0:0:0:0:
182,192,10777,1,0,0:0:0:0:
109,192,10849,1,0,0:0:0:0:
36,192,10849,1,0,0:0:0:0:
475,192,10920,1,0,0:0:0:0:
402,192,10920,1,0,0:0:0:0:
256,192,10920,1,0,0:0:0:0:
182,192,10920,1,0,0:0:0:0:
475,192,11135,1,0,0:0:0:0:
402,192,11135,1,0,0:0:0:0:
182,192,11135,1,0,0:0:0:0:
475,192,11349,1,0,0:0:0:0:
402,192,11349,1,0,0:0:0:0:
256,192,11349,1,0,0:0:0:0:
36,192,11349,1,0,0:0:0:0:
182,192,11563,1,0,0:0:0:0:
402,192,11563,1,0,0:0:0:0:
256,192,11670,1,0,0:0:0:0:
109,192,11670,1,0,0:0:0:0:
329,192,11670,1,0,0:0:0:0:
402,192,11777,1,0,0:0:0:0:
36,192,11777,1,0,0:0:0:0:
182,192,11777,1,0,0:0:0:0:
475,192,11777,1,0,0:0:0:0:
329,192,11813,1,0,0:0:0:0:
36,192,11885,1,0,0:0:0:0:
182,192,11885,1,0,0:0:0:0:
475,192,11920,1,0,0:0:0:0:
402,192,11920,1,0,0:0:0:0:
329,192,11956,1,0,0:0:0:0:
256,192,11992,1,0,0:0:0:0:
475,192,12063,1,0,0:0:0:0:
402,192,12063,1,0,0:0:0:0:
182,192,12099,1,0,0:0:0:0:
329,192,12099,1,0,0:0:0:0:
36,192,12206,1,0,0:0:0:0:
109,192,12206,1,0,0:0:0:0:
475,192,12206,1,0,0:0:0:0:
402,192,12242,1,0,0:0:0:0:
329,192,12277,1,0,0:0:0:0:
256,192,12313,1,0,0:0:0:0:
182,192,12349,1,0,0:0:0:0:
109,192,12385,1,0,0:0:0:0:
402,192,12420,1,0,0:0:0:0:
475,192,12420,1,0,0:0:0:0:
36,192,12420,1,0,0:0:0:0:
329,192,12456,1,0,0:0:0:0:
256,192,12492,1,0,0:0:0:0:
182,192,12527,1,0,0:0:0:0:
402,192,12563,1,0,0:0:0:0:
329,192,12599,1,0,0:0:0:0:
36,192,12635,1,0,0:0:0:0:
256,192,12635,1,0,0:0:0:0:
109,192,12635,1,0,0:0:0:0:
36,192,12849,1,0,0:0:0:0:
475,192,12849,1,0,0:0:0:0:
402,192,12849,1,0,0:0:0:0:
109,192,12885,1,0,0:0:0:0:
182,192,12920,1,0,0:0:0:0:
256,192,12956,1,0,0:0:0:0:
329,192,13063,1,0,0:0:0:0:
182,192,13063,1,0,0:0:0:0:
36,192,13277,1,0,0:0:0:0:
329,192,13277,1,0,0:0:0:0:
109,192,13313,1,0,0:0:0:0:
402,192,13331,1,0,0:0:0:0:
182,192,13349,1,0,0:0:0:0:
256,192,13385,1,0,0:0:0:0:
475,192,13385,1,0,0:0:0:0:
329,192,13438,1,0,0:0:0:0:
475,192,13492,1,0,0:0:0:0:
182,192,13492,1,0,0:0:0:0:
36,192,13492,1,0,0:0:0:0:
256,192,13599,1,0,0:0:0:0:
109,192,13599,1,0,0:0:0:0:
329,192,13813,1,0,0:0:0:0:
182,192,13813,1,0,0:0:0:0:
402,192,14135,1,0,0:0:0:0:
329,192,14135,1,0,0:0:0:0:
109,192,14135,1,0,0:0:0:0:
182,192,14206,1,0,0:0:0:0:
329,192,14277,1,0,0:0:0:0:
109,192,14349,1,0,0:0:0:0:
475,192,14349,1,0,0:0:0:0:
402,192,14349,1,0,0:0:0:0:
256,192,14349,1,0,0:0:0:0:
36,192,14349,128,0,14563:0:0:0:0:
402,192,14563,1,0,0:0:0:0:
109,192,14563,1,0,0:0:0:0:
329,192,14617,1,0,0:0:0:0:
182,192,14670,1,0,0:0:0:0:
256,192,14724,1,0,0:0:0:0:
475,192,14777,1,0,0:0:0:0:
109,192,14777,1,0,0:0:0:0:
36,192,14777,1,0,0:0:0:0:
329,192,14777,1,0,0:0:0:0:
256,192,14992,1,0,0:0:0:0:
36,192,14992,1,0,0:0:0:0:
402,192,14992,1,0,0:0:0:0:
402,192,15099,1,0,0:0:0:0:
256,192,15099,1,0,0:0:0:0:
109,192,15099,1,0,0:0:0:0:
475,192,15206,1,0,0:0:0:0:
329,192,15206,1,0,0:0:0:0:
182,192,15206,1,0,0:0:0:0:
36,192,15206,1,0,0:0:0:0:
329,192,15313,1,0,0:0:0:0:
109,192,15313,1,0,0:0:0:0:
36,192,15313,1,0,0:0:0:0:
475,192,15420,1,0,0:0:0:0:
256,192,15420,1,0,0:0:0:0:
182,192,15420,1,0,0:0:0:0:
329,192,15527,1,0,0:0:0:0:
475,192,15527,1,0,0:0:0:0:
109,192,15527,1,0,0:0:0:0:
329,192,15635,1,0,0:0:0:0:
402,192,15635,1,0,0:0:0:0:
182,192,15635,1,0,0:0:0:0:
36,192,15635,1,0,0:0:0:0:
475,192,15849,1,0,0:0:0:0:
256,192,15849,1,0,0:0:0:0:
36,192,15849,1,0,0:0:0:0:
109,192,15902,1,0,0:0:0:0:
402,192,15902,1,0,0:0:0:0:
329,192,15956,1,0,0:0:0:0:
182,192,15956,1,0,0:0:0:0:
109,192,16010,1,0,0:0:0:0:
402,192,16010,1,0,0:0:0:0:
36,192,16063,1,0,0:0:0:0:
475,192,16063,1,0,0:0:0:0:
256,192,16063,1,0,0:0:0:0:
475,192,16277,1,0,0:0:0:0:
36,192,16277,1,0,0:0:0:0:
475,192,16492,1,0,0:0:0:0:
329,192,16492,1,0,0:0:0:0:
182,192,16492,1,0,0:0:0:0:
36,192,16492,1,0,0:0:0:0:
475,192,16706,1,0,0:0:0:0:
182,192,16706,1,0,0:0:0:0:
36,192,16706,1,0,0:0:0:0:
182,192,16813,1,0,0:0:0:0:
36,192,16813,1,0,0:0:0:0:
329,192,16813,1,0,0:0:0:0:
475,192,16920,1,0,0:0:0:0:
402,192,16920,1,0,0:0:0:0:
256,192,16920,1,0,0:0:0:0:
109,192,16920,1,0,0:0:0:0:
402,192,17027,1,0,0:0:0:0:
329,192,17027,1,0,0:0:0:0:
182,192,17027,1,0,0:0:0:0:
402,192,17135,1,0,0:0:0:0:
329,192,17135,1,0,0:0:0:0:
36,192,17135,128,0,17242:0:0:0:0:
109,192,17170,128,0,17242:0:0:0:0:
182,192,17206,128,0,17242:0:0:0:0:
475,192,17242,1,0,0:0:0:0:
36,192,17349,128,0,17456:0:0:0:0:
329,192,17349,1,0,0:0:0:0:
256,192,17349,1,0,0:0:0:0:
402,192,17349,1,0,0:0:0:0:
109,192,17385,128,0,17456:0:0:0:0:
182,192,17420,128,0,17456:0:0:0:0:
36,192,17563,128,0,17670:0:0:0:0:
475,192,17563,1,0,0:0:0:0:
402,192,17563,1,0,0:0:0:0:
109,192,17599,128,0,17670:0:0:0:0:
182,192,17635,128,0,17670:0:0:0:0:
329,192,17635,1,0,0:0:0:0:
475,192,17706,1,0,0:0:0:0:
402,192,17706,1,0,0:0:0:0:
329,192,17777,1,0,0:0:0:0:
256,192,17777,1,0,0:0:0:0:
109,192,17777,1,0,0:0:0:0:
36,192,17777,1,0,0:0:0:0:
109,192,17992,1,0,0:0:0:0:
36,192,17992,1,0,0:0:0:0:
475,192,18206,1,0,0:0:0:0:
329,192,18206,1,0,0:0:0:0:
109,192,18206,1,0,0:0:0:0:
36,192,18206,1,0,0:0:0:0:
109,192,18420,1,0,0:0:0:0:
475,192,18420,1,0,0:0:0:0:
329,192,18420,1,0,0:0:0:0:
256,192,18527,1,0,0:0:0:0:
182,192,18527,1,0,0:0:0:0:
402,192,18527,1,0,0:0:0:0:
109,192,18635,1,0,0:0:0:0:
475,192,18635,1,0,0:0:0:0:
329,192,18635,1,0,0:0:0:0:
36,192,18635,1,0,0:0:0:0:
182,192,18670,1,0,0:0:0:0:
475,192,18742,1,0,0:0:0:0:
329,192,18742,1,0,0:0:0:0:
109,192,18777,1,0,0:0:0:0:
36,192,18777,1,0,0:0:0:0:
182,192,18813,1,0,0:0:0:0:
256,192,18849,1,0,0:0:0:0:
109,192,18920,1,0,0:0:0:0:
36,192,18920,1,0,0:0:0:0:
329,192,18956,1,0,0:0:0:0:
182,192,18956,1,0,0:0:0:0:
475,192,19063,1,0,0:0:0:0:
402,192,19063,1,0,0:0:0:0:
36,192,19063,1,0,0:0:0:0:
109,192,19099,1,0,0:0:0:0:
182,192,19135,1,0,0:0:0:0:
256,192,19170,1,0,0:0:0:0:
329,192,19206,1,0,0:0:0:0:
402,192,19242,1,0,0:0:0:0:
109,192,19277,1,0,0:0:0:0:
36,192,19277,1,0,0:0:0:0:
475,192,19277,1,0,0:0:0:0:
182,192,19313,1,0,0:0:0:0:
256,192,19349,1,0,0:0:0:0:
329,192,19385,1,0,0:0:0:0:
109,192,19420,1,0,0:0:0:0:
182,192,19456,1,0,0:0:0:0:
475,192,19492,1,0,0:0:0:0:
256,192,19492,1,0,0:0:0:0:
402,192,19492,1,0,0:0:0:0:
36,192,19492,1,0,0:0:0:0:
36,192,19706,1,0,0:0:0:0:
109,192,19706,1,0,0:0:0:0:
475,192,19706,1,0,0:0:0:0:
402,192,19742,1,0,0:0:0:0:
329,192,19777,1,0,0:0:0:0:
256,192,19813,1,0,0:0:0:0:
475,192,19920,1,0,0:0:0:0:
402,192,19920,1,0,0:0:0:0:
182,192,19920,1,0,0:0:0:0:
36,192,19920,1,0,0:0:0:0:
475,192,20135,1,0,0:0:0:0:
36,192,20135,1,0,0:0:0:0:
402,192,20135,1,0,0:0:0:0:
109,192,20170,1,0,0:0:0:0:
182,192,20206,1,0,0:0:0:0:
256,192,20242,1,0,0:0:0:0:
475,192,20349,1,0,0:0:0:0:
109,192,20349,1,0,0:0:0:0:
402,192,20349,1,0,0:0:0:0:
36,192,20349,1,0,0:0:0:0:
475,192,20456,1,0,0:0:0:0:
402,192,20456,1,0,0:0:0:0:
182,192,20456,1,0,0:0:0:0:
109,192,20563,1,0,0:0:0:0:
256,192,20563,1,0,0:0:0:0:
36,192,20563,1,0,0:0:0:0:
329,192,20599,1,0,0:0:0:0:
402,192,20635,1,0,0:0:0:0:
475,192,20670,1,0,0:0:0:0:
109,192,20670,1,0,0:0:0:0:
36,192,20670,1,0,0:0:0:0:
402,192,20777,1,0,0:0:0:0:
329,192,20777,1,0,0:0:0:0:
256,192,20777,1,0,0:0:0:0:
182,192,20777,1,0,0:0:0:0:
475,192,20885,1,0,0:0:0:0:
109,192,20885,1,0,0:0:0:0:
402,192,20920,1,0,0:0:0:0:
329,192,20956,1,0,0:0:0:0:
256,192,20992,1,0,0:0:0:0:
36,192,20992,1,0,0:0:0:0:
182,192,21063,1,0,0:0:0:0:
36,192,21135,1,0,0:0:0:0:
182,192,21206,1,0,0:0:0:0:
256,192,21206,1,0,0:0:0:0:
475,192,21206,128,0,21420:0:0:0:0:
402,192,21206,128,0,21420:0:0:0:0:
109,192,21420,1,0,0:0:0:0:
36,192,21420,1,0,0:0:0:0:
329,192,21474,1,0,0:0:0:0:
256,192,21527,1,0,0:0:0:0:
182,192,21581,1,0,0:0:0:0:
329,192,21635,1,0,0:0:0:0:
109,192,21635,1,0,0:0:0:0:
36,192,21635,1,0,0:0:0:0:
475,192,21635,1,0,0:0:0:0:
475,192,21849,1,0,0:0:0:0:
402,192,21849,1,0,0:0:0:0:
182,192,21849,1,0,0:0:0:0:
256,192,21956,1,0,0:0:0:0:
329,192,21956,1,0,0:0:0:0:
36,192,21956,1,0,0:0:0:0:
475,192,22063,1,0,0:0:0:0:
182,192,22063,1,0,0:0:0:0:
109,192,22063,1,0,0:0:0:0:
402,192,22063,1,0,0:0:0:0:
329,192,22170,1,0,0:0:0:0:
182,192,22170,1,0,0:0:0:0:
256,192,22170,1,0,0:0:0:0:
402,192,22277,1,0,0:0:0:0:
109,192,22277,1,0,0:0:0:0:
36,192,22277,1,0,0:0:0:0:
182,192,22385,1,0,0:0:0:0:
329,192,22385,1,0,0:0:0:0:
402,192,22385,1,0,0:0:0:0:
475,192,22492,1,0,0:0:0:0:
36,192,22492,1,0,0:0:0:0:
256,192,22492,1,0,0:0:0:0:
109,192,22492,1,0,0:0:0:0:
475,192,22706,1,0,0:0:0:0:
256,192,22706,1,0,0:0:0:0:
36,192,22706,1,0,0:0:0:0:
109,192,22760,1,0,0:0:0:0:
402,192,22760,1,0,0:0:0:0:
182,192,22813,1,0,0:0:0:0:
329,192,22813,1,0,0:0:0:0:
475,192,22867,1,0,0:0:0:0:
36,192,22867,1,0,0:0:0:0:
402,192,22920,1,0,0:0:0:0:
109,192,22920,1,0,0:0:0:0:
256,192,22920,1,0,0:0:0:0:
402,192,23135,1,0,0:0:0:0:
109,192,23135,1,0,0:0:0:0:
475,192,23349,1,0,0:0:0:0:
36,192,23349,1,0,0:0:0:0:
329,192,23349,1,0,0:0:0:0:
182,192,23349,1,0,0:0:0:0:
402,192,23563,1,0,0:0:0:0:
475,192,23563,1,0,0:0:0:0:
182,192,23563,1,0,0:0:0:0:
329,192,23670,1,0,0:0:0:0:
475,192,23670,1,0,0:0:0:0:
182,192,23670,1,0,0:0:0:0:
36,192,23777,1,0,0:0:0:0:
109,192,23777,1,0,0:0:0:0:
256,192,23777,1,0,0:0:0:0:
402,192,23777,1,0,0:0:0:0:
182,192,23885,1,0,0:0:0:0:
329,192,23885,1,0,0:0:0:0:
109,192,23885,1,0,0:0:0:0:
475,192,23992,128,0,24099:0:0:0:0:
36,192,23992,1,0,0:0:0:0:
256,192,23992,1,0,0:0:0:0:
402,192,24027,128,0,24099:0:0:0:0:
329,192,24063,128,0,24099:0:0:0:0:
182,192,24099,1,0,0:0:0:0:
475,192,24206,128,0,24313:0:0:0:0:
256,192,24206,1,0,0:0:0:0:
109,192,24206,1,0,0:0:0:0:
36,192,24206,1,0,0:0:0:0:
402,192,24242,128,0,24313:0:0:0:0:
329,192,24277,128,0,24313:0:0:0:0:
475,192,24420,128,0,24527:0:0:0:0:
109,192,24420,1,0,0:0:0:0:
36,192,24420,1,0,0:0:0:0:
256,192,24420,1,0,0:0:0:0:
402,192,24456,128,0,24527:0:0:0:0:
329,192,24492,128,0,24527:0:0:0:0:
109,192,24527,1,0,0:0:0:0:
36,192,24527,1,0,0:0:0:0:
182,192,24581,1,0,0:0:0:0:
36,192,24635,1,0,0:0:0:0:
475,192,24635,1,0,0:0:0:0:
256,192,24635,1,0,0:0:0:0:
402,192,24635,1,0,0:0:0:0:
109,192,24688,1,0,0:0:0:0:
182,192,24742,1,0,0:0:0:0:
329,192,24795,1,0,0:0:0:0:
109,192,24849,1,0,0:0:0:0:
36,192,24849,1,0,0:0:0:0:
475,192,24849,1,0,0:0:0:0:
402,192,24849,1,0,0:0:0:0:
182,192,24902,1,0,0:0:0:0:
256,192,24956,1,0,0:0:0:0:
329,192,25010,1,0,0:0:0:0:
475,192,25063,1,0,0:0:0:0:
109,192,25063,1,0,0:0:0:0:
36,192,25063,1,0,0:0:0:0:
182,192,25063,1,0,0:0:0:0:
402,192,25117,1,0,0:0:0:0:
329,192,25170,1,0,0:0:0:0:
256,192,25224,1,0,0:0:0:0:
475,192,25277,1,0,0:0:0:0:
402,192,25277,1,0,0:0:0:0:
36,192,25277,1,0,0:0:0:0:
109,192,25331,1,0,0:0:0:0:
402,192,25385,1,0,0:0:0:0:
475,192,25385,1,0,0:0:0:0:
182,192,25385,1,0,0:0:0:0:
329,192,25438,1,0,0:0:0:0:
36,192,25492,1,0,0:0:0:0:
109,192,25492,1,0,0:0:0:0:
256,192,25492,1,0,0:0:0:0:
475,192,25492,1,0,0:0:0:0:
402,192,25545,1,0,0:0:0:0:
329,192,25599,1,0,0:0:0:0:
182,192,25652,1,0,0:0:0:0:
36,192,25706,1,0,0:0:0:0:
109,192,25706,1,0,0:0:0:0:
402,192,25706,1,0,0:0:0:0:
475,192,25706,1,0,0:0:0:0:
329,192,25760,1,0,0:0:0:0:
182,192,25813,1,0,0:0:0:0:
109,192,25867,1,0,0:0:0:0:
36,192,25920,1,0,0:0:0:0:
256,192,25920,1,0,0:0:0:0:
475,192,25920,1,0,0:0:0:0:
402,192,25956,1,0,0:0:0:0:
329,192,25992,1,0,0:0:0:0:
182,192,26027,1,0,0:0:0:0:
109,192,26063,1,0,0:0:0:0:
36,192,26099,1,0,0:0:0:0:
256,192,26135,1,0,0:0:0:0:
329,192,26170,1,0,0:0:0:0:
402,192,26206,1,0,0:0:0:0:
109,192,26242,1,0,0:0:0:0:
36,192,26242,1,0,0:0:0:0:
475,192,26242,1,0,0:0:0:0:
182,192,26268,1,0,0:0:0:0:
256,192,26295,1,0,0:0:0:0:
329,192,26322,1,0,0:0:0:0:
475,192,26349,1,0,0:0:0:0:
36,192,26349,1,0,0:0:0:0:
402,192,26349,1,0,0:0:0:0:
109,192,26349,1,0,0:0:0:0:
256,192,26456,1,0,0:0:0:0:
329,192,26563,1,0,0:0:0:0:
182,192,26563,1,0,0:0:0:0:
109,192,26599,1,0,0:0:0:0:
36,192,26635,1,0,0:0:0:0:
329,192,26670,1,0,0:0:0:0:
475,192,26724,1,0,0:0:0:0:
402,192,26724,1,0,0:0:0:0:
109,192,26777,1,0,0:0:0:0:
256,192,26777,1,0,0:0:0:0:
256,192,26885,1,0,0:0:0:0:
402,192,26992,1,0,0:0:0:0:
36,192,26992,1,0,0:0:0:0:
109,192,27027,1,0,0:0:0:0:
182,192,27063,1,0,0:0:0:0:
402,192,27099,1,0,0:0:0:0:
36,192,27152,1,0,0:0:0:0:
109,192,27152,1,0,0:0:0:0:
475,192,27206,1,0,0:0:0:0:
256,192,27206,1,0,0:0:0:0:
329,192,27206,1,0,0:0:0:0:
36,192,27420,1,0,0:0:0:0:
402,192,27420,1,0,0:0:0:0:
256,192,27420,1,0,0:0:0:0:
329,192,27420,1,0,0:0:0:0:
109,192,27456,1,0,0:0:0:0:
182,192,27492,1,0,0:0:0:0:
402,192,27527,1,0,0:0:0:0:
256,192,27527,1,0,0:0:0:0:
329,192,27527,1,0,0:0:0:0:
36,192,27742,1,0,0:0:0:0:
475,192,27742,1,0,0:0:0:0:
402,192,27742,1,0,0:0:0:0:
256,192,27742,1,0,0:0:0:0:
109,192,27777,1,0,0:0:0:0:
182,192,27813,1,0,0:0:0:0:
475,192,27849,1,0,0:0:0:0:
402,192,27849,1,0,0:0:0:0:
256,192,27849,1,0,0:0:0:0:
329,192,27902,1,0,0:0:0:0:
182,192,27956,1,0,0:0:0:0:
109,192,27956,1,0,0:0:0:0:
256,192,28010,1,0,0:0:0:0:
475,192,28063,1,0,0:0:0:0:
402,192,28063,1,0,0:0:0:0:
36,192,28063,1,0,0:0:0:0:
329,192,28063,1,0,0:0:0:0:
109,192,28063,128,0,28277:0:0:0:0:
182,192,28170,128,0,28385:0:0:0:0:
256,192,28277,128,0,28492:0:0:0:0:
329,192,28385,128,0,28599:0:0:0:0:
182,192,28492,128,0,28706:0:0:0:0:
256,192,28599,128,0,28813:0:0:0:0:
329,192,28706,128,0,28920:0:0:0:0:
402,192,28813,128,0,29027:0:0:0:0:
109,192,28920,128,0,29135:0:0:0:0:
182,192,29027,128,0,29242:0:0:0:0:
256,192,29135,128,0,29349:0:0:0:0:
329,192,29242,128,0,29456:0:0:0:0:
182,192,29349,128,0,29563:0:0:0:0:
256,192,29456,128,0,29670:0:0:0:0:
329,192,29563,128,0,29777:0:0:0:0:
402,192,29670,128,0,29885:0:0:0:0:
109,192,29777,128,0,29992:0:0:0:0:
182,192,29885,128,0,30099:0:0:0:0:
256,192,29992,128,0,30206:0:0:0:0:
329,192,30099,128,0,30313:0:0:0:0:
182,192,30206,128,0,30420:0:0:0:0:
256,192,30313,128,0,30527:0:0:0:0:
329,192,30420,128,0,30635:0:0:0:0:
402,192,30527,128,0,30742:0:0:0:0:
109,192,30635,128,0,30849:0:0:0:0:
182,192,30742,128,0,30956:0:0:0:0:
256,192,30849,128,0,31063:0:0:0:0:
329,192,30956,128,0,31170:0:0:0:0:
182,192,31063,128,0,31277:0:0:0:0:
256,192,31170,128,0,31385:0:0:0:0:
329,192,31277,128,0,31492:0:0:0:0:
402,192,31385,128,0,31599:0:0:0:0:
109,192,31492,128,0,31599:0:0:0:0:
182,192,31599,128,0,31706:0:0:0:0:
256,192,31706,128,0,31813:0:0:0:0:
329,192,31813,128,0,31920:0:0:0:0:
182,192,31920,128,0,32027:0:0:0:0:
256,192,32027,128,0,32135:0:0:0:0:
329,192,32135,128,0,32242:0:0:0:0:
402,192,32242,128,0,32349:0:0:0:0:
109,192,32349,128,0,32456:0:0:0:0:
182,192,32456,128,0,32563:0:0:0:0:
256,192,32563,128,0,32670:0:0:0:0:
329,192,32670,128,0,32777:0:0:0:0:
182,192,32777,128,0,32885:0:0:0:0:
256,192,32885,128,0,32992:0:0:0:0:
329,192,32992,128,0,33099:0:0:0:0:
402,192,33099,128,0,33206:0:0:0:0:
109,192,33206,128,0,33313:0:0:0:0:
182,192,33313,128,0,33420:0:0:0:0:
256,192,33420,128,0,33527:0:0:0:0:
329,192,33527,128,0,33635:0:0:0:0:
182,192,33635,128,0,33742:0:0:0:0:
256,192,33742,128,0,33849:0:0:0:0:
329,192,33849,128,0,33956:0:0:0:0:
402,192,33956,128,0,34063:0:0:0:0:
109,192,34063,128,0,34170:0:0:0:0:
182,192,34170,128,0,34277:0:0:0:0:
256,192,34277,128,0,34385:0:0:0:0:
329,192,34385,128,0,34492:0:0:0:0:
182,192,34492,128,0,34599:0:0:0:0:
256,192,34599,128,0,34706:0:0:0:0:
329,192,34706,128,0,34813:0:0:0:0:
402,192,34813,128,0,34920:0:0:0:0:
109,192,34920,1,0,0:0:0:0:
182,192,35027,1,0,0:0:0:0:
256,192,35135,1,0,0:0:0:0:
329,192,35242,1,0,0:0:0:0:
182,192,35349,1,0,0:0:0:0:
256,192,35456,1,0,0:0:0:0:
329,192,35563,1,0,0:0:0:0:
402,192,35670,1,0,0:0:0:0:
109,192,35777,1,0,0:0:0:0:
182,192,35885,1,0,0:0:0:0:
256,192,35992,1,0,0:0:0:0:
402,192,35992,1,0,0:0:0:0:
402,192,36099,1,0,0:0:0:0:
109,192,36099,1,0,0:0:0:0:
475,192,36206,1,0,0:0:0:0:
182,192,36206,1,0,0:0:0:0:
329,192,36313,1,0,0:0:0:0:
109,192,36313,1,0,0:0:0:0:
329,192,36420,1,0,0:0:0:0:
182,192,36420,1,0,0:0:0:0:
402,192,36527,1,0,0:0:0:0:
36,192,36527,1,0,0:0:0:0:
256,192,36635,1,0,0:0:0:0:
182,192,36635,1,0,0:0:0:0:
402,192,36742,1,0,0:0:0:0:
109,192,36742,1,0,0:0:0:0:
402,192,36849,1,0,0:0:0:0:
182,192,36849,1,0,0:0:0:0:
402,192,36956,1,0,0:0:0:0:
36,192,36956,1,0,0:0:0:0:
475,192,37063,1,0,0:0:0:0:
182,192,37063,1,0,0:0:0:0:
329,192,37170,1,0,0:0:0:0:
109,192,37170,1,0,0:0:0:0:
329,192,37277,1,0,0:0:0:0:
182,192,37277,1,0,0:0:0:0:
402,192,37385,1,0,0:0:0:0:
36,192,37385,1,0,0:0:0:0:
256,192,37492,1,0,0:0:0:0:
182,192,37492,1,0,0:0:0:0:
402,192,37599,1,0,0:0:0:0:
109,192,37599,1,0,0:0:0:0:
402,192,37706,1,0,0:0:0:0:
182,192,37706,1,0,0:0:0:0:
402,192,37813,1,0,0:0:0:0:
36,192,37813,1,0,0:0:0:0:
475,192,37920,1,0,0:0:0:0:
182,192,37920,1,0,0:0:0:0:
329,192,38027,1,0,0:0:0:0:
109,192,38027,1,0,0:0:0:0:
329,192,38135,1,0,0:0:0:0:
182,192,38135,1,0,0:0:0:0:
402,192,38242,1,0,0:0:0:0:
36,192,38242,1,0,0:0:0:0:
256,192,38349,1,0,0:0:0:0:
182,192,38349,1,0,0:0:0:0:
402,192,38456,1,0,0:0:0:0:
109,192,38456,1,0,0:0:0:0:
402,192,38563,1,0,0:0:0:0:
182,192,38563,1,0,0:0:0:0:
402,192,38670,1,0,0:0:0:0:
36,192,38670,1,0,0:0:0:0:
475,192,38777,1,0,0:0:0:0:
182,192,38777,1,0,0:0:0:0:
329,192,38885,1,0,0:0:0:0:
109,192,38885,1,0,0:0:0:0:
329,192,38992,1,0,0:0:0:0:
182,192,38992,1,0,0:0:0:0:
402,192,39099,1,0,0:0:0:0:
36,192,39099,1,0,0:0:0:0:
256,192,39206,1,0,0:0:0:0:
182,192,39206,1,0,0:0:0:0:
402,192,39313,1,0,0:0:0:0:
109,192,39313,1,0,0:0:0:0:
402,192,39420,1,0,0:0:0:0:
182,192,39420,1,0,0:0:0:0:
402,192,39527,1,0,0:0:0:0:
36,192,39527,1,0,0:0:0:0:
475,192,39635,1,0,0:0:0:0:
182,192,39635,1,0,0:0:0:0:
329,192,39742,1,0,0:0:0:0:
109,192,39742,1,0,0:0:0:0:
329,192,39849,1,0,0:0:0:0:
182,192,39849,1,0,0:0:0:0:
402,192,39956,1,0,0:0:0:0:
36,192,39956,1,0,0:0:0:0:
256,192,40063,1,0,0:0:0:0:
182,192,40063,1,0,0:0:0:0:
402,192,40170,1,0,0:0:0:0:
109,192,40170,1,0,0:0:0:0:
402,192,40277,1,0,0:0:0:0:
182,192,40277,1,0,0:0:0:0:
402,192,40385,1,0,0:0:0:0:
36,192,40385,1,0,0:0:0:0:
475,192,40492,1,0,0:0:0:0:
182,192,40492,1,0,0:0:0:0:
329,192,40599,1,0,0:0:0:0:
109,192,40599,1,0,0:0:0:0:
329,192,40706,1,0,0:0:0:0:
182,192,40706,1,0,0:0:0:0:
402,192,40813,1,0,0:0:0:0:
36,192,40813,1,0,0:0:0:0:
256,192,40920,1,0,0:0:0:0:
182,192,40920,1,0,0:0:0:0:
402,192,41027,1,0,0:0:0:0:
109,192,41027,1,0,0:0:0:0:
402,192,41135,1,0,0:0:0:0:
182,192,41135,1,0,0:0:0:0:
402,192,41242,1,0,0:0:0:0:
36,192,41242,1,0,0:0:0:0:
475,192,41777,1,0,0:0:0:0:
256,192,41777,1,0,0:0:0:0:
109,192,41777,1,0,0:0:0:0:
36,192,41777,1,0,0:0:0:0:
402,192,41777,1,0,0:0:0:0:
182,192,41885,1,0,0:0:0:0:
329,192,41885,1,0,0:0:0:0:
475,192,41992,1,0,0:0:0:0:
36,192,41992,1,0,0:0:0:0:
256,192,42099,1,0,0:0:0:0:
182,192,42099,1,0,0:0:0:0:
402,192,42099,1,0,0:0:0:0:
475,192,42206,1,0,0:0:0:0:
182,192,42206,1,0,0:0:0:0:
329,192,42206,1,0,0:0:0:0:
109,192,42206,1,0,0:0:0:0:
402,192,42313,1,0,0:0:0:0:
256,192,42313,1,0,0:0:0:0:
329,192,42420,1,0,0:0:0:0:
109,192,42420,1,0,0:0:0:0:
475,192,42527,1,0,0:0:0:0:
402,192,42527,1,0,0:0:0:0:
36,192,42527,1,0,0:0:0:0:
329,192,42635,1,0,0:0:0:0:
182,192,42635,1,0,0:0:0:0:
475,192,42742,1,0,0:0:0:0:
256,192,42742,1,0,0:0:0:0:
36,192,42742,1,0,0:0:0:0:
402,192,42849,1,0,0:0:0:0:
182,192,42849,1,0,0:0:0:0:
36,192,42849,1,0,0:0:0:0:
329,192,42956,1,0,0:0:0:0:
256,192,42956,1,0,0:0:0:0:
475,192,43063,1,0,0:0:0:0:
329,192,43063,1,0,0:0:0:0:
182,192,43063,1,0,0:0:0:0:
36,192,43063,1,0,0:0:0:0:
256,192,43170,1,0,0:0:0:0:
109,192,43170,1,0,0:0:0:0:
329,192,43277,1,0,0:0:0:0:
182,192,43277,1,0,0:0:0:0:
256,192,43385,1,0,0:0:0:0:
109,192,43385,1,0,0:0:0:0:
475,192,43492,1,0,0:0:0:0:
182,192,43492,1,0,0:0:0:0:
36,192,43492,1,0,0:0:0:0:
402,192,43492,1,0,0:0:0:0:
329,192,43599,1,0,0:0:0:0:
256,192,43599,1,0,0:0:0:0:
36,192,43706,1,0,0:0:0:0:
475,192,43706,1,0,0:0:0:0:
402,192,43813,1,0,0:0:0:0:
256,192,43813,1,0,0:0:0:0:
182,192,43813,1,0,0:0:0:0:
475,192,43920,1,0,0:0:0:0:
329,192,43920,1,0,0:0:0:0:
36,192,43920,1,0,0:0:0:0:
109,192,43920,1,0,0:0:0:0:
402,192,44027,1,0,0:0:0:0:
256,192,44027,1,0,0:0:0:0:
182,192,44135,1,0,0:0:0:0:
36,192,44135,1,0,0:0:0:0:
475,192,44242,1,0,0:0:0:0:
329,192,44242,1,0,0:0:0:0:
109,192,44242,1,0,0:0:0:0:
36,192,44242,1,0,0:0:0:0:
402,192,44349,1,0,0:0:0:0:
256,192,44349,1,0,0:0:0:0:
475,192,44456,1,0,0:0:0:0:
329,192,44456,1,0,0:0:0:0:
109,192,44456,1,0,0:0:0:0:
36,192,44456,1,0,0:0:0:0:
256,192,44563,1,0,0:0:0:0:
182,192,44563,1,0,0:0:0:0:
475,192,44563,1,0,0:0:0:0:
109,192,44670,1,0,0:0:0:0:
36,192,44670,1,0,0:0:0:0:
475,192,44777,1,0,0:0:0:0:
402,192,44777,1,0,0:0:0:0:
256,192,44777,1,0,0:0:0:0:
182,192,44777,1,0,0:0:0:0:
329,192,44885,1,0,0:0:0:0:
182,192,44885,1,0,0:0:0:0:
475,192,44992,1,0,0:0:0:0:
109,192,44992,1,0,0:0:0:0:
402,192,45099,1,0,0:0:0:0:
256,192,45099,1,0,0:0:0:0:
475,192,45206,1,0,0:0:0:0:
329,192,45206,1,0,0:0:0:0:
36,192,45206,1,0,0:0:0:0:
109,192,45206,1,0,0:0:0:0:
402,192,45313,1,0,0:0:0:0:
182,192,45313,1,0,0:0:0:0:
256,192,45420,1,0,0:0:0:0:
36,192,45420,1,0,0:0:0:0:
402,192,45527,1,0,0:0:0:0:
329,192,45527,1,0,0:0:0:0:
182,192,45527,1,0,0:0:0:0:
475,192,45635,1,0,0:0:0:0:
402,192,45635,1,0,0:0:0:0:
256,192,45635,1,0,0:0:0:0:
36,192,45635,1,0,0:0:0:0:
329,192,45742,1,0,0:0:0:0:
182,192,45742,1,0,0:0:0:0:
256,192,45849,1,0,0:0:0:0:
109,192,45849,1,0,0:0:0:0:
475,192,45956,1,0,0:0:0:0:
402,192,45956,1,0,0:0:0:0:
36,192,45956,1,0,0:0:0:0:
182,192,46063,1,0,0:0:0:0:
475,192,46063,1,0,0:0:0:0:
329,192,46170,1,0,0:0:0:0:
256,192,46170,1,0,0:0:0:0:
36,192,46170,1,0,0:0:0:0:
182,192,46277,1,0,0:0:0:0:
475,192,46277,1,0,0:0:0:0:
402,192,46385,1,0,0:0:0:0:
256,192,46385,1,0,0:0:0:0:
402,192,46492,1,0,0:0:0:0:
329,192,46492,1,0,0:0:0:0:
182,192,46492,1,0,0:0:0:0:
36,192,46492,1,0,0:0:0:0:
256,192,46599,1,0,0:0:0:0:
109,192,46599,1,0,0:0:0:0:
475,192,46706,1,0,0:0:0:0:
182,192,46706,1,0,0:0:0:0:
36,192,46706,1,0,0:0:0:0:
402,192,46733,1,0,0:0:0:0:
329,192,46760,1,0,0:0:0:0:
256,192,46786,1,0,0:0:0:0:
109,192,46813,1,0,0:0:0:0:
36,192,46813,1,0,0:0:0:0:
182,192,46849,1,0,0:0:0:0:
329,192,46885,1,0,0:0:0:0:
475,192,46920,1,0,0:0:0:0:
402,192,46920,1,0,0:0:0:0:
256,192,46920,1,0,0:0:0:0:
329,192,47027,1,0,0:0:0:0:
182,192,47027,1,0,0:0:0:0:
109,192,47081,1,0,0:0:0:0:
256,192,47135,1,0,0:0:0:0:
36,192,47135,1,0,0:0:0:0:
329,192,47242,1,0,0:0:0:0:
182,192,47242,1,0,0:0:0:0:
475,192,47349,1,0,0:0:0:0:
402,192,47349,1,0,0:0:0:0:
36,192,47349,1,0,0:0:0:0:
256,192,47349,128,0,47420:0:0:0:0:
182,192,47420,128,0,47492:0:0:0:0:
329,192,47456,1,0,0:0:0:0:
109,192,47492,128,0,47563:0:0:0:0:
256,192,47563,1,0,0:0:0:0:
182,192,47563,128,0,47635:0:0:0:0:
109,192,47635,128,0,47706:0:0:0:0:
475,192,47670,1,0,0:0:0:0:
402,192,47670,1,0,0:0:0:0:
182,192,47706,128,0,47777:0:0:0:0:
329,192,47777,1,0,0:0:0:0:
109,192,47777,128,0,47849:0:0:0:0:
182,192,47849,128,0,47920:0:0:0:0:
475,192,47885,1,0,0:0:0:0:
402,192,47885,1,0,0:0:0:0:
109,192,47920,128,0,47992:0:0:0:0:
256,192,47992,1,0,0:0:0:0:
475,192,47992,1,0,0:0:0:0:
182,192,47992,128,0,48063:0:0:0:0:
109,192,48063,128,0,48135:0:0:0:0:
329,192,48099,1,0,0:0:0:0:
182,192,48135,128,0,48206:0:0:0:0:
36,192,48206,1,0,0:0:0:0:
475,192,48206,1,0,0:0:0:0:
256,192,48206,1,0,0:0:0:0:
329,192,48313,1,0,0:0:0:0:
182,192,48313,1,0,0:0:0:0:
109,192,48313,1,0,0:0:0:0:
402,192,48420,1,0,0:0:0:0:
256,192,48420,1,0,0:0:0:0:
329,192,48527,1,0,0:0:0:0:
109,192,48527,1,0,0:0:0:0:
36,192,48527,1,0,0:0:0:0:
475,192,48635,1,0,0:0:0:0:
182,192,48635,1,0,0:0:0:0:
36,192,48635,1,0,0:0:0:0:
402,192,48635,1,0,0:0:0:0:
256,192,48742,1,0,0:0:0:0:
329,192,48742,1,0,0:0:0:0:
475,192,48849,1,0,0:0:0:0:
109,192,48849,1,0,0:0:0:0:
329,192,48956,1,0,0:0:0:0:
182,192,48956,1,0,0:0:0:0:
475,192,49063,1,0,0:0:0:0:
329,192,49063,1,0,0:0:0:0:
256,192,49063,1,0,0:0:0:0:
36,192,49063,128,0,49117:0:0:0:0:
109,192,49117,128,0,49170:0:0:0:0:
402,192,49170,1,0,0:0:0:0:
182,192,49170,128,0,49224:0:0:0:0:
36,192,49224,128,0,49277:0:0:0:0:
329,192,49277,1,0,0:0:0:0:
109,192,49331,128,0,49385:0:0:0:0:
329,192,49385,1,0,0:0:0:0:
256,192,49385,1,0,0:0:0:0:
402,192,49385,1,0,0:0:0:0:
182,192,49438,128,0,49492:0:0:0:0:
36,192,49492,1,0,0:0:0:0:
475,192,49492,1,0,0:0:0:0:
402,192,49599,1,0,0:0:0:0:
256,192,49599,1,0,0:0:0:0:
109,192,49599,1,0,0:0:0:0:
475,192,49706,1,0,0:0:0:0:
329,192,49706,1,0,0:0:0:0:
36,192,49706,1,0,0:0:0:0:
182,192,49760,1,0,0:0:0:0:
256,192,49813,1,0,0:0:0:0:
329,192,49867,1,0,0:0:0:0:
109,192,49920,1,0,0:0:0:0:
36,192,49920,1,0,0:0:0:0:
402,192,49920,1,0,0:0:0:0:
182,192,49974,1,0,0:0:0:0:
475,192,50027,1,0,0:0:0:0:
256,192,50027,1,0,0:0:0:0:
402,192,50081,1,0,0:0:0:0:
329,192,50135,1,0,0:0:0:0:
109,192,50135,1,0,0:0:0:0:
256,192,50188,1,0,0:0:0:0:
36,192,50242,1,0,0:0:0:0:
475,192,50242,1,0,0:0:0:0:
109,192,50295,1,0,0:0:0:0:
182,192,50349,1,0,0:0:0:0:
329,192,50349,1,0,0:0:0:0:
256,192,50402,1,0,0:0:0:0:
475,192,50456,1,0,0:0:0:0:
36,192,50456,1,0,0:0:0:0:
402,192,50510,1,0,0:0:0:0:
329,192,50563,1,0,0:0:0:0:
182,192,50563,1,0,0:0:0:0:
256,192,50617,1,0,0:0:0:0:
475,192,50670,1,0,0:0:0:0:
109,192,50670,1,0,0:0:0:0:
402,192,50724,1,0,0:0:0:0:
329,192,50777,1,0,0:0:0:0:
256,192,50777,1,0,0:0:0:0:
182,192,50777,1,0,0:0:0:0:
36,192,50777,1,0,0:0:0:0:
182,192,50885,1,0,0:0:0:0:
475,192,50885,1,0,0:0:0:0:
329,192,50992,1,0,0:0:0:0:
109,192,50992,1,0,0:0:0:0:
475,192,51099,1,0,0:0:0:0:
256,192,51099,1,0,0:0:0:0:
36,192,51099,1,0,0:0:0:0:
182,192,51206,1,0,0:0:0:0:
329,192,51206,1,0,0:0:0:0:
475,192,51313,1,0,0:0:0:0:
256,192,51313,1,0,0:0:0:0:
36,192,51313,1,0,0:0:0:0:
402,192,51420,1,0,0:0:0:0:
182,192,51420,1,0,0:0:0:0:
109,192,51420,1,0,0:0:0:0:
402,192,51527,1,0,0:0:0:0:
256,192,51527,1,0,0:0:0:0:
475,192,51635,1,0,0:0:0:0:
329,192,51635,1,0,0:0:0:0:
109,192,51635,1,0,0:0:0:0:
36,192,51635,1,0,0:0:0:0:
256,192,51742,1,0,0:0:0:0:
182,192,51742,1,0,0:0:0:0:
109,192,51742,1,0,0:0:0:0:
402,192,51849,1,0,0:0:0:0:
329,192,51849,1,0,0:0:0:0:
182,192,51956,1,0,0:0:0:0:
475,192,51956,1,0,0:0:0:0:
256,192,51956,1,0,0:0:0:0:
475,192,52063,1,0,0:0:0:0:
329,192,52063,1,0,0:0:0:0:
109,192,52063,1,0,0:0:0:0:
36,192,52063,1,0,0:0:0:0:
256,192,52170,1,0,0:0:0:0:
182,192,52170,1,0,0:0:0:0:
475,192,52277,1,0,0:0:0:0:
329,192,52277,1,0,0:0:0:0:
36,192,52277,1,0,0:0:0:0:
182,192,52385,1,0,0:0:0:0:
109,192,52385,1,0,0:0:0:0:
475,192,52492,1,0,0:0:0:0:
402,192,52492,1,0,0:0:0:0:
256,192,52492,1,0,0:0:0:0:
109,192,52492,1,0,0:0:0:0:
329,192,52599,1,0,0:0:0:0:
182,192,52599,1,0,0:0:0:0:
402,192,52599,1,0,0:0:0:0:
36,192,52706,1,0,0:0:0:0:
475,192,52706,1,0,0:0:0:0:
402,192,52813,1,0,0:0:0:0:
256,192,52813,1,0,0:0:0:0:
109,192,52813,1,0,0:0:0:0:
329,192,52920,1,0,0:0:0:0:
182,192,52920,1,0,0:0:0:0:
109,192,53027,1,0,0:0:0:0:
36,192,53027,1,0,0:0:0:0:
475,192,53027,1,0,0:0:0:0:
256,192,53135,1,0,0:0:0:0:
402,192,53135,1,0,0:0:0:0:
329,192,53242,1,0,0:0:0:0:
182,192,53242,1,0,0:0:0:0:
109,192,53242,1,0,0:0:0:0:
475,192,53349,1,0,0:0:0:0:
256,192,53349,1,0,0:0:0:0:
109,192,53349,1,0,0:0:0:0:
36,192,53349,1,0,0:0:0:0:
402,192,53456,1,0,0:0:0:0:
329,192,53456,1,0,0:0:0:0:
182,192,53456,1,0,0:0:0:0:
256,192,53563,1,0,0:0:0:0:
36,192,53563,128,0,53777:0:0:0:0:
182,192,53670,1,0,0:0:0:0:
329,192,53670,1,0,0:0:0:0:
475,192,53777,1,0,0:0:0:0:
256,192,53777,1,0,0:0:0:0:
109,192,53777,128,0,53831:0:0:0:0:
329,192,53885,1,0,0:0:0:0:
402,192,53885,1,0,0:0:0:0:
475,192,53992,1,0,0:0:0:0:
182,192,53992,128,0,54045:0:0:0:0:
36,192,53992,1,0,0:0:0:0:
256,192,54099,1,0,0:0:0:0:
329,192,54099,1,0,0:0:0:0:
475,192,54206,1,0,0:0:0:0:
109,192,54206,1,0,0:0:0:0:
36,192,54206,1,0,0:0:0:0:
329,192,54313,1,0,0:0:0:0:
182,192,54313,1,0,0:0:0:0:
475,192,54420,1,0,0:0:0:0:
256,192,54420,1,0,0:0:0:0:
36,192,54420,1,0,0:0:0:0:
402,192,54474,1,0,0:0:0:0:
329,192,54527,1,0,0:0:0:0:
109,192,54527,1,0,0:0:0:0:
182,192,54527,1,0,0:0:0:0:
402,192,54581,1,0,0:0:0:0:
475,192,54635,1,0,0:0:0:0:
36,192,54635,1,0,0:0:0:0:
329,192,54742,1,0,0:0:0:0:
182,192,54742,1,0,0:0:0:0:
109,192,54742,1,0,0:0:0:0:
475,192,54849,1,0,0:0:0:0:
256,192,54849,1,0,0:0:0:0:
402,192,54849,1,0,0:0:0:0:
329,192,54956,1,0,0:0:0:0:
182,192,54956,1,0,0:0:0:0:
475,192,55063,1,0,0:0:0:0:
256,192,55063,1,0,0:0:0:0:
109,192,55063,1,0,0:0:0:0:
36,192,55063,1,0,0:0:0:0:
329,192,55170,1,0,0:0:0:0:
182,192,55170,1,0,0:0:0:0:
36,192,55170,1,0,0:0:0:0:
256,192,55277,1,0,0:0:0:0:
402,192,55277,1,0,0:0:0:0:
475,192,55385,1,0,0:0:0:0:
329,192,55385,1,0,0:0:0:0:
109,192,55385,1,0,0:0:0:0:
475,192,55492,1,0,0:0:0:0:
402,192,55492,1,0,0:0:0:0:
256,192,55492,1,0,0:0:0:0:
36,192,55492,1,0,0:0:0:0:
182,192,55492,128,0,55706:0:0:0:0:
109,192,55706,1,0,0:0:0:0:
475,192,55920,1,0,0:0:0:0:
402,192,55920,1,0,0:0:0:0:
256,192,55920,1,0,0:0:0:0:
36,192,55920,1,0,0:0:0:0:
182,192,56027,128,0,56135:0:0:0:0:
182,192,56242,128,0,56349:0:0:0:0:
475,192,56349,1,0,0:0:0:0:
402,192,56349,1,0,0:0:0:0:
256,192,56349,1,0,0:0:0:0:
36,192,56349,1,0,0:0:0:0:
109,192,56563,128,0,56777:0:0:0:0:
475,192,56777,1,0,0:0:0:0:
402,192,56777,1,0,0:0:0:0:
256,192,56777,1,0,0:0:0:0:
36,192,56777,1,0,0:0:0:0:
182,192,56777,128,0,56992:0:0:0:0:
329,192,56992,1,0,0:0:0:0:
329,192,57099,1,0,0:0:0:0:
475,192,57206,1,0,0:0:0:0:
109,192,57206,1,0,0:0:0:0:
256,192,57206,1,0,0:0:0:0:
329,192,57206,128,0,57420:0:0:0:0:
36,192,57206,1,0,0:0:0:0:
402,192,57420,1,0,0:0:0:0:
475,192,57635,1,0,0:0:0:0:
36,192,57635,1,0,0:0:0:0:
256,192,57635,1,0,0:0:0:0:
109,192,57635,1,0,0:0:0:0:
329,192,57742,128,0,57849:0:0:0:0:
329,192,57956,128,0,58063:0:0:0:0:
256,192,58063,1,0,0:0:0:0:
475,192,58063,1,0,0:0:0:0:
109,192,58063,1,0,0:0:0:0:
36,192,58063,1,0,0:0:0:0:
402,192,58063,128,0,58170:0:0:0:0:
402,192,58277,128,0,58492:0:0:0:0:
36,192,58492,1,0,0:0:0:0:
475,192,58492,1,0,0:0:0:0:
256,192,58492,1,0,0:0:0:0:
329,192,58492,128,0,58706:0:0:0:0:
109,192,58492,1,0,0:0:0:0:
182,192,58706,1,0,0:0:0:0:
182,192,58813,1,0,0:0:0:0:
475,192,58920,1,0,0:0:0:0:
402,192,58920,1,0,0:0:0:0:
256,192,58920,1,0,0:0:0:0:
36,192,58920,1,0,0:0:0:0:
182,192,58920,128,0,59135:0:0:0:0:
109,192,59135,1,0,0:0:0:0:
475,192,59349,1,0,0:0:0:0:
402,192,59349,1,0,0:0:0:0:
256,192,59349,1,0,0:0:0:0:
36,192,59349,1,0,0:0:0:0:
182,192,59456,128,0,59563:0:0:0:0:
182,192,59670,128,0,59777:0:0:0:0:
475,192,59777,1,0,0:0:0:0:
402,192,59777,1,0,0:0:0:0:
256,192,59777,1,0,0:0:0:0:
36,192,59777,1,0,0:0:0:0:
109,192,59992,128,0,60206:0:0:0:0:
475,192,60206,1,0,0:0:0:0:
402,192,60206,1,0,0:0:0:0:
256,192,60206,1,0,0:0:0:0:
36,192,60206,1,0,0:0:0:0:
182,192,60206,128,0,60420:0:0:0:0:
329,192,60420,1,0,0:0:0:0:
329,192,60527,1,0,0:0:0:0:
475,192,60635,1,0,0:0:0:0:
109,192,60635,1,0,0:0:0:0:
256,192,60635,1,0,0:0:0:0:
329,192,60635,128,0,60849:0:0:0:0:
36,192,60635,1,0,0:0:0:0:
402,192,60849,1,0,0:0:0:0:
475,192,61063,1,0,0:0:0:0:
36,192,61063,1,0,0:0:0:0:
256,192,61063,1,0,0:0:0:0:
109,192,61063,1,0,0:0:0:0:
329,192,61170,128,0,61277:0:0:0:0:
329,192,61385,128,0,61492:0:0:0:0:
256,192,61492,1,0,0:0:0:0:
475,192,61492,1,0,0:0:0:0:
109,192,61492,1,0,0:0:0:0:
36,192,61492,1,0,0:0:0:0:
402,192,61492,128,0,61599:0:0:0:0:
402,192,61706,128,0,61920:0:0:0:0:
36,192,61920,1,0,0:0:0:0:
475,192,61920,1,0,0:0:0:0:
256,192,61920,1,0,0:0:0:0:
329,192,61920,128,0,62135:0:0:0:0:
109,192,61920,1,0,0:0:0:0:
182,192,62135,1,0,0:0:0:0:
109,192,62135,1,0,0:0:0:0:
182,192,62242,1,0,0:0:0:0:
109,192,62242,1,0,0:0:0:0:
475,192,62295,1,0,0:0:0:0:
402,192,62295,1,0,0:0:0:0:
109,192,62349,1,0,0:0:0:0:
36,192,62349,1,0,0:0:0:0:
256,192,62349,1,0,0:0:0:0:
329,192,62349,1,0,0:0:0:0:
402,192,62563,1,0,0:0:0:0:
256,192,62563,1,0,0:0:0:0:
109,192,62563,1,0,0:0:0:0:
475,192,62777,1,0,0:0:0:0:
402,192,62777,1,0,0:0:0:0:
256,192,62777,1,0,0:0:0:0:
182,192,62777,1,0,0:0:0:0:
182,192,62992,1,0,0:0:0:0:
402,192,62992,1,0,0:0:0:0:
329,192,62992,1,0,0:0:0:0:
36,192,63099,1,0,0:0:0:0:
109,192,63099,1,0,0:0:0:0:
182,192,63152,1,0,0:0:0:0:
256,192,63152,1,0,0:0:0:0:
402,192,63206,1,0,0:0:0:0:
475,192,63206,1,0,0:0:0:0:
36,192,63206,1,0,0:0:0:0:
329,192,63206,1,0,0:0:0:0:
402,192,63420,1,0,0:0:0:0:
256,192,63420,1,0,0:0:0:0:
109,192,63420,1,0,0:0:0:0:
329,192,63635,1,0,0:0:0:0:
109,192,63635,1,0,0:0:0:0:
36,192,63635,1,0,0:0:0:0:
256,192,63635,1,0,0:0:0:0:
329,192,63849,1,0,0:0:0:0:
182,192,63849,1,0,0:0:0:0:
109,192,63849,1,0,0:0:0:0:
475,192,63956,1,0,0:0:0:0:
402,192,63956,1,0,0:0:0:0:
329,192,64010,1,0,0:0:0:0:
256,192,64010,1,0,0:0:0:0:
182,192,64063,1,0,0:0:0:0:
109,192,64063,1,0,0:0:0:0:
36,192,64063,1,0,0:0:0:0:
475,192,64063,1,0,0:0:0:0:
402,192,64277,1,0,0:0:0:0:
256,192,64277,1,0,0:0:0:0:
109,192,64277,1,0,0:0:0:0:
475,192,64492,1,0,0:0:0:0:
402,192,64492,1,0,0:0:0:0:
256,192,64492,1,0,0:0:0:0:
182,192,64492,1,0,0:0:0:0:
182,192,64706,1,0,0:0:0:0:
402,192,64706,1,0,0:0:0:0:
329,192,64706,1,0,0:0:0:0:
36,192,64813,1,0,0:0:0:0:
109,192,64813,1,0,0:0:0:0:
182,192,64867,1,0,0:0:0:0:
256,192,64867,1,0,0:0:0:0:
402,192,64920,1,0,0:0:0:0:
475,192,64920,1,0,0:0:0:0:
36,192,64920,1,0,0:0:0:0:
329,192,64920,1,0,0:0:0:0:
402,192,65135,1,0,0:0:0:0:
256,192,65135,1,0,0:0:0:0:
109,192,65135,1,0,0:0:0:0:
329,192,65349,1,0,0:0:0:0:
109,192,65349,1,0,0:0:0:0:
36,192,65349,1,0,0:0:0:0:
256,192,65349,1,0,0:0:0:0:
329,192,65563,1,0,0:0:0:0:
182,192,65563,1,0,0:0:0:0:
109,192,65563,1,0,0:0:0:0:
475,192,65670,1,0,0:0:0:0:
402,192,65670,1,0,0:0:0:0:
329,192,65724,1,0,0:0:0:0:
256,192,65724,1,0,0:0:0:0:
182,192,65777,1,0,0:0:0:0:
109,192,65777,1,0,0:0:0:0:
36,192,65777,1,0,0:0:0:0:
475,192,65777,1,0,0:0:0:0:
36,192,65885,1,0,0:0:0:0:
109,192,65885,1,0,0:0:0:0:
475,192,65992,1,0,0:0:0:0:
402,192,65992,1,0,0:0:0:0:
329,192,65992,1,0,0:0:0:0:
182,192,65992,1,0,0:0:0:0:
475,192,66099,1,0,0:0:0:0:
402,192,66099,1,0,0:0:0:0:
329,192,66152,1,0,0:0:0:0:
256,192,66206,1,0,0:0:0:0:
182,192,66206,1,0,0:0:0:0:
109,192,66206,1,0,0:0:0:0:
36,192,66206,1,0,0:0:0:0:
109,192,66313,1,0,0:0:0:0:
36,192,66313,1,0,0:0:0:0:
475,192,66420,1,0,0:0:0:0:
402,192,66420,1,0,0:0:0:0:
329,192,66420,1,0,0:0:0:0:
182,192,66420,1,0,0:0:0:0:
475,192,66527,1,0,0:0:0:0:
402,192,66527,1,0,0:0:0:0:
329,192,66581,1,0,0:0:0:0:
256,192,66635,1,0,0:0:0:0:
109,192,66635,1,0,0:0:0:0:
36,192,66635,1,0,0:0:0:0:
182,192,66635,1,0,0:0:0:0:
109,192,66742,1,0,0:0:0:0:
36,192,66742,1,0,0:0:0:0:
182,192,66849,1,0,0:0:0:0:
475,192,66849,1,0,0:0:0:0:
402,192,66849,1,0,0:0:0:0:
329,192,66849,1,0,0:0:0:0:
475,192,66956,1,0,0:0:0:0:
402,192,66956,1,0,0:0:0:0:
329,192,67010,1,0,0:0:0:0:
256,192,67063,1,0,0:0:0:0:
109,192,67063,1,0,0:0:0:0:
36,192,67063,1,0,0:0:0:0:
182,192,67063,1,0,0:0:0:0:
109,192,67170,1,0,0:0:0:0:
36,192,67170,1,0,0:0:0:0:
182,192,67277,1,0,0:0:0:0:
475,192,67277,1,0,0:0:0:0:
402,192,67277,1,0,0:0:0:0:
329,192,67277,1,0,0:0:0:0:
475,192,67385,1,0,0:0:0:0:
402,192,67385,1,0,0:0:0:0:
329,192,67438,1,0,0:0:0:0:
256,192,67492,1,0,0:0:0:0:
109,192,67492,1,0,0:0:0:0:
36,192,67492,1,0,0:0:0:0:
256,192,67599,1,0,0:0:0:0:
36,192,67599,1,0,0:0:0:0:
109,192,67599,1,0,0:0:0:0:
329,192,67706,1,0,0:0:0:0:
475,192,67706,1,0,0:0:0:0:
182,192,67706,1,0,0:0:0:0:
475,192,67813,1,0,0:0:0:0:
329,192,67813,1,0,0:0:0:0:
182,192,67813,1,0,0:0:0:0:
256,192,67920,1,0,0:0:0:0:
109,192,67920,1,0,0:0:0:0:
402,192,67920,1,0,0:0:0:0:
256,192,68027,1,0,0:0:0:0:
109,192,68027,1,0,0:0:0:0:
402,192,68027,1,0,0:0:0:0:
329,192,68135,1,0,0:0:0:0:
182,192,68135,1,0,0:0:0:0:
36,192,68135,1,0,0:0:0:0:
329,192,68242,1,0,0:0:0:0:
182,192,68242,1,0,0:0:0:0:
36,192,68242,1,0,0:0:0:0:
402,192,68349,1,0,0:0:0:0:
256,192,68349,1,0,0:0:0:0:
109,192,68349,1,0,0:0:0:0:
36,192,68349,1,0,0:0:0:0:
475,192,68349,128,0,68777:0:0:0:0:
329,192,68670,128,0,68777:0:0:0:0:
402,192,68777,128,0,68992:0:0:0:0:
182,192,68992,128,0,69206:0:0:0:0:
475,192,69206,1,0,0:0:0:0:
329,192,69206,1,0,0:0:0:0:
256,192,69206,1,0,0:0:0:0:
402,192,69206,1,0,0:0:0:0:
109,192,69206,1,0,0:0:0:0:
36,192,69206,128,0,69635:0:0:0:0:
329,192,69420,1,0,0:0:0:0:
256,192,69474,1,0,0:0:0:0:
402,192,69527,1,0,0:0:0:0:
329,192,69581,1,0,0:0:0:0:
256,192,69635,1,0,0:0:0:0:
109,192,69635,1,0,0:0:0:0:
475,192,69635,1,0,0:0:0:0:
402,192,69635,1,0,0:0:0:0:
182,192,69688,1,0,0:0:0:0:
329,192,69742,1,0,0:0:0:0:
402,192,69795,1,0,0:0:0:0:
475,192,69849,1,0,0:0:0:0:
256,192,69849,1,0,0:0:0:0:
36,192,69849,1,0,0:0:0:0:
109,192,69849,128,0,70063:0:0:0:0:
402,192,70063,1,0,0:0:0:0:
329,192,70063,1,0,0:0:0:0:
182,192,70063,1,0,0:0:0:0:
256,192,70170,128,0,70224:0:0:0:0:
36,192,70170,128,0,70224:0:0:0:0:
475,192,70170,128,0,70224:0:0:0:0:
256,192,70385,128,0,70438:0:0:0:0:
36,192,70385,128,0,70438:0:0:0:0:
475,192,70385,128,0,70438:0:0:0:0:
402,192,70492,1,0,0:0:0:0:
329,192,70492,1,0,0:0:0:0:
182,192,70492,1,0,0:0:0:0:
109,192,70545,1,0,0:0:0:0:
256,192,70599,1,0,0:0:0:0:
329,192,70652,1,0,0:0:0:0:
182,192,70706,1,0,0:0:0:0:
475,192,70706,1,0,0:0:0:0:
402,192,70760,1,0,0:0:0:0:
109,192,70813,1,0,0:0:0:0:
329,192,70867,1,0,0:0:0:0:
475,192,70920,1,0,0:0:0:0:
256,192,70920,1,0,0:0:0:0:
36,192,70920,1,0,0:0:0:0:
182,192,70920,1,0,0:0:0:0:
402,192,71027,1,0,0:0:0:0:
329,192,71027,1,0,0:0:0:0:
109,192,71027,1,0,0:0:0:0:
329,192,71135,1,0,0:0:0:0:
402,192,71135,1,0,0:0:0:0:
182,192,71135,1,0,0:0:0:0:
475,192,71242,1,0,0:0:0:0:
256,192,71242,1,0,0:0:0:0:
36,192,71242,1,0,0:0:0:0:
402,192,71349,1,0,0:0:0:0:
329,192,71349,1,0,0:0:0:0:
182,192,71349,1,0,0:0:0:0:
109,192,71349,1,0,0:0:0:0:
402,192,71563,1,0,0:0:0:0:
109,192,71563,1,0,0:0:0:0:
256,192,71563,1,0,0:0:0:0:
402,192,71670,1,0,0:0:0:0:
109,192,71670,1,0,0:0:0:0:
256,192,71670,1,0,0:0:0:0:
475,192,71777,1,0,0:0:0:0:
329,192,71777,1,0,0:0:0:0:
36,192,71777,1,0,0:0:0:0:
182,192,71885,1,0,0:0:0:0:
109,192,71885,1,0,0:0:0:0:
329,192,71938,1,0,0:0:0:0:
256,192,71938,1,0,0:0:0:0:
475,192,71992,1,0,0:0:0:0:
36,192,71992,1,0,0:0:0:0:
402,192,71992,1,0,0:0:0:0:
109,192,72027,1,0,0:0:0:0:
182,192,72063,1,0,0:0:0:0:
475,192,72099,1,0,0:0:0:0:
256,192,72099,1,0,0:0:0:0:
402,192,72099,1,0,0:0:0:0:
36,192,72206,1,0,0:0:0:0:
402,192,72206,1,0,0:0:0:0:
475,192,72206,1,0,0:0:0:0:
329,192,72206,1,0,0:0:0:0:
109,192,72242,1,0,0:0:0:0:
182,192,72277,1,0,0:0:0:0:
256,192,72313,1,0,0:0:0:0:
36,192,72420,1,0,0:0:0:0:
475,192,72420,1,0,0:0:0:0:
402,192,72420,1,0,0:0:0:0:
109,192,72456,1,0,0:0:0:0:
182,192,72492,1,0,0:0:0:0:
256,192,72527,1,0,0:0:0:0:
475,192,72527,1,0,0:0:0:0:
402,192,72527,1,0,0:0:0:0:
475,192,72635,1,0,0:0:0:0:
329,192,72635,1,0,0:0:0:0:
36,192,72635,1,0,0:0:0:0:
182,192,72635,128,0,73063:0:0:0:0:
256,192,72849,1,0,0:0:0:0:
329,192,72902,1,0,0:0:0:0:
402,192,72956,1,0,0:0:0:0:
256,192,73010,1,0,0:0:0:0:
329,192,73063,1,0,0:0:0:0:
475,192,73063,1,0,0:0:0:0:
36,192,73063,1,0,0:0:0:0:
109,192,73117,1,0,0:0:0:0:
182,192,73170,1,0,0:0:0:0:
256,192,73224,1,0,0:0:0:0:
475,192,73277,1,0,0:0:0:0:
402,192,73277,1,0,0:0:0:0:
109,192,73277,128,0,73492:0:0:0:0:
475,192,73492,1,0,0:0:0:0:
402,192,73492,1,0,0:0:0:0:
182,192,73492,1,0,0:0:0:0:
329,192,73527,1,0,0:0:0:0:
475,192,73635,1,0,0:0:0:0:
402,192,73635,1,0,0:0:0:0:
109,192,73635,128,0,73670:0:0:0:0:
36,192,73635,128,0,73670:0:0:0:0:
329,192,73670,1,0,0:0:0:0:
475,192,73777,1,0,0:0:0:0:
402,192,73777,1,0,0:0:0:0:
109,192,73777,128,0,73813:0:0:0:0:
36,192,73777,128,0,73813:0:0:0:0:
329,192,73813,1,0,0:0:0:0:
475,192,73920,1,2,0:0:0:0:
402,192,73920,1,2,0:0:0:0:
182,192,73920,1,0,0:0:0:0:
109,192,73920,1,0,0:0:0:0:
36,192,73920,1,0,0:0:0:0:
329,192,73956,1,0,0:0:0:0:
256,192,73992,1,0,0:0:0:0:
109,192,74027,1,0,0:0:0:0:
182,192,74063,1,0,0:0:0:0:
329,192,74099,1,0,0:0:0:0:
402,192,74135,1,0,0:0:0:0:
36,192,74135,1,0,0:0:0:0:
109,192,74170,1,0,0:0:0:0:
182,192,74206,1,0,0:0:0:0:
256,192,74242,1,0,0:0:0:0:
329,192,74277,1,0,0:0:0:0:
402,192,74313,1,0,0:0:0:0:
36,192,74349,1,0,0:0:0:0:
256,192,74349,1,0,0:0:0:0:
475,192,74349,1,0,0:0:0:0:
109,192,74385,1,0,0:0:0:0:
182,192,74420,1,0,0:0:0:0:
329,192,74456,1,0,0:0:0:0:
402,192,74492,1,0,0:0:0:0:
475,192,74527,1,0,0:0:0:0:
182,192,74563,1,0,0:0:0:0:
109,192,74599,1,0,0:0:0:0:
36,192,74635,1,0,0:0:0:0:
475,192,74670,1,0,0:0:0:0:
402,192,74706,1,0,0:0:0:0:
329,192,74742,1,0,0:0:0:0:
256,192,74777,1,0,0:0:0:0:
36,192,74777,1,0,0:0:0:0:
109,192,74813,1,0,0:0:0:0:
182,192,74849,1,0,0:0:0:0:
329,192,74885,1,0,0:0:0:0:
402,192,74920,1,0,0:0:0:0:
475,192,74956,1,0,0:0:0:0:
182,192,74992,1,0,0:0:0:0:
109,192,75027,1,0,0:0:0:0:
36,192,75063,1,0,0:0:0:0:
475,192,75099,1,0,0:0:0:0:
402,192,75135,1,0,0:0:0:0:
329,192,75170,1,0,0:0:0:0:
256,192,75206,1,0,0:0:0:0:
36,192,75206,1,0,0:0:0:0:
109,192,75242,1,0,0:0:0:0:
182,192,75277,1,0,0:0:0:0:
329,192,75313,1,0,0:0:0:0:
402,192,75349,1,0,0:0:0:0:
475,192,75385,1,0,0:0:0:0:
182,192,75420,1,0,0:0:0:0:
109,192,75456,1,0,0:0:0:0:
36,192,75492,1,0,0:0:0:0:
256,192,75527,1,0,0:0:0:0:
475,192,75527,1,0,0:0:0:0:
402,192,75563,1,0,0:0:0:0:
329,192,75599,1,0,0:0:0:0:
36,192,75635,1,0,0:0:0:0:
109,192,75670,1,0,0:0:0:0:
182,192,75706,1,0,0:0:0:0:
329,192,75742,1,0,0:0:0:0:
402,192,75777,1,0,0:0:0:0:
475,192,75813,1,0,0:0:0:0:
109,192,75849,1,0,0:0:0:0:
36,192,75849,1,0,0:0:0:0:
256,192,75849,1,0,0:0:0:0:
329,192,75885,1,0,0:0:0:0:
402,192,75920,1,0,0:0:0:0:
182,192,75956,1,0,0:0:0:0:
109,192,75992,1,0,0:0:0:0:
329,192,76027,1,0,0:0:0:0:
402,192,76063,1,0,0:0:0:0:
475,192,76063,1,0,0:0:0:0:
36,192,76063,128,0,76492:0:0:0:0:
256,192,76063,1,0,0:0:0:0:
475,192,76277,1,0,0:0:0:0:
329,192,76331,1,0,0:0:0:0:
182,192,76385,1,0,0:0:0:0:
329,192,76438,1,0,0:0:0:0:
475,192,76492,1,0,0:0:0:0:
256,192,76492,1,0,0:0:0:0:
109,192,76492,1,0,0:0:0:0:
402,192,76492,1,0,0:0:0:0:
182,192,76545,1,0,0:0:0:0:
329,192,76599,1,0,0:0:0:0:
402,192,76652,1,0,0:0:0:0:
475,192,76706,1,0,0:0:0:0:
109,192,76706,128,0,76920:0:0:0:0:
36,192,76706,1,0,0:0:0:0:
475,192,76920,1,0,0:0:0:0:
329,192,76920,1,0,0:0:0:0:
182,192,76920,1,0,0:0:0:0:
256,192,77027,128,0,77081:0:0:0:0:
109,192,77027,128,0,77081:0:0:0:0:
402,192,77027,128,0,77081:0:0:0:0:
402,192,77242,128,0,77295:0:0:0:0:
256,192,77242,128,0,77295:0:0:0:0:
109,192,77242,128,0,77295:0:0:0:0:
475,192,77349,1,0,0:0:0:0:
329,192,77349,1,0,0:0:0:0:
36,192,77349,1,0,0:0:0:0:
182,192,77349,1,0,0:0:0:0:
109,192,77402,1,0,0:0:0:0:
256,192,77456,1,0,0:0:0:0:
402,192,77510,1,0,0:0:0:0:
109,192,77563,1,0,0:0:0:0:
329,192,77617,1,0,0:0:0:0:
182,192,77670,1,0,0:0:0:0:
256,192,77724,1,0,0:0:0:0:
475,192,77777,1,0,0:0:0:0:
109,192,77777,1,0,0:0:0:0:
329,192,77777,1,0,0:0:0:0:
36,192,77777,1,0,0:0:0:0:
402,192,77885,1,0,0:0:0:0:
109,192,77885,1,0,0:0:0:0:
256,192,77885,1,0,0:0:0:0:
402,192,77992,1,0,0:0:0:0:
256,192,77992,1,0,0:0:0:0:
182,192,77992,1,0,0:0:0:0:
402,192,78099,1,0,0:0:0:0:
329,192,78099,1,0,0:0:0:0:
109,192,78099,1,0,0:0:0:0:
475,192,78206,1,0,0:0:0:0:
182,192,78206,1,0,0:0:0:0:
256,192,78206,1,0,0:0:0:0:
36,192,78206,1,0,0:0:0:0:
475,192,78420,1,0,0:0:0:0:
256,192,78420,1,0,0:0:0:0:
36,192,78420,1,0,0:0:0:0:
36,192,78527,1,0,0:0:0:0:
256,192,78527,1,0,0:0:0:0:
475,192,78527,1,0,0:0:0:0:
402,192,78635,1,0,0:0:0:0:
329,192,78635,1,0,0:0:0:0:
182,192,78635,1,0,0:0:0:0:
109,192,78635,1,0,0:0:0:0:
402,192,78742,1,0,0:0:0:0:
256,192,78742,1,0,0:0:0:0:
109,192,78795,1,0,0:0:0:0:
36,192,78795,1,0,0:0:0:0:
475,192,78849,1,0,0:0:0:0:
329,192,78849,1,0,0:0:0:0:
182,192,78849,1,0,0:0:0:0:
256,192,78956,1,0,0:0:0:0:
402,192,78956,1,0,0:0:0:0:
109,192,78956,1,0,0:0:0:0:
329,192,79063,1,0,0:0:0:0:
182,192,79063,1,0,0:0:0:0:
109,192,79063,1,0,0:0:0:0:
475,192,79063,128,0,79492:0:0:0:0:
256,192,79277,1,0,0:0:0:0:
36,192,79277,1,0,0:0:0:0:
256,192,79385,1,0,0:0:0:0:
36,192,79385,1,0,0:0:0:0:
402,192,79492,1,0,0:0:0:0:
329,192,79492,1,0,0:0:0:0:
109,192,79492,1,0,0:0:0:0:
182,192,79706,128,0,79920:0:0:0:0:
256,192,79706,1,0,0:0:0:0:
475,192,79706,128,0,79920:0:0:0:0:
402,192,79706,1,0,0:0:0:0:
109,192,79920,1,0,0:0:0:0:
36,192,79920,1,0,0:0:0:0:
329,192,79920,1,0,0:0:0:0:
402,192,79920,1,0,0:0:0:0:
256,192,80135,128,0,80349:0:0:0:0:
36,192,80135,128,0,80349:0:0:0:0:
402,192,80135,1,0,0:0:0:0:
182,192,80135,1,0,0:0:0:0:
475,192,80349,1,0,0:0:0:0:
329,192,80349,1,0,0:0:0:0:
109,192,80349,1,0,0:0:0:0:
402,192,80349,1,0,0:0:0:0:
256,192,80492,1,0,0:0:0:0:
182,192,80492,1,0,0:0:0:0:
402,192,80492,1,0,0:0:0:0:
329,192,80635,1,0,0:0:0:0:
182,192,80635,1,0,0:0:0:0:
109,192,80635,1,0,0:0:0:0:
402,192,80670,1,0,0:0:0:0:
256,192,80670,1,0,0:0:0:0:
475,192,80777,1,0,0:0:0:0:
36,192,80777,1,0,0:0:0:0:
109,192,80777,1,0,0:0:0:0:
402,192,80813,1,0,0:0:0:0:
329,192,80849,1,0,0:0:0:0:
256,192,80885,1,0,0:0:0:0:
182,192,80920,1,0,0:0:0:0:
109,192,80956,1,0,0:0:0:0:
329,192,80992,1,0,0:0:0:0:
256,192,81027,1,0,0:0:0:0:
182,192,81063,1,0,0:0:0:0:
109,192,81099,1,0,0:0:0:0:
36,192,81135,1,0,0:0:0:0:
329,192,81170,1,0,0:0:0:0:
475,192,81206,1,0,0:0:0:0:
402,192,81206,1,0,0:0:0:0:
182,192,81206,1,0,0:0:0:0:
256,192,81206,1,0,0:0:0:0:
402,192,81420,128,0,81635:0:0:0:0:
109,192,81420,1,0,0:0:0:0:
256,192,81420,128,0,81635:0:0:0:0:
329,192,81635,128,0,81795:0:0:0:0:
182,192,81635,128,0,81795:0:0:0:0:
36,192,81795,128,0,82063:0:0:0:0:
256,192,82063,1,0,0:0:0:0:
109,192,82063,1,0,0:0:0:0:
475,192,82063,1,0,0:0:0:0:
329,192,82117,1,0,0:0:0:0:
402,192,82170,1,0,0:0:0:0:
475,192,82170,1,0,0:0:0:0:
182,192,82277,1,0,0:0:0:0:
109,192,82277,1,0,0:0:0:0:
402,192,82385,1,0,0:0:0:0:
329,192,82385,1,0,0:0:0:0:
109,192,82492,1,0,0:0:0:0:
36,192,82492,1,0,0:0:0:0:
256,192,82492,1,0,0:0:0:0:
475,192,82492,1,0,0:0:0:0:
109,192,82599,1,0,0:0:0:0:
36,192,82599,1,0,0:0:0:0:
475,192,82706,1,0,0:0:0:0:
402,192,82706,1,0,0:0:0:0:
329,192,82706,1,0,0:0:0:0:
182,192,82706,1,0,0:0:0:0:
475,192,82813,1,0,0:0:0:0:
402,192,82813,1,0,0:0:0:0:
475,192,82920,1,0,0:0:0:0:
256,192,82920,1,0,0:0:0:0:
36,192,82920,1,0,0:0:0:0:
109,192,82920,128,0,83349:0:0:0:0:
402,192,83135,1,0,0:0:0:0:
256,192,83188,1,0,0:0:0:0:
329,192,83242,1,0,0:0:0:0:
182,192,83295,1,0,0:0:0:0:
475,192,83349,1,0,0:0:0:0:
256,192,83349,1,0,0:0:0:0:
402,192,83349,1,0,0:0:0:0:
36,192,83349,1,0,0:0:0:0:
329,192,83402,1,0,0:0:0:0:
109,192,83456,1,0,0:0:0:0:
182,192,83510,1,0,0:0:0:0:
475,192,83563,1,0,0:0:0:0:
256,192,83563,1,0,0:0:0:0:
36,192,83563,128,0,83777:0:0:0:0:
475,192,83777,1,0,0:0:0:0:
182,192,83777,1,0,0:0:0:0:
109,192,83777,1,0,0:0:0:0:
329,192,83777,1,0,0:0:0:0:
256,192,83885,128,0,83938:0:0:0:0:
36,192,83885,128,0,83938:0:0:0:0:
402,192,83885,128,0,83938:0:0:0:0:
402,192,84099,128,0,84152:0:0:0:0:
256,192,84099,128,0,84152:0:0:0:0:
36,192,84099,128,0,84152:0:0:0:0:
475,192,84206,1,0,0:0:0:0:
329,192,84206,1,0,0:0:0:0:
182,192,84206,1,0,0:0:0:0:
109,192,84206,1,0,0:0:0:0:
256,192,84260,1,0,0:0:0:0:
402,192,84313,1,0,0:0:0:0:
182,192,84367,1,0,0:0:0:0:
329,192,84420,1,0,0:0:0:0:
109,192,84474,1,0,0:0:0:0:
256,192,84527,1,0,0:0:0:0:
402,192,84581,1,0,0:0:0:0:
182,192,84635,1,0,0:0:0:0:
36,192,84635,1,0,0:0:0:0:
475,192,84635,1,0,0:0:0:0:
109,192,84635,1,0,0:0:0:0:
402,192,84742,1,0,0:0:0:0:
256,192,84742,1,0,0:0:0:0:
109,192,84742,1,0,0:0:0:0:
329,192,84849,1,0,0:0:0:0:
182,192,84849,1,0,0:0:0:0:
402,192,84849,1,0,0:0:0:0:
329,192,84956,1,0,0:0:0:0:
402,192,84956,1,0,0:0:0:0:
109,192,84956,1,0,0:0:0:0:
475,192,85063,1,0,0:0:0:0:
182,192,85063,1,0,0:0:0:0:
256,192,85063,1,0,0:0:0:0:
36,192,85063,1,0,0:0:0:0:
402,192,85277,1,0,0:0:0:0:
256,192,85277,1,0,0:0:0:0:
109,192,85277,1,0,0:0:0:0:
402,192,85385,1,0,0:0:0:0:
256,192,85385,1,0,0:0:0:0:
109,192,85385,1,0,0:0:0:0:
475,192,85492,1,0,0:0:0:0:
36,192,85492,1,0,0:0:0:0:
182,192,85492,1,0,0:0:0:0:
402,192,85599,1,0,0:0:0:0:
329,192,85599,1,0,0:0:0:0:
256,192,85652,1,0,0:0:0:0:
182,192,85652,1,0,0:0:0:0:
36,192,85706,1,0,0:0:0:0:
109,192,85706,1,0,0:0:0:0:
475,192,85706,1,0,0:0:0:0:
402,192,85742,1,0,0:0:0:0:
329,192,85777,1,0,0:0:0:0:
36,192,85813,1,0,0:0:0:0:
256,192,85813,1,0,0:0:0:0:
109,192,85813,1,0,0:0:0:0:
36,192,85920,1,0,0:0:0:0:
109,192,85920,1,0,0:0:0:0:
182,192,85920,1,0,0:0:0:0:
475,192,85920,1,0,0:0:0:0:
402,192,85956,1,0,0:0:0:0:
329,192,85992,1,0,0:0:0:0:
256,192,86027,1,0,0:0:0:0:
109,192,86135,1,0,0:0:0:0:
475,192,86135,1,0,0:0:0:0:
36,192,86135,1,0,0:0:0:0:
402,192,86170,1,0,0:0:0:0:
329,192,86206,1,0,0:0:0:0:
109,192,86242,1,0,0:0:0:0:
36,192,86242,1,0,0:0:0:0:
256,192,86242,1,0,0:0:0:0:
329,192,86349,128,0,86563:0:0:0:0:
182,192,86349,128,0,86563:0:0:0:0:
475,192,86563,1,0,0:0:0:0:
256,192,86563,1,0,0:0:0:0:
36,192,86563,1,0,0:0:0:0:
109,192,86670,1,0,0:0:0:0:
329,192,86670,1,0,0:0:0:0:
182,192,86724,1,0,0:0:0:0:
256,192,86777,1,0,0:0:0:0:
475,192,86777,1,0,0:0:0:0:
402,192,86777,1,0,0:0:0:0:
36,192,86777,1,0,0:0:0:0:
109,192,86831,1,0,0:0:0:0:
329,192,86885,1,0,0:0:0:0:
182,192,86938,1,0,0:0:0:0:
475,192,86992,1,0,0:0:0:0:
402,192,86992,1,0,0:0:0:0:
36,192,86992,128,0,87206:0:0:0:0:
475,192,87206,1,0,0:0:0:0:
256,192,87206,1,0,0:0:0:0:
109,192,87206,1,0,0:0:0:0:
402,192,87206,1,0,0:0:0:0:
329,192,87242,1,0,0:0:0:0:
475,192,87349,1,0,0:0:0:0:
402,192,87349,1,0,0:0:0:0:
182,192,87349,128,0,87385:0:0:0:0:
36,192,87349,128,0,87385:0:0:0:0:
329,192,87385,1,0,0:0:0:0:
475,192,87492,1,0,0:0:0:0:
402,192,87492,1,0,0:0:0:0:
182,192,87492,128,0,87527:0:0:0:0:
36,192,87492,128,0,87527:0:0:0:0:
329,192,87527,1,0,0:0:0:0:
475,192,87635,1,0,0:0:0:0:
402,192,87635,1,0,0:0:0:0:
36,192,87635,1,0,0:0:0:0:
109,192,87670,1,0,0:0:0:0:
182,192,87706,1,0,0:0:0:0:
256,192,87742,1,0,0:0:0:0:
329,192,87777,1,0,0:0:0:0:
402,192,87813,1,0,0:0:0:0:
475,192,87849,1,0,0:0:0:0:
36,192,87885,1,0,0:0:0:0:
109,192,87920,1,0,0:0:0:0:
182,192,87956,1,0,0:0:0:0:
329,192,87992,1,0,0:0:0:0:
402,192,88027,1,0,0:0:0:0:
475,192,88063,1,0,0:0:0:0:
36,192,88063,1,0,0:0:0:0:
256,192,88063,1,0,0:0:0:0:
109,192,88099,1,0,0:0:0:0:
182,192,88135,1,0,0:0:0:0:
329,192,88170,1,0,0:0:0:0:
402,192,88206,1,0,0:0:0:0:
475,192,88242,1,0,0:0:0:0:
182,192,88277,1,0,0:0:0:0:
109,192,88313,1,0,0:0:0:0:
36,192,88349,1,0,0:0:0:0:
475,192,88385,1,0,0:0:0:0:
402,192,88420,1,0,0:0:0:0:
329,192,88456,1,0,0:0:0:0:
36,192,88492,1,0,0:0:0:0:
256,192,88492,1,0,0:0:0:0:
109,192,88527,1,0,0:0:0:0:
182,192,88563,1,0,0:0:0:0:
329,192,88599,1,0,0:0:0:0:
402,192,88635,1,0,0:0:0:0:
475,192,88670,1,0,0:0:0:0:
182,192,88706,1,0,0:0:0:0:
109,192,88742,1,0,0:0:0:0:
36,192,88777,1,0,0:0:0:0:
475,192,88813,1,0,0:0:0:0:
402,192,88849,1,0,0:0:0:0:
329,192,88885,1,0,0:0:0:0:
256,192,88920,1,0,0:0:0:0:
36,192,88920,1,0,0:0:0:0:
109,192,88956,1,0,0:0:0:0:
182,192,88992,1,0,0:0:0:0:
329,192,89027,1,0,0:0:0:0:
402,192,89063,1,0,0:0:0:0:
475,192,89099,1,0,0:0:0:0:
182,192,89135,1,0,0:0:0:0:
109,192,89170,1,0,0:0:0:0:
36,192,89206,1,0,0:0:0:0:
256,192,89242,1,0,0:0:0:0:
475,192,89242,1,0,0:0:0:0:
402,192,89277,1,0,0:0:0:0:
329,192,89313,1,0,0:0:0:0:
36,192,89349,1,0,0:0:0:0:
109,192,89385,1,0,0:0:0:0:
182,192,89420,1,0,0:0:0:0:
329,192,89456,1,0,0:0:0:0:
402,192,89492,1,0,0:0:0:0:
475,192,89527,1,0,0:0:0:0:
256,192,89563,1,0,0:0:0:0:
36,192,89563,1,0,0:0:0:0:
182,192,89599,1,0,0:0:0:0:
109,192,89635,1,0,0:0:0:0:
329,192,89670,1,0,0:0:0:0:
402,192,89706,1,0,0:0:0:0:
182,192,89742,1,0,0:0:0:0:
36,192,89777,1,0,0:0:0:0:
109,192,89777,1,0,0:0:0:0:
475,192,89777,1,0,0:0:0:0:
402,192,89813,1,0,0:0:0:0:
329,192,89849,1,0,0:0:0:0:
256,192,89885,1,0,0:0:0:0:
182,192,89920,1,0,0:0:0:0:
109,192,89956,1,0,0:0:0:0:
329,192,89992,1,0,0:0:0:0:
402,192,90027,1,0,0:0:0:0:
475,192,90063,1,0,0:0:0:0:
109,192,90099,1,0,0:0:0:0:
182,192,90135,1,0,0:0:0:0:
256,192,90170,1,0,0:0:0:0:
475,192,90206,1,0,0:0:0:0:
36,192,90206,1,0,0:0:0:0:
402,192,90206,1,0,0:0:0:0:
329,192,90260,1,0,0:0:0:0:
182,192,90313,1,0,0:0:0:0:
256,192,90367,1,0,0:0:0:0:
329,192,90420,1,0,0:0:0:0:
36,192,90420,1,0,0:0:0:0:
109,192,90474,1,0,0:0:0:0:
182,192,90527,1,0,0:0:0:0:
109,192,90581,1,0,0:0:0:0:
36,192,90635,1,0,0:0:0:0:
329,192,90635,1,0,0:0:0:0:
475,192,90635,1,0,0:0:0:0:
256,192,90635,1,0,0:0:0:0:
109,192,90742,1,0,0:0:0:0:
256,192,90742,1,0,0:0:0:0:
402,192,90742,1,0,0:0:0:0:
109,192,90956,1,0,0:0:0:0:
256,192,90956,1,0,0:0:0:0:
402,192,90956,1,0,0:0:0:0:
475,192,91063,1,0,0:0:0:0:
329,192,91063,1,0,0:0:0:0:
109,192,91063,1,0,0:0:0:0:
36,192,91063,1,0,0:0:0:0:
182,192,91117,1,0,0:0:0:0:
256,192,91170,1,0,0:0:0:0:
475,192,91224,1,0,0:0:0:0:
36,192,91277,1,0,0:0:0:0:
402,192,91277,1,0,0:0:0:0:
329,192,91331,1,0,0:0:0:0:
256,192,91385,1,0,0:0:0:0:
109,192,91438,1,0,0:0:0:0:
475,192,91492,1,0,0:0:0:0:
402,192,91492,1,0,0:0:0:0:
182,192,91492,1,0,0:0:0:0:
329,192,91492,1,0,0:0:0:0:
402,192,91599,1,0,0:0:0:0:
256,192,91599,1,0,0:0:0:0:
109,192,91599,1,0,0:0:0:0:
329,192,91706,1,0,0:0:0:0:
182,192,91706,1,0,0:0:0:0:
109,192,91706,1,0,0:0:0:0:
402,192,91813,1,0,0:0:0:0:
109,192,91813,1,0,0:0:0:0:
182,192,91813,1,0,0:0:0:0:
402,192,91920,1,0,0:0:0:0:
329,192,91920,1,0,0:0:0:0:
256,192,91920,1,0,0:0:0:0:
36,192,91920,1,0,0:0:0:0:
475,192,92135,1,0,0:0:0:0:
256,192,92135,1,0,0:0:0:0:
109,192,92135,1,0,0:0:0:0:
256,192,92242,1,0,0:0:0:0:
109,192,92242,1,0,0:0:0:0:
475,192,92242,1,0,0:0:0:0:
402,192,92349,1,0,0:0:0:0:
329,192,92349,1,0,0:0:0:0:
182,192,92349,1,0,0:0:0:0:
36,192,92349,1,0,0:0:0:0:
256,192,92456,1,0,0:0:0:0:
109,192,92456,1,0,0:0:0:0:
402,192,92510,1,0,0:0:0:0:
329,192,92510,1,0,0:0:0:0:
475,192,92563,1,0,0:0:0:0:
36,192,92563,1,0,0:0:0:0:
475,192,92670,1,0,0:0:0:0:
36,192,92670,1,0,0:0:0:0:
182,192,92777,1,0,0:0:0:0:
402,192,92777,1,0,0:0:0:0:
256,192,92777,1,0,0:0:0:0:
109,192,92777,1,0,0:0:0:0:
329,192,92885,1,0,0:0:0:0:
182,192,92992,1,0,0:0:0:0:
36,192,92992,1,0,0:0:0:0:
329,192,93099,1,0,0:0:0:0:
475,192,93206,1,0,0:0:0:0:
402,192,93206,1,0,0:0:0:0:
109,192,93206,1,0,0:0:0:0:
36,192,93206,1,0,0:0:0:0:
256,192,93206,128,0,93581:0:0:0:0:
402,192,93635,1,0,0:0:0:0:
36,192,93635,1,0,0:0:0:0:
256,192,93635,128,0,94063:0:0:0:0:
109,192,93635,1,0,0:0:0:0:
475,192,93635,1,0,0:0:0:0:
109,192,94063,1,0,0:0:0:0:
36,192,94063,1,0,0:0:0:0:
402,192,94063,1,0,0:0:0:0:
402,192,94206,1,0,0:0:0:0:
109,192,94206,1,0,0:0:0:0:
36,192,94206,1,0,0:0:0:0:
329,192,94206,1,0,0:0:0:0:
402,192,94349,1,0,0:0:0:0:
109,192,94349,1,0,0:0:0:0:
36,192,94349,1,0,0:0:0:0:
329,192,94349,1,0,0:0:0:0:
475,192,94492,1,0,0:0:0:0:
256,192,94492,1,0,0:0:0:0:
36,192,94492,1,0,0:0:0:0:
402,192,94527,1,0,0:0:0:0:
329,192,94563,1,0,0:0:0:0:
109,192,94599,1,0,0:0:0:0:
182,192,94635,1,0,0:0:0:0:
402,192,94670,1,0,0:0:0:0:
329,192,94706,1,0,0:0:0:0:
36,192,94742,1,0,0:0:0:0:
109,192,94777,1,0,0:0:0:0:
182,192,94813,1,0,0:0:0:0:
329,192,94849,1,0,0:0:0:0:
402,192,94885,1,0,0:0:0:0:
475,192,94920,1,0,0:0:0:0:
256,192,94920,1,0,0:0:0:0:
109,192,94920,1,0,0:0:0:0:
36,192,94920,1,0,0:0:0:0:
36,192,96206,128,0,96260:0:0:0:0:
109,192,96260,128,0,96313:0:0:0:0:
182,192,96313,128,0,96367:0:0:0:0:
402,192,96367,128,0,96420:0:0:0:0:
329,192,96420,128,0,96492:0:0:0:0:
256,192,96492,128,0,96563:0:0:0:0:
182,192,96563,128,0,96635:0:0:0:0:
475,192,96635,1,0,0:0:0:0:
329,192,96635,1,0,0:0:0:0:
402,192,96635,128,0,97920:0:0:0:0:
36,192,96635,128,0,96849:0:0:0:0:
329,192,97063,1,0,0:0:0:0:
256,192,97063,1,0,0:0:0:0:
36,192,97063,1,0,0:0:0:0:
109,192,97063,128,0,97277:0:0:0:0:
329,192,97492,1,0,0:0:0:0:
36,192,97492,1,0,0:0:0:0:
475,192,97492,1,0,0:0:0:0:
182,192,97492,128,0,97706:0:0:0:0:
256,192,97813,1,0,0:0:0:0:
109,192,97813,1,0,0:0:0:0:
329,192,97920,128,0,98349:0:0:0:0:
256,192,97920,1,0,0:0:0:0:
182,192,97920,1,0,0:0:0:0:
36,192,97920,128,0,98135:0:0:0:0:
256,192,98135,1,0,0:0:0:0:
109,192,98135,1,0,0:0:0:0:
402,192,98135,1,0,0:0:0:0:
182,192,98135,128,0,98349:0:0:0:0:
475,192,98349,128,0,98563:0:0:0:0:
182,192,98563,128,0,99635:0:0:0:0:
402,192,98563,1,0,0:0:0:0:
36,192,98563,1,0,0:0:0:0:
329,192,98563,128,0,98777:0:0:0:0:
475,192,98777,128,0,98992:0:0:0:0:
402,192,98777,1,0,0:0:0:0:
256,192,98777,1,0,0:0:0:0:
109,192,98777,1,0,0:0:0:0:
402,192,99206,128,0,99420:0:0:0:0:
329,192,99206,1,0,0:0:0:0:
256,192,99206,1,0,0:0:0:0:
36,192,99206,1,0,0:0:0:0:
402,192,99527,1,0,0:0:0:0:
256,192,99527,1,0,0:0:0:0:
109,192,99635,128,0,100063:0:0:0:0:
329,192,99635,1,0,0:0:0:0:
256,192,99635,1,0,0:0:0:0:
475,192,99635,128,0,99849:0:0:0:0:
329,192,99849,128,0,100063:0:0:0:0:
182,192,99849,1,0,0:0:0:0:
256,192,99849,1,0,0:0:0:0:
402,192,99849,1,0,0:0:0:0:
402,192,100063,128,0,100277:0:0:0:0:
475,192,100063,1,0,0:0:0:0:
182,192,100063,1,0,0:0:0:0:
36,192,100063,1,0,0:0:0:0:
36,192,100277,128,0,101777:0:0:0:0:
256,192,100277,1,0,0:0:0:0:
329,192,100385,1,0,0:0:0:0:
402,192,100492,1,0,0:0:0:0:
256,192,100492,1,0,0:0:0:0:
109,192,100492,1,0,0:0:0:0:
475,192,100492,128,0,100706:0:0:0:0:
329,192,100706,1,0,0:0:0:0:
182,192,100813,1,0,0:0:0:0:
475,192,100920,1,0,0:0:0:0:
402,192,100920,1,0,0:0:0:0:
109,192,100920,1,0,0:0:0:0:
256,192,100920,128,0,101135:0:0:0:0:
475,192,101135,1,0,0:0:0:0:
329,192,101135,1,0,0:0:0:0:
402,192,101242,1,0,0:0:0:0:
182,192,101242,1,0,0:0:0:0:
109,192,101242,1,0,0:0:0:0:
329,192,101242,1,0,0:0:0:0:
256,192,101349,1,0,0:0:0:0:
329,192,101420,1,0,0:0:0:0:
182,192,101492,1,0,0:0:0:0:
256,192,101563,1,0,0:0:0:0:
402,192,101563,1,0,0:0:0:0:
475,192,101563,1,0,0:0:0:0:
109,192,101563,1,0,0:0:0:0:
329,192,101635,1,0,0:0:0:0:
182,192,101706,1,0,0:0:0:0:
475,192,101777,1,0,0:0:0:0:
329,192,101777,1,0,0:0:0:0:
182,192,101849,1,0,0:0:0:0:
109,192,101849,1,0,0:0:0:0:
402,192,101920,1,0,0:0:0:0:
256,192,101920,1,0,0:0:0:0:
109,192,101992,1,0,0:0:0:0:
36,192,101992,1,0,0:0:0:0:
182,192,101992,1,0,0:0:0:0:
475,192,102063,1,0,0:0:0:0:
329,192,102063,1,0,0:0:0:0:
256,192,102135,1,0,0:0:0:0:
109,192,102135,1,0,0:0:0:0:
475,192,102206,1,0,0:0:0:0:
402,192,102206,1,0,0:0:0:0:
329,192,102206,1,0,0:0:0:0:
182,192,102277,1,0,0:0:0:0:
36,192,102277,1,0,0:0:0:0:
475,192,102349,1,0,0:0:0:0:
256,192,102349,1,0,0:0:0:0:
109,192,102420,1,0,0:0:0:0:
36,192,102420,1,0,0:0:0:0:
329,192,102492,1,0,0:0:0:0:
402,192,102492,1,0,0:0:0:0:
256,192,102563,1,0,0:0:0:0:
109,192,102563,1,0,0:0:0:0:
475,192,102635,1,0,0:0:0:0:
402,192,102635,1,0,0:0:0:0:
329,192,102635,1,0,0:0:0:0:
182,192,102706,1,0,0:0:0:0:
36,192,102706,1,0,0:0:0:0:
256,192,102777,1,0,0:0:0:0:
475,192,102777,1,0,0:0:0:0:
109,192,102849,1,0,0:0:0:0:
36,192,102849,1,0,0:0:0:0:
402,192,102920,1,0,0:0:0:0:
329,192,102920,1,0,0:0:0:0:
256,192,102956,1,0,0:0:0:0:
182,192,102992,1,0,0:0:0:0:
109,192,102992,1,0,0:0:0:0:
475,192,103063,1,0,0:0:0:0:
329,192,103063,1,0,0:0:0:0:
182,192,103135,1,0,0:0:0:0:
36,192,103135,1,0,0:0:0:0:
402,192,103206,1,0,0:0:0:0:
256,192,103206,1,0,0:0:0:0:
109,192,103277,1,0,0:0:0:0:
36,192,103277,1,0,0:0:0:0:
329,192,103349,1,0,0:0:0:0:
182,192,103349,1,0,0:0:0:0:
475,192,103420,1,0,0:0:0:0:
402,192,103420,1,0,0:0:0:0:
256,192,103492,1,0,0:0:0:0:
36,192,103492,1,0,0:0:0:0:
109,192,103492,128,0,104777:0:0:0:0:
329,192,103492,128,0,103706:0:0:0:0:
475,192,103920,1,0,0:0:0:0:
256,192,103920,1,0,0:0:0:0:
36,192,103920,1,0,0:0:0:0:
402,192,103920,128,0,104135:0:0:0:0:
475,192,104349,1,0,0:0:0:0:
256,192,104349,1,0,0:0:0:0:
182,192,104349,1,0,0:0:0:0:
329,192,104349,128,0,104563:0:0:0:0:
402,192,104670,1,0,0:0:0:0:
329,192,104670,1,0,0:0:0:0:
475,192,104777,1,0,0:0:0:0:
256,192,104777,1,0,0:0:0:0:
36,192,104777,128,0,105206:0:0:0:0:
329,192,104777,128,0,104992:0:0:0:0:
475,192,104992,128,0,105206:0:0:0:0:
182,192,104992,1,0,0:0:0:0:
109,192,104992,1,0,0:0:0:0:
402,192,104992,1,0,0:0:0:0:
256,192,105206,128,0,105420:0:0:0:0:
402,192,105420,128,0,106277:0:0:0:0:
329,192,105420,1,0,0:0:0:0:
36,192,105420,1,0,0:0:0:0:
182,192,105420,128,0,105635:0:0:0:0:
329,192,105635,128,0,105849:0:0:0:0:
256,192,105635,1,0,0:0:0:0:
475,192,105635,1,0,0:0:0:0:
109,192,105635,1,0,0:0:0:0:
329,192,106063,1,0,0:0:0:0:
256,192,106063,1,0,0:0:0:0:
109,192,106063,1,0,0:0:0:0:
36,192,106063,128,0,106277:0:0:0:0:
182,192,106277,128,0,106492:0:0:0:0:
402,192,106385,1,0,0:0:0:0:
329,192,106385,1,0,0:0:0:0:
475,192,106492,128,0,106706:0:0:0:0:
329,192,106492,1,0,0:0:0:0:
109,192,106492,1,0,0:0:0:0:
256,192,106492,128,0,106706:0:0:0:0:
109,192,106706,128,0,106920:0:0:0:0:
402,192,106706,128,0,106920:0:0:0:0:
329,192,106706,1,0,0:0:0:0:
182,192,106706,1,0,0:0:0:0:
329,192,106920,128,0,108206:0:0:0:0:
256,192,106920,1,0,0:0:0:0:
182,192,106920,1,0,0:0:0:0:
36,192,106920,1,0,0:0:0:0:
182,192,107135,1,0,0:0:0:0:
36,192,107135,1,0,0:0:0:0:
182,192,107349,1,0,0:0:0:0:
36,192,107349,1,0,0:0:0:0:
475,192,107563,128,0,108206:0:0:0:0:
36,192,107563,1,0,0:0:0:0:
182,192,107563,1,0,0:0:0:0:
182,192,107777,1,0,0:0:0:0:
36,192,107777,1,0,0:0:0:0:
182,192,107992,1,0,0:0:0:0:
36,192,107992,1,0,0:0:0:0:
256,192,108099,1,0,0:0:0:0:
109,192,108099,1,0,0:0:0:0:
182,192,108206,1,0,0:0:0:0:
36,192,108206,1,0,0:0:0:0:
402,192,108206,128,0,108635:0:0:0:0:
182,192,108420,1,0,0:0:0:0:
36,192,108420,1,0,0:0:0:0:
182,192,108635,1,0,0:0:0:0:
36,192,108635,1,0,0:0:0:0:
475,192,108635,1,0,0:0:0:0:
475,192,108742,1,0,0:0:0:0:
182,192,108742,1,0,0:0:0:0:
36,192,108742,1,0,0:0:0:0:
402,192,108849,1,0,0:0:0:0:
109,192,108849,1,0,0:0:0:0:
256,192,108849,1,0,0:0:0:0:
402,192,108956,1,0,0:0:0:0:
109,192,108956,1,0,0:0:0:0:
256,192,108956,1,0,0:0:0:0:
182,192,109063,1,0,0:0:0:0:
475,192,109063,1,0,0:0:0:0:
329,192,109063,1,0,0:0:0:0:
182,192,109170,1,0,0:0:0:0:
475,192,109170,1,0,0:0:0:0:
329,192,109170,1,0,0:0:0:0:
109,192,109277,1,0,0:0:0:0:
402,192,109277,1,0,0:0:0:0:
256,192,109277,1,0,0:0:0:0:
402,192,109385,1,0,0:0:0:0:
256,192,109385,1,0,0:0:0:0:
109,192,109385,1,0,0:0:0:0:
36,192,109492,1,0,0:0:0:0:
109,192,109492,1,0,0:0:0:0:
182,192,109492,1,0,0:0:0:0:
329,192,109563,1,0,0:0:0:0:
182,192,109635,1,0,0:0:0:0:
402,192,109706,1,0,0:0:0:0:
329,192,109777,1,0,0:0:0:0:
109,192,109849,1,0,0:0:0:0:
402,192,109920,1,0,0:0:0:0:
329,192,109992,1,0,0:0:0:0:
36,192,110063,1,0,0:0:0:0:
402,192,110135,1,0,0:0:0:0:
329,192,110206,1,0,0:0:0:0:
182,192,110277,1,0,0:0:0:0:
109,192,110349,1,0,0:0:0:0:
36,192,110349,1,0,0:0:0:0:
402,192,110349,1,0,0:0:0:0:
475,192,110349,1,0,0:0:0:0:
256,192,110349,128,0,110670:0:0:0:0:
402,192,110777,128,0,110885:0:0:0:0:
256,192,110777,128,0,110885:0:0:0:0:
109,192,110777,128,0,110885:0:0:0:0:
402,192,110992,128,0,111099:0:0:0:0:
256,192,110992,128,0,111099:0:0:0:0:
109,192,110992,128,0,111099:0:0:0:0:
329,192,111206,1,0,0:0:0:0:
402,192,111206,1,0,0:0:0:0:
182,192,111206,1,0,0:0:0:0:
36,192,111206,1,0,0:0:0:0:
475,192,111313,128,0,111367:0:0:0:0:
329,192,111313,128,0,111367:0:0:0:0:
109,192,111313,128,0,111367:0:0:0:0:
109,192,111527,128,0,111581:0:0:0:0:
329,192,111527,128,0,111581:0:0:0:0:
475,192,111527,128,0,111581:0:0:0:0:
402,192,111635,1,0,0:0:0:0:
256,192,111635,1,0,0:0:0:0:
36,192,111635,1,0,0:0:0:0:
109,192,111688,1,0,0:0:0:0:
182,192,111742,1,0,0:0:0:0:
256,192,111795,1,0,0:0:0:0:
402,192,111849,1,0,0:0:0:0:
36,192,111849,1,0,0:0:0:0:
109,192,111902,1,0,0:0:0:0:
256,192,111956,1,0,0:0:0:0:
329,192,112010,1,0,0:0:0:0:
475,192,112063,1,0,0:0:0:0:
402,192,112063,1,0,0:0:0:0:
109,192,112063,1,0,0:0:0:0:
36,192,112063,1,0,0:0:0:0:
329,192,112170,1,0,0:0:0:0:
402,192,112170,1,0,0:0:0:0:
182,192,112170,1,0,0:0:0:0:
109,192,112277,1,0,0:0:0:0:
402,192,112277,1,0,0:0:0:0:
329,192,112277,1,0,0:0:0:0:
256,192,112385,1,0,0:0:0:0:
182,192,112385,1,0,0:0:0:0:
109,192,112385,1,0,0:0:0:0:
475,192,112492,1,0,0:0:0:0:
329,192,112492,1,0,0:0:0:0:
256,192,112492,1,0,0:0:0:0:
36,192,112492,1,0,0:0:0:0:
475,192,112706,128,0,112760:0:0:0:0:
402,192,112706,128,0,112760:0:0:0:0:
109,192,112706,128,0,112760:0:0:0:0:
36,192,112706,128,0,112760:0:0:0:0:
109,192,112813,128,0,112867:0:0:0:0:
36,192,112813,128,0,112867:0:0:0:0:
475,192,112813,128,0,112867:0:0:0:0:
402,192,112813,128,0,112867:0:0:0:0:
475,192,112920,1,0,0:0:0:0:
402,192,112920,1,0,0:0:0:0:
256,192,112920,1,0,0:0:0:0:
109,192,112920,1,0,0:0:0:0:
36,192,112920,1,0,0:0:0:0:
402,192,113027,1,0,0:0:0:0:
329,192,113027,1,0,0:0:0:0:
182,192,113081,1,0,0:0:0:0:
109,192,113081,1,0,0:0:0:0:
402,192,113135,1,0,0:0:0:0:
329,192,113135,1,0,0:0:0:0:
256,192,113242,1,0,0:0:0:0:
109,192,113242,1,0,0:0:0:0:
402,192,113349,1,0,0:0:0:0:
475,192,113349,1,0,0:0:0:0:
36,192,113349,128,0,113777:0:0:0:0:
182,192,113563,128,0,113617:0:0:0:0:
329,192,113563,128,0,113617:0:0:0:0:
329,192,113670,128,0,113724:0:0:0:0:
182,192,113670,128,0,113724:0:0:0:0:
329,192,113777,1,0,0:0:0:0:
256,192,113777,1,0,0:0:0:0:
109,192,113777,1,0,0:0:0:0:
475,192,113777,128,0,114099:0:0:0:0:
475,192,114206,128,0,114313:0:0:0:0:
256,192,114206,128,0,114313:0:0:0:0:
36,192,114206,128,0,114313:0:0:0:0:
36,192,114420,128,0,114527:0:0:0:0:
256,192,114420,128,0,114527:0:0:0:0:
475,192,114420,128,0,114527:0:0:0:0:
36,192,114635,128,0,114956:0:0:0:0:
256,192,114635,1,0,0:0:0:0:
182,192,114635,1,0,0:0:0:0:
475,192,114635,1,0,0:0:0:0:
475,192,114742,128,0,114849:0:0:0:0:
256,192,114742,128,0,114849:0:0:0:0:
402,192,114849,1,0,0:0:0:0:
329,192,114885,1,0,0:0:0:0:
256,192,114920,1,0,0:0:0:0:
182,192,114956,1,0,0:0:0:0:
109,192,114992,1,0,0:0:0:0:
329,192,115027,1,0,0:0:0:0:
402,192,115063,1,0,0:0:0:0:
36,192,115063,1,0,0:0:0:0:
475,192,115063,128,0,115492:0:0:0:0:
36,192,115277,1,0,0:0:0:0:
109,192,115304,1,0,0:0:0:0:
182,192,115331,1,0,0:0:0:0:
402,192,115358,1,0,0:0:0:0:
329,192,115385,1,0,0:0:0:0:
256,192,115411,1,0,0:0:0:0:
182,192,115438,1,0,0:0:0:0:
109,192,115465,1,0,0:0:0:0:
36,192,115492,1,0,0:0:0:0:
402,192,115492,1,0,0:0:0:0:
329,192,115492,1,0,0:0:0:0:
256,192,115706,128,0,115813:0:0:0:0:
109,192,115706,128,0,115813:0:0:0:0:
402,192,115706,128,0,115813:0:0:0:0:
329,192,115920,1,0,0:0:0:0:
182,192,115920,1,0,0:0:0:0:
109,192,115920,1,0,0:0:0:0:
475,192,115920,128,0,116135:0:0:0:0:
402,192,116135,1,0,0:0:0:0:
329,192,116135,1,0,0:0:0:0:
182,192,116188,1,0,0:0:0:0:
109,192,116188,1,0,0:0:0:0:
329,192,116242,1,0,0:0:0:0:
182,192,116295,1,0,0:0:0:0:
475,192,116349,1,0,0:0:0:0:
402,192,116349,1,0,0:0:0:0:
256,192,116349,1,0,0:0:0:0:
36,192,116349,1,0,0:0:0:0:
109,192,116385,1,0,0:0:0:0:
182,192,116420,1,0,0:0:0:0:
329,192,116456,128,0,116510:0:0:0:0:
402,192,116456,128,0,116510:0:0:0:0:
182,192,116563,128,0,116617:0:0:0:0:
109,192,116563,128,0,116617:0:0:0:0:
402,192,116670,128,0,116724:0:0:0:0:
256,192,116670,128,0,116724:0:0:0:0:
329,192,116777,128,0,116831:0:0:0:0:
182,192,116777,128,0,116831:0:0:0:0:
36,192,116777,128,0,116831:0:0:0:0:
256,192,116885,128,0,116938:0:0:0:0:
109,192,116885,128,0,116938:0:0:0:0:
475,192,116885,128,0,116938:0:0:0:0:
402,192,116992,128,0,117045:0:0:0:0:
329,192,116992,128,0,117045:0:0:0:0:
36,192,116992,128,0,117045:0:0:0:0:
182,192,117099,128,0,117152:0:0:0:0:
109,192,117099,128,0,117152:0:0:0:0:
256,192,117099,128,0,117152:0:0:0:0:
475,192,117206,1,0,0:0:0:0:
402,192,117206,1,0,0:0:0:0:
109,192,117206,1,0,0:0:0:0:
36,192,117206,1,0,0:0:0:0:
256,192,117206,128,0,117527:0:0:0:0:
256,192,117635,128,0,117742:0:0:0:0:
109,192,117635,128,0,117742:0:0:0:0:
475,192,117635,128,0,117742:0:0:0:0:
475,192,117849,128,0,117956:0:0:0:0:
256,192,117849,128,0,117956:0:0:0:0:
109,192,117849,128,0,117956:0:0:0:0:
475,192,118063,1,0,0:0:0:0:
402,192,118063,1,0,0:0:0:0:
182,192,118063,1,0,0:0:0:0:
36,192,118063,1,0,0:0:0:0:
475,192,118170,128,0,118224:0:0:0:0:
256,192,118170,128,0,118224:0:0:0:0:
36,192,118170,128,0,118224:0:0:0:0:
36,192,118385,128,0,118438:0:0:0:0:
256,192,118385,128,0,118438:0:0:0:0:
475,192,118385,128,0,118438:0:0:0:0:
329,192,118492,1,0,0:0:0:0:
402,192,118492,1,0,0:0:0:0:
182,192,118492,1,0,0:0:0:0:
109,192,118492,1,0,0:0:0:0:
256,192,118545,1,0,0:0:0:0:
36,192,118599,1,0,0:0:0:0:
182,192,118652,1,0,0:0:0:0:
402,192,118706,1,0,0:0:0:0:
329,192,118760,1,0,0:0:0:0:
109,192,118813,1,0,0:0:0:0:
182,192,118867,1,0,0:0:0:0:
256,192,118920,1,0,0:0:0:0:
36,192,118920,1,0,0:0:0:0:
475,192,118920,1,0,0:0:0:0:
402,192,118920,1,0,0:0:0:0:
402,192,119027,1,0,0:0:0:0:
329,192,119027,1,0,0:0:0:0:
182,192,119027,1,0,0:0:0:0:
329,192,119135,1,0,0:0:0:0:
256,192,119135,1,0,0:0:0:0:
109,192,119135,1,0,0:0:0:0:
402,192,119242,1,0,0:0:0:0:
182,192,119242,1,0,0:0:0:0:
109,192,119242,1,0,0:0:0:0:
402,192,119349,1,0,0:0:0:0:
329,192,119349,1,0,0:0:0:0:
256,192,119349,1,0,0:0:0:0:
182,192,119349,1,0,0:0:0:0:
36,192,119563,128,0,119617:0:0:0:0:
329,192,119563,128,0,119617:0:0:0:0:
475,192,119563,128,0,119617:0:0:0:0:
36,192,119670,128,0,119724:0:0:0:0:
329,192,119670,128,0,119724:0:0:0:0:
475,192,119670,128,0,119724:0:0:0:0:
402,192,119777,1,0,0:0:0:0:
256,192,119777,1,0,0:0:0:0:
182,192,119777,1,0,0:0:0:0:
109,192,119777,1,0,0:0:0:0:
182,192,119885,1,0,0:0:0:0:
109,192,119885,1,0,0:0:0:0:
402,192,119938,1,0,0:0:0:0:
329,192,119938,1,0,0:0:0:0:
182,192,119992,1,0,0:0:0:0:
109,192,119992,1,0,0:0:0:0:
402,192,120099,1,0,0:0:0:0:
256,192,120099,1,0,0:0:0:0:
475,192,120206,1,0,0:0:0:0:
182,192,120206,128,0,120367:0:0:0:0:
36,192,120206,1,0,0:0:0:0:
329,192,120206,128,0,120367:0:0:0:0:
329,192,120420,128,0,120474:0:0:0:0:
182,192,120420,128,0,120474:0:0:0:0:
182,192,120527,128,0,120581:0:0:0:0:
329,192,120527,128,0,120581:0:0:0:0:
402,192,120635,1,0,0:0:0:0:
256,192,120635,1,0,0:0:0:0:
475,192,120635,128,0,120956:0:0:0:0:
36,192,120635,128,0,120956:0:0:0:0:
475,192,121063,128,0,121170:0:0:0:0:
36,192,121063,128,0,121170:0:0:0:0:
329,192,121063,128,0,121170:0:0:0:0:
475,192,121277,128,0,121385:0:0:0:0:
36,192,121277,128,0,121385:0:0:0:0:
329,192,121277,128,0,121385:0:0:0:0:
256,192,121492,1,0,0:0:0:0:
36,192,121492,1,0,0:0:0:0:
402,192,121492,1,0,0:0:0:0:
109,192,121492,1,0,0:0:0:0:
475,192,121599,128,0,121706:0:0:0:0:
329,192,121599,128,0,121706:0:0:0:0:
109,192,121706,1,0,0:0:0:0:
182,192,121742,1,0,0:0:0:0:
256,192,121777,1,0,0:0:0:0:
402,192,121813,1,0,0:0:0:0:
329,192,121849,1,0,0:0:0:0:
256,192,121885,1,0,0:0:0:0:
36,192,121920,128,0,122135:0:0:0:0:
475,192,121920,128,0,122349:0:0:0:0:
182,192,121920,1,0,0:0:0:0:
109,192,122135,1,0,0:0:0:0:
182,192,122161,1,0,0:0:0:0:
256,192,122188,1,0,0:0:0:0:
329,192,122215,1,0,0:0:0:0:
402,192,122242,1,0,0:0:0:0:
182,192,122268,1,0,0:0:0:0:
256,192,122295,1,0,0:0:0:0:
329,192,122322,1,0,0:0:0:0:
402,192,122349,1,0,0:0:0:0:
36,192,122349,128,0,122563:0:0:0:0:
109,192,122349,128,0,122563:0:0:0:0:
329,192,122563,1,0,0:0:0:0:
109,192,122777,128,0,122992:0:0:0:0:
36,192,122777,128,0,122992:0:0:0:0:
329,192,122992,1,0,0:0:0:0:
256,192,123206,128,0,123635:0:0:0:0:
402,192,123474,128,0,123635:0:0:0:0:
182,192,123635,128,0,124063:0:0:0:0:
475,192,124063,1,0,0:0:0:0:
256,192,124063,1,0,0:0:0:0:
36,192,124063,1,0,0:0:0:0:
402,192,124063,128,0,124385:0:0:0:0:
329,192,124277,1,0,0:0:0:0:
256,192,124331,1,0,0:0:0:0:
109,192,124385,1,0,0:0:0:0:
182,192,124438,1,0,0:0:0:0:
36,192,124492,128,0,124599:0:0:0:0:
329,192,124492,128,0,124599:0:0:0:0:
475,192,124492,128,0,124599:0:0:0:0:
475,192,124706,128,0,124813:0:0:0:0:
329,192,124706,128,0,124813:0:0:0:0:
36,192,124706,128,0,124813:0:0:0:0:
475,192,124920,1,0,0:0:0:0:
402,192,124920,1,0,0:0:0:0:
256,192,124920,1,0,0:0:0:0:
109,192,124920,1,0,0:0:0:0:
329,192,125027,128,0,125081:0:0:0:0:
256,192,125027,128,0,125081:0:0:0:0:
182,192,125027,128,0,125081:0:0:0:0:
329,192,125242,128,0,125295:0:0:0:0:
256,192,125242,128,0,125295:0:0:0:0:
182,192,125242,128,0,125295:0:0:0:0:
475,192,125349,1,0,0:0:0:0:
36,192,125349,1,0,0:0:0:0:
402,192,125349,1,0,0:0:0:0:
109,192,125402,1,0,0:0:0:0:
256,192,125456,1,0,0:0:0:0:
402,192,125510,1,0,0:0:0:0:
182,192,125563,1,0,0:0:0:0:
36,192,125563,1,0,0:0:0:0:
329,192,125617,1,0,0:0:0:0:
256,192,125670,1,0,0:0:0:0:
182,192,125724,1,0,0:0:0:0:
109,192,125777,1,0,0:0:0:0:
36,192,125777,1,0,0:0:0:0:
475,192,125777,1,0,0:0:0:0:
402,192,125777,1,0,0:0:0:0:
402,192,125885,1,0,0:0:0:0:
256,192,125885,1,0,0:0:0:0:
182,192,125885,1,0,0:0:0:0:
329,192,125992,1,0,0:0:0:0:
182,192,125992,1,0,0:0:0:0:
109,192,125992,1,0,0:0:0:0:
182,192,126099,1,0,0:0:0:0:
109,192,126099,1,0,0:0:0:0:
402,192,126099,1,0,0:0:0:0:
402,192,126206,1,0,0:0:0:0:
256,192,126206,1,0,0:0:0:0:
109,192,126206,1,0,0:0:0:0:
329,192,126206,1,0,0:0:0:0:
182,192,126420,128,0,126474:0:0:0:0:
329,192,126420,128,0,126474:0:0:0:0:
182,192,126527,128,0,126581:0:0:0:0:
329,192,126527,128,0,126581:0:0:0:0:
475,192,126635,1,0,0:0:0:0:
402,192,126635,1,0,0:0:0:0:
256,192,126635,1,0,0:0:0:0:
36,192,126635,1,0,0:0:0:0:
182,192,126742,1,0,0:0:0:0:
109,192,126742,1,0,0:0:0:0:
402,192,126795,1,0,0:0:0:0:
329,192,126795,1,0,0:0:0:0:
182,192,126849,1,0,0:0:0:0:
109,192,126849,1,0,0:0:0:0:
402,192,126956,1,0,0:0:0:0:
256,192,126956,1,0,0:0:0:0:
329,192,127063,128,0,127224:0:0:0:0:
475,192,127063,128,0,127224:0:0:0:0:
36,192,127063,128,0,127224:0:0:0:0:
475,192,127277,128,0,127331:0:0:0:0:
329,192,127277,128,0,127331:0:0:0:0:
36,192,127277,128,0,127331:0:0:0:0:
475,192,127385,128,0,127438:0:0:0:0:
36,192,127385,128,0,127438:0:0:0:0:
329,192,127385,128,0,127438:0:0:0:0:
256,192,127492,128,0,127599:0:0:0:0:
36,192,127492,128,0,127599:0:0:0:0:
109,192,127492,128,0,127599:0:0:0:0:
402,192,127492,128,0,127599:0:0:0:0:
329,192,127599,128,0,127706:0:0:0:0:
182,192,127599,128,0,127706:0:0:0:0:
36,192,127706,128,0,127813:0:0:0:0:
475,192,127706,128,0,127813:0:0:0:0:
182,192,127813,128,0,127920:0:0:0:0:
329,192,127813,128,0,127920:0:0:0:0:
402,192,127920,128,0,128027:0:0:0:0:
256,192,127920,128,0,128027:0:0:0:0:
109,192,127920,128,0,128027:0:0:0:0:
475,192,127920,128,0,128027:0:0:0:0:
329,192,128027,128,0,128135:0:0:0:0:
182,192,128027,128,0,128135:0:0:0:0:
36,192,128135,128,0,128242:0:0:0:0:
475,192,128135,128,0,128242:0:0:0:0:
329,192,128242,128,0,128349:0:0:0:0:
182,192,128242,128,0,128349:0:0:0:0:
256,192,128349,128,0,128456:0:0:0:0:
109,192,128349,128,0,128456:0:0:0:0:
36,192,128349,128,0,128456:0:0:0:0:
402,192,128349,128,0,128456:0:0:0:0:
329,192,128456,128,0,128563:0:0:0:0:
182,192,128456,128,0,128563:0:0:0:0:
36,192,128563,128,0,128670:0:0:0:0:
475,192,128563,128,0,128670:0:0:0:0:
329,192,128670,128,0,128777:0:0:0:0:
182,192,128670,128,0,128777:0:0:0:0:
475,192,128777,128,0,128885:0:0:0:0:
402,192,128777,128,0,128885:0:0:0:0:
256,192,128777,128,0,128885:0:0:0:0:
109,192,128777,128,0,128885:0:0:0:0:
329,192,128885,128,0,128992:0:0:0:0:
182,192,128885,128,0,128992:0:0:0:0:
402,192,128992,128,0,129099:0:0:0:0:
109,192,128992,128,0,129099:0:0:0:0:
182,192,129099,128,0,129206:0:0:0:0:
329,192,129099,128,0,129206:0:0:0:0:
109,192,129206,128,0,129313:0:0:0:0:
36,192,129206,128,0,129313:0:0:0:0:
256,192,129206,128,0,129313:0:0:0:0:
475,192,129206,128,0,129313:0:0:0:0:
182,192,129313,128,0,129420:0:0:0:0:
329,192,129313,128,0,129420:0:0:0:0:
402,192,129420,128,0,129527:0:0:0:0:
36,192,129420,128,0,129527:0:0:0:0:
182,192,129527,128,0,129635:0:0:0:0:
329,192,129527,128,0,129635:0:0:0:0:
475,192,129635,128,0,129742:0:0:0:0:
256,192,129635,128,0,129742:0:0:0:0:
36,192,129635,128,0,129742:0:0:0:0:
402,192,129635,128,0,129742:0:0:0:0:
329,192,129742,128,0,129849:0:0:0:0:
182,192,129742,128,0,129849:0:0:0:0:
109,192,129849,128,0,129956:0:0:0:0:
475,192,129849,128,0,129956:0:0:0:0:
182,192,129956,128,0,130063:0:0:0:0:
329,192,129956,128,0,130063:0:0:0:0:
109,192,130063,128,0,130170:0:0:0:0:
36,192,130063,128,0,130170:0:0:0:0:
256,192,130063,128,0,130170:0:0:0:0:
475,192,130063,128,0,130170:0:0:0:0:
329,192,130170,128,0,130277:0:0:0:0:
182,192,130170,128,0,130277:0:0:0:0:
402,192,130277,128,0,130385:0:0:0:0:
475,192,130277,128,0,130385:0:0:0:0:
329,192,130385,128,0,130492:0:0:0:0:
36,192,130385,128,0,130492:0:0:0:0:
109,192,130385,128,0,130492:0:0:0:0:
256,192,130385,128,0,130492:0:0:0:0:
182,192,130492,128,0,130599:0:0:0:0:
475,192,130492,128,0,130599:0:0:0:0:
329,192,130599,128,0,130706:0:0:0:0:
256,192,130599,128,0,130706:0:0:0:0:
36,192,130706,128,0,130813:0:0:0:0:
109,192,130706,128,0,130813:0:0:0:0:
475,192,130706,128,0,130813:0:0:0:0:
402,192,130706,128,0,130813:0:0:0:0:
329,192,130813,128,0,130920:0:0:0:0:
182,192,130813,128,0,130920:0:0:0:0:
475,192,130920,1,0,0:0:0:0:
402,192,130920,1,0,0:0:0:0:
36,192,130920,1,0,0:0:0:0:
256,192,130920,128,0,131242:0:0:0:0:
109,192,131135,1,0,0:0:0:0:
182,192,131188,1,0,0:0:0:0:
402,192,131242,1,0,0:0:0:0:
329,192,131295,1,0,0:0:0:0:
475,192,131349,128,0,131456:0:0:0:0:
256,192,131349,128,0,131456:0:0:0:0:
109,192,131349,128,0,131456:0:0:0:0:
475,192,131563,128,0,131670:0:0:0:0:
256,192,131563,128,0,131670:0:0:0:0:
109,192,131563,128,0,131670:0:0:0:0:
329,192,131777,1,0,0:0:0:0:
402,192,131777,1,0,0:0:0:0:
182,192,131777,1,0,0:0:0:0:
36,192,131777,1,0,0:0:0:0:
402,192,131885,128,0,131938:0:0:0:0:
256,192,131885,128,0,131938:0:0:0:0:
109,192,131885,128,0,131938:0:0:0:0:
402,192,132099,128,0,132152:0:0:0:0:
256,192,132099,128,0,132152:0:0:0:0:
109,192,132099,128,0,132152:0:0:0:0:
475,192,132206,1,0,0:0:0:0:
329,192,132206,1,0,0:0:0:0:
36,192,132206,1,0,0:0:0:0:
182,192,132260,1,0,0:0:0:0:
402,192,132313,1,0,0:0:0:0:
109,192,132367,1,0,0:0:0:0:
329,192,132420,1,0,0:0:0:0:
182,192,132420,1,0,0:0:0:0:
402,192,132474,1,0,0:0:0:0:
109,192,132527,1,0,0:0:0:0:
256,192,132581,1,0,0:0:0:0:
329,192,132635,1,0,0:0:0:0:
475,192,132635,1,0,0:0:0:0:
36,192,132635,1,0,0:0:0:0:
182,192,132742,1,0,0:0:0:0:
256,192,132742,1,0,0:0:0:0:
109,192,132742,1,0,0:0:0:0:
402,192,132849,1,0,0:0:0:0:
182,192,132849,1,0,0:0:0:0:
109,192,132849,1,0,0:0:0:0:
402,192,132956,1,0,0:0:0:0:
256,192,132956,1,0,0:0:0:0:
329,192,132956,1,0,0:0:0:0:
402,192,133063,1,0,0:0:0:0:
182,192,133063,1,0,0:0:0:0:
109,192,133063,1,0,0:0:0:0:
329,192,133063,1,0,0:0:0:0:
329,192,133277,128,0,133331:0:0:0:0:
182,192,133277,128,0,133331:0:0:0:0:
329,192,133385,128,0,133438:0:0:0:0:
182,192,133385,128,0,133438:0:0:0:0:
475,192,133492,1,0,0:0:0:0:
329,192,133492,1,0,0:0:0:0:
256,192,133492,1,0,0:0:0:0:
36,192,133492,1,0,0:0:0:0:
182,192,133599,1,0,0:0:0:0:
109,192,133599,1,0,0:0:0:0:
402,192,133652,1,0,0:0:0:0:
329,192,133652,1,0,0:0:0:0:
182,192,133706,1,0,0:0:0:0:
109,192,133706,1,0,0:0:0:0:
402,192,133813,1,0,0:0:0:0:
256,192,133813,1,0,0:0:0:0:
256,192,133920,128,0,134081:0:0:0:0:
36,192,133920,128,0,134081:0:0:0:0:
475,192,133920,128,0,134081:0:0:0:0:
475,192,134135,128,0,134188:0:0:0:0:
256,192,134135,128,0,134188:0:0:0:0:
36,192,134135,128,0,134188:0:0:0:0:
256,192,134242,128,0,134295:0:0:0:0:
36,192,134242,128,0,134295:0:0:0:0:
475,192,134242,128,0,134295:0:0:0:0:
402,192,134349,128,0,134456:0:0:0:0:
329,192,134349,128,0,134456:0:0:0:0:
182,192,134349,128,0,134456:0:0:0:0:
109,192,134349,128,0,134456:0:0:0:0:
36,192,134456,128,0,134563:0:0:0:0:
475,192,134456,128,0,134563:0:0:0:0:
256,192,134563,128,0,134670:0:0:0:0:
182,192,134563,128,0,134670:0:0:0:0:
475,192,134670,128,0,134777:0:0:0:0:
36,192,134670,128,0,134777:0:0:0:0:
402,192,134777,128,0,134885:0:0:0:0:
329,192,134777,128,0,134885:0:0:0:0:
182,192,134777,128,0,134885:0:0:0:0:
109,192,134777,128,0,134885:0:0:0:0:
475,192,134885,128,0,134992:0:0:0:0:
256,192,134885,128,0,134992:0:0:0:0:
182,192,134992,128,0,135099:0:0:0:0:
36,192,134992,128,0,135099:0:0:0:0:
475,192,135099,128,0,135206:0:0:0:0:
256,192,135099,128,0,135206:0:0:0:0:
402,192,135206,128,0,135313:0:0:0:0:
329,192,135206,128,0,135313:0:0:0:0:
182,192,135206,128,0,135313:0:0:0:0:
109,192,135206,128,0,135313:0:0:0:0:
256,192,135313,128,0,135420:0:0:0:0:
36,192,135313,128,0,135420:0:0:0:0:
475,192,135420,128,0,135527:0:0:0:0:
329,192,135420,128,0,135527:0:0:0:0:
256,192,135527,128,0,135635:0:0:0:0:
36,192,135527,128,0,135635:0:0:0:0:
402,192,135635,128,0,135742:0:0:0:0:
329,192,135635,128,0,135742:0:0:0:0:
182,192,135635,128,0,135742:0:0:0:0:
109,192,135635,128,0,135742:0:0:0:0:
475,192,135742,128,0,135849:0:0:0:0:
36,192,135742,128,0,135849:0:0:0:0:
329,192,135849,128,0,135956:0:0:0:0:
182,192,135849,128,0,135956:0:0:0:0:
402,192,135956,128,0,136063:0:0:0:0:
256,192,135956,128,0,136063:0:0:0:0:
475,192,136063,128,0,136170:0:0:0:0:
182,192,136063,128,0,136170:0:0:0:0:
109,192,136063,128,0,136170:0:0:0:0:
36,192,136063,128,0,136170:0:0:0:0:
402,192,136170,128,0,136277:0:0:0:0:
256,192,136170,128,0,136277:0:0:0:0:
329,192,136277,128,0,136385:0:0:0:0:
182,192,136277,128,0,136385:0:0:0:0:
256,192,136385,128,0,136492:0:0:0:0:
109,192,136385,128,0,136492:0:0:0:0:
475,192,136492,128,0,136599:0:0:0:0:
402,192,136492,128,0,136599:0:0:0:0:
329,192,136492,128,0,136599:0:0:0:0:
36,192,136492,128,0,136599:0:0:0:0:
109,192,136599,128,0,136706:0:0:0:0:
256,192,136599,128,0,136706:0:0:0:0:
329,192,136706,128,0,136813:0:0:0:0:
182,192,136706,128,0,136813:0:0:0:0:
256,192,136813,128,0,136920:0:0:0:0:
402,192,136813,128,0,136920:0:0:0:0:
475,192,136920,128,0,137027:0:0:0:0:
109,192,136920,128,0,137027:0:0:0:0:
182,192,136920,128,0,137027:0:0:0:0:
36,192,136920,128,0,137027:0:0:0:0:
402,192,137027,128,0,137135:0:0:0:0:
256,192,137027,128,0,137135:0:0:0:0:
182,192,137135,128,0,137242:0:0:0:0:
329,192,137135,128,0,137242:0:0:0:0:
256,192,137242,128,0,137349:0:0:0:0:
109,192,137242,128,0,137349:0:0:0:0:
36,192,137242,128,0,137349:0:0:0:0:
475,192,137242,128,0,137349:0:0:0:0:
402,192,137349,128,0,137456:0:0:0:0:
329,192,137349,128,0,137456:0:0:0:0:
182,192,137456,128,0,137563:0:0:0:0:
109,192,137456,128,0,137563:0:0:0:0:
402,192,137563,128,0,137670:0:0:0:0:
329,192,137563,128,0,137670:0:0:0:0:
256,192,137563,128,0,137670:0:0:0:0:
475,192,137563,128,0,137670:0:0:0:0:
109,192,137670,128,0,137777:0:0:0:0:
36,192,137670,128,0,137777:0:0:0:0:
402,192,137777,128,0,138206:0:0:0:0:
329,192,137777,1,0,0:0:0:0:
256,192,137777,1,0,0:0:0:0:
475,192,137777,1,0,0:0:0:0:
182,192,137777,1,0,0:0:0:0:
109,192,138420,128,0,138635:0:0:0:0:
182,192,138635,1,0,0:0:0:0:
256,192,138956,1,0,0:0:0:0:
329,192,139277,128,0,139492:0:0:0:0:
402,192,139492,128,0,140349:0:0:0:0:
475,192,140777,128,0,141206:0:0:0:0:
402,192,141206,128,0,141635:0:0:0:0:
182,192,141849,128,0,142063:0:0:0:0:
329,192,142063,1,0,0:0:0:0:
256,192,142385,1,0,0:0:0:0:
182,192,142706,128,0,142920:0:0:0:0:
36,192,142920,128,0,143135:0:0:0:0:
182,192,143135,1,0,0:0:0:0:
109,192,143242,1,0,0:0:0:0:
182,192,143563,128,0,143777:0:0:0:0:
329,192,143777,128,0,144099:0:0:0:0:
256,192,144099,1,0,0:0:0:0:
182,192,144152,1,0,0:0:0:0:
109,192,144206,128,0,144635:0:0:0:0:
402,192,144635,128,0,145063:0:0:0:0:
109,192,145277,128,0,145492:0:0:0:0:
182,192,145492,1,0,0:0:0:0:
256,192,145813,1,0,0:0:0:0:
329,192,146135,128,0,146349:0:0:0:0:
402,192,146349,128,0,147206:0:0:0:0:
475,192,147635,128,0,148063:0:0:0:0:
402,192,148063,128,0,148492:0:0:0:0:
36,192,148706,128,0,148920:0:0:0:0:
109,192,148920,1,0,0:0:0:0:
182,192,149242,1,0,0:0:0:0:
256,192,149563,1,0,0:0:0:0:
329,192,149777,1,0,0:0:0:0:
256,192,149992,1,0,0:0:0:0:
402,192,150099,1,0,0:0:0:0:
475,192,150420,128,0,150635:0:0:0:0:
36,192,150420,1,0,0:0:0:0:
109,192,150474,1,0,0:0:0:0:
182,192,150527,1,0,0:0:0:0:
256,192,150581,1,0,0:0:0:0:
402,192,150635,128,0,151277:0:0:0:0:
182,192,150849,128,0,151063:0:0:0:0:
329,192,150956,128,0,151063:0:0:0:0:
109,192,151063,128,0,151277:0:0:0:0:
256,192,151170,128,0,151277:0:0:0:0:
36,192,151277,128,0,151492:0:0:0:0:
182,192,151385,128,0,151492:0:0:0:0:
475,192,151492,1,0,0:0:0:0:
402,192,151492,1,0,0:0:0:0:
329,192,151492,1,0,0:0:0:0:
182,192,151706,1,0,0:0:0:0:
329,192,151920,128,0,151974:0:0:0:0:
182,192,152135,1,0,0:0:0:0:
256,192,152242,1,0,0:0:0:0:
256,192,152456,1,0,0:0:0:0:
109,192,152563,1,0,0:0:0:0:
402,192,152670,1,0,0:0:0:0:
329,192,152777,128,0,152831:0:0:0:0:
109,192,152885,1,0,0:0:0:0:
256,192,152992,1,0,0:0:0:0:
182,192,153099,1,0,0:0:0:0:
36,192,153206,1,0,0:0:0:0:
329,192,153313,1,0,0:0:0:0:
109,192,153420,1,0,0:0:0:0:
256,192,153527,1,0,0:0:0:0:
402,192,153635,128,0,153688:0:0:0:0:
329,192,153849,1,0,0:0:0:0:
475,192,153956,1,0,0:0:0:0:
475,192,154170,1,0,0:0:0:0:
329,192,154277,1,0,0:0:0:0:
109,192,154492,128,0,154545:0:0:0:0:
329,192,154599,1,0,0:0:0:0:
182,192,154706,1,0,0:0:0:0:
256,192,154813,1,0,0:0:0:0:
109,192,154920,1,0,0:0:0:0:
329,192,155027,1,0,0:0:0:0:
182,192,155135,1,0,0:0:0:0:
109,192,155242,1,0,0:0:0:0:
329,192,155349,128,0,155402:0:0:0:0:
182,192,155563,1,0,0:0:0:0:
402,192,155670,1,0,0:0:0:0:
402,192,155885,1,0,0:0:0:0:
182,192,155992,1,0,0:0:0:0:
475,192,156099,1,0,0:0:0:0:
329,192,156206,128,0,156260:0:0:0:0:
109,192,156313,1,0,0:0:0:0:
329,192,156420,1,0,0:0:0:0:
182,192,156527,1,0,0:0:0:0:
36,192,156635,1,0,0:0:0:0:
256,192,156742,1,0,0:0:0:0:
109,192,156849,1,0,0:0:0:0:
329,192,156956,1,0,0:0:0:0:
402,192,157063,128,0,157117:0:0:0:0:
329,192,157277,1,0,0:0:0:0:
475,192,157385,1,0,0:0:0:0:
475,192,157599,1,0,0:0:0:0:
329,192,157706,1,0,0:0:0:0:
36,192,157813,1,0,0:0:0:0:
182,192,157920,128,0,157974:0:0:0:0:
329,192,158027,1,0,0:0:0:0:
109,192,158135,1,0,0:0:0:0:
182,192,158242,1,0,0:0:0:0:
36,192,158349,1,0,0:0:0:0:
329,192,158456,1,0,0:0:0:0:
182,192,158563,1,0,0:0:0:0:
109,192,158670,1,0,0:0:0:0:
329,192,158777,128,0,158831:0:0:0:0:
182,192,158992,1,0,0:0:0:0:
402,192,159099,1,0,0:0:0:0:
402,192,159313,1,0,0:0:0:0:
182,192,159420,1,0,0:0:0:0:
475,192,159527,1,0,0:0:0:0:
329,192,159635,128,0,159688:0:0:0:0:
109,192,159742,1,0,0:0:0:0:
329,192,159849,1,0,0:0:0:0:
182,192,159956,1,0,0:0:0:0:
36,192,160063,1,0,0:0:0:0:
256,192,160170,1,0,0:0:0:0:
109,192,160277,1,0,0:0:0:0:
329,192,160385,1,0,0:0:0:0:
402,192,160492,128,0,160545:0:0:0:0:
329,192,160706,1,0,0:0:0:0:
475,192,160813,1,0,0:0:0:0:
475,192,161027,1,0,0:0:0:0:
329,192,161135,1,0,0:0:0:0:
36,192,161242,1,0,0:0:0:0:
182,192,161349,128,0,161402:0:0:0:0:
329,192,161456,1,0,0:0:0:0:
109,192,161563,1,0,0:0:0:0:
182,192,161670,1,0,0:0:0:0:
36,192,161777,1,0,0:0:0:0:
329,192,161885,1,0,0:0:0:0:
182,192,161992,1,0,0:0:0:0:
109,192,162099,1,0,0:0:0:0:
329,192,162206,128,0,162260:0:0:0:0:
182,192,162420,1,0,0:0:0:0:
402,192,162527,1,0,0:0:0:0:
402,192,162742,1,0,0:0:0:0:
182,192,162849,1,0,0:0:0:0:
475,192,162956,1,0,0:0:0:0:
329,192,163063,128,0,163117:0:0:0:0:
109,192,163170,1,0,0:0:0:0:
329,192,163277,1,0,0:0:0:0:
475,192,163277,128,0,163492:0:0:0:0:
182,192,163385,1,0,0:0:0:0:
402,192,163492,128,0,163599:0:0:0:0:
36,192,163492,1,0,0:0:0:0:
256,192,163599,1,0,0:0:0:0:
109,192,163706,1,0,0:0:0:0:
475,192,163706,128,0,163813:0:0:0:0:
329,192,163813,1,0,0:0:0:0:
402,192,163920,128,0,163974:0:0:0:0:
329,192,164135,1,0,0:0:0:0:
36,192,164135,1,0,0:0:0:0:
109,192,164188,1,0,0:0:0:0:
475,192,164242,1,0,0:0:0:0:
182,192,164242,1,0,0:0:0:0:
36,192,164295,1,0,0:0:0:0:
109,192,164349,1,0,0:0:0:0:
329,192,164349,1,0,0:0:0:0:
475,192,164456,1,0,0:0:0:0:
256,192,164456,1,0,0:0:0:0:
329,192,164563,1,0,0:0:0:0:
36,192,164670,1,0,0:0:0:0:
256,192,164670,1,0,0:0:0:0:
402,192,164777,1,0,0:0:0:0:
182,192,164777,128,0,164831:0:0:0:0:
329,192,164885,1,0,0:0:0:0:
109,192,164992,1,0,0:0:0:0:
475,192,164992,1,0,0:0:0:0:
329,192,165099,1,0,0:0:0:0:
475,192,165206,1,0,0:0:0:0:
256,192,165206,1,0,0:0:0:0:
182,192,165206,1,0,0:0:0:0:
36,192,165206,1,0,0:0:0:0:
402,192,165206,128,0,165420:0:0:0:0:
109,192,165420,128,0,165635:0:0:0:0:
475,192,165635,1,0,0:0:0:0:
256,192,165635,1,0,0:0:0:0:
182,192,165635,1,0,0:0:0:0:
36,192,165635,1,0,0:0:0:0:
402,192,165742,128,0,165849:0:0:0:0:
402,192,165956,128,0,166063:0:0:0:0:
475,192,166063,1,0,0:0:0:0:
256,192,166063,1,0,0:0:0:0:
182,192,166063,1,0,0:0:0:0:
36,192,166063,1,0,0:0:0:0:
256,192,166277,128,0,166492:0:0:0:0:
475,192,166492,1,0,0:0:0:0:
402,192,166492,1,0,0:0:0:0:
109,192,166492,1,0,0:0:0:0:
36,192,166492,1,0,0:0:0:0:
182,192,166706,1,0,0:0:0:0:
329,192,166706,1,0,0:0:0:0:
182,192,166813,1,0,0:0:0:0:
329,192,166920,1,0,0:0:0:0:
36,192,166920,1,0,0:0:0:0:
475,192,166920,1,0,0:0:0:0:
109,192,166920,128,0,167135:0:0:0:0:
256,192,166920,1,0,0:0:0:0:
402,192,167135,128,0,167349:0:0:0:0:
36,192,167349,1,0,0:0:0:0:
256,192,167349,1,0,0:0:0:0:
475,192,167349,1,0,0:0:0:0:
329,192,167349,1,0,0:0:0:0:
109,192,167456,128,0,167563:0:0:0:0:
109,192,167670,128,0,167777:0:0:0:0:
475,192,167777,1,0,0:0:0:0:
36,192,167777,1,0,0:0:0:0:
256,192,167777,1,0,0:0:0:0:
329,192,167777,128,0,167992:0:0:0:0:
256,192,167992,128,0,168206:0:0:0:0:
475,192,168206,1,0,0:0:0:0:
109,192,168206,1,0,0:0:0:0:
36,192,168206,1,0,0:0:0:0:
402,192,168206,1,0,0:0:0:0:
182,192,168420,1,0,0:0:0:0:
329,192,168420,1,0,0:0:0:0:
329,192,168527,1,0,0:0:0:0:
475,192,168635,1,0,0:0:0:0:
256,192,168635,1,0,0:0:0:0:
182,192,168635,1,0,0:0:0:0:
36,192,168635,1,0,0:0:0:0:
402,192,168635,128,0,168849:0:0:0:0:
109,192,168849,128,0,169063:0:0:0:0:
475,192,169063,1,0,0:0:0:0:
256,192,169063,1,0,0:0:0:0:
182,192,169063,1,0,0:0:0:0:
36,192,169063,1,0,0:0:0:0:
402,192,169170,128,0,169277:0:0:0:0:
402,192,169385,128,0,169492:0:0:0:0:
475,192,169492,1,0,0:0:0:0:
256,192,169492,1,0,0:0:0:0:
182,192,169492,1,0,0:0:0:0:
36,192,169492,1,0,0:0:0:0:
256,192,169706,128,0,169920:0:0:0:0:
475,192,169920,1,0,0:0:0:0:
402,192,169920,1,0,0:0:0:0:
109,192,169920,1,0,0:0:0:0:
36,192,169920,1,0,0:0:0:0:
182,192,170135,1,0,0:0:0:0:
329,192,170135,1,0,0:0:0:0:
182,192,170242,1,0,0:0:0:0:
329,192,170349,1,0,0:0:0:0:
36,192,170349,1,0,0:0:0:0:
475,192,170349,1,0,0:0:0:0:
109,192,170349,128,0,170563:0:0:0:0:
256,192,170349,1,0,0:0:0:0:
402,192,170563,128,0,170777:0:0:0:0:
36,192,170777,1,0,0:0:0:0:
256,192,170777,1,0,0:0:0:0:
475,192,170777,1,0,0:0:0:0:
329,192,170777,1,0,0:0:0:0:
109,192,170885,128,0,170992:0:0:0:0:
109,192,171099,128,0,171206:0:0:0:0:
475,192,171206,1,0,0:0:0:0:
36,192,171206,1,0,0:0:0:0:
256,192,171206,1,0,0:0:0:0:
329,192,171206,128,0,171420:0:0:0:0:
256,192,171420,128,0,171635:0:0:0:0:
475,192,171635,1,0,0:0:0:0:
109,192,171635,1,0,0:0:0:0:
36,192,171635,1,0,0:0:0:0:
402,192,171635,1,0,0:0:0:0:
182,192,171849,1,0,0:0:0:0:
329,192,171849,1,0,0:0:0:0:
329,192,171956,1,0,0:0:0:0:
402,192,171956,1,0,0:0:0:0:
182,192,172010,1,0,0:0:0:0:
109,192,172010,1,0,0:0:0:0:
475,192,172063,1,0,0:0:0:0:
256,192,172063,1,0,0:0:0:0:
36,192,172063,1,0,0:0:0:0:
36,192,172170,1,0,0:0:0:0:
475,192,172170,1,0,0:0:0:0:
329,192,172277,1,0,0:0:0:0:
182,192,172277,1,0,0:0:0:0:
329,192,172385,1,0,0:0:0:0:
182,192,172385,1,0,0:0:0:0:
256,192,172492,1,0,0:0:0:0:
36,192,172492,1,0,0:0:0:0:
475,192,172492,1,0,0:0:0:0:
402,192,172492,1,0,0:0:0:0:
109,192,172492,1,0,0:0:0:0:
402,192,172599,1,0,0:0:0:0:
109,192,172599,1,0,0:0:0:0:
329,192,172706,1,0,0:0:0:0:
182,192,172706,1,0,0:0:0:0:
329,192,172813,1,0,0:0:0:0:
182,192,172813,1,0,0:0:0:0:
475,192,172920,1,0,0:0:0:0:
256,192,172920,1,0,0:0:0:0:
109,192,172920,1,0,0:0:0:0:
36,192,172920,1,0,0:0:0:0:
402,192,172920,1,0,0:0:0:0:
475,192,173027,1,0,0:0:0:0:
36,192,173027,1,0,0:0:0:0:
329,192,173135,1,0,0:0:0:0:
182,192,173135,1,0,0:0:0:0:
329,192,173242,1,0,0:0:0:0:
182,192,173242,1,0,0:0:0:0:
256,192,173349,1,0,0:0:0:0:
475,192,173349,1,0,0:0:0:0:
109,192,173349,1,0,0:0:0:0:
36,192,173349,1,0,0:0:0:0:
402,192,173349,1,0,0:0:0:0:
109,192,173456,1,0,0:0:0:0:
402,192,173456,1,0,0:0:0:0:
329,192,173563,1,0,0:0:0:0:
182,192,173563,1,0,0:0:0:0:
182,192,173670,1,0,0:0:0:0:
329,192,173670,1,0,0:0:0:0:
402,192,173777,1,0,0:0:0:0:
256,192,173777,1,0,0:0:0:0:
36,192,173777,1,0,0:0:0:0:
109,192,173777,1,0,0:0:0:0:
475,192,173777,1,0,0:0:0:0:
475,192,173885,1,0,0:0:0:0:
36,192,173885,1,0,0:0:0:0:
182,192,173992,1,0,0:0:0:0:
329,192,173992,1,0,0:0:0:0:
182,192,174099,1,0,0:0:0:0:
329,192,174099,1,0,0:0:0:0:
36,192,174206,1,0,0:0:0:0:
402,192,174206,1,0,0:0:0:0:
109,192,174206,1,0,0:0:0:0:
256,192,174206,1,0,0:0:0:0:
475,192,174206,1,0,0:0:0:0:
402,192,174313,1,0,0:0:0:0:
109,192,174313,1,0,0:0:0:0:
182,192,174420,1,0,0:0:0:0:
329,192,174420,1,0,0:0:0:0:
329,192,174527,1,0,0:0:0:0:
182,192,174527,1,0,0:0:0:0:
109,192,174635,1,0,0:0:0:0:
475,192,174635,1,0,0:0:0:0:
36,192,174635,1,0,0:0:0:0:
402,192,174635,1,0,0:0:0:0:
256,192,174635,1,0,0:0:0:0:
36,192,174742,1,0,0:0:0:0:
475,192,174742,1,0,0:0:0:0:
329,192,174849,1,0,0:0:0:0:
182,192,174849,1,0,0:0:0:0:
329,192,174956,1,0,0:0:0:0:
182,192,174956,1,0,0:0:0:0:
475,192,175063,1,0,0:0:0:0:
109,192,175063,1,0,0:0:0:0:
402,192,175063,1,0,0:0:0:0:
36,192,175063,1,0,0:0:0:0:
256,192,175063,1,0,0:0:0:0:
109,192,175170,1,0,0:0:0:0:
402,192,175170,1,0,0:0:0:0:
182,192,175277,1,0,0:0:0:0:
329,192,175277,1,0,0:0:0:0:
182,192,175385,1,0,0:0:0:0:
329,192,175385,1,0,0:0:0:0:
402,192,175492,1,0,0:0:0:0:
256,192,175492,1,0,0:0:0:0:
475,192,175492,1,0,0:0:0:0:
36,192,175492,1,0,0:0:0:0:
109,192,175492,1,0,0:0:0:0:
475,192,175599,1,0,0:0:0:0:
36,192,175599,1,0,0:0:0:0:
182,192,175706,1,0,0:0:0:0:
329,192,175706,1,0,0:0:0:0:
256,192,175706,1,0,0:0:0:0:
182,192,175813,1,0,0:0:0:0:
329,192,175813,1,0,0:0:0:0:
475,192,175920,1,0,0:0:0:0:
256,192,175920,1,0,0:0:0:0:
109,192,175920,1,0,0:0:0:0:
36,192,175920,1,0,0:0:0:0:
402,192,175920,1,0,0:0:0:0:
475,192,176027,1,0,0:0:0:0:
36,192,176027,1,0,0:0:0:0:
329,192,176135,1,0,0:0:0:0:
182,192,176135,1,0,0:0:0:0:
256,192,176135,1,0,0:0:0:0:
182,192,176242,1,0,0:0:0:0:
329,192,176242,1,0,0:0:0:0:
475,192,176349,1,0,0:0:0:0:
109,192,176349,1,0,0:0:0:0:
36,192,176349,1,0,0:0:0:0:
402,192,176349,1,0,0:0:0:0:
256,192,176349,1,0,0:0:0:0:
36,192,176456,1,0,0:0:0:0:
475,192,176456,1,0,0:0:0:0:
182,192,176563,1,0,0:0:0:0:
256,192,176563,1,0,0:0:0:0:
329,192,176563,1,0,0:0:0:0:
329,192,176670,1,0,0:0:0:0:
182,192,176670,1,0,0:0:0:0:
402,192,176777,1,0,0:0:0:0:
256,192,176777,1,0,0:0:0:0:
36,192,176777,1,0,0:0:0:0:
475,192,176777,1,0,0:0:0:0:
109,192,176777,1,0,0:0:0:0:
402,192,176885,1,0,0:0:0:0:
256,192,176885,1,0,0:0:0:0:
109,192,176885,1,0,0:0:0:0:
329,192,176992,1,0,0:0:0:0:
182,192,176992,1,0,0:0:0:0:
329,192,177099,1,0,0:0:0:0:
182,192,177099,1,0,0:0:0:0:
402,192,177206,1,0,0:0:0:0:
256,192,177206,1,0,0:0:0:0:
109,192,177206,1,0,0:0:0:0:
475,192,177206,128,0,178063:0:0:0:0:
36,192,177206,128,0,178063:0:0:0:0:
329,192,177563,128,0,177742:0:0:0:0:
402,192,177742,128,0,178063:0:0:0:0:
109,192,177777,128,0,178063:0:0:0:0:
182,192,177813,128,0,178063:0:0:0:0:
256,192,178063,128,0,178277:0:0:0:0:
256,192,178385,1,0,0:0:0:0:
402,192,178492,1,0,0:0:0:0:
329,192,178492,128,0,178813:0:0:0:0:
182,192,178492,128,0,178813:0:0:0:0:
109,192,178492,1,0,0:0:0:0:
109,192,178920,1,0,0:0:0:0:
402,192,178920,1,0,0:0:0:0:
475,192,178920,128,0,179349:0:0:0:0:
36,192,178920,1,0,0:0:0:0:
182,192,178920,1,0,0:0:0:0:
256,192,178920,1,0,0:0:0:0:
182,192,179135,1,0,0:0:0:0:
256,192,179188,1,0,0:0:0:0:
109,192,179242,1,0,0:0:0:0:
182,192,179295,1,0,0:0:0:0:
36,192,179349,1,0,0:0:0:0:
109,192,179349,1,0,0:0:0:0:
256,192,179349,1,0,0:0:0:0:
402,192,179349,1,0,0:0:0:0:
329,192,179402,1,0,0:0:0:0:
182,192,179456,1,0,0:0:0:0:
109,192,179510,1,0,0:0:0:0:
475,192,179563,1,0,0:0:0:0:
402,192,179563,128,0,179777:0:0:0:0:
36,192,179563,1,0,0:0:0:0:
256,192,179563,1,0,0:0:0:0:
329,192,179777,1,0,0:0:0:0:
182,192,179777,1,0,0:0:0:0:
109,192,179777,1,0,0:0:0:0:
36,192,179885,128,0,179938:0:0:0:0:
475,192,179885,128,0,179938:0:0:0:0:
256,192,179885,128,0,179938:0:0:0:0:
36,192,180099,128,0,180152:0:0:0:0:
475,192,180099,128,0,180152:0:0:0:0:
256,192,180099,128,0,180152:0:0:0:0:
329,192,180206,1,0,0:0:0:0:
182,192,180206,1,0,0:0:0:0:
109,192,180206,1,0,0:0:0:0:
402,192,180260,1,0,0:0:0:0:
256,192,180313,1,0,0:0:0:0:
182,192,180367,1,0,0:0:0:0:
36,192,180420,1,0,0:0:0:0:
329,192,180420,1,0,0:0:0:0:
109,192,180474,1,0,0:0:0:0:
402,192,180527,1,0,0:0:0:0:
182,192,180581,1,0,0:0:0:0:
475,192,180635,1,0,0:0:0:0:
329,192,180635,1,0,0:0:0:0:
36,192,180635,1,0,0:0:0:0:
256,192,180635,1,0,0:0:0:0:
402,192,180742,1,0,0:0:0:0:
182,192,180742,1,0,0:0:0:0:
109,192,180742,1,0,0:0:0:0:
329,192,180849,1,0,0:0:0:0:
109,192,180849,1,0,0:0:0:0:
182,192,180849,1,0,0:0:0:0:
475,192,180956,1,0,0:0:0:0:
256,192,180956,1,0,0:0:0:0:
36,192,180956,1,0,0:0:0:0:
329,192,181063,1,0,0:0:0:0:
402,192,181063,1,0,0:0:0:0:
109,192,181063,1,0,0:0:0:0:
182,192,181063,1,0,0:0:0:0:
256,192,181277,1,0,0:0:0:0:
402,192,181277,1,0,0:0:0:0:
109,192,181277,1,0,0:0:0:0:
256,192,181385,1,0,0:0:0:0:
402,192,181385,1,0,0:0:0:0:
109,192,181385,1,0,0:0:0:0:
475,192,181492,1,0,0:0:0:0:
182,192,181492,1,0,0:0:0:0:
36,192,181492,1,0,0:0:0:0:
402,192,181599,1,0,0:0:0:0:
329,192,181599,1,0,0:0:0:0:
256,192,181652,1,0,0:0:0:0:
182,192,181652,1,0,0:0:0:0:
109,192,181706,1,0,0:0:0:0:
475,192,181706,1,0,0:0:0:0:
36,192,181706,1,0,0:0:0:0:
402,192,181742,1,0,0:0:0:0:
329,192,181777,1,0,0:0:0:0:
109,192,181813,1,0,0:0:0:0:
256,192,181813,1,0,0:0:0:0:
36,192,181813,1,0,0:0:0:0:
36,192,181920,1,0,0:0:0:0:
182,192,181920,1,0,0:0:0:0:
475,192,181920,1,0,0:0:0:0:
109,192,181920,1,0,0:0:0:0:
402,192,181956,1,0,0:0:0:0:
329,192,181992,1,0,0:0:0:0:
256,192,182027,1,0,0:0:0:0:
109,192,182135,1,0,0:0:0:0:
36,192,182135,1,0,0:0:0:0:
475,192,182135,1,0,0:0:0:0:
402,192,182170,1,0,0:0:0:0:
329,192,182206,1,0,0:0:0:0:
109,192,182242,1,0,0:0:0:0:
36,192,182242,1,0,0:0:0:0:
256,192,182242,1,0,0:0:0:0:
475,192,182349,1,0,0:0:0:0:
329,192,182349,128,0,182777:0:0:0:0:
36,192,182349,1,0,0:0:0:0:
182,192,182349,1,0,0:0:0:0:
256,192,182563,1,0,0:0:0:0:
182,192,182617,1,0,0:0:0:0:
109,192,182670,1,0,0:0:0:0:
256,192,182724,1,0,0:0:0:0:
475,192,182777,1,0,0:0:0:0:
36,192,182777,1,0,0:0:0:0:
182,192,182777,1,0,0:0:0:0:
402,192,182831,1,0,0:0:0:0:
329,192,182885,1,0,0:0:0:0:
256,192,182938,1,0,0:0:0:0:
402,192,182992,128,0,183206:0:0:0:0:
109,192,182992,1,0,0:0:0:0:
36,192,182992,1,0,0:0:0:0:
329,192,183206,1,0,0:0:0:0:
109,192,183206,1,0,0:0:0:0:
36,192,183206,1,0,0:0:0:0:
182,192,183242,1,0,0:0:0:0:
402,192,183349,128,0,183385:0:0:0:0:
475,192,183349,128,0,183385:0:0:0:0:
36,192,183349,1,0,0:0:0:0:
109,192,183349,1,0,0:0:0:0:
182,192,183385,1,0,0:0:0:0:
402,192,183492,128,0,183527:0:0:0:0:
475,192,183492,128,0,183527:0:0:0:0:
36,192,183492,1,0,0:0:0:0:
109,192,183492,1,0,0:0:0:0:
182,192,183527,1,0,0:0:0:0:
402,192,183635,1,0,0:0:0:0:
475,192,183635,1,0,0:0:0:0:
329,192,183635,1,0,0:0:0:0:
36,192,183635,1,2,0:0:0:0:
109,192,183635,1,2,0:0:0:0:
182,192,183670,1,0,0:0:0:0:
256,192,183706,1,0,0:0:0:0:
402,192,183742,1,0,0:0:0:0:
329,192,183777,1,0,0:0:0:0:
182,192,183813,1,0,0:0:0:0:
475,192,183849,1,0,0:0:0:0:
109,192,183849,1,0,0:0:0:0:
402,192,183885,1,0,0:0:0:0:
329,192,183920,1,0,0:0:0:0:
256,192,183956,1,0,0:0:0:0:
182,192,183992,1,0,0:0:0:0:
109,192,184027,1,0,0:0:0:0:
36,192,184063,1,0,0:0:0:0:
256,192,184063,1,0,0:0:0:0:
475,192,184063,1,0,0:0:0:0:
402,192,184099,1,0,0:0:0:0:
329,192,184135,1,0,0:0:0:0:
182,192,184170,1,0,0:0:0:0:
109,192,184206,1,0,0:0:0:0:
36,192,184242,1,0,0:0:0:0:
329,192,184277,1,0,0:0:0:0:
402,192,184313,1,0,0:0:0:0:
475,192,184349,1,0,0:0:0:0:
36,192,184385,1,0,0:0:0:0:
109,192,184420,1,0,0:0:0:0:
182,192,184456,1,0,0:0:0:0:
475,192,184492,1,0,0:0:0:0:
256,192,184492,1,0,0:0:0:0:
402,192,184527,1,0,0:0:0:0:
329,192,184563,1,0,0:0:0:0:
182,192,184599,1,0,0:0:0:0:
109,192,184635,1,0,0:0:0:0:
36,192,184670,1,0,0:0:0:0:
329,192,184706,1,0,0:0:0:0:
402,192,184742,1,0,0:0:0:0:
475,192,184777,1,0,0:0:0:0:
36,192,184813,1,0,0:0:0:0:
109,192,184849,1,0,0:0:0:0:
182,192,184885,1,0,0:0:0:0:
475,192,184920,1,0,0:0:0:0:
256,192,184920,1,0,0:0:0:0:
402,192,184956,1,0,0:0:0:0:
329,192,184992,1,0,0:0:0:0:
182,192,185027,1,0,0:0:0:0:
109,192,185063,1,0,0:0:0:0:
36,192,185099,1,0,0:0:0:0:
329,192,185135,1,0,0:0:0:0:
402,192,185170,1,0,0:0:0:0:
475,192,185206,1,0,0:0:0:0:
36,192,185242,1,0,0:0:0:0:
256,192,185242,1,0,0:0:0:0:
109,192,185277,1,0,0:0:0:0:
182,192,185313,1,0,0:0:0:0:
475,192,185349,1,0,0:0:0:0:
402,192,185385,1,0,0:0:0:0:
329,192,185420,1,0,0:0:0:0:
182,192,185456,1,0,0:0:0:0:
109,192,185492,1,0,0:0:0:0:
36,192,185527,1,0,0:0:0:0:
256,192,185563,1,0,0:0:0:0:
475,192,185563,1,0,0:0:0:0:
402,192,185563,1,0,0:0:0:0:
182,192,185599,1,0,0:0:0:0:
109,192,185635,1,0,0:0:0:0:
329,192,185670,1,0,0:0:0:0:
402,192,185706,1,0,0:0:0:0:
182,192,185742,1,0,0:0:0:0:
475,192,185777,128,0,186206:0:0:0:0:
256,192,185777,1,0,0:0:0:0:
109,192,185777,1,0,0:0:0:0:
36,192,185777,1,0,0:0:0:0:
36,192,185992,1,0,0:0:0:0:
182,192,186045,1,0,0:0:0:0:
329,192,186099,1,0,0:0:0:0:
182,192,186152,1,0,0:0:0:0:
402,192,186206,1,0,0:0:0:0:
109,192,186206,1,0,0:0:0:0:
36,192,186206,1,0,0:0:0:0:
256,192,186206,1,0,0:0:0:0:
329,192,186260,1,0,0:0:0:0:
182,192,186313,1,0,0:0:0:0:
109,192,186367,1,0,0:0:0:0:
475,192,186420,1,0,0:0:0:0:
402,192,186420,128,0,186635:0:0:0:0:
36,192,186420,1,0,0:0:0:0:
329,192,186635,1,0,0:0:0:0:
182,192,186635,1,0,0:0:0:0:
36,192,186635,1,0,0:0:0:0:
109,192,186742,128,0,186795:0:0:0:0:
402,192,186742,128,0,186795:0:0:0:0:
256,192,186742,128,0,186795:0:0:0:0:
402,192,186956,128,0,187010:0:0:0:0:
256,192,186956,128,0,187010:0:0:0:0:
109,192,186956,128,0,187010:0:0:0:0:
475,192,187063,1,0,0:0:0:0:
329,192,187063,1,0,0:0:0:0:
36,192,187063,1,0,0:0:0:0:
182,192,187063,1,0,0:0:0:0:
402,192,187117,1,0,0:0:0:0:
256,192,187170,1,0,0:0:0:0:
109,192,187224,1,0,0:0:0:0:
402,192,187277,1,0,0:0:0:0:
182,192,187331,1,0,0:0:0:0:
329,192,187385,1,0,0:0:0:0:
256,192,187438,1,0,0:0:0:0:
182,192,187492,1,0,0:0:0:0:
475,192,187492,1,0,0:0:0:0:
36,192,187492,1,0,0:0:0:0:
402,192,187492,1,0,0:0:0:0:
256,192,187599,1,0,0:0:0:0:
402,192,187599,1,0,0:0:0:0:
109,192,187599,1,0,0:0:0:0:
329,192,187706,1,0,0:0:0:0:
256,192,187706,1,0,0:0:0:0:
109,192,187706,1,0,0:0:0:0:
402,192,187813,1,0,0:0:0:0:
182,192,187813,1,0,0:0:0:0:
109,192,187813,1,0,0:0:0:0:
256,192,187920,1,0,0:0:0:0:
475,192,187920,1,0,0:0:0:0:
36,192,187920,1,0,0:0:0:0:
329,192,187920,1,0,0:0:0:0:
475,192,188135,1,0,0:0:0:0:
256,192,188135,1,0,0:0:0:0:
36,192,188135,1,0,0:0:0:0:
36,192,188242,1,0,0:0:0:0:
256,192,188242,1,0,0:0:0:0:
475,192,188242,1,0,0:0:0:0:
329,192,188349,1,0,0:0:0:0:
402,192,188349,1,0,0:0:0:0:
109,192,188349,1,0,0:0:0:0:
182,192,188349,1,0,0:0:0:0:
256,192,188456,1,0,0:0:0:0:
109,192,188456,1,0,0:0:0:0:
475,192,188510,1,0,0:0:0:0:
402,192,188510,1,0,0:0:0:0:
329,192,188563,1,0,0:0:0:0:
182,192,188563,1,0,0:0:0:0:
36,192,188563,1,0,0:0:0:0:
402,192,188670,1,0,0:0:0:0:
109,192,188670,1,0,0:0:0:0:
256,192,188670,1,0,0:0:0:0:
402,192,188777,1,0,0:0:0:0:
36,192,188777,128,0,189206:0:0:0:0:
182,192,188777,1,0,0:0:0:0:
329,192,188777,1,0,0:0:0:0:
475,192,188992,1,0,0:0:0:0:
256,192,188992,1,0,0:0:0:0:
475,192,189099,1,0,0:0:0:0:
256,192,189099,1,0,0:0:0:0:
402,192,189206,1,0,0:0:0:0:
182,192,189206,1,0,0:0:0:0:
109,192,189206,1,0,0:0:0:0:
36,192,189420,128,0,189635:0:0:0:0:
109,192,189420,1,0,0:0:0:0:
329,192,189420,128,0,189635:0:0:0:0:
256,192,189420,1,0,0:0:0:0:
182,192,189635,1,0,0:0:0:0:
109,192,189635,1,0,0:0:0:0:
402,192,189635,1,0,0:0:0:0:
475,192,189635,1,0,0:0:0:0:
109,192,189849,1,0,0:0:0:0:
329,192,189849,1,0,0:0:0:0:
256,192,189849,128,0,190063:0:0:0:0:
475,192,189849,128,0,190063:0:0:0:0:
402,192,190063,1,0,0:0:0:0:
109,192,190063,1,0,0:0:0:0:
36,192,190063,1,0,0:0:0:0:
182,192,190063,1,0,0:0:0:0:
109,192,190206,1,0,0:0:0:0:
329,192,190206,1,0,0:0:0:0:
256,192,190206,1,0,0:0:0:0:
402,192,190349,1,0,0:0:0:0:
329,192,190349,1,0,0:0:0:0:
182,192,190349,1,0,0:0:0:0:
256,192,190385,1,0,0:0:0:0:
109,192,190385,1,0,0:0:0:0:
402,192,190492,1,0,0:0:0:0:
475,192,190492,1,0,0:0:0:0:
36,192,190492,1,0,0:0:0:0:
109,192,190527,1,0,0:0:0:0:
182,192,190563,1,0,0:0:0:0:
256,192,190599,1,0,0:0:0:0:
329,192,190635,1,0,0:0:0:0:
402,192,190670,1,0,0:0:0:0:
182,192,190706,1,0,0:0:0:0:
256,192,190742,1,0,0:0:0:0:
329,192,190777,1,0,0:0:0:0:
402,192,190813,1,0,0:0:0:0:
475,192,190849,1,0,0:0:0:0:
182,192,190885,1,0,0:0:0:0:
329,192,190920,1,0,0:0:0:0:
256,192,190920,1,0,0:0:0:0:
36,192,190920,1,0,0:0:0:0:
109,192,190920,1,0,0:0:0:0:
256,192,191135,128,0,191349:0:0:0:0:
402,192,191135,1,0,0:0:0:0:
109,192,191135,128,0,191349:0:0:0:0:
329,192,191349,128,0,191510:0:0:0:0:
182,192,191349,128,0,191510:0:0:0:0:
475,192,191510,128,0,191777:0:0:0:0:
36,192,191777,1,0,0:0:0:0:
402,192,191777,1,0,0:0:0:0:
256,192,191777,1,0,0:0:0:0:
182,192,191831,1,0,0:0:0:0:
36,192,191885,1,0,0:0:0:0:
109,192,191885,1,0,0:0:0:0:
402,192,191992,1,0,0:0:0:0:
329,192,191992,1,0,0:0:0:0:
182,192,192099,1,0,0:0:0:0:
109,192,192099,1,0,0:0:0:0:
256,192,192206,1,0,0:0:0:0:
36,192,192206,1,0,0:0:0:0:
402,192,192206,1,0,0:0:0:0:
475,192,192206,1,0,0:0:0:0:
475,192,192313,1,0,0:0:0:0:
402,192,192313,1,0,0:0:0:0:
182,192,192420,1,0,0:0:0:0:
329,192,192420,1,0,0:0:0:0:
36,192,192420,1,0,0:0:0:0:
109,192,192420,1,0,0:0:0:0:
109,192,192527,1,0,0:0:0:0:
36,192,192527,1,0,0:0:0:0:
475,192,192635,1,0,0:0:0:0:
402,192,192635,128,0,193063:0:0:0:0:
36,192,192635,1,0,0:0:0:0:
256,192,192635,1,0,0:0:0:0:
109,192,192849,1,0,0:0:0:0:
256,192,192902,1,0,0:0:0:0:
182,192,192956,1,0,0:0:0:0:
329,192,193010,1,0,0:0:0:0:
109,192,193063,1,0,0:0:0:0:
475,192,193063,1,0,0:0:0:0:
36,192,193063,1,0,0:0:0:0:
256,192,193063,1,0,0:0:0:0:
182,192,193117,1,0,0:0:0:0:
402,192,193170,1,0,0:0:0:0:
329,192,193224,1,0,0:0:0:0:
475,192,193277,128,0,193492:0:0:0:0:
256,192,193277,1,0,0:0:0:0:
36,192,193277,1,0,0:0:0:0:
402,192,193492,1,0,0:0:0:0:
182,192,193492,1,0,0:0:0:0:
36,192,193492,1,0,0:0:0:0:
329,192,193492,1,0,0:0:0:0:
109,192,193599,128,0,193652:0:0:0:0:
475,192,193599,128,0,193652:0:0:0:0:
256,192,193599,128,0,193652:0:0:0:0:
475,192,193813,128,0,193867:0:0:0:0:
256,192,193813,128,0,193867:0:0:0:0:
109,192,193813,128,0,193867:0:0:0:0:
329,192,193920,1,0,0:0:0:0:
402,192,193920,1,0,0:0:0:0:
36,192,193920,1,0,0:0:0:0:
182,192,193920,1,0,0:0:0:0:
256,192,193974,1,0,0:0:0:0:
109,192,194027,1,0,0:0:0:0:
329,192,194081,1,0,0:0:0:0:
182,192,194135,1,0,0:0:0:0:
402,192,194188,1,0,0:0:0:0:
256,192,194242,1,0,0:0:0:0:
109,192,194295,1,0,0:0:0:0:
36,192,194349,1,0,0:0:0:0:
402,192,194349,1,0,0:0:0:0:
329,192,194349,1,0,0:0:0:0:
475,192,194349,1,0,0:0:0:0:
402,192,194456,1,0,0:0:0:0:
256,192,194456,1,0,0:0:0:0:
109,192,194456,1,0,0:0:0:0:
109,192,194563,1,0,0:0:0:0:
329,192,194563,1,0,0:0:0:0:
182,192,194563,1,0,0:0:0:0:
402,192,194670,1,0,0:0:0:0:
109,192,194670,1,0,0:0:0:0:
182,192,194670,1,0,0:0:0:0:
256,192,194777,1,0,0:0:0:0:
475,192,194777,1,0,0:0:0:0:
36,192,194777,1,0,0:0:0:0:
329,192,194777,1,0,0:0:0:0:
402,192,194992,1,0,0:0:0:0:
256,192,194992,1,0,0:0:0:0:
109,192,194992,1,0,0:0:0:0:
402,192,195099,1,0,0:0:0:0:
256,192,195099,1,0,0:0:0:0:
109,192,195099,1,0,0:0:0:0:
329,192,195206,1,0,0:0:0:0:
475,192,195206,1,0,0:0:0:0:
36,192,195206,1,0,0:0:0:0:
182,192,195313,1,0,0:0:0:0:
109,192,195313,1,0,0:0:0:0:
329,192,195367,1,0,0:0:0:0:
256,192,195367,1,0,0:0:0:0:
36,192,195420,1,0,0:0:0:0:
402,192,195420,1,0,0:0:0:0:
475,192,195420,1,0,0:0:0:0:
109,192,195456,1,0,0:0:0:0:
182,192,195492,1,0,0:0:0:0:
402,192,195527,1,0,0:0:0:0:
256,192,195527,1,0,0:0:0:0:
475,192,195527,1,0,0:0:0:0:
329,192,195635,1,0,0:0:0:0:
36,192,195635,1,0,0:0:0:0:
475,192,195635,1,0,0:0:0:0:
402,192,195635,1,0,0:0:0:0:
109,192,195670,1,0,0:0:0:0:
182,192,195706,1,0,0:0:0:0:
256,192,195742,1,0,0:0:0:0:
475,192,195849,1,0,0:0:0:0:
36,192,195849,1,0,0:0:0:0:
402,192,195849,1,0,0:0:0:0:
109,192,195885,1,0,0:0:0:0:
182,192,195920,1,0,0:0:0:0:
256,192,195956,1,0,0:0:0:0:
475,192,195956,1,0,0:0:0:0:
402,192,195956,1,0,0:0:0:0:
329,192,196063,128,0,196277:0:0:0:0:
182,192,196063,128,0,196277:0:0:0:0:
475,192,196277,1,0,0:0:0:0:
256,192,196277,1,0,0:0:0:0:
36,192,196277,1,0,0:0:0:0:
182,192,196385,1,0,0:0:0:0:
402,192,196385,1,0,0:0:0:0:
329,192,196438,1,0,0:0:0:0:
109,192,196492,1,0,0:0:0:0:
475,192,196492,1,0,0:0:0:0:
256,192,196492,1,0,0:0:0:0:
36,192,196492,1,0,0:0:0:0:
402,192,196545,1,0,0:0:0:0:
182,192,196599,1,0,0:0:0:0:
329,192,196652,1,0,0:0:0:0:
475,192,196706,128,0,196920:0:0:0:0:
109,192,196706,1,0,0:0:0:0:
36,192,196706,1,0,0:0:0:0:
402,192,196920,1,0,0:0:0:0:
109,192,196920,1,0,0:0:0:0:
36,192,196920,1,0,0:0:0:0:
256,192,196920,1,0,0:0:0:0:
182,192,196956,1,0,0:0:0:0:
329,192,197063,128,0,197099:0:0:0:0:
475,192,197063,128,0,197099:0:0:0:0:
36,192,197063,1,0,0:0:0:0:
109,192,197063,1,0,0:0:0:0:
182,192,197099,1,0,0:0:0:0:
329,192,197206,128,0,197242:0:0:0:0:
475,192,197206,128,0,197242:0:0:0:0:
36,192,197206,1,0,0:0:0:0:
109,192,197206,1,0,0:0:0:0:
182,192,197242,1,0,0:0:0:0:
475,192,197349,1,0,0:0:0:0:
109,192,197349,1,0,0:0:0:0:
36,192,197349,1,0,0:0:0:0:
402,192,197385,1,0,0:0:0:0:
329,192,197420,1,0,0:0:0:0:
256,192,197456,1,0,0:0:0:0:
182,192,197492,1,0,0:0:0:0:
109,192,197527,1,0,0:0:0:0:
36,192,197563,1,0,0:0:0:0:
475,192,197599,1,0,0:0:0:0:
402,192,197635,1,0,0:0:0:0:
329,192,197670,1,0,0:0:0:0:
182,192,197706,1,0,0:0:0:0:
109,192,197742,1,0,0:0:0:0:
256,192,197777,1,0,0:0:0:0:
475,192,197777,1,0,0:0:0:0:
36,192,197777,1,0,0:0:0:0:
402,192,197813,1,0,0:0:0:0:
329,192,197849,1,0,0:0:0:0:
182,192,197885,1,0,0:0:0:0:
109,192,197920,1,0,0:0:0:0:
36,192,197956,1,0,0:0:0:0:
329,192,197992,1,0,0:0:0:0:
402,192,198027,1,0,0:0:0:0:
475,192,198063,1,0,0:0:0:0:
36,192,198099,1,0,0:0:0:0:
109,192,198135,1,0,0:0:0:0:
182,192,198170,1,0,0:0:0:0:
256,192,198206,1,0,0:0:0:0:
475,192,198206,1,0,0:0:0:0:
402,192,198242,1,0,0:0:0:0:
329,192,198277,1,0,0:0:0:0:
182,192,198313,1,0,0:0:0:0:
109,192,198349,1,0,0:0:0:0:
36,192,198385,1,0,0:0:0:0:
329,192,198420,1,0,0:0:0:0:
402,192,198456,1,0,0:0:0:0:
475,192,198492,1,0,0:0:0:0:
36,192,198527,1,0,0:0:0:0:
109,192,198563,1,0,0:0:0:0:
182,192,198599,1,0,0:0:0:0:
475,192,198635,1,0,0:0:0:0:
256,192,198635,1,0,0:0:0:0:
402,192,198670,1,0,0:0:0:0:
329,192,198706,1,0,0:0:0:0:
182,192,198742,1,0,0:0:0:0:
109,192,198777,1,0,0:0:0:0:
36,192,198813,1,0,0:0:0:0:
329,192,198849,1,0,0:0:0:0:
402,192,198885,1,0,0:0:0:0:
475,192,198920,1,0,0:0:0:0:
36,192,198956,1,0,0:0:0:0:
256,192,198956,1,0,0:0:0:0:
109,192,198992,1,0,0:0:0:0:
182,192,199027,1,0,0:0:0:0:
475,192,199063,1,0,0:0:0:0:
402,192,199099,1,0,0:0:0:0:
329,192,199135,1,0,0:0:0:0:
182,192,199170,1,0,0:0:0:0:
109,192,199206,1,0,0:0:0:0:
36,192,199242,1,0,0:0:0:0:
475,192,199277,1,0,0:0:0:0:
256,192,199277,1,0,0:0:0:0:
329,192,199313,1,0,0:0:0:0:
402,192,199349,1,0,0:0:0:0:
182,192,199385,1,0,0:0:0:0:
109,192,199420,1,0,0:0:0:0:
329,192,199456,1,0,0:0:0:0:
36,192,199492,1,0,0:0:0:0:
402,192,199492,1,0,0:0:0:0:
475,192,199492,1,0,0:0:0:0:
109,192,199527,1,0,0:0:0:0:
182,192,199563,1,0,0:0:0:0:
256,192,199599,1,0,0:0:0:0:
329,192,199635,1,0,0:0:0:0:
402,192,199670,1,0,0:0:0:0:
182,192,199706,1,0,0:0:0:0:
109,192,199742,1,0,0:0:0:0:
36,192,199777,1,0,0:0:0:0:
402,192,199813,1,0,0:0:0:0:
329,192,199849,1,0,0:0:0:0:
256,192,199885,1,0,0:0:0:0:
109,192,199920,1,0,0:0:0:0:
475,192,199920,1,0,0:0:0:0:
36,192,199920,1,0,0:0:0:0:
182,192,199974,1,0,0:0:0:0:
329,192,200027,1,0,0:0:0:0:
256,192,200081,1,0,0:0:0:0:
475,192,200135,1,0,0:0:0:0:
182,192,200135,1,0,0:0:0:0:
402,192,200188,1,0,0:0:0:0:
329,192,200242,1,0,0:0:0:0:
402,192,200295,1,0,0:0:0:0:
36,192,200349,1,0,0:0:0:0:
256,192,200349,1,0,0:0:0:0:
475,192,200349,1,0,0:0:0:0:
182,192,200349,1,0,0:0:0:0:
109,192,200456,1,0,0:0:0:0:
256,192,200456,1,0,0:0:0:0:
402,192,200456,1,0,0:0:0:0:
109,192,200670,1,0,0:0:0:0:
256,192,200670,1,0,0:0:0:0:
402,192,200670,1,0,0:0:0:0:
402,192,200777,1,0,0:0:0:0:
475,192,200777,1,0,0:0:0:0:
36,192,200777,1,0,0:0:0:0:
182,192,200777,1,0,0:0:0:0:
329,192,200831,1,0,0:0:0:0:
256,192,200885,1,0,0:0:0:0:
36,192,200938,1,0,0:0:0:0:
109,192,200992,1,0,0:0:0:0:
475,192,200992,1,0,0:0:0:0:
182,192,201045,1,0,0:0:0:0:
256,192,201099,1,0,0:0:0:0:
402,192,201152,1,0,0:0:0:0:
329,192,201206,1,0,0:0:0:0:
182,192,201206,1,0,0:0:0:0:
36,192,201206,1,0,0:0:0:0:
109,192,201206,1,0,0:0:0:0:
402,192,201313,1,0,0:0:0:0:
256,192,201313,1,0,0:0:0:0:
109,192,201313,1,0,0:0:0:0:
402,192,201420,1,0,0:0:0:0:
329,192,201420,1,0,0:0:0:0:
182,192,201420,1,0,0:0:0:0:
329,192,201527,1,0,0:0:0:0:
402,192,201527,1,0,0:0:0:0:
109,192,201527,1,0,0:0:0:0:
256,192,201635,1,0,0:0:0:0:
475,192,201635,1,0,0:0:0:0:
109,192,201635,1,0,0:0:0:0:
182,192,201635,1,0,0:0:0:0:
402,192,201849,1,0,0:0:0:0:
256,192,201849,1,0,0:0:0:0:
36,192,201849,1,0,0:0:0:0:
36,192,201956,1,0,0:0:0:0:
402,192,201956,1,0,0:0:0:0:
256,192,201956,1,0,0:0:0:0:
329,192,202063,1,0,0:0:0:0:
475,192,202063,1,0,0:0:0:0:
109,192,202063,1,0,0:0:0:0:
182,192,202063,1,0,0:0:0:0:
402,192,202170,1,0,0:0:0:0:
256,192,202170,1,0,0:0:0:0:
182,192,202224,1,0,0:0:0:0:
109,192,202224,1,0,0:0:0:0:
475,192,202277,1,0,0:0:0:0:
36,192,202277,1,0,0:0:0:0:
475,192,202385,1,0,0:0:0:0:
36,192,202385,1,0,0:0:0:0:
256,192,202492,1,0,0:0:0:0:
402,192,202492,1,0,0:0:0:0:
329,192,202492,1,0,0:0:0:0:
109,192,202492,1,0,0:0:0:0:
182,192,202599,1,0,0:0:0:0:
475,192,202706,1,0,0:0:0:0:
329,192,202706,1,0,0:0:0:0:
182,192,202813,1,0,0:0:0:0:
475,192,202920,1,0,0:0:0:0:
256,192,202920,128,0,203295:0:0:0:0:
402,192,202920,1,0,0:0:0:0:
36,192,202920,1,0,0:0:0:0:
109,192,202920,1,0,0:0:0:0:
402,192,203349,1,0,0:0:0:0:
36,192,203349,1,0,0:0:0:0:
256,192,203349,128,0,203777:0:0:0:0:
109,192,203349,1,0,0:0:0:0:
475,192,203349,1,0,0:0:0:0:
109,192,203777,1,0,0:0:0:0:
475,192,203777,1,0,0:0:0:0:
402,192,203777,1,0,0:0:0:0:
475,192,203920,1,0,0:0:0:0:
182,192,203920,1,0,0:0:0:0:
109,192,203920,1,0,0:0:0:0:
402,192,203920,1,0,0:0:0:0:
475,192,204063,1,0,0:0:0:0:
182,192,204063,1,0,0:0:0:0:
109,192,204063,1,0,0:0:0:0:
402,192,204063,1,0,0:0:0:0:
475,192,204206,1,0,0:0:0:0:
256,192,204206,1,0,0:0:0:0:
36,192,204206,1,0,0:0:0:0:
109,192,204242,1,0,0:0:0:0:
182,192,204277,1,0,0:0:0:0:
402,192,204313,1,0,0:0:0:0:
329,192,204349,1,0,0:0:0:0:
109,192,204385,1,0,0:0:0:0:
182,192,204420,1,0,0:0:0:0:
475,192,204456,1,0,0:0:0:0:
402,192,204492,1,0,0:0:0:0:
329,192,204527,1,0,0:0:0:0:
182,192,204563,1,0,0:0:0:0:
109,192,204599,1,0,0:0:0:0:
402,192,204635,1,0,0:0:0:0:
475,192,204635,1,0,0:0:0:0:
36,192,204635,1,0,0:0:0:0:
256,192,204635,1,0,0:0:0:0:
36,192,205920,128,0,205974:0:0:0:0:
475,192,205920,128,0,205974:0:0:0:0:
402,192,205974,128,0,206027:0:0:0:0:
109,192,205974,128,0,206027:0:0:0:0:
329,192,206027,128,0,206081:0:0:0:0:
182,192,206027,128,0,206081:0:0:0:0:
256,192,206081,128,0,206135:0:0:0:0:
402,192,206135,128,0,206206:0:0:0:0:
109,192,206135,128,0,206206:0:0:0:0:
329,192,206206,128,0,206277:0:0:0:0:
182,192,206206,128,0,206277:0:0:0:0:
256,192,206277,128,0,206349:0:0:0:0:
109,192,206349,128,0,206456:0:0:0:0:
36,192,206349,128,0,206456:0:0:0:0:
402,192,206349,128,0,206456:0:0:0:0:
475,192,206349,128,0,206456:0:0:0:0:
182,192,206349,128,0,206456:0:0:0:0:
329,192,206456,128,0,206563:0:0:0:0:
256,192,206456,128,0,206563:0:0:0:0:
109,192,206563,128,0,206670:0:0:0:0:
36,192,206563,128,0,206670:0:0:0:0:
475,192,206563,128,0,206670:0:0:0:0:
329,192,206670,128,0,206777:0:0:0:0:
182,192,206670,128,0,206777:0:0:0:0:
475,192,206777,128,0,206885:0:0:0:0:
402,192,206777,128,0,206885:0:0:0:0:
256,192,206777,128,0,206885:0:0:0:0:
109,192,206777,128,0,206885:0:0:0:0:
36,192,206777,128,0,206885:0:0:0:0:
329,192,206885,128,0,206992:0:0:0:0:
182,192,206885,128,0,206992:0:0:0:0:
475,192,206992,128,0,207099:0:0:0:0:
36,192,206992,128,0,207099:0:0:0:0:
402,192,206992,128,0,207099:0:0:0:0:
256,192,207099,128,0,207206:0:0:0:0:
109,192,207099,128,0,207206:0:0:0:0:
182,192,207206,128,0,207313:0:0:0:0:
329,192,207206,128,0,207313:0:0:0:0:
402,192,207206,128,0,207313:0:0:0:0:
475,192,207206,128,0,207313:0:0:0:0:
36,192,207206,128,0,207313:0:0:0:0:
256,192,207313,128,0,207420:0:0:0:0:
109,192,207313,128,0,207420:0:0:0:0:
475,192,207420,128,0,207527:0:0:0:0:
329,192,207420,128,0,207527:0:0:0:0:
36,192,207420,128,0,207527:0:0:0:0:
256,192,207527,128,0,207635:0:0:0:0:
182,192,207527,128,0,207635:0:0:0:0:
475,192,207635,128,0,207742:0:0:0:0:
329,192,207635,128,0,207742:0:0:0:0:
402,192,207635,128,0,207742:0:0:0:0:
109,192,207635,128,0,207742:0:0:0:0:
36,192,207635,128,0,207742:0:0:0:0:
256,192,207742,128,0,207849:0:0:0:0:
182,192,207742,128,0,207849:0:0:0:0:
402,192,207849,128,0,207956:0:0:0:0:
109,192,207849,128,0,207956:0:0:0:0:
475,192,207849,128,0,207956:0:0:0:0:
329,192,207956,128,0,208063:0:0:0:0:
182,192,207956,128,0,208063:0:0:0:0:
256,192,208063,128,0,208170:0:0:0:0:
109,192,208063,128,0,208170:0:0:0:0:
36,192,208063,128,0,208170:0:0:0:0:
402,192,208063,128,0,208170:0:0:0:0:
475,192,208063,128,0,208170:0:0:0:0:
329,192,208170,128,0,208277:0:0:0:0:
182,192,208170,128,0,208277:0:0:0:0:
475,192,208277,128,0,208385:0:0:0:0:
36,192,208277,128,0,208385:0:0:0:0:
109,192,208277,128,0,208385:0:0:0:0:
402,192,208385,128,0,208492:0:0:0:0:
256,192,208385,128,0,208492:0:0:0:0:
475,192,208492,128,0,208599:0:0:0:0:
329,192,208492,128,0,208599:0:0:0:0:
182,192,208492,128,0,208599:0:0:0:0:
36,192,208492,128,0,208599:0:0:0:0:
109,192,208492,128,0,208599:0:0:0:0:
402,192,208599,128,0,208706:0:0:0:0:
256,192,208599,128,0,208706:0:0:0:0:
109,192,208706,128,0,208813:0:0:0:0:
36,192,208706,128,0,208813:0:0:0:0:
329,192,208706,128,0,208813:0:0:0:0:
182,192,208813,128,0,208920:0:0:0:0:
402,192,208813,128,0,208920:0:0:0:0:
475,192,208920,128,0,209027:0:0:0:0:
329,192,208920,128,0,209135:0:0:0:0:
256,192,208920,128,0,209027:0:0:0:0:
109,192,208920,128,0,209135:0:0:0:0:
36,192,208920,128,0,209027:0:0:0:0:
402,192,209027,128,0,209242:0:0:0:0:
182,192,209027,128,0,209242:0:0:0:0:
256,192,209135,128,0,209242:0:0:0:0:
475,192,209135,128,0,209242:0:0:0:0:
36,192,209135,128,0,209242:0:0:0:0:
329,192,209242,128,0,209349:0:0:0:0:
109,192,209242,128,0,209349:0:0:0:0:
475,192,209349,128,0,209456:0:0:0:0:
256,192,209349,128,0,209456:0:0:0:0:
402,192,209349,128,0,209563:0:0:0:0:
182,192,209349,128,0,209563:0:0:0:0:
36,192,209349,128,0,209456:0:0:0:0:
109,192,209456,128,0,209670:0:0:0:0:
329,192,209456,128,0,209670:0:0:0:0:
475,192,209563,128,0,209670:0:0:0:0:
36,192,209563,128,0,209670:0:0:0:0:
256,192,209563,128,0,209670:0:0:0:0:
402,192,209670,128,0,209777:0:0:0:0:
182,192,209670,128,0,209777:0:0:0:0:
329,192,209777,128,0,209885:0:0:0:0:
475,192,209777,128,0,209885:0:0:0:0:
36,192,209777,128,0,209885:0:0:0:0:
256,192,209777,128,0,209885:0:0:0:0:
109,192,209777,128,0,209885:0:0:0:0:
182,192,209885,128,0,209992:0:0:0:0:
402,192,209885,128,0,209992:0:0:0:0:
109,192,209992,128,0,210099:0:0:0:0:
36,192,209992,128,0,210099:0:0:0:0:
475,192,209992,128,0,210099:0:0:0:0:
329,192,210099,128,0,210206:0:0:0:0:
256,192,210099,128,0,210206:0:0:0:0:
475,192,210206,128,0,210313:0:0:0:0:
182,192,210206,128,0,210313:0:0:0:0:
402,192,210206,128,0,210313:0:0:0:0:
109,192,210206,128,0,210313:0:0:0:0:
36,192,210206,128,0,210313:0:0:0:0:
329,192,210313,128,0,210420:0:0:0:0:
256,192,210313,128,0,210420:0:0:0:0:
182,192,210420,128,0,210527:0:0:0:0:
36,192,210420,128,0,210527:0:0:0:0:
475,192,210420,128,0,210527:0:0:0:0:
329,192,210527,128,0,210635:0:0:0:0:
109,192,210527,128,0,210635:0:0:0:0:
475,192,210635,128,0,210742:0:0:0:0:
402,192,210635,128,0,210742:0:0:0:0:
256,192,210635,128,0,210742:0:0:0:0:
36,192,210635,128,0,210742:0:0:0:0:
182,192,210635,128,0,210742:0:0:0:0:
329,192,210742,128,0,210849:0:0:0:0:
109,192,210742,128,0,210849:0:0:0:0:
256,192,210849,128,0,210956:0:0:0:0:
36,192,210849,128,0,210956:0:0:0:0:
475,192,210849,128,0,210956:0:0:0:0:
329,192,210956,128,0,211063:0:0:0:0:
182,192,210956,128,0,211063:0:0:0:0:
109,192,211063,128,0,211170:0:0:0:0:
36,192,211063,128,0,211170:0:0:0:0:
256,192,211063,128,0,211170:0:0:0:0:
475,192,211063,128,0,211170:0:0:0:0:
402,192,211063,128,0,211170:0:0:0:0:
329,192,211170,128,0,211277:0:0:0:0:
182,192,211170,128,0,211277:0:0:0:0:
36,192,211277,128,0,211385:0:0:0:0:
475,192,211277,128,0,211385:0:0:0:0:
109,192,211277,128,0,211385:0:0:0:0:
402,192,211385,128,0,211492:0:0:0:0:
256,192,211385,128,0,211492:0:0:0:0:
329,192,211492,128,0,211599:0:0:0:0:
182,192,211492,128,0,211599:0:0:0:0:
109,192,211492,128,0,211599:0:0:0:0:
36,192,211492,128,0,211599:0:0:0:0:
475,192,211492,128,0,211599:0:0:0:0:
256,192,211599,128,0,211706:0:0:0:0:
402,192,211599,128,0,211706:0:0:0:0:
36,192,211706,128,0,211813:0:0:0:0:
475,192,211706,128,0,211813:0:0:0:0:
109,192,211706,128,0,211813:0:0:0:0:
329,192,211813,128,0,211920:0:0:0:0:
182,192,211813,128,0,211920:0:0:0:0:
402,192,211920,128,0,212027:0:0:0:0:
475,192,211920,128,0,212027:0:0:0:0:
256,192,211920,128,0,212027:0:0:0:0:
36,192,211920,128,0,212027:0:0:0:0:
109,192,211920,128,0,212027:0:0:0:0:
329,192,212027,128,0,212135:0:0:0:0:
182,192,212027,128,0,212135:0:0:0:0:
109,192,212135,128,0,212242:0:0:0:0:
402,192,212135,128,0,212242:0:0:0:0:
256,192,212135,128,0,212242:0:0:0:0:
329,192,212242,128,0,212349:0:0:0:0:
182,192,212242,128,0,212349:0:0:0:0:
475,192,212349,128,0,212456:0:0:0:0:
402,192,212349,128,0,212456:0:0:0:0:
256,192,212349,128,0,212456:0:0:0:0:
109,192,212349,128,0,212456:0:0:0:0:
36,192,212349,128,0,212456:0:0:0:0:
329,192,212456,128,0,212563:0:0:0:0:
182,192,212456,128,0,212563:0:0:0:0:
36,192,212563,128,0,212670:0:0:0:0:
475,192,212563,128,0,212670:0:0:0:0:
109,192,212563,128,0,212670:0:0:0:0:
402,192,212670,128,0,212777:0:0:0:0:
329,192,212670,128,0,212777:0:0:0:0:
256,192,212670,128,0,212777:0:0:0:0:
182,192,212670,128,0,212777:0:0:0:0:
475,192,212777,128,0,212885:0:0:0:0:
36,192,212777,128,0,212885:0:0:0:0:
402,192,212885,128,0,212992:0:0:0:0:
256,192,212885,128,0,212992:0:0:0:0:
182,192,212885,128,0,212992:0:0:0:0:
329,192,212992,128,0,213099:0:0:0:0:
36,192,212992,128,0,213099:0:0:0:0:
109,192,212992,128,0,213099:0:0:0:0:
475,192,212992,128,0,213099:0:0:0:0:
182,192,213099,128,0,213206:0:0:0:0:
256,192,213099,128,0,213206:0:0:0:0:
475,192,213206,128,0,213313:0:0:0:0:
402,192,213206,128,0,213313:0:0:0:0:
329,192,213206,128,0,213313:0:0:0:0:
109,192,213206,128,0,213313:0:0:0:0:
36,192,213206,128,0,213313:0:0:0:0:
256,192,213313,128,0,213420:0:0:0:0:
182,192,213313,128,0,213420:0:0:0:0:
475,192,213420,128,0,213527:0:0:0:0:
402,192,213420,128,0,213527:0:0:0:0:
36,192,213420,128,0,213527:0:0:0:0:
329,192,213527,128,0,213635:0:0:0:0:
109,192,213527,128,0,213635:0:0:0:0:
402,192,213635,128,0,213742:0:0:0:0:
475,192,213635,128,0,213742:0:0:0:0:
256,192,213635,128,0,213742:0:0:0:0:
182,192,213635,128,0,213742:0:0:0:0:
36,192,213635,128,0,213742:0:0:0:0:
329,192,213742,128,0,213849:0:0:0:0:
109,192,213742,128,0,213849:0:0:0:0:
36,192,213849,128,0,213956:0:0:0:0:
475,192,213849,128,0,213956:0:0:0:0:
256,192,213849,128,0,213956:0:0:0:0:
402,192,213956,128,0,214063:0:0:0:0:
182,192,213956,128,0,214063:0:0:0:0:
329,192,214063,128,0,214170:0:0:0:0:
256,192,214063,128,0,214170:0:0:0:0:
36,192,214063,128,0,214170:0:0:0:0:
109,192,214063,128,0,214170:0:0:0:0:
475,192,214063,128,0,214170:0:0:0:0:
182,192,214170,128,0,214277:0:0:0:0:
402,192,214170,128,0,214277:0:0:0:0:
329,192,214277,128,0,214385:0:0:0:0:
109,192,214277,128,0,214385:0:0:0:0:
256,192,214277,128,0,214385:0:0:0:0:
475,192,214385,128,0,214492:0:0:0:0:
182,192,214385,128,0,214492:0:0:0:0:
329,192,214492,128,0,214599:0:0:0:0:
402,192,214492,128,0,214599:0:0:0:0:
256,192,214492,128,0,214599:0:0:0:0:
109,192,214492,128,0,214599:0:0:0:0:
36,192,214492,128,0,214599:0:0:0:0:
182,192,214599,128,0,214706:0:0:0:0:
475,192,214599,128,0,214706:0:0:0:0:
329,192,214706,128,0,214813:0:0:0:0:
36,192,214706,128,0,214813:0:0:0:0:
402,192,214706,128,0,214813:0:0:0:0:
182,192,214813,128,0,214920:0:0:0:0:
256,192,214813,128,0,214920:0:0:0:0:
475,192,214920,128,0,215027:0:0:0:0:
402,192,214920,128,0,215027:0:0:0:0:
329,192,214920,128,0,215027:0:0:0:0:
109,192,214920,128,0,215027:0:0:0:0:
36,192,214920,128,0,215027:0:0:0:0:
256,192,215027,128,0,215135:0:0:0:0:
182,192,215027,128,0,215135:0:0:0:0:
475,192,215135,128,0,215242:0:0:0:0:
402,192,215135,128,0,215242:0:0:0:0:
36,192,215135,128,0,215242:0:0:0:0:
329,192,215242,128,0,215349:0:0:0:0:
182,192,215242,128,0,215349:0:0:0:0:
256,192,215349,128,0,215456:0:0:0:0:
109,192,215349,128,0,215456:0:0:0:0:
475,192,215349,128,0,215456:0:0:0:0:
402,192,215349,128,0,215456:0:0:0:0:
36,192,215349,128,0,215456:0:0:0:0:
329,192,215456,128,0,215563:0:0:0:0:
182,192,215456,128,0,215563:0:0:0:0:
109,192,215563,128,0,215670:0:0:0:0:
475,192,215563,128,0,215670:0:0:0:0:
36,192,215563,128,0,215670:0:0:0:0:
329,192,215670,128,0,215777:0:0:0:0:
182,192,215670,128,0,215777:0:0:0:0:
475,192,215777,128,0,215992:0:0:0:0:
402,192,215777,128,0,215885:0:0:0:0:
256,192,215777,128,0,215885:0:0:0:0:
109,192,215777,128,0,215885:0:0:0:0:
36,192,215777,128,0,215992:0:0:0:0:
329,192,215885,128,0,216099:0:0:0:0:
182,192,215885,128,0,216099:0:0:0:0:
256,192,215992,128,0,216099:0:0:0:0:
402,192,215992,128,0,216099:0:0:0:0:
109,192,215992,128,0,216099:0:0:0:0:
36,192,216099,128,0,216206:0:0:0:0:
475,192,216099,128,0,216206:0:0:0:0:
109,192,216206,128,0,216313:0:0:0:0:
256,192,216206,128,0,216313:0:0:0:0:
329,192,216206,128,0,216420:0:0:0:0:
402,192,216206,128,0,216313:0:0:0:0:
182,192,216206,128,0,216420:0:0:0:0:
36,192,216313,128,0,216527:0:0:0:0:
475,192,216313,128,0,216527:0:0:0:0:
402,192,216420,128,0,216527:0:0:0:0:
256,192,216420,128,0,216527:0:0:0:0:
109,192,216420,128,0,216527:0:0:0:0:
182,192,216527,128,0,216635:0:0:0:0:
329,192,216527,128,0,216635:0:0:0:0:
109,192,216635,128,0,216742:0:0:0:0:
36,192,216635,128,0,216742:0:0:0:0:
256,192,216635,128,0,216742:0:0:0:0:
475,192,216635,128,0,216742:0:0:0:0:
402,192,216635,128,0,216742:0:0:0:0:
329,192,216742,128,0,216849:0:0:0:0:
182,192,216742,128,0,216849:0:0:0:0:
36,192,216849,128,0,216902:0:0:0:0:
475,192,216849,128,0,216956:0:0:0:0:
402,192,216849,128,0,216956:0:0:0:0:
109,192,216902,128,0,216956:0:0:0:0:
182,192,216956,128,0,217010:0:0:0:0:
329,192,216956,128,0,217063:0:0:0:0:
256,192,217010,128,0,217063:0:0:0:0:
475,192,217063,128,0,217170:0:0:0:0:
402,192,217063,128,0,217170:0:0:0:0:
109,192,217063,128,0,217170:0:0:0:0:
36,192,217063,128,0,217170:0:0:0:0:
182,192,217170,128,0,217277:0:0:0:0:
256,192,217170,128,0,217277:0:0:0:0:
475,192,217277,128,0,217331:0:0:0:0:
36,192,217277,128,0,217331:0:0:0:0:
402,192,217331,128,0,217385:0:0:0:0:
109,192,217331,128,0,217385:0:0:0:0:
329,192,217385,128,0,217438:0:0:0:0:
182,192,217385,128,0,217438:0:0:0:0:
256,192,217438,128,0,217492:0:0:0:0:
36,192,217438,128,0,217492:0:0:0:0:
475,192,217492,128,0,217599:0:0:0:0:
402,192,217492,128,0,217599:0:0:0:0:
109,192,217492,128,0,217599:0:0:0:0:
182,192,217599,128,0,217706:0:0:0:0:
329,192,217599,128,0,217706:0:0:0:0:
36,192,217706,128,0,217760:0:0:0:0:
475,192,217706,128,0,217813:0:0:0:0:
402,192,217706,128,0,217813:0:0:0:0:
109,192,217760,128,0,217813:0:0:0:0:
182,192,217813,128,0,217867:0:0:0:0:
329,192,217813,128,0,217920:0:0:0:0:
256,192,217867,128,0,217920:0:0:0:0:
475,192,217920,1,0,0:0:0:0:
402,192,217920,1,0,0:0:0:0:
109,192,217920,1,0,0:0:0:0:
36,192,217920,1,0,0:0:0:0:
402,192,218063,1,0,0:0:0:0:
329,192,218063,1,0,0:0:0:0:
182,192,218063,1,0,0:0:0:0:
109,192,218063,1,0,0:0:0:0:
475,192,218206,1,0,0:0:0:0:
402,192,218206,1,0,0:0:0:0:
109,192,218206,1,0,0:0:0:0:
36,192,218206,1,0,0:0:0:0:
475,192,218349,1,0,0:0:0:0:
402,192,218349,1,0,0:0:0:0:
256,192,218349,1,0,0:0:0:0:
109,192,218349,1,0,0:0:0:0:
36,192,218349,1,0,0:0:0:0:
182,192,218563,128,0,218777:0:0:0:0:
36,192,218563,128,0,218777:0:0:0:0:
256,192,218635,128,0,218777:0:0:0:0:
329,192,218706,128,0,218777:0:0:0:0:
402,192,218777,1,0,0:0:0:0:
109,192,218777,1,0,0:0:0:0:
475,192,218777,128,0,218885:0:0:0:0:
329,192,218885,128,0,218992:0:0:0:0:
36,192,218992,128,0,219206:0:0:0:0:
182,192,218992,128,0,219206:0:0:0:0:
329,192,219099,1,0,0:0:0:0:
475,192,219206,1,0,0:0:0:0:
329,192,219206,1,0,0:0:0:0:
475,192,219313,1,0,0:0:0:0:
256,192,219313,1,0,0:0:0:0:
109,192,219313,1,0,0:0:0:0:
182,192,219420,1,0,0:0:0:0:
36,192,219420,1,0,0:0:0:0:
402,192,219420,1,0,0:0:0:0:
402,192,219527,1,0,0:0:0:0:
329,192,219527,1,0,0:0:0:0:
109,192,219527,1,0,0:0:0:0:
36,192,219635,128,0,219688:0:0:0:0:
256,192,219635,1,0,0:0:0:0:
109,192,219688,128,0,219742:0:0:0:0:
329,192,219688,1,0,0:0:0:0:
182,192,219742,128,0,219795:0:0:0:0:
402,192,219742,1,0,0:0:0:0:
36,192,219795,128,0,219849:0:0:0:0:
256,192,219795,1,0,0:0:0:0:
109,192,219849,128,0,219902:0:0:0:0:
329,192,219849,1,0,0:0:0:0:
182,192,219902,128,0,219956:0:0:0:0:
402,192,219902,1,0,0:0:0:0:
36,192,219956,128,0,220010:0:0:0:0:
256,192,219956,1,0,0:0:0:0:
109,192,220010,128,0,220063:0:0:0:0:
329,192,220010,1,0,0:0:0:0:
475,192,220063,128,0,220385:0:0:0:0:
402,192,220063,128,0,220385:0:0:0:0:
182,192,220063,128,0,220170:0:0:0:0:
256,192,220063,128,0,220170:0:0:0:0:
36,192,220170,128,0,220277:0:0:0:0:
329,192,220170,128,0,220277:0:0:0:0:
256,192,220277,128,0,220385:0:0:0:0:
109,192,220277,128,0,220385:0:0:0:0:
329,192,220385,128,0,220492:0:0:0:0:
182,192,220385,128,0,220492:0:0:0:0:
402,192,220492,128,0,220813:0:0:0:0:
475,192,220492,128,0,220813:0:0:0:0:
256,192,220492,128,0,220599:0:0:0:0:
109,192,220492,128,0,220599:0:0:0:0:
36,192,220492,128,0,220599:0:0:0:0:
329,192,220599,128,0,220706:0:0:0:0:
182,192,220599,128,0,220706:0:0:0:0:
36,192,220706,128,0,220813:0:0:0:0:
256,192,220706,128,0,220813:0:0:0:0:
109,192,220813,128,0,220920:0:0:0:0:
182,192,220813,128,0,220920:0:0:0:0:
475,192,220920,128,0,221135:0:0:0:0:
402,192,220920,128,0,221135:0:0:0:0:
329,192,220920,128,0,221027:0:0:0:0:
256,192,220920,128,0,221027:0:0:0:0:
36,192,220920,128,0,221027:0:0:0:0:
182,192,221027,128,0,221135:0:0:0:0:
109,192,221027,128,0,221135:0:0:0:0:
329,192,221135,128,0,221242:0:0:0:0:
256,192,221135,128,0,221242:0:0:0:0:
475,192,221242,128,0,221349:0:0:0:0:
182,192,221242,128,0,221349:0:0:0:0:
109,192,221349,128,0,221670:0:0:0:0:
36,192,221349,128,0,221670:0:0:0:0:
402,192,221349,128,0,221456:0:0:0:0:
329,192,221349,128,0,221456:0:0:0:0:
256,192,221456,128,0,221563:0:0:0:0:
475,192,221456,128,0,221563:0:0:0:0:
329,192,221563,128,0,221670:0:0:0:0:
182,192,221563,128,0,221670:0:0:0:0:
475,192,221670,128,0,221777:0:0:0:0:
256,192,221670,128,0,221777:0:0:0:0:
402,192,221777,128,0,222099:0:0:0:0:
329,192,221777,128,0,222099:0:0:0:0:
109,192,221777,128,0,221885:0:0:0:0:
36,192,221777,128,0,221885:0:0:0:0:
256,192,221885,128,0,221992:0:0:0:0:
182,192,221885,128,0,221992:0:0:0:0:
36,192,221992,128,0,222099:0:0:0:0:
475,192,221992,128,0,222099:0:0:0:0:
256,192,222099,128,0,222206:0:0:0:0:
182,192,222099,128,0,222206:0:0:0:0:
109,192,222206,128,0,222527:0:0:0:0:
36,192,222206,128,0,222527:0:0:0:0:
475,192,222206,128,0,222313:0:0:0:0:
329,192,222206,128,0,222313:0:0:0:0:
402,192,222313,128,0,222420:0:0:0:0:
256,192,222313,128,0,222420:0:0:0:0:
182,192,222420,128,0,222527:0:0:0:0:
475,192,222420,128,0,222527:0:0:0:0:
329,192,222527,128,0,222635:0:0:0:0:
256,192,222527,128,0,222635:0:0:0:0:
109,192,222635,128,0,222956:0:0:0:0:
36,192,222635,128,0,222956:0:0:0:0:
475,192,222635,128,0,222742:0:0:0:0:
402,192,222635,128,0,222742:0:0:0:0:
256,192,222742,128,0,222849:0:0:0:0:
182,192,222742,128,0,222849:0:0:0:0:
475,192,222849,128,0,222956:0:0:0:0:
329,192,222849,128,0,222956:0:0:0:0:
402,192,222956,128,0,223063:0:0:0:0:
182,192,222956,128,0,223063:0:0:0:0:
329,192,223063,128,0,223385:0:0:0:0:
256,192,223063,128,0,223385:0:0:0:0:
475,192,223063,128,0,223170:0:0:0:0:
36,192,223063,128,0,223170:0:0:0:0:
109,192,223170,128,0,223277:0:0:0:0:
182,192,223170,128,0,223277:0:0:0:0:
402,192,223277,128,0,223385:0:0:0:0:
36,192,223277,128,0,223385:0:0:0:0:
182,192,223385,128,0,223492:0:0:0:0:
475,192,223385,128,0,223492:0:0:0:0:
329,192,223492,128,0,223813:0:0:0:0:
256,192,223492,128,0,223813:0:0:0:0:
109,192,223492,128,0,223599:0:0:0:0:
36,192,223492,128,0,223599:0:0:0:0:
475,192,223599,128,0,223706:0:0:0:0:
182,192,223599,128,0,223706:0:0:0:0:
36,192,223706,128,0,223813:0:0:0:0:
402,192,223706,128,0,223813:0:0:0:0:
109,192,223813,128,0,223920:0:0:0:0:
182,192,223813,128,0,223920:0:0:0:0:
329,192,223920,128,0,224027:0:0:0:0:
256,192,223920,128,0,224027:0:0:0:0:
475,192,223920,128,0,224027:0:0:0:0:
36,192,223920,128,0,224027:0:0:0:0:
402,192,224027,128,0,224135:0:0:0:0:
182,192,224027,128,0,224135:0:0:0:0:
109,192,224135,128,0,224242:0:0:0:0:
36,192,224135,128,0,224242:0:0:0:0:
329,192,224135,128,0,224242:0:0:0:0:
256,192,224135,128,0,224242:0:0:0:0:
475,192,224242,128,0,224349:0:0:0:0:
402,192,224242,128,0,224349:0:0:0:0:
109,192,224349,128,0,224670:0:0:0:0:
36,192,224349,128,0,224670:0:0:0:0:
256,192,224349,128,0,224456:0:0:0:0:
182,192,224349,128,0,224456:0:0:0:0:
329,192,224456,128,0,224563:0:0:0:0:
475,192,224456,128,0,224563:0:0:0:0:
402,192,224563,128,0,224670:0:0:0:0:
182,192,224563,128,0,224670:0:0:0:0:
256,192,224670,128,0,224777:0:0:0:0:
475,192,224670,128,0,224777:0:0:0:0:
109,192,224777,128,0,225063:0:0:0:0:
36,192,224777,128,0,225063:0:0:0:0:
182,192,224777,128,0,224849:0:0:0:0:
329,192,224777,128,0,224849:0:0:0:0:
402,192,224849,128,0,224920:0:0:0:0:
475,192,224849,128,0,224920:0:0:0:0:
256,192,224920,128,0,224992:0:0:0:0:
182,192,224920,128,0,224992:0:0:0:0:
329,192,224992,128,0,225063:0:0:0:0:
402,192,224992,128,0,225063:0:0:0:0:
475,192,225063,128,0,225135:0:0:0:0:
182,192,225063,128,0,225135:0:0:0:0:
256,192,225135,128,0,225206:0:0:0:0:
329,192,225135,128,0,225206:0:0:0:0:
475,192,225206,128,0,225277:0:0:0:0:
402,192,225206,128,0,225277:0:0:0:0:
36,192,225206,128,0,225277:0:0:0:0:
109,192,225206,128,0,225277:0:0:0:0:
256,192,225277,128,0,225349:0:0:0:0:
182,192,225277,128,0,225349:0:0:0:0:
402,192,225349,128,0,225420:0:0:0:0:
329,192,225349,128,0,225420:0:0:0:0:
109,192,225420,128,0,225492:0:0:0:0:
36,192,225420,128,0,225492:0:0:0:0:
402,192,225492,128,0,225563:0:0:0:0:
329,192,225492,128,0,225563:0:0:0:0:
109,192,225563,128,0,225635:0:0:0:0:
36,192,225563,128,0,225635:0:0:0:0:
475,192,225635,128,0,225706:0:0:0:0:
256,192,225635,128,0,225706:0:0:0:0:
402,192,225635,128,0,225706:0:0:0:0:
329,192,225635,128,0,225706:0:0:0:0:
109,192,225706,128,0,225777:0:0:0:0:
182,192,225706,128,0,225777:0:0:0:0:
475,192,225777,128,0,225849:0:0:0:0:
402,192,225777,128,0,225849:0:0:0:0:
182,192,225849,128,0,225920:0:0:0:0:
109,192,225849,128,0,225920:0:0:0:0:
402,192,225920,128,0,225992:0:0:0:0:
475,192,225920,128,0,225992:0:0:0:0:
109,192,225992,128,0,226063:0:0:0:0:
36,192,225992,128,0,226063:0:0:0:0:
402,192,226063,128,0,226135:0:0:0:0:
256,192,226063,128,0,226135:0:0:0:0:
329,192,226063,128,0,226135:0:0:0:0:
475,192,226063,128,0,226135:0:0:0:0:
109,192,226135,128,0,226206:0:0:0:0:
36,192,226135,128,0,226206:0:0:0:0:
329,192,226206,128,0,226277:0:0:0:0:
402,192,226206,128,0,226277:0:0:0:0:
109,192,226277,128,0,226349:0:0:0:0:
182,192,226277,128,0,226349:0:0:0:0:
402,192,226349,128,0,226420:0:0:0:0:
329,192,226349,128,0,226420:0:0:0:0:
109,192,226420,128,0,226492:0:0:0:0:
182,192,226420,128,0,226492:0:0:0:0:
475,192,226492,1,0,0:0:0:0:
402,192,226492,1,0,0:0:0:0:
329,192,226545,1,0,0:0:0:0:
256,192,226545,1,0,0:0:0:0:
182,192,226599,1,0,0:0:0:0:
109,192,226599,1,0,0:0:0:0:
402,192,226652,1,0,0:0:0:0:
329,192,226652,1,0,0:0:0:0:
256,192,226706,1,0,0:0:0:0:
182,192,226706,1,0,0:0:0:0:
109,192,226777,1,0,0:0:0:0:
36,192,226777,1,0,0:0:0:0:
329,192,226849,1,0,0:0:0:0:
256,192,226849,1,0,0:0:0:0:
402,192,226920,128,0,227242:0:0:0:0:
475,192,226920,128,0,227242:0:0:0:0:
182,192,226920,128,0,227027:0:0:0:0:
109,192,226920,128,0,227027:0:0:0:0:
36,192,226920,128,0,227027:0:0:0:0:
329,192,227027,128,0,227135:0:0:0:0:
256,192,227027,128,0,227135:0:0:0:0:
109,192,227135,128,0,227242:0:0:0:0:
36,192,227135,128,0,227242:0:0:0:0:
329,192,227242,128,0,227349:0:0:0:0:
182,192,227242,128,0,227349:0:0:0:0:
475,192,227349,128,0,227670:0:0:0:0:
402,192,227349,128,0,227670:0:0:0:0:
256,192,227349,128,0,227456:0:0:0:0:
36,192,227349,128,0,227456:0:0:0:0:
109,192,227456,128,0,227563:0:0:0:0:
182,192,227456,128,0,227563:0:0:0:0:
329,192,227563,128,0,227670:0:0:0:0:
256,192,227563,128,0,227670:0:0:0:0:
109,192,227670,128,0,227777:0:0:0:0:
36,192,227670,128,0,227777:0:0:0:0:
402,192,227777,128,0,228099:0:0:0:0:
475,192,227777,128,0,228099:0:0:0:0:
329,192,227777,128,0,227885:0:0:0:0:
182,192,227777,128,0,227885:0:0:0:0:
256,192,227885,128,0,227992:0:0:0:0:
109,192,227885,128,0,227992:0:0:0:0:
182,192,227992,128,0,228099:0:0:0:0:
36,192,227992,128,0,228099:0:0:0:0:
329,192,228099,128,0,228206:0:0:0:0:
256,192,228099,128,0,228206:0:0:0:0:
36,192,228206,128,0,228527:0:0:0:0:
109,192,228206,128,0,228527:0:0:0:0:
475,192,228206,128,0,228313:0:0:0:0:
402,192,228206,128,0,228313:0:0:0:0:
182,192,228313,128,0,228420:0:0:0:0:
256,192,228313,128,0,228420:0:0:0:0:
402,192,228420,128,0,228527:0:0:0:0:
329,192,228420,128,0,228527:0:0:0:0:
256,192,228527,128,0,228635:0:0:0:0:
475,192,228527,128,0,228635:0:0:0:0:
402,192,228635,128,0,228849:0:0:0:0:
329,192,228635,128,0,228849:0:0:0:0:
109,192,228635,128,0,228742:0:0:0:0:
36,192,228635,128,0,228742:0:0:0:0:
182,192,228742,128,0,228849:0:0:0:0:
475,192,228742,128,0,228849:0:0:0:0:
109,192,228849,128,0,228956:0:0:0:0:
36,192,228849,128,0,228956:0:0:0:0:
256,192,228849,128,0,228956:0:0:0:0:
402,192,228956,128,0,229063:0:0:0:0:
329,192,228956,128,0,229063:0:0:0:0:
109,192,229063,128,0,229385:0:0:0:0:
36,192,229063,128,0,229385:0:0:0:0:
182,192,229063,128,0,229170:0:0:0:0:
475,192,229063,128,0,229170:0:0:0:0:
329,192,229170,128,0,229277:0:0:0:0:
256,192,229170,128,0,229277:0:0:0:0:
475,192,229277,128,0,229385:0:0:0:0:
402,192,229277,128,0,229385:0:0:0:0:
256,192,229385,128,0,229492:0:0:0:0:
182,192,229385,128,0,229492:0:0:0:0:
109,192,229492,128,0,229706:0:0:0:0:
36,192,229492,128,0,229706:0:0:0:0:
475,192,229492,128,0,229599:0:0:0:0:
329,192,229492,128,0,229599:0:0:0:0:
402,192,229599,128,0,229706:0:0:0:0:
182,192,229599,128,0,229706:0:0:0:0:
329,192,229706,128,0,229920:0:0:0:0:
256,192,229706,128,0,229920:0:0:0:0:
475,192,229706,128,0,229813:0:0:0:0:
109,192,229813,128,0,229920:0:0:0:0:
36,192,229813,128,0,229920:0:0:0:0:
475,192,229920,128,0,230135:0:0:0:0:
402,192,229920,128,0,230135:0:0:0:0:
182,192,229920,128,0,230027:0:0:0:0:
329,192,230027,128,0,230135:0:0:0:0:
36,192,230027,128,0,230135:0:0:0:0:
182,192,230135,128,0,230349:0:0:0:0:
109,192,230135,128,0,230349:0:0:0:0:
256,192,230135,128,0,230242:0:0:0:0:
475,192,230242,128,0,230349:0:0:0:0:
402,192,230242,128,0,230349:0:0:0:0:
329,192,230349,128,0,230456:0:0:0:0:
256,192,230349,128,0,230456:0:0:0:0:
36,192,230349,128,0,230456:0:0:0:0:
109,192,230456,128,0,230563:0:0:0:0:
475,192,230456,128,0,230563:0:0:0:0:
329,192,230563,128,0,230670:0:0:0:0:
256,192,230563,128,0,230670:0:0:0:0:
182,192,230563,128,0,230670:0:0:0:0:
402,192,230563,128,0,230670:0:0:0:0:
109,192,230670,128,0,230777:0:0:0:0:
36,192,230670,128,0,230777:0:0:0:0:
329,192,230777,128,0,230885:0:0:0:0:
256,192,230777,128,0,230885:0:0:0:0:
475,192,230777,128,0,230885:0:0:0:0:
402,192,230777,128,0,230885:0:0:0:0:
182,192,230885,128,0,230992:0:0:0:0:
36,192,230885,128,0,230992:0:0:0:0:
402,192,230992,128,0,231099:0:0:0:0:
329,192,230992,128,0,231099:0:0:0:0:
475,192,230992,128,0,231099:0:0:0:0:
109,192,230992,128,0,231099:0:0:0:0:
256,192,231099,128,0,231206:0:0:0:0:
182,192,231099,128,0,231206:0:0:0:0:
402,192,231206,128,0,231313:0:0:0:0:
329,192,231206,128,0,231313:0:0:0:0:
36,192,231206,128,0,231313:0:0:0:0:
109,192,231206,128,0,231313:0:0:0:0:
256,192,231313,128,0,231420:0:0:0:0:
182,192,231313,128,0,231420:0:0:0:0:
402,192,231420,128,0,231527:0:0:0:0:
329,192,231420,128,0,231527:0:0:0:0:
36,192,231420,128,0,231527:0:0:0:0:
475,192,231420,128,0,231527:0:0:0:0:
182,192,231527,128,0,231635:0:0:0:0:
109,192,231527,128,0,231635:0:0:0:0:
475,192,231635,128,0,231742:0:0:0:0:
402,192,231635,128,0,231742:0:0:0:0:
329,192,231635,128,0,231742:0:0:0:0:
256,192,231635,128,0,231742:0:0:0:0:
109,192,231742,128,0,231849:0:0:0:0:
36,192,231742,128,0,231849:0:0:0:0:
475,192,231849,128,0,231956:0:0:0:0:
402,192,231849,128,0,231956:0:0:0:0:
329,192,231849,128,0,231956:0:0:0:0:
182,192,231849,128,0,231956:0:0:0:0:
256,192,231956,128,0,232063:0:0:0:0:
36,192,231956,128,0,232063:0:0:0:0:
109,192,232010,128,0,232063:0:0:0:0:
182,192,232063,1,0,0:0:0:0:
475,192,232063,1,0,0:0:0:0:
402,192,232063,1,0,0:0:0:0:
329,192,232117,1,0,0:0:0:0:
256,192,232117,1,0,0:0:0:0:
109,192,232170,1,0,0:0:0:0:
36,192,232170,1,0,0:0:0:0:
256,192,232224,1,0,0:0:0:0:
182,192,232224,1,0,0:0:0:0:
402,192,232277,1,0,0:0:0:0:
329,192,232277,1,0,0:0:0:0:
182,192,232331,1,0,0:0:0:0:
109,192,232331,1,0,0:0:0:0:
329,192,232385,1,0,0:0:0:0:
256,192,232385,1,0,0:0:0:0:
475,192,232438,1,0,0:0:0:0:
402,192,232438,1,0,0:0:0:0:
109,192,232492,1,0,0:0:0:0:
36,192,232492,1,0,0:0:0:0:
256,192,232545,1,0,0:0:0:0:
182,192,232545,1,0,0:0:0:0:
402,192,232599,1,0,0:0:0:0:
329,192,232599,1,0,0:0:0:0:
182,192,232652,1,0,0:0:0:0:
109,192,232652,1,0,0:0:0:0:
329,192,232706,1,0,0:0:0:0:
256,192,232706,1,0,0:0:0:0:
475,192,232760,1,0,0:0:0:0:
402,192,232760,1,0,0:0:0:0:
256,192,232813,1,0,0:0:0:0:
182,192,232813,1,0,0:0:0:0:
109,192,232867,1,0,0:0:0:0:
36,192,232867,1,0,0:0:0:0:
475,192,232920,1,0,0:0:0:0:
402,192,232920,1,0,0:0:0:0:
329,192,232974,1,0,0:0:0:0:
256,192,232974,1,0,0:0:0:0:
182,192,233027,1,0,0:0:0:0:
109,192,233027,1,0,0:0:0:0:
402,192,233081,1,0,0:0:0:0:
329,192,233081,1,0,0:0:0:0:
256,192,233135,1,0,0:0:0:0:
182,192,233135,1,0,0:0:0:0:
109,192,233188,1,0,0:0:0:0:
36,192,233188,1,0,0:0:0:0:
256,192,233242,1,0,0:0:0:0:
329,192,233242,1,0,0:0:0:0:
475,192,233295,1,0,0:0:0:0:
402,192,233295,1,0,0:0:0:0:
109,192,233349,1,0,0:0:0:0:
36,192,233349,1,0,0:0:0:0:
182,192,233402,1,0,0:0:0:0:
329,192,233456,1,0,0:0:0:0:
109,192,233510,1,0,0:0:0:0:
402,192,233563,1,0,0:0:0:0:
182,192,233617,1,0,0:0:0:0:
329,192,233670,1,0,0:0:0:0:
109,192,233724,1,0,0:0:0:0:
402,192,233777,1,0,0:0:0:0:
256,192,233777,1,0,0:0:0:0:
36,192,233777,128,0,234206:0:0:0:0:
329,192,233992,1,0,0:0:0:0:
256,192,234045,1,0,0:0:0:0:
402,192,234099,1,0,0:0:0:0:
329,192,234152,1,0,0:0:0:0:
256,192,234206,1,0,0:0:0:0:
109,192,234206,1,0,0:0:0:0:
475,192,234206,1,0,0:0:0:0:
402,192,234206,1,0,0:0:0:0:
182,192,234260,1,0,0:0:0:0:
329,192,234313,1,0,0:0:0:0:
402,192,234367,1,0,0:0:0:0:
475,192,234420,1,0,0:0:0:0:
256,192,234420,1,0,0:0:0:0:
36,192,234420,1,0,0:0:0:0:
109,192,234420,128,0,234635:0:0:0:0:
402,192,234635,1,0,0:0:0:0:
329,192,234635,1,0,0:0:0:0:
182,192,234635,1,0,0:0:0:0:
256,192,234742,128,0,234795:0:0:0:0:
36,192,234742,128,0,234795:0:0:0:0:
475,192,234742,128,0,234795:0:0:0:0:
256,192,234956,128,0,235010:0:0:0:0:
36,192,234956,128,0,235010:0:0:0:0:
475,192,234956,128,0,235010:0:0:0:0:
402,192,235063,1,0,0:0:0:0:
329,192,235063,1,0,0:0:0:0:
182,192,235063,1,0,0:0:0:0:
109,192,235117,1,0,0:0:0:0:
256,192,235170,1,0,0:0:0:0:
329,192,235224,1,0,0:0:0:0:
182,192,235277,1,0,0:0:0:0:
475,192,235277,1,0,0:0:0:0:
402,192,235331,1,0,0:0:0:0:
109,192,235385,1,0,0:0:0:0:
329,192,235438,1,0,0:0:0:0:
475,192,235492,1,0,0:0:0:0:
256,192,235492,1,0,0:0:0:0:
36,192,235492,1,0,0:0:0:0:
182,192,235492,1,0,0:0:0:0:
402,192,235599,1,0,0:0:0:0:
329,192,235599,1,0,0:0:0:0:
109,192,235599,1,0,0:0:0:0:
329,192,235706,1,0,0:0:0:0:
402,192,235706,1,0,0:0:0:0:
182,192,235706,1,0,0:0:0:0:
475,192,235813,1,0,0:0:0:0:
256,192,235813,1,0,0:0:0:0:
36,192,235813,1,0,0:0:0:0:
402,192,235920,1,0,0:0:0:0:
329,192,235920,1,0,0:0:0:0:
182,192,235920,1,0,0:0:0:0:
109,192,235920,1,0,0:0:0:0:
402,192,236135,1,0,0:0:0:0:
109,192,236135,1,0,0:0:0:0:
256,192,236135,1,0,0:0:0:0:
402,192,236242,1,0,0:0:0:0:
109,192,236242,1,0,0:0:0:0:
256,192,236242,1,0,0:0:0:0:
475,192,236349,1,0,0:0:0:0:
329,192,236349,1,0,0:0:0:0:
36,192,236349,1,0,0:0:0:0:
182,192,236456,1,0,0:0:0:0:
109,192,236456,1,0,0:0:0:0:
329,192,236510,1,0,0:0:0:0:
256,192,236510,1,0,0:0:0:0:
475,192,236563,1,0,0:0:0:0:
36,192,236563,1,0,0:0:0:0:
402,192,236563,1,0,0:0:0:0:
109,192,236599,1,0,0:0:0:0:
182,192,236635,1,0,0:0:0:0:
475,192,236670,1,0,0:0:0:0:
256,192,236670,1,0,0:0:0:0:
402,192,236670,1,0,0:0:0:0:
36,192,236777,1,0,0:0:0:0:
402,192,236777,1,0,0:0:0:0:
475,192,236777,1,0,0:0:0:0:
329,192,236777,1,0,0:0:0:0:
109,192,236813,1,0,0:0:0:0:
182,192,236849,1,0,0:0:0:0:
256,192,236885,1,0,0:0:0:0:
36,192,236992,1,0,0:0:0:0:
475,192,236992,1,0,0:0:0:0:
402,192,236992,1,0,0:0:0:0:
109,192,237027,1,0,0:0:0:0:
182,192,237063,1,0,0:0:0:0:
256,192,237099,1,0,0:0:0:0:
475,192,237099,1,0,0:0:0:0:
402,192,237099,1,0,0:0:0:0:
475,192,237206,1,0,0:0:0:0:
329,192,237206,1,0,0:0:0:0:
36,192,237206,1,0,0:0:0:0:
182,192,237206,128,0,237635:0:0:0:0:
256,192,237420,1,0,0:0:0:0:
329,192,237474,1,0,0:0:0:0:
402,192,237527,1,0,0:0:0:0:
256,192,237581,1,0,0:0:0:0:
329,192,237635,1,0,0:0:0:0:
475,192,237635,1,0,0:0:0:0:
36,192,237635,1,0,0:0:0:0:
109,192,237688,1,0,0:0:0:0:
182,192,237742,1,0,0:0:0:0:
256,192,237795,1,0,0:0:0:0:
475,192,237849,1,0,0:0:0:0:
402,192,237849,1,0,0:0:0:0:
109,192,237849,128,0,238063:0:0:0:0:
475,192,238063,1,0,0:0:0:0:
402,192,238063,1,0,0:0:0:0:
182,192,238063,1,0,0:0:0:0:
329,192,238099,1,0,0:0:0:0:
475,192,238206,1,0,0:0:0:0:
402,192,238206,1,0,0:0:0:0:
109,192,238206,128,0,238242:0:0:0:0:
36,192,238206,128,0,238242:0:0:0:0:
329,192,238242,1,0,0:0:0:0:
475,192,238349,1,0,0:0:0:0:
402,192,238349,1,0,0:0:0:0:
109,192,238349,128,0,238385:0:0:0:0:
36,192,238349,128,0,238385:0:0:0:0:
329,192,238385,1,0,0:0:0:0:
475,192,238492,1,2,0:0:0:0:
402,192,238492,1,2,0:0:0:0:
182,192,238492,1,0,0:0:0:0:
109,192,238492,1,0,0:0:0:0:
36,192,238492,1,0,0:0:0:0:
329,192,238527,1,0,0:0:0:0:
256,192,238563,1,0,0:0:0:0:
109,192,238599,1,0,0:0:0:0:
182,192,238635,1,0,0:0:0:0:
329,192,238670,1,0,0:0:0:0:
402,192,238706,1,0,0:0:0:0:
36,192,238706,1,0,0:0:0:0:
109,192,238742,1,0,0:0:0:0:
182,192,238777,1,0,0:0:0:0:
256,192,238813,1,0,0:0:0:0:
329,192,238849,1,0,0:0:0:0:
402,192,238885,1,0,0:0:0:0:
36,192,238920,1,0,0:0:0:0:
256,192,238920,1,0,0:0:0:0:
475,192,238920,1,0,0:0:0:0:
109,192,238956,1,0,0:0:0:0:
182,192,238992,1,0,0:0:0:0:
329,192,239027,1,0,0:0:0:0:
402,192,239063,1,0,0:0:0:0:
475,192,239099,1,0,0:0:0:0:
182,192,239135,1,0,0:0:0:0:
109,192,239170,1,0,0:0:0:0:
36,192,239206,1,0,0:0:0:0:
475,192,239242,1,0,0:0:0:0:
402,192,239277,1,0,0:0:0:0:
329,192,239313,1,0,0:0:0:0:
256,192,239349,1,0,0:0:0:0:
36,192,239349,1,0,0:0:0:0:
109,192,239385,1,0,0:0:0:0:
182,192,239420,1,0,0:0:0:0:
329,192,239456,1,0,0:0:0:0:
402,192,239492,1,0,0:0:0:0:
475,192,239527,1,0,0:0:0:0:
182,192,239563,1,0,0:0:0:0:
109,192,239599,1,0,0:0:0:0:
36,192,239635,1,0,0:0:0:0:
475,192,239670,1,0,0:0:0:0:
402,192,239706,1,0,0:0:0:0:
329,192,239742,1,0,0:0:0:0:
256,192,239777,1,0,0:0:0:0:
36,192,239777,1,0,0:0:0:0:
109,192,239813,1,0,0:0:0:0:
182,192,239849,1,0,0:0:0:0:
329,192,239885,1,0,0:0:0:0:
402,192,239920,1,0,0:0:0:0:
475,192,239956,1,0,0:0:0:0:
182,192,239992,1,0,0:0:0:0:
109,192,240027,1,0,0:0:0:0:
36,192,240063,1,0,0:0:0:0:
256,192,240099,1,0,0:0:0:0:
475,192,240099,1,0,0:0:0:0:
402,192,240135,1,0,0:0:0:0:
329,192,240170,1,0,0:0:0:0:
36,192,240206,1,0,0:0:0:0:
109,192,240242,1,0,0:0:0:0:
182,192,240277,1,0,0:0:0:0:
329,192,240313,1,0,0:0:0:0:
402,192,240349,1,0,0:0:0:0:
475,192,240385,1,0,0:0:0:0:
109,192,240420,1,0,0:0:0:0:
36,192,240420,1,0,0:0:0:0:
256,192,240420,1,0,0:0:0:0:
329,192,240456,1,0,0:0:0:0:
402,192,240492,1,0,0:0:0:0:
182,192,240527,1,0,0:0:0:0:
109,192,240563,1,0,0:0:0:0:
329,192,240599,1,0,0:0:0:0:
36,192,240635,128,0,241063:0:0:0:0:
402,192,240635,1,0,0:0:0:0:
475,192,240635,128,0,241063:0:0:0:0:
256,192,240635,128,0,240849:0:0:0:0:
329,192,240849,128,0,241063:0:0:0:0:
182,192,240849,128,0,241063:0:0:0:0:
256,192,241063,1,0,0:0:0:0:
109,192,241063,1,0,0:0:0:0:
402,192,241063,1,0,0:0:0:0:
182,192,241117,1,0,0:0:0:0:
329,192,241170,1,0,0:0:0:0:
402,192,241224,1,0,0:0:0:0:
475,192,241277,1,0,0:0:0:0:
109,192,241277,128,0,241492:0:0:0:0:
36,192,241277,1,0,0:0:0:0:
475,192,241492,1,0,0:0:0:0:
329,192,241492,1,0,0:0:0:0:
182,192,241492,1,0,0:0:0:0:
256,192,241599,128,0,241652:0:0:0:0:
109,192,241599,128,0,241652:0:0:0:0:
402,192,241599,128,0,241652:0:0:0:0:
402,192,241813,128,0,241867:0:0:0:0:
256,192,241813,128,0,241867:0:0:0:0:
109,192,241813,128,0,241867:0:0:0:0:
475,192,241920,1,0,0:0:0:0:
329,192,241920,1,0,0:0:0:0:
36,192,241920,1,0,0:0:0:0:
182,192,241920,1,0,0:0:0:0:
109,192,241974,1,0,0:0:0:0:
256,192,242027,1,0,0:0:0:0:
402,192,242081,1,0,0:0:0:0:
109,192,242135,1,0,0:0:0:0:
329,192,242188,1,0,0:0:0:0:
182,192,242242,1,0,0:0:0:0:
256,192,242295,1,0,0:0:0:0:
475,192,242349,1,0,0:0:0:0:
109,192,242349,1,0,0:0:0:0:
329,192,242349,1,0,0:0:0:0:
36,192,242349,1,0,0:0:0:0:
402,192,242456,1,0,0:0:0:0:
109,192,242456,1,0,0:0:0:0:
256,192,242456,1,0,0:0:0:0:
402,192,242563,1,0,0:0:0:0:
256,192,242563,1,0,0:0:0:0:
182,192,242563,1,0,0:0:0:0:
402,192,242670,1,0,0:0:0:0:
329,192,242670,1,0,0:0:0:0:
109,192,242670,1,0,0:0:0:0:
475,192,242777,1,0,0:0:0:0:
182,192,242777,1,0,0:0:0:0:
256,192,242777,1,0,0:0:0:0:
36,192,242777,1,0,0:0:0:0:
475,192,242992,1,0,0:0:0:0:
256,192,242992,1,0,0:0:0:0:
36,192,242992,1,0,0:0:0:0:
36,192,243099,1,0,0:0:0:0:
256,192,243099,1,0,0:0:0:0:
475,192,243099,1,0,0:0:0:0:
402,192,243206,1,0,0:0:0:0:
329,192,243206,1,0,0:0:0:0:
182,192,243206,1,0,0:0:0:0:
109,192,243206,1,0,0:0:0:0:
402,192,243313,1,0,0:0:0:0:
256,192,243313,1,0,0:0:0:0:
109,192,243367,1,0,0:0:0:0:
36,192,243367,1,0,0:0:0:0:
475,192,243420,1,0,0:0:0:0:
329,192,243420,1,0,0:0:0:0:
182,192,243420,1,0,0:0:0:0:
256,192,243527,1,0,0:0:0:0:
402,192,243527,1,0,0:0:0:0:
109,192,243527,1,0,0:0:0:0:
329,192,243635,1,0,0:0:0:0:
182,192,243635,1,0,0:0:0:0:
109,192,243635,1,0,0:0:0:0:
475,192,243635,128,0,244063:0:0:0:0:
256,192,243849,1,0,0:0:0:0:
36,192,243849,1,0,0:0:0:0:
256,192,243956,1,0,0:0:0:0:
36,192,243956,1,0,0:0:0:0:
402,192,244063,1,0,0:0:0:0:
329,192,244063,1,0,0:0:0:0:
109,192,244063,1,0,0:0:0:0:
182,192,244277,128,0,244438:0:0:0:0:
475,192,244277,128,0,244438:0:0:0:0:
109,192,244492,128,0,244652:0:0:0:0:
402,192,244492,128,0,244652:0:0:0:0:
329,192,244706,1,0,0:0:0:0:
36,192,244706,1,0,0:0:0:0:
36,192,244813,1,0,0:0:0:0:
329,192,244813,1,0,0:0:0:0:
402,192,244920,1,0,0:0:0:0:
256,192,244920,1,0,0:0:0:0:
182,192,244920,1,0,0:0:0:0:
109,192,244920,1,0,0:0:0:0:
182,192,245063,1,0,0:0:0:0:
109,192,245063,1,0,0:0:0:0:
402,192,245063,1,0,0:0:0:0:
402,192,245206,1,0,0:0:0:0:
182,192,245206,1,0,0:0:0:0:
109,192,245206,1,0,0:0:0:0:
475,192,245349,1,0,0:0:0:0:
36,192,245349,1,0,0:0:0:0:
329,192,245349,128,0,245777:0:0:0:0:
256,192,245349,1,0,0:0:0:0:
109,192,245349,128,0,245777:0:0:0:0:
182,192,245563,128,0,245777:0:0:0:0:
475,192,245670,1,0,0:0:0:0:
402,192,245670,1,0,0:0:0:0:
475,192,245777,1,0,0:0:0:0:
402,192,245777,1,0,0:0:0:0:
256,192,245777,1,0,0:0:0:0:
402,192,245992,128,0,246206:0:0:0:0:
109,192,245992,1,0,0:0:0:0:
256,192,245992,128,0,246206:0:0:0:0:
329,192,246206,128,0,246367:0:0:0:0:
182,192,246206,128,0,246367:0:0:0:0:
36,192,246367,128,0,246635:0:0:0:0:
256,192,246635,1,0,0:0:0:0:
109,192,246635,1,0,0:0:0:0:
475,192,246635,1,0,0:0:0:0:
329,192,246688,1,0,0:0:0:0:
402,192,246742,1,0,0:0:0:0:
475,192,246742,1,0,0:0:0:0:
182,192,246849,1,0,0:0:0:0:
109,192,246849,1,0,0:0:0:0:
402,192,246956,1,0,0:0:0:0:
329,192,246956,1,0,0:0:0:0:
109,192,247063,1,0,0:0:0:0:
36,192,247063,1,0,0:0:0:0:
256,192,247063,1,0,0:0:0:0:
475,192,247063,1,0,0:0:0:0:
109,192,247170,1,0,0:0:0:0:
36,192,247170,1,0,0:0:0:0:
475,192,247277,1,0,0:0:0:0:
402,192,247277,1,0,0:0:0:0:
329,192,247277,1,0,0:0:0:0:
182,192,247277,1,0,0:0:0:0:
475,192,247385,1,0,0:0:0:0:
402,192,247385,1,0,0:0:0:0:
475,192,247492,1,0,0:0:0:0:
256,192,247492,1,0,0:0:0:0:
36,192,247492,1,0,0:0:0:0:
109,192,247492,128,0,247920:0:0:0:0:
402,192,247706,1,0,0:0:0:0:
256,192,247760,1,0,0:0:0:0:
329,192,247813,1,0,0:0:0:0:
182,192,247867,1,0,0:0:0:0:
475,192,247920,1,0,0:0:0:0:
256,192,247920,1,0,0:0:0:0:
402,192,247920,1,0,0:0:0:0:
36,192,247920,1,0,0:0:0:0:
329,192,247974,1,0,0:0:0:0:
109,192,248027,1,0,0:0:0:0:
182,192,248081,1,0,0:0:0:0:
475,192,248135,1,0,0:0:0:0:
256,192,248135,1,0,0:0:0:0:
36,192,248135,128,0,248349:0:0:0:0:
475,192,248349,1,0,0:0:0:0:
182,192,248349,1,0,0:0:0:0:
109,192,248349,1,0,0:0:0:0:
329,192,248349,1,0,0:0:0:0:
256,192,248456,128,0,248510:0:0:0:0:
36,192,248456,128,0,248510:0:0:0:0:
402,192,248456,128,0,248510:0:0:0:0:
402,192,248670,128,0,248724:0:0:0:0:
256,192,248670,128,0,248724:0:0:0:0:
36,192,248670,128,0,248724:0:0:0:0:
475,192,248777,1,0,0:0:0:0:
329,192,248777,1,0,0:0:0:0:
182,192,248777,1,0,0:0:0:0:
109,192,248777,1,0,0:0:0:0:
256,192,248831,1,0,0:0:0:0:
402,192,248885,1,0,0:0:0:0:
182,192,248938,1,0,0:0:0:0:
329,192,248992,1,0,0:0:0:0:
109,192,249045,1,0,0:0:0:0:
256,192,249099,1,0,0:0:0:0:
402,192,249152,1,0,0:0:0:0:
182,192,249206,1,0,0:0:0:0:
36,192,249206,1,0,0:0:0:0:
475,192,249206,1,0,0:0:0:0:
109,192,249206,1,0,0:0:0:0:
402,192,249313,1,0,0:0:0:0:
256,192,249313,1,0,0:0:0:0:
109,192,249313,1,0,0:0:0:0:
329,192,249420,1,0,0:0:0:0:
182,192,249420,1,0,0:0:0:0:
402,192,249420,1,0,0:0:0:0:
329,192,249527,1,0,0:0:0:0:
402,192,249527,1,0,0:0:0:0:
109,192,249527,1,0,0:0:0:0:
475,192,249635,1,0,0:0:0:0:
182,192,249635,1,0,0:0:0:0:
256,192,249635,1,0,0:0:0:0:
36,192,249635,1,0,0:0:0:0:
402,192,249849,1,0,0:0:0:0:
256,192,249849,1,0,0:0:0:0:
109,192,249849,1,0,0:0:0:0:
402,192,249956,1,0,0:0:0:0:
256,192,249956,1,0,0:0:0:0:
109,192,249956,1,0,0:0:0:0:
475,192,249956,1,0,0:0:0:0:
402,192,250170,1,0,0:0:0:0:
329,192,250170,1,0,0:0:0:0:
256,192,250224,1,0,0:0:0:0:
182,192,250224,1,0,0:0:0:0:
36,192,250277,1,0,0:0:0:0:
109,192,250277,1,0,0:0:0:0:
475,192,250277,1,0,0:0:0:0:
402,192,250313,1,0,0:0:0:0:
329,192,250349,1,0,0:0:0:0:
36,192,250385,1,0,0:0:0:0:
256,192,250385,1,0,0:0:0:0:
109,192,250385,1,0,0:0:0:0:
36,192,250492,1,0,0:0:0:0:
109,192,250492,1,0,0:0:0:0:
182,192,250492,1,0,0:0:0:0:
475,192,250492,1,0,0:0:0:0:
402,192,250527,1,0,0:0:0:0:
329,192,250563,1,0,0:0:0:0:
256,192,250599,1,0,0:0:0:0:
109,192,250706,1,0,0:0:0:0:
475,192,250706,1,0,0:0:0:0:
36,192,250706,1,0,0:0:0:0:
402,192,250742,1,0,0:0:0:0:
329,192,250777,1,0,0:0:0:0:
109,192,250813,1,0,0:0:0:0:
36,192,250813,1,0,0:0:0:0:
256,192,250813,1,0,0:0:0:0:
475,192,250920,128,0,251349:0:0:0:0:
402,192,250920,1,0,0:0:0:0:
182,192,250920,1,0,0:0:0:0:
256,192,251349,1,0,0:0:0:0:
329,192,251349,1,0,0:0:0:0:
182,192,251349,1,0,0:0:0:0:
36,192,251349,1,0,0:0:0:0:
109,192,251402,1,0,0:0:0:0:
329,192,251456,1,0,0:0:0:0:
182,192,251510,1,0,0:0:0:0:
475,192,251563,1,0,0:0:0:0:
402,192,251563,1,0,0:0:0:0:
36,192,251563,128,0,251777:0:0:0:0:
475,192,251777,1,0,0:0:0:0:
256,192,251777,1,0,0:0:0:0:
109,192,251777,1,0,0:0:0:0:
402,192,251777,1,0,0:0:0:0:
329,192,251813,1,0,0:0:0:0:
475,192,251920,1,0,0:0:0:0:
402,192,251920,1,0,0:0:0:0:
182,192,251920,128,0,251956:0:0:0:0:
36,192,251920,128,0,251956:0:0:0:0:
329,192,251956,1,0,0:0:0:0:
475,192,252063,1,0,0:0:0:0:
402,192,252063,1,0,0:0:0:0:
182,192,252063,128,0,252099:0:0:0:0:
36,192,252063,128,0,252099:0:0:0:0:
329,192,252099,1,0,0:0:0:0:
475,192,252206,1,0,0:0:0:0:
402,192,252206,1,0,0:0:0:0:
36,192,252206,1,0,0:0:0:0:
109,192,252242,1,0,0:0:0:0:
182,192,252277,1,0,0:0:0:0:
256,192,252313,1,0,0:0:0:0:
329,192,252349,1,0,0:0:0:0:
402,192,252385,1,0,0:0:0:0:
475,192,252420,1,0,0:0:0:0:
36,192,252456,1,0,0:0:0:0:
109,192,252492,1,0,0:0:0:0:
182,192,252527,1,0,0:0:0:0:
329,192,252563,1,0,0:0:0:0:
402,192,252599,1,0,0:0:0:0:
475,192,252635,1,0,0:0:0:0:
36,192,252635,1,0,0:0:0:0:
256,192,252635,1,0,0:0:0:0:
109,192,252670,1,0,0:0:0:0:
182,192,252706,1,0,0:0:0:0:
329,192,252742,1,0,0:0:0:0:
402,192,252777,1,0,0:0:0:0:
475,192,252813,1,0,0:0:0:0:
182,192,252849,1,0,0:0:0:0:
109,192,252885,1,0,0:0:0:0:
36,192,252920,1,0,0:0:0:0:
475,192,252956,1,0,0:0:0:0:
402,192,252992,1,0,0:0:0:0:
329,192,253027,1,0,0:0:0:0:
36,192,253063,1,0,0:0:0:0:
256,192,253063,1,0,0:0:0:0:
109,192,253099,1,0,0:0:0:0:
182,192,253135,1,0,0:0:0:0:
329,192,253170,1,0,0:0:0:0:
402,192,253206,1,0,0:0:0:0:
475,192,253242,1,0,0:0:0:0:
182,192,253277,1,0,0:0:0:0:
109,192,253313,1,0,0:0:0:0:
36,192,253349,1,0,0:0:0:0:
475,192,253385,1,0,0:0:0:0:
402,192,253420,1,0,0:0:0:0:
329,192,253456,1,0,0:0:0:0:
256,192,253492,1,0,0:0:0:0:
36,192,253492,1,0,0:0:0:0:
109,192,253527,1,0,0:0:0:0:
182,192,253563,1,0,0:0:0:0:
329,192,253599,1,0,0:0:0:0:
402,192,253635,1,0,0:0:0:0:
475,192,253670,1,0,0:0:0:0:
182,192,253706,1,0,0:0:0:0:
109,192,253742,1,0,0:0:0:0:
36,192,253777,1,0,0:0:0:0:
256,192,253813,1,0,0:0:0:0:
475,192,253813,1,0,0:0:0:0:
402,192,253849,1,0,0:0:0:0:
329,192,253885,1,0,0:0:0:0:
36,192,253920,1,0,0:0:0:0:
109,192,253956,1,0,0:0:0:0:
182,192,253992,1,0,0:0:0:0:
329,192,254027,1,0,0:0:0:0:
402,192,254063,1,0,0:0:0:0:
475,192,254099,1,0,0:0:0:0:
256,192,254135,1,0,0:0:0:0:
36,192,254135,1,0,0:0:0:0:
182,192,254170,1,0,0:0:0:0:
109,192,254206,1,0,0:0:0:0:
329,192,254242,1,0,0:0:0:0:
402,192,254277,1,0,0:0:0:0:
182,192,254313,1,0,0:0:0:0:
36,192,254349,1,0,0:0:0:0:
475,192,254349,1,0,0:0:0:0:
109,192,254349,128,0,254777:0:0:0:0:
402,192,254563,1,0,0:0:0:0:
329,192,254617,1,0,0:0:0:0:
256,192,254670,1,0,0:0:0:0:
182,192,254724,1,0,0:0:0:0:
475,192,254777,1,0,0:0:0:0:
36,192,254777,1,0,0:0:0:0:
402,192,254777,1,0,0:0:0:0:
329,192,254831,1,0,0:0:0:0:
182,192,254885,1,0,0:0:0:0:
256,192,254938,1,0,0:0:0:0:
329,192,254992,1,0,0:0:0:0:
36,192,254992,1,0,0:0:0:0:
109,192,255045,1,0,0:0:0:0:
182,192,255099,1,0,0:0:0:0:
109,192,255152,1,0,0:0:0:0:
36,192,255206,1,0,0:0:0:0:
329,192,255206,1,0,0:0:0:0:
475,192,255206,1,0,0:0:0:0:
256,192,255206,1,0,0:0:0:0:
109,192,255313,1,0,0:0:0:0:
256,192,255313,1,0,0:0:0:0:
402,192,255313,1,0,0:0:0:0:
109,192,255527,1,0,0:0:0:0:
256,192,255527,1,0,0:0:0:0:
402,192,255527,1,0,0:0:0:0:
475,192,255635,1,0,0:0:0:0:
329,192,255635,1,0,0:0:0:0:
109,192,255635,1,0,0:0:0:0:
36,192,255635,1,0,0:0:0:0:
182,192,255688,1,0,0:0:0:0:
256,192,255742,1,0,0:0:0:0:
475,192,255795,1,0,0:0:0:0:
36,192,255849,1,0,0:0:0:0:
402,192,255849,1,0,0:0:0:0:
329,192,255902,1,0,0:0:0:0:
256,192,255956,1,0,0:0:0:0:
109,192,256010,1,0,0:0:0:0:
475,192,256063,1,0,0:0:0:0:
402,192,256063,1,0,0:0:0:0:
182,192,256063,1,0,0:0:0:0:
329,192,256063,1,0,0:0:0:0:
402,192,256170,1,0,0:0:0:0:
256,192,256170,1,0,0:0:0:0:
109,192,256170,1,0,0:0:0:0:
329,192,256277,1,0,0:0:0:0:
182,192,256277,1,0,0:0:0:0:
109,192,256277,1,0,0:0:0:0:
402,192,256385,1,0,0:0:0:0:
109,192,256385,1,0,0:0:0:0:
182,192,256385,1,0,0:0:0:0:
402,192,256492,1,0,0:0:0:0:
329,192,256492,1,0,0:0:0:0:
256,192,256492,1,0,0:0:0:0:
36,192,256492,1,0,0:0:0:0:
475,192,256706,1,0,0:0:0:0:
256,192,256706,1,0,0:0:0:0:
109,192,256706,1,0,0:0:0:0:
256,192,256813,1,0,0:0:0:0:
109,192,256813,1,0,0:0:0:0:
475,192,256813,1,0,0:0:0:0:
402,192,256920,1,0,0:0:0:0:
329,192,256920,1,0,0:0:0:0:
182,192,256920,1,0,0:0:0:0:
36,192,256920,1,0,0:0:0:0:
256,192,257027,1,0,0:0:0:0:
109,192,257027,1,0,0:0:0:0:
402,192,257081,1,0,0:0:0:0:
329,192,257081,1,0,0:0:0:0:
475,192,257135,1,0,0:0:0:0:
36,192,257135,1,0,0:0:0:0:
475,192,257242,1,0,0:0:0:0:
36,192,257242,1,0,0:0:0:0:
182,192,257349,1,0,0:0:0:0:
402,192,257349,1,0,0:0:0:0:
256,192,257349,1,0,0:0:0:0:
109,192,257349,1,0,0:0:0:0:
329,192,257456,1,0,0:0:0:0:
182,192,257563,1,0,0:0:0:0:
36,192,257563,1,0,0:0:0:0:
329,192,257670,1,0,0:0:0:0:
475,192,257777,1,0,0:0:0:0:
402,192,257777,1,0,0:0:0:0:
109,192,257777,1,0,0:0:0:0:
36,192,257777,1,0,0:0:0:0:
256,192,257777,128,0,258152:0:0:0:0:
402,192,258206,1,0,0:0:0:0:
36,192,258206,1,0,0:0:0:0:
256,192,258206,128,0,258635:0:0:0:0:
109,192,258206,1,0,0:0:0:0:
475,192,258206,1,0,0:0:0:0:
109,192,258635,1,0,0:0:0:0:
36,192,258635,1,0,0:0:0:0:
402,192,258635,1,0,0:0:0:0:
402,192,258777,1,0,0:0:0:0:
109,192,258777,1,0,0:0:0:0:
36,192,258777,1,0,0:0:0:0:
329,192,258777,1,0,0:0:0:0:
182,192,258849,1,0,0:0:0:0:
256,192,258849,1,0,0:0:0:0:
402,192,258902,1,0,0:0:0:0:
329,192,258902,1,0,0:0:0:0:
109,192,258956,1,0,0:0:0:0:
36,192,258956,1,0,0:0:0:0:
475,192,259063,1,0,0:0:0:0:
256,192,259063,1,0,0:0:0:0:
402,192,259099,1,0,0:0:0:0:
329,192,259135,1,0,0:0:0:0:
182,192,259170,1,0,0:0:0:0:
109,192,259206,1,0,0:0:0:0:
402,192,259242,1,0,0:0:0:0:
329,192,259277,1,0,0:0:0:0:
36,192,259313,1,0,0:0:0:0:
109,192,259349,1,0,0:0:0:0:
182,192,259385,1,0,0:0:0:0:
329,192,259420,1,0,0:0:0:0:
402,192,259456,1,0,0:0:0:0:
475,192,259492,1,0,0:0:0:0:
256,192,259492,1,0,0:0:0:0:
109,192,259492,1,0,0:0:0:0:
36,192,259492,1,0,0:0:0:0:
36,192,261206,5,0,0:0:0:0:
475,192,261206,128,0,261420:0:0:0:0:
109,192,261206,1,0,0:0:0:0:
182,192,261206,1,0,0:0:0:0:
402,192,261206,128,0,261420:0:0:0:0:
256,192,261206,1,0,0:0:0:0:
329,192,261420,1,0,0:0:0:0:
36,192,261420,1,0,0:0:0:0:
109,192,261474,1,0,0:0:0:0:
256,192,261527,1,0,0:0:0:0:
182,192,261581,1,0,0:0:0:0:
36,192,261635,1,0,0:0:0:0:
475,192,261635,1,0,0:0:0:0:
402,192,261635,1,0,0:0:0:0:
109,192,261635,1,0,0:0:0:0:
182,192,261849,1,0,0:0:0:0:
329,192,261849,1,0,0:0:0:0:
36,192,261956,1,0,0:0:0:0:
109,192,261956,1,0,0:0:0:0:
475,192,261956,1,0,0:0:0:0:
256,192,262063,1,0,0:0:0:0:
329,192,262063,1,0,0:0:0:0:
402,192,262063,1,0,0:0:0:0:
36,192,262170,1,0,0:0:0:0:
109,192,262170,1,0,0:0:0:0:
475,192,262170,1,0,0:0:0:0:
36,192,262277,1,0,0:0:0:0:
256,192,262277,1,0,0:0:0:0:
329,192,262277,1,0,0:0:0:0:
182,192,262385,1,0,0:0:0:0:
402,192,262385,1,0,0:0:0:0:
475,192,262385,1,0,0:0:0:0:
256,192,262492,1,0,0:0:0:0:
475,192,262492,1,0,0:0:0:0:
329,192,262492,1,0,0:0:0:0:
109,192,262492,128,0,262706:0:0:0:0:
36,192,262706,1,0,0:0:0:0:
256,192,262706,1,0,0:0:0:0:
402,192,262706,1,0,0:0:0:0:
182,192,262760,1,0,0:0:0:0:
109,192,262813,1,0,0:0:0:0:
329,192,262813,1,0,0:0:0:0:
256,192,262867,1,0,0:0:0:0:
182,192,262920,1,0,0:0:0:0:
475,192,262920,1,0,0:0:0:0:
402,192,262920,1,0,0:0:0:0:
36,192,262920,1,0,0:0:0:0:
402,192,263135,1,0,0:0:0:0:
475,192,263135,1,0,0:0:0:0:
182,192,263135,1,0,0:0:0:0:
36,192,263349,1,0,0:0:0:0:
109,192,263349,1,0,0:0:0:0:
329,192,263349,1,0,0:0:0:0:
475,192,263349,1,0,0:0:0:0:
182,192,263563,1,0,0:0:0:0:
475,192,263563,1,0,0:0:0:0:
36,192,263670,1,0,0:0:0:0:
182,192,263670,1,0,0:0:0:0:
402,192,263670,1,0,0:0:0:0:
329,192,263777,1,0,0:0:0:0:
475,192,263777,1,0,0:0:0:0:
256,192,263777,1,0,0:0:0:0:
182,192,263885,1,0,0:0:0:0:
109,192,263885,1,0,0:0:0:0:
329,192,263885,1,0,0:0:0:0:
36,192,263992,1,0,0:0:0:0:
256,192,263992,1,0,0:0:0:0:
475,192,263992,128,0,264099:0:0:0:0:
109,192,263992,1,0,0:0:0:0:
402,192,264027,128,0,264099:0:0:0:0:
329,192,264063,128,0,264099:0:0:0:0:
182,192,264099,1,0,0:0:0:0:
402,192,264206,1,0,0:0:0:0:
475,192,264206,1,0,0:0:0:0:
36,192,264206,1,0,0:0:0:0:
109,192,264206,1,0,0:0:0:0:
36,192,264420,1,0,0:0:0:0:
256,192,264420,1,0,0:0:0:0:
475,192,264420,128,0,264527:0:0:0:0:
109,192,264420,1,0,0:0:0:0:
402,192,264456,128,0,264527:0:0:0:0:
182,192,264492,1,0,0:0:0:0:
329,192,264492,128,0,264527:0:0:0:0:
109,192,264563,1,0,0:0:0:0:
36,192,264563,1,0,0:0:0:0:
475,192,264635,1,0,0:0:0:0:
402,192,264635,1,0,0:0:0:0:
256,192,264635,1,0,0:0:0:0:
182,192,264635,1,0,0:0:0:0:
402,192,264849,1,0,0:0:0:0:
475,192,264849,1,0,0:0:0:0:
182,192,264849,1,0,0:0:0:0:
36,192,265063,1,0,0:0:0:0:
109,192,265063,1,0,0:0:0:0:
329,192,265063,1,0,0:0:0:0:
475,192,265063,1,0,0:0:0:0:
182,192,265277,1,0,0:0:0:0:
402,192,265277,1,0,0:0:0:0:
109,192,265385,1,0,0:0:0:0:
256,192,265385,1,0,0:0:0:0:
329,192,265385,1,0,0:0:0:0:
182,192,265492,1,0,0:0:0:0:
402,192,265492,1,0,0:0:0:0:
36,192,265492,1,0,0:0:0:0:
475,192,265492,1,0,0:0:0:0:
329,192,265527,1,0,0:0:0:0:
36,192,265599,1,0,0:0:0:0:
182,192,265599,1,0,0:0:0:0:
402,192,265635,1,0,0:0:0:0:
475,192,265635,1,0,0:0:0:0:
329,192,265670,1,0,0:0:0:0:
256,192,265706,1,0,0:0:0:0:
402,192,265777,1,0,0:0:0:0:
475,192,265777,1,0,0:0:0:0:
329,192,265813,1,0,0:0:0:0:
182,192,265813,1,0,0:0:0:0:
36,192,265920,1,0,0:0:0:0:
109,192,265920,1,0,0:0:0:0:
475,192,265920,1,0,0:0:0:0:
402,192,265956,1,0,0:0:0:0:
329,192,265992,1,0,0:0:0:0:
256,192,266027,1,0,0:0:0:0:
182,192,266063,1,0,0:0:0:0:
109,192,266099,1,0,0:0:0:0:
475,192,266135,1,0,0:0:0:0:
36,192,266135,1,0,0:0:0:0:
402,192,266135,1,0,0:0:0:0:
329,192,266170,1,0,0:0:0:0:
256,192,266206,1,0,0:0:0:0:
182,192,266242,1,0,0:0:0:0:
402,192,266277,1,0,0:0:0:0:
329,192,266313,1,0,0:0:0:0:
36,192,266349,1,0,0:0:0:0:
256,192,266349,1,0,0:0:0:0:
109,192,266349,1,0,0:0:0:0:
36,192,266563,1,0,0:0:0:0:
329,192,266563,1,0,0:0:0:0:
475,192,266563,1,0,0:0:0:0:
109,192,266599,1,0,0:0:0:0:
182,192,266635,1,0,0:0:0:0:
256,192,266670,1,0,0:0:0:0:
36,192,266777,1,0,0:0:0:0:
109,192,266777,1,0,0:0:0:0:
402,192,266777,1,0,0:0:0:0:
475,192,266777,1,0,0:0:0:0:
36,192,266992,1,0,0:0:0:0:
402,192,266992,1,0,0:0:0:0:
475,192,266992,1,0,0:0:0:0:
109,192,267027,1,0,0:0:0:0:
182,192,267063,1,0,0:0:0:0:
256,192,267099,1,0,0:0:0:0:
329,192,267099,1,0,0:0:0:0:
402,192,267206,1,0,0:0:0:0:
475,192,267206,1,0,0:0:0:0:
109,192,267206,1,0,0:0:0:0:
182,192,267313,1,0,0:0:0:0:
256,192,267313,1,0,0:0:0:0:
329,192,267313,1,0,0:0:0:0:
475,192,267420,1,0,0:0:0:0:
36,192,267420,1,0,0:0:0:0:
402,192,267420,1,0,0:0:0:0:
109,192,267456,1,0,0:0:0:0:
182,192,267492,1,0,0:0:0:0:
256,192,267527,1,0,0:0:0:0:
402,192,267527,1,0,0:0:0:0:
475,192,267527,1,0,0:0:0:0:
36,192,267635,1,0,0:0:0:0:
109,192,267635,1,0,0:0:0:0:
182,192,267635,1,0,0:0:0:0:
329,192,267635,1,0,0:0:0:0:
256,192,267742,1,0,0:0:0:0:
182,192,267777,1,0,0:0:0:0:
109,192,267813,1,0,0:0:0:0:
36,192,267849,1,0,0:0:0:0:
402,192,267849,1,0,0:0:0:0:
475,192,267849,1,0,0:0:0:0:
329,192,267920,1,0,0:0:0:0:
182,192,267992,1,0,0:0:0:0:
109,192,268063,1,0,0:0:0:0:
329,192,268063,1,0,0:0:0:0:
36,192,268063,1,0,0:0:0:0:
256,192,268063,1,0,0:0:0:0:
402,192,268063,128,0,268277:0:0:0:0:
475,192,268063,128,0,268277:0:0:0:0:
36,192,268277,1,0,0:0:0:0:
329,192,268277,1,0,0:0:0:0:
109,192,268331,1,0,0:0:0:0:
256,192,268385,1,0,0:0:0:0:
182,192,268438,1,0,0:0:0:0:
36,192,268492,1,0,0:0:0:0:
329,192,268492,1,0,0:0:0:0:
109,192,268492,1,0,0:0:0:0:
475,192,268492,1,0,0:0:0:0:
329,192,268706,1,0,0:0:0:0:
182,192,268706,1,0,0:0:0:0:
36,192,268813,1,0,0:0:0:0:
182,192,268813,1,0,0:0:0:0:
402,192,268813,1,0,0:0:0:0:
109,192,268920,1,0,0:0:0:0:
256,192,268920,1,0,0:0:0:0:
475,192,268920,1,0,0:0:0:0:
329,192,269027,1,0,0:0:0:0:
475,192,269027,1,0,0:0:0:0:
182,192,269027,1,0,0:0:0:0:
36,192,269135,1,0,0:0:0:0:
256,192,269135,1,0,0:0:0:0:
402,192,269135,1,0,0:0:0:0:
36,192,269242,1,0,0:0:0:0:
182,192,269242,1,0,0:0:0:0:
329,192,269242,1,0,0:0:0:0:
109,192,269349,1,0,0:0:0:0:
256,192,269349,1,0,0:0:0:0:
402,192,269349,1,0,0:0:0:0:
475,192,269349,1,0,0:0:0:0:
36,192,269563,1,0,0:0:0:0:
475,192,269563,1,0,0:0:0:0:
256,192,269563,1,0,0:0:0:0:
402,192,269617,1,0,0:0:0:0:
329,192,269670,1,0,0:0:0:0:
182,192,269670,1,0,0:0:0:0:
109,192,269724,1,0,0:0:0:0:
36,192,269777,1,0,0:0:0:0:
256,192,269777,1,0,0:0:0:0:
402,192,269777,1,0,0:0:0:0:
475,192,269777,1,0,0:0:0:0:
402,192,269992,1,0,0:0:0:0:
475,192,269992,1,0,0:0:0:0:
182,192,269992,1,0,0:0:0:0:
402,192,270206,1,0,0:0:0:0:
475,192,270206,1,0,0:0:0:0:
36,192,270206,1,0,0:0:0:0:
256,192,270206,1,0,0:0:0:0:
475,192,270420,1,0,0:0:0:0:
109,192,270420,1,0,0:0:0:0:
109,192,270527,1,0,0:0:0:0:
256,192,270527,1,0,0:0:0:0:
402,192,270527,1,0,0:0:0:0:
329,192,270635,1,0,0:0:0:0:
475,192,270635,1,0,0:0:0:0:
36,192,270635,1,0,0:0:0:0:
256,192,270742,1,0,0:0:0:0:
475,192,270742,1,0,0:0:0:0:
182,192,270742,1,0,0:0:0:0:
402,192,270849,1,0,0:0:0:0:
329,192,270849,1,0,0:0:0:0:
36,192,270849,128,0,270956:0:0:0:0:
109,192,270885,128,0,270956:0:0:0:0:
182,192,270920,128,0,270956:0:0:0:0:
329,192,270956,1,0,0:0:0:0:
36,192,271063,1,0,0:0:0:0:
109,192,271063,1,0,0:0:0:0:
256,192,271063,1,0,0:0:0:0:
475,192,271063,1,0,0:0:0:0:
36,192,271277,128,0,271385:0:0:0:0:
475,192,271277,1,0,0:0:0:0:
256,192,271277,1,0,0:0:0:0:
402,192,271277,1,0,0:0:0:0:
109,192,271313,128,0,271385:0:0:0:0:
182,192,271349,128,0,271385:0:0:0:0:
329,192,271349,1,0,0:0:0:0:
402,192,271420,1,0,0:0:0:0:
475,192,271420,1,0,0:0:0:0:
36,192,271492,1,0,0:0:0:0:
109,192,271492,1,0,0:0:0:0:
256,192,271492,1,0,0:0:0:0:
329,192,271492,1,0,0:0:0:0:
36,192,271706,1,0,0:0:0:0:
109,192,271706,1,0,0:0:0:0:
329,192,271706,1,0,0:0:0:0:
36,192,271920,1,0,0:0:0:0:
109,192,271920,1,0,0:0:0:0:
256,192,271920,1,0,0:0:0:0:
475,192,271920,1,0,0:0:0:0:
329,192,272135,1,0,0:0:0:0:
109,192,272135,1,0,0:0:0:0:
256,192,272242,1,0,0:0:0:0:
402,192,272242,1,0,0:0:0:0:
182,192,272242,1,0,0:0:0:0:
109,192,272349,1,0,0:0:0:0:
475,192,272349,1,0,0:0:0:0:
329,192,272349,1,0,0:0:0:0:
36,192,272349,1,0,0:0:0:0:
182,192,272385,1,0,0:0:0:0:
475,192,272456,1,0,0:0:0:0:
329,192,272456,1,0,0:0:0:0:
36,192,272492,1,0,0:0:0:0:
109,192,272492,1,0,0:0:0:0:
182,192,272527,1,0,0:0:0:0:
256,192,272563,1,0,0:0:0:0:
36,192,272635,1,0,0:0:0:0:
109,192,272635,1,0,0:0:0:0:
329,192,272670,1,0,0:0:0:0:
182,192,272670,1,0,0:0:0:0:
475,192,272777,1,0,0:0:0:0:
402,192,272777,1,0,0:0:0:0:
36,192,272777,1,0,0:0:0:0:
109,192,272813,1,0,0:0:0:0:
182,192,272849,1,0,0:0:0:0:
256,192,272885,1,0,0:0:0:0:
329,192,272920,1,0,0:0:0:0:
402,192,272956,1,0,0:0:0:0:
109,192,272992,1,0,0:0:0:0:
36,192,272992,1,0,0:0:0:0:
475,192,272992,1,0,0:0:0:0:
182,192,273027,1,0,0:0:0:0:
256,192,273063,1,0,0:0:0:0:
329,192,273099,1,0,0:0:0:0:
109,192,273135,1,0,0:0:0:0:
182,192,273170,1,0,0:0:0:0:
475,192,273206,1,0,0:0:0:0:
256,192,273206,1,0,0:0:0:0:
402,192,273206,1,0,0:0:0:0:
475,192,273420,1,0,0:0:0:0:
36,192,273420,1,0,0:0:0:0:
109,192,273420,1,0,0:0:0:0:
402,192,273456,1,0,0:0:0:0:
329,192,273492,1,0,0:0:0:0:
256,192,273527,1,0,0:0:0:0:
182,192,273635,1,0,0:0:0:0:
329,192,273635,1,0,0:0:0:0:
475,192,273849,1,0,0:0:0:0:
182,192,273849,1,0,0:0:0:0:
402,192,273885,1,0,0:0:0:0:
109,192,273902,1,0,0:0:0:0:
329,192,273920,1,0,0:0:0:0:
256,192,273956,1,0,0:0:0:0:
36,192,273956,1,0,0:0:0:0:
182,192,274010,1,0,0:0:0:0:
36,192,274063,1,0,0:0:0:0:
329,192,274063,1,0,0:0:0:0:
475,192,274063,1,0,0:0:0:0:
256,192,274170,1,0,0:0:0:0:
402,192,274170,1,0,0:0:0:0:
182,192,274385,1,0,0:0:0:0:
329,192,274385,1,0,0:0:0:0:
109,192,274706,1,0,0:0:0:0:
182,192,274706,1,0,0:0:0:0:
402,192,274706,1,0,0:0:0:0:
329,192,274777,1,0,0:0:0:0:
182,192,274849,1,0,0:0:0:0:
402,192,274920,1,0,0:0:0:0:
36,192,274920,1,0,0:0:0:0:
109,192,274920,1,0,0:0:0:0:
256,192,274920,1,0,0:0:0:0:
475,192,274920,128,0,275349:0:0:0:0:
402,192,275349,1,0,0:0:0:0:
329,192,275349,1,0,0:0:0:0:
182,192,275349,1,0,0:0:0:0:
36,192,275349,1,0,0:0:0:0:
475,192,275563,1,0,0:0:0:0:
256,192,275563,1,0,0:0:0:0:
109,192,275563,1,0,0:0:0:0:
329,192,275670,1,0,0:0:0:0:
182,192,275670,1,0,0:0:0:0:
402,192,275670,1,0,0:0:0:0:
256,192,275777,1,0,0:0:0:0:
36,192,275777,1,0,0:0:0:0:
475,192,275777,1,0,0:0:0:0:
182,192,275885,1,0,0:0:0:0:
109,192,275885,1,0,0:0:0:0:
329,192,275885,1,0,0:0:0:0:
475,192,275992,1,0,0:0:0:0:
256,192,275992,1,0,0:0:0:0:
109,192,275992,1,0,0:0:0:0:
36,192,275992,1,0,0:0:0:0:
402,192,276099,1,0,0:0:0:0:
329,192,276099,1,0,0:0:0:0:
182,192,276099,1,0,0:0:0:0:
256,192,276206,1,0,0:0:0:0:
475,192,276206,1,0,0:0:0:0:
36,192,276206,1,0,0:0:0:0:
36,192,276420,1,0,0:0:0:0:
402,192,276420,1,0,0:0:0:0:
109,192,276474,1,0,0:0:0:0:
182,192,276527,1,0,0:0:0:0:
329,192,276527,1,0,0:0:0:0:
402,192,276581,1,0,0:0:0:0:
475,192,276635,1,0,0:0:0:0:
109,192,276635,1,0,0:0:0:0:
36,192,276635,1,0,0:0:0:0:
109,192,276849,1,0,0:0:0:0:
36,192,276849,1,0,0:0:0:0:
475,192,276849,1,0,0:0:0:0:
475,192,277063,1,0,0:0:0:0:
329,192,277063,1,0,0:0:0:0:
182,192,277063,1,0,0:0:0:0:
36,192,277063,1,0,0:0:0:0:
402,192,277277,1,0,0:0:0:0:
256,192,277277,1,0,0:0:0:0:
329,192,277385,1,0,0:0:0:0:
109,192,277385,1,0,0:0:0:0:
36,192,277385,1,0,0:0:0:0:
475,192,277492,1,0,0:0:0:0:
329,192,277492,1,0,0:0:0:0:
182,192,277492,1,0,0:0:0:0:
402,192,277599,1,0,0:0:0:0:
109,192,277599,1,0,0:0:0:0:
36,192,277599,1,0,0:0:0:0:
182,192,277706,1,0,0:0:0:0:
329,192,277706,128,0,277813:0:0:0:0:
256,192,277706,1,0,0:0:0:0:
402,192,277742,128,0,277813:0:0:0:0:
475,192,277777,128,0,277813:0:0:0:0:
36,192,277813,1,0,0:0:0:0:
109,192,277920,1,0,0:0:0:0:
475,192,277920,1,0,0:0:0:0:
402,192,277920,1,0,0:0:0:0:
329,192,278135,128,0,278242:0:0:0:0:
36,192,278135,1,0,0:0:0:0:
109,192,278135,1,0,0:0:0:0:
402,192,278170,128,0,278242:0:0:0:0:
475,192,278206,128,0,278242:0:0:0:0:
182,192,278206,1,0,0:0:0:0:
109,192,278277,1,0,0:0:0:0:
36,192,278277,1,0,0:0:0:0:
182,192,278349,1,0,0:0:0:0:
256,192,278349,1,0,0:0:0:0:
402,192,278349,1,0,0:0:0:0:
402,192,278563,1,0,0:0:0:0:
256,192,278563,1,0,0:0:0:0:
182,192,278563,1,0,0:0:0:0:
402,192,278777,1,0,0:0:0:0:
329,192,278777,1,0,0:0:0:0:
109,192,278777,1,0,0:0:0:0:
36,192,278777,1,0,0:0:0:0:
475,192,278992,1,0,0:0:0:0:
109,192,278992,1,0,0:0:0:0:
329,192,279099,1,0,0:0:0:0:
182,192,279099,1,0,0:0:0:0:
256,192,279099,1,0,0:0:0:0:
402,192,279206,1,0,0:0:0:0:
475,192,279206,1,0,0:0:0:0:
36,192,279206,1,0,0:0:0:0:
109,192,279206,1,0,0:0:0:0:
329,192,279242,1,0,0:0:0:0:
36,192,279313,1,0,0:0:0:0:
109,192,279313,1,0,0:0:0:0:
475,192,279349,1,0,0:0:0:0:
402,192,279349,1,0,0:0:0:0:
329,192,279385,1,0,0:0:0:0:
182,192,279420,1,0,0:0:0:0:
475,192,279492,1,0,0:0:0:0:
402,192,279492,1,0,0:0:0:0:
329,192,279527,1,0,0:0:0:0:
256,192,279527,1,0,0:0:0:0:
109,192,279635,1,0,0:0:0:0:
36,192,279635,1,0,0:0:0:0:
475,192,279635,1,0,0:0:0:0:
182,192,279670,1,0,0:0:0:0:
256,192,279706,1,0,0:0:0:0:
402,192,279742,1,0,0:0:0:0:
329,192,279777,1,0,0:0:0:0:
182,192,279813,1,0,0:0:0:0:
109,192,279849,1,0,0:0:0:0:
475,192,279849,1,0,0:0:0:0:
36,192,279849,1,0,0:0:0:0:
402,192,279885,1,0,0:0:0:0:
329,192,279920,1,0,0:0:0:0:
256,192,279956,1,0,0:0:0:0:
182,192,279992,1,0,0:0:0:0:
109,192,280027,1,0,0:0:0:0:
36,192,280063,1,0,0:0:0:0:
475,192,280063,1,0,0:0:0:0:
402,192,280063,1,0,0:0:0:0:
475,192,280277,1,0,0:0:0:0:
36,192,280277,1,0,0:0:0:0:
182,192,280277,1,0,0:0:0:0:
402,192,280313,1,0,0:0:0:0:
329,192,280349,1,0,0:0:0:0:
256,192,280385,1,0,0:0:0:0:
402,192,280492,1,0,0:0:0:0:
475,192,280492,1,0,0:0:0:0:
109,192,280492,1,0,0:0:0:0:
36,192,280492,1,0,0:0:0:0:
256,192,280706,1,0,0:0:0:0:
182,192,280706,1,0,0:0:0:0:
36,192,280706,1,0,0:0:0:0:
329,192,280742,1,0,0:0:0:0:
402,192,280777,1,0,0:0:0:0:
475,192,280813,1,0,0:0:0:0:
182,192,280813,1,0,0:0:0:0:
36,192,280813,1,0,0:0:0:0:
402,192,280920,1,0,0:0:0:0:
329,192,280920,1,0,0:0:0:0:
256,192,280920,1,0,0:0:0:0:
402,192,281027,1,0,0:0:0:0:
329,192,281027,1,0,0:0:0:0:
182,192,281027,1,0,0:0:0:0:
36,192,281135,1,0,0:0:0:0:
475,192,281135,1,0,0:0:0:0:
109,192,281170,1,0,0:0:0:0:
182,192,281206,1,0,0:0:0:0:
256,192,281242,1,0,0:0:0:0:
329,192,281242,1,0,0:0:0:0:
402,192,281242,1,0,0:0:0:0:
402,192,281349,1,0,0:0:0:0:
475,192,281349,1,0,0:0:0:0:
109,192,281349,1,0,0:0:0:0:
36,192,281349,1,0,0:0:0:0:
256,192,281456,1,0,0:0:0:0:
182,192,281492,1,0,0:0:0:0:
109,192,281527,1,0,0:0:0:0:
36,192,281563,1,0,0:0:0:0:
475,192,281563,1,0,0:0:0:0:
402,192,281563,1,0,0:0:0:0:
329,192,281635,1,0,0:0:0:0:
182,192,281635,1,0,0:0:0:0:
475,192,281706,1,0,0:0:0:0:
402,192,281706,1,0,0:0:0:0:
36,192,281706,1,0,0:0:0:0:
329,192,281777,1,0,0:0:0:0:
182,192,281777,1,0,0:0:0:0:
256,192,281777,1,0,0:0:0:0:
109,192,281777,128,0,282206:0:0:0:0:
475,192,281992,1,0,0:0:0:0:
402,192,282045,1,0,0:0:0:0:
256,192,282099,1,0,0:0:0:0:
329,192,282152,1,0,0:0:0:0:
475,192,282206,1,0,0:0:0:0:
402,192,282206,1,0,0:0:0:0:
36,192,282206,1,0,0:0:0:0:
182,192,282206,1,0,0:0:0:0:
329,192,282420,1,0,0:0:0:0:
182,192,282420,1,0,0:0:0:0:
402,192,282527,1,0,0:0:0:0:
256,192,282527,1,0,0:0:0:0:
109,192,282527,1,0,0:0:0:0:
182,192,282635,1,0,0:0:0:0:
109,192,282635,1,0,0:0:0:0:
329,192,282635,1,0,0:0:0:0:
475,192,282635,1,0,0:0:0:0:
256,192,282742,1,0,0:0:0:0:
36,192,282742,1,0,0:0:0:0:
329,192,282742,1,0,0:0:0:0:
182,192,282849,1,0,0:0:0:0:
109,192,282849,1,0,0:0:0:0:
402,192,282849,1,0,0:0:0:0:
475,192,282956,1,0,0:0:0:0:
36,192,282956,1,0,0:0:0:0:
329,192,282956,1,0,0:0:0:0:
475,192,283063,1,0,0:0:0:0:
402,192,283063,1,0,0:0:0:0:
256,192,283063,1,0,0:0:0:0:
182,192,283063,1,0,0:0:0:0:
475,192,283277,1,0,0:0:0:0:
329,192,283277,1,0,0:0:0:0:
36,192,283277,1,0,0:0:0:0:
109,192,283331,1,0,0:0:0:0:
182,192,283385,1,0,0:0:0:0:
256,192,283385,1,0,0:0:0:0:
329,192,283438,1,0,0:0:0:0:
402,192,283492,1,0,0:0:0:0:
475,192,283492,1,0,0:0:0:0:
109,192,283492,1,0,0:0:0:0:
36,192,283492,1,0,0:0:0:0:
475,192,283706,1,0,0:0:0:0:
329,192,283706,1,0,0:0:0:0:
182,192,283706,1,0,0:0:0:0:
475,192,283920,1,0,0:0:0:0:
402,192,283920,1,0,0:0:0:0:
109,192,283920,1,0,0:0:0:0:
36,192,283920,1,0,0:0:0:0:
402,192,284135,1,0,0:0:0:0:
182,192,284135,1,0,0:0:0:0:
329,192,284242,1,0,0:0:0:0:
256,192,284242,1,0,0:0:0:0:
109,192,284242,1,0,0:0:0:0:
475,192,284349,1,0,0:0:0:0:
182,192,284349,1,0,0:0:0:0:
329,192,284349,1,0,0:0:0:0:
402,192,284456,1,0,0:0:0:0:
256,192,284456,1,0,0:0:0:0:
36,192,284456,1,0,0:0:0:0:
182,192,284563,128,0,284670:0:0:0:0:
475,192,284563,1,0,0:0:0:0:
109,192,284599,128,0,284670:0:0:0:0:
36,192,284635,128,0,284670:0:0:0:0:
402,192,284670,1,0,0:0:0:0:
329,192,284670,1,0,0:0:0:0:
182,192,284777,128,0,284885:0:0:0:0:
475,192,284777,1,0,0:0:0:0:
402,192,284777,1,0,0:0:0:0:
256,192,284777,1,0,0:0:0:0:
109,192,284813,128,0,284885:0:0:0:0:
36,192,284849,128,0,284885:0:0:0:0:
182,192,284992,128,0,285099:0:0:0:0:
402,192,284992,1,0,0:0:0:0:
256,192,284992,1,0,0:0:0:0:
329,192,284992,1,0,0:0:0:0:
109,192,285027,128,0,285099:0:0:0:0:
36,192,285063,128,0,285099:0:0:0:0:
402,192,285099,1,0,0:0:0:0:
329,192,285099,1,0,0:0:0:0:
256,192,285099,1,0,0:0:0:0:
182,192,285152,1,0,0:0:0:0:
109,192,285152,1,0,0:0:0:0:
36,192,285152,1,0,0:0:0:0:
475,192,285206,1,0,0:0:0:0:
329,192,285206,1,0,0:0:0:0:
402,192,285206,1,0,0:0:0:0:
475,192,285420,1,0,0:0:0:0:
402,192,285420,1,0,0:0:0:0:
329,192,285420,1,0,0:0:0:0:
475,192,285635,1,0,0:0:0:0:
402,192,285635,1,0,0:0:0:0:
329,192,285635,1,0,0:0:0:0:
475,192,285849,1,0,0:0:0:0:
402,192,285849,1,0,0:0:0:0:
329,192,285849,1,0,0:0:0:0:
475,192,285956,1,0,0:0:0:0:
402,192,285956,1,0,0:0:0:0:
329,192,286010,1,0,0:0:0:0:
256,192,286010,1,0,0:0:0:0:
182,192,286063,1,0,0:0:0:0:
109,192,286063,1,0,0:0:0:0:
36,192,286063,1,0,0:0:0:0:
475,192,286063,1,0,0:0:0:0:
402,192,286063,1,0,0:0:0:0:
329,192,286099,1,0,0:0:0:0:
475,192,286206,1,0,0:0:0:0:
402,192,286206,1,0,0:0:0:0:
329,192,286242,1,0,0:0:0:0:
109,192,286277,1,0,0:0:0:0:
182,192,286277,1,0,0:0:0:0:
36,192,286277,1,0,0:0:0:0:
475,192,286349,1,0,0:0:0:0:
402,192,286349,1,0,0:0:0:0:
329,192,286385,1,0,0:0:0:0:
109,192,286492,1,0,0:0:0:0:
36,192,286492,1,0,0:0:0:0:
182,192,286492,1,0,0:0:0:0:
256,192,286492,1,0,0:0:0:0:
329,192,286527,1,0,0:0:0:0:
402,192,286563,1,0,0:0:0:0:
475,192,286599,1,0,0:0:0:0:
256,192,286635,1,0,0:0:0:0:
329,192,286670,1,0,0:0:0:0:
36,192,286706,1,0,0:0:0:0:
109,192,286706,1,0,0:0:0:0:
182,192,286706,1,0,0:0:0:0:
402,192,286706,1,0,0:0:0:0:
475,192,286742,1,0,0:0:0:0:
256,192,286777,1,0,0:0:0:0:
329,192,286813,1,0,0:0:0:0:
109,192,286813,1,0,0:0:0:0:
36,192,286813,1,0,0:0:0:0:
402,192,286849,1,0,0:0:0:0:
182,192,286867,1,0,0:0:0:0:
475,192,286885,1,0,0:0:0:0:
109,192,286920,1,0,0:0:0:0:
36,192,286920,1,0,0:0:0:0:
256,192,286920,1,0,0:0:0:0:
402,192,287027,1,0,0:0:0:0:
475,192,287027,1,0,0:0:0:0:
329,192,287027,1,0,0:0:0:0:
182,192,287135,1,0,0:0:0:0:
109,192,287135,1,0,0:0:0:0:
36,192,287135,1,0,0:0:0:0:
256,192,287170,1,0,0:0:0:0:
329,192,287206,1,0,0:0:0:0:
402,192,287242,1,0,0:0:0:0:
475,192,287242,1,0,0:0:0:0:
182,192,287295,1,0,0:0:0:0:
109,192,287295,1,0,0:0:0:0:
36,192,287295,1,0,0:0:0:0:
402,192,287349,1,0,0:0:0:0:
475,192,287349,1,0,0:0:0:0:
329,192,287349,1,0,0:0:0:0:
182,192,287456,1,0,0:0:0:0:
109,192,287456,1,0,0:0:0:0:
36,192,287456,1,0,0:0:0:0:
329,192,287563,1,0,0:0:0:0:
475,192,287563,1,0,0:0:0:0:
402,192,287563,1,0,0:0:0:0:
256,192,287599,1,0,0:0:0:0:
182,192,287635,1,0,0:0:0:0:
36,192,287670,1,0,0:0:0:0:
109,192,287670,1,0,0:0:0:0:
402,192,287724,1,0,0:0:0:0:
329,192,287724,1,0,0:0:0:0:
475,192,287724,1,0,0:0:0:0:
36,192,287777,1,0,0:0:0:0:
182,192,287777,1,0,0:0:0:0:
109,192,287777,1,0,0:0:0:0:
182,192,287992,1,0,0:0:0:0:
109,192,287992,1,0,0:0:0:0:
36,192,287992,1,0,0:0:0:0:
256,192,287992,1,0,0:0:0:0:
329,192,288027,1,0,0:0:0:0:
402,192,288063,1,0,0:0:0:0:
182,192,288099,1,0,0:0:0:0:
36,192,288099,1,0,0:0:0:0:
109,192,288099,1,0,0:0:0:0:
475,192,288099,1,0,0:0:0:0:
182,192,288313,1,0,0:0:0:0:
109,192,288313,1,0,0:0:0:0:
36,192,288313,1,0,0:0:0:0:
475,192,288313,1,0,0:0:0:0:
402,192,288349,1,0,0:0:0:0:
329,192,288385,1,0,0:0:0:0:
182,192,288420,1,0,0:0:0:0:
109,192,288420,1,0,0:0:0:0:
36,192,288420,1,0,0:0:0:0:
256,192,288420,1,0,0:0:0:0:
329,192,288474,1,0,0:0:0:0:
402,192,288474,1,0,0:0:0:0:
475,192,288474,1,0,0:0:0:0:
182,192,288527,1,0,0:0:0:0:
109,192,288527,1,0,0:0:0:0:
36,192,288527,1,0,0:0:0:0:
475,192,288581,1,0,0:0:0:0:
329,192,288581,1,0,0:0:0:0:
402,192,288581,1,0,0:0:0:0:
182,192,288635,1,0,0:0:0:0:
109,192,288635,1,0,0:0:0:0:
36,192,288635,1,0,0:0:0:0:
256,192,288635,128,0,295492:0:0:0:0:
329,192,295492,128,0,301492:0:0:0:0:
