osu file format v14

[General]
AudioFilename: audio.mp3
AudioLeadIn: 0
PreviewTime: -1
Countdown: 1
SampleSet: None
StackLeniency: 0.7
Mode: 3
LetterboxInBreaks: 0
SpecialStyle: 0
WidescreenStoryboard: 0

[Editor]
DistanceSpacing: 0.8
BeatDivisor: 8
GridSize: 4
TimelineZoom: 1.9

[Metadata]
Title:Ghost
TitleUnicode:Ghost
Artist:Camellia
ArtistUnicode:Camellia
Creator:HybridLiam
Version:Fate
Source:
Tags:
BeatmapID:1724385
BeatmapSetID:822751

[Difficulty]
HPDrainRate:8.5
CircleSize:5
OverallDifficulty:8.5
ApproachRate:5
SliderMultiplier:1.4
SliderTickRate:1

[Events]
//Background and Video events
0,0,"bg.JPG",0,0
//Break Periods
//Storyboard Layer 0 (Background)
//Storyboard Layer 1 (Fail)
//Storyboard Layer 2 (Pass)
//Storyboard Layer 3 (Foreground)
//Storyboard Sound Samples

[TimingPoints]
50327.9013629392,272.727272727273,4,2,0,15,1,0

[HitObjects]
51,192,25236,5,0,0:0:0:0:
153,192,25236,1,0,0:0:0:0:
460,192,25305,1,0,0:0:0:0:
358,192,25305,1,0,0:0:0:0:
51,192,25373,1,0,0:0:0:0:
153,192,25373,1,0,0:0:0:0:
256,192,25373,1,0,0:0:0:0:
256,192,25509,1,0,0:0:0:0:
153,192,25509,1,0,0:0:0:0:
51,192,25509,1,0,0:0:0:0:
358,192,25646,1,0,0:0:0:0:
460,192,25646,1,0,0:0:0:0:
153,192,25714,1,0,0:0:0:0:
256,192,25714,1,0,0:0:0:0:
460,192,25782,1,0,0:0:0:0:
358,192,25782,1,0,0:0:0:0:
51,192,25782,1,0,0:0:0:0:
358,192,25918,1,0,0:0:0:0:
460,192,25918,1,0,0:0:0:0:
51,192,25918,1,0,0:0:0:0:
460,192,26055,1,0,0:0:0:0:
256,192,26055,1,0,0:0:0:0:
153,192,26123,1,0,0:0:0:0:
358,192,26123,1,0,0:0:0:0:
256,192,26191,1,0,0:0:0:0:
51,192,26191,1,0,0:0:0:0:
153,192,26259,1,0,0:0:0:0:
358,192,26259,1,0,0:0:0:0:
256,192,26327,1,0,0:0:0:0:
460,192,26327,1,0,0:0:0:0:
51,192,26327,128,0,26464:0:0:0:0:
153,192,26464,1,0,0:0:0:0:
358,192,26600,1,0,0:0:0:0:
460,192,26600,128,0,26736:0:0:0:0:
51,192,26736,1,0,0:0:0:0:
153,192,26736,1,0,0:0:0:0:
153,192,26873,1,0,0:0:0:0:
460,192,26873,1,0,0:0:0:0:
256,192,26873,128,0,27009:0:0:0:0:
51,192,27009,1,0,0:0:0:0:
358,192,27146,1,0,0:0:0:0:
153,192,27146,128,0,27282:0:0:0:0:
256,192,27282,1,0,0:0:0:0:
460,192,27350,1,0,0:0:0:0:
358,192,27418,1,0,0:0:0:0:
51,192,27418,128,0,27555:0:0:0:0:
153,192,27555,1,0,0:0:0:0:
51,192,27691,1,0,0:0:0:0:
460,192,27691,1,0,0:0:0:0:
256,192,27691,128,0,27827:0:0:0:0:
358,192,27827,1,0,0:0:0:0:
460,192,27896,1,0,0:0:0:0:
153,192,27964,1,0,0:0:0:0:
358,192,27964,1,0,0:0:0:0:
51,192,27964,128,0,28100:0:0:0:0:
256,192,28100,1,0,0:0:0:0:
153,192,28236,1,0,0:0:0:0:
460,192,28236,128,0,28373:0:0:0:0:
51,192,28305,1,0,0:0:0:0:
256,192,28373,1,0,0:0:0:0:
153,192,28441,1,0,0:0:0:0:
256,192,28509,1,0,0:0:0:0:
460,192,28509,1,0,0:0:0:0:
358,192,28509,128,0,28646:0:0:0:0:
51,192,28646,1,0,0:0:0:0:
358,192,28782,1,0,0:0:0:0:
153,192,28782,128,0,28918:0:0:0:0:
256,192,28918,1,0,0:0:0:0:
51,192,28918,1,0,0:0:0:0:
460,192,29055,1,0,0:0:0:0:
153,192,29055,1,0,0:0:0:0:
51,192,29055,128,0,29191:0:0:0:0:
256,192,29191,1,0,0:0:0:0:
358,192,29327,1,0,0:0:0:0:
153,192,29327,128,0,29464:0:0:0:0:
51,192,29464,1,0,0:0:0:0:
358,192,29532,1,0,0:0:0:0:
153,192,29600,1,0,0:0:0:0:
460,192,29600,128,0,29736:0:0:0:0:
51,192,29736,1,0,0:0:0:0:
358,192,29873,1,0,0:0:0:0:
153,192,29873,1,0,0:0:0:0:
256,192,29873,128,0,30009:0:0:0:0:
460,192,30009,1,0,0:0:0:0:
358,192,30077,1,0,0:0:0:0:
153,192,30146,1,0,0:0:0:0:
256,192,30146,1,0,0:0:0:0:
51,192,30146,128,0,30282:0:0:0:0:
460,192,30282,1,0,0:0:0:0:
153,192,30418,1,0,0:0:0:0:
358,192,30418,128,0,30555:0:0:0:0:
51,192,30486,1,0,0:0:0:0:
460,192,30555,1,0,0:0:0:0:
153,192,30623,1,0,0:0:0:0:
256,192,30691,1,0,0:0:0:0:
51,192,30691,128,0,30827:0:0:0:0:
153,192,30827,1,0,0:0:0:0:
358,192,30964,1,0,0:0:0:0:
460,192,30964,128,0,31100:0:0:0:0:
51,192,31100,1,0,0:0:0:0:
153,192,31100,1,0,0:0:0:0:
153,192,31236,1,0,0:0:0:0:
460,192,31236,1,0,0:0:0:0:
256,192,31236,128,0,31373:0:0:0:0:
51,192,31373,1,0,0:0:0:0:
358,192,31509,1,0,0:0:0:0:
153,192,31509,128,0,31646:0:0:0:0:
256,192,31646,1,0,0:0:0:0:
460,192,31714,1,0,0:0:0:0:
358,192,31782,1,0,0:0:0:0:
51,192,31782,128,0,31918:0:0:0:0:
153,192,31918,1,0,0:0:0:0:
51,192,32055,1,0,0:0:0:0:
460,192,32055,1,0,0:0:0:0:
256,192,32055,128,0,32191:0:0:0:0:
358,192,32191,1,0,0:0:0:0:
460,192,32259,1,0,0:0:0:0:
153,192,32327,1,0,0:0:0:0:
358,192,32327,1,0,0:0:0:0:
51,192,32327,128,0,32464:0:0:0:0:
256,192,32464,1,0,0:0:0:0:
153,192,32600,1,0,0:0:0:0:
358,192,32600,128,0,32736:0:0:0:0:
51,192,32668,1,0,0:0:0:0:
460,192,32736,1,0,0:0:0:0:
153,192,32805,1,0,0:0:0:0:
256,192,32873,1,0,0:0:0:0:
358,192,32873,1,0,0:0:0:0:
460,192,32873,128,0,33009:0:0:0:0:
51,192,33009,1,0,0:0:0:0:
153,192,33146,1,0,0:0:0:0:
358,192,33146,128,0,33282:0:0:0:0:
256,192,33282,1,0,0:0:0:0:
460,192,33282,1,0,0:0:0:0:
460,192,33418,1,0,0:0:0:0:
358,192,33418,1,0,0:0:0:0:
51,192,33418,128,0,33555:0:0:0:0:
256,192,33555,1,0,0:0:0:0:
358,192,33691,1,0,0:0:0:0:
153,192,33691,128,0,33827:0:0:0:0:
51,192,33827,1,0,0:0:0:0:
358,192,33896,1,0,0:0:0:0:
153,192,33964,1,0,0:0:0:0:
460,192,33964,128,0,34100:0:0:0:0:
256,192,34100,1,0,0:0:0:0:
51,192,34100,128,0,34236:0:0:0:0:
358,192,34236,1,0,0:0:0:0:
460,192,34236,1,0,0:0:0:0:
153,192,34236,128,0,34373:0:0:0:0:
358,192,34373,1,0,0:0:0:0:
256,192,34373,128,0,34509:0:0:0:0:
51,192,34509,1,0,0:0:0:0:
153,192,34509,1,0,0:0:0:0:
460,192,34509,128,0,34646:0:0:0:0:
358,192,34646,128,0,34782:0:0:0:0:
256,192,34646,1,0,0:0:0:0:
460,192,34782,1,0,0:0:0:0:
153,192,34782,128,0,34918:0:0:0:0:
358,192,34918,1,0,0:0:0:0:
51,192,34918,1,0,0:0:0:0:
460,192,34986,1,0,0:0:0:0:
256,192,35055,1,0,0:0:0:0:
51,192,35055,128,0,35191:0:0:0:0:
153,192,35191,1,0,0:0:0:0:
358,192,35327,1,0,0:0:0:0:
460,192,35327,128,0,35464:0:0:0:0:
51,192,35464,1,0,0:0:0:0:
153,192,35464,1,0,0:0:0:0:
153,192,35600,1,0,0:0:0:0:
460,192,35600,1,0,0:0:0:0:
256,192,35600,128,0,35736:0:0:0:0:
51,192,35736,1,0,0:0:0:0:
358,192,35873,1,0,0:0:0:0:
153,192,35873,128,0,36009:0:0:0:0:
256,192,36009,1,0,0:0:0:0:
460,192,36077,1,0,0:0:0:0:
358,192,36146,1,0,0:0:0:0:
51,192,36146,128,0,36282:0:0:0:0:
153,192,36282,1,0,0:0:0:0:
51,192,36418,1,0,0:0:0:0:
460,192,36418,1,0,0:0:0:0:
256,192,36418,128,0,36555:0:0:0:0:
358,192,36555,1,0,0:0:0:0:
460,192,36623,1,0,0:0:0:0:
153,192,36691,1,0,0:0:0:0:
358,192,36691,1,0,0:0:0:0:
51,192,36691,128,0,36827:0:0:0:0:
256,192,36827,1,0,0:0:0:0:
153,192,36964,1,0,0:0:0:0:
460,192,36964,128,0,37100:0:0:0:0:
51,192,37032,1,0,0:0:0:0:
256,192,37100,1,0,0:0:0:0:
153,192,37168,1,0,0:0:0:0:
256,192,37236,1,0,0:0:0:0:
460,192,37236,1,0,0:0:0:0:
358,192,37236,128,0,37373:0:0:0:0:
51,192,37373,1,0,0:0:0:0:
358,192,37509,1,0,0:0:0:0:
153,192,37509,128,0,37646:0:0:0:0:
256,192,37646,1,0,0:0:0:0:
51,192,37646,1,0,0:0:0:0:
460,192,37782,1,0,0:0:0:0:
153,192,37782,1,0,0:0:0:0:
51,192,37782,128,0,37918:0:0:0:0:
256,192,37918,1,0,0:0:0:0:
358,192,38055,1,0,0:0:0:0:
153,192,38055,128,0,38191:0:0:0:0:
51,192,38191,1,0,0:0:0:0:
358,192,38259,1,0,0:0:0:0:
153,192,38327,1,0,0:0:0:0:
460,192,38327,128,0,38464:0:0:0:0:
51,192,38464,1,0,0:0:0:0:
358,192,38600,1,0,0:0:0:0:
153,192,38600,1,0,0:0:0:0:
256,192,38600,128,0,38736:0:0:0:0:
460,192,38736,1,0,0:0:0:0:
358,192,38805,1,0,0:0:0:0:
153,192,38873,1,0,0:0:0:0:
256,192,38873,1,0,0:0:0:0:
51,192,38873,128,0,39009:0:0:0:0:
460,192,39009,1,0,0:0:0:0:
153,192,39146,1,0,0:0:0:0:
358,192,39146,128,0,39282:0:0:0:0:
51,192,39214,1,0,0:0:0:0:
460,192,39282,1,0,0:0:0:0:
153,192,39350,1,0,0:0:0:0:
256,192,39418,1,0,0:0:0:0:
51,192,39418,128,0,39555:0:0:0:0:
153,192,39555,1,0,0:0:0:0:
358,192,39691,1,0,0:0:0:0:
460,192,39691,128,0,39827:0:0:0:0:
51,192,39827,1,0,0:0:0:0:
153,192,39827,1,0,0:0:0:0:
153,192,39964,1,0,0:0:0:0:
460,192,39964,1,0,0:0:0:0:
256,192,39964,128,0,40100:0:0:0:0:
51,192,40100,1,0,0:0:0:0:
358,192,40236,1,0,0:0:0:0:
153,192,40236,128,0,40373:0:0:0:0:
256,192,40373,1,0,0:0:0:0:
460,192,40441,1,0,0:0:0:0:
358,192,40509,1,0,0:0:0:0:
51,192,40509,128,0,40646:0:0:0:0:
153,192,40646,1,0,0:0:0:0:
51,192,40782,1,0,0:0:0:0:
460,192,40782,1,0,0:0:0:0:
256,192,40782,128,0,40918:0:0:0:0:
358,192,40918,1,0,0:0:0:0:
460,192,40986,1,0,0:0:0:0:
153,192,41055,1,0,0:0:0:0:
358,192,41055,1,0,0:0:0:0:
51,192,41055,128,0,41191:0:0:0:0:
256,192,41191,1,0,0:0:0:0:
153,192,41327,1,0,0:0:0:0:
358,192,41327,128,0,41464:0:0:0:0:
51,192,41396,1,0,0:0:0:0:
460,192,41464,1,0,0:0:0:0:
153,192,41532,1,0,0:0:0:0:
256,192,41600,1,0,0:0:0:0:
358,192,41600,1,0,0:0:0:0:
460,192,41600,128,0,41736:0:0:0:0:
51,192,41736,1,0,0:0:0:0:
153,192,41873,1,0,0:0:0:0:
358,192,41873,128,0,42009:0:0:0:0:
256,192,42009,1,0,0:0:0:0:
460,192,42009,1,0,0:0:0:0:
460,192,42146,1,0,0:0:0:0:
358,192,42146,1,0,0:0:0:0:
51,192,42146,128,0,42282:0:0:0:0:
256,192,42282,1,0,0:0:0:0:
358,192,42418,5,0,0:0:0:0:
153,192,42418,128,0,42555:0:0:0:0:
51,192,42555,1,0,0:0:0:0:
358,192,42623,1,0,0:0:0:0:
153,192,42691,1,0,0:0:0:0:
460,192,42691,128,0,42827:0:0:0:0:
51,192,42827,1,0,0:0:0:0:
358,192,42964,1,0,0:0:0:0:
460,192,42964,1,0,0:0:0:0:
153,192,42964,128,0,43100:0:0:0:0:
358,192,43100,1,0,0:0:0:0:
256,192,43100,128,0,43236:0:0:0:0:
51,192,43236,1,0,0:0:0:0:
153,192,43236,1,0,0:0:0:0:
460,192,43236,128,0,43373:0:0:0:0:
358,192,43373,128,0,43509:0:0:0:0:
256,192,43373,1,0,0:0:0:0:
460,192,43509,1,0,0:0:0:0:
51,192,43509,1,0,0:0:0:0:
153,192,43577,1,0,0:0:0:0:
256,192,43646,1,0,0:0:0:0:
358,192,43714,1,0,0:0:0:0:
460,192,43782,1,0,0:0:0:0:
51,192,43782,1,0,0:0:0:0:
153,192,43782,1,0,0:0:0:0:
358,192,43850,1,0,0:0:0:0:
256,192,43918,1,0,0:0:0:0:
153,192,43986,1,0,0:0:0:0:
51,192,44055,1,0,0:0:0:0:
460,192,44055,1,0,0:0:0:0:
153,192,44191,1,0,0:0:0:0:
460,192,44327,1,0,0:0:0:0:
153,192,44464,1,0,0:0:0:0:
460,192,44600,1,0,0:0:0:0:
358,192,44668,1,0,0:0:0:0:
256,192,44736,1,0,0:0:0:0:
153,192,44805,1,0,0:0:0:0:
51,192,44873,1,0,0:0:0:0:
358,192,45009,1,0,0:0:0:0:
51,192,45146,1,0,0:0:0:0:
358,192,45282,1,0,0:0:0:0:
51,192,45418,1,0,0:0:0:0:
358,192,45555,1,0,0:0:0:0:
51,192,45691,1,0,0:0:0:0:
358,192,45827,1,0,0:0:0:0:
51,192,45964,1,0,0:0:0:0:
153,192,46032,1,0,0:0:0:0:
256,192,46100,1,0,0:0:0:0:
358,192,46168,1,0,0:0:0:0:
460,192,46236,1,0,0:0:0:0:
256,192,46373,1,0,0:0:0:0:
460,192,46509,1,0,0:0:0:0:
256,192,46646,1,0,0:0:0:0:
460,192,46782,1,0,0:0:0:0:
358,192,46850,1,0,0:0:0:0:
256,192,46918,1,0,0:0:0:0:
153,192,46986,1,0,0:0:0:0:
51,192,47055,1,0,0:0:0:0:
256,192,47191,1,0,0:0:0:0:
51,192,47327,1,0,0:0:0:0:
256,192,47464,1,0,0:0:0:0:
51,192,47600,1,0,0:0:0:0:
256,192,47736,1,0,0:0:0:0:
51,192,47873,1,0,0:0:0:0:
256,192,48009,1,0,0:0:0:0:
51,192,48146,1,0,0:0:0:0:
153,192,48214,1,0,0:0:0:0:
256,192,48282,1,0,0:0:0:0:
358,192,48350,1,0,0:0:0:0:
460,192,48418,1,0,0:0:0:0:
51,192,48555,1,0,0:0:0:0:
460,192,48691,1,0,0:0:0:0:
51,192,48827,1,0,0:0:0:0:
460,192,48964,1,0,0:0:0:0:
256,192,49032,1,0,0:0:0:0:
51,192,49100,1,0,0:0:0:0:
256,192,49168,1,0,0:0:0:0:
358,192,49236,1,0,0:0:0:0:
153,192,49373,1,0,0:0:0:0:
358,192,49509,1,0,0:0:0:0:
153,192,49646,1,0,0:0:0:0:
358,192,49782,1,0,0:0:0:0:
153,192,49918,1,0,0:0:0:0:
358,192,50055,1,0,0:0:0:0:
153,192,50191,1,0,0:0:0:0:
460,192,50327,1,0,0:0:0:0:
358,192,50396,1,0,0:0:0:0:
256,192,50464,1,0,0:0:0:0:
153,192,50532,1,0,0:0:0:0:
51,192,50600,1,0,0:0:0:0:
153,192,50736,1,0,0:0:0:0:
51,192,50873,1,0,0:0:0:0:
153,192,51009,1,0,0:0:0:0:
51,192,51146,1,0,0:0:0:0:
153,192,51214,1,0,0:0:0:0:
256,192,51282,1,0,0:0:0:0:
358,192,51350,1,0,0:0:0:0:
460,192,51418,1,0,0:0:0:0:
358,192,51555,1,0,0:0:0:0:
460,192,51691,1,0,0:0:0:0:
358,192,51827,1,0,0:0:0:0:
460,192,51964,1,0,0:0:0:0:
358,192,52100,1,0,0:0:0:0:
460,192,52236,1,0,0:0:0:0:
358,192,52373,1,0,0:0:0:0:
51,192,52509,1,0,0:0:0:0:
460,192,52509,1,0,0:0:0:0:
153,192,52509,1,0,0:0:0:0:
358,192,52577,1,0,0:0:0:0:
256,192,52646,1,0,0:0:0:0:
153,192,52714,1,0,0:0:0:0:
51,192,52782,1,0,0:0:0:0:
460,192,52782,1,0,0:0:0:0:
358,192,52782,1,0,0:0:0:0:
153,192,52850,1,0,0:0:0:0:
256,192,52918,1,0,0:0:0:0:
358,192,52986,1,0,0:0:0:0:
51,192,53055,1,0,0:0:0:0:
460,192,53055,1,0,0:0:0:0:
153,192,53055,1,0,0:0:0:0:
358,192,53123,1,0,0:0:0:0:
256,192,53191,1,0,0:0:0:0:
153,192,53259,1,0,0:0:0:0:
51,192,53327,1,0,0:0:0:0:
460,192,53327,1,0,0:0:0:0:
358,192,53327,1,0,0:0:0:0:
153,192,53396,1,0,0:0:0:0:
256,192,53464,1,0,0:0:0:0:
358,192,53532,1,0,0:0:0:0:
51,192,53600,1,0,0:0:0:0:
460,192,53600,1,0,0:0:0:0:
153,192,53600,1,0,0:0:0:0:
358,192,53668,1,0,0:0:0:0:
256,192,53736,1,0,0:0:0:0:
153,192,53805,1,0,0:0:0:0:
51,192,53873,1,0,0:0:0:0:
460,192,53873,1,0,0:0:0:0:
358,192,53873,1,0,0:0:0:0:
153,192,53941,1,0,0:0:0:0:
256,192,54009,1,0,0:0:0:0:
358,192,54077,1,0,0:0:0:0:
51,192,54146,1,0,0:0:0:0:
460,192,54146,1,0,0:0:0:0:
153,192,54146,1,0,0:0:0:0:
358,192,54214,1,0,0:0:0:0:
256,192,54282,1,0,0:0:0:0:
153,192,54350,1,0,0:0:0:0:
51,192,54418,1,0,0:0:0:0:
460,192,54418,1,0,0:0:0:0:
358,192,54418,1,0,0:0:0:0:
153,192,54486,1,0,0:0:0:0:
460,192,54555,1,0,0:0:0:0:
358,192,54623,1,0,0:0:0:0:
51,192,54691,1,0,0:0:0:0:
153,192,54691,1,0,0:0:0:0:
256,192,54691,1,0,0:0:0:0:
460,192,54759,1,0,0:0:0:0:
51,192,54827,1,0,0:0:0:0:
153,192,54896,1,0,0:0:0:0:
460,192,54964,1,0,0:0:0:0:
358,192,54964,1,0,0:0:0:0:
256,192,54964,1,0,0:0:0:0:
51,192,55032,1,0,0:0:0:0:
460,192,55100,1,0,0:0:0:0:
358,192,55168,1,0,0:0:0:0:
51,192,55236,1,0,0:0:0:0:
153,192,55236,1,0,0:0:0:0:
256,192,55236,1,0,0:0:0:0:
460,192,55305,1,0,0:0:0:0:
51,192,55373,1,0,0:0:0:0:
153,192,55441,1,0,0:0:0:0:
460,192,55509,1,0,0:0:0:0:
358,192,55509,1,0,0:0:0:0:
256,192,55509,1,0,0:0:0:0:
51,192,55577,1,0,0:0:0:0:
460,192,55646,1,0,0:0:0:0:
358,192,55714,1,0,0:0:0:0:
51,192,55782,1,0,0:0:0:0:
153,192,55782,1,0,0:0:0:0:
256,192,55782,1,0,0:0:0:0:
460,192,55850,1,0,0:0:0:0:
51,192,55918,1,0,0:0:0:0:
153,192,55986,1,0,0:0:0:0:
460,192,56055,1,0,0:0:0:0:
358,192,56055,1,0,0:0:0:0:
256,192,56055,1,0,0:0:0:0:
51,192,56123,1,0,0:0:0:0:
460,192,56191,1,0,0:0:0:0:
358,192,56259,1,0,0:0:0:0:
51,192,56327,1,0,0:0:0:0:
153,192,56327,1,0,0:0:0:0:
256,192,56327,1,0,0:0:0:0:
460,192,56396,1,0,0:0:0:0:
51,192,56464,1,0,0:0:0:0:
153,192,56532,1,0,0:0:0:0:
460,192,56600,1,0,0:0:0:0:
358,192,56600,1,0,0:0:0:0:
256,192,56600,1,0,0:0:0:0:
51,192,56668,1,0,0:0:0:0:
460,192,56736,1,0,0:0:0:0:
358,192,56805,1,0,0:0:0:0:
153,192,56873,1,0,0:0:0:0:
256,192,56873,1,0,0:0:0:0:
51,192,56873,1,0,0:0:0:0:
51,192,57009,1,0,0:0:0:0:
153,192,57009,1,0,0:0:0:0:
460,192,57009,1,0,0:0:0:0:
358,192,57146,1,0,0:0:0:0:
460,192,57146,1,0,0:0:0:0:
51,192,57146,1,0,0:0:0:0:
460,192,57282,1,0,0:0:0:0:
358,192,57282,1,0,0:0:0:0:
256,192,57282,1,0,0:0:0:0:
153,192,57418,1,0,0:0:0:0:
256,192,57418,1,0,0:0:0:0:
358,192,57418,1,0,0:0:0:0:
153,192,57555,1,0,0:0:0:0:
256,192,57555,1,0,0:0:0:0:
51,192,57555,1,0,0:0:0:0:
153,192,57691,1,0,0:0:0:0:
51,192,57691,1,0,0:0:0:0:
460,192,57691,1,0,0:0:0:0:
51,192,57827,1,0,0:0:0:0:
358,192,57827,1,0,0:0:0:0:
460,192,57827,1,0,0:0:0:0:
51,192,57964,1,0,0:0:0:0:
153,192,57964,1,0,0:0:0:0:
256,192,58032,1,0,0:0:0:0:
358,192,58032,1,0,0:0:0:0:
153,192,58100,1,0,0:0:0:0:
51,192,58100,1,0,0:0:0:0:
358,192,58168,1,0,0:0:0:0:
460,192,58168,1,0,0:0:0:0:
153,192,58236,1,0,0:0:0:0:
256,192,58236,1,0,0:0:0:0:
358,192,58305,1,0,0:0:0:0:
460,192,58305,1,0,0:0:0:0:
153,192,58373,1,0,0:0:0:0:
51,192,58373,1,0,0:0:0:0:
358,192,58441,1,0,0:0:0:0:
460,192,58441,1,0,0:0:0:0:
153,192,58509,1,0,0:0:0:0:
51,192,58509,1,0,0:0:0:0:
256,192,58577,1,0,0:0:0:0:
358,192,58577,1,0,0:0:0:0:
153,192,58646,1,0,0:0:0:0:
51,192,58646,1,0,0:0:0:0:
358,192,58714,1,0,0:0:0:0:
460,192,58714,1,0,0:0:0:0:
153,192,58782,1,0,0:0:0:0:
256,192,58782,1,0,0:0:0:0:
358,192,58850,1,0,0:0:0:0:
460,192,58850,1,0,0:0:0:0:
153,192,58918,1,0,0:0:0:0:
51,192,58918,1,0,0:0:0:0:
358,192,58986,1,0,0:0:0:0:
460,192,58986,1,0,0:0:0:0:
153,192,59055,1,0,0:0:0:0:
51,192,59055,1,0,0:0:0:0:
256,192,59055,128,0,59327:0:0:0:0:
358,192,59327,128,0,59600:0:0:0:0:
51,192,59327,1,0,0:0:0:0:
460,192,59600,128,0,59873:0:0:0:0:
51,192,59600,1,0,0:0:0:0:
256,192,59600,1,0,0:0:0:0:
51,192,59873,128,0,60146:0:0:0:0:
153,192,59873,1,0,0:0:0:0:
256,192,59873,1,0,0:0:0:0:
358,192,60009,1,0,0:0:0:0:
460,192,60009,1,0,0:0:0:0:
153,192,60146,128,0,60418:0:0:0:0:
256,192,60146,1,0,0:0:0:0:
460,192,60282,1,0,0:0:0:0:
256,192,60418,128,0,60691:0:0:0:0:
51,192,60418,1,0,0:0:0:0:
358,192,60555,1,0,0:0:0:0:
51,192,60691,1,0,0:0:0:0:
460,192,60691,1,0,0:0:0:0:
153,192,60691,1,0,0:0:0:0:
256,192,61236,128,0,61509:0:0:0:0:
51,192,61236,128,0,61509:0:0:0:0:
153,192,61509,128,0,61782:0:0:0:0:
358,192,61509,128,0,61782:0:0:0:0:
460,192,61782,128,0,62055:0:0:0:0:
256,192,61782,128,0,62055:0:0:0:0:
51,192,62055,1,0,0:0:0:0:
153,192,62055,1,0,0:0:0:0:
358,192,62055,1,0,0:0:0:0:
256,192,62191,1,0,0:0:0:0:
460,192,62191,1,0,0:0:0:0:
51,192,62327,1,0,0:0:0:0:
153,192,62327,1,0,0:0:0:0:
460,192,62464,1,0,0:0:0:0:
256,192,62464,1,0,0:0:0:0:
51,192,62600,1,0,0:0:0:0:
153,192,62600,1,0,0:0:0:0:
358,192,62600,1,0,0:0:0:0:
256,192,62736,1,0,0:0:0:0:
153,192,62873,1,0,0:0:0:0:
460,192,62873,1,0,0:0:0:0:
358,192,62873,1,0,0:0:0:0:
51,192,62873,1,0,0:0:0:0:
256,192,63009,1,0,0:0:0:0:
51,192,63009,1,0,0:0:0:0:
358,192,63146,1,0,0:0:0:0:
460,192,63146,1,0,0:0:0:0:
51,192,63282,1,0,0:0:0:0:
256,192,63282,1,0,0:0:0:0:
358,192,63418,1,0,0:0:0:0:
460,192,63418,1,0,0:0:0:0:
153,192,63418,1,0,0:0:0:0:
256,192,63555,1,0,0:0:0:0:
51,192,63555,1,0,0:0:0:0:
460,192,63691,1,0,0:0:0:0:
358,192,63691,1,0,0:0:0:0:
51,192,63827,1,0,0:0:0:0:
256,192,63827,1,0,0:0:0:0:
358,192,63964,1,0,0:0:0:0:
460,192,63964,1,0,0:0:0:0:
51,192,63964,1,0,0:0:0:0:
153,192,63964,1,0,0:0:0:0:
256,192,64100,1,0,0:0:0:0:
460,192,64100,1,0,0:0:0:0:
51,192,64236,1,0,0:0:0:0:
153,192,64236,1,0,0:0:0:0:
358,192,64236,1,0,0:0:0:0:
256,192,64373,1,0,0:0:0:0:
460,192,64373,1,0,0:0:0:0:
153,192,64509,1,0,0:0:0:0:
51,192,64509,1,0,0:0:0:0:
358,192,64577,1,0,0:0:0:0:
460,192,64577,1,0,0:0:0:0:
51,192,64646,1,0,0:0:0:0:
153,192,64646,1,0,0:0:0:0:
358,192,64714,1,0,0:0:0:0:
460,192,64714,1,0,0:0:0:0:
256,192,64782,1,0,0:0:0:0:
51,192,64782,1,0,0:0:0:0:
153,192,64782,1,0,0:0:0:0:
51,192,64918,1,0,0:0:0:0:
460,192,64918,1,0,0:0:0:0:
460,192,65055,1,0,0:0:0:0:
153,192,65055,1,0,0:0:0:0:
358,192,65055,1,0,0:0:0:0:
256,192,65055,1,0,0:0:0:0:
153,192,65191,1,0,0:0:0:0:
51,192,65191,1,0,0:0:0:0:
358,192,65327,128,0,65600:0:0:0:0:
460,192,65327,128,0,65600:0:0:0:0:
256,192,65600,128,0,65873:0:0:0:0:
51,192,65600,128,0,65873:0:0:0:0:
153,192,65873,128,0,66146:0:0:0:0:
358,192,65873,128,0,66146:0:0:0:0:
256,192,66146,128,0,66418:0:0:0:0:
460,192,66146,128,0,66418:0:0:0:0:
153,192,66418,1,0,0:0:0:0:
358,192,66418,1,0,0:0:0:0:
51,192,66418,1,0,0:0:0:0:
256,192,66691,1,0,0:0:0:0:
358,192,66691,1,0,0:0:0:0:
358,192,66964,1,0,0:0:0:0:
460,192,66964,1,0,0:0:0:0:
51,192,66964,1,0,0:0:0:0:
256,192,67100,128,0,67168:0:0:0:0:
153,192,67100,128,0,67168:0:0:0:0:
51,192,67100,128,0,67168:0:0:0:0:
358,192,67236,1,0,0:0:0:0:
460,192,67236,1,0,0:0:0:0:
51,192,67236,1,0,0:0:0:0:
153,192,67236,1,0,0:0:0:0:
460,192,67509,1,0,0:0:0:0:
256,192,67509,1,0,0:0:0:0:
256,192,67646,128,0,67714:0:0:0:0:
153,192,67646,128,0,67714:0:0:0:0:
51,192,67646,128,0,67714:0:0:0:0:
358,192,67782,1,0,0:0:0:0:
460,192,67782,1,0,0:0:0:0:
51,192,67782,1,0,0:0:0:0:
358,192,68055,1,0,0:0:0:0:
460,192,68055,1,0,0:0:0:0:
256,192,68191,128,0,68259:0:0:0:0:
153,192,68191,128,0,68259:0:0:0:0:
51,192,68191,128,0,68259:0:0:0:0:
358,192,68327,1,0,0:0:0:0:
460,192,68327,1,0,0:0:0:0:
51,192,68327,1,0,0:0:0:0:
153,192,68600,1,0,0:0:0:0:
256,192,68600,1,0,0:0:0:0:
460,192,68600,1,0,0:0:0:0:
256,192,68736,128,0,68805:0:0:0:0:
153,192,68736,128,0,68805:0:0:0:0:
51,192,68736,128,0,68805:0:0:0:0:
358,192,68873,1,0,0:0:0:0:
460,192,68873,1,0,0:0:0:0:
358,192,69146,1,0,0:0:0:0:
460,192,69146,1,0,0:0:0:0:
153,192,69146,1,0,0:0:0:0:
51,192,69282,128,0,69350:0:0:0:0:
153,192,69282,128,0,69350:0:0:0:0:
256,192,69282,128,0,69350:0:0:0:0:
153,192,69418,1,0,0:0:0:0:
358,192,69418,1,0,0:0:0:0:
460,192,69418,1,0,0:0:0:0:
358,192,69555,1,0,0:0:0:0:
51,192,69555,1,0,0:0:0:0:
460,192,69555,1,0,0:0:0:0:
153,192,69691,1,0,0:0:0:0:
460,192,69691,1,0,0:0:0:0:
358,192,69691,1,0,0:0:0:0:
256,192,69827,1,0,0:0:0:0:
460,192,69827,1,0,0:0:0:0:
51,192,69827,1,0,0:0:0:0:
51,192,69964,128,0,70782:0:0:0:0:
153,192,69964,128,0,70236:0:0:0:0:
256,192,70236,128,0,70509:0:0:0:0:
358,192,70509,128,0,70782:0:0:0:0:
460,192,70782,128,0,71327:0:0:0:0:
153,192,70782,1,0,0:0:0:0:
256,192,70782,1,0,0:0:0:0:
153,192,70918,1,0,0:0:0:0:
358,192,70918,1,0,0:0:0:0:
256,192,71055,1,0,0:0:0:0:
51,192,71055,1,0,0:0:0:0:
358,192,71191,1,0,0:0:0:0:
153,192,71191,1,0,0:0:0:0:
51,192,71327,128,0,72146:0:0:0:0:
256,192,71327,1,0,0:0:0:0:
358,192,71327,1,0,0:0:0:0:
153,192,71464,1,0,0:0:0:0:
460,192,71464,1,0,0:0:0:0:
358,192,71600,1,0,0:0:0:0:
256,192,71600,1,0,0:0:0:0:
153,192,71600,1,0,0:0:0:0:
460,192,71736,1,0,0:0:0:0:
358,192,71736,1,0,0:0:0:0:
256,192,71873,1,0,0:0:0:0:
153,192,71873,1,0,0:0:0:0:
460,192,72009,1,0,0:0:0:0:
358,192,72009,1,0,0:0:0:0:
460,192,72146,128,0,72964:0:0:0:0:
256,192,72146,1,0,0:0:0:0:
153,192,72146,1,0,0:0:0:0:
51,192,72282,1,0,0:0:0:0:
358,192,72282,1,0,0:0:0:0:
256,192,72418,1,0,0:0:0:0:
153,192,72418,1,0,0:0:0:0:
51,192,72555,1,0,0:0:0:0:
358,192,72555,1,0,0:0:0:0:
256,192,72691,1,0,0:0:0:0:
358,192,72691,1,0,0:0:0:0:
153,192,72691,1,0,0:0:0:0:
153,192,72827,1,0,0:0:0:0:
51,192,72827,1,0,0:0:0:0:
51,192,72964,128,0,73509:0:0:0:0:
358,192,72964,1,0,0:0:0:0:
256,192,72964,1,0,0:0:0:0:
153,192,73100,1,0,0:0:0:0:
460,192,73100,1,0,0:0:0:0:
460,192,73236,1,0,0:0:0:0:
358,192,73305,1,0,0:0:0:0:
256,192,73373,1,0,0:0:0:0:
153,192,73441,1,0,0:0:0:0:
460,192,73509,128,0,74327:0:0:0:0:
256,192,73509,1,0,0:0:0:0:
358,192,73509,1,0,0:0:0:0:
51,192,73646,1,0,0:0:0:0:
153,192,73646,1,0,0:0:0:0:
256,192,73782,1,0,0:0:0:0:
153,192,73782,1,0,0:0:0:0:
51,192,73782,1,0,0:0:0:0:
358,192,73918,1,0,0:0:0:0:
256,192,73918,1,0,0:0:0:0:
51,192,74055,128,0,74327:0:0:0:0:
153,192,74055,128,0,74327:0:0:0:0:
256,192,74327,128,0,74600:0:0:0:0:
358,192,74327,128,0,74600:0:0:0:0:
153,192,74600,128,0,74805:0:0:0:0:
51,192,74600,128,0,74805:0:0:0:0:
358,192,74873,1,0,0:0:0:0:
460,192,74873,1,0,0:0:0:0:
51,192,74873,1,0,0:0:0:0:
153,192,74873,1,0,0:0:0:0:
256,192,74941,1,0,0:0:0:0:
460,192,75009,128,0,75077:0:0:0:0:
358,192,75009,128,0,75077:0:0:0:0:
153,192,75146,1,0,0:0:0:0:
256,192,75146,1,0,0:0:0:0:
51,192,75146,1,0,0:0:0:0:
256,192,75282,1,0,0:0:0:0:
358,192,75282,1,0,0:0:0:0:
153,192,75350,1,0,0:0:0:0:
51,192,75350,1,0,0:0:0:0:
358,192,75418,128,0,75486:0:0:0:0:
460,192,75418,128,0,75486:0:0:0:0:
460,192,75555,128,0,75623:0:0:0:0:
358,192,75555,128,0,75623:0:0:0:0:
51,192,75691,1,0,0:0:0:0:
153,192,75691,1,0,0:0:0:0:
256,192,75691,1,0,0:0:0:0:
358,192,75827,128,0,75896:0:0:0:0:
460,192,75827,128,0,75896:0:0:0:0:
51,192,75964,1,0,0:0:0:0:
460,192,75964,128,0,76032:0:0:0:0:
153,192,75964,1,0,0:0:0:0:
358,192,75964,128,0,76032:0:0:0:0:
256,192,76100,1,0,0:0:0:0:
358,192,76100,1,0,0:0:0:0:
51,192,76168,1,0,0:0:0:0:
153,192,76168,1,0,0:0:0:0:
358,192,76236,128,0,76305:0:0:0:0:
460,192,76236,128,0,76305:0:0:0:0:
358,192,76373,128,0,76441:0:0:0:0:
460,192,76373,128,0,76441:0:0:0:0:
51,192,76509,128,0,76782:0:0:0:0:
153,192,76509,128,0,76782:0:0:0:0:
256,192,76782,128,0,77055:0:0:0:0:
358,192,76782,128,0,77055:0:0:0:0:
460,192,77055,1,0,0:0:0:0:
51,192,77055,1,0,0:0:0:0:
153,192,77055,1,0,0:0:0:0:
256,192,77123,1,0,0:0:0:0:
153,192,77191,128,0,77259:0:0:0:0:
51,192,77191,128,0,77259:0:0:0:0:
460,192,77327,1,0,0:0:0:0:
256,192,77327,1,0,0:0:0:0:
358,192,77327,1,0,0:0:0:0:
256,192,77464,1,0,0:0:0:0:
153,192,77464,1,0,0:0:0:0:
358,192,77532,1,0,0:0:0:0:
460,192,77532,1,0,0:0:0:0:
51,192,77600,128,0,77668:0:0:0:0:
153,192,77600,128,0,77668:0:0:0:0:
153,192,77736,128,0,77805:0:0:0:0:
51,192,77736,128,0,77805:0:0:0:0:
256,192,77873,1,0,0:0:0:0:
358,192,77873,1,0,0:0:0:0:
460,192,77873,1,0,0:0:0:0:
153,192,78009,128,0,78077:0:0:0:0:
51,192,78009,128,0,78077:0:0:0:0:
358,192,78146,1,0,0:0:0:0:
460,192,78146,1,0,0:0:0:0:
153,192,78146,1,0,0:0:0:0:
51,192,78146,1,0,0:0:0:0:
256,192,78146,128,0,78691:0:0:0:0:
358,192,78691,1,0,0:0:0:0:
460,192,78691,1,0,0:0:0:0:
51,192,78691,1,0,0:0:0:0:
153,192,78759,1,0,0:0:0:0:
51,192,78827,1,0,0:0:0:0:
460,192,78896,1,0,0:0:0:0:
358,192,78964,1,0,0:0:0:0:
256,192,78964,1,0,0:0:0:0:
153,192,78964,1,0,0:0:0:0:
51,192,79032,1,0,0:0:0:0:
460,192,79100,1,0,0:0:0:0:
358,192,79168,1,0,0:0:0:0:
256,192,79236,1,0,0:0:0:0:
153,192,79236,1,0,0:0:0:0:
51,192,79236,1,0,0:0:0:0:
460,192,79305,1,0,0:0:0:0:
358,192,79373,1,0,0:0:0:0:
256,192,79441,1,0,0:0:0:0:
51,192,79509,1,0,0:0:0:0:
153,192,79509,1,0,0:0:0:0:
460,192,79509,1,0,0:0:0:0:
358,192,79577,1,0,0:0:0:0:
256,192,79646,1,0,0:0:0:0:
153,192,79714,1,0,0:0:0:0:
460,192,79782,1,0,0:0:0:0:
51,192,79782,1,0,0:0:0:0:
358,192,79782,1,0,0:0:0:0:
256,192,79850,1,0,0:0:0:0:
153,192,79918,1,0,0:0:0:0:
51,192,79986,1,0,0:0:0:0:
358,192,80055,1,0,0:0:0:0:
460,192,80055,1,0,0:0:0:0:
256,192,80055,1,0,0:0:0:0:
153,192,80123,1,0,0:0:0:0:
51,192,80191,1,0,0:0:0:0:
460,192,80259,1,0,0:0:0:0:
256,192,80327,1,0,0:0:0:0:
358,192,80327,1,0,0:0:0:0:
153,192,80327,1,0,0:0:0:0:
51,192,80396,1,0,0:0:0:0:
460,192,80464,1,0,0:0:0:0:
358,192,80532,1,0,0:0:0:0:
256,192,80600,1,0,0:0:0:0:
153,192,80600,1,0,0:0:0:0:
51,192,80600,1,0,0:0:0:0:
460,192,80668,1,0,0:0:0:0:
358,192,80736,1,0,0:0:0:0:
256,192,80805,1,0,0:0:0:0:
51,192,80873,1,0,0:0:0:0:
153,192,80873,1,0,0:0:0:0:
460,192,80873,1,0,0:0:0:0:
358,192,80941,1,0,0:0:0:0:
256,192,81009,1,0,0:0:0:0:
153,192,81077,1,0,0:0:0:0:
51,192,81146,1,0,0:0:0:0:
460,192,81146,1,0,0:0:0:0:
358,192,81146,1,0,0:0:0:0:
256,192,81214,1,0,0:0:0:0:
153,192,81282,1,0,0:0:0:0:
51,192,81350,1,0,0:0:0:0:
358,192,81418,1,0,0:0:0:0:
460,192,81418,1,0,0:0:0:0:
256,192,81418,1,0,0:0:0:0:
153,192,81486,1,0,0:0:0:0:
51,192,81555,1,0,0:0:0:0:
460,192,81623,1,0,0:0:0:0:
358,192,81691,1,0,0:0:0:0:
153,192,81691,1,0,0:0:0:0:
256,192,81691,1,0,0:0:0:0:
51,192,81759,1,0,0:0:0:0:
460,192,81827,1,0,0:0:0:0:
358,192,81896,1,0,0:0:0:0:
51,192,81964,1,0,0:0:0:0:
153,192,81964,1,0,0:0:0:0:
256,192,81964,1,0,0:0:0:0:
460,192,82032,1,0,0:0:0:0:
358,192,82100,1,0,0:0:0:0:
256,192,82168,1,0,0:0:0:0:
51,192,82236,1,0,0:0:0:0:
153,192,82236,1,0,0:0:0:0:
358,192,82305,1,0,0:0:0:0:
256,192,82373,1,0,0:0:0:0:
153,192,82441,1,0,0:0:0:0:
358,192,82509,1,0,0:0:0:0:
460,192,82509,1,0,0:0:0:0:
51,192,82509,1,0,0:0:0:0:
256,192,82577,1,0,0:0:0:0:
153,192,82646,1,0,0:0:0:0:
51,192,82714,1,0,0:0:0:0:
358,192,82782,1,0,0:0:0:0:
460,192,82782,1,0,0:0:0:0:
256,192,82782,1,0,0:0:0:0:
153,192,82850,1,0,0:0:0:0:
51,192,82918,1,0,0:0:0:0:
153,192,82986,1,0,0:0:0:0:
256,192,83055,1,0,0:0:0:0:
358,192,83055,1,0,0:0:0:0:
460,192,83055,1,0,0:0:0:0:
256,192,83191,1,0,0:0:0:0:
153,192,83191,1,0,0:0:0:0:
358,192,83191,1,0,0:0:0:0:
51,192,83327,1,0,0:0:0:0:
153,192,83327,1,0,0:0:0:0:
256,192,83327,1,0,0:0:0:0:
460,192,83464,1,0,0:0:0:0:
51,192,83464,1,0,0:0:0:0:
153,192,83464,1,0,0:0:0:0:
460,192,83600,1,0,0:0:0:0:
358,192,83600,1,0,0:0:0:0:
51,192,83600,1,0,0:0:0:0:
256,192,83736,1,0,0:0:0:0:
358,192,83736,1,0,0:0:0:0:
460,192,83736,1,0,0:0:0:0:
153,192,83873,1,0,0:0:0:0:
358,192,83873,1,0,0:0:0:0:
256,192,83873,1,0,0:0:0:0:
51,192,84009,1,0,0:0:0:0:
153,192,84009,1,0,0:0:0:0:
256,192,84009,1,0,0:0:0:0:
51,192,84146,1,0,0:0:0:0:
153,192,84146,1,0,0:0:0:0:
358,192,84214,1,0,0:0:0:0:
460,192,84214,1,0,0:0:0:0:
153,192,84282,1,0,0:0:0:0:
51,192,84282,1,0,0:0:0:0:
358,192,84350,1,0,0:0:0:0:
460,192,84350,1,0,0:0:0:0:
153,192,84418,1,0,0:0:0:0:
51,192,84418,1,0,0:0:0:0:
358,192,84486,1,0,0:0:0:0:
460,192,84486,1,0,0:0:0:0:
153,192,84555,1,0,0:0:0:0:
51,192,84555,1,0,0:0:0:0:
358,192,84623,1,0,0:0:0:0:
460,192,84623,1,0,0:0:0:0:
153,192,84691,1,0,0:0:0:0:
51,192,84691,1,0,0:0:0:0:
358,192,84759,1,0,0:0:0:0:
460,192,84759,1,0,0:0:0:0:
153,192,84827,1,0,0:0:0:0:
51,192,84827,1,0,0:0:0:0:
358,192,84896,1,0,0:0:0:0:
460,192,84896,1,0,0:0:0:0:
153,192,84964,1,0,0:0:0:0:
51,192,84964,1,0,0:0:0:0:
358,192,85032,1,0,0:0:0:0:
460,192,85032,1,0,0:0:0:0:
153,192,85100,1,0,0:0:0:0:
51,192,85100,1,0,0:0:0:0:
358,192,85168,1,0,0:0:0:0:
460,192,85168,1,0,0:0:0:0:
256,192,85236,1,0,0:0:0:0:
51,192,85236,1,0,0:0:0:0:
153,192,85236,1,0,0:0:0:0:
51,192,85509,128,0,85600:0:0:0:0:
460,192,85509,1,0,0:0:0:0:
153,192,85600,128,0,85691:0:0:0:0:
256,192,85691,128,0,85782:0:0:0:0:
460,192,85782,128,0,85873:0:0:0:0:
51,192,85782,1,0,0:0:0:0:
153,192,85782,1,0,0:0:0:0:
358,192,85873,128,0,85964:0:0:0:0:
256,192,85964,128,0,86055:0:0:0:0:
51,192,86055,128,0,86146:0:0:0:0:
460,192,86055,1,0,0:0:0:0:
153,192,86146,128,0,86236:0:0:0:0:
358,192,86236,128,0,86327:0:0:0:0:
460,192,86327,128,0,86418:0:0:0:0:
51,192,86327,1,0,0:0:0:0:
358,192,86418,128,0,86509:0:0:0:0:
153,192,86509,128,0,86600:0:0:0:0:
51,192,86600,128,0,86691:0:0:0:0:
460,192,86600,1,0,0:0:0:0:
256,192,86691,128,0,86782:0:0:0:0:
460,192,86782,128,0,86873:0:0:0:0:
153,192,86873,1,0,0:0:0:0:
256,192,86873,128,0,87327:0:0:0:0:
51,192,86873,1,0,0:0:0:0:
460,192,87418,1,0,0:0:0:0:
153,192,87418,1,0,0:0:0:0:
256,192,87418,1,0,0:0:0:0:
358,192,87509,1,0,0:0:0:0:
51,192,87509,1,0,0:0:0:0:
256,192,87600,1,0,0:0:0:0:
358,192,87691,1,0,0:0:0:0:
51,192,87691,1,0,0:0:0:0:
460,192,87782,1,0,0:0:0:0:
153,192,87782,1,0,0:0:0:0:
256,192,87873,1,0,0:0:0:0:
51,192,87964,128,0,88146:0:0:0:0:
153,192,87964,128,0,88146:0:0:0:0:
358,192,87964,128,0,88146:0:0:0:0:
460,192,87964,128,0,88146:0:0:0:0:
51,192,88236,1,0,0:0:0:0:
153,192,88236,1,0,0:0:0:0:
460,192,88236,1,0,0:0:0:0:
256,192,88327,1,0,0:0:0:0:
358,192,88327,1,0,0:0:0:0:
51,192,88418,1,0,0:0:0:0:
460,192,88418,1,0,0:0:0:0:
153,192,88509,1,0,0:0:0:0:
256,192,88509,1,0,0:0:0:0:
358,192,88600,1,0,0:0:0:0:
460,192,88600,1,0,0:0:0:0:
51,192,88691,1,0,0:0:0:0:
153,192,88691,1,0,0:0:0:0:
256,192,88782,1,0,0:0:0:0:
460,192,88782,1,0,0:0:0:0:
358,192,88782,1,0,0:0:0:0:
51,192,88873,1,0,0:0:0:0:
153,192,88873,1,0,0:0:0:0:
256,192,88964,1,0,0:0:0:0:
358,192,88964,1,0,0:0:0:0:
51,192,89055,1,0,0:0:0:0:
460,192,89055,1,0,0:0:0:0:
153,192,89055,1,0,0:0:0:0:
256,192,89146,1,0,0:0:0:0:
358,192,89146,1,0,0:0:0:0:
51,192,89236,1,0,0:0:0:0:
153,192,89236,1,0,0:0:0:0:
358,192,89327,1,0,0:0:0:0:
460,192,89327,1,0,0:0:0:0:
256,192,89418,1,0,0:0:0:0:
153,192,89418,1,0,0:0:0:0:
51,192,89509,1,0,0:0:0:0:
460,192,89509,1,0,0:0:0:0:
153,192,89600,1,0,0:0:0:0:
256,192,89600,1,0,0:0:0:0:
358,192,89600,1,0,0:0:0:0:
51,192,89691,1,0,0:0:0:0:
460,192,89691,1,0,0:0:0:0:
153,192,89782,1,0,0:0:0:0:
256,192,89782,1,0,0:0:0:0:
358,192,89873,1,0,0:0:0:0:
460,192,89873,1,0,0:0:0:0:
51,192,89964,1,0,0:0:0:0:
153,192,89964,1,0,0:0:0:0:
358,192,90055,1,0,0:0:0:0:
256,192,90055,1,0,0:0:0:0:
51,192,90146,1,0,0:0:0:0:
153,192,90146,1,0,0:0:0:0:
460,192,90146,1,0,0:0:0:0:
256,192,90236,1,0,0:0:0:0:
358,192,90236,1,0,0:0:0:0:
51,192,90327,1,0,0:0:0:0:
153,192,90327,1,0,0:0:0:0:
358,192,90418,1,0,0:0:0:0:
460,192,90418,1,0,0:0:0:0:
256,192,90418,1,0,0:0:0:0:
153,192,90509,1,0,0:0:0:0:
51,192,90509,1,0,0:0:0:0:
358,192,90600,1,0,0:0:0:0:
460,192,90600,1,0,0:0:0:0:
153,192,90691,1,0,0:0:0:0:
256,192,90691,1,0,0:0:0:0:
51,192,90782,1,0,0:0:0:0:
460,192,90782,1,0,0:0:0:0:
256,192,90873,1,0,0:0:0:0:
358,192,90873,1,0,0:0:0:0:
51,192,90964,1,0,0:0:0:0:
153,192,90964,1,0,0:0:0:0:
460,192,90964,1,0,0:0:0:0:
256,192,91055,1,0,0:0:0:0:
358,192,91055,1,0,0:0:0:0:
460,192,91146,1,0,0:0:0:0:
51,192,91146,1,0,0:0:0:0:
153,192,91236,1,0,0:0:0:0:
256,192,91236,1,0,0:0:0:0:
358,192,91236,1,0,0:0:0:0:
460,192,91327,1,0,0:0:0:0:
51,192,91327,1,0,0:0:0:0:
153,192,91418,1,0,0:0:0:0:
256,192,91418,1,0,0:0:0:0:
358,192,91509,1,0,0:0:0:0:
460,192,91509,1,0,0:0:0:0:
51,192,91600,1,0,0:0:0:0:
153,192,91600,1,0,0:0:0:0:
256,192,91691,1,0,0:0:0:0:
358,192,91691,1,0,0:0:0:0:
153,192,91782,1,0,0:0:0:0:
51,192,91782,1,0,0:0:0:0:
460,192,91782,1,0,0:0:0:0:
153,192,91873,1,0,0:0:0:0:
51,192,91873,1,0,0:0:0:0:
153,192,91964,1,0,0:0:0:0:
51,192,91964,1,0,0:0:0:0:
358,192,92055,1,0,0:0:0:0:
460,192,92055,1,0,0:0:0:0:
358,192,92146,1,0,0:0:0:0:
460,192,92146,1,0,0:0:0:0:
358,192,92236,1,0,0:0:0:0:
460,192,92236,1,0,0:0:0:0:
460,192,92327,1,0,0:0:0:0:
358,192,92361,1,0,0:0:0:0:
256,192,92396,1,0,0:0:0:0:
153,192,92430,1,0,0:0:0:0:
51,192,92464,1,0,0:0:0:0:
51,192,92600,1,0,0:0:0:0:
460,192,92600,1,0,0:0:0:0:
358,192,92668,1,0,0:0:0:0:
256,192,92736,1,0,0:0:0:0:
153,192,92805,1,0,0:0:0:0:
51,192,92873,1,0,0:0:0:0:
153,192,92941,1,0,0:0:0:0:
256,192,93009,1,0,0:0:0:0:
358,192,93077,1,0,0:0:0:0:
460,192,93146,1,0,0:0:0:0:
51,192,93146,1,0,0:0:0:0:
153,192,93214,1,0,0:0:0:0:
358,192,93282,1,0,0:0:0:0:
460,192,93282,1,0,0:0:0:0:
256,192,93282,1,0,0:0:0:0:
153,192,93350,1,0,0:0:0:0:
51,192,93418,1,0,0:0:0:0:
358,192,93418,1,0,0:0:0:0:
460,192,93418,1,0,0:0:0:0:
153,192,93486,1,0,0:0:0:0:
256,192,93555,1,0,0:0:0:0:
358,192,93623,1,0,0:0:0:0:
256,192,93691,1,0,0:0:0:0:
153,192,93759,1,0,0:0:0:0:
460,192,93827,1,0,0:0:0:0:
51,192,93827,1,0,0:0:0:0:
358,192,93896,1,0,0:0:0:0:
51,192,93964,1,0,0:0:0:0:
153,192,93964,1,0,0:0:0:0:
256,192,93964,1,0,0:0:0:0:
358,192,94032,1,0,0:0:0:0:
460,192,94100,1,0,0:0:0:0:
358,192,94168,1,0,0:0:0:0:
256,192,94236,1,0,0:0:0:0:
153,192,94305,1,0,0:0:0:0:
51,192,94373,1,0,0:0:0:0:
460,192,94373,1,0,0:0:0:0:
153,192,94441,1,0,0:0:0:0:
256,192,94509,1,0,0:0:0:0:
358,192,94509,1,0,0:0:0:0:
460,192,94509,1,0,0:0:0:0:
153,192,94577,1,0,0:0:0:0:
51,192,94646,1,0,0:0:0:0:
460,192,94714,1,0,0:0:0:0:
51,192,94782,1,0,0:0:0:0:
153,192,94782,1,0,0:0:0:0:
358,192,94782,1,0,0:0:0:0:
256,192,94850,1,0,0:0:0:0:
153,192,94918,1,0,0:0:0:0:
358,192,94918,1,0,0:0:0:0:
460,192,94918,1,0,0:0:0:0:
51,192,94986,1,0,0:0:0:0:
460,192,95055,1,0,0:0:0:0:
358,192,95123,1,0,0:0:0:0:
256,192,95191,1,0,0:0:0:0:
153,192,95259,1,0,0:0:0:0:
51,192,95327,1,0,0:0:0:0:
460,192,95327,1,0,0:0:0:0:
153,192,95396,1,0,0:0:0:0:
256,192,95464,1,0,0:0:0:0:
358,192,95464,1,0,0:0:0:0:
460,192,95464,1,0,0:0:0:0:
153,192,95532,1,0,0:0:0:0:
460,192,95600,128,0,95736:0:0:0:0:
358,192,95600,1,0,0:0:0:0:
51,192,95600,1,0,0:0:0:0:
51,192,95736,128,0,95873:0:0:0:0:
256,192,95736,1,0,0:0:0:0:
153,192,95873,128,0,96009:0:0:0:0:
358,192,95873,1,0,0:0:0:0:
256,192,96009,128,0,96146:0:0:0:0:
460,192,96009,1,0,0:0:0:0:
358,192,96146,1,0,0:0:0:0:
460,192,96146,1,0,0:0:0:0:
153,192,96236,1,0,0:0:0:0:
51,192,96236,1,0,0:0:0:0:
256,192,96327,1,0,0:0:0:0:
358,192,96327,1,0,0:0:0:0:
51,192,96418,1,0,0:0:0:0:
460,192,96418,1,0,0:0:0:0:
153,192,96509,1,0,0:0:0:0:
256,192,96509,1,0,0:0:0:0:
460,192,96600,1,0,0:0:0:0:
358,192,96600,1,0,0:0:0:0:
51,192,96691,128,0,96873:0:0:0:0:
153,192,96691,128,0,96873:0:0:0:0:
256,192,96691,128,0,96873:0:0:0:0:
51,192,96964,1,0,0:0:0:0:
153,192,96964,1,0,0:0:0:0:
460,192,96964,1,0,0:0:0:0:
256,192,97055,1,0,0:0:0:0:
358,192,97055,1,0,0:0:0:0:
51,192,97146,1,0,0:0:0:0:
460,192,97146,1,0,0:0:0:0:
153,192,97236,1,0,0:0:0:0:
256,192,97236,1,0,0:0:0:0:
358,192,97327,1,0,0:0:0:0:
460,192,97327,1,0,0:0:0:0:
51,192,97418,1,0,0:0:0:0:
153,192,97418,1,0,0:0:0:0:
256,192,97509,1,0,0:0:0:0:
460,192,97509,1,0,0:0:0:0:
358,192,97509,1,0,0:0:0:0:
51,192,97600,1,0,0:0:0:0:
153,192,97600,1,0,0:0:0:0:
256,192,97691,1,0,0:0:0:0:
358,192,97691,1,0,0:0:0:0:
51,192,97782,1,0,0:0:0:0:
460,192,97782,1,0,0:0:0:0:
153,192,97782,1,0,0:0:0:0:
256,192,97873,1,0,0:0:0:0:
358,192,97873,1,0,0:0:0:0:
51,192,97964,1,0,0:0:0:0:
153,192,97964,1,0,0:0:0:0:
358,192,98055,1,0,0:0:0:0:
460,192,98055,1,0,0:0:0:0:
256,192,98146,1,0,0:0:0:0:
153,192,98146,1,0,0:0:0:0:
51,192,98236,1,0,0:0:0:0:
460,192,98236,1,0,0:0:0:0:
153,192,98327,1,0,0:0:0:0:
256,192,98327,1,0,0:0:0:0:
358,192,98327,1,0,0:0:0:0:
51,192,98418,1,0,0:0:0:0:
460,192,98418,1,0,0:0:0:0:
153,192,98509,1,0,0:0:0:0:
256,192,98509,1,0,0:0:0:0:
358,192,98600,1,0,0:0:0:0:
460,192,98600,1,0,0:0:0:0:
51,192,98691,1,0,0:0:0:0:
153,192,98691,1,0,0:0:0:0:
358,192,98782,1,0,0:0:0:0:
256,192,98782,1,0,0:0:0:0:
51,192,98873,1,0,0:0:0:0:
153,192,98873,1,0,0:0:0:0:
460,192,98873,1,0,0:0:0:0:
256,192,98964,1,0,0:0:0:0:
358,192,98964,1,0,0:0:0:0:
51,192,99055,1,0,0:0:0:0:
153,192,99055,1,0,0:0:0:0:
358,192,99146,1,0,0:0:0:0:
460,192,99146,1,0,0:0:0:0:
256,192,99146,1,0,0:0:0:0:
153,192,99236,1,0,0:0:0:0:
51,192,99236,1,0,0:0:0:0:
358,192,99327,1,0,0:0:0:0:
460,192,99327,1,0,0:0:0:0:
153,192,99418,1,0,0:0:0:0:
256,192,99418,1,0,0:0:0:0:
51,192,99509,1,0,0:0:0:0:
460,192,99509,1,0,0:0:0:0:
256,192,99600,1,0,0:0:0:0:
358,192,99600,1,0,0:0:0:0:
51,192,99691,1,0,0:0:0:0:
153,192,99691,1,0,0:0:0:0:
460,192,99691,1,0,0:0:0:0:
256,192,99782,1,0,0:0:0:0:
358,192,99782,1,0,0:0:0:0:
460,192,99873,1,0,0:0:0:0:
51,192,99873,1,0,0:0:0:0:
153,192,99964,1,0,0:0:0:0:
256,192,99964,1,0,0:0:0:0:
358,192,99964,1,0,0:0:0:0:
460,192,100055,1,0,0:0:0:0:
51,192,100055,1,0,0:0:0:0:
153,192,100146,1,0,0:0:0:0:
256,192,100146,1,0,0:0:0:0:
358,192,100236,1,0,0:0:0:0:
460,192,100236,1,0,0:0:0:0:
51,192,100327,1,0,0:0:0:0:
153,192,100327,1,0,0:0:0:0:
256,192,100418,1,0,0:0:0:0:
358,192,100418,1,0,0:0:0:0:
51,192,100509,1,0,0:0:0:0:
460,192,100509,1,0,0:0:0:0:
153,192,100509,1,0,0:0:0:0:
358,192,100600,1,0,0:0:0:0:
256,192,100691,1,0,0:0:0:0:
153,192,100691,1,0,0:0:0:0:
51,192,100782,1,0,0:0:0:0:
460,192,100782,1,0,0:0:0:0:
153,192,100873,1,0,0:0:0:0:
256,192,100964,1,0,0:0:0:0:
358,192,100964,1,0,0:0:0:0:
460,192,101055,1,0,0:0:0:0:
51,192,101055,1,0,0:0:0:0:
153,192,101055,1,0,0:0:0:0:
358,192,101089,1,0,0:0:0:0:
256,192,101123,1,0,0:0:0:0:
153,192,101157,1,0,0:0:0:0:
51,192,101191,1,0,0:0:0:0:
51,192,101327,1,0,0:0:0:0:
153,192,101396,1,0,0:0:0:0:
256,192,101464,1,0,0:0:0:0:
358,192,101532,1,0,0:0:0:0:
460,192,101600,1,0,0:0:0:0:
51,192,101668,1,0,0:0:0:0:
153,192,101736,1,0,0:0:0:0:
256,192,101805,1,0,0:0:0:0:
358,192,101873,1,0,0:0:0:0:
460,192,101873,1,0,0:0:0:0:
256,192,101941,1,0,0:0:0:0:
51,192,102009,1,0,0:0:0:0:
153,192,102009,1,0,0:0:0:0:
460,192,102009,1,0,0:0:0:0:
358,192,102077,1,0,0:0:0:0:
51,192,102146,1,0,0:0:0:0:
153,192,102146,1,0,0:0:0:0:
256,192,102146,1,0,0:0:0:0:
358,192,102214,1,0,0:0:0:0:
460,192,102282,1,0,0:0:0:0:
51,192,102350,1,0,0:0:0:0:
153,192,102418,1,0,0:0:0:0:
256,192,102486,1,0,0:0:0:0:
358,192,102555,1,0,0:0:0:0:
460,192,102555,1,0,0:0:0:0:
51,192,102555,1,0,0:0:0:0:
153,192,102623,1,0,0:0:0:0:
256,192,102691,1,0,0:0:0:0:
358,192,102691,1,0,0:0:0:0:
460,192,102691,1,0,0:0:0:0:
51,192,102759,1,0,0:0:0:0:
153,192,102827,1,0,0:0:0:0:
256,192,102896,1,0,0:0:0:0:
358,192,102964,1,0,0:0:0:0:
460,192,103032,1,0,0:0:0:0:
153,192,103100,1,0,0:0:0:0:
51,192,103100,1,0,0:0:0:0:
256,192,103100,1,0,0:0:0:0:
358,192,103168,1,0,0:0:0:0:
460,192,103236,1,0,0:0:0:0:
51,192,103236,1,0,0:0:0:0:
153,192,103236,1,0,0:0:0:0:
256,192,103305,1,0,0:0:0:0:
358,192,103373,1,0,0:0:0:0:
460,192,103441,1,0,0:0:0:0:
51,192,103509,1,0,0:0:0:0:
153,192,103509,1,0,0:0:0:0:
256,192,103577,1,0,0:0:0:0:
358,192,103646,1,0,0:0:0:0:
460,192,103646,1,0,0:0:0:0:
51,192,103646,1,0,0:0:0:0:
153,192,103714,1,0,0:0:0:0:
256,192,103782,1,0,0:0:0:0:
358,192,103850,1,0,0:0:0:0:
460,192,103918,1,0,0:0:0:0:
51,192,103986,1,0,0:0:0:0:
153,192,104055,1,0,0:0:0:0:
256,192,104055,1,0,0:0:0:0:
460,192,104055,128,0,104873:0:0:0:0:
358,192,104055,128,0,104873:0:0:0:0:
51,192,104191,1,0,0:0:0:0:
256,192,104327,1,0,0:0:0:0:
51,192,104327,1,0,0:0:0:0:
153,192,104464,1,0,0:0:0:0:
51,192,104600,1,0,0:0:0:0:
153,192,104736,1,0,0:0:0:0:
51,192,104873,1,0,0:0:0:0:
256,192,104873,1,0,0:0:0:0:
460,192,104964,1,0,0:0:0:0:
153,192,104964,1,0,0:0:0:0:
256,192,105055,1,0,0:0:0:0:
358,192,105055,1,0,0:0:0:0:
51,192,105146,1,0,0:0:0:0:
153,192,105146,1,0,0:0:0:0:
256,192,105236,1,0,0:0:0:0:
460,192,105236,1,0,0:0:0:0:
358,192,105327,1,0,0:0:0:0:
51,192,105327,1,0,0:0:0:0:
256,192,105418,128,0,105691:0:0:0:0:
153,192,105418,128,0,105691:0:0:0:0:
460,192,105418,128,0,105691:0:0:0:0:
358,192,105691,1,0,0:0:0:0:
51,192,105691,1,0,0:0:0:0:
460,192,105964,1,0,0:0:0:0:
358,192,105964,128,0,106032:0:0:0:0:
256,192,106032,128,0,106100:0:0:0:0:
153,192,106100,128,0,106168:0:0:0:0:
51,192,106168,128,0,106236:0:0:0:0:
358,192,106236,128,0,106305:0:0:0:0:
256,192,106305,128,0,106373:0:0:0:0:
153,192,106373,128,0,106441:0:0:0:0:
358,192,106373,1,0,0:0:0:0:
460,192,106373,1,0,0:0:0:0:
51,192,106441,128,0,106509:0:0:0:0:
358,192,106509,128,0,106577:0:0:0:0:
460,192,106509,1,0,0:0:0:0:
256,192,106577,128,0,106646:0:0:0:0:
153,192,106646,128,0,106714:0:0:0:0:
51,192,106714,128,0,106782:0:0:0:0:
460,192,106782,1,0,0:0:0:0:
358,192,106782,1,0,0:0:0:0:
256,192,106782,128,0,106850:0:0:0:0:
153,192,106850,128,0,106918:0:0:0:0:
51,192,106918,128,0,106986:0:0:0:0:
153,192,106986,128,0,107055:0:0:0:0:
460,192,107055,1,0,0:0:0:0:
358,192,107055,128,0,107123:0:0:0:0:
256,192,107123,128,0,107191:0:0:0:0:
153,192,107191,128,0,107259:0:0:0:0:
51,192,107259,128,0,107327:0:0:0:0:
358,192,107327,128,0,107396:0:0:0:0:
256,192,107396,128,0,107464:0:0:0:0:
153,192,107464,128,0,107532:0:0:0:0:
358,192,107464,1,0,0:0:0:0:
460,192,107464,1,0,0:0:0:0:
51,192,107532,128,0,107600:0:0:0:0:
358,192,107600,128,0,107668:0:0:0:0:
460,192,107600,1,0,0:0:0:0:
256,192,107668,128,0,107736:0:0:0:0:
153,192,107736,128,0,107805:0:0:0:0:
51,192,107805,128,0,107873:0:0:0:0:
460,192,107873,1,0,0:0:0:0:
358,192,107873,1,0,0:0:0:0:
256,192,107873,128,0,107941:0:0:0:0:
153,192,107941,128,0,108009:0:0:0:0:
51,192,108009,128,0,108077:0:0:0:0:
153,192,108077,128,0,108146:0:0:0:0:
358,192,108146,128,0,108214:0:0:0:0:
460,192,108146,1,0,0:0:0:0:
256,192,108214,128,0,108282:0:0:0:0:
153,192,108282,128,0,108350:0:0:0:0:
51,192,108350,128,0,108418:0:0:0:0:
256,192,108418,128,0,108486:0:0:0:0:
153,192,108486,128,0,108555:0:0:0:0:
460,192,108555,1,0,0:0:0:0:
358,192,108555,1,0,0:0:0:0:
51,192,108555,128,0,108623:0:0:0:0:
153,192,108623,128,0,108691:0:0:0:0:
460,192,108691,1,0,0:0:0:0:
256,192,108691,128,0,108759:0:0:0:0:
358,192,108759,128,0,108827:0:0:0:0:
256,192,108827,128,0,108896:0:0:0:0:
153,192,108896,128,0,108964:0:0:0:0:
460,192,108964,1,0,0:0:0:0:
51,192,108964,1,0,0:0:0:0:
358,192,108964,128,0,109032:0:0:0:0:
256,192,109032,128,0,109100:0:0:0:0:
153,192,109100,128,0,109168:0:0:0:0:
51,192,109168,128,0,109236:0:0:0:0:
460,192,109236,1,0,0:0:0:0:
358,192,109236,1,0,0:0:0:0:
256,192,109327,1,0,0:0:0:0:
153,192,109327,1,0,0:0:0:0:
51,192,109418,1,0,0:0:0:0:
358,192,109418,1,0,0:0:0:0:
460,192,109509,1,0,0:0:0:0:
153,192,109509,1,0,0:0:0:0:
256,192,109600,1,0,0:0:0:0:
51,192,109600,1,0,0:0:0:0:
460,192,109691,1,0,0:0:0:0:
358,192,109691,1,0,0:0:0:0:
51,192,109782,128,0,110055:0:0:0:0:
256,192,109782,128,0,110055:0:0:0:0:
153,192,109782,128,0,110055:0:0:0:0:
460,192,110055,1,0,0:0:0:0:
358,192,110055,1,0,0:0:0:0:
51,192,110327,1,0,0:0:0:0:
153,192,110327,128,0,110396:0:0:0:0:
256,192,110396,128,0,110464:0:0:0:0:
358,192,110464,128,0,110532:0:0:0:0:
460,192,110532,128,0,110600:0:0:0:0:
153,192,110600,128,0,110668:0:0:0:0:
256,192,110668,128,0,110736:0:0:0:0:
153,192,110736,1,0,0:0:0:0:
51,192,110736,1,0,0:0:0:0:
358,192,110736,128,0,110805:0:0:0:0:
460,192,110805,128,0,110873:0:0:0:0:
153,192,110873,128,0,110941:0:0:0:0:
51,192,110873,1,0,0:0:0:0:
256,192,110941,128,0,111009:0:0:0:0:
358,192,111009,128,0,111077:0:0:0:0:
460,192,111077,128,0,111146:0:0:0:0:
51,192,111146,1,0,0:0:0:0:
153,192,111146,1,0,0:0:0:0:
256,192,111146,128,0,111214:0:0:0:0:
358,192,111214,128,0,111282:0:0:0:0:
460,192,111282,128,0,111350:0:0:0:0:
358,192,111350,128,0,111418:0:0:0:0:
51,192,111418,1,0,0:0:0:0:
153,192,111418,128,0,111486:0:0:0:0:
256,192,111486,128,0,111555:0:0:0:0:
358,192,111555,128,0,111623:0:0:0:0:
460,192,111623,128,0,111691:0:0:0:0:
153,192,111691,128,0,111759:0:0:0:0:
256,192,111759,128,0,111827:0:0:0:0:
358,192,111827,128,0,111896:0:0:0:0:
153,192,111827,1,0,0:0:0:0:
51,192,111827,1,0,0:0:0:0:
460,192,111896,128,0,111964:0:0:0:0:
153,192,111964,128,0,112032:0:0:0:0:
51,192,111964,1,0,0:0:0:0:
256,192,112032,128,0,112100:0:0:0:0:
358,192,112100,128,0,112168:0:0:0:0:
460,192,112168,128,0,112236:0:0:0:0:
51,192,112236,1,0,0:0:0:0:
153,192,112236,1,0,0:0:0:0:
256,192,112236,128,0,112305:0:0:0:0:
358,192,112305,128,0,112373:0:0:0:0:
460,192,112373,128,0,112441:0:0:0:0:
358,192,112441,128,0,112509:0:0:0:0:
153,192,112509,128,0,112577:0:0:0:0:
51,192,112509,1,0,0:0:0:0:
256,192,112577,128,0,112646:0:0:0:0:
358,192,112646,128,0,112714:0:0:0:0:
460,192,112714,128,0,112782:0:0:0:0:
256,192,112782,128,0,112850:0:0:0:0:
358,192,112850,128,0,112918:0:0:0:0:
51,192,112918,1,0,0:0:0:0:
153,192,112918,1,0,0:0:0:0:
460,192,112918,128,0,112986:0:0:0:0:
358,192,112986,128,0,113055:0:0:0:0:
51,192,113055,128,0,113123:0:0:0:0:
153,192,113055,128,0,113123:0:0:0:0:
51,192,113191,128,0,113259:0:0:0:0:
256,192,113191,128,0,113259:0:0:0:0:
51,192,113327,128,0,113396:0:0:0:0:
358,192,113327,128,0,113396:0:0:0:0:
51,192,113464,128,0,113532:0:0:0:0:
153,192,113464,128,0,113532:0:0:0:0:
358,192,113532,128,0,113600:0:0:0:0:
460,192,113532,128,0,113600:0:0:0:0:
256,192,113600,1,0,0:0:0:0:
153,192,113600,1,0,0:0:0:0:
460,192,113691,1,0,0:0:0:0:
51,192,113691,1,0,0:0:0:0:
153,192,113782,1,0,0:0:0:0:
358,192,113782,1,0,0:0:0:0:
256,192,113873,1,0,0:0:0:0:
51,192,113873,1,0,0:0:0:0:
358,192,113964,1,0,0:0:0:0:
460,192,113964,1,0,0:0:0:0:
51,192,114055,1,0,0:0:0:0:
153,192,114055,1,0,0:0:0:0:
256,192,114146,128,0,114418:0:0:0:0:
358,192,114146,128,0,114418:0:0:0:0:
460,192,114146,128,0,114418:0:0:0:0:
51,192,114418,1,0,0:0:0:0:
153,192,114486,1,0,0:0:0:0:
256,192,114555,1,0,0:0:0:0:
358,192,114623,1,0,0:0:0:0:
460,192,114691,1,0,0:0:0:0:
51,192,114691,1,0,0:0:0:0:
153,192,114691,1,0,0:0:0:0:
358,192,114759,1,0,0:0:0:0:
256,192,114827,1,0,0:0:0:0:
153,192,114896,1,0,0:0:0:0:
460,192,114964,1,0,0:0:0:0:
51,192,114964,1,0,0:0:0:0:
358,192,115032,1,0,0:0:0:0:
256,192,115100,1,0,0:0:0:0:
153,192,115100,1,0,0:0:0:0:
51,192,115100,1,0,0:0:0:0:
460,192,115236,1,0,0:0:0:0:
358,192,115236,1,0,0:0:0:0:
51,192,115236,1,0,0:0:0:0:
153,192,115305,1,0,0:0:0:0:
256,192,115373,1,0,0:0:0:0:
358,192,115441,1,0,0:0:0:0:
460,192,115509,1,0,0:0:0:0:
51,192,115509,1,0,0:0:0:0:
153,192,115509,1,0,0:0:0:0:
358,192,115577,1,0,0:0:0:0:
256,192,115646,1,0,0:0:0:0:
153,192,115714,1,0,0:0:0:0:
460,192,115782,1,0,0:0:0:0:
51,192,115782,1,0,0:0:0:0:
358,192,115782,1,0,0:0:0:0:
153,192,115850,1,0,0:0:0:0:
256,192,115918,1,0,0:0:0:0:
358,192,115986,1,0,0:0:0:0:
460,192,116055,1,0,0:0:0:0:
51,192,116055,1,0,0:0:0:0:
153,192,116123,1,0,0:0:0:0:
256,192,116191,1,0,0:0:0:0:
358,192,116191,1,0,0:0:0:0:
460,192,116191,1,0,0:0:0:0:
460,192,116327,1,0,0:0:0:0:
153,192,116327,1,0,0:0:0:0:
51,192,116327,1,0,0:0:0:0:
358,192,116396,1,0,0:0:0:0:
256,192,116464,1,0,0:0:0:0:
153,192,116532,1,0,0:0:0:0:
460,192,116600,1,0,0:0:0:0:
51,192,116600,1,0,0:0:0:0:
358,192,116600,1,0,0:0:0:0:
153,192,116668,1,0,0:0:0:0:
256,192,116736,1,0,0:0:0:0:
358,192,116805,1,0,0:0:0:0:
153,192,116873,1,0,0:0:0:0:
51,192,116873,1,0,0:0:0:0:
460,192,116873,1,0,0:0:0:0:
358,192,116941,1,0,0:0:0:0:
256,192,117009,1,0,0:0:0:0:
153,192,117077,1,0,0:0:0:0:
51,192,117146,1,0,0:0:0:0:
460,192,117146,1,0,0:0:0:0:
358,192,117214,1,0,0:0:0:0:
51,192,117282,1,0,0:0:0:0:
153,192,117282,1,0,0:0:0:0:
256,192,117282,1,0,0:0:0:0:
51,192,117418,1,0,0:0:0:0:
358,192,117418,1,0,0:0:0:0:
460,192,117418,1,0,0:0:0:0:
153,192,117486,1,0,0:0:0:0:
256,192,117555,1,0,0:0:0:0:
358,192,117623,1,0,0:0:0:0:
153,192,117691,1,0,0:0:0:0:
51,192,117691,1,0,0:0:0:0:
460,192,117691,1,0,0:0:0:0:
358,192,117759,1,0,0:0:0:0:
256,192,117827,1,0,0:0:0:0:
153,192,117896,1,0,0:0:0:0:
460,192,117964,1,0,0:0:0:0:
51,192,117964,1,0,0:0:0:0:
358,192,117998,1,0,0:0:0:0:
256,192,118032,1,0,0:0:0:0:
51,192,118100,1,0,0:0:0:0:
153,192,118100,1,0,0:0:0:0:
358,192,118168,1,0,0:0:0:0:
460,192,118168,1,0,0:0:0:0:
51,192,118236,1,0,0:0:0:0:
153,192,118271,1,0,0:0:0:0:
256,192,118305,1,0,0:0:0:0:
358,192,118373,1,0,0:0:0:0:
460,192,118373,1,0,0:0:0:0:
51,192,118441,1,0,0:0:0:0:
153,192,118441,1,0,0:0:0:0:
460,192,118509,1,0,0:0:0:0:
358,192,118543,1,0,0:0:0:0:
256,192,118577,1,0,0:0:0:0:
153,192,118646,1,0,0:0:0:0:
51,192,118646,1,0,0:0:0:0:
358,192,118714,1,0,0:0:0:0:
460,192,118714,1,0,0:0:0:0:
51,192,118782,1,0,0:0:0:0:
153,192,118816,1,0,0:0:0:0:
256,192,118850,1,0,0:0:0:0:
460,192,118918,1,0,0:0:0:0:
358,192,118918,1,0,0:0:0:0:
153,192,118986,1,0,0:0:0:0:
51,192,118986,1,0,0:0:0:0:
460,192,119055,1,0,0:0:0:0:
358,192,119089,1,0,0:0:0:0:
256,192,119123,1,0,0:0:0:0:
153,192,119191,1,0,0:0:0:0:
51,192,119191,1,0,0:0:0:0:
358,192,119259,1,0,0:0:0:0:
460,192,119259,1,0,0:0:0:0:
51,192,119327,1,0,0:0:0:0:
153,192,119361,1,0,0:0:0:0:
256,192,119396,1,0,0:0:0:0:
358,192,119464,1,0,0:0:0:0:
460,192,119464,1,0,0:0:0:0:
153,192,119532,1,0,0:0:0:0:
51,192,119532,1,0,0:0:0:0:
460,192,119600,1,0,0:0:0:0:
358,192,119634,1,0,0:0:0:0:
256,192,119668,1,0,0:0:0:0:
153,192,119736,1,0,0:0:0:0:
51,192,119736,1,0,0:0:0:0:
460,192,119805,1,0,0:0:0:0:
358,192,119805,1,0,0:0:0:0:
51,192,119873,1,0,0:0:0:0:
153,192,119907,1,0,0:0:0:0:
256,192,119941,1,0,0:0:0:0:
460,192,120009,1,0,0:0:0:0:
358,192,120009,1,0,0:0:0:0:
153,192,120077,1,0,0:0:0:0:
51,192,120077,1,0,0:0:0:0:
460,192,120146,1,0,0:0:0:0:
358,192,120180,1,0,0:0:0:0:
256,192,120214,1,0,0:0:0:0:
153,192,120248,1,0,0:0:0:0:
51,192,120282,1,0,0:0:0:0:
460,192,120282,1,0,0:0:0:0:
358,192,120316,1,0,0:0:0:0:
256,192,120350,1,0,0:0:0:0:
153,192,120384,1,0,0:0:0:0:
51,192,120418,1,0,0:0:0:0:
460,192,120418,1,0,0:0:0:0:
358,192,120452,1,0,0:0:0:0:
256,192,120486,1,0,0:0:0:0:
153,192,120521,1,0,0:0:0:0:
51,192,120555,1,0,0:0:0:0:
460,192,120555,1,0,0:0:0:0:
358,192,120589,1,0,0:0:0:0:
256,192,120623,1,0,0:0:0:0:
153,192,120657,1,0,0:0:0:0:
51,192,120691,1,0,0:0:0:0:
460,192,120691,1,0,0:0:0:0:
153,192,120725,1,0,0:0:0:0:
256,192,120759,1,0,0:0:0:0:
358,192,120793,1,0,0:0:0:0:
460,192,120827,1,0,0:0:0:0:
51,192,120827,1,0,0:0:0:0:
153,192,120861,1,0,0:0:0:0:
256,192,120896,1,0,0:0:0:0:
358,192,120930,1,0,0:0:0:0:
460,192,120964,1,0,0:0:0:0:
51,192,120964,1,0,0:0:0:0:
153,192,120998,1,0,0:0:0:0:
256,192,121032,1,0,0:0:0:0:
358,192,121066,1,0,0:0:0:0:
460,192,121100,1,0,0:0:0:0:
51,192,121100,1,0,0:0:0:0:
153,192,121134,1,0,0:0:0:0:
256,192,121168,1,0,0:0:0:0:
358,192,121202,1,0,0:0:0:0:
460,192,121236,1,0,0:0:0:0:
51,192,121236,1,0,0:0:0:0:
358,192,121271,1,0,0:0:0:0:
256,192,121305,1,0,0:0:0:0:
153,192,121339,1,0,0:0:0:0:
51,192,121373,1,0,0:0:0:0:
460,192,121373,1,0,0:0:0:0:
358,192,121407,1,0,0:0:0:0:
256,192,121441,1,0,0:0:0:0:
153,192,121475,1,0,0:0:0:0:
460,192,121509,1,0,0:0:0:0:
51,192,121509,1,0,0:0:0:0:
358,192,121543,1,0,0:0:0:0:
256,192,121577,1,0,0:0:0:0:
153,192,121611,1,0,0:0:0:0:
460,192,121646,1,0,0:0:0:0:
51,192,121646,1,0,0:0:0:0:
358,192,121680,1,0,0:0:0:0:
256,192,121714,1,0,0:0:0:0:
153,192,121748,1,0,0:0:0:0:
51,192,121782,1,0,0:0:0:0:
460,192,121782,1,0,0:0:0:0:
153,192,121918,1,0,0:0:0:0:
256,192,121918,1,0,0:0:0:0:
358,192,121918,1,0,0:0:0:0:
51,192,122055,1,0,0:0:0:0:
460,192,122055,1,0,0:0:0:0:
153,192,122191,1,0,0:0:0:0:
358,192,122191,1,0,0:0:0:0:
256,192,122191,1,0,0:0:0:0:
51,192,122327,128,0,124509:0:0:0:0:
460,192,122327,128,0,125464:0:0:0:0:
153,192,122327,1,0,0:0:0:0:
358,192,122327,1,0,0:0:0:0:
358,192,124100,128,0,126691:0:0:0:0:
256,192,124305,128,0,126691:0:0:0:0:
153,192,124509,128,0,126691:0:0:0:0:
460,192,125736,128,0,126691:0:0:0:0:
51,192,126827,128,0,129964:0:0:0:0:
153,192,126827,128,0,131055:0:0:0:0:
256,192,126827,128,0,127782:0:0:0:0:
460,192,129009,128,0,137600:0:0:0:0:
358,192,129964,128,0,131055:0:0:0:0:
51,192,131055,128,0,133236:0:0:0:0:
256,192,131055,128,0,132146:0:0:0:0:
358,192,132146,128,0,133236:0:0:0:0:
153,192,133236,128,0,134327:0:0:0:0:
256,192,133236,128,0,137600:0:0:0:0:
51,192,134327,128,0,139646:0:0:0:0:
358,192,135555,128,0,137600:0:0:0:0:
153,192,137600,128,0,139646:0:0:0:0:
256,192,138146,128,0,139646:0:0:0:0:
358,192,138691,128,0,139646:0:0:0:0:
460,192,139236,128,0,139646:0:0:0:0:
51,192,139782,1,0,0:0:0:0:
153,192,139918,1,0,0:0:0:0:
256,192,140055,1,0,0:0:0:0:
358,192,140191,1,0,0:0:0:0:
460,192,140327,1,0,0:0:0:0:
358,192,140464,1,0,0:0:0:0:
153,192,140600,1,0,0:0:0:0:
256,192,140736,1,0,0:0:0:0:
51,192,140873,1,0,0:0:0:0:
358,192,141009,1,0,0:0:0:0:
460,192,141146,1,0,0:0:0:0:
358,192,141282,1,0,0:0:0:0:
256,192,141418,1,0,0:0:0:0:
153,192,141555,1,0,0:0:0:0:
51,192,141691,1,0,0:0:0:0:
153,192,141827,1,0,0:0:0:0:
256,192,141964,1,0,0:0:0:0:
153,192,142100,1,0,0:0:0:0:
51,192,142236,1,0,0:0:0:0:
153,192,142373,1,0,0:0:0:0:
256,192,142509,1,0,0:0:0:0:
153,192,142646,1,0,0:0:0:0:
256,192,142782,1,0,0:0:0:0:
358,192,142918,1,0,0:0:0:0:
460,192,143055,1,0,0:0:0:0:
358,192,143191,1,0,0:0:0:0:
256,192,143327,1,0,0:0:0:0:
358,192,143464,1,0,0:0:0:0:
153,192,143600,1,0,0:0:0:0:
51,192,143736,1,0,0:0:0:0:
358,192,143873,1,0,0:0:0:0:
256,192,144009,1,0,0:0:0:0:
153,192,144146,1,0,0:0:0:0:
51,192,144282,1,0,0:0:0:0:
460,192,144418,1,0,0:0:0:0:
256,192,144555,1,0,0:0:0:0:
51,192,144691,1,0,0:0:0:0:
153,192,144827,1,0,0:0:0:0:
460,192,144964,1,0,0:0:0:0:
358,192,145100,1,0,0:0:0:0:
256,192,145236,1,0,0:0:0:0:
153,192,145373,1,0,0:0:0:0:
51,192,145509,1,0,0:0:0:0:
256,192,145646,1,0,0:0:0:0:
358,192,145782,1,0,0:0:0:0:
153,192,145918,1,0,0:0:0:0:
51,192,146055,1,0,0:0:0:0:
358,192,146191,1,0,0:0:0:0:
460,192,146327,1,0,0:0:0:0:
358,192,146464,1,0,0:0:0:0:
153,192,146600,1,0,0:0:0:0:
51,192,146736,1,0,0:0:0:0:
153,192,146873,1,0,0:0:0:0:
256,192,147009,1,0,0:0:0:0:
358,192,147146,1,0,0:0:0:0:
256,192,147282,1,0,0:0:0:0:
51,192,147418,1,0,0:0:0:0:
153,192,147555,1,0,0:0:0:0:
51,192,147691,1,0,0:0:0:0:
358,192,147827,1,0,0:0:0:0:
256,192,147964,1,0,0:0:0:0:
153,192,148100,1,0,0:0:0:0:
358,192,148236,1,0,0:0:0:0:
51,192,148373,1,0,0:0:0:0:
256,192,148509,1,0,0:0:0:0:
51,192,148646,1,0,0:0:0:0:
153,192,148782,1,0,0:0:0:0:
256,192,148918,1,0,0:0:0:0:
153,192,149055,1,0,0:0:0:0:
256,192,149191,1,0,0:0:0:0:
358,192,149327,1,0,0:0:0:0:
460,192,149464,1,0,0:0:0:0:
358,192,149600,1,0,0:0:0:0:
51,192,149736,1,0,0:0:0:0:
153,192,149873,1,0,0:0:0:0:
358,192,150009,1,0,0:0:0:0:
256,192,150146,1,0,0:0:0:0:
153,192,150282,1,0,0:0:0:0:
460,192,150418,1,0,0:0:0:0:
51,192,150555,1,0,0:0:0:0:
153,192,150691,1,0,0:0:0:0:
358,192,150827,1,0,0:0:0:0:
51,192,150964,1,0,0:0:0:0:
153,192,151100,1,0,0:0:0:0:
256,192,151236,1,0,0:0:0:0:
358,192,151373,1,0,0:0:0:0:
153,192,151509,1,0,0:0:0:0:
256,192,151646,1,0,0:0:0:0:
51,192,151782,1,0,0:0:0:0:
358,192,151918,1,0,0:0:0:0:
256,192,152055,1,0,0:0:0:0:
51,192,152191,1,0,0:0:0:0:
460,192,152327,1,0,0:0:0:0:
256,192,152464,1,0,0:0:0:0:
358,192,152600,1,0,0:0:0:0:
153,192,152736,1,0,0:0:0:0:
460,192,152873,1,0,0:0:0:0:
51,192,153009,1,0,0:0:0:0:
358,192,153146,1,0,0:0:0:0:
153,192,153282,1,0,0:0:0:0:
256,192,153418,1,0,0:0:0:0:
51,192,153555,1,0,0:0:0:0:
153,192,153691,1,0,0:0:0:0:
256,192,153827,1,0,0:0:0:0:
358,192,153964,1,0,0:0:0:0:
51,192,154100,1,0,0:0:0:0:
153,192,154236,1,0,0:0:0:0:
51,192,154373,1,0,0:0:0:0:
256,192,154509,1,0,0:0:0:0:
153,192,154646,1,0,0:0:0:0:
358,192,154782,1,0,0:0:0:0:
256,192,154918,1,0,0:0:0:0:
51,192,155055,1,0,0:0:0:0:
153,192,155464,1,0,0:0:0:0:
51,192,155464,1,0,0:0:0:0:
358,192,155600,1,0,0:0:0:0:
256,192,155600,1,0,0:0:0:0:
51,192,157236,128,0,157509:0:0:0:0:
256,192,157236,1,0,0:0:0:0:
358,192,157236,1,0,0:0:0:0:
358,192,157475,1,0,0:0:0:0:
460,192,157509,128,0,157782:0:0:0:0:
256,192,157748,1,0,0:0:0:0:
358,192,157782,128,0,158055:0:0:0:0:
153,192,158021,1,0,0:0:0:0:
256,192,158055,128,0,158327:0:0:0:0:
51,192,158293,1,0,0:0:0:0:
153,192,158327,128,0,158600:0:0:0:0:
358,192,158600,128,0,158873:0:0:0:0:
460,192,158600,1,0,0:0:0:0:
256,192,158839,1,0,0:0:0:0:
153,192,158873,128,0,159146:0:0:0:0:
358,192,159111,1,0,0:0:0:0:
460,192,159146,128,0,159418:0:0:0:0:
256,192,159384,1,0,0:0:0:0:
358,192,159418,128,0,159691:0:0:0:0:
51,192,159418,1,0,0:0:0:0:
256,192,159657,1,0,0:0:0:0:
153,192,159691,128,0,159964:0:0:0:0:
358,192,159930,1,0,0:0:0:0:
51,192,159964,128,0,160236:0:0:0:0:
460,192,160202,1,0,0:0:0:0:
256,192,160236,128,0,160509:0:0:0:0:
153,192,160236,1,0,0:0:0:0:
358,192,160475,1,0,0:0:0:0:
460,192,160509,128,0,160782:0:0:0:0:
256,192,160748,1,0,0:0:0:0:
358,192,160782,128,0,161055:0:0:0:0:
51,192,160782,1,0,0:0:0:0:
256,192,161021,1,0,0:0:0:0:
153,192,161055,128,0,161327:0:0:0:0:
51,192,161191,1,0,0:0:0:0:
460,192,161191,1,0,0:0:0:0:
358,192,161293,1,0,0:0:0:0:
256,192,161327,128,0,161600:0:0:0:0:
358,192,161464,1,0,0:0:0:0:
460,192,161464,1,0,0:0:0:0:
153,192,161566,1,0,0:0:0:0:
51,192,161600,128,0,161873:0:0:0:0:
460,192,161600,1,0,0:0:0:0:
358,192,161839,1,0,0:0:0:0:
460,192,161873,128,0,162146:0:0:0:0:
256,192,162111,1,0,0:0:0:0:
358,192,162146,128,0,162418:0:0:0:0:
153,192,162384,1,0,0:0:0:0:
256,192,162418,128,0,162691:0:0:0:0:
51,192,162657,1,0,0:0:0:0:
153,192,162691,128,0,162964:0:0:0:0:
358,192,162964,128,0,163236:0:0:0:0:
460,192,162964,1,0,0:0:0:0:
256,192,163202,1,0,0:0:0:0:
153,192,163236,128,0,163509:0:0:0:0:
358,192,163475,1,0,0:0:0:0:
256,192,163509,128,0,163782:0:0:0:0:
460,192,163748,1,0,0:0:0:0:
358,192,163782,128,0,164055:0:0:0:0:
51,192,163782,1,0,0:0:0:0:
256,192,164021,1,0,0:0:0:0:
153,192,164055,128,0,164327:0:0:0:0:
358,192,164293,1,0,0:0:0:0:
51,192,164327,128,0,164600:0:0:0:0:
460,192,164566,1,0,0:0:0:0:
256,192,164600,128,0,164873:0:0:0:0:
358,192,164839,1,0,0:0:0:0:
460,192,164873,128,0,165009:0:0:0:0:
153,192,164975,1,0,0:0:0:0:
51,192,165009,128,0,165146:0:0:0:0:
256,192,165111,1,0,0:0:0:0:
153,192,165146,128,0,165282:0:0:0:0:
358,192,165248,1,0,0:0:0:0:
256,192,165282,128,0,165418:0:0:0:0:
460,192,165384,1,0,0:0:0:0:
358,192,165418,128,0,165555:0:0:0:0:
153,192,165521,1,0,0:0:0:0:
256,192,165555,128,0,165691:0:0:0:0:
51,192,165657,1,0,0:0:0:0:
153,192,165691,128,0,165827:0:0:0:0:
460,192,165691,1,0,0:0:0:0:
358,192,165827,1,0,0:0:0:0:
460,192,165827,1,0,0:0:0:0:
51,192,165827,1,0,0:0:0:0:
51,192,165964,128,0,166236:0:0:0:0:
256,192,165964,1,0,0:0:0:0:
358,192,165964,1,0,0:0:0:0:
358,192,166202,1,0,0:0:0:0:
460,192,166236,128,0,166509:0:0:0:0:
256,192,166475,1,0,0:0:0:0:
358,192,166509,128,0,166782:0:0:0:0:
153,192,166748,1,0,0:0:0:0:
256,192,166782,128,0,167055:0:0:0:0:
51,192,167021,1,0,0:0:0:0:
153,192,167055,128,0,167327:0:0:0:0:
358,192,167327,128,0,167600:0:0:0:0:
460,192,167327,1,0,0:0:0:0:
256,192,167566,1,0,0:0:0:0:
153,192,167600,128,0,167873:0:0:0:0:
358,192,167839,1,0,0:0:0:0:
460,192,167873,128,0,168146:0:0:0:0:
256,192,168111,1,0,0:0:0:0:
358,192,168146,128,0,168418:0:0:0:0:
51,192,168146,1,0,0:0:0:0:
256,192,168384,1,0,0:0:0:0:
153,192,168418,128,0,168691:0:0:0:0:
358,192,168657,1,0,0:0:0:0:
51,192,168691,128,0,168964:0:0:0:0:
460,192,168930,1,0,0:0:0:0:
256,192,168964,128,0,169236:0:0:0:0:
153,192,168964,1,0,0:0:0:0:
358,192,169202,1,0,0:0:0:0:
460,192,169236,128,0,169509:0:0:0:0:
256,192,169475,1,0,0:0:0:0:
358,192,169509,128,0,169782:0:0:0:0:
51,192,169509,1,0,0:0:0:0:
256,192,169748,1,0,0:0:0:0:
153,192,169782,128,0,170055:0:0:0:0:
51,192,169918,1,0,0:0:0:0:
460,192,169918,1,0,0:0:0:0:
358,192,170021,1,0,0:0:0:0:
256,192,170055,128,0,170327:0:0:0:0:
358,192,170191,1,0,0:0:0:0:
460,192,170191,1,0,0:0:0:0:
153,192,170293,1,0,0:0:0:0:
51,192,170327,128,0,170600:0:0:0:0:
460,192,170327,1,0,0:0:0:0:
358,192,170566,1,0,0:0:0:0:
460,192,170600,128,0,170873:0:0:0:0:
256,192,170839,1,0,0:0:0:0:
358,192,170873,128,0,171146:0:0:0:0:
153,192,171111,1,0,0:0:0:0:
256,192,171146,128,0,171418:0:0:0:0:
51,192,171384,1,0,0:0:0:0:
153,192,171418,128,0,171691:0:0:0:0:
358,192,171691,128,0,171964:0:0:0:0:
460,192,171691,1,0,0:0:0:0:
153,192,171930,1,0,0:0:0:0:
256,192,171964,128,0,172236:0:0:0:0:
460,192,172202,1,0,0:0:0:0:
358,192,172236,128,0,172509:0:0:0:0:
460,192,172509,128,0,172782:0:0:0:0:
51,192,172509,1,0,0:0:0:0:
153,192,172509,1,0,0:0:0:0:
256,192,172748,1,0,0:0:0:0:
358,192,172782,128,0,173055:0:0:0:0:
153,192,173021,1,0,0:0:0:0:
256,192,173055,128,0,173327:0:0:0:0:
51,192,173293,1,0,0:0:0:0:
358,192,173327,128,0,173600:0:0:0:0:
51,192,173600,5,0,0:0:0:0:
153,192,173600,1,0,0:0:0:0:
460,192,173668,1,0,0:0:0:0:
358,192,173668,1,0,0:0:0:0:
51,192,173736,1,0,0:0:0:0:
153,192,173736,1,0,0:0:0:0:
256,192,173736,1,0,0:0:0:0:
256,192,173873,1,0,0:0:0:0:
153,192,173873,1,0,0:0:0:0:
51,192,173873,1,0,0:0:0:0:
358,192,174009,1,0,0:0:0:0:
460,192,174009,1,0,0:0:0:0:
153,192,174077,1,0,0:0:0:0:
256,192,174077,1,0,0:0:0:0:
460,192,174146,1,0,0:0:0:0:
358,192,174146,1,0,0:0:0:0:
51,192,174146,1,0,0:0:0:0:
358,192,174282,1,0,0:0:0:0:
460,192,174282,1,0,0:0:0:0:
51,192,174282,1,0,0:0:0:0:
460,192,174418,1,0,0:0:0:0:
256,192,174418,1,0,0:0:0:0:
153,192,174486,1,0,0:0:0:0:
358,192,174486,1,0,0:0:0:0:
256,192,174555,1,0,0:0:0:0:
51,192,174555,1,0,0:0:0:0:
153,192,174623,1,0,0:0:0:0:
358,192,174623,1,0,0:0:0:0:
256,192,174691,1,0,0:0:0:0:
460,192,174691,1,0,0:0:0:0:
51,192,174691,128,0,174827:0:0:0:0:
153,192,174827,1,0,0:0:0:0:
358,192,174964,1,0,0:0:0:0:
460,192,174964,128,0,175100:0:0:0:0:
51,192,175100,1,0,0:0:0:0:
153,192,175100,1,0,0:0:0:0:
153,192,175236,1,0,0:0:0:0:
460,192,175236,1,0,0:0:0:0:
256,192,175236,128,0,175373:0:0:0:0:
51,192,175373,1,0,0:0:0:0:
358,192,175509,1,0,0:0:0:0:
153,192,175509,128,0,175646:0:0:0:0:
256,192,175646,1,0,0:0:0:0:
460,192,175714,1,0,0:0:0:0:
358,192,175782,1,0,0:0:0:0:
51,192,175782,128,0,175918:0:0:0:0:
153,192,175918,1,0,0:0:0:0:
51,192,176055,1,0,0:0:0:0:
460,192,176055,1,0,0:0:0:0:
256,192,176055,128,0,176191:0:0:0:0:
358,192,176191,1,0,0:0:0:0:
460,192,176259,1,0,0:0:0:0:
153,192,176327,1,0,0:0:0:0:
358,192,176327,1,0,0:0:0:0:
51,192,176327,128,0,176464:0:0:0:0:
256,192,176464,1,0,0:0:0:0:
153,192,176600,1,0,0:0:0:0:
460,192,176600,128,0,176736:0:0:0:0:
51,192,176668,1,0,0:0:0:0:
256,192,176736,1,0,0:0:0:0:
153,192,176805,1,0,0:0:0:0:
256,192,176873,1,0,0:0:0:0:
460,192,176873,1,0,0:0:0:0:
358,192,176873,128,0,177009:0:0:0:0:
51,192,177009,1,0,0:0:0:0:
358,192,177146,1,0,0:0:0:0:
153,192,177146,128,0,177282:0:0:0:0:
256,192,177282,1,0,0:0:0:0:
51,192,177282,1,0,0:0:0:0:
460,192,177418,1,0,0:0:0:0:
153,192,177418,1,0,0:0:0:0:
51,192,177418,128,0,177555:0:0:0:0:
256,192,177555,1,0,0:0:0:0:
358,192,177691,1,0,0:0:0:0:
153,192,177691,128,0,177827:0:0:0:0:
51,192,177827,1,0,0:0:0:0:
358,192,177896,1,0,0:0:0:0:
153,192,177964,1,0,0:0:0:0:
460,192,177964,128,0,178100:0:0:0:0:
51,192,178100,1,0,0:0:0:0:
358,192,178236,1,0,0:0:0:0:
153,192,178236,1,0,0:0:0:0:
256,192,178236,128,0,178373:0:0:0:0:
460,192,178373,1,0,0:0:0:0:
358,192,178441,1,0,0:0:0:0:
153,192,178509,1,0,0:0:0:0:
256,192,178509,1,0,0:0:0:0:
51,192,178509,128,0,178646:0:0:0:0:
460,192,178646,1,0,0:0:0:0:
153,192,178782,1,0,0:0:0:0:
358,192,178782,128,0,178918:0:0:0:0:
51,192,178850,1,0,0:0:0:0:
460,192,178918,1,0,0:0:0:0:
153,192,178986,1,0,0:0:0:0:
256,192,179055,1,0,0:0:0:0:
51,192,179055,128,0,179191:0:0:0:0:
153,192,179191,1,0,0:0:0:0:
358,192,179327,1,0,0:0:0:0:
460,192,179327,128,0,179464:0:0:0:0:
51,192,179464,1,0,0:0:0:0:
153,192,179464,1,0,0:0:0:0:
153,192,179600,1,0,0:0:0:0:
460,192,179600,1,0,0:0:0:0:
256,192,179600,128,0,179736:0:0:0:0:
51,192,179736,1,0,0:0:0:0:
358,192,179873,1,0,0:0:0:0:
153,192,179873,128,0,180009:0:0:0:0:
256,192,180009,1,0,0:0:0:0:
460,192,180077,1,0,0:0:0:0:
358,192,180146,1,0,0:0:0:0:
51,192,180146,128,0,180282:0:0:0:0:
153,192,180282,1,0,0:0:0:0:
51,192,180418,1,0,0:0:0:0:
460,192,180418,1,0,0:0:0:0:
256,192,180418,128,0,180555:0:0:0:0:
358,192,180555,1,0,0:0:0:0:
460,192,180623,1,0,0:0:0:0:
153,192,180691,1,0,0:0:0:0:
358,192,180691,1,0,0:0:0:0:
51,192,180691,128,0,180827:0:0:0:0:
256,192,180827,1,0,0:0:0:0:
153,192,180964,1,0,0:0:0:0:
358,192,180964,128,0,181100:0:0:0:0:
51,192,181032,1,0,0:0:0:0:
460,192,181100,1,0,0:0:0:0:
153,192,181168,1,0,0:0:0:0:
256,192,181236,1,0,0:0:0:0:
358,192,181236,1,0,0:0:0:0:
460,192,181236,128,0,181373:0:0:0:0:
51,192,181373,1,0,0:0:0:0:
153,192,181509,1,0,0:0:0:0:
358,192,181509,128,0,181646:0:0:0:0:
256,192,181646,1,0,0:0:0:0:
460,192,181646,1,0,0:0:0:0:
460,192,181782,1,0,0:0:0:0:
358,192,181782,1,0,0:0:0:0:
51,192,181782,128,0,181918:0:0:0:0:
256,192,181918,1,0,0:0:0:0:
358,192,182055,1,0,0:0:0:0:
153,192,182055,128,0,182191:0:0:0:0:
51,192,182191,1,0,0:0:0:0:
358,192,182259,1,0,0:0:0:0:
153,192,182327,1,0,0:0:0:0:
460,192,182327,128,0,182464:0:0:0:0:
256,192,182464,1,0,0:0:0:0:
51,192,182464,128,0,182600:0:0:0:0:
358,192,182600,1,0,0:0:0:0:
460,192,182600,1,0,0:0:0:0:
153,192,182600,128,0,182736:0:0:0:0:
358,192,182736,1,0,0:0:0:0:
256,192,182736,128,0,182873:0:0:0:0:
51,192,182873,1,0,0:0:0:0:
153,192,182873,1,0,0:0:0:0:
460,192,182873,128,0,183009:0:0:0:0:
358,192,183009,128,0,183146:0:0:0:0:
256,192,183009,1,0,0:0:0:0:
460,192,183146,1,0,0:0:0:0:
153,192,183146,128,0,183282:0:0:0:0:
358,192,183282,1,0,0:0:0:0:
51,192,183282,1,0,0:0:0:0:
460,192,183350,1,0,0:0:0:0:
51,192,183418,1,0,0:0:0:0:
153,192,183418,1,0,0:0:0:0:
256,192,183486,1,0,0:0:0:0:
358,192,183521,1,0,0:0:0:0:
460,192,183555,1,0,0:0:0:0:
51,192,183555,1,0,0:0:0:0:
153,192,183623,1,0,0:0:0:0:
256,192,183657,1,0,0:0:0:0:
460,192,183691,1,0,0:0:0:0:
358,192,183691,1,0,0:0:0:0:
51,192,183759,1,0,0:0:0:0:
153,192,183793,1,0,0:0:0:0:
256,192,183827,1,0,0:0:0:0:
358,192,183827,1,0,0:0:0:0:
460,192,183896,1,0,0:0:0:0:
51,192,183930,1,0,0:0:0:0:
153,192,183964,1,0,0:0:0:0:
256,192,183964,1,0,0:0:0:0:
358,192,184032,1,0,0:0:0:0:
460,192,184066,1,0,0:0:0:0:
51,192,184100,1,0,0:0:0:0:
153,192,184100,1,0,0:0:0:0:
256,192,184168,1,0,0:0:0:0:
358,192,184202,1,0,0:0:0:0:
460,192,184236,1,0,0:0:0:0:
51,192,184236,1,0,0:0:0:0:
153,192,184305,1,0,0:0:0:0:
256,192,184339,1,0,0:0:0:0:
460,192,184373,1,0,0:0:0:0:
358,192,184373,1,0,0:0:0:0:
51,192,184441,1,0,0:0:0:0:
153,192,184475,1,0,0:0:0:0:
256,192,184509,1,0,0:0:0:0:
358,192,184509,1,0,0:0:0:0:
460,192,184577,1,0,0:0:0:0:
51,192,184611,1,0,0:0:0:0:
153,192,184646,1,0,0:0:0:0:
256,192,184646,1,0,0:0:0:0:
358,192,184714,1,0,0:0:0:0:
460,192,184748,1,0,0:0:0:0:
51,192,184782,1,0,0:0:0:0:
153,192,184782,1,0,0:0:0:0:
256,192,184850,1,0,0:0:0:0:
358,192,184884,1,0,0:0:0:0:
460,192,184918,1,0,0:0:0:0:
51,192,184918,1,0,0:0:0:0:
153,192,184986,1,0,0:0:0:0:
256,192,185021,1,0,0:0:0:0:
358,192,185055,1,0,0:0:0:0:
460,192,185055,1,0,0:0:0:0:
51,192,185123,1,0,0:0:0:0:
153,192,185157,1,0,0:0:0:0:
358,192,185191,1,0,0:0:0:0:
256,192,185191,1,0,0:0:0:0:
460,192,185259,1,0,0:0:0:0:
51,192,185293,1,0,0:0:0:0:
256,192,185327,1,0,0:0:0:0:
153,192,185327,1,0,0:0:0:0:
358,192,185396,1,0,0:0:0:0:
460,192,185430,1,0,0:0:0:0:
153,192,185464,1,0,0:0:0:0:
51,192,185464,1,0,0:0:0:0:
256,192,185532,1,0,0:0:0:0:
358,192,185566,1,0,0:0:0:0:
51,192,185600,1,0,0:0:0:0:
460,192,185600,1,0,0:0:0:0:
153,192,185668,1,0,0:0:0:0:
256,192,185702,1,0,0:0:0:0:
460,192,185736,1,0,0:0:0:0:
358,192,185736,1,0,0:0:0:0:
51,192,185805,1,0,0:0:0:0:
153,192,185839,1,0,0:0:0:0:
256,192,185873,1,0,0:0:0:0:
358,192,185873,1,0,0:0:0:0:
460,192,185941,1,0,0:0:0:0:
51,192,185975,1,0,0:0:0:0:
153,192,186009,1,0,0:0:0:0:
256,192,186009,1,0,0:0:0:0:
358,192,186077,1,0,0:0:0:0:
460,192,186111,1,0,0:0:0:0:
51,192,186146,1,0,0:0:0:0:
153,192,186146,1,0,0:0:0:0:
256,192,186214,1,0,0:0:0:0:
358,192,186248,1,0,0:0:0:0:
460,192,186282,1,0,0:0:0:0:
51,192,186282,1,0,0:0:0:0:
153,192,186350,1,0,0:0:0:0:
256,192,186384,1,0,0:0:0:0:
358,192,186418,1,0,0:0:0:0:
460,192,186418,1,0,0:0:0:0:
51,192,186486,1,0,0:0:0:0:
153,192,186521,1,0,0:0:0:0:
358,192,186555,1,0,0:0:0:0:
256,192,186555,1,0,0:0:0:0:
460,192,186623,1,0,0:0:0:0:
51,192,186657,1,0,0:0:0:0:
256,192,186691,1,0,0:0:0:0:
153,192,186691,1,0,0:0:0:0:
358,192,186759,1,0,0:0:0:0:
460,192,186793,1,0,0:0:0:0:
153,192,186827,1,0,0:0:0:0:
51,192,186827,1,0,0:0:0:0:
256,192,186896,1,0,0:0:0:0:
358,192,186930,1,0,0:0:0:0:
51,192,186964,1,0,0:0:0:0:
460,192,186964,1,0,0:0:0:0:
153,192,187032,1,0,0:0:0:0:
256,192,187066,1,0,0:0:0:0:
460,192,187100,1,0,0:0:0:0:
358,192,187100,1,0,0:0:0:0:
51,192,187168,1,0,0:0:0:0:
153,192,187202,1,0,0:0:0:0:
256,192,187236,1,0,0:0:0:0:
358,192,187236,1,0,0:0:0:0:
460,192,187305,1,0,0:0:0:0:
51,192,187339,1,0,0:0:0:0:
153,192,187373,1,0,0:0:0:0:
256,192,187373,1,0,0:0:0:0:
358,192,187441,1,0,0:0:0:0:
460,192,187475,1,0,0:0:0:0:
51,192,187509,1,0,0:0:0:0:
153,192,187509,1,0,0:0:0:0:
256,192,187577,1,0,0:0:0:0:
358,192,187611,1,0,0:0:0:0:
460,192,187646,1,0,0:0:0:0:
51,192,187646,1,0,0:0:0:0:
460,192,187782,1,0,0:0:0:0:
358,192,187827,1,0,0:0:0:0:
256,192,187873,1,0,0:0:0:0:
153,192,187918,1,0,0:0:0:0:
51,192,187964,1,0,0:0:0:0:
460,192,188009,1,0,0:0:0:0:
358,192,188055,1,0,0:0:0:0:
256,192,188100,1,0,0:0:0:0:
153,192,188146,1,0,0:0:0:0:
51,192,188191,1,0,0:0:0:0:
460,192,188236,1,0,0:0:0:0:
358,192,188282,1,0,0:0:0:0:
256,192,188327,1,0,0:0:0:0:
153,192,188373,1,0,0:0:0:0:
51,192,188418,1,0,0:0:0:0:
460,192,188464,1,0,0:0:0:0:
358,192,188509,1,0,0:0:0:0:
256,192,188555,1,0,0:0:0:0:
153,192,188600,1,0,0:0:0:0:
51,192,188646,1,0,0:0:0:0:
460,192,188691,1,0,0:0:0:0:
358,192,188736,1,0,0:0:0:0:
256,192,188782,1,0,0:0:0:0:
153,192,188827,1,0,0:0:0:0:
51,192,188873,1,0,0:0:0:0:
460,192,188918,1,0,0:0:0:0:
358,192,188964,1,0,0:0:0:0:
256,192,189009,1,0,0:0:0:0:
153,192,189055,1,0,0:0:0:0:
51,192,189100,1,0,0:0:0:0:
460,192,189146,1,0,0:0:0:0:
358,192,189191,1,0,0:0:0:0:
256,192,189236,1,0,0:0:0:0:
153,192,189282,1,0,0:0:0:0:
51,192,189327,1,0,0:0:0:0:
460,192,189373,1,0,0:0:0:0:
358,192,189418,1,0,0:0:0:0:
256,192,189464,1,0,0:0:0:0:
153,192,189509,1,0,0:0:0:0:
51,192,189555,1,0,0:0:0:0:
460,192,189600,1,0,0:0:0:0:
358,192,189646,1,0,0:0:0:0:
256,192,189691,1,0,0:0:0:0:
153,192,189736,1,0,0:0:0:0:
51,192,189782,1,0,0:0:0:0:
460,192,189827,1,0,0:0:0:0:
358,192,189873,1,0,0:0:0:0:
256,192,189918,1,0,0:0:0:0:
460,192,189964,1,0,0:0:0:0:
51,192,189964,1,0,0:0:0:0:
358,192,189998,1,0,0:0:0:0:
256,192,190032,1,0,0:0:0:0:
51,192,190100,1,0,0:0:0:0:
153,192,190100,1,0,0:0:0:0:
358,192,190168,1,0,0:0:0:0:
460,192,190168,1,0,0:0:0:0:
51,192,190236,1,0,0:0:0:0:
153,192,190271,1,0,0:0:0:0:
256,192,190305,1,0,0:0:0:0:
358,192,190373,1,0,0:0:0:0:
460,192,190373,1,0,0:0:0:0:
51,192,190441,1,0,0:0:0:0:
153,192,190441,1,0,0:0:0:0:
460,192,190509,1,0,0:0:0:0:
358,192,190543,1,0,0:0:0:0:
256,192,190577,1,0,0:0:0:0:
153,192,190646,1,0,0:0:0:0:
51,192,190646,1,0,0:0:0:0:
358,192,190714,1,0,0:0:0:0:
460,192,190714,1,0,0:0:0:0:
51,192,190782,1,0,0:0:0:0:
153,192,190816,1,0,0:0:0:0:
256,192,190850,1,0,0:0:0:0:
460,192,190918,1,0,0:0:0:0:
358,192,190918,1,0,0:0:0:0:
153,192,190986,1,0,0:0:0:0:
51,192,190986,1,0,0:0:0:0:
460,192,191055,1,0,0:0:0:0:
358,192,191089,1,0,0:0:0:0:
256,192,191123,1,0,0:0:0:0:
153,192,191191,1,0,0:0:0:0:
51,192,191191,1,0,0:0:0:0:
358,192,191259,1,0,0:0:0:0:
460,192,191259,1,0,0:0:0:0:
51,192,191327,1,0,0:0:0:0:
153,192,191361,1,0,0:0:0:0:
256,192,191396,1,0,0:0:0:0:
358,192,191464,1,0,0:0:0:0:
460,192,191464,1,0,0:0:0:0:
51,192,191532,1,0,0:0:0:0:
153,192,191532,1,0,0:0:0:0:
256,192,191600,1,0,0:0:0:0:
358,192,191600,1,0,0:0:0:0:
460,192,191600,1,0,0:0:0:0:
358,192,192146,1,0,0:0:0:0:
256,192,192146,1,0,0:0:0:0:
51,192,192146,1,0,0:0:0:0:
153,192,192146,1,0,0:0:0:0:
51,192,192282,1,0,0:0:0:0:
256,192,192282,1,0,0:0:0:0:
358,192,192282,1,0,0:0:0:0:
153,192,192282,1,0,0:0:0:0:
256,192,192418,128,0,192623:0:0:0:0:
358,192,192418,128,0,192623:0:0:0:0:
460,192,192418,128,0,192623:0:0:0:0:
153,192,192418,128,0,192623:0:0:0:0:
51,192,192555,1,0,0:0:0:0:
256,192,192691,128,0,192896:0:0:0:0:
51,192,192691,128,0,192896:0:0:0:0:
460,192,192691,128,0,192896:0:0:0:0:
358,192,192691,128,0,192896:0:0:0:0:
153,192,192827,1,0,0:0:0:0:
153,192,192964,128,0,193168:0:0:0:0:
51,192,192964,128,0,193168:0:0:0:0:
358,192,192964,128,0,193168:0:0:0:0:
460,192,192964,128,0,193168:0:0:0:0:
256,192,193100,1,0,0:0:0:0:
51,192,193236,128,0,193441:0:0:0:0:
460,192,193236,128,0,193441:0:0:0:0:
153,192,193236,128,0,193441:0:0:0:0:
256,192,193236,128,0,193441:0:0:0:0:
358,192,193373,1,0,0:0:0:0:
460,192,193509,128,0,193714:0:0:0:0:
358,192,193509,128,0,193714:0:0:0:0:
51,192,193509,128,0,193714:0:0:0:0:
256,192,193509,128,0,193714:0:0:0:0:
153,192,193646,1,0,0:0:0:0:
51,192,193782,128,0,193986:0:0:0:0:
153,192,193782,128,0,193986:0:0:0:0:
256,192,193782,128,0,193986:0:0:0:0:
358,192,193782,128,0,193986:0:0:0:0:
460,192,193918,1,0,0:0:0:0:
153,192,194055,128,0,194259:0:0:0:0:
256,192,194055,128,0,194259:0:0:0:0:
358,192,194055,128,0,194259:0:0:0:0:
460,192,194055,128,0,194259:0:0:0:0:
51,192,194191,1,0,0:0:0:0:
358,192,194327,128,0,194532:0:0:0:0:
460,192,194327,128,0,194532:0:0:0:0:
153,192,194327,128,0,194532:0:0:0:0:
51,192,194327,128,0,194532:0:0:0:0:
256,192,194464,1,0,0:0:0:0:
51,192,194600,128,0,194805:0:0:0:0:
153,192,194600,128,0,194805:0:0:0:0:
256,192,194600,128,0,194805:0:0:0:0:
460,192,194600,128,0,194805:0:0:0:0:
358,192,194736,1,0,0:0:0:0:
153,192,194873,128,0,195077:0:0:0:0:
51,192,194873,128,0,195077:0:0:0:0:
256,192,194873,128,0,195077:0:0:0:0:
358,192,194873,128,0,195077:0:0:0:0:
460,192,195009,1,0,0:0:0:0:
51,192,195146,128,0,195350:0:0:0:0:
153,192,195146,128,0,195350:0:0:0:0:
460,192,195146,128,0,195350:0:0:0:0:
358,192,195146,128,0,195350:0:0:0:0:
256,192,195282,1,0,0:0:0:0:
358,192,195418,128,0,195623:0:0:0:0:
256,192,195418,128,0,195623:0:0:0:0:
460,192,195418,128,0,195623:0:0:0:0:
51,192,195418,128,0,195623:0:0:0:0:
153,192,195555,1,0,0:0:0:0:
51,192,195691,128,0,195896:0:0:0:0:
153,192,195691,128,0,195896:0:0:0:0:
256,192,195691,128,0,195896:0:0:0:0:
460,192,195691,128,0,195896:0:0:0:0:
358,192,195827,1,0,0:0:0:0:
51,192,195964,128,0,196168:0:0:0:0:
256,192,195964,128,0,196168:0:0:0:0:
358,192,195964,128,0,196168:0:0:0:0:
153,192,195964,128,0,196168:0:0:0:0:
460,192,196100,1,0,0:0:0:0:
51,192,196236,128,0,196441:0:0:0:0:
256,192,196236,128,0,196441:0:0:0:0:
358,192,196236,128,0,196441:0:0:0:0:
460,192,196236,128,0,196441:0:0:0:0:
153,192,196373,1,0,0:0:0:0:
51,192,196509,1,0,0:0:0:0:
153,192,196509,1,0,0:0:0:0:
460,192,196509,1,0,0:0:0:0:
51,192,196577,1,0,0:0:0:0:
153,192,196577,1,0,0:0:0:0:
256,192,196577,1,0,0:0:0:0:
358,192,196577,1,0,0:0:0:0:
460,192,196714,1,0,0:0:0:0:
358,192,196714,1,0,0:0:0:0:
460,192,196782,128,0,196986:0:0:0:0:
153,192,196782,128,0,196986:0:0:0:0:
256,192,196782,128,0,196986:0:0:0:0:
358,192,196782,128,0,196986:0:0:0:0:
51,192,196918,1,0,0:0:0:0:
460,192,197055,128,0,197259:0:0:0:0:
358,192,197055,128,0,197259:0:0:0:0:
256,192,197055,128,0,197259:0:0:0:0:
51,192,197055,128,0,197259:0:0:0:0:
153,192,197191,1,0,0:0:0:0:
358,192,197327,128,0,197532:0:0:0:0:
460,192,197327,128,0,197532:0:0:0:0:
153,192,197327,128,0,197532:0:0:0:0:
51,192,197327,128,0,197532:0:0:0:0:
256,192,197464,1,0,0:0:0:0:
153,192,197600,128,0,197805:0:0:0:0:
256,192,197600,128,0,197805:0:0:0:0:
51,192,197600,128,0,197805:0:0:0:0:
460,192,197600,128,0,197805:0:0:0:0:
358,192,197736,1,0,0:0:0:0:
51,192,197873,128,0,198077:0:0:0:0:
256,192,197873,128,0,198077:0:0:0:0:
460,192,197873,128,0,198077:0:0:0:0:
358,192,197873,128,0,198077:0:0:0:0:
153,192,198009,1,0,0:0:0:0:
256,192,198146,128,0,198350:0:0:0:0:
358,192,198146,128,0,198350:0:0:0:0:
51,192,198146,128,0,198350:0:0:0:0:
153,192,198146,128,0,198350:0:0:0:0:
460,192,198282,1,0,0:0:0:0:
460,192,198418,128,0,198623:0:0:0:0:
51,192,198418,128,0,198623:0:0:0:0:
153,192,198418,128,0,198623:0:0:0:0:
256,192,198418,128,0,198623:0:0:0:0:
358,192,198555,1,0,0:0:0:0:
358,192,198691,128,0,198896:0:0:0:0:
460,192,198691,128,0,198896:0:0:0:0:
153,192,198691,128,0,198896:0:0:0:0:
256,192,198691,128,0,198896:0:0:0:0:
51,192,198827,1,0,0:0:0:0:
256,192,198964,128,0,199168:0:0:0:0:
460,192,198964,128,0,199168:0:0:0:0:
51,192,198964,128,0,199168:0:0:0:0:
358,192,198964,128,0,199168:0:0:0:0:
153,192,199100,1,0,0:0:0:0:
256,192,199236,128,0,199441:0:0:0:0:
358,192,199236,128,0,199441:0:0:0:0:
153,192,199236,128,0,199441:0:0:0:0:
51,192,199236,128,0,199441:0:0:0:0:
460,192,199373,1,0,0:0:0:0:
460,192,199509,128,0,199714:0:0:0:0:
358,192,199509,128,0,199714:0:0:0:0:
51,192,199509,128,0,199714:0:0:0:0:
153,192,199509,128,0,199714:0:0:0:0:
256,192,199646,1,0,0:0:0:0:
460,192,199782,128,0,199986:0:0:0:0:
51,192,199782,128,0,199986:0:0:0:0:
256,192,199782,128,0,199986:0:0:0:0:
153,192,199782,128,0,199986:0:0:0:0:
358,192,199918,1,0,0:0:0:0:
51,192,200055,1,0,0:0:0:0:
153,192,200055,1,0,0:0:0:0:
256,192,200055,1,0,0:0:0:0:
358,192,200191,1,0,0:0:0:0:
51,192,200191,1,0,0:0:0:0:
153,192,200191,1,0,0:0:0:0:
51,192,200327,1,0,0:0:0:0:
358,192,200327,1,0,0:0:0:0:
460,192,200327,1,0,0:0:0:0:
256,192,200464,1,0,0:0:0:0:
358,192,200464,1,0,0:0:0:0:
153,192,200464,1,0,0:0:0:0:
153,192,200600,1,0,0:0:0:0:
460,192,200600,1,0,0:0:0:0:
51,192,200600,1,0,0:0:0:0:
51,192,200736,1,0,0:0:0:0:
153,192,200736,1,0,0:0:0:0:
256,192,200736,1,0,0:0:0:0:
51,192,200873,128,0,201077:0:0:0:0:
153,192,200873,128,0,201077:0:0:0:0:
256,192,200873,128,0,201077:0:0:0:0:
358,192,200873,128,0,201077:0:0:0:0:
460,192,200873,128,0,201077:0:0:0:0:
256,192,201146,128,0,201350:0:0:0:0:
358,192,201146,128,0,201350:0:0:0:0:
460,192,201146,128,0,201350:0:0:0:0:
153,192,201146,128,0,201350:0:0:0:0:
51,192,201282,1,0,0:0:0:0:
256,192,201418,128,0,201623:0:0:0:0:
51,192,201418,128,0,201623:0:0:0:0:
460,192,201418,128,0,201623:0:0:0:0:
358,192,201418,128,0,201623:0:0:0:0:
153,192,201555,1,0,0:0:0:0:
153,192,201691,128,0,201896:0:0:0:0:
51,192,201691,128,0,201896:0:0:0:0:
358,192,201691,128,0,201896:0:0:0:0:
460,192,201691,128,0,201896:0:0:0:0:
256,192,201827,1,0,0:0:0:0:
51,192,201964,128,0,202168:0:0:0:0:
460,192,201964,128,0,202168:0:0:0:0:
153,192,201964,128,0,202168:0:0:0:0:
256,192,201964,128,0,202168:0:0:0:0:
358,192,202100,1,0,0:0:0:0:
460,192,202236,128,0,202441:0:0:0:0:
358,192,202236,128,0,202441:0:0:0:0:
51,192,202236,128,0,202441:0:0:0:0:
256,192,202236,128,0,202441:0:0:0:0:
153,192,202373,1,0,0:0:0:0:
51,192,202509,128,0,202714:0:0:0:0:
153,192,202509,128,0,202714:0:0:0:0:
256,192,202509,128,0,202714:0:0:0:0:
358,192,202509,128,0,202714:0:0:0:0:
460,192,202646,1,0,0:0:0:0:
153,192,202782,128,0,202986:0:0:0:0:
256,192,202782,128,0,202986:0:0:0:0:
358,192,202782,128,0,202986:0:0:0:0:
460,192,202782,128,0,202986:0:0:0:0:
51,192,202918,1,0,0:0:0:0:
358,192,203055,128,0,203259:0:0:0:0:
460,192,203055,128,0,203259:0:0:0:0:
153,192,203055,128,0,203259:0:0:0:0:
51,192,203055,128,0,203259:0:0:0:0:
256,192,203191,1,0,0:0:0:0:
51,192,203327,128,0,203532:0:0:0:0:
153,192,203327,128,0,203532:0:0:0:0:
256,192,203327,128,0,203532:0:0:0:0:
460,192,203327,128,0,203532:0:0:0:0:
358,192,203464,1,0,0:0:0:0:
153,192,203600,128,0,203805:0:0:0:0:
51,192,203600,128,0,203805:0:0:0:0:
256,192,203600,128,0,203805:0:0:0:0:
358,192,203600,128,0,203805:0:0:0:0:
460,192,203736,1,0,0:0:0:0:
51,192,203873,128,0,204077:0:0:0:0:
153,192,203873,128,0,204077:0:0:0:0:
460,192,203873,128,0,204077:0:0:0:0:
358,192,203873,128,0,204077:0:0:0:0:
256,192,204009,1,0,0:0:0:0:
358,192,204146,128,0,204350:0:0:0:0:
256,192,204146,128,0,204350:0:0:0:0:
460,192,204146,128,0,204350:0:0:0:0:
51,192,204146,128,0,204350:0:0:0:0:
153,192,204282,1,0,0:0:0:0:
51,192,204418,128,0,204623:0:0:0:0:
153,192,204418,128,0,204623:0:0:0:0:
256,192,204418,128,0,204623:0:0:0:0:
460,192,204418,128,0,204623:0:0:0:0:
358,192,204555,1,0,0:0:0:0:
51,192,204691,128,0,204896:0:0:0:0:
256,192,204691,128,0,204896:0:0:0:0:
358,192,204691,128,0,204896:0:0:0:0:
153,192,204691,128,0,204896:0:0:0:0:
460,192,204827,1,0,0:0:0:0:
51,192,204964,128,0,205168:0:0:0:0:
256,192,204964,128,0,205168:0:0:0:0:
358,192,204964,128,0,205168:0:0:0:0:
460,192,204964,128,0,205168:0:0:0:0:
153,192,205100,1,0,0:0:0:0:
358,192,205236,128,0,205305:0:0:0:0:
460,192,205236,128,0,205305:0:0:0:0:
51,192,205236,128,0,205305:0:0:0:0:
51,192,205373,128,0,205441:0:0:0:0:
153,192,205373,128,0,205441:0:0:0:0:
256,192,205373,128,0,205441:0:0:0:0:
256,192,205509,128,0,205577:0:0:0:0:
153,192,205509,128,0,205577:0:0:0:0:
51,192,205509,128,0,205577:0:0:0:0:
51,192,205646,128,0,205714:0:0:0:0:
153,192,205646,128,0,205714:0:0:0:0:
358,192,205646,128,0,205714:0:0:0:0:
460,192,205646,128,0,205714:0:0:0:0:
256,192,205782,128,0,205850:0:0:0:0:
153,192,205782,128,0,205850:0:0:0:0:
51,192,205782,128,0,205850:0:0:0:0:
51,192,205918,128,0,205986:0:0:0:0:
153,192,205918,128,0,205986:0:0:0:0:
256,192,205918,128,0,205986:0:0:0:0:
51,192,206055,128,0,206123:0:0:0:0:
358,192,206055,128,0,206123:0:0:0:0:
460,192,206055,128,0,206123:0:0:0:0:
153,192,206191,128,0,206259:0:0:0:0:
256,192,206191,128,0,206259:0:0:0:0:
358,192,206191,128,0,206259:0:0:0:0:
51,192,206327,128,0,206396:0:0:0:0:
153,192,206327,128,0,206396:0:0:0:0:
460,192,206327,128,0,206396:0:0:0:0:
256,192,206464,128,0,206532:0:0:0:0:
358,192,206464,128,0,206532:0:0:0:0:
460,192,206464,128,0,206532:0:0:0:0:
256,192,206600,128,0,206668:0:0:0:0:
358,192,206600,128,0,206668:0:0:0:0:
460,192,206600,128,0,206668:0:0:0:0:
51,192,206736,128,0,206805:0:0:0:0:
153,192,206736,128,0,206805:0:0:0:0:
358,192,206736,128,0,206805:0:0:0:0:
460,192,206736,128,0,206805:0:0:0:0:
256,192,206873,128,0,206941:0:0:0:0:
358,192,206873,128,0,206941:0:0:0:0:
460,192,206873,128,0,206941:0:0:0:0:
256,192,207009,128,0,207077:0:0:0:0:
358,192,207009,128,0,207077:0:0:0:0:
460,192,207009,128,0,207077:0:0:0:0:
51,192,207146,128,0,207214:0:0:0:0:
153,192,207146,128,0,207214:0:0:0:0:
460,192,207146,128,0,207214:0:0:0:0:
153,192,207282,128,0,207350:0:0:0:0:
256,192,207282,128,0,207350:0:0:0:0:
358,192,207282,128,0,207350:0:0:0:0:
51,192,207418,128,0,207486:0:0:0:0:
460,192,207418,128,0,207486:0:0:0:0:
153,192,207418,128,0,207486:0:0:0:0:
358,192,207418,128,0,207486:0:0:0:0:
153,192,207555,128,0,207623:0:0:0:0:
51,192,207555,128,0,207623:0:0:0:0:
460,192,207555,128,0,207623:0:0:0:0:
51,192,207691,128,0,207759:0:0:0:0:
153,192,207691,128,0,207759:0:0:0:0:
460,192,207691,128,0,207759:0:0:0:0:
51,192,207827,128,0,207896:0:0:0:0:
153,192,207827,128,0,207896:0:0:0:0:
460,192,207827,128,0,207896:0:0:0:0:
256,192,207827,128,0,207896:0:0:0:0:
51,192,207964,128,0,208032:0:0:0:0:
153,192,207964,128,0,208032:0:0:0:0:
460,192,207964,128,0,208032:0:0:0:0:
51,192,208100,128,0,208168:0:0:0:0:
153,192,208100,128,0,208168:0:0:0:0:
460,192,208100,128,0,208168:0:0:0:0:
51,192,208236,128,0,208441:0:0:0:0:
153,192,208236,128,0,208441:0:0:0:0:
358,192,208236,128,0,208441:0:0:0:0:
460,192,208236,128,0,208441:0:0:0:0:
51,192,208509,1,0,0:0:0:0:
153,192,208509,1,0,0:0:0:0:
256,192,208509,1,0,0:0:0:0:
51,192,208646,1,0,0:0:0:0:
460,192,208646,1,0,0:0:0:0:
358,192,208714,1,0,0:0:0:0:
153,192,208782,1,0,0:0:0:0:
256,192,208782,1,0,0:0:0:0:
51,192,208918,1,0,0:0:0:0:
256,192,208918,1,0,0:0:0:0:
153,192,208918,1,0,0:0:0:0:
358,192,208986,1,0,0:0:0:0:
460,192,209055,1,0,0:0:0:0:
51,192,209055,1,0,0:0:0:0:
153,192,209191,1,0,0:0:0:0:
358,192,209191,1,0,0:0:0:0:
460,192,209259,1,0,0:0:0:0:
256,192,209327,128,0,209532:0:0:0:0:
51,192,209327,128,0,209532:0:0:0:0:
358,192,209327,128,0,209532:0:0:0:0:
153,192,209327,128,0,209532:0:0:0:0:
51,192,209600,128,0,209668:0:0:0:0:
358,192,209600,128,0,209668:0:0:0:0:
460,192,209600,128,0,209668:0:0:0:0:
153,192,209600,128,0,209668:0:0:0:0:
153,192,209736,1,0,0:0:0:0:
51,192,209736,1,0,0:0:0:0:
256,192,209736,1,0,0:0:0:0:
51,192,209873,1,0,0:0:0:0:
358,192,209873,1,0,0:0:0:0:
460,192,209873,1,0,0:0:0:0:
358,192,210009,1,0,0:0:0:0:
460,192,210009,1,0,0:0:0:0:
256,192,210009,1,0,0:0:0:0:
51,192,210146,1,0,0:0:0:0:
153,192,210146,1,0,0:0:0:0:
460,192,210146,1,0,0:0:0:0:
153,192,210282,1,0,0:0:0:0:
51,192,210282,1,0,0:0:0:0:
256,192,210282,1,0,0:0:0:0:
51,192,210418,1,0,0:0:0:0:
358,192,210418,1,0,0:0:0:0:
460,192,210418,1,0,0:0:0:0:
153,192,210555,128,0,210623:0:0:0:0:
256,192,210555,128,0,210623:0:0:0:0:
358,192,210555,128,0,210623:0:0:0:0:
460,192,210555,128,0,210623:0:0:0:0:
358,192,210691,128,0,210759:0:0:0:0:
256,192,210691,128,0,210759:0:0:0:0:
153,192,210691,128,0,210759:0:0:0:0:
51,192,210691,128,0,210759:0:0:0:0:
256,192,210827,1,0,0:0:0:0:
153,192,210827,1,0,0:0:0:0:
460,192,210827,1,0,0:0:0:0:
51,192,210964,1,0,0:0:0:0:
358,192,210964,1,0,0:0:0:0:
460,192,210964,1,0,0:0:0:0:
358,192,211100,1,0,0:0:0:0:
460,192,211100,1,0,0:0:0:0:
153,192,211100,1,0,0:0:0:0:
51,192,211236,1,0,0:0:0:0:
460,192,211236,1,0,0:0:0:0:
256,192,211236,1,0,0:0:0:0:
256,192,211373,1,0,0:0:0:0:
153,192,211373,1,0,0:0:0:0:
358,192,211373,1,0,0:0:0:0:
51,192,211509,1,0,0:0:0:0:
460,192,211509,1,0,0:0:0:0:
153,192,211509,1,0,0:0:0:0:
153,192,211646,1,0,0:0:0:0:
358,192,211646,1,0,0:0:0:0:
460,192,211646,1,0,0:0:0:0:
256,192,211714,1,0,0:0:0:0:
51,192,211782,128,0,211850:0:0:0:0:
153,192,211782,128,0,211850:0:0:0:0:
358,192,211782,128,0,211850:0:0:0:0:
460,192,211782,128,0,211850:0:0:0:0:
153,192,211918,1,0,0:0:0:0:
256,192,211918,1,0,0:0:0:0:
51,192,211918,1,0,0:0:0:0:
51,192,212055,1,0,0:0:0:0:
358,192,212055,1,0,0:0:0:0:
460,192,212055,1,0,0:0:0:0:
358,192,212191,1,0,0:0:0:0:
460,192,212191,1,0,0:0:0:0:
256,192,212191,1,0,0:0:0:0:
153,192,212327,1,0,0:0:0:0:
256,192,212327,1,0,0:0:0:0:
51,192,212327,1,0,0:0:0:0:
153,192,212464,1,0,0:0:0:0:
358,192,212464,1,0,0:0:0:0:
460,192,212464,1,0,0:0:0:0:
51,192,212600,1,0,0:0:0:0:
358,192,212600,1,0,0:0:0:0:
256,192,212600,1,0,0:0:0:0:
51,192,212736,128,0,212805:0:0:0:0:
153,192,212736,128,0,212805:0:0:0:0:
358,192,212736,128,0,212805:0:0:0:0:
460,192,212736,128,0,212805:0:0:0:0:
460,192,212873,128,0,212941:0:0:0:0:
256,192,212873,128,0,212941:0:0:0:0:
153,192,212873,128,0,212941:0:0:0:0:
51,192,212873,128,0,212941:0:0:0:0:
153,192,213009,1,0,0:0:0:0:
358,192,213009,1,0,0:0:0:0:
460,192,213009,1,0,0:0:0:0:
256,192,213146,1,0,0:0:0:0:
51,192,213146,1,0,0:0:0:0:
358,192,213146,1,0,0:0:0:0:
460,192,213282,1,0,0:0:0:0:
153,192,213282,1,0,0:0:0:0:
51,192,213282,1,0,0:0:0:0:
51,192,213418,1,0,0:0:0:0:
256,192,213418,1,0,0:0:0:0:
460,192,213555,1,0,0:0:0:0:
51,192,213691,1,0,0:0:0:0:
256,192,213691,1,0,0:0:0:0:
460,192,213827,1,0,0:0:0:0:
51,192,213964,128,0,214373:0:0:0:0:
358,192,213964,128,0,214373:0:0:0:0:
460,192,214100,1,0,0:0:0:0:
153,192,214236,1,0,0:0:0:0:
256,192,214373,128,0,214509:0:0:0:0:
153,192,214509,128,0,214918:0:0:0:0:
460,192,214509,128,0,214918:0:0:0:0:
51,192,214646,1,0,0:0:0:0:
358,192,214782,1,0,0:0:0:0:
256,192,214918,128,0,215055:0:0:0:0:
51,192,215055,128,0,215464:0:0:0:0:
460,192,215055,128,0,215464:0:0:0:0:
153,192,215191,1,0,0:0:0:0:
358,192,215327,1,0,0:0:0:0:
256,192,215464,128,0,215600:0:0:0:0:
358,192,215600,128,0,216009:0:0:0:0:
460,192,215600,128,0,216009:0:0:0:0:
153,192,215736,1,0,0:0:0:0:
51,192,215873,1,0,0:0:0:0:
153,192,215941,1,0,0:0:0:0:
256,192,216009,128,0,216146:0:0:0:0:
153,192,216077,1,0,0:0:0:0:
51,192,216146,128,0,216350:0:0:0:0:
460,192,216146,1,0,0:0:0:0:
358,192,216146,128,0,216350:0:0:0:0:
153,192,216282,1,0,0:0:0:0:
256,192,216418,128,0,216623:0:0:0:0:
460,192,216418,128,0,216623:0:0:0:0:
51,192,216555,1,0,0:0:0:0:
153,192,216691,128,0,216896:0:0:0:0:
358,192,216691,128,0,216896:0:0:0:0:
256,192,216691,1,0,0:0:0:0:
460,192,216827,1,0,0:0:0:0:
256,192,216964,128,0,217168:0:0:0:0:
51,192,216964,128,0,217168:0:0:0:0:
358,192,217100,1,0,0:0:0:0:
153,192,217168,1,0,0:0:0:0:
460,192,217236,128,0,217441:0:0:0:0:
358,192,217236,128,0,217441:0:0:0:0:
256,192,217373,1,0,0:0:0:0:
51,192,217509,128,0,217714:0:0:0:0:
153,192,217509,128,0,217714:0:0:0:0:
460,192,217646,1,0,0:0:0:0:
358,192,217714,1,0,0:0:0:0:
256,192,217782,128,0,217986:0:0:0:0:
460,192,217782,128,0,217986:0:0:0:0:
51,192,217782,1,0,0:0:0:0:
153,192,217918,1,0,0:0:0:0:
51,192,218055,128,0,218259:0:0:0:0:
358,192,218055,128,0,218259:0:0:0:0:
153,192,218055,1,0,0:0:0:0:
256,192,218123,1,0,0:0:0:0:
460,192,218191,1,0,0:0:0:0:
256,192,218259,1,0,0:0:0:0:
51,192,218327,128,0,218396:0:0:0:0:
358,192,218327,128,0,218396:0:0:0:0:
460,192,218327,128,0,218396:0:0:0:0:
153,192,218327,128,0,218396:0:0:0:0:
153,192,218464,1,0,0:0:0:0:
51,192,218464,1,0,0:0:0:0:
256,192,218464,1,0,0:0:0:0:
51,192,218600,1,0,0:0:0:0:
358,192,218600,1,0,0:0:0:0:
460,192,218600,1,0,0:0:0:0:
358,192,218736,1,0,0:0:0:0:
460,192,218736,1,0,0:0:0:0:
256,192,218736,1,0,0:0:0:0:
51,192,218873,1,0,0:0:0:0:
153,192,218873,1,0,0:0:0:0:
460,192,218873,1,0,0:0:0:0:
153,192,219009,1,0,0:0:0:0:
51,192,219009,1,0,0:0:0:0:
256,192,219009,1,0,0:0:0:0:
51,192,219146,1,0,0:0:0:0:
358,192,219146,1,0,0:0:0:0:
460,192,219146,1,0,0:0:0:0:
153,192,219282,128,0,219350:0:0:0:0:
256,192,219282,128,0,219350:0:0:0:0:
358,192,219282,128,0,219350:0:0:0:0:
460,192,219282,128,0,219350:0:0:0:0:
358,192,219418,128,0,219486:0:0:0:0:
256,192,219418,128,0,219486:0:0:0:0:
153,192,219418,128,0,219486:0:0:0:0:
51,192,219418,128,0,219486:0:0:0:0:
256,192,219555,1,0,0:0:0:0:
153,192,219555,1,0,0:0:0:0:
460,192,219555,1,0,0:0:0:0:
51,192,219691,1,0,0:0:0:0:
358,192,219691,1,0,0:0:0:0:
460,192,219691,1,0,0:0:0:0:
358,192,219827,1,0,0:0:0:0:
460,192,219827,1,0,0:0:0:0:
153,192,219827,1,0,0:0:0:0:
51,192,219964,1,0,0:0:0:0:
460,192,219964,1,0,0:0:0:0:
256,192,219964,1,0,0:0:0:0:
256,192,220100,1,0,0:0:0:0:
153,192,220100,1,0,0:0:0:0:
358,192,220100,1,0,0:0:0:0:
51,192,220236,1,0,0:0:0:0:
460,192,220236,1,0,0:0:0:0:
153,192,220236,1,0,0:0:0:0:
153,192,220373,1,0,0:0:0:0:
358,192,220373,1,0,0:0:0:0:
460,192,220373,1,0,0:0:0:0:
256,192,220441,1,0,0:0:0:0:
51,192,220509,128,0,220577:0:0:0:0:
153,192,220509,128,0,220577:0:0:0:0:
358,192,220509,128,0,220577:0:0:0:0:
460,192,220509,128,0,220577:0:0:0:0:
153,192,220646,1,0,0:0:0:0:
256,192,220646,1,0,0:0:0:0:
51,192,220646,1,0,0:0:0:0:
51,192,220782,1,0,0:0:0:0:
358,192,220782,1,0,0:0:0:0:
460,192,220782,1,0,0:0:0:0:
358,192,220918,1,0,0:0:0:0:
460,192,220918,1,0,0:0:0:0:
256,192,220918,1,0,0:0:0:0:
153,192,221055,1,0,0:0:0:0:
256,192,221055,1,0,0:0:0:0:
51,192,221055,1,0,0:0:0:0:
153,192,221191,1,0,0:0:0:0:
358,192,221191,1,0,0:0:0:0:
460,192,221191,1,0,0:0:0:0:
51,192,221327,1,0,0:0:0:0:
358,192,221327,1,0,0:0:0:0:
256,192,221327,1,0,0:0:0:0:
51,192,221464,128,0,221532:0:0:0:0:
153,192,221464,128,0,221532:0:0:0:0:
358,192,221464,128,0,221532:0:0:0:0:
460,192,221464,128,0,221532:0:0:0:0:
460,192,221600,128,0,221668:0:0:0:0:
256,192,221600,128,0,221668:0:0:0:0:
153,192,221600,128,0,221668:0:0:0:0:
51,192,221600,128,0,221668:0:0:0:0:
153,192,221736,1,0,0:0:0:0:
358,192,221736,1,0,0:0:0:0:
460,192,221736,1,0,0:0:0:0:
256,192,221873,1,0,0:0:0:0:
51,192,221873,1,0,0:0:0:0:
358,192,221873,1,0,0:0:0:0:
460,192,222009,1,0,0:0:0:0:
153,192,222009,1,0,0:0:0:0:
51,192,222009,1,0,0:0:0:0:
51,192,222146,1,0,0:0:0:0:
256,192,222146,1,0,0:0:0:0:
460,192,222282,1,0,0:0:0:0:
358,192,222350,1,0,0:0:0:0:
153,192,222350,1,0,0:0:0:0:
51,192,222418,1,0,0:0:0:0:
256,192,222418,1,0,0:0:0:0:
460,192,222555,1,0,0:0:0:0:
153,192,222555,1,0,0:0:0:0:
358,192,222555,1,0,0:0:0:0:
51,192,222691,128,0,223100:0:0:0:0:
358,192,222691,128,0,223100:0:0:0:0:
460,192,222827,1,0,0:0:0:0:
153,192,222964,1,0,0:0:0:0:
256,192,223100,128,0,223236:0:0:0:0:
153,192,223236,128,0,223646:0:0:0:0:
460,192,223236,128,0,223646:0:0:0:0:
51,192,223373,1,0,0:0:0:0:
358,192,223509,1,0,0:0:0:0:
256,192,223646,128,0,223782:0:0:0:0:
51,192,223782,128,0,224191:0:0:0:0:
460,192,223782,128,0,224191:0:0:0:0:
153,192,223918,1,0,0:0:0:0:
358,192,224055,1,0,0:0:0:0:
256,192,224191,128,0,224327:0:0:0:0:
358,192,224327,128,0,224736:0:0:0:0:
460,192,224327,128,0,224736:0:0:0:0:
153,192,224464,1,0,0:0:0:0:
51,192,224532,1,0,0:0:0:0:
256,192,224600,1,0,0:0:0:0:
51,192,224668,1,0,0:0:0:0:
153,192,224736,1,0,0:0:0:0:
51,192,224805,1,0,0:0:0:0:
153,192,224873,128,0,225350:0:0:0:0:
256,192,224873,128,0,225214:0:0:0:0:
358,192,224873,128,0,225077:0:0:0:0:
358,192,225146,128,0,225486:0:0:0:0:
256,192,225282,128,0,225623:0:0:0:0:
153,192,225418,128,0,225896:0:0:0:0:
358,192,225555,128,0,225896:0:0:0:0:
256,192,225691,128,0,225896:0:0:0:0:
51,192,225964,5,0,0:0:0:0:
153,192,225964,1,0,0:0:0:0:
460,192,226032,1,0,0:0:0:0:
358,192,226032,1,0,0:0:0:0:
51,192,226100,1,0,0:0:0:0:
153,192,226100,1,0,0:0:0:0:
256,192,226100,1,0,0:0:0:0:
256,192,226236,1,0,0:0:0:0:
153,192,226236,1,0,0:0:0:0:
51,192,226236,1,0,0:0:0:0:
358,192,226373,1,0,0:0:0:0:
460,192,226373,1,0,0:0:0:0:
153,192,226441,1,0,0:0:0:0:
256,192,226441,1,0,0:0:0:0:
460,192,226509,1,0,0:0:0:0:
358,192,226509,1,0,0:0:0:0:
51,192,226509,1,0,0:0:0:0:
358,192,226646,1,0,0:0:0:0:
460,192,226646,1,0,0:0:0:0:
51,192,226646,1,0,0:0:0:0:
460,192,226782,1,0,0:0:0:0:
256,192,226782,1,0,0:0:0:0:
153,192,226850,1,0,0:0:0:0:
358,192,226850,1,0,0:0:0:0:
256,192,226918,1,0,0:0:0:0:
51,192,226918,1,0,0:0:0:0:
153,192,226986,1,0,0:0:0:0:
358,192,226986,1,0,0:0:0:0:
256,192,227055,128,0,227327:0:0:0:0:
51,192,227055,128,0,227327:0:0:0:0:
460,192,227055,128,0,227327:0:0:0:0:
51,192,227464,128,0,227736:0:0:0:0:
256,192,227464,128,0,227736:0:0:0:0:
460,192,227464,128,0,227736:0:0:0:0:
153,192,227873,128,0,228146:0:0:0:0:
358,192,227873,128,0,228146:0:0:0:0:
460,192,227873,128,0,228146:0:0:0:0:
153,192,228282,128,0,228555:0:0:0:0:
358,192,228282,128,0,228555:0:0:0:0:
460,192,228282,128,0,228555:0:0:0:0:
51,192,228691,1,0,0:0:0:0:
256,192,228691,1,0,0:0:0:0:
153,192,228691,1,0,0:0:0:0:
153,192,228964,1,0,0:0:0:0:
51,192,228964,1,0,0:0:0:0:
256,192,228964,1,0,0:0:0:0:
256,192,229236,128,0,229509:0:0:0:0:
358,192,229236,128,0,229509:0:0:0:0:
460,192,229236,128,0,229509:0:0:0:0:
256,192,229646,128,0,229918:0:0:0:0:
358,192,229646,128,0,229918:0:0:0:0:
460,192,229646,128,0,229918:0:0:0:0:
153,192,230055,128,0,230327:0:0:0:0:
51,192,230055,128,0,230327:0:0:0:0:
460,192,230055,128,0,230327:0:0:0:0:
153,192,230464,128,0,230736:0:0:0:0:
51,192,230464,128,0,230736:0:0:0:0:
460,192,230464,128,0,230736:0:0:0:0:
51,192,230873,128,0,231282:0:0:0:0:
153,192,230873,128,0,231282:0:0:0:0:
256,192,230873,128,0,231282:0:0:0:0:
358,192,230873,128,0,231282:0:0:0:0:
460,192,230873,128,0,231282:0:0:0:0:
256,192,231418,128,0,231691:0:0:0:0:
51,192,231418,128,0,231691:0:0:0:0:
460,192,231418,128,0,231691:0:0:0:0:
51,192,231827,128,0,232100:0:0:0:0:
256,192,231827,128,0,232100:0:0:0:0:
460,192,231827,128,0,232100:0:0:0:0:
153,192,232236,128,0,232509:0:0:0:0:
358,192,232236,128,0,232509:0:0:0:0:
460,192,232236,128,0,232509:0:0:0:0:
153,192,232646,128,0,232918:0:0:0:0:
358,192,232646,128,0,232918:0:0:0:0:
460,192,232646,128,0,232918:0:0:0:0:
51,192,233055,1,0,0:0:0:0:
256,192,233055,1,0,0:0:0:0:
153,192,233055,1,0,0:0:0:0:
153,192,233327,1,0,0:0:0:0:
51,192,233327,1,0,0:0:0:0:
256,192,233327,1,0,0:0:0:0:
256,192,233600,128,0,233873:0:0:0:0:
358,192,233600,128,0,233873:0:0:0:0:
460,192,233600,128,0,233873:0:0:0:0:
256,192,234009,128,0,234282:0:0:0:0:
358,192,234009,128,0,234282:0:0:0:0:
460,192,234009,128,0,234282:0:0:0:0:
153,192,234418,128,0,234691:0:0:0:0:
51,192,234418,128,0,234691:0:0:0:0:
460,192,234418,128,0,234691:0:0:0:0:
153,192,234827,128,0,235100:0:0:0:0:
51,192,234827,128,0,235100:0:0:0:0:
460,192,234827,128,0,235100:0:0:0:0:
153,192,235236,1,0,0:0:0:0:
256,192,235236,1,0,0:0:0:0:
460,192,235236,1,0,0:0:0:0:
51,192,235441,1,0,0:0:0:0:
460,192,235441,1,0,0:0:0:0:
256,192,235441,1,0,0:0:0:0:
358,192,235646,1,0,0:0:0:0:
256,192,235646,1,0,0:0:0:0:
51,192,235646,1,0,0:0:0:0:
51,192,235782,128,0,236055:0:0:0:0:
153,192,235782,1,0,0:0:0:0:
460,192,235850,1,0,0:0:0:0:
358,192,235918,1,0,0:0:0:0:
256,192,235986,1,0,0:0:0:0:
153,192,236055,1,0,0:0:0:0:
153,192,236191,128,0,236464:0:0:0:0:
51,192,236191,1,0,0:0:0:0:
460,192,236259,1,0,0:0:0:0:
358,192,236327,1,0,0:0:0:0:
256,192,236396,1,0,0:0:0:0:
51,192,236464,1,0,0:0:0:0:
460,192,236600,128,0,236873:0:0:0:0:
358,192,236600,1,0,0:0:0:0:
51,192,236668,1,0,0:0:0:0:
153,192,236736,1,0,0:0:0:0:
256,192,236805,1,0,0:0:0:0:
358,192,236873,1,0,0:0:0:0:
358,192,237009,128,0,237282:0:0:0:0:
460,192,237009,1,0,0:0:0:0:
51,192,237077,1,0,0:0:0:0:
153,192,237146,1,0,0:0:0:0:
256,192,237214,1,0,0:0:0:0:
460,192,237282,1,0,0:0:0:0:
51,192,237418,1,0,0:0:0:0:
358,192,237418,128,0,237691:0:0:0:0:
460,192,237418,128,0,237691:0:0:0:0:
256,192,237691,1,0,0:0:0:0:
153,192,237691,128,0,237964:0:0:0:0:
51,192,237691,128,0,237964:0:0:0:0:
460,192,237964,128,0,238236:0:0:0:0:
256,192,237964,128,0,238236:0:0:0:0:
51,192,238100,1,0,0:0:0:0:
153,192,238236,1,0,0:0:0:0:
460,192,238373,128,0,238646:0:0:0:0:
256,192,238373,128,0,238646:0:0:0:0:
51,192,238373,1,0,0:0:0:0:
153,192,238509,1,0,0:0:0:0:
51,192,238646,1,0,0:0:0:0:
460,192,238782,128,0,239055:0:0:0:0:
51,192,238782,128,0,239055:0:0:0:0:
256,192,238782,1,0,0:0:0:0:
358,192,238918,1,0,0:0:0:0:
256,192,239055,1,0,0:0:0:0:
460,192,239191,128,0,239464:0:0:0:0:
51,192,239191,128,0,239464:0:0:0:0:
358,192,239191,1,0,0:0:0:0:
256,192,239327,1,0,0:0:0:0:
358,192,239464,1,0,0:0:0:0:
358,192,239600,128,0,240009:0:0:0:0:
460,192,239600,128,0,240009:0:0:0:0:
256,192,239600,128,0,240009:0:0:0:0:
51,192,239600,128,0,240009:0:0:0:0:
153,192,239600,128,0,240009:0:0:0:0:
51,192,240146,1,0,0:0:0:0:
153,192,240146,1,0,0:0:0:0:
256,192,240214,1,0,0:0:0:0:
358,192,240214,1,0,0:0:0:0:
51,192,240282,1,0,0:0:0:0:
460,192,240282,1,0,0:0:0:0:
153,192,240350,1,0,0:0:0:0:
256,192,240350,1,0,0:0:0:0:
358,192,240418,1,0,0:0:0:0:
460,192,240418,1,0,0:0:0:0:
51,192,240486,1,0,0:0:0:0:
153,192,240486,1,0,0:0:0:0:
358,192,240555,1,0,0:0:0:0:
256,192,240555,1,0,0:0:0:0:
460,192,240623,1,0,0:0:0:0:
51,192,240623,1,0,0:0:0:0:
256,192,240691,1,0,0:0:0:0:
153,192,240691,1,0,0:0:0:0:
358,192,240759,1,0,0:0:0:0:
460,192,240759,1,0,0:0:0:0:
153,192,240827,1,0,0:0:0:0:
51,192,240827,1,0,0:0:0:0:
256,192,240896,1,0,0:0:0:0:
358,192,240896,1,0,0:0:0:0:
51,192,240964,1,0,0:0:0:0:
460,192,240964,1,0,0:0:0:0:
153,192,241032,1,0,0:0:0:0:
256,192,241032,1,0,0:0:0:0:
460,192,241100,1,0,0:0:0:0:
358,192,241100,1,0,0:0:0:0:
51,192,241168,1,0,0:0:0:0:
153,192,241168,1,0,0:0:0:0:
358,192,241236,1,0,0:0:0:0:
256,192,241236,1,0,0:0:0:0:
460,192,241305,1,0,0:0:0:0:
51,192,241305,1,0,0:0:0:0:
256,192,241373,1,0,0:0:0:0:
153,192,241373,1,0,0:0:0:0:
358,192,241441,1,0,0:0:0:0:
460,192,241441,1,0,0:0:0:0:
153,192,241509,1,0,0:0:0:0:
51,192,241509,1,0,0:0:0:0:
256,192,241577,1,0,0:0:0:0:
358,192,241577,1,0,0:0:0:0:
51,192,241646,1,0,0:0:0:0:
460,192,241646,1,0,0:0:0:0:
153,192,241714,1,0,0:0:0:0:
256,192,241714,1,0,0:0:0:0:
460,192,241782,1,0,0:0:0:0:
358,192,241782,1,0,0:0:0:0:
51,192,241850,1,0,0:0:0:0:
153,192,241850,1,0,0:0:0:0:
358,192,241918,1,0,0:0:0:0:
256,192,241918,1,0,0:0:0:0:
460,192,241986,1,0,0:0:0:0:
51,192,241986,1,0,0:0:0:0:
256,192,242055,1,0,0:0:0:0:
153,192,242055,1,0,0:0:0:0:
358,192,242123,1,0,0:0:0:0:
460,192,242123,1,0,0:0:0:0:
51,192,242191,1,0,0:0:0:0:
153,192,242191,1,0,0:0:0:0:
256,192,242259,1,0,0:0:0:0:
358,192,242259,1,0,0:0:0:0:
51,192,242327,1,0,0:0:0:0:
153,192,242327,1,0,0:0:0:0:
460,192,242327,128,0,242418:0:0:0:0:
358,192,242418,128,0,242509:0:0:0:0:
256,192,242509,128,0,242600:0:0:0:0:
153,192,242600,128,0,242691:0:0:0:0:
51,192,242691,128,0,242782:0:0:0:0:
153,192,242782,128,0,242873:0:0:0:0:
256,192,242873,128,0,242964:0:0:0:0:
358,192,242964,128,0,243055:0:0:0:0:
460,192,243055,128,0,243146:0:0:0:0:
358,192,243146,128,0,243236:0:0:0:0:
256,192,243236,128,0,243327:0:0:0:0:
153,192,243327,128,0,243418:0:0:0:0:
460,192,243418,1,0,0:0:0:0:
51,192,243418,1,0,0:0:0:0:
358,192,243452,1,0,0:0:0:0:
256,192,243486,1,0,0:0:0:0:
51,192,243555,1,0,0:0:0:0:
153,192,243555,1,0,0:0:0:0:
358,192,243623,1,0,0:0:0:0:
460,192,243623,1,0,0:0:0:0:
51,192,243691,1,0,0:0:0:0:
153,192,243725,1,0,0:0:0:0:
256,192,243759,1,0,0:0:0:0:
358,192,243827,1,0,0:0:0:0:
460,192,243827,1,0,0:0:0:0:
153,192,243896,1,0,0:0:0:0:
51,192,243896,1,0,0:0:0:0:
460,192,243964,1,0,0:0:0:0:
358,192,243998,1,0,0:0:0:0:
256,192,244032,1,0,0:0:0:0:
153,192,244100,1,0,0:0:0:0:
51,192,244100,1,0,0:0:0:0:
358,192,244168,1,0,0:0:0:0:
460,192,244168,1,0,0:0:0:0:
153,192,244236,1,0,0:0:0:0:
51,192,244236,128,0,244327:0:0:0:0:
256,192,244327,128,0,244418:0:0:0:0:
358,192,244418,1,0,0:0:0:0:
460,192,244418,128,0,244509:0:0:0:0:
256,192,244509,128,0,244782:0:0:0:0:
51,192,244509,128,0,244782:0:0:0:0:
153,192,244782,128,0,245055:0:0:0:0:
358,192,244782,128,0,245055:0:0:0:0:
460,192,245055,128,0,245327:0:0:0:0:
256,192,245055,128,0,245327:0:0:0:0:
51,192,245327,1,0,0:0:0:0:
153,192,245327,1,0,0:0:0:0:
358,192,245327,1,0,0:0:0:0:
256,192,245464,1,0,0:0:0:0:
460,192,245464,1,0,0:0:0:0:
358,192,245464,1,0,0:0:0:0:
51,192,245600,1,0,0:0:0:0:
153,192,245600,1,0,0:0:0:0:
460,192,245600,1,0,0:0:0:0:
460,192,245736,1,0,0:0:0:0:
256,192,245736,1,0,0:0:0:0:
358,192,245827,1,0,0:0:0:0:
460,192,245827,1,0,0:0:0:0:
153,192,245873,1,0,0:0:0:0:
51,192,245873,1,0,0:0:0:0:
256,192,245873,1,0,0:0:0:0:
256,192,246009,1,0,0:0:0:0:
460,192,246146,1,0,0:0:0:0:
358,192,246146,1,0,0:0:0:0:
153,192,246214,1,0,0:0:0:0:
256,192,246214,1,0,0:0:0:0:
51,192,246214,1,0,0:0:0:0:
51,192,246282,1,0,0:0:0:0:
358,192,246282,1,0,0:0:0:0:
460,192,246282,1,0,0:0:0:0:
358,192,246418,1,0,0:0:0:0:
460,192,246418,1,0,0:0:0:0:
256,192,246418,1,0,0:0:0:0:
51,192,246555,1,0,0:0:0:0:
153,192,246555,1,0,0:0:0:0:
358,192,246691,1,0,0:0:0:0:
460,192,246691,1,0,0:0:0:0:
153,192,246691,1,0,0:0:0:0:
51,192,246827,1,0,0:0:0:0:
460,192,246827,1,0,0:0:0:0:
256,192,246896,1,0,0:0:0:0:
153,192,246896,1,0,0:0:0:0:
51,192,246896,1,0,0:0:0:0:
460,192,246964,1,0,0:0:0:0:
358,192,246964,1,0,0:0:0:0:
51,192,247100,1,0,0:0:0:0:
256,192,247100,1,0,0:0:0:0:
358,192,247236,1,0,0:0:0:0:
460,192,247236,1,0,0:0:0:0:
51,192,247305,1,0,0:0:0:0:
153,192,247305,1,0,0:0:0:0:
256,192,247305,1,0,0:0:0:0:
460,192,247373,1,0,0:0:0:0:
51,192,247373,1,0,0:0:0:0:
358,192,247373,1,0,0:0:0:0:
51,192,247509,1,0,0:0:0:0:
153,192,247509,1,0,0:0:0:0:
358,192,247509,1,0,0:0:0:0:
256,192,247646,1,0,0:0:0:0:
460,192,247646,1,0,0:0:0:0:
153,192,247646,1,0,0:0:0:0:
153,192,247782,1,0,0:0:0:0:
51,192,247782,1,0,0:0:0:0:
358,192,247850,1,0,0:0:0:0:
460,192,247850,1,0,0:0:0:0:
51,192,247918,1,0,0:0:0:0:
153,192,247918,1,0,0:0:0:0:
358,192,247986,1,0,0:0:0:0:
460,192,247986,1,0,0:0:0:0:
256,192,247986,1,0,0:0:0:0:
51,192,248055,1,0,0:0:0:0:
153,192,248055,1,0,0:0:0:0:
460,192,248055,1,0,0:0:0:0:
51,192,248191,1,0,0:0:0:0:
460,192,248191,1,0,0:0:0:0:
256,192,248191,1,0,0:0:0:0:
358,192,248327,1,0,0:0:0:0:
153,192,248327,1,0,0:0:0:0:
256,192,248396,1,0,0:0:0:0:
51,192,248396,1,0,0:0:0:0:
460,192,248396,1,0,0:0:0:0:
358,192,248464,1,0,0:0:0:0:
153,192,248464,1,0,0:0:0:0:
51,192,248464,1,0,0:0:0:0:
358,192,248600,128,0,248873:0:0:0:0:
460,192,248600,128,0,248873:0:0:0:0:
256,192,248873,128,0,249146:0:0:0:0:
51,192,248873,128,0,249146:0:0:0:0:
460,192,249077,1,0,0:0:0:0:
358,192,249077,1,0,0:0:0:0:
153,192,249146,128,0,249418:0:0:0:0:
358,192,249146,128,0,249418:0:0:0:0:
51,192,249282,1,0,0:0:0:0:
460,192,249282,1,0,0:0:0:0:
256,192,249418,128,0,249691:0:0:0:0:
460,192,249418,128,0,249691:0:0:0:0:
153,192,249486,1,0,0:0:0:0:
358,192,249555,1,0,0:0:0:0:
51,192,249555,1,0,0:0:0:0:
153,192,249691,1,0,0:0:0:0:
358,192,249691,1,0,0:0:0:0:
51,192,249691,1,0,0:0:0:0:
153,192,249827,1,0,0:0:0:0:
256,192,249827,1,0,0:0:0:0:
358,192,249827,1,0,0:0:0:0:
358,192,249964,1,0,0:0:0:0:
460,192,249964,1,0,0:0:0:0:
51,192,249964,1,0,0:0:0:0:
153,192,250168,1,0,0:0:0:0:
256,192,250168,1,0,0:0:0:0:
358,192,250236,1,0,0:0:0:0:
460,192,250236,1,0,0:0:0:0:
51,192,250236,1,0,0:0:0:0:
256,192,250373,128,0,250441:0:0:0:0:
153,192,250373,128,0,250441:0:0:0:0:
51,192,250373,128,0,250441:0:0:0:0:
51,192,250509,1,0,0:0:0:0:
153,192,250509,1,0,0:0:0:0:
256,192,250577,1,0,0:0:0:0:
358,192,250577,1,0,0:0:0:0:
460,192,250577,1,0,0:0:0:0:
51,192,250646,1,0,0:0:0:0:
153,192,250646,1,0,0:0:0:0:
460,192,250646,1,0,0:0:0:0:
460,192,250782,1,0,0:0:0:0:
256,192,250782,1,0,0:0:0:0:
153,192,250782,1,0,0:0:0:0:
256,192,250918,128,0,250986:0:0:0:0:
153,192,250918,128,0,250986:0:0:0:0:
51,192,250918,128,0,250986:0:0:0:0:
358,192,251055,1,0,0:0:0:0:
460,192,251055,1,0,0:0:0:0:
51,192,251055,1,0,0:0:0:0:
51,192,251259,1,0,0:0:0:0:
153,192,251259,1,0,0:0:0:0:
460,192,251259,1,0,0:0:0:0:
358,192,251327,1,0,0:0:0:0:
460,192,251327,1,0,0:0:0:0:
256,192,251327,1,0,0:0:0:0:
256,192,251464,128,0,251532:0:0:0:0:
153,192,251464,128,0,251532:0:0:0:0:
51,192,251464,128,0,251532:0:0:0:0:
460,192,251600,1,0,0:0:0:0:
358,192,251600,1,0,0:0:0:0:
51,192,251668,1,0,0:0:0:0:
153,192,251668,1,0,0:0:0:0:
256,192,251668,1,0,0:0:0:0:
51,192,251736,1,0,0:0:0:0:
358,192,251736,1,0,0:0:0:0:
460,192,251736,1,0,0:0:0:0:
153,192,251873,1,0,0:0:0:0:
256,192,251873,1,0,0:0:0:0:
460,192,251873,1,0,0:0:0:0:
256,192,252009,128,0,252077:0:0:0:0:
153,192,252009,128,0,252077:0:0:0:0:
51,192,252009,128,0,252077:0:0:0:0:
358,192,252146,1,0,0:0:0:0:
460,192,252146,1,0,0:0:0:0:
51,192,252146,1,0,0:0:0:0:
51,192,252350,1,0,0:0:0:0:
256,192,252350,1,0,0:0:0:0:
460,192,252350,1,0,0:0:0:0:
358,192,252418,1,0,0:0:0:0:
460,192,252418,1,0,0:0:0:0:
153,192,252418,1,0,0:0:0:0:
51,192,252555,128,0,252623:0:0:0:0:
153,192,252555,128,0,252623:0:0:0:0:
256,192,252555,128,0,252623:0:0:0:0:
153,192,252691,1,0,0:0:0:0:
358,192,252691,1,0,0:0:0:0:
460,192,252691,1,0,0:0:0:0:
256,192,252759,1,0,0:0:0:0:
51,192,252759,1,0,0:0:0:0:
358,192,252827,1,0,0:0:0:0:
51,192,252827,1,0,0:0:0:0:
460,192,252827,1,0,0:0:0:0:
153,192,252964,1,0,0:0:0:0:
460,192,252964,1,0,0:0:0:0:
358,192,252964,1,0,0:0:0:0:
460,192,253100,1,0,0:0:0:0:
51,192,253100,1,0,0:0:0:0:
51,192,253236,128,0,254055:0:0:0:0:
153,192,253236,128,0,253509:0:0:0:0:
256,192,253236,1,0,0:0:0:0:
256,192,253509,128,0,253782:0:0:0:0:
358,192,253646,1,0,0:0:0:0:
460,192,253646,1,0,0:0:0:0:
358,192,253782,128,0,254055:0:0:0:0:
256,192,253850,1,0,0:0:0:0:
153,192,253918,1,0,0:0:0:0:
460,192,253918,1,0,0:0:0:0:
460,192,254055,128,0,254600:0:0:0:0:
153,192,254055,1,0,0:0:0:0:
256,192,254055,1,0,0:0:0:0:
358,192,254191,1,0,0:0:0:0:
51,192,254191,1,0,0:0:0:0:
256,192,254327,1,0,0:0:0:0:
51,192,254327,1,0,0:0:0:0:
153,192,254327,1,0,0:0:0:0:
358,192,254464,1,0,0:0:0:0:
153,192,254464,1,0,0:0:0:0:
51,192,254532,1,0,0:0:0:0:
153,192,254532,1,0,0:0:0:0:
51,192,254600,128,0,255418:0:0:0:0:
256,192,254600,1,0,0:0:0:0:
358,192,254600,1,0,0:0:0:0:
153,192,254736,1,0,0:0:0:0:
460,192,254736,1,0,0:0:0:0:
358,192,254873,1,0,0:0:0:0:
256,192,254873,1,0,0:0:0:0:
153,192,254941,1,0,0:0:0:0:
460,192,254941,1,0,0:0:0:0:
460,192,255009,1,0,0:0:0:0:
358,192,255009,1,0,0:0:0:0:
256,192,255009,1,0,0:0:0:0:
153,192,255146,1,0,0:0:0:0:
460,192,255146,1,0,0:0:0:0:
460,192,255282,1,0,0:0:0:0:
358,192,255282,1,0,0:0:0:0:
256,192,255282,1,0,0:0:0:0:
460,192,255418,128,0,256236:0:0:0:0:
256,192,255418,1,0,0:0:0:0:
153,192,255418,1,0,0:0:0:0:
51,192,255555,1,0,0:0:0:0:
358,192,255555,1,0,0:0:0:0:
256,192,255623,1,0,0:0:0:0:
358,192,255623,1,0,0:0:0:0:
153,192,255691,1,0,0:0:0:0:
51,192,255691,1,0,0:0:0:0:
51,192,255827,1,0,0:0:0:0:
358,192,255827,1,0,0:0:0:0:
256,192,255964,1,0,0:0:0:0:
153,192,255964,1,0,0:0:0:0:
51,192,256032,1,0,0:0:0:0:
358,192,256032,1,0,0:0:0:0:
153,192,256100,1,0,0:0:0:0:
51,192,256100,1,0,0:0:0:0:
51,192,256236,128,0,256782:0:0:0:0:
358,192,256236,1,0,0:0:0:0:
256,192,256236,1,0,0:0:0:0:
358,192,256373,1,0,0:0:0:0:
153,192,256373,1,0,0:0:0:0:
460,192,256509,1,0,0:0:0:0:
153,192,256509,1,0,0:0:0:0:
358,192,256577,1,0,0:0:0:0:
256,192,256646,1,0,0:0:0:0:
153,192,256714,1,0,0:0:0:0:
460,192,256714,1,0,0:0:0:0:
460,192,256782,128,0,257600:0:0:0:0:
256,192,256782,1,0,0:0:0:0:
358,192,256782,1,0,0:0:0:0:
51,192,256918,1,0,0:0:0:0:
153,192,256918,1,0,0:0:0:0:
256,192,257055,1,0,0:0:0:0:
153,192,257055,1,0,0:0:0:0:
51,192,257055,1,0,0:0:0:0:
51,192,257123,1,0,0:0:0:0:
153,192,257123,1,0,0:0:0:0:
358,192,257191,1,0,0:0:0:0:
256,192,257191,1,0,0:0:0:0:
51,192,257327,128,0,257600:0:0:0:0:
153,192,257327,128,0,257600:0:0:0:0:
256,192,257600,128,0,257873:0:0:0:0:
358,192,257600,128,0,257873:0:0:0:0:
153,192,257873,128,0,258077:0:0:0:0:
51,192,257873,128,0,258077:0:0:0:0:
256,192,258009,1,0,0:0:0:0:
358,192,258009,1,0,0:0:0:0:
460,192,258009,1,0,0:0:0:0:
358,192,258146,1,0,0:0:0:0:
460,192,258146,1,0,0:0:0:0:
51,192,258146,1,0,0:0:0:0:
153,192,258146,1,0,0:0:0:0:
256,192,258214,1,0,0:0:0:0:
460,192,258282,128,0,258350:0:0:0:0:
358,192,258282,128,0,258350:0:0:0:0:
153,192,258418,1,0,0:0:0:0:
256,192,258418,1,0,0:0:0:0:
51,192,258418,1,0,0:0:0:0:
256,192,258555,1,0,0:0:0:0:
358,192,258555,1,0,0:0:0:0:
153,192,258623,1,0,0:0:0:0:
51,192,258623,1,0,0:0:0:0:
358,192,258691,128,0,258759:0:0:0:0:
460,192,258691,128,0,258759:0:0:0:0:
460,192,258827,128,0,258896:0:0:0:0:
358,192,258827,128,0,258896:0:0:0:0:
153,192,258964,1,0,0:0:0:0:
256,192,258964,1,0,0:0:0:0:
51,192,259032,1,0,0:0:0:0:
358,192,259100,128,0,259168:0:0:0:0:
460,192,259100,128,0,259168:0:0:0:0:
153,192,259100,1,0,0:0:0:0:
256,192,259100,1,0,0:0:0:0:
51,192,259236,1,0,0:0:0:0:
460,192,259236,128,0,259305:0:0:0:0:
153,192,259236,1,0,0:0:0:0:
358,192,259236,128,0,259305:0:0:0:0:
256,192,259373,1,0,0:0:0:0:
358,192,259373,1,0,0:0:0:0:
153,192,259441,1,0,0:0:0:0:
358,192,259509,128,0,259577:0:0:0:0:
460,192,259509,128,0,259577:0:0:0:0:
256,192,259509,1,0,0:0:0:0:
51,192,259509,1,0,0:0:0:0:
358,192,259646,128,0,259714:0:0:0:0:
460,192,259646,128,0,259714:0:0:0:0:
51,192,259782,128,0,260055:0:0:0:0:
153,192,259782,128,0,260055:0:0:0:0:
358,192,259782,1,0,0:0:0:0:
460,192,259782,1,0,0:0:0:0:
256,192,260055,128,0,260327:0:0:0:0:
358,192,260055,128,0,260327:0:0:0:0:
51,192,260191,1,0,0:0:0:0:
460,192,260191,1,0,0:0:0:0:
460,192,260327,1,0,0:0:0:0:
51,192,260327,1,0,0:0:0:0:
153,192,260327,1,0,0:0:0:0:
256,192,260396,1,0,0:0:0:0:
153,192,260464,128,0,260532:0:0:0:0:
51,192,260464,128,0,260532:0:0:0:0:
460,192,260600,1,0,0:0:0:0:
256,192,260600,1,0,0:0:0:0:
358,192,260600,1,0,0:0:0:0:
256,192,260736,1,0,0:0:0:0:
153,192,260736,1,0,0:0:0:0:
358,192,260805,1,0,0:0:0:0:
460,192,260805,1,0,0:0:0:0:
51,192,260873,128,0,260941:0:0:0:0:
153,192,260873,128,0,260941:0:0:0:0:
256,192,260873,1,0,0:0:0:0:
153,192,261009,128,0,261077:0:0:0:0:
51,192,261009,128,0,261077:0:0:0:0:
358,192,261146,1,0,0:0:0:0:
460,192,261146,1,0,0:0:0:0:
256,192,261214,1,0,0:0:0:0:
153,192,261282,128,0,261350:0:0:0:0:
51,192,261282,128,0,261350:0:0:0:0:
358,192,261282,1,0,0:0:0:0:
460,192,261282,1,0,0:0:0:0:
358,192,261418,1,0,0:0:0:0:
460,192,261418,1,0,0:0:0:0:
153,192,261418,1,0,0:0:0:0:
51,192,261418,1,0,0:0:0:0:
256,192,261418,128,0,261964:0:0:0:0:
460,192,261964,1,0,0:0:0:0:
153,192,261964,1,0,0:0:0:0:
51,192,261964,1,0,0:0:0:0:
358,192,261964,1,0,0:0:0:0:
51,192,262100,1,0,0:0:0:0:
153,192,262100,1,0,0:0:0:0:
358,192,262100,1,0,0:0:0:0:
460,192,262100,1,0,0:0:0:0:
51,192,262236,1,0,0:0:0:0:
256,192,262236,1,0,0:0:0:0:
460,192,262236,1,0,0:0:0:0:
153,192,262327,1,0,0:0:0:0:
358,192,262327,1,0,0:0:0:0:
256,192,262418,1,0,0:0:0:0:
460,192,262418,1,0,0:0:0:0:
51,192,262418,1,0,0:0:0:0:
51,192,262509,128,0,262691:0:0:0:0:
153,192,262509,128,0,262691:0:0:0:0:
358,192,262509,128,0,262691:0:0:0:0:
460,192,262509,128,0,262691:0:0:0:0:
51,192,262782,1,0,0:0:0:0:
153,192,262782,1,0,0:0:0:0:
460,192,262782,1,0,0:0:0:0:
256,192,262850,1,0,0:0:0:0:
358,192,262918,1,0,0:0:0:0:
460,192,262986,1,0,0:0:0:0:
153,192,263055,1,0,0:0:0:0:
256,192,263055,1,0,0:0:0:0:
51,192,263055,1,0,0:0:0:0:
358,192,263123,1,0,0:0:0:0:
460,192,263191,1,0,0:0:0:0:
51,192,263259,1,0,0:0:0:0:
256,192,263327,1,0,0:0:0:0:
358,192,263327,1,0,0:0:0:0:
153,192,263327,1,0,0:0:0:0:
460,192,263396,1,0,0:0:0:0:
51,192,263464,1,0,0:0:0:0:
153,192,263532,1,0,0:0:0:0:
358,192,263600,1,0,0:0:0:0:
460,192,263600,1,0,0:0:0:0:
256,192,263600,1,0,0:0:0:0:
51,192,263668,1,0,0:0:0:0:
153,192,263736,1,0,0:0:0:0:
256,192,263805,1,0,0:0:0:0:
460,192,263873,1,0,0:0:0:0:
51,192,263873,1,0,0:0:0:0:
358,192,263873,1,0,0:0:0:0:
153,192,263941,1,0,0:0:0:0:
256,192,264009,1,0,0:0:0:0:
358,192,264077,1,0,0:0:0:0:
51,192,264146,1,0,0:0:0:0:
153,192,264146,1,0,0:0:0:0:
460,192,264146,1,0,0:0:0:0:
256,192,264214,1,0,0:0:0:0:
358,192,264282,1,0,0:0:0:0:
460,192,264350,1,0,0:0:0:0:
51,192,264418,1,0,0:0:0:0:
153,192,264418,1,0,0:0:0:0:
256,192,264418,1,0,0:0:0:0:
358,192,264486,1,0,0:0:0:0:
460,192,264555,1,0,0:0:0:0:
51,192,264623,1,0,0:0:0:0:
153,192,264691,1,0,0:0:0:0:
256,192,264691,1,0,0:0:0:0:
358,192,264691,1,0,0:0:0:0:
460,192,264759,1,0,0:0:0:0:
51,192,264827,1,0,0:0:0:0:
153,192,264896,1,0,0:0:0:0:
256,192,264964,1,0,0:0:0:0:
358,192,264964,1,0,0:0:0:0:
460,192,264964,1,0,0:0:0:0:
51,192,265032,1,0,0:0:0:0:
153,192,265100,1,0,0:0:0:0:
256,192,265168,1,0,0:0:0:0:
358,192,265236,1,0,0:0:0:0:
460,192,265236,1,0,0:0:0:0:
51,192,265236,1,0,0:0:0:0:
153,192,265305,1,0,0:0:0:0:
256,192,265373,1,0,0:0:0:0:
358,192,265441,1,0,0:0:0:0:
460,192,265509,1,0,0:0:0:0:
51,192,265509,1,0,0:0:0:0:
153,192,265509,1,0,0:0:0:0:
256,192,265577,1,0,0:0:0:0:
358,192,265646,1,0,0:0:0:0:
460,192,265714,1,0,0:0:0:0:
51,192,265782,1,0,0:0:0:0:
153,192,265782,1,0,0:0:0:0:
256,192,265782,1,0,0:0:0:0:
358,192,265850,1,0,0:0:0:0:
460,192,265918,1,0,0:0:0:0:
51,192,265986,1,0,0:0:0:0:
153,192,266055,1,0,0:0:0:0:
256,192,266055,1,0,0:0:0:0:
358,192,266055,1,0,0:0:0:0:
460,192,266123,1,0,0:0:0:0:
51,192,266191,1,0,0:0:0:0:
153,192,266259,1,0,0:0:0:0:
256,192,266327,1,0,0:0:0:0:
358,192,266327,1,0,0:0:0:0:
460,192,266327,1,0,0:0:0:0:
51,192,266418,1,0,0:0:0:0:
153,192,266418,1,0,0:0:0:0:
358,192,266509,1,0,0:0:0:0:
460,192,266509,1,0,0:0:0:0:
51,192,266600,1,0,0:0:0:0:
153,192,266600,1,0,0:0:0:0:
358,192,266691,1,0,0:0:0:0:
460,192,266691,1,0,0:0:0:0:
51,192,266782,1,0,0:0:0:0:
153,192,266782,1,0,0:0:0:0:
256,192,266873,128,0,267077:0:0:0:0:
358,192,266873,128,0,267077:0:0:0:0:
460,192,266873,128,0,267077:0:0:0:0:
51,192,267146,1,0,0:0:0:0:
460,192,267146,1,0,0:0:0:0:
153,192,267146,1,0,0:0:0:0:
358,192,267214,1,0,0:0:0:0:
256,192,267282,1,0,0:0:0:0:
153,192,267350,1,0,0:0:0:0:
51,192,267418,1,0,0:0:0:0:
358,192,267418,1,0,0:0:0:0:
460,192,267418,1,0,0:0:0:0:
153,192,267486,1,0,0:0:0:0:
256,192,267555,1,0,0:0:0:0:
358,192,267623,1,0,0:0:0:0:
460,192,267691,1,0,0:0:0:0:
51,192,267691,1,0,0:0:0:0:
153,192,267691,1,0,0:0:0:0:
358,192,267759,1,0,0:0:0:0:
256,192,267827,1,0,0:0:0:0:
153,192,267827,1,0,0:0:0:0:
51,192,267827,1,0,0:0:0:0:
51,192,267964,1,0,0:0:0:0:
358,192,267964,1,0,0:0:0:0:
460,192,267964,1,0,0:0:0:0:
153,192,268032,1,0,0:0:0:0:
256,192,268100,1,0,0:0:0:0:
358,192,268168,1,0,0:0:0:0:
460,192,268236,1,0,0:0:0:0:
51,192,268236,1,0,0:0:0:0:
153,192,268236,1,0,0:0:0:0:
358,192,268305,1,0,0:0:0:0:
256,192,268373,1,0,0:0:0:0:
153,192,268373,1,0,0:0:0:0:
51,192,268373,1,0,0:0:0:0:
51,192,268509,1,0,0:0:0:0:
358,192,268509,1,0,0:0:0:0:
460,192,268509,1,0,0:0:0:0:
153,192,268577,1,0,0:0:0:0:
256,192,268646,1,0,0:0:0:0:
358,192,268714,1,0,0:0:0:0:
460,192,268714,1,0,0:0:0:0:
460,192,268782,1,0,0:0:0:0:
153,192,268782,1,0,0:0:0:0:
51,192,268782,1,0,0:0:0:0:
256,192,268918,1,0,0:0:0:0:
460,192,268918,1,0,0:0:0:0:
358,192,268918,1,0,0:0:0:0:
51,192,269055,1,0,0:0:0:0:
256,192,269055,1,0,0:0:0:0:
153,192,269055,1,0,0:0:0:0:
460,192,269123,1,0,0:0:0:0:
358,192,269123,1,0,0:0:0:0:
51,192,269191,1,0,0:0:0:0:
153,192,269191,1,0,0:0:0:0:
358,192,269259,1,0,0:0:0:0:
460,192,269259,1,0,0:0:0:0:
51,192,269327,128,0,269532:0:0:0:0:
153,192,269327,128,0,269532:0:0:0:0:
256,192,269327,128,0,269532:0:0:0:0:
358,192,269464,128,0,269532:0:0:0:0:
460,192,269464,128,0,269532:0:0:0:0:
460,192,269600,1,0,0:0:0:0:
358,192,269668,1,0,0:0:0:0:
256,192,269736,1,0,0:0:0:0:
153,192,269805,1,0,0:0:0:0:
51,192,269805,1,0,0:0:0:0:
460,192,269873,1,0,0:0:0:0:
256,192,269873,1,0,0:0:0:0:
358,192,269873,1,0,0:0:0:0:
51,192,270009,1,0,0:0:0:0:
460,192,270009,1,0,0:0:0:0:
153,192,270009,1,0,0:0:0:0:
153,192,270214,1,0,0:0:0:0:
256,192,270214,1,0,0:0:0:0:
358,192,270214,1,0,0:0:0:0:
51,192,270418,1,0,0:0:0:0:
256,192,270418,1,0,0:0:0:0:
460,192,270418,1,0,0:0:0:0:
460,192,270691,1,0,0:0:0:0:
358,192,270691,1,0,0:0:0:0:
256,192,270691,1,0,0:0:0:0:
153,192,270782,1,0,0:0:0:0:
51,192,270782,1,0,0:0:0:0:
256,192,270873,1,0,0:0:0:0:
358,192,270873,1,0,0:0:0:0:
51,192,270964,1,0,0:0:0:0:
460,192,270964,1,0,0:0:0:0:
153,192,271055,1,0,0:0:0:0:
256,192,271055,1,0,0:0:0:0:
460,192,271146,1,0,0:0:0:0:
358,192,271146,1,0,0:0:0:0:
51,192,271236,128,0,271418:0:0:0:0:
153,192,271236,128,0,271418:0:0:0:0:
256,192,271236,128,0,271418:0:0:0:0:
51,192,271509,1,0,0:0:0:0:
256,192,271509,1,0,0:0:0:0:
153,192,271600,1,0,0:0:0:0:
358,192,271600,1,0,0:0:0:0:
460,192,271691,1,0,0:0:0:0:
256,192,271691,1,0,0:0:0:0:
51,192,271782,1,0,0:0:0:0:
358,192,271782,1,0,0:0:0:0:
460,192,271873,1,0,0:0:0:0:
153,192,271873,1,0,0:0:0:0:
51,192,271964,1,0,0:0:0:0:
256,192,271964,1,0,0:0:0:0:
358,192,272055,1,0,0:0:0:0:
153,192,272055,1,0,0:0:0:0:
256,192,272146,1,0,0:0:0:0:
460,192,272146,1,0,0:0:0:0:
358,192,272236,1,0,0:0:0:0:
51,192,272236,1,0,0:0:0:0:
460,192,272327,1,0,0:0:0:0:
153,192,272327,1,0,0:0:0:0:
256,192,272418,1,0,0:0:0:0:
51,192,272418,1,0,0:0:0:0:
153,192,272509,1,0,0:0:0:0:
358,192,272509,1,0,0:0:0:0:
460,192,272600,1,0,0:0:0:0:
256,192,272600,1,0,0:0:0:0:
51,192,272691,1,0,0:0:0:0:
358,192,272691,1,0,0:0:0:0:
460,192,272782,1,0,0:0:0:0:
153,192,272782,1,0,0:0:0:0:
51,192,272873,1,0,0:0:0:0:
256,192,272873,1,0,0:0:0:0:
153,192,272964,1,0,0:0:0:0:
460,192,272964,1,0,0:0:0:0:
51,192,273055,1,0,0:0:0:0:
358,192,273055,1,0,0:0:0:0:
256,192,273146,1,0,0:0:0:0:
460,192,273146,1,0,0:0:0:0:
153,192,273236,1,0,0:0:0:0:
358,192,273236,1,0,0:0:0:0:
256,192,273327,1,0,0:0:0:0:
51,192,273327,1,0,0:0:0:0:
153,192,273418,1,0,0:0:0:0:
460,192,273418,1,0,0:0:0:0:
51,192,273509,1,0,0:0:0:0:
358,192,273509,1,0,0:0:0:0:
256,192,273600,1,0,0:0:0:0:
460,192,273691,1,0,0:0:0:0:
153,192,273691,1,0,0:0:0:0:
51,192,273782,1,0,0:0:0:0:
358,192,273782,1,0,0:0:0:0:
256,192,273873,1,0,0:0:0:0:
460,192,273873,1,0,0:0:0:0:
153,192,273964,1,0,0:0:0:0:
358,192,273964,1,0,0:0:0:0:
51,192,274055,1,0,0:0:0:0:
256,192,274055,1,0,0:0:0:0:
153,192,274146,1,0,0:0:0:0:
460,192,274146,1,0,0:0:0:0:
51,192,274236,1,0,0:0:0:0:
358,192,274236,1,0,0:0:0:0:
256,192,274327,1,0,0:0:0:0:
460,192,274327,1,0,0:0:0:0:
153,192,274418,1,0,0:0:0:0:
358,192,274418,1,0,0:0:0:0:
51,192,274509,1,0,0:0:0:0:
256,192,274509,1,0,0:0:0:0:
153,192,274600,1,0,0:0:0:0:
460,192,274600,1,0,0:0:0:0:
51,192,274691,1,0,0:0:0:0:
358,192,274691,1,0,0:0:0:0:
256,192,274782,1,0,0:0:0:0:
460,192,274782,1,0,0:0:0:0:
153,192,274873,1,0,0:0:0:0:
358,192,274873,1,0,0:0:0:0:
51,192,274964,1,0,0:0:0:0:
256,192,274964,1,0,0:0:0:0:
460,192,275055,1,0,0:0:0:0:
358,192,275055,1,0,0:0:0:0:
51,192,275123,1,0,0:0:0:0:
153,192,275123,1,0,0:0:0:0:
358,192,275191,1,0,0:0:0:0:
460,192,275191,1,0,0:0:0:0:
153,192,275259,1,0,0:0:0:0:
51,192,275259,1,0,0:0:0:0:
460,192,275327,1,0,0:0:0:0:
358,192,275327,1,0,0:0:0:0:
51,192,275396,1,0,0:0:0:0:
153,192,275396,1,0,0:0:0:0:
460,192,275464,1,0,0:0:0:0:
358,192,275464,1,0,0:0:0:0:
51,192,275532,1,0,0:0:0:0:
153,192,275532,1,0,0:0:0:0:
358,192,275600,1,0,0:0:0:0:
460,192,275600,1,0,0:0:0:0:
153,192,275668,1,0,0:0:0:0:
51,192,275668,1,0,0:0:0:0:
358,192,275736,1,0,0:0:0:0:
460,192,275736,1,0,0:0:0:0:
153,192,275805,1,0,0:0:0:0:
51,192,275805,1,0,0:0:0:0:
460,192,275873,1,0,0:0:0:0:
358,192,275873,1,0,0:0:0:0:
51,192,275941,1,0,0:0:0:0:
153,192,275941,1,0,0:0:0:0:
460,192,276009,1,0,0:0:0:0:
358,192,276009,1,0,0:0:0:0:
51,192,276077,1,0,0:0:0:0:
153,192,276077,1,0,0:0:0:0:
358,192,276146,1,0,0:0:0:0:
460,192,276146,1,0,0:0:0:0:
153,192,276214,1,0,0:0:0:0:
51,192,276214,1,0,0:0:0:0:
358,192,276282,1,0,0:0:0:0:
460,192,276282,1,0,0:0:0:0:
153,192,276350,1,0,0:0:0:0:
51,192,276350,1,0,0:0:0:0:
460,192,276418,1,0,0:0:0:0:
358,192,276418,1,0,0:0:0:0:
51,192,276486,1,0,0:0:0:0:
153,192,276486,1,0,0:0:0:0:
460,192,276555,1,0,0:0:0:0:
358,192,276555,1,0,0:0:0:0:
51,192,276623,1,0,0:0:0:0:
153,192,276623,1,0,0:0:0:0:
358,192,276691,1,0,0:0:0:0:
460,192,276691,1,0,0:0:0:0:
153,192,276759,1,0,0:0:0:0:
51,192,276759,1,0,0:0:0:0:
358,192,276827,1,0,0:0:0:0:
460,192,276827,1,0,0:0:0:0:
153,192,276896,1,0,0:0:0:0:
51,192,276896,1,0,0:0:0:0:
460,192,276964,1,0,0:0:0:0:
358,192,276964,1,0,0:0:0:0:
51,192,277032,1,0,0:0:0:0:
153,192,277032,1,0,0:0:0:0:
460,192,277100,1,0,0:0:0:0:
358,192,277100,1,0,0:0:0:0:
51,192,277168,1,0,0:0:0:0:
153,192,277168,1,0,0:0:0:0:
460,192,277236,1,0,0:0:0:0:
358,192,277271,1,0,0:0:0:0:
256,192,277305,1,0,0:0:0:0:
153,192,277339,1,0,0:0:0:0:
51,192,277373,1,0,0:0:0:0:
460,192,277373,1,0,0:0:0:0:
358,192,277407,1,0,0:0:0:0:
256,192,277441,1,0,0:0:0:0:
153,192,277475,1,0,0:0:0:0:
51,192,277509,1,0,0:0:0:0:
460,192,277509,1,0,0:0:0:0:
358,192,277543,1,0,0:0:0:0:
256,192,277577,1,0,0:0:0:0:
153,192,277611,1,0,0:0:0:0:
51,192,277646,1,0,0:0:0:0:
460,192,277646,1,0,0:0:0:0:
358,192,277680,1,0,0:0:0:0:
256,192,277714,1,0,0:0:0:0:
153,192,277748,1,0,0:0:0:0:
51,192,277782,1,0,0:0:0:0:
460,192,277782,1,0,0:0:0:0:
358,192,277816,1,0,0:0:0:0:
256,192,277850,1,0,0:0:0:0:
153,192,277884,1,0,0:0:0:0:
51,192,277918,1,0,0:0:0:0:
460,192,277918,1,0,0:0:0:0:
358,192,277952,1,0,0:0:0:0:
256,192,277986,1,0,0:0:0:0:
153,192,278021,1,0,0:0:0:0:
51,192,278055,1,0,0:0:0:0:
460,192,278055,1,0,0:0:0:0:
358,192,278089,1,0,0:0:0:0:
256,192,278123,1,0,0:0:0:0:
153,192,278157,1,0,0:0:0:0:
51,192,278191,1,0,0:0:0:0:
460,192,278191,1,0,0:0:0:0:
358,192,278225,1,0,0:0:0:0:
256,192,278259,1,0,0:0:0:0:
153,192,278293,1,0,0:0:0:0:
51,192,278327,1,0,0:0:0:0:
460,192,278327,1,0,0:0:0:0:
358,192,279418,1,0,0:0:0:0:
256,192,279418,1,0,0:0:0:0:
51,192,279418,1,0,0:0:0:0:
153,192,279418,1,0,0:0:0:0:
51,192,279555,1,0,0:0:0:0:
256,192,279555,1,0,0:0:0:0:
358,192,279555,1,0,0:0:0:0:
153,192,279555,1,0,0:0:0:0:
256,192,279691,128,0,279896:0:0:0:0:
358,192,279691,128,0,279896:0:0:0:0:
460,192,279691,128,0,279896:0:0:0:0:
153,192,279691,128,0,279896:0:0:0:0:
51,192,279827,1,0,0:0:0:0:
256,192,279964,128,0,280168:0:0:0:0:
51,192,279964,128,0,280168:0:0:0:0:
460,192,279964,128,0,280168:0:0:0:0:
358,192,279964,128,0,280168:0:0:0:0:
153,192,280100,1,0,0:0:0:0:
153,192,280236,128,0,280441:0:0:0:0:
51,192,280236,128,0,280441:0:0:0:0:
358,192,280236,128,0,280441:0:0:0:0:
460,192,280236,128,0,280441:0:0:0:0:
256,192,280373,1,0,0:0:0:0:
51,192,280509,128,0,280714:0:0:0:0:
460,192,280509,128,0,280714:0:0:0:0:
153,192,280509,128,0,280714:0:0:0:0:
256,192,280509,128,0,280714:0:0:0:0:
358,192,280646,1,0,0:0:0:0:
460,192,280782,128,0,280986:0:0:0:0:
358,192,280782,128,0,280986:0:0:0:0:
51,192,280782,128,0,280986:0:0:0:0:
256,192,280782,128,0,280986:0:0:0:0:
153,192,280918,1,0,0:0:0:0:
51,192,281055,128,0,281259:0:0:0:0:
153,192,281055,128,0,281259:0:0:0:0:
256,192,281055,128,0,281259:0:0:0:0:
358,192,281055,128,0,281259:0:0:0:0:
460,192,281191,1,0,0:0:0:0:
153,192,281327,128,0,281532:0:0:0:0:
256,192,281327,128,0,281532:0:0:0:0:
358,192,281327,128,0,281532:0:0:0:0:
460,192,281327,128,0,281532:0:0:0:0:
51,192,281464,1,0,0:0:0:0:
358,192,281600,128,0,281805:0:0:0:0:
460,192,281600,128,0,281805:0:0:0:0:
153,192,281600,128,0,281805:0:0:0:0:
51,192,281600,128,0,281805:0:0:0:0:
256,192,281736,1,0,0:0:0:0:
51,192,281873,128,0,282077:0:0:0:0:
153,192,281873,128,0,282077:0:0:0:0:
256,192,281873,128,0,282077:0:0:0:0:
460,192,281873,128,0,282077:0:0:0:0:
358,192,282009,1,0,0:0:0:0:
153,192,282146,128,0,282350:0:0:0:0:
51,192,282146,128,0,282350:0:0:0:0:
256,192,282146,128,0,282350:0:0:0:0:
358,192,282146,128,0,282350:0:0:0:0:
460,192,282282,1,0,0:0:0:0:
51,192,282418,128,0,282623:0:0:0:0:
153,192,282418,128,0,282623:0:0:0:0:
460,192,282418,128,0,282623:0:0:0:0:
358,192,282418,128,0,282623:0:0:0:0:
256,192,282555,1,0,0:0:0:0:
358,192,282691,128,0,282896:0:0:0:0:
256,192,282691,128,0,282896:0:0:0:0:
460,192,282691,128,0,282896:0:0:0:0:
51,192,282691,128,0,282896:0:0:0:0:
153,192,282827,1,0,0:0:0:0:
51,192,282964,128,0,283168:0:0:0:0:
153,192,282964,128,0,283168:0:0:0:0:
256,192,282964,128,0,283168:0:0:0:0:
460,192,282964,128,0,283168:0:0:0:0:
358,192,283100,1,0,0:0:0:0:
51,192,283236,128,0,283441:0:0:0:0:
256,192,283236,128,0,283441:0:0:0:0:
358,192,283236,128,0,283441:0:0:0:0:
153,192,283236,128,0,283441:0:0:0:0:
460,192,283373,1,0,0:0:0:0:
51,192,283509,128,0,283714:0:0:0:0:
256,192,283509,128,0,283714:0:0:0:0:
358,192,283509,128,0,283714:0:0:0:0:
460,192,283509,128,0,283714:0:0:0:0:
153,192,283646,1,0,0:0:0:0:
51,192,283782,1,0,0:0:0:0:
153,192,283782,1,0,0:0:0:0:
460,192,283782,1,0,0:0:0:0:
51,192,283850,1,0,0:0:0:0:
153,192,283850,1,0,0:0:0:0:
256,192,283850,1,0,0:0:0:0:
358,192,283850,1,0,0:0:0:0:
460,192,283986,1,0,0:0:0:0:
358,192,283986,1,0,0:0:0:0:
460,192,284055,128,0,284259:0:0:0:0:
153,192,284055,128,0,284259:0:0:0:0:
256,192,284055,128,0,284259:0:0:0:0:
358,192,284055,128,0,284259:0:0:0:0:
51,192,284191,1,0,0:0:0:0:
460,192,284327,128,0,284532:0:0:0:0:
358,192,284327,128,0,284532:0:0:0:0:
256,192,284327,128,0,284532:0:0:0:0:
51,192,284327,128,0,284532:0:0:0:0:
153,192,284464,1,0,0:0:0:0:
358,192,284600,128,0,284805:0:0:0:0:
460,192,284600,128,0,284805:0:0:0:0:
153,192,284600,128,0,284805:0:0:0:0:
51,192,284600,128,0,284805:0:0:0:0:
256,192,284736,1,0,0:0:0:0:
153,192,284873,128,0,285077:0:0:0:0:
256,192,284873,128,0,285077:0:0:0:0:
51,192,284873,128,0,285077:0:0:0:0:
460,192,284873,128,0,285077:0:0:0:0:
358,192,285009,1,0,0:0:0:0:
51,192,285146,128,0,285350:0:0:0:0:
256,192,285146,128,0,285350:0:0:0:0:
460,192,285146,128,0,285350:0:0:0:0:
358,192,285146,128,0,285350:0:0:0:0:
153,192,285282,1,0,0:0:0:0:
256,192,285418,128,0,285623:0:0:0:0:
358,192,285418,128,0,285623:0:0:0:0:
51,192,285418,128,0,285623:0:0:0:0:
153,192,285418,128,0,285623:0:0:0:0:
460,192,285555,1,0,0:0:0:0:
51,192,285691,1,0,0:0:0:0:
256,192,285691,1,0,0:0:0:0:
153,192,285759,1,0,0:0:0:0:
358,192,285759,1,0,0:0:0:0:
460,192,285827,1,0,0:0:0:0:
256,192,285827,1,0,0:0:0:0:
51,192,285896,1,0,0:0:0:0:
358,192,285896,1,0,0:0:0:0:
153,192,285964,1,0,0:0:0:0:
256,192,285964,1,0,0:0:0:0:
358,192,286032,1,0,0:0:0:0:
460,192,286032,1,0,0:0:0:0:
51,192,286100,1,0,0:0:0:0:
153,192,286100,1,0,0:0:0:0:
256,192,286168,1,0,0:0:0:0:
358,192,286168,1,0,0:0:0:0:
51,192,286236,1,0,0:0:0:0:
460,192,286236,1,0,0:0:0:0:
256,192,286305,1,0,0:0:0:0:
358,192,286305,1,0,0:0:0:0:
153,192,286373,1,0,0:0:0:0:
51,192,286373,1,0,0:0:0:0:
358,192,286441,1,0,0:0:0:0:
460,192,286441,1,0,0:0:0:0:
256,192,286509,1,0,0:0:0:0:
153,192,286509,1,0,0:0:0:0:
51,192,286577,1,0,0:0:0:0:
460,192,286577,1,0,0:0:0:0:
358,192,286646,1,0,0:0:0:0:
153,192,286646,1,0,0:0:0:0:
256,192,286714,1,0,0:0:0:0:
460,192,286714,1,0,0:0:0:0:
51,192,286782,1,0,0:0:0:0:
153,192,286782,1,0,0:0:0:0:
256,192,286850,1,0,0:0:0:0:
358,192,286850,1,0,0:0:0:0:
51,192,286918,1,0,0:0:0:0:
460,192,286918,1,0,0:0:0:0:
153,192,286986,1,0,0:0:0:0:
358,192,286986,1,0,0:0:0:0:
256,192,287055,1,0,0:0:0:0:
460,192,287055,1,0,0:0:0:0:
51,192,287123,1,0,0:0:0:0:
153,192,287123,1,0,0:0:0:0:
256,192,287191,1,0,0:0:0:0:
358,192,287191,1,0,0:0:0:0:
153,192,287259,1,0,0:0:0:0:
51,192,287259,1,0,0:0:0:0:
256,192,287327,1,0,0:0:0:0:
460,192,287327,1,0,0:0:0:0:
153,192,287396,1,0,0:0:0:0:
358,192,287396,1,0,0:0:0:0:
256,192,287464,1,0,0:0:0:0:
51,192,287464,1,0,0:0:0:0:
153,192,287532,1,0,0:0:0:0:
358,192,287532,1,0,0:0:0:0:
51,192,287600,1,0,0:0:0:0:
460,192,287600,1,0,0:0:0:0:
153,192,287668,1,0,0:0:0:0:
256,192,287668,1,0,0:0:0:0:
358,192,287736,1,0,0:0:0:0:
460,192,287736,1,0,0:0:0:0:
51,192,287805,1,0,0:0:0:0:
153,192,287805,1,0,0:0:0:0:
358,192,287873,1,0,0:0:0:0:
256,192,287873,1,0,0:0:0:0:
153,192,287941,1,0,0:0:0:0:
51,192,287941,1,0,0:0:0:0:
460,192,288009,1,0,0:0:0:0:
358,192,288009,1,0,0:0:0:0:
51,192,288077,1,0,0:0:0:0:
153,192,288077,1,0,0:0:0:0:
51,192,288146,128,0,288350:0:0:0:0:
153,192,288146,128,0,288350:0:0:0:0:
256,192,288146,128,0,288350:0:0:0:0:
358,192,288146,128,0,288350:0:0:0:0:
460,192,288146,128,0,288350:0:0:0:0:
256,192,288418,128,0,288623:0:0:0:0:
358,192,288418,128,0,288623:0:0:0:0:
460,192,288418,128,0,288623:0:0:0:0:
153,192,288418,128,0,288623:0:0:0:0:
51,192,288555,1,0,0:0:0:0:
256,192,288691,128,0,288896:0:0:0:0:
51,192,288691,128,0,288896:0:0:0:0:
460,192,288691,128,0,288896:0:0:0:0:
358,192,288691,128,0,288896:0:0:0:0:
153,192,288827,1,0,0:0:0:0:
153,192,288964,128,0,289168:0:0:0:0:
51,192,288964,128,0,289168:0:0:0:0:
358,192,288964,128,0,289168:0:0:0:0:
460,192,288964,128,0,289168:0:0:0:0:
256,192,289100,1,0,0:0:0:0:
51,192,289236,128,0,289441:0:0:0:0:
460,192,289236,128,0,289441:0:0:0:0:
153,192,289236,128,0,289441:0:0:0:0:
256,192,289236,128,0,289441:0:0:0:0:
358,192,289373,1,0,0:0:0:0:
460,192,289509,128,0,289714:0:0:0:0:
358,192,289509,128,0,289714:0:0:0:0:
51,192,289509,128,0,289714:0:0:0:0:
256,192,289509,128,0,289714:0:0:0:0:
153,192,289646,1,0,0:0:0:0:
51,192,289782,128,0,289986:0:0:0:0:
153,192,289782,128,0,289986:0:0:0:0:
256,192,289782,128,0,289986:0:0:0:0:
358,192,289782,128,0,289986:0:0:0:0:
460,192,289918,1,0,0:0:0:0:
153,192,290055,128,0,290259:0:0:0:0:
256,192,290055,128,0,290259:0:0:0:0:
358,192,290055,128,0,290259:0:0:0:0:
460,192,290055,128,0,290259:0:0:0:0:
51,192,290191,1,0,0:0:0:0:
51,192,290327,1,0,0:0:0:0:
153,192,290327,1,0,0:0:0:0:
460,192,290327,1,0,0:0:0:0:
358,192,290327,1,0,0:0:0:0:
51,192,290464,1,0,0:0:0:0:
256,192,290464,1,0,0:0:0:0:
153,192,290532,1,0,0:0:0:0:
358,192,290532,1,0,0:0:0:0:
51,192,290600,128,0,290805:0:0:0:0:
153,192,290600,128,0,290805:0:0:0:0:
256,192,290600,128,0,290805:0:0:0:0:
460,192,290600,128,0,290805:0:0:0:0:
358,192,290736,1,0,0:0:0:0:
153,192,290873,128,0,291077:0:0:0:0:
51,192,290873,128,0,291077:0:0:0:0:
256,192,290873,128,0,291077:0:0:0:0:
358,192,290873,128,0,291077:0:0:0:0:
460,192,291009,1,0,0:0:0:0:
51,192,291146,128,0,291350:0:0:0:0:
153,192,291146,128,0,291350:0:0:0:0:
460,192,291146,128,0,291350:0:0:0:0:
358,192,291146,128,0,291350:0:0:0:0:
256,192,291282,1,0,0:0:0:0:
256,192,291418,128,0,291532:0:0:0:0:
51,192,291418,128,0,291532:0:0:0:0:
358,192,291418,128,0,291532:0:0:0:0:
460,192,291418,128,0,291532:0:0:0:0:
51,192,291600,128,0,291714:0:0:0:0:
153,192,291600,128,0,291714:0:0:0:0:
460,192,291600,128,0,291714:0:0:0:0:
256,192,291600,128,0,291714:0:0:0:0:
51,192,291782,128,0,291896:0:0:0:0:
153,192,291782,128,0,291896:0:0:0:0:
256,192,291782,128,0,291896:0:0:0:0:
358,192,291782,128,0,291896:0:0:0:0:
51,192,291964,1,0,0:0:0:0:
153,192,291964,1,0,0:0:0:0:
256,192,292032,1,0,0:0:0:0:
460,192,292100,1,0,0:0:0:0:
358,192,292100,1,0,0:0:0:0:
51,192,292236,1,0,0:0:0:0:
153,192,292236,1,0,0:0:0:0:
358,192,292373,1,0,0:0:0:0:
460,192,292373,1,0,0:0:0:0:
256,192,292373,1,0,0:0:0:0:
358,192,292509,128,0,292577:0:0:0:0:
460,192,292509,128,0,292577:0:0:0:0:
51,192,292509,128,0,292577:0:0:0:0:
51,192,292646,128,0,292714:0:0:0:0:
153,192,292646,128,0,292714:0:0:0:0:
256,192,292646,128,0,292714:0:0:0:0:
256,192,292782,128,0,292850:0:0:0:0:
153,192,292782,128,0,292850:0:0:0:0:
51,192,292782,128,0,292850:0:0:0:0:
51,192,292918,128,0,292986:0:0:0:0:
153,192,292918,128,0,292986:0:0:0:0:
358,192,292918,128,0,292986:0:0:0:0:
460,192,292918,128,0,292986:0:0:0:0:
256,192,293055,128,0,293123:0:0:0:0:
153,192,293055,128,0,293123:0:0:0:0:
51,192,293055,128,0,293123:0:0:0:0:
51,192,293191,128,0,293259:0:0:0:0:
153,192,293191,128,0,293259:0:0:0:0:
256,192,293191,128,0,293259:0:0:0:0:
51,192,293327,128,0,293396:0:0:0:0:
358,192,293327,128,0,293396:0:0:0:0:
460,192,293327,128,0,293396:0:0:0:0:
153,192,293464,128,0,293532:0:0:0:0:
256,192,293464,128,0,293532:0:0:0:0:
358,192,293464,128,0,293532:0:0:0:0:
51,192,293600,128,0,293668:0:0:0:0:
153,192,293600,128,0,293668:0:0:0:0:
460,192,293600,128,0,293668:0:0:0:0:
256,192,293736,128,0,293805:0:0:0:0:
358,192,293736,128,0,293805:0:0:0:0:
460,192,293736,128,0,293805:0:0:0:0:
256,192,293873,128,0,293941:0:0:0:0:
358,192,293873,128,0,293941:0:0:0:0:
460,192,293873,128,0,293941:0:0:0:0:
51,192,294009,128,0,294077:0:0:0:0:
153,192,294009,128,0,294077:0:0:0:0:
358,192,294009,128,0,294077:0:0:0:0:
460,192,294009,128,0,294077:0:0:0:0:
256,192,294146,128,0,294214:0:0:0:0:
358,192,294146,128,0,294214:0:0:0:0:
460,192,294146,128,0,294214:0:0:0:0:
256,192,294282,128,0,294350:0:0:0:0:
358,192,294282,128,0,294350:0:0:0:0:
460,192,294282,128,0,294350:0:0:0:0:
51,192,294418,128,0,294486:0:0:0:0:
153,192,294418,128,0,294486:0:0:0:0:
460,192,294418,128,0,294486:0:0:0:0:
153,192,294555,128,0,294623:0:0:0:0:
256,192,294555,128,0,294623:0:0:0:0:
358,192,294555,128,0,294623:0:0:0:0:
51,192,294691,128,0,294759:0:0:0:0:
460,192,294691,128,0,294759:0:0:0:0:
153,192,294691,128,0,294759:0:0:0:0:
358,192,294691,128,0,294759:0:0:0:0:
153,192,294827,128,0,294896:0:0:0:0:
51,192,294827,128,0,294896:0:0:0:0:
460,192,294827,128,0,294896:0:0:0:0:
51,192,294964,128,0,295032:0:0:0:0:
153,192,294964,128,0,295032:0:0:0:0:
460,192,294964,128,0,295032:0:0:0:0:
51,192,295100,128,0,295168:0:0:0:0:
153,192,295100,128,0,295168:0:0:0:0:
460,192,295100,128,0,295168:0:0:0:0:
256,192,295100,128,0,295168:0:0:0:0:
51,192,295236,128,0,295305:0:0:0:0:
153,192,295236,128,0,295305:0:0:0:0:
460,192,295236,128,0,295305:0:0:0:0:
51,192,295373,128,0,295441:0:0:0:0:
153,192,295373,128,0,295441:0:0:0:0:
460,192,295373,128,0,295441:0:0:0:0:
51,192,295509,128,0,295714:0:0:0:0:
153,192,295509,128,0,295714:0:0:0:0:
358,192,295509,128,0,295714:0:0:0:0:
460,192,295509,128,0,295714:0:0:0:0:
51,192,295782,1,0,0:0:0:0:
153,192,295782,1,0,0:0:0:0:
256,192,295782,1,0,0:0:0:0:
51,192,295918,1,0,0:0:0:0:
460,192,295918,1,0,0:0:0:0:
358,192,295986,1,0,0:0:0:0:
153,192,296055,1,0,0:0:0:0:
256,192,296055,1,0,0:0:0:0:
51,192,296191,1,0,0:0:0:0:
256,192,296191,1,0,0:0:0:0:
153,192,296191,1,0,0:0:0:0:
358,192,296259,1,0,0:0:0:0:
460,192,296327,1,0,0:0:0:0:
51,192,296327,1,0,0:0:0:0:
153,192,296464,1,0,0:0:0:0:
358,192,296464,1,0,0:0:0:0:
460,192,296532,1,0,0:0:0:0:
256,192,296600,128,0,296805:0:0:0:0:
51,192,296600,128,0,296805:0:0:0:0:
358,192,296600,128,0,296805:0:0:0:0:
153,192,296600,128,0,296805:0:0:0:0:
256,192,296873,128,0,297146:0:0:0:0:
51,192,296873,128,0,297146:0:0:0:0:
460,192,296873,128,0,297146:0:0:0:0:
153,192,297146,1,0,0:0:0:0:
358,192,297146,1,0,0:0:0:0:
51,192,297282,128,0,297555:0:0:0:0:
256,192,297282,128,0,297555:0:0:0:0:
460,192,297282,128,0,297555:0:0:0:0:
153,192,297691,128,0,297964:0:0:0:0:
358,192,297691,128,0,297964:0:0:0:0:
460,192,297691,128,0,297964:0:0:0:0:
51,192,297896,1,0,0:0:0:0:
256,192,297896,1,0,0:0:0:0:
153,192,298100,128,0,298373:0:0:0:0:
358,192,298100,128,0,298373:0:0:0:0:
460,192,298100,128,0,298373:0:0:0:0:
51,192,298509,1,0,0:0:0:0:
256,192,298509,1,0,0:0:0:0:
153,192,298509,1,0,0:0:0:0:
358,192,298646,1,0,0:0:0:0:
460,192,298646,1,0,0:0:0:0:
153,192,298782,1,0,0:0:0:0:
51,192,298782,1,0,0:0:0:0:
256,192,298782,1,0,0:0:0:0:
256,192,299055,128,0,299327:0:0:0:0:
358,192,299055,128,0,299327:0:0:0:0:
460,192,299055,128,0,299327:0:0:0:0:
51,192,299327,1,0,0:0:0:0:
153,192,299327,1,0,0:0:0:0:
256,192,299464,128,0,299736:0:0:0:0:
358,192,299464,128,0,299736:0:0:0:0:
460,192,299464,128,0,299736:0:0:0:0:
51,192,299600,1,0,0:0:0:0:
153,192,299736,1,0,0:0:0:0:
153,192,299873,128,0,300146:0:0:0:0:
51,192,299873,128,0,300146:0:0:0:0:
460,192,299873,128,0,300146:0:0:0:0:
153,192,300282,128,0,300555:0:0:0:0:
51,192,300282,128,0,300555:0:0:0:0:
460,192,300282,128,0,300555:0:0:0:0:
51,192,300691,128,0,301100:0:0:0:0:
153,192,300691,128,0,301100:0:0:0:0:
256,192,300691,128,0,301100:0:0:0:0:
358,192,300691,128,0,301100:0:0:0:0:
460,192,300691,128,0,301100:0:0:0:0:
256,192,301236,128,0,301509:0:0:0:0:
51,192,301236,128,0,301509:0:0:0:0:
460,192,301236,128,0,301509:0:0:0:0:
153,192,301509,1,0,0:0:0:0:
358,192,301509,1,0,0:0:0:0:
51,192,301646,128,0,301918:0:0:0:0:
256,192,301646,128,0,301918:0:0:0:0:
460,192,301646,128,0,301918:0:0:0:0:
153,192,302055,128,0,302327:0:0:0:0:
358,192,302055,128,0,302327:0:0:0:0:
460,192,302055,128,0,302327:0:0:0:0:
51,192,302259,1,0,0:0:0:0:
256,192,302259,1,0,0:0:0:0:
153,192,302464,128,0,302736:0:0:0:0:
358,192,302464,128,0,302736:0:0:0:0:
460,192,302464,128,0,302736:0:0:0:0:
51,192,302873,1,0,0:0:0:0:
256,192,302873,1,0,0:0:0:0:
153,192,302873,1,0,0:0:0:0:
358,192,303009,1,0,0:0:0:0:
460,192,303009,1,0,0:0:0:0:
153,192,303146,1,0,0:0:0:0:
51,192,303146,1,0,0:0:0:0:
256,192,303146,1,0,0:0:0:0:
256,192,303418,128,0,303691:0:0:0:0:
358,192,303418,128,0,303691:0:0:0:0:
460,192,303418,128,0,303691:0:0:0:0:
51,192,303691,1,0,0:0:0:0:
153,192,303691,1,0,0:0:0:0:
256,192,303827,128,0,304100:0:0:0:0:
358,192,303827,128,0,304100:0:0:0:0:
460,192,303827,128,0,304100:0:0:0:0:
51,192,303964,1,0,0:0:0:0:
153,192,304100,1,0,0:0:0:0:
153,192,304236,128,0,304509:0:0:0:0:
51,192,304236,128,0,304509:0:0:0:0:
460,192,304236,128,0,304509:0:0:0:0:
153,192,304646,128,0,304918:0:0:0:0:
51,192,304646,128,0,304918:0:0:0:0:
460,192,304646,128,0,304918:0:0:0:0:
153,192,305055,1,0,0:0:0:0:
256,192,305055,1,0,0:0:0:0:
460,192,305055,1,0,0:0:0:0:
51,192,305259,1,0,0:0:0:0:
460,192,305259,1,0,0:0:0:0:
256,192,305259,1,0,0:0:0:0:
358,192,305464,1,0,0:0:0:0:
256,192,305464,1,0,0:0:0:0:
51,192,305464,1,0,0:0:0:0:
51,192,305600,1,0,0:0:0:0:
256,192,305600,1,0,0:0:0:0:
153,192,305668,1,0,0:0:0:0:
358,192,305668,1,0,0:0:0:0:
256,192,305736,1,0,0:0:0:0:
460,192,305736,1,0,0:0:0:0:
358,192,305805,1,0,0:0:0:0:
153,192,305805,1,0,0:0:0:0:
256,192,305873,1,0,0:0:0:0:
51,192,305873,1,0,0:0:0:0:
256,192,306009,1,0,0:0:0:0:
460,192,306009,1,0,0:0:0:0:
153,192,306077,1,0,0:0:0:0:
358,192,306077,1,0,0:0:0:0:
256,192,306146,1,0,0:0:0:0:
51,192,306146,1,0,0:0:0:0:
153,192,306214,1,0,0:0:0:0:
358,192,306214,1,0,0:0:0:0:
256,192,306282,1,0,0:0:0:0:
460,192,306282,1,0,0:0:0:0:
358,192,306418,1,0,0:0:0:0:
460,192,306418,1,0,0:0:0:0:
256,192,306486,1,0,0:0:0:0:
153,192,306486,1,0,0:0:0:0:
51,192,306555,1,0,0:0:0:0:
460,192,306555,1,0,0:0:0:0:
256,192,306623,1,0,0:0:0:0:
358,192,306623,1,0,0:0:0:0:
153,192,306691,1,0,0:0:0:0:
51,192,306691,1,0,0:0:0:0:
51,192,306827,1,0,0:0:0:0:
153,192,306827,1,0,0:0:0:0:
256,192,306896,1,0,0:0:0:0:
358,192,306896,1,0,0:0:0:0:
460,192,306964,1,0,0:0:0:0:
51,192,306964,1,0,0:0:0:0:
256,192,307032,1,0,0:0:0:0:
153,192,307032,1,0,0:0:0:0:
460,192,307100,1,0,0:0:0:0:
358,192,307100,1,0,0:0:0:0:
51,192,307236,1,0,0:0:0:0:
460,192,307236,128,0,307509:0:0:0:0:
153,192,307305,1,0,0:0:0:0:
256,192,307373,1,0,0:0:0:0:
358,192,307441,1,0,0:0:0:0:
51,192,307509,128,0,307782:0:0:0:0:
153,192,307509,1,0,0:0:0:0:
256,192,307577,1,0,0:0:0:0:
358,192,307646,1,0,0:0:0:0:
460,192,307714,1,0,0:0:0:0:
358,192,307782,1,0,0:0:0:0:
256,192,307782,1,0,0:0:0:0:
460,192,307850,1,0,0:0:0:0:
51,192,307850,1,0,0:0:0:0:
358,192,307918,1,0,0:0:0:0:
153,192,307918,1,0,0:0:0:0:
460,192,307986,1,0,0:0:0:0:
51,192,307986,1,0,0:0:0:0:
153,192,308055,1,0,0:0:0:0:
256,192,308055,1,0,0:0:0:0:
51,192,308191,1,0,0:0:0:0:
460,192,308191,1,0,0:0:0:0:
153,192,308259,1,0,0:0:0:0:
256,192,308259,1,0,0:0:0:0:
51,192,308327,1,0,0:0:0:0:
460,192,308327,1,0,0:0:0:0:
256,192,308396,1,0,0:0:0:0:
358,192,308396,1,0,0:0:0:0:
51,192,308464,1,0,0:0:0:0:
460,192,308464,1,0,0:0:0:0:
153,192,308600,1,0,0:0:0:0:
51,192,308600,1,0,0:0:0:0:
256,192,308668,1,0,0:0:0:0:
358,192,308668,1,0,0:0:0:0:
51,192,308736,1,0,0:0:0:0:
153,192,308736,1,0,0:0:0:0:
256,192,308805,1,0,0:0:0:0:
358,192,308805,1,0,0:0:0:0:
51,192,308873,1,0,0:0:0:0:
153,192,308873,1,0,0:0:0:0:
358,192,309009,1,0,0:0:0:0:
460,192,309009,1,0,0:0:0:0:
153,192,309077,1,0,0:0:0:0:
256,192,309077,1,0,0:0:0:0:
358,192,309146,1,0,0:0:0:0:
460,192,309146,1,0,0:0:0:0:
153,192,309214,1,0,0:0:0:0:
256,192,309214,1,0,0:0:0:0:
358,192,309282,1,0,0:0:0:0:
460,192,309282,1,0,0:0:0:0:
358,192,309418,128,0,309827:0:0:0:0:
460,192,309418,128,0,309827:0:0:0:0:
256,192,309418,128,0,309827:0:0:0:0:
51,192,309418,128,0,309827:0:0:0:0:
153,192,309418,128,0,309827:0:0:0:0:
51,192,309964,1,0,0:0:0:0:
153,192,309964,1,0,0:0:0:0:
256,192,309964,1,0,0:0:0:0:
358,192,310032,1,0,0:0:0:0:
460,192,310032,1,0,0:0:0:0:
51,192,310100,1,0,0:0:0:0:
153,192,310100,1,0,0:0:0:0:
358,192,310168,1,0,0:0:0:0:
460,192,310168,1,0,0:0:0:0:
51,192,310236,1,0,0:0:0:0:
153,192,310236,1,0,0:0:0:0:
358,192,310305,1,0,0:0:0:0:
460,192,310305,1,0,0:0:0:0:
153,192,310373,1,0,0:0:0:0:
51,192,310373,1,0,0:0:0:0:
256,192,310373,1,0,0:0:0:0:
358,192,310441,1,0,0:0:0:0:
460,192,310441,1,0,0:0:0:0:
153,192,310509,1,0,0:0:0:0:
51,192,310509,1,0,0:0:0:0:
460,192,310577,1,0,0:0:0:0:
358,192,310577,1,0,0:0:0:0:
51,192,310646,1,0,0:0:0:0:
153,192,310646,1,0,0:0:0:0:
460,192,310714,1,0,0:0:0:0:
358,192,310714,1,0,0:0:0:0:
51,192,310782,1,0,0:0:0:0:
153,192,310782,1,0,0:0:0:0:
256,192,310782,1,0,0:0:0:0:
358,192,310850,1,0,0:0:0:0:
460,192,310850,1,0,0:0:0:0:
153,192,310918,1,0,0:0:0:0:
51,192,310918,1,0,0:0:0:0:
358,192,310986,1,0,0:0:0:0:
460,192,310986,1,0,0:0:0:0:
153,192,311055,1,0,0:0:0:0:
51,192,311055,1,0,0:0:0:0:
460,192,311123,1,0,0:0:0:0:
358,192,311123,1,0,0:0:0:0:
51,192,311191,1,0,0:0:0:0:
153,192,311191,1,0,0:0:0:0:
256,192,311191,1,0,0:0:0:0:
460,192,311259,1,0,0:0:0:0:
358,192,311259,1,0,0:0:0:0:
51,192,311327,1,0,0:0:0:0:
153,192,311327,1,0,0:0:0:0:
358,192,311396,1,0,0:0:0:0:
460,192,311396,1,0,0:0:0:0:
153,192,311464,1,0,0:0:0:0:
51,192,311464,1,0,0:0:0:0:
358,192,311532,1,0,0:0:0:0:
460,192,311532,1,0,0:0:0:0:
153,192,311600,1,0,0:0:0:0:
51,192,311600,1,0,0:0:0:0:
256,192,311600,1,0,0:0:0:0:
460,192,311668,1,0,0:0:0:0:
358,192,311668,1,0,0:0:0:0:
51,192,311736,1,0,0:0:0:0:
153,192,311736,1,0,0:0:0:0:
460,192,311805,1,0,0:0:0:0:
358,192,311805,1,0,0:0:0:0:
51,192,311873,1,0,0:0:0:0:
153,192,311873,1,0,0:0:0:0:
256,192,311873,1,0,0:0:0:0:
358,192,311941,1,0,0:0:0:0:
460,192,311941,1,0,0:0:0:0:
153,192,312009,1,0,0:0:0:0:
51,192,312009,1,0,0:0:0:0:
358,192,312077,1,0,0:0:0:0:
460,192,312077,1,0,0:0:0:0:
51,192,312146,1,0,0:0:0:0:
153,192,312146,1,0,0:0:0:0:
256,192,312146,1,0,0:0:0:0:
460,192,313236,1,0,0:0:0:0:
51,192,313236,1,0,0:0:0:0:
358,192,313271,1,0,0:0:0:0:
256,192,313305,1,0,0:0:0:0:
51,192,313373,1,0,0:0:0:0:
153,192,313373,1,0,0:0:0:0:
358,192,313441,1,0,0:0:0:0:
460,192,313441,1,0,0:0:0:0:
51,192,313509,1,0,0:0:0:0:
153,192,313543,1,0,0:0:0:0:
256,192,313577,1,0,0:0:0:0:
358,192,313646,1,0,0:0:0:0:
460,192,313646,1,0,0:0:0:0:
51,192,313714,1,0,0:0:0:0:
153,192,313714,1,0,0:0:0:0:
460,192,313782,1,0,0:0:0:0:
358,192,313816,1,0,0:0:0:0:
256,192,313850,1,0,0:0:0:0:
51,192,313918,1,0,0:0:0:0:
153,192,313918,1,0,0:0:0:0:
358,192,313986,1,0,0:0:0:0:
460,192,313986,1,0,0:0:0:0:
51,192,314055,1,0,0:0:0:0:
153,192,314055,1,0,0:0:0:0:
256,192,314055,1,0,0:0:0:0:
51,192,314327,1,0,0:0:0:0:
153,192,314327,1,0,0:0:0:0:
256,192,314327,1,0,0:0:0:0:
358,192,314327,1,0,0:0:0:0:
460,192,314327,1,0,0:0:0:0:
51,192,315146,1,0,0:0:0:0:
153,192,315146,1,0,0:0:0:0:
358,192,315691,1,0,0:0:0:0:
460,192,315691,1,0,0:0:0:0:
256,192,315827,1,0,0:0:0:0:
153,192,315896,1,0,0:0:0:0:
51,192,315964,1,0,0:0:0:0:
460,192,316100,1,0,0:0:0:0:
358,192,316100,1,0,0:0:0:0:
51,192,316509,1,0,0:0:0:0:
153,192,316509,1,0,0:0:0:0:
256,192,316509,1,0,0:0:0:0:
51,192,316782,1,0,0:0:0:0:
460,192,316918,1,0,0:0:0:0:
358,192,317191,1,0,0:0:0:0:
256,192,317327,1,0,0:0:0:0:
153,192,317327,1,0,0:0:0:0:
51,192,317327,1,0,0:0:0:0:
460,192,317600,1,0,0:0:0:0:
358,192,317736,1,0,0:0:0:0:
51,192,317873,1,0,0:0:0:0:
256,192,317873,1,0,0:0:0:0:
460,192,317873,1,0,0:0:0:0:
153,192,318282,1,0,0:0:0:0:
256,192,318282,1,0,0:0:0:0:
358,192,318282,1,0,0:0:0:0:
358,192,318555,1,0,0:0:0:0:
153,192,318555,1,0,0:0:0:0:
460,192,318555,1,0,0:0:0:0:
51,192,318691,1,0,0:0:0:0:
256,192,318691,1,0,0:0:0:0:
358,192,318691,1,0,0:0:0:0:
460,192,318964,1,0,0:0:0:0:
51,192,318964,1,0,0:0:0:0:
153,192,319100,1,0,0:0:0:0:
256,192,319168,1,0,0:0:0:0:
358,192,319236,1,0,0:0:0:0:
460,192,319236,1,0,0:0:0:0:
51,192,319373,1,0,0:0:0:0:
153,192,319509,1,0,0:0:0:0:
256,192,319509,1,0,0:0:0:0:
358,192,319509,1,0,0:0:0:0:
460,192,319782,1,0,0:0:0:0:
358,192,319918,1,0,0:0:0:0:
256,192,319986,1,0,0:0:0:0:
51,192,320055,1,0,0:0:0:0:
153,192,320055,1,0,0:0:0:0:
460,192,320055,1,0,0:0:0:0:
358,192,320191,1,0,0:0:0:0:
256,192,320259,1,0,0:0:0:0:
153,192,320327,1,0,0:0:0:0:
51,192,320327,1,0,0:0:0:0:
460,192,320464,1,0,0:0:0:0:
153,192,320873,1,0,0:0:0:0:
256,192,320873,1,0,0:0:0:0:
358,192,320873,1,0,0:0:0:0:
460,192,321146,1,0,0:0:0:0:
51,192,321282,1,0,0:0:0:0:
358,192,321555,1,0,0:0:0:0:
256,192,321691,1,0,0:0:0:0:
153,192,321691,1,0,0:0:0:0:
460,192,321691,1,0,0:0:0:0:
358,192,321964,1,0,0:0:0:0:
256,192,322100,1,0,0:0:0:0:
51,192,322236,1,0,0:0:0:0:
153,192,322236,1,0,0:0:0:0:
358,192,322236,1,0,0:0:0:0:
460,192,322236,1,0,0:0:0:0:
256,192,322646,1,0,0:0:0:0:
358,192,322646,1,0,0:0:0:0:
256,192,322918,1,0,0:0:0:0:
460,192,322918,1,0,0:0:0:0:
51,192,322918,1,0,0:0:0:0:
153,192,323055,1,0,0:0:0:0:
256,192,323055,1,0,0:0:0:0:
51,192,323055,128,0,324146:0:0:0:0:
153,192,324146,128,0,325236:0:0:0:0:
256,192,325236,128,0,326327:0:0:0:0:
358,192,326327,128,0,327418:0:0:0:0:
460,192,327418,128,0,335055:0:0:0:0:
51,192,329600,128,0,335055:0:0:0:0:
