osu file format v14

[General]
AudioFilename: audio.mp3
AudioLeadIn: 0
PreviewTime: 166644
Countdown: 0
SampleSet: Soft
StackLeniency: 0.7
Mode: 3
LetterboxInBreaks: 0
SpecialStyle: 1
WidescreenStoryboard: 0

[Editor]
DistanceSpacing: 2
BeatDivisor: 4
GridSize: 8
TimelineZoom: 1.6

[Metadata]
Title:Galaxy Burst
TitleUnicode:Galaxy Burst
Artist:Camellia
ArtistUnicode:Camellia
Creator:Tona
Version:SuperNova
Source:
Tags:
BeatmapID:1628208
BeatmapSetID:774711

[Difficulty]
HPDrainRate:9
CircleSize:4
OverallDifficulty:8
ApproachRate:5
SliderMultiplier:1.4
SliderTickRate:1

[Events]
//Background and Video events
0,0,"maxresdefault.jpg",0,0
//Break Periods
//Storyboard Layer 0 (Background)
//Storyboard Layer 1 (Fail)
//Storyboard Layer 2 (Pass)
//Storyboard Layer 3 (Foreground)
//Storyboard Sound Samples

[TimingPoints]
525,298.507462686567,4,2,0,90,1,0
525,-100,4,2,0,5,0,0
27987,-100,4,2,0,70,0,0
59032,-100,4,2,0,70,0,1
82913,-100,4,2,0,70,0,0
117399,-100,4,2,0,70,0,1
119405,-100,4,2,0,70,0,0
120047,-100,4,2,0,5,0,0
137810,-100,4,2,0,70,0,0
168957,-100,4,2,0,70,0,1
205898,-100,4,2,0,70,0,0
216719,-100,4,2,0,70,0,1
235823,-100,4,2,0,70,0,0

[HitObjects]
64,192,525,128,0,10077:0:0:0:0:
192,192,4107,1,0,0:0:0:0:
320,192,4554,1,0,0:0:0:0:
448,192,4853,1,0,0:0:0:0:
192,192,5301,1,0,0:0:0:0:
320,192,5450,1,0,0:0:0:0:
448,192,5599,1,0,0:0:0:0:
448,192,6047,1,0,0:0:0:0:
320,192,6495,1,0,0:0:0:0:
192,192,6942,1,0,0:0:0:0:
320,192,7390,1,0,0:0:0:0:
448,192,7987,1,0,0:0:0:0:
320,192,8435,1,0,0:0:0:0:
192,192,8883,1,0,0:0:0:0:
320,192,9330,1,0,0:0:0:0:
192,192,9629,1,0,0:0:0:0:
320,192,9778,1,0,0:0:0:0:
448,192,9927,1,0,0:0:0:0:
320,192,10077,1,0,0:0:0:0:
192,192,10077,128,0,14853:0:0:0:0:
448,192,10226,1,0,0:0:0:0:
320,192,10375,1,0,0:0:0:0:
448,192,10823,1,0,0:0:0:0:
320,192,11271,1,0,0:0:0:0:
320,192,11719,1,0,0:0:0:0:
320,192,12166,1,0,0:0:0:0:
64,192,12316,1,0,0:0:0:0:
448,192,12763,1,0,0:0:0:0:
448,192,13211,1,0,0:0:0:0:
320,192,13659,1,0,0:0:0:0:
320,192,14107,1,0,0:0:0:0:
448,192,14405,1,0,0:0:0:0:
320,192,14554,1,0,0:0:0:0:
64,192,14704,1,0,0:0:0:0:
320,192,14853,1,0,0:0:0:0:
448,192,15002,1,0,0:0:0:0:
320,192,15151,1,0,0:0:0:0:
320,192,15599,1,0,0:0:0:0:
320,192,16047,1,0,0:0:0:0:
192,192,16495,1,0,0:0:0:0:
192,192,16942,1,0,0:0:0:0:
320,192,17092,1,0,0:0:0:0:
448,192,17539,1,0,0:0:0:0:
448,192,17987,1,0,0:0:0:0:
320,192,18435,1,0,0:0:0:0:
320,192,18883,1,0,0:0:0:0:
320,192,19181,1,0,0:0:0:0:
192,192,19330,1,0,0:0:0:0:
320,192,19480,1,0,0:0:0:0:
192,192,19629,1,0,0:0:0:0:
64,192,19629,1,0,0:0:0:0:
320,192,19778,1,0,0:0:0:0:
448,192,19927,1,0,0:0:0:0:
448,192,20375,1,0,0:0:0:0:
320,192,20823,1,0,0:0:0:0:
320,192,21271,1,0,0:0:0:0:
320,192,21719,1,0,0:0:0:0:
192,192,21868,1,0,0:0:0:0:
192,192,22316,1,0,0:0:0:0:
192,192,22763,1,0,0:0:0:0:
64,192,23211,1,0,0:0:0:0:
64,192,23659,1,0,0:0:0:0:
64,192,23957,1,0,0:0:0:0:
320,192,24107,1,0,0:0:0:0:
64,192,24256,1,0,0:0:0:0:
192,192,24405,1,0,0:0:0:0:
320,192,24554,1,0,0:0:0:0:
448,192,24704,1,0,0:0:0:0:
192,192,25151,1,0,0:0:0:0:
448,192,25599,128,0,27987:0:0:0:0:
192,192,25599,1,0,0:0:0:0:
192,192,26047,1,0,0:0:0:0:
64,192,26495,1,0,0:0:0:0:
192,192,26644,1,0,0:0:0:0:
192,192,27092,1,0,0:0:0:0:
192,192,27539,1,0,0:0:0:0:
64,192,27689,1,0,0:0:0:0:
320,192,27689,1,0,0:0:0:0:
192,192,27987,1,0,0:0:0:0:
64,192,27987,1,0,0:0:0:0:
320,192,27987,128,0,29181:0:0:0:0:
192,192,29181,1,0,0:0:0:0:
64,192,29181,1,0,0:0:0:0:
448,192,29181,128,0,31569:0:0:0:0:
192,192,31569,1,0,0:0:0:0:
64,192,31569,1,0,0:0:0:0:
192,192,31644,1,0,0:0:0:0:
64,192,31644,1,0,0:0:0:0:
320,192,31719,1,0,0:0:0:0:
448,192,31719,1,0,0:0:0:0:
320,192,31793,1,0,0:0:0:0:
448,192,31793,1,0,0:0:0:0:
192,192,31868,1,0,0:0:0:0:
64,192,31868,1,0,0:0:0:0:
320,192,32017,1,0,0:0:0:0:
448,192,32017,1,0,0:0:0:0:
320,192,32092,1,0,0:0:0:0:
448,192,32092,1,0,0:0:0:0:
192,192,32166,1,0,0:0:0:0:
64,192,32166,1,0,0:0:0:0:
64,192,32241,1,0,0:0:0:0:
192,192,32241,1,0,0:0:0:0:
320,192,32316,1,0,0:0:0:0:
448,192,32316,1,0,0:0:0:0:
192,192,32465,1,0,0:0:0:0:
320,192,32465,1,0,0:0:0:0:
64,192,32465,1,0,0:0:0:0:
320,192,32763,1,0,0:0:0:0:
448,192,32763,1,0,0:0:0:0:
320,192,32838,1,0,0:0:0:0:
448,192,32838,1,0,0:0:0:0:
192,192,32913,1,0,0:0:0:0:
64,192,32913,1,0,0:0:0:0:
192,192,32987,1,0,0:0:0:0:
64,192,32987,1,0,0:0:0:0:
320,192,33062,1,0,0:0:0:0:
448,192,33062,1,0,0:0:0:0:
192,192,33211,1,0,0:0:0:0:
64,192,33211,1,0,0:0:0:0:
64,192,33286,1,0,0:0:0:0:
192,192,33286,1,0,0:0:0:0:
320,192,33360,1,0,0:0:0:0:
448,192,33360,1,0,0:0:0:0:
320,192,33435,1,0,0:0:0:0:
448,192,33435,1,0,0:0:0:0:
64,192,33510,1,0,0:0:0:0:
192,192,33510,1,0,0:0:0:0:
64,192,33659,128,0,33808:0:0:0:0:
192,192,33659,1,0,0:0:0:0:
320,192,33659,1,0,0:0:0:0:
192,192,33808,128,0,33957:0:0:0:0:
320,192,33957,1,0,0:0:0:0:
448,192,33957,1,0,0:0:0:0:
64,192,33957,128,0,36345:0:0:0:0:
320,192,36345,1,0,0:0:0:0:
448,192,36345,1,0,0:0:0:0:
320,192,36420,1,0,0:0:0:0:
448,192,36420,1,0,0:0:0:0:
192,192,36495,1,0,0:0:0:0:
64,192,36495,1,0,0:0:0:0:
64,192,36569,1,0,0:0:0:0:
192,192,36569,1,0,0:0:0:0:
320,192,36644,1,0,0:0:0:0:
448,192,36644,1,0,0:0:0:0:
64,192,36793,1,0,0:0:0:0:
192,192,36793,1,0,0:0:0:0:
64,192,36868,1,0,0:0:0:0:
192,192,36868,1,0,0:0:0:0:
320,192,36942,1,0,0:0:0:0:
448,192,36942,1,0,0:0:0:0:
320,192,37017,1,0,0:0:0:0:
448,192,37017,1,0,0:0:0:0:
192,192,37092,1,0,0:0:0:0:
64,192,37092,1,0,0:0:0:0:
192,192,37241,1,0,0:0:0:0:
64,192,37241,1,0,0:0:0:0:
320,192,37241,1,0,0:0:0:0:
192,192,37539,1,0,0:0:0:0:
64,192,37539,1,0,0:0:0:0:
64,192,37614,1,0,0:0:0:0:
192,192,37614,1,0,0:0:0:0:
320,192,37689,1,0,0:0:0:0:
448,192,37689,1,0,0:0:0:0:
320,192,37763,1,0,0:0:0:0:
448,192,37763,1,0,0:0:0:0:
192,192,37838,1,0,0:0:0:0:
64,192,37838,1,0,0:0:0:0:
320,192,37987,1,0,0:0:0:0:
448,192,37987,1,0,0:0:0:0:
320,192,38062,1,0,0:0:0:0:
448,192,38062,1,0,0:0:0:0:
192,192,38136,1,0,0:0:0:0:
64,192,38136,1,0,0:0:0:0:
192,192,38211,1,0,0:0:0:0:
64,192,38211,1,0,0:0:0:0:
320,192,38286,1,0,0:0:0:0:
448,192,38286,1,0,0:0:0:0:
64,192,38435,128,0,38584:0:0:0:0:
192,192,38435,1,0,0:0:0:0:
320,192,38435,1,0,0:0:0:0:
192,192,38584,128,0,38733:0:0:0:0:
320,192,38733,1,0,0:0:0:0:
448,192,38733,1,0,0:0:0:0:
64,192,38733,128,0,41122:0:0:0:0:
320,192,41122,1,0,0:0:0:0:
448,192,41122,1,0,0:0:0:0:
320,192,41196,1,0,0:0:0:0:
448,192,41196,1,0,0:0:0:0:
64,192,41271,1,0,0:0:0:0:
192,192,41271,1,0,0:0:0:0:
64,192,41345,1,0,0:0:0:0:
192,192,41345,1,0,0:0:0:0:
320,192,41420,1,0,0:0:0:0:
448,192,41420,1,0,0:0:0:0:
64,192,41569,1,0,0:0:0:0:
192,192,41569,1,0,0:0:0:0:
64,192,41644,1,0,0:0:0:0:
192,192,41644,1,0,0:0:0:0:
320,192,41719,1,0,0:0:0:0:
448,192,41719,1,0,0:0:0:0:
192,192,41793,1,0,0:0:0:0:
64,192,41793,1,0,0:0:0:0:
64,192,41868,1,0,0:0:0:0:
192,192,41868,1,0,0:0:0:0:
64,192,42017,1,0,0:0:0:0:
192,192,42017,1,0,0:0:0:0:
320,192,42017,1,0,0:0:0:0:
320,192,42316,1,0,0:0:0:0:
448,192,42316,1,0,0:0:0:0:
320,192,42390,1,0,0:0:0:0:
448,192,42390,1,0,0:0:0:0:
192,192,42465,1,0,0:0:0:0:
64,192,42465,1,0,0:0:0:0:
64,192,42539,1,0,0:0:0:0:
192,192,42539,1,0,0:0:0:0:
320,192,42614,1,0,0:0:0:0:
448,192,42614,1,0,0:0:0:0:
320,192,42763,1,0,0:0:0:0:
448,192,42763,1,0,0:0:0:0:
320,192,42838,1,0,0:0:0:0:
448,192,42838,1,0,0:0:0:0:
64,192,42913,128,0,43510:0:0:0:0:
192,192,42913,1,0,0:0:0:0:
320,192,43510,1,0,0:0:0:0:
192,192,43510,128,0,45898:0:0:0:0:
448,192,43510,1,0,0:0:0:0:
64,192,44704,1,0,0:0:0:0:
64,192,45002,1,0,0:0:0:0:
64,192,45301,1,0,0:0:0:0:
64,192,45599,1,0,0:0:0:0:
64,192,45898,1,0,0:0:0:0:
320,192,45898,1,0,0:0:0:0:
64,192,46196,1,0,0:0:0:0:
192,192,46196,1,0,0:0:0:0:
448,192,46196,1,0,0:0:0:0:
64,192,46495,1,0,0:0:0:0:
192,192,46495,1,0,0:0:0:0:
320,192,46495,1,0,0:0:0:0:
64,192,46793,1,0,0:0:0:0:
192,192,46793,1,0,0:0:0:0:
448,192,46793,1,0,0:0:0:0:
64,192,47092,1,0,0:0:0:0:
192,192,47092,1,0,0:0:0:0:
320,192,47092,1,0,0:0:0:0:
192,192,47316,1,0,0:0:0:0:
320,192,47316,1,0,0:0:0:0:
448,192,47316,1,0,0:0:0:0:
64,192,47539,1,0,0:0:0:0:
192,192,47539,1,0,0:0:0:0:
320,192,47539,1,0,0:0:0:0:
448,192,47689,128,0,48286:0:0:0:0:
320,192,48286,1,0,0:0:0:0:
192,192,48286,1,0,0:0:0:0:
64,192,48286,128,0,49032:0:0:0:0:
320,192,49032,1,0,0:0:0:0:
448,192,49032,1,0,0:0:0:0:
192,192,49032,128,0,49480:0:0:0:0:
64,192,49480,1,0,0:0:0:0:
448,192,49480,1,0,0:0:0:0:
320,192,49480,128,0,50226:0:0:0:0:
448,192,50226,1,0,0:0:0:0:
64,192,50226,1,0,0:0:0:0:
192,192,50226,128,0,50674:0:0:0:0:
320,192,50674,1,0,0:0:0:0:
448,192,50674,1,0,0:0:0:0:
64,192,50674,128,0,51420:0:0:0:0:
320,192,51420,1,0,0:0:0:0:
448,192,51420,1,0,0:0:0:0:
192,192,51420,128,0,51868:0:0:0:0:
64,192,51868,1,0,0:0:0:0:
448,192,51868,1,0,0:0:0:0:
320,192,51868,128,0,52166:0:0:0:0:
192,192,52166,1,0,0:0:0:0:
64,192,52166,1,0,0:0:0:0:
448,192,52166,1,0,0:0:0:0:
448,192,52316,1,0,0:0:0:0:
192,192,52316,1,0,0:0:0:0:
64,192,52316,1,0,0:0:0:0:
64,192,52465,1,0,0:0:0:0:
192,192,52465,1,0,0:0:0:0:
448,192,52465,1,0,0:0:0:0:
192,192,52614,1,0,0:0:0:0:
448,192,52614,1,0,0:0:0:0:
320,192,52614,128,0,52913:0:0:0:0:
64,192,53062,1,0,0:0:0:0:
192,192,53062,1,0,0:0:0:0:
320,192,53062,1,0,0:0:0:0:
192,192,53286,1,0,0:0:0:0:
320,192,53286,1,0,0:0:0:0:
64,192,53286,1,0,0:0:0:0:
64,192,53510,1,0,0:0:0:0:
192,192,53510,1,0,0:0:0:0:
320,192,53510,1,0,0:0:0:0:
192,192,53659,1,0,0:0:0:0:
320,192,53659,1,0,0:0:0:0:
448,192,53659,1,0,0:0:0:0:
64,192,53883,1,0,0:0:0:0:
192,192,53883,1,0,0:0:0:0:
448,192,53883,1,0,0:0:0:0:
64,192,54107,1,0,0:0:0:0:
192,192,54107,1,0,0:0:0:0:
320,192,54107,1,0,0:0:0:0:
192,192,54256,1,0,0:0:0:0:
320,192,54256,1,0,0:0:0:0:
448,192,54256,1,0,0:0:0:0:
64,192,54480,1,0,0:0:0:0:
192,192,54480,1,0,0:0:0:0:
320,192,54480,1,0,0:0:0:0:
64,192,54704,1,0,0:0:0:0:
192,192,54704,1,0,0:0:0:0:
448,192,54704,1,0,0:0:0:0:
192,192,54853,1,0,0:0:0:0:
320,192,54853,1,0,0:0:0:0:
448,192,54853,1,0,0:0:0:0:
64,192,55077,1,0,0:0:0:0:
448,192,55077,1,0,0:0:0:0:
320,192,55077,1,0,0:0:0:0:
64,192,55301,1,0,0:0:0:0:
192,192,55301,1,0,0:0:0:0:
448,192,55301,1,0,0:0:0:0:
64,192,55450,1,0,0:0:0:0:
192,192,55450,1,0,0:0:0:0:
320,192,55450,1,0,0:0:0:0:
192,192,55599,1,0,0:0:0:0:
320,192,55599,1,0,0:0:0:0:
64,192,55599,1,0,0:0:0:0:
320,192,55748,1,0,0:0:0:0:
448,192,55748,1,0,0:0:0:0:
64,192,55748,1,0,0:0:0:0:
192,192,55898,1,0,0:0:0:0:
320,192,55898,1,0,0:0:0:0:
448,192,55898,1,0,0:0:0:0:
64,192,56047,1,0,0:0:0:0:
192,192,56047,1,0,0:0:0:0:
448,192,56047,1,0,0:0:0:0:
192,192,56196,1,0,0:0:0:0:
64,192,56196,1,0,0:0:0:0:
320,192,56196,1,0,0:0:0:0:
448,192,56345,1,0,0:0:0:0:
192,192,56345,1,0,0:0:0:0:
64,192,56420,1,0,0:0:0:0:
320,192,56420,1,0,0:0:0:0:
192,192,56495,1,0,0:0:0:0:
320,192,56569,1,0,0:0:0:0:
448,192,56569,1,0,0:0:0:0:
192,192,56644,1,0,0:0:0:0:
64,192,56644,128,0,57838:0:0:0:0:
192,192,56793,128,0,56942:0:0:0:0:
320,192,56942,128,0,57092:0:0:0:0:
448,192,57092,128,0,57241:0:0:0:0:
320,192,57241,128,0,57539:0:0:0:0:
192,192,57838,128,0,59032:0:0:0:0:
320,192,57838,1,0,0:0:0:0:
320,192,58136,1,0,0:0:0:0:
320,192,58435,1,0,0:0:0:0:
320,192,58733,1,0,0:0:0:0:
448,192,58733,1,0,0:0:0:0:
320,192,58883,1,0,0:0:0:0:
448,192,58883,1,0,0:0:0:0:
320,192,59032,1,0,0:0:0:0:
448,192,59032,1,0,0:0:0:0:
64,192,59107,1,0,0:0:0:0:
192,192,59181,1,0,0:0:0:0:
64,192,59256,1,0,0:0:0:0:
320,192,59330,1,0,0:0:0:0:
448,192,59330,1,0,0:0:0:0:
192,192,59405,1,0,0:0:0:0:
320,192,59480,1,0,0:0:0:0:
192,192,59554,1,0,0:0:0:0:
64,192,59629,1,0,0:0:0:0:
320,192,59629,1,0,0:0:0:0:
448,192,59629,128,0,59778:0:0:0:0:
192,192,59704,1,0,0:0:0:0:
320,192,59778,1,0,0:0:0:0:
192,192,59853,1,0,0:0:0:0:
320,192,59927,1,0,0:0:0:0:
64,192,59927,1,0,0:0:0:0:
448,192,60002,1,0,0:0:0:0:
320,192,60077,1,0,0:0:0:0:
192,192,60151,1,0,0:0:0:0:
64,192,60226,1,0,0:0:0:0:
320,192,60226,1,0,0:0:0:0:
448,192,60226,128,0,60375:0:0:0:0:
192,192,60301,1,0,0:0:0:0:
320,192,60375,1,0,0:0:0:0:
64,192,60450,1,0,0:0:0:0:
192,192,60524,1,0,0:0:0:0:
448,192,60524,1,0,0:0:0:0:
320,192,60599,1,0,0:0:0:0:
192,192,60674,1,0,0:0:0:0:
320,192,60748,1,0,0:0:0:0:
448,192,60823,128,0,60972:0:0:0:0:
192,192,60823,1,0,0:0:0:0:
64,192,60823,1,0,0:0:0:0:
320,192,60898,1,0,0:0:0:0:
192,192,60972,1,0,0:0:0:0:
64,192,61047,1,0,0:0:0:0:
192,192,61122,1,0,0:0:0:0:
448,192,61122,1,0,0:0:0:0:
64,192,61196,1,0,0:0:0:0:
192,192,61271,1,0,0:0:0:0:
448,192,61271,1,0,0:0:0:0:
320,192,61271,1,0,0:0:0:0:
64,192,61420,1,0,0:0:0:0:
320,192,61420,1,0,0:0:0:0:
448,192,61420,1,0,0:0:0:0:
192,192,61495,1,0,0:0:0:0:
320,192,61569,1,0,0:0:0:0:
64,192,61644,1,0,0:0:0:0:
448,192,61719,1,0,0:0:0:0:
320,192,61719,1,0,0:0:0:0:
192,192,61793,1,0,0:0:0:0:
448,192,61868,1,0,0:0:0:0:
192,192,61942,1,0,0:0:0:0:
448,192,62017,128,0,62166:0:0:0:0:
64,192,62017,1,0,0:0:0:0:
320,192,62017,1,0,0:0:0:0:
192,192,62092,1,0,0:0:0:0:
320,192,62166,1,0,0:0:0:0:
192,192,62241,1,0,0:0:0:0:
448,192,62316,1,0,0:0:0:0:
320,192,62316,1,0,0:0:0:0:
64,192,62390,1,0,0:0:0:0:
320,192,62465,1,0,0:0:0:0:
192,192,62539,1,0,0:0:0:0:
448,192,62614,128,0,62763:0:0:0:0:
64,192,62614,1,0,0:0:0:0:
320,192,62614,1,0,0:0:0:0:
192,192,62689,1,0,0:0:0:0:
320,192,62763,1,0,0:0:0:0:
64,192,62838,1,0,0:0:0:0:
192,192,62913,1,0,0:0:0:0:
448,192,62913,1,0,0:0:0:0:
320,192,62987,1,0,0:0:0:0:
448,192,63062,1,0,0:0:0:0:
64,192,63136,1,0,0:0:0:0:
320,192,63211,128,0,63360:0:0:0:0:
192,192,63211,1,0,0:0:0:0:
448,192,63211,1,0,0:0:0:0:
192,192,63360,128,0,63510:0:0:0:0:
64,192,63360,1,0,0:0:0:0:
320,192,63510,128,0,63659:0:0:0:0:
448,192,63510,1,0,0:0:0:0:
448,192,63659,128,0,63808:0:0:0:0:
192,192,63659,1,0,0:0:0:0:
320,192,63808,1,0,0:0:0:0:
64,192,63808,1,0,0:0:0:0:
192,192,63808,1,0,0:0:0:0:
64,192,63957,1,0,0:0:0:0:
320,192,63957,1,0,0:0:0:0:
192,192,63957,1,0,0:0:0:0:
64,192,64107,1,0,0:0:0:0:
320,192,64107,1,0,0:0:0:0:
192,192,64107,1,0,0:0:0:0:
448,192,64181,1,0,0:0:0:0:
320,192,64256,1,0,0:0:0:0:
192,192,64330,1,0,0:0:0:0:
448,192,64405,128,0,64554:0:0:0:0:
64,192,64405,1,0,0:0:0:0:
320,192,64405,1,0,0:0:0:0:
192,192,64480,1,0,0:0:0:0:
320,192,64554,1,0,0:0:0:0:
64,192,64629,1,0,0:0:0:0:
320,192,64704,1,0,0:0:0:0:
448,192,64704,1,0,0:0:0:0:
192,192,64778,1,0,0:0:0:0:
320,192,64853,1,0,0:0:0:0:
64,192,64927,1,0,0:0:0:0:
448,192,65002,128,0,65151:0:0:0:0:
192,192,65002,1,0,0:0:0:0:
320,192,65002,1,0,0:0:0:0:
64,192,65077,1,0,0:0:0:0:
192,192,65151,1,0,0:0:0:0:
64,192,65226,1,0,0:0:0:0:
192,192,65301,1,0,0:0:0:0:
448,192,65301,1,0,0:0:0:0:
320,192,65375,1,0,0:0:0:0:
192,192,65450,1,0,0:0:0:0:
64,192,65524,1,0,0:0:0:0:
448,192,65599,128,0,65748:0:0:0:0:
192,192,65599,1,0,0:0:0:0:
320,192,65599,1,0,0:0:0:0:
64,192,65674,1,0,0:0:0:0:
192,192,65748,1,0,0:0:0:0:
320,192,65823,1,0,0:0:0:0:
64,192,65898,1,0,0:0:0:0:
192,192,65898,1,0,0:0:0:0:
320,192,65972,1,0,0:0:0:0:
64,192,66047,1,0,0:0:0:0:
448,192,66047,1,0,0:0:0:0:
192,192,66122,1,0,0:0:0:0:
320,192,66196,1,0,0:0:0:0:
192,192,66271,1,0,0:0:0:0:
448,192,66271,1,0,0:0:0:0:
320,192,66345,1,0,0:0:0:0:
64,192,66420,1,0,0:0:0:0:
192,192,66420,1,0,0:0:0:0:
448,192,66495,1,0,0:0:0:0:
192,192,66569,1,0,0:0:0:0:
64,192,66644,1,0,0:0:0:0:
320,192,66644,1,0,0:0:0:0:
448,192,66793,128,0,66942:0:0:0:0:
192,192,66793,1,0,0:0:0:0:
64,192,66793,1,0,0:0:0:0:
320,192,66868,1,0,0:0:0:0:
192,192,66942,1,0,0:0:0:0:
320,192,67017,1,0,0:0:0:0:
192,192,67092,1,0,0:0:0:0:
448,192,67092,1,0,0:0:0:0:
320,192,67166,1,0,0:0:0:0:
64,192,67241,1,0,0:0:0:0:
192,192,67241,1,0,0:0:0:0:
320,192,67316,1,0,0:0:0:0:
192,192,67390,1,0,0:0:0:0:
448,192,67390,1,0,0:0:0:0:
64,192,67465,1,0,0:0:0:0:
192,192,67539,1,0,0:0:0:0:
448,192,67614,1,0,0:0:0:0:
320,192,67614,1,0,0:0:0:0:
64,192,67689,1,0,0:0:0:0:
192,192,67763,1,0,0:0:0:0:
448,192,67838,1,0,0:0:0:0:
64,192,67913,1,0,0:0:0:0:
192,192,67987,128,0,68584:0:0:0:0:
320,192,67987,1,0,0:0:0:0:
448,192,67987,1,0,0:0:0:0:
64,192,68584,1,0,0:0:0:0:
448,192,68584,1,0,0:0:0:0:
320,192,68659,1,0,0:0:0:0:
192,192,68733,1,0,0:0:0:0:
64,192,68808,1,0,0:0:0:0:
448,192,68883,1,0,0:0:0:0:
320,192,68883,1,0,0:0:0:0:
192,192,68957,1,0,0:0:0:0:
320,192,69032,1,0,0:0:0:0:
64,192,69107,1,0,0:0:0:0:
448,192,69181,128,0,69330:0:0:0:0:
192,192,69181,1,0,0:0:0:0:
320,192,69181,1,0,0:0:0:0:
64,192,69256,1,0,0:0:0:0:
320,192,69330,1,0,0:0:0:0:
448,192,69480,1,0,0:0:0:0:
64,192,69480,1,0,0:0:0:0:
192,192,69554,1,0,0:0:0:0:
320,192,69629,1,0,0:0:0:0:
64,192,69704,1,0,0:0:0:0:
448,192,69778,128,0,69927:0:0:0:0:
192,192,69778,1,0,0:0:0:0:
320,192,69778,1,0,0:0:0:0:
192,192,69927,1,0,0:0:0:0:
64,192,70002,1,0,0:0:0:0:
448,192,70077,1,0,0:0:0:0:
320,192,70077,1,0,0:0:0:0:
192,192,70151,1,0,0:0:0:0:
64,192,70226,1,0,0:0:0:0:
192,192,70301,1,0,0:0:0:0:
448,192,70375,128,0,70524:0:0:0:0:
64,192,70375,1,0,0:0:0:0:
320,192,70375,1,0,0:0:0:0:
192,192,70450,1,0,0:0:0:0:
320,192,70599,1,0,0:0:0:0:
192,192,70674,1,0,0:0:0:0:
448,192,70674,1,0,0:0:0:0:
320,192,70748,1,0,0:0:0:0:
192,192,70823,1,0,0:0:0:0:
64,192,70898,1,0,0:0:0:0:
320,192,70972,1,0,0:0:0:0:
448,192,70972,1,0,0:0:0:0:
64,192,71047,1,0,0:0:0:0:
192,192,71122,1,0,0:0:0:0:
448,192,71196,1,0,0:0:0:0:
192,192,71271,1,0,0:0:0:0:
320,192,71271,1,0,0:0:0:0:
448,192,71345,1,0,0:0:0:0:
64,192,71420,1,0,0:0:0:0:
192,192,71495,1,0,0:0:0:0:
448,192,71569,128,0,71719:0:0:0:0:
64,192,71569,1,0,0:0:0:0:
320,192,71569,1,0,0:0:0:0:
192,192,71644,1,0,0:0:0:0:
64,192,71719,1,0,0:0:0:0:
192,192,71793,1,0,0:0:0:0:
448,192,71868,1,0,0:0:0:0:
320,192,71868,1,0,0:0:0:0:
64,192,71942,1,0,0:0:0:0:
320,192,72017,1,0,0:0:0:0:
192,192,72092,1,0,0:0:0:0:
448,192,72166,128,0,72316:0:0:0:0:
64,192,72166,1,0,0:0:0:0:
320,192,72166,1,0,0:0:0:0:
192,192,72241,1,0,0:0:0:0:
64,192,72316,1,0,0:0:0:0:
192,192,72390,1,0,0:0:0:0:
320,192,72465,1,0,0:0:0:0:
448,192,72465,1,0,0:0:0:0:
192,192,72539,1,0,0:0:0:0:
64,192,72539,1,0,0:0:0:0:
64,192,72689,1,0,0:0:0:0:
192,192,72689,1,0,0:0:0:0:
320,192,72689,1,0,0:0:0:0:
192,192,72838,1,0,0:0:0:0:
320,192,72838,1,0,0:0:0:0:
64,192,72838,1,0,0:0:0:0:
448,192,72987,1,0,0:0:0:0:
320,192,72987,1,0,0:0:0:0:
192,192,73062,1,0,0:0:0:0:
64,192,73062,128,0,73360:0:0:0:0:
320,192,73360,1,0,0:0:0:0:
448,192,73360,1,0,0:0:0:0:
192,192,73360,128,0,73659:0:0:0:0:
64,192,73659,1,0,0:0:0:0:
448,192,73659,1,0,0:0:0:0:
320,192,73733,1,0,0:0:0:0:
192,192,73808,1,0,0:0:0:0:
64,192,73883,1,0,0:0:0:0:
448,192,73957,128,0,74107:0:0:0:0:
192,192,73957,1,0,0:0:0:0:
320,192,73957,1,0,0:0:0:0:
64,192,74032,1,0,0:0:0:0:
320,192,74107,1,0,0:0:0:0:
192,192,74181,1,0,0:0:0:0:
448,192,74256,1,0,0:0:0:0:
320,192,74256,1,0,0:0:0:0:
64,192,74330,1,0,0:0:0:0:
192,192,74405,1,0,0:0:0:0:
64,192,74480,1,0,0:0:0:0:
448,192,74554,128,0,74704:0:0:0:0:
192,192,74554,1,0,0:0:0:0:
320,192,74554,1,0,0:0:0:0:
64,192,74629,1,0,0:0:0:0:
192,192,74704,1,0,0:0:0:0:
320,192,74778,1,0,0:0:0:0:
64,192,74853,1,0,0:0:0:0:
448,192,74853,1,0,0:0:0:0:
320,192,74927,1,0,0:0:0:0:
192,192,75002,1,0,0:0:0:0:
320,192,75077,1,0,0:0:0:0:
448,192,75151,128,0,75301:0:0:0:0:
192,192,75151,1,0,0:0:0:0:
64,192,75151,1,0,0:0:0:0:
320,192,75226,1,0,0:0:0:0:
192,192,75301,1,0,0:0:0:0:
64,192,75375,1,0,0:0:0:0:
448,192,75450,1,0,0:0:0:0:
320,192,75450,1,0,0:0:0:0:
192,192,75524,1,0,0:0:0:0:
64,192,75599,1,0,0:0:0:0:
320,192,75674,1,0,0:0:0:0:
64,192,75748,128,0,75972:0:0:0:0:
192,192,75748,1,0,0:0:0:0:
448,192,75748,1,0,0:0:0:0:
320,192,75972,1,0,0:0:0:0:
192,192,75972,128,0,76196:0:0:0:0:
448,192,75972,1,0,0:0:0:0:
320,192,76196,1,0,0:0:0:0:
64,192,76345,128,0,76569:0:0:0:0:
192,192,76345,1,0,0:0:0:0:
320,192,76345,1,0,0:0:0:0:
448,192,76345,1,0,0:0:0:0:
192,192,76569,128,0,76793:0:0:0:0:
320,192,76569,1,0,0:0:0:0:
448,192,76569,1,0,0:0:0:0:
64,192,76793,1,0,0:0:0:0:
64,192,76942,128,0,77166:0:0:0:0:
320,192,76942,1,0,0:0:0:0:
448,192,76942,1,0,0:0:0:0:
192,192,77166,128,0,77390:0:0:0:0:
320,192,77166,1,0,0:0:0:0:
448,192,77166,1,0,0:0:0:0:
320,192,77390,1,0,0:0:0:0:
448,192,77390,1,0,0:0:0:0:
64,192,77539,128,0,77689:0:0:0:0:
192,192,77539,1,0,0:0:0:0:
192,192,77689,128,0,77838:0:0:0:0:
320,192,77689,1,0,0:0:0:0:
320,192,77838,128,0,77987:0:0:0:0:
448,192,77838,1,0,0:0:0:0:
448,192,77987,128,0,78136:0:0:0:0:
192,192,77987,1,0,0:0:0:0:
320,192,78136,1,0,0:0:0:0:
192,192,78211,1,0,0:0:0:0:
320,192,78286,1,0,0:0:0:0:
448,192,78286,1,0,0:0:0:0:
192,192,78360,1,0,0:0:0:0:
320,192,78435,1,0,0:0:0:0:
448,192,78435,1,0,0:0:0:0:
192,192,78510,1,0,0:0:0:0:
320,192,78584,1,0,0:0:0:0:
448,192,78584,1,0,0:0:0:0:
192,192,78659,1,0,0:0:0:0:
320,192,78733,1,0,0:0:0:0:
448,192,78733,1,0,0:0:0:0:
192,192,78808,1,0,0:0:0:0:
320,192,78883,1,0,0:0:0:0:
448,192,78883,1,0,0:0:0:0:
192,192,78957,1,0,0:0:0:0:
320,192,79032,1,0,0:0:0:0:
448,192,79032,1,0,0:0:0:0:
192,192,79107,1,0,0:0:0:0:
320,192,79181,1,0,0:0:0:0:
448,192,79181,1,0,0:0:0:0:
192,192,79256,1,0,0:0:0:0:
320,192,79330,1,0,0:0:0:0:
448,192,79330,1,0,0:0:0:0:
64,192,79405,1,0,0:0:0:0:
320,192,79480,1,0,0:0:0:0:
448,192,79480,1,0,0:0:0:0:
64,192,79554,1,0,0:0:0:0:
320,192,79629,1,0,0:0:0:0:
448,192,79629,1,0,0:0:0:0:
64,192,79704,1,0,0:0:0:0:
320,192,79778,1,0,0:0:0:0:
448,192,79778,1,0,0:0:0:0:
64,192,79853,1,0,0:0:0:0:
320,192,79927,1,0,0:0:0:0:
448,192,79927,1,0,0:0:0:0:
64,192,80002,1,0,0:0:0:0:
320,192,80077,1,0,0:0:0:0:
448,192,80077,1,0,0:0:0:0:
64,192,80151,1,0,0:0:0:0:
320,192,80226,1,0,0:0:0:0:
448,192,80226,1,0,0:0:0:0:
64,192,80301,1,0,0:0:0:0:
320,192,80375,1,0,0:0:0:0:
448,192,80375,1,0,0:0:0:0:
64,192,80450,1,0,0:0:0:0:
320,192,80524,1,0,0:0:0:0:
192,192,80524,1,0,0:0:0:0:
64,192,80599,1,0,0:0:0:0:
192,192,80674,1,0,0:0:0:0:
320,192,80674,1,0,0:0:0:0:
64,192,80748,1,0,0:0:0:0:
192,192,80823,1,0,0:0:0:0:
320,192,80823,1,0,0:0:0:0:
64,192,80898,1,0,0:0:0:0:
192,192,80972,1,0,0:0:0:0:
320,192,80972,1,0,0:0:0:0:
64,192,81047,1,0,0:0:0:0:
192,192,81122,1,0,0:0:0:0:
320,192,81122,1,0,0:0:0:0:
448,192,81196,1,0,0:0:0:0:
192,192,81271,1,0,0:0:0:0:
320,192,81271,1,0,0:0:0:0:
448,192,81345,1,0,0:0:0:0:
320,192,81420,1,0,0:0:0:0:
192,192,81420,1,0,0:0:0:0:
448,192,81495,1,0,0:0:0:0:
320,192,81569,1,0,0:0:0:0:
192,192,81569,1,0,0:0:0:0:
448,192,81644,1,0,0:0:0:0:
192,192,81719,1,0,0:0:0:0:
64,192,81719,1,0,0:0:0:0:
448,192,81793,1,0,0:0:0:0:
64,192,81868,1,0,0:0:0:0:
192,192,81868,1,0,0:0:0:0:
448,192,81942,1,0,0:0:0:0:
192,192,82017,1,0,0:0:0:0:
64,192,82017,1,0,0:0:0:0:
448,192,82092,1,0,0:0:0:0:
64,192,82166,1,0,0:0:0:0:
192,192,82166,1,0,0:0:0:0:
320,192,82241,1,0,0:0:0:0:
192,192,82316,1,0,0:0:0:0:
64,192,82316,1,0,0:0:0:0:
320,192,82390,1,0,0:0:0:0:
64,192,82465,1,0,0:0:0:0:
192,192,82539,1,0,0:0:0:0:
320,192,82539,1,0,0:0:0:0:
448,192,82539,1,0,0:0:0:0:
320,192,82689,1,0,0:0:0:0:
448,192,82689,1,0,0:0:0:0:
64,192,82689,1,0,0:0:0:0:
192,192,82913,1,0,0:0:0:0:
64,192,82913,1,0,0:0:0:0:
448,192,82913,128,0,83136:0:0:0:0:
320,192,83136,1,0,0:0:0:0:
64,192,83136,1,0,0:0:0:0:
192,192,83136,1,0,0:0:0:0:
64,192,83360,1,0,0:0:0:0:
192,192,83360,1,0,0:0:0:0:
320,192,83360,1,0,0:0:0:0:
192,192,83584,1,0,0:0:0:0:
64,192,83584,1,0,0:0:0:0:
448,192,83584,1,0,0:0:0:0:
192,192,83808,1,0,0:0:0:0:
320,192,83808,1,0,0:0:0:0:
448,192,83808,1,0,0:0:0:0:
64,192,84107,1,0,0:0:0:0:
192,192,84107,1,0,0:0:0:0:
320,192,84107,1,0,0:0:0:0:
64,192,84330,1,0,0:0:0:0:
192,192,84330,1,0,0:0:0:0:
448,192,84330,1,0,0:0:0:0:
64,192,84554,1,0,0:0:0:0:
320,192,84554,1,0,0:0:0:0:
448,192,84554,1,0,0:0:0:0:
64,192,84778,1,0,0:0:0:0:
320,192,84778,1,0,0:0:0:0:
448,192,84778,1,0,0:0:0:0:
64,192,85002,1,0,0:0:0:0:
192,192,85002,1,0,0:0:0:0:
320,192,85002,1,0,0:0:0:0:
192,192,85301,1,0,0:0:0:0:
320,192,85301,1,0,0:0:0:0:
448,192,85301,1,0,0:0:0:0:
64,192,85524,1,0,0:0:0:0:
192,192,85524,1,0,0:0:0:0:
320,192,85524,1,0,0:0:0:0:
64,192,85748,1,0,0:0:0:0:
192,192,85748,1,0,0:0:0:0:
448,192,85748,1,0,0:0:0:0:
192,192,85972,1,0,0:0:0:0:
320,192,85972,1,0,0:0:0:0:
448,192,85972,1,0,0:0:0:0:
64,192,86196,1,0,0:0:0:0:
192,192,86196,1,0,0:0:0:0:
320,192,86196,1,0,0:0:0:0:
64,192,86495,1,0,0:0:0:0:
192,192,86495,1,0,0:0:0:0:
320,192,86495,1,0,0:0:0:0:
192,192,86719,1,0,0:0:0:0:
320,192,86719,1,0,0:0:0:0:
448,192,86719,1,0,0:0:0:0:
64,192,86942,1,0,0:0:0:0:
192,192,86942,1,0,0:0:0:0:
320,192,87017,1,0,0:0:0:0:
448,192,87017,1,0,0:0:0:0:
64,192,87092,1,0,0:0:0:0:
192,192,87092,1,0,0:0:0:0:
64,192,87316,1,0,0:0:0:0:
192,192,87316,1,0,0:0:0:0:
320,192,87316,1,0,0:0:0:0:
64,192,87539,1,0,0:0:0:0:
192,192,87539,1,0,0:0:0:0:
320,192,87614,1,0,0:0:0:0:
448,192,87614,1,0,0:0:0:0:
64,192,87689,1,0,0:0:0:0:
192,192,87689,128,0,88510:0:0:0:0:
64,192,88510,128,0,90077:0:0:0:0:
320,192,89330,128,0,90077:0:0:0:0:
192,192,90077,128,0,91271:0:0:0:0:
448,192,90077,1,0,0:0:0:0:
320,192,90375,128,0,90674:0:0:0:0:
448,192,90674,128,0,91271:0:0:0:0:
64,192,91271,128,0,91420:0:0:0:0:
192,192,91420,128,0,91569:0:0:0:0:
64,192,91569,128,0,91719:0:0:0:0:
192,192,91719,128,0,91868:0:0:0:0:
64,192,91868,128,0,92017:0:0:0:0:
192,192,92017,128,0,92763:0:0:0:0:
320,192,92166,128,0,92465:0:0:0:0:
448,192,92465,128,0,92763:0:0:0:0:
64,192,92763,128,0,92913:0:0:0:0:
192,192,92913,128,0,93360:0:0:0:0:
448,192,93062,128,0,93360:0:0:0:0:
320,192,93360,128,0,93510:0:0:0:0:
448,192,93510,128,0,93659:0:0:0:0:
64,192,93659,1,0,0:0:0:0:
192,192,93659,1,0,0:0:0:0:
64,192,93733,1,0,0:0:0:0:
192,192,93733,1,0,0:0:0:0:
320,192,93808,1,0,0:0:0:0:
448,192,93808,1,0,0:0:0:0:
320,192,93883,1,0,0:0:0:0:
448,192,93883,1,0,0:0:0:0:
64,192,93957,1,0,0:0:0:0:
192,192,93957,1,0,0:0:0:0:
320,192,94107,1,0,0:0:0:0:
448,192,94107,1,0,0:0:0:0:
448,192,94181,1,0,0:0:0:0:
320,192,94181,1,0,0:0:0:0:
192,192,94256,1,0,0:0:0:0:
64,192,94256,128,0,94853:0:0:0:0:
192,192,94853,1,0,0:0:0:0:
320,192,94853,1,0,0:0:0:0:
448,192,94853,1,0,0:0:0:0:
64,192,95077,1,0,0:0:0:0:
192,192,95077,1,0,0:0:0:0:
320,192,95077,1,0,0:0:0:0:
192,192,95301,1,0,0:0:0:0:
320,192,95301,1,0,0:0:0:0:
448,192,95301,1,0,0:0:0:0:
64,192,95450,1,0,0:0:0:0:
192,192,95450,1,0,0:0:0:0:
448,192,95450,1,0,0:0:0:0:
320,192,95674,1,0,0:0:0:0:
448,192,95674,1,0,0:0:0:0:
64,192,95674,1,0,0:0:0:0:
64,192,95898,1,0,0:0:0:0:
192,192,95898,1,0,0:0:0:0:
320,192,95898,1,0,0:0:0:0:
192,192,96047,1,0,0:0:0:0:
320,192,96047,1,0,0:0:0:0:
448,192,96047,1,0,0:0:0:0:
64,192,96271,1,0,0:0:0:0:
192,192,96271,1,0,0:0:0:0:
320,192,96271,1,0,0:0:0:0:
192,192,96495,1,0,0:0:0:0:
320,192,96495,1,0,0:0:0:0:
448,192,96495,1,0,0:0:0:0:
64,192,96644,1,0,0:0:0:0:
192,192,96644,1,0,0:0:0:0:
448,192,96644,1,0,0:0:0:0:
192,192,96868,1,0,0:0:0:0:
320,192,96868,1,0,0:0:0:0:
64,192,96868,1,0,0:0:0:0:
64,192,97092,1,0,0:0:0:0:
448,192,97092,1,0,0:0:0:0:
320,192,97092,1,0,0:0:0:0:
192,192,97241,1,0,0:0:0:0:
320,192,97241,1,0,0:0:0:0:
448,192,97241,1,0,0:0:0:0:
192,192,97390,1,0,0:0:0:0:
64,192,97390,1,0,0:0:0:0:
320,192,97390,1,0,0:0:0:0:
192,192,97539,1,0,0:0:0:0:
448,192,97539,1,0,0:0:0:0:
64,192,97539,1,0,0:0:0:0:
64,192,97689,1,0,0:0:0:0:
320,192,97689,1,0,0:0:0:0:
448,192,97689,1,0,0:0:0:0:
192,192,97838,1,0,0:0:0:0:
320,192,97838,1,0,0:0:0:0:
448,192,97838,1,0,0:0:0:0:
64,192,97987,1,0,0:0:0:0:
192,192,97987,1,0,0:0:0:0:
448,192,97987,1,0,0:0:0:0:
64,192,98136,1,0,0:0:0:0:
448,192,98136,1,0,0:0:0:0:
320,192,98211,1,0,0:0:0:0:
192,192,98211,1,0,0:0:0:0:
64,192,98286,1,0,0:0:0:0:
448,192,98286,1,0,0:0:0:0:
192,192,98360,1,0,0:0:0:0:
320,192,98360,1,0,0:0:0:0:
64,192,98435,128,0,99032:0:0:0:0:
448,192,98435,128,0,99629:0:0:0:0:
64,192,99629,128,0,99927:0:0:0:0:
192,192,99629,1,0,0:0:0:0:
192,192,99927,128,0,100226:0:0:0:0:
320,192,99927,1,0,0:0:0:0:
320,192,100226,128,0,100524:0:0:0:0:
448,192,100226,1,0,0:0:0:0:
192,192,100524,1,0,0:0:0:0:
64,192,100524,1,0,0:0:0:0:
192,192,100674,1,0,0:0:0:0:
64,192,100674,1,0,0:0:0:0:
448,192,100823,1,0,0:0:0:0:
320,192,100823,1,0,0:0:0:0:
64,192,100823,1,0,0:0:0:0:
64,192,100972,1,0,0:0:0:0:
320,192,100972,1,0,0:0:0:0:
192,192,101122,1,0,0:0:0:0:
448,192,101122,1,0,0:0:0:0:
64,192,101122,1,0,0:0:0:0:
320,192,101271,1,0,0:0:0:0:
448,192,101271,1,0,0:0:0:0:
64,192,101420,1,0,0:0:0:0:
192,192,101420,1,0,0:0:0:0:
320,192,101420,1,0,0:0:0:0:
448,192,101569,1,0,0:0:0:0:
64,192,101569,1,0,0:0:0:0:
64,192,101719,1,0,0:0:0:0:
320,192,101719,1,0,0:0:0:0:
192,192,101719,1,0,0:0:0:0:
448,192,101868,1,0,0:0:0:0:
320,192,101868,1,0,0:0:0:0:
192,192,101942,1,0,0:0:0:0:
64,192,101942,1,0,0:0:0:0:
320,192,102017,1,0,0:0:0:0:
448,192,102017,1,0,0:0:0:0:
64,192,102166,1,0,0:0:0:0:
320,192,102166,1,0,0:0:0:0:
192,192,102316,1,0,0:0:0:0:
448,192,102316,1,0,0:0:0:0:
64,192,102316,1,0,0:0:0:0:
192,192,102465,1,0,0:0:0:0:
448,192,102465,1,0,0:0:0:0:
448,192,102614,1,0,0:0:0:0:
192,192,102614,1,0,0:0:0:0:
320,192,102689,1,0,0:0:0:0:
64,192,102689,1,0,0:0:0:0:
192,192,102763,1,0,0:0:0:0:
448,192,102763,1,0,0:0:0:0:
320,192,102838,1,0,0:0:0:0:
64,192,102838,1,0,0:0:0:0:
448,192,102913,128,0,103211:0:0:0:0:
320,192,103211,1,0,0:0:0:0:
64,192,103211,1,0,0:0:0:0:
320,192,103360,1,0,0:0:0:0:
448,192,103360,1,0,0:0:0:0:
64,192,103510,1,0,0:0:0:0:
192,192,103510,1,0,0:0:0:0:
448,192,103510,1,0,0:0:0:0:
64,192,103659,1,0,0:0:0:0:
320,192,103659,1,0,0:0:0:0:
192,192,103733,1,0,0:0:0:0:
448,192,103733,1,0,0:0:0:0:
320,192,103808,1,0,0:0:0:0:
64,192,103808,1,0,0:0:0:0:
192,192,103957,1,0,0:0:0:0:
64,192,103957,1,0,0:0:0:0:
64,192,104107,1,0,0:0:0:0:
192,192,104107,1,0,0:0:0:0:
320,192,104107,1,0,0:0:0:0:
448,192,104256,1,0,0:0:0:0:
192,192,104256,1,0,0:0:0:0:
64,192,104405,1,0,0:0:0:0:
192,192,104405,1,0,0:0:0:0:
320,192,104405,1,0,0:0:0:0:
64,192,104554,1,0,0:0:0:0:
192,192,104604,1,0,0:0:0:0:
320,192,104654,1,0,0:0:0:0:
448,192,104704,1,0,0:0:0:0:
64,192,104853,1,0,0:0:0:0:
192,192,104903,1,0,0:0:0:0:
320,192,104952,1,0,0:0:0:0:
448,192,105002,1,0,0:0:0:0:
64,192,105151,1,0,0:0:0:0:
320,192,105151,1,0,0:0:0:0:
320,192,105301,1,0,0:0:0:0:
448,192,105301,1,0,0:0:0:0:
64,192,105301,128,0,105450:0:0:0:0:
192,192,105450,128,0,105599:0:0:0:0:
64,192,105599,1,0,0:0:0:0:
320,192,105674,1,0,0:0:0:0:
448,192,105674,1,0,0:0:0:0:
192,192,105748,1,0,0:0:0:0:
64,192,105748,1,0,0:0:0:0:
320,192,105823,1,0,0:0:0:0:
448,192,105823,1,0,0:0:0:0:
192,192,105898,1,0,0:0:0:0:
64,192,105898,1,0,0:0:0:0:
192,192,106047,1,0,0:0:0:0:
448,192,106047,1,0,0:0:0:0:
64,192,106196,1,0,0:0:0:0:
192,192,106196,1,0,0:0:0:0:
320,192,106196,1,0,0:0:0:0:
64,192,106345,1,0,0:0:0:0:
192,192,106345,1,0,0:0:0:0:
64,192,106495,1,0,0:0:0:0:
448,192,106495,1,0,0:0:0:0:
320,192,106495,1,0,0:0:0:0:
64,192,106644,1,0,0:0:0:0:
320,192,106644,1,0,0:0:0:0:
192,192,106719,1,0,0:0:0:0:
448,192,106719,1,0,0:0:0:0:
320,192,106793,1,0,0:0:0:0:
64,192,106793,1,0,0:0:0:0:
192,192,106942,1,0,0:0:0:0:
320,192,106942,1,0,0:0:0:0:
64,192,107092,1,0,0:0:0:0:
192,192,107092,1,0,0:0:0:0:
320,192,107092,1,0,0:0:0:0:
64,192,107241,1,0,0:0:0:0:
320,192,107241,1,0,0:0:0:0:
320,192,107390,1,0,0:0:0:0:
448,192,107390,1,0,0:0:0:0:
192,192,107465,1,0,0:0:0:0:
64,192,107465,1,0,0:0:0:0:
320,192,107539,1,0,0:0:0:0:
448,192,107539,1,0,0:0:0:0:
192,192,107614,1,0,0:0:0:0:
64,192,107614,1,0,0:0:0:0:
320,192,107689,128,0,107987:0:0:0:0:
448,192,107689,1,0,0:0:0:0:
64,192,107987,1,0,0:0:0:0:
448,192,107987,1,0,0:0:0:0:
64,192,108136,1,0,0:0:0:0:
448,192,108136,1,0,0:0:0:0:
320,192,108211,1,0,0:0:0:0:
192,192,108211,1,0,0:0:0:0:
192,192,108360,1,0,0:0:0:0:
320,192,108360,1,0,0:0:0:0:
64,192,108435,1,0,0:0:0:0:
448,192,108435,1,0,0:0:0:0:
192,192,108510,1,0,0:0:0:0:
320,192,108510,1,0,0:0:0:0:
64,192,108584,1,0,0:0:0:0:
448,192,108584,1,0,0:0:0:0:
320,192,108733,1,0,0:0:0:0:
448,192,108733,1,0,0:0:0:0:
192,192,108808,1,0,0:0:0:0:
64,192,108808,1,0,0:0:0:0:
320,192,108957,1,0,0:0:0:0:
448,192,108957,1,0,0:0:0:0:
192,192,109032,1,0,0:0:0:0:
64,192,109032,1,0,0:0:0:0:
320,192,109107,1,0,0:0:0:0:
448,192,109107,1,0,0:0:0:0:
64,192,109181,128,0,109480:0:0:0:0:
192,192,109181,1,0,0:0:0:0:
192,192,109480,128,0,109778:0:0:0:0:
320,192,109480,1,0,0:0:0:0:
320,192,109778,128,0,110077:0:0:0:0:
448,192,109778,1,0,0:0:0:0:
448,192,110077,128,0,110375:0:0:0:0:
192,192,110077,1,0,0:0:0:0:
64,192,110375,1,0,0:0:0:0:
192,192,110375,1,0,0:0:0:0:
192,192,110524,1,0,0:0:0:0:
448,192,110524,1,0,0:0:0:0:
64,192,110674,1,0,0:0:0:0:
192,192,110674,1,0,0:0:0:0:
320,192,110674,1,0,0:0:0:0:
192,192,110823,1,0,0:0:0:0:
448,192,110823,1,0,0:0:0:0:
64,192,110972,1,0,0:0:0:0:
192,192,110972,1,0,0:0:0:0:
448,192,110972,1,0,0:0:0:0:
64,192,111122,1,0,0:0:0:0:
320,192,111122,1,0,0:0:0:0:
320,192,111271,1,0,0:0:0:0:
448,192,111271,1,0,0:0:0:0:
192,192,111271,1,0,0:0:0:0:
64,192,111420,1,0,0:0:0:0:
192,192,111420,1,0,0:0:0:0:
320,192,111495,1,0,0:0:0:0:
448,192,111495,1,0,0:0:0:0:
192,192,111569,1,0,0:0:0:0:
64,192,111569,1,0,0:0:0:0:
192,192,111719,1,0,0:0:0:0:
448,192,111719,1,0,0:0:0:0:
64,192,111868,1,0,0:0:0:0:
192,192,111868,1,0,0:0:0:0:
448,192,111868,1,0,0:0:0:0:
64,192,112017,1,0,0:0:0:0:
192,192,112017,1,0,0:0:0:0:
448,192,112166,1,0,0:0:0:0:
320,192,112166,1,0,0:0:0:0:
192,192,112241,1,0,0:0:0:0:
64,192,112241,1,0,0:0:0:0:
320,192,112316,1,0,0:0:0:0:
448,192,112316,1,0,0:0:0:0:
192,192,112390,1,0,0:0:0:0:
64,192,112390,1,0,0:0:0:0:
320,192,112465,128,0,112763:0:0:0:0:
448,192,112465,1,0,0:0:0:0:
64,192,112763,1,0,0:0:0:0:
448,192,112763,1,0,0:0:0:0:
192,192,112913,1,0,0:0:0:0:
320,192,112913,1,0,0:0:0:0:
64,192,113062,1,0,0:0:0:0:
192,192,113062,1,0,0:0:0:0:
448,192,113062,1,0,0:0:0:0:
192,192,113211,1,0,0:0:0:0:
448,192,113211,1,0,0:0:0:0:
320,192,113286,1,0,0:0:0:0:
64,192,113286,1,0,0:0:0:0:
192,192,113360,1,0,0:0:0:0:
448,192,113360,1,0,0:0:0:0:
64,192,113510,1,0,0:0:0:0:
192,192,113510,1,0,0:0:0:0:
64,192,113659,1,0,0:0:0:0:
320,192,113659,1,0,0:0:0:0:
448,192,113659,1,0,0:0:0:0:
448,192,113808,1,0,0:0:0:0:
64,192,113808,1,0,0:0:0:0:
192,192,113883,1,0,0:0:0:0:
320,192,113883,1,0,0:0:0:0:
64,192,113957,1,0,0:0:0:0:
448,192,113957,1,0,0:0:0:0:
64,192,114107,1,0,0:0:0:0:
192,192,114156,1,0,0:0:0:0:
320,192,114206,1,0,0:0:0:0:
448,192,114256,1,0,0:0:0:0:
64,192,114405,1,0,0:0:0:0:
192,192,114455,1,0,0:0:0:0:
320,192,114505,1,0,0:0:0:0:
448,192,114554,1,0,0:0:0:0:
64,192,114704,1,0,0:0:0:0:
320,192,114704,1,0,0:0:0:0:
320,192,114853,128,0,115002:0:0:0:0:
448,192,115002,128,0,115151:0:0:0:0:
320,192,115151,1,0,0:0:0:0:
192,192,115226,1,0,0:0:0:0:
64,192,115226,1,0,0:0:0:0:
320,192,115301,1,0,0:0:0:0:
448,192,115301,1,0,0:0:0:0:
192,192,115375,1,0,0:0:0:0:
64,192,115375,1,0,0:0:0:0:
64,192,115748,1,0,0:0:0:0:
192,192,115748,1,0,0:0:0:0:
320,192,115823,1,0,0:0:0:0:
448,192,115823,1,0,0:0:0:0:
64,192,115898,1,0,0:0:0:0:
192,192,115898,1,0,0:0:0:0:
320,192,115972,1,0,0:0:0:0:
448,192,115972,1,0,0:0:0:0:
64,192,116345,1,0,0:0:0:0:
320,192,116345,1,0,0:0:0:0:
192,192,116420,1,0,0:0:0:0:
448,192,116420,1,0,0:0:0:0:
320,192,116495,1,0,0:0:0:0:
64,192,116495,1,0,0:0:0:0:
192,192,116569,1,0,0:0:0:0:
448,192,116569,1,0,0:0:0:0:
192,192,116942,1,0,0:0:0:0:
448,192,116942,1,0,0:0:0:0:
320,192,117017,1,0,0:0:0:0:
64,192,117017,1,0,0:0:0:0:
192,192,117092,1,0,0:0:0:0:
448,192,117092,1,0,0:0:0:0:
320,192,117166,1,0,0:0:0:0:
64,192,117166,1,0,0:0:0:0:
64,192,117390,1,0,0:0:0:0:
192,192,117390,1,0,0:0:0:0:
320,192,117390,1,0,0:0:0:0:
64,192,117539,1,0,0:0:0:0:
192,192,117589,1,0,0:0:0:0:
320,192,117639,1,0,0:0:0:0:
448,192,117689,1,0,0:0:0:0:
64,192,117738,1,0,0:0:0:0:
192,192,117788,1,0,0:0:0:0:
320,192,117838,1,0,0:0:0:0:
448,192,117838,1,0,0:0:0:0:
192,192,117913,1,0,0:0:0:0:
64,192,117987,1,0,0:0:0:0:
192,192,118037,1,0,0:0:0:0:
320,192,118087,1,0,0:0:0:0:
448,192,118136,1,0,0:0:0:0:
192,192,118211,1,0,0:0:0:0:
64,192,118211,1,0,0:0:0:0:
320,192,118286,1,0,0:0:0:0:
448,192,118286,1,0,0:0:0:0:
192,192,118360,1,0,0:0:0:0:
64,192,118360,1,0,0:0:0:0:
320,192,118435,1,0,0:0:0:0:
448,192,118435,1,0,0:0:0:0:
192,192,118584,1,0,0:0:0:0:
448,192,118584,1,0,0:0:0:0:
320,192,118584,1,0,0:0:0:0:
64,192,118733,1,0,0:0:0:0:
192,192,118783,1,0,0:0:0:0:
320,192,118833,1,0,0:0:0:0:
448,192,118883,1,0,0:0:0:0:
64,192,118932,1,0,0:0:0:0:
192,192,118982,1,0,0:0:0:0:
320,192,119032,1,0,0:0:0:0:
448,192,119082,1,0,0:0:0:0:
64,192,119181,1,0,0:0:0:0:
192,192,119231,1,0,0:0:0:0:
320,192,119281,1,0,0:0:0:0:
64,192,119330,128,0,119629:0:0:0:0:
448,192,119330,1,0,0:0:0:0:
192,192,119629,128,0,119927:0:0:0:0:
320,192,119927,1,0,0:0:0:0:
64,192,119927,1,0,0:0:0:0:
320,192,120226,1,0,0:0:0:0:
320,192,120674,1,0,0:0:0:0:
192,192,121122,1,0,0:0:0:0:
192,192,121569,1,0,0:0:0:0:
320,192,122017,1,0,0:0:0:0:
192,192,122166,1,0,0:0:0:0:
64,192,122614,1,0,0:0:0:0:
64,192,123062,1,0,0:0:0:0:
64,192,123510,1,0,0:0:0:0:
64,192,123957,1,0,0:0:0:0:
64,192,124256,1,0,0:0:0:0:
320,192,124405,1,0,0:0:0:0:
192,192,124554,1,0,0:0:0:0:
64,192,124704,1,0,0:0:0:0:
192,192,124853,1,0,0:0:0:0:
320,192,125002,1,0,0:0:0:0:
320,192,125450,1,0,0:0:0:0:
192,192,125898,1,0,0:0:0:0:
192,192,126345,1,0,0:0:0:0:
320,192,126793,1,0,0:0:0:0:
192,192,126942,1,0,0:0:0:0:
320,192,127390,1,0,0:0:0:0:
320,192,127838,1,0,0:0:0:0:
192,192,128286,1,0,0:0:0:0:
192,192,128733,1,0,0:0:0:0:
192,192,129032,1,0,0:0:0:0:
320,192,129181,1,0,0:0:0:0:
448,192,129330,1,0,0:0:0:0:
320,192,129480,1,0,0:0:0:0:
448,192,129629,1,0,0:0:0:0:
320,192,129778,1,0,0:0:0:0:
320,192,130226,1,0,0:0:0:0:
320,192,130674,1,0,0:0:0:0:
320,192,131122,1,0,0:0:0:0:
320,192,131569,1,0,0:0:0:0:
192,192,131719,1,0,0:0:0:0:
192,192,132166,1,0,0:0:0:0:
192,192,132614,1,0,0:0:0:0:
192,192,133062,1,0,0:0:0:0:
192,192,133510,1,0,0:0:0:0:
192,192,133808,1,0,0:0:0:0:
320,192,133957,1,0,0:0:0:0:
448,192,134107,1,0,0:0:0:0:
320,192,134256,1,0,0:0:0:0:
192,192,134405,1,0,0:0:0:0:
320,192,134554,1,0,0:0:0:0:
320,192,135002,1,0,0:0:0:0:
448,192,135450,128,0,137838:0:0:0:0:
192,192,135450,1,0,0:0:0:0:
192,192,135898,1,0,0:0:0:0:
192,192,136345,1,0,0:0:0:0:
64,192,136495,1,0,0:0:0:0:
64,192,136942,1,0,0:0:0:0:
320,192,137390,128,0,137838:0:0:0:0:
64,192,137838,1,0,0:0:0:0:
192,192,137838,128,0,139032:0:0:0:0:
320,192,139032,128,0,139181:0:0:0:0:
448,192,139181,128,0,139330:0:0:0:0:
192,192,139181,1,0,0:0:0:0:
320,192,139330,128,0,139480:0:0:0:0:
192,192,139330,1,0,0:0:0:0:
192,192,139480,128,0,139629:0:0:0:0:
448,192,139480,1,0,0:0:0:0:
64,192,139629,128,0,139778:0:0:0:0:
320,192,139629,1,0,0:0:0:0:
448,192,139778,128,0,139927:0:0:0:0:
192,192,139778,1,0,0:0:0:0:
320,192,139927,128,0,140077:0:0:0:0:
192,192,139927,1,0,0:0:0:0:
448,192,140077,128,0,140375:0:0:0:0:
64,192,140077,1,0,0:0:0:0:
320,192,140375,1,0,0:0:0:0:
192,192,140375,128,0,140674:0:0:0:0:
320,192,140674,1,0,0:0:0:0:
64,192,140674,128,0,140972:0:0:0:0:
192,192,140972,128,0,141122:0:0:0:0:
320,192,140972,1,0,0:0:0:0:
64,192,141122,1,0,0:0:0:0:
320,192,141122,128,0,141271:0:0:0:0:
448,192,141271,128,0,141420:0:0:0:0:
192,192,141271,1,0,0:0:0:0:
192,192,141420,1,0,0:0:0:0:
64,192,141420,1,0,0:0:0:0:
192,192,141495,1,0,0:0:0:0:
64,192,141495,1,0,0:0:0:0:
320,192,141569,1,0,0:0:0:0:
448,192,141569,1,0,0:0:0:0:
320,192,141644,1,0,0:0:0:0:
448,192,141644,1,0,0:0:0:0:
192,192,141719,1,0,0:0:0:0:
64,192,141719,1,0,0:0:0:0:
320,192,141868,1,0,0:0:0:0:
448,192,141868,1,0,0:0:0:0:
320,192,141942,1,0,0:0:0:0:
448,192,141942,1,0,0:0:0:0:
192,192,142017,1,0,0:0:0:0:
64,192,142017,1,0,0:0:0:0:
192,192,142092,1,0,0:0:0:0:
64,192,142092,1,0,0:0:0:0:
320,192,142166,1,0,0:0:0:0:
448,192,142166,1,0,0:0:0:0:
64,192,142316,1,0,0:0:0:0:
192,192,142316,1,0,0:0:0:0:
320,192,142316,1,0,0:0:0:0:
320,192,142614,1,0,0:0:0:0:
448,192,142614,1,0,0:0:0:0:
320,192,142689,1,0,0:0:0:0:
448,192,142689,1,0,0:0:0:0:
192,192,142763,1,0,0:0:0:0:
64,192,142763,1,0,0:0:0:0:
192,192,142838,1,0,0:0:0:0:
64,192,142838,1,0,0:0:0:0:
320,192,142913,1,0,0:0:0:0:
448,192,142913,1,0,0:0:0:0:
192,192,143062,1,0,0:0:0:0:
64,192,143062,1,0,0:0:0:0:
64,192,143136,1,0,0:0:0:0:
192,192,143136,1,0,0:0:0:0:
320,192,143211,1,0,0:0:0:0:
448,192,143211,1,0,0:0:0:0:
320,192,143286,1,0,0:0:0:0:
448,192,143286,1,0,0:0:0:0:
192,192,143360,1,0,0:0:0:0:
64,192,143360,1,0,0:0:0:0:
192,192,143510,128,0,143808:0:0:0:0:
448,192,143808,1,0,0:0:0:0:
64,192,143808,1,0,0:0:0:0:
320,192,143808,128,0,143957:0:0:0:0:
448,192,143957,1,0,0:0:0:0:
192,192,143957,128,0,144107:0:0:0:0:
64,192,144107,128,0,144256:0:0:0:0:
320,192,144107,1,0,0:0:0:0:
192,192,144256,1,0,0:0:0:0:
320,192,144256,128,0,144405:0:0:0:0:
448,192,144256,1,0,0:0:0:0:
448,192,144405,128,0,144554:0:0:0:0:
192,192,144405,1,0,0:0:0:0:
320,192,144554,128,0,144704:0:0:0:0:
192,192,144554,1,0,0:0:0:0:
192,192,144704,128,0,144853:0:0:0:0:
64,192,144704,1,0,0:0:0:0:
320,192,144853,1,0,0:0:0:0:
64,192,144853,128,0,145002:0:0:0:0:
192,192,145002,1,0,0:0:0:0:
320,192,145002,128,0,145151:0:0:0:0:
64,192,145151,128,0,145301:0:0:0:0:
448,192,145151,1,0,0:0:0:0:
320,192,145301,128,0,145450:0:0:0:0:
192,192,145301,1,0,0:0:0:0:
448,192,145450,1,0,0:0:0:0:
192,192,145450,128,0,145599:0:0:0:0:
64,192,145599,1,0,0:0:0:0:
448,192,145599,128,0,145748:0:0:0:0:
320,192,145748,128,0,145823:0:0:0:0:
192,192,145823,128,0,145898:0:0:0:0:
448,192,145898,128,0,145972:0:0:0:0:
320,192,145972,128,0,146047:0:0:0:0:
192,192,146047,128,0,146122:0:0:0:0:
320,192,146122,128,0,146196:0:0:0:0:
448,192,146196,1,0,0:0:0:0:
64,192,146271,1,0,0:0:0:0:
192,192,146271,1,0,0:0:0:0:
192,192,146345,1,0,0:0:0:0:
64,192,146345,1,0,0:0:0:0:
320,192,146420,1,0,0:0:0:0:
448,192,146420,1,0,0:0:0:0:
320,192,146495,1,0,0:0:0:0:
448,192,146495,1,0,0:0:0:0:
192,192,146644,1,0,0:0:0:0:
64,192,146644,1,0,0:0:0:0:
64,192,146719,1,0,0:0:0:0:
192,192,146719,1,0,0:0:0:0:
320,192,146793,1,0,0:0:0:0:
448,192,146793,1,0,0:0:0:0:
320,192,146868,1,0,0:0:0:0:
448,192,146868,1,0,0:0:0:0:
192,192,146942,1,0,0:0:0:0:
64,192,146942,1,0,0:0:0:0:
192,192,147092,1,0,0:0:0:0:
320,192,147092,128,0,147390:0:0:0:0:
192,192,147390,1,0,0:0:0:0:
64,192,147390,1,0,0:0:0:0:
64,192,147465,1,0,0:0:0:0:
192,192,147465,1,0,0:0:0:0:
320,192,147539,1,0,0:0:0:0:
448,192,147539,1,0,0:0:0:0:
320,192,147614,1,0,0:0:0:0:
448,192,147614,1,0,0:0:0:0:
192,192,147689,1,0,0:0:0:0:
64,192,147689,1,0,0:0:0:0:
448,192,147838,1,0,0:0:0:0:
320,192,147838,1,0,0:0:0:0:
320,192,147913,1,0,0:0:0:0:
448,192,147913,1,0,0:0:0:0:
192,192,147987,1,0,0:0:0:0:
64,192,147987,1,0,0:0:0:0:
64,192,148062,1,0,0:0:0:0:
192,192,148062,1,0,0:0:0:0:
448,192,148136,1,0,0:0:0:0:
320,192,148136,1,0,0:0:0:0:
192,192,148286,1,0,0:0:0:0:
320,192,148286,1,0,0:0:0:0:
64,192,148286,1,0,0:0:0:0:
320,192,148584,1,0,0:0:0:0:
448,192,148584,1,0,0:0:0:0:
192,192,148584,128,0,148733:0:0:0:0:
320,192,148733,128,0,149032:0:0:0:0:
448,192,148733,1,0,0:0:0:0:
192,192,149032,128,0,149330:0:0:0:0:
64,192,149032,1,0,0:0:0:0:
64,192,149330,128,0,149480:0:0:0:0:
320,192,149330,1,0,0:0:0:0:
192,192,149480,128,0,149629:0:0:0:0:
320,192,149480,1,0,0:0:0:0:
320,192,149629,128,0,149778:0:0:0:0:
64,192,149629,1,0,0:0:0:0:
448,192,149778,128,0,150077:0:0:0:0:
192,192,149778,1,0,0:0:0:0:
320,192,149927,128,0,150077:0:0:0:0:
192,192,149927,1,0,0:0:0:0:
192,192,150077,128,0,150226:0:0:0:0:
64,192,150077,1,0,0:0:0:0:
320,192,150226,128,0,150524:0:0:0:0:
448,192,150226,1,0,0:0:0:0:
192,192,150524,128,0,150599:0:0:0:0:
448,192,150524,1,0,0:0:0:0:
64,192,150599,128,0,150674:0:0:0:0:
192,192,150674,128,0,150748:0:0:0:0:
320,192,150748,128,0,150823:0:0:0:0:
448,192,150823,128,0,150898:0:0:0:0:
320,192,150898,128,0,150972:0:0:0:0:
192,192,150972,1,0,0:0:0:0:
64,192,150972,1,0,0:0:0:0:
64,192,151047,1,0,0:0:0:0:
192,192,151047,1,0,0:0:0:0:
320,192,151122,1,0,0:0:0:0:
448,192,151122,1,0,0:0:0:0:
320,192,151196,1,0,0:0:0:0:
448,192,151196,1,0,0:0:0:0:
192,192,151271,1,0,0:0:0:0:
64,192,151271,1,0,0:0:0:0:
320,192,151420,1,0,0:0:0:0:
448,192,151420,1,0,0:0:0:0:
320,192,151495,1,0,0:0:0:0:
448,192,151495,1,0,0:0:0:0:
192,192,151569,1,0,0:0:0:0:
64,192,151569,1,0,0:0:0:0:
192,192,151644,1,0,0:0:0:0:
64,192,151644,1,0,0:0:0:0:
320,192,151719,1,0,0:0:0:0:
448,192,151719,1,0,0:0:0:0:
64,192,151868,1,0,0:0:0:0:
192,192,151868,1,0,0:0:0:0:
320,192,151868,1,0,0:0:0:0:
64,192,152166,1,0,0:0:0:0:
192,192,152166,1,0,0:0:0:0:
192,192,152241,1,0,0:0:0:0:
64,192,152241,1,0,0:0:0:0:
320,192,152316,1,0,0:0:0:0:
448,192,152316,1,0,0:0:0:0:
320,192,152390,1,0,0:0:0:0:
448,192,152390,1,0,0:0:0:0:
192,192,152465,1,0,0:0:0:0:
64,192,152465,1,0,0:0:0:0:
320,192,152614,1,0,0:0:0:0:
448,192,152614,1,0,0:0:0:0:
448,192,152689,1,0,0:0:0:0:
320,192,152689,1,0,0:0:0:0:
192,192,152763,1,0,0:0:0:0:
64,192,152763,128,0,153360:0:0:0:0:
320,192,153360,1,0,0:0:0:0:
448,192,153360,1,0,0:0:0:0:
192,192,153360,128,0,154554:0:0:0:0:
320,192,153659,1,0,0:0:0:0:
448,192,153659,1,0,0:0:0:0:
320,192,153957,1,0,0:0:0:0:
64,192,153957,1,0,0:0:0:0:
320,192,154256,1,0,0:0:0:0:
448,192,154256,1,0,0:0:0:0:
320,192,154554,128,0,155748:0:0:0:0:
192,192,154853,1,0,0:0:0:0:
64,192,154853,1,0,0:0:0:0:
192,192,155151,1,0,0:0:0:0:
448,192,155151,1,0,0:0:0:0:
192,192,155450,1,0,0:0:0:0:
64,192,155450,1,0,0:0:0:0:
192,192,155748,128,0,156942:0:0:0:0:
320,192,156047,1,0,0:0:0:0:
448,192,156047,1,0,0:0:0:0:
320,192,156345,1,0,0:0:0:0:
64,192,156345,1,0,0:0:0:0:
320,192,156644,1,0,0:0:0:0:
448,192,156644,1,0,0:0:0:0:
320,192,156942,1,0,0:0:0:0:
448,192,156942,1,0,0:0:0:0:
64,192,156942,1,0,0:0:0:0:
64,192,157166,1,0,0:0:0:0:
192,192,157166,1,0,0:0:0:0:
448,192,157166,1,0,0:0:0:0:
192,192,157390,1,0,0:0:0:0:
320,192,157390,1,0,0:0:0:0:
448,192,157390,1,0,0:0:0:0:
320,192,157539,1,0,0:0:0:0:
192,192,157539,1,0,0:0:0:0:
64,192,157539,128,0,158136:0:0:0:0:
192,192,158136,1,0,0:0:0:0:
320,192,158136,1,0,0:0:0:0:
448,192,158136,1,0,0:0:0:0:
192,192,158435,1,0,0:0:0:0:
448,192,158435,1,0,0:0:0:0:
64,192,158883,1,0,0:0:0:0:
192,192,158883,1,0,0:0:0:0:
448,192,158883,1,0,0:0:0:0:
192,192,159032,1,0,0:0:0:0:
448,192,159032,1,0,0:0:0:0:
64,192,159330,1,0,0:0:0:0:
192,192,159330,1,0,0:0:0:0:
320,192,159330,1,0,0:0:0:0:
192,192,159629,1,0,0:0:0:0:
448,192,159629,1,0,0:0:0:0:
64,192,160077,1,0,0:0:0:0:
320,192,160077,1,0,0:0:0:0:
448,192,160077,1,0,0:0:0:0:
192,192,160226,1,0,0:0:0:0:
320,192,160226,1,0,0:0:0:0:
192,192,160524,1,0,0:0:0:0:
64,192,160524,1,0,0:0:0:0:
320,192,160524,1,0,0:0:0:0:
64,192,160823,1,0,0:0:0:0:
320,192,160823,1,0,0:0:0:0:
192,192,161271,1,0,0:0:0:0:
320,192,161271,1,0,0:0:0:0:
448,192,161271,1,0,0:0:0:0:
64,192,161420,1,0,0:0:0:0:
320,192,161420,1,0,0:0:0:0:
64,192,161719,1,0,0:0:0:0:
320,192,161719,1,0,0:0:0:0:
448,192,161719,1,0,0:0:0:0:
64,192,162017,1,0,0:0:0:0:
192,192,162017,1,0,0:0:0:0:
448,192,162017,1,0,0:0:0:0:
192,192,162166,1,0,0:0:0:0:
320,192,162166,1,0,0:0:0:0:
448,192,162166,1,0,0:0:0:0:
64,192,162316,1,0,0:0:0:0:
448,192,162316,1,0,0:0:0:0:
320,192,162316,1,0,0:0:0:0:
192,192,162465,1,0,0:0:0:0:
320,192,162465,1,0,0:0:0:0:
64,192,162465,1,0,0:0:0:0:
448,192,162539,1,0,0:0:0:0:
320,192,162614,1,0,0:0:0:0:
192,192,162689,1,0,0:0:0:0:
320,192,162763,1,0,0:0:0:0:
192,192,162838,1,0,0:0:0:0:
64,192,162913,1,0,0:0:0:0:
320,192,162913,1,0,0:0:0:0:
448,192,162913,1,0,0:0:0:0:
64,192,163136,1,0,0:0:0:0:
192,192,163136,1,0,0:0:0:0:
320,192,163136,1,0,0:0:0:0:
320,192,163211,1,0,0:0:0:0:
448,192,163211,1,0,0:0:0:0:
192,192,163360,1,0,0:0:0:0:
320,192,163360,1,0,0:0:0:0:
448,192,163360,1,0,0:0:0:0:
64,192,163510,1,0,0:0:0:0:
320,192,163510,1,0,0:0:0:0:
192,192,163733,1,0,0:0:0:0:
448,192,163733,1,0,0:0:0:0:
64,192,163733,1,0,0:0:0:0:
192,192,163808,1,0,0:0:0:0:
320,192,163808,1,0,0:0:0:0:
192,192,163957,1,0,0:0:0:0:
320,192,163957,1,0,0:0:0:0:
448,192,163957,1,0,0:0:0:0:
192,192,164107,1,0,0:0:0:0:
64,192,164107,1,0,0:0:0:0:
448,192,164107,1,0,0:0:0:0:
192,192,164330,1,0,0:0:0:0:
320,192,164330,1,0,0:0:0:0:
448,192,164330,1,0,0:0:0:0:
64,192,164405,1,0,0:0:0:0:
320,192,164405,1,0,0:0:0:0:
448,192,164554,1,0,0:0:0:0:
64,192,164554,1,0,0:0:0:0:
320,192,164554,1,0,0:0:0:0:
64,192,164704,1,0,0:0:0:0:
192,192,164704,1,0,0:0:0:0:
448,192,164704,1,0,0:0:0:0:
192,192,164927,1,0,0:0:0:0:
64,192,164927,1,0,0:0:0:0:
448,192,164927,1,0,0:0:0:0:
448,192,165002,1,0,0:0:0:0:
320,192,165002,1,0,0:0:0:0:
64,192,165151,1,0,0:0:0:0:
192,192,165151,1,0,0:0:0:0:
320,192,165151,1,0,0:0:0:0:
64,192,165301,1,0,0:0:0:0:
320,192,165301,1,0,0:0:0:0:
448,192,165301,1,0,0:0:0:0:
192,192,165450,1,0,0:0:0:0:
320,192,165450,1,0,0:0:0:0:
448,192,165450,1,0,0:0:0:0:
64,192,165599,1,0,0:0:0:0:
192,192,165599,1,0,0:0:0:0:
448,192,165599,1,0,0:0:0:0:
64,192,165748,1,0,0:0:0:0:
192,192,165748,1,0,0:0:0:0:
320,192,165748,1,0,0:0:0:0:
192,192,165898,1,0,0:0:0:0:
320,192,165898,1,0,0:0:0:0:
448,192,165898,1,0,0:0:0:0:
64,192,166047,1,0,0:0:0:0:
192,192,166047,1,0,0:0:0:0:
448,192,166047,1,0,0:0:0:0:
320,192,166196,1,0,0:0:0:0:
448,192,166196,1,0,0:0:0:0:
192,192,166271,1,0,0:0:0:0:
64,192,166271,1,0,0:0:0:0:
320,192,166345,1,0,0:0:0:0:
448,192,166345,1,0,0:0:0:0:
192,192,166420,1,0,0:0:0:0:
64,192,166420,1,0,0:0:0:0:
448,192,166495,1,0,0:0:0:0:
320,192,166495,128,0,167539:0:0:0:0:
192,192,167539,128,0,167689:0:0:0:0:
64,192,167539,1,0,0:0:0:0:
320,192,167689,128,0,167838:0:0:0:0:
448,192,167689,1,0,0:0:0:0:
448,192,167838,128,0,167987:0:0:0:0:
192,192,167838,1,0,0:0:0:0:
192,192,167987,128,0,168136:0:0:0:0:
64,192,167987,1,0,0:0:0:0:
320,192,168136,128,0,168286:0:0:0:0:
448,192,168136,1,0,0:0:0:0:
448,192,168286,128,0,168435:0:0:0:0:
192,192,168286,1,0,0:0:0:0:
192,192,168435,128,0,168584:0:0:0:0:
64,192,168435,1,0,0:0:0:0:
320,192,168584,128,0,168733:0:0:0:0:
192,192,168733,128,0,168883:0:0:0:0:
448,192,168733,1,0,0:0:0:0:
320,192,168883,1,0,0:0:0:0:
448,192,168883,1,0,0:0:0:0:
64,192,168957,1,0,0:0:0:0:
192,192,169032,1,0,0:0:0:0:
320,192,169107,1,0,0:0:0:0:
192,192,169181,1,0,0:0:0:0:
448,192,169181,1,0,0:0:0:0:
320,192,169256,1,0,0:0:0:0:
64,192,169330,1,0,0:0:0:0:
192,192,169405,1,0,0:0:0:0:
64,192,169480,1,0,0:0:0:0:
320,192,169480,1,0,0:0:0:0:
448,192,169480,1,0,0:0:0:0:
192,192,169554,1,0,0:0:0:0:
320,192,169629,1,0,0:0:0:0:
448,192,169704,1,0,0:0:0:0:
64,192,169778,1,0,0:0:0:0:
320,192,169778,1,0,0:0:0:0:
192,192,169853,1,0,0:0:0:0:
320,192,169927,1,0,0:0:0:0:
192,192,170002,1,0,0:0:0:0:
64,192,170077,1,0,0:0:0:0:
320,192,170077,1,0,0:0:0:0:
192,192,170151,1,0,0:0:0:0:
320,192,170226,1,0,0:0:0:0:
448,192,170301,1,0,0:0:0:0:
320,192,170375,1,0,0:0:0:0:
192,192,170375,1,0,0:0:0:0:
64,192,170375,1,0,0:0:0:0:
448,192,170450,1,0,0:0:0:0:
320,192,170524,1,0,0:0:0:0:
192,192,170599,1,0,0:0:0:0:
320,192,170674,1,0,0:0:0:0:
448,192,170674,1,0,0:0:0:0:
64,192,170748,1,0,0:0:0:0:
448,192,170823,1,0,0:0:0:0:
320,192,170898,1,0,0:0:0:0:
192,192,170972,1,0,0:0:0:0:
448,192,170972,1,0,0:0:0:0:
320,192,171047,1,0,0:0:0:0:
192,192,171122,1,0,0:0:0:0:
320,192,171196,1,0,0:0:0:0:
192,192,171271,1,0,0:0:0:0:
64,192,171271,1,0,0:0:0:0:
448,192,171271,1,0,0:0:0:0:
320,192,171345,1,0,0:0:0:0:
192,192,171420,1,0,0:0:0:0:
448,192,171495,1,0,0:0:0:0:
320,192,171569,1,0,0:0:0:0:
64,192,171569,1,0,0:0:0:0:
192,192,171644,1,0,0:0:0:0:
320,192,171719,1,0,0:0:0:0:
448,192,171793,1,0,0:0:0:0:
64,192,171868,1,0,0:0:0:0:
320,192,171868,1,0,0:0:0:0:
448,192,171942,1,0,0:0:0:0:
192,192,172017,1,0,0:0:0:0:
320,192,172092,1,0,0:0:0:0:
64,192,172166,1,0,0:0:0:0:
192,192,172166,1,0,0:0:0:0:
448,192,172166,1,0,0:0:0:0:
320,192,172241,1,0,0:0:0:0:
64,192,172316,1,0,0:0:0:0:
192,192,172390,1,0,0:0:0:0:
64,192,172465,1,0,0:0:0:0:
448,192,172465,1,0,0:0:0:0:
192,192,172539,1,0,0:0:0:0:
320,192,172614,1,0,0:0:0:0:
448,192,172689,1,0,0:0:0:0:
64,192,172763,1,0,0:0:0:0:
320,192,172763,1,0,0:0:0:0:
448,192,172838,1,0,0:0:0:0:
320,192,172913,1,0,0:0:0:0:
192,192,172987,1,0,0:0:0:0:
320,192,173062,1,0,0:0:0:0:
448,192,173062,1,0,0:0:0:0:
192,192,173136,1,0,0:0:0:0:
320,192,173211,1,0,0:0:0:0:
448,192,173211,1,0,0:0:0:0:
192,192,173286,1,0,0:0:0:0:
448,192,173360,1,0,0:0:0:0:
320,192,173360,1,0,0:0:0:0:
64,192,173435,1,0,0:0:0:0:
320,192,173510,1,0,0:0:0:0:
448,192,173510,1,0,0:0:0:0:
64,192,173584,1,0,0:0:0:0:
320,192,173659,1,0,0:0:0:0:
448,192,173659,1,0,0:0:0:0:
192,192,173733,1,0,0:0:0:0:
64,192,173808,1,0,0:0:0:0:
192,192,173883,1,0,0:0:0:0:
64,192,173957,1,0,0:0:0:0:
320,192,173957,1,0,0:0:0:0:
448,192,173957,1,0,0:0:0:0:
192,192,174032,1,0,0:0:0:0:
448,192,174107,1,0,0:0:0:0:
320,192,174181,1,0,0:0:0:0:
64,192,174256,1,0,0:0:0:0:
192,192,174256,1,0,0:0:0:0:
320,192,174330,1,0,0:0:0:0:
192,192,174405,1,0,0:0:0:0:
320,192,174480,1,0,0:0:0:0:
64,192,174554,1,0,0:0:0:0:
448,192,174554,1,0,0:0:0:0:
192,192,174629,1,0,0:0:0:0:
448,192,174704,1,0,0:0:0:0:
320,192,174704,1,0,0:0:0:0:
192,192,174778,1,0,0:0:0:0:
320,192,174853,1,0,0:0:0:0:
64,192,174927,1,0,0:0:0:0:
192,192,175002,1,0,0:0:0:0:
320,192,175002,1,0,0:0:0:0:
448,192,175077,1,0,0:0:0:0:
192,192,175151,1,0,0:0:0:0:
320,192,175226,1,0,0:0:0:0:
64,192,175301,1,0,0:0:0:0:
192,192,175301,1,0,0:0:0:0:
448,192,175375,1,0,0:0:0:0:
320,192,175450,1,0,0:0:0:0:
192,192,175524,1,0,0:0:0:0:
64,192,175599,1,0,0:0:0:0:
320,192,175599,1,0,0:0:0:0:
448,192,175674,1,0,0:0:0:0:
64,192,175748,1,0,0:0:0:0:
192,192,175748,1,0,0:0:0:0:
320,192,175823,1,0,0:0:0:0:
192,192,175898,1,0,0:0:0:0:
64,192,175898,1,0,0:0:0:0:
320,192,175972,1,0,0:0:0:0:
192,192,176047,1,0,0:0:0:0:
64,192,176047,1,0,0:0:0:0:
320,192,176122,1,0,0:0:0:0:
192,192,176196,1,0,0:0:0:0:
448,192,176271,1,0,0:0:0:0:
64,192,176345,1,0,0:0:0:0:
192,192,176345,1,0,0:0:0:0:
320,192,176420,1,0,0:0:0:0:
192,192,176495,1,0,0:0:0:0:
320,192,176569,1,0,0:0:0:0:
192,192,176644,1,0,0:0:0:0:
448,192,176644,1,0,0:0:0:0:
64,192,176719,1,0,0:0:0:0:
320,192,176793,1,0,0:0:0:0:
448,192,176793,1,0,0:0:0:0:
192,192,176868,1,0,0:0:0:0:
64,192,176868,1,0,0:0:0:0:
320,192,176942,1,0,0:0:0:0:
448,192,176942,1,0,0:0:0:0:
192,192,177017,1,0,0:0:0:0:
64,192,177017,1,0,0:0:0:0:
320,192,177092,1,0,0:0:0:0:
448,192,177166,1,0,0:0:0:0:
64,192,177241,1,0,0:0:0:0:
192,192,177241,1,0,0:0:0:0:
320,192,177241,1,0,0:0:0:0:
192,192,177390,1,0,0:0:0:0:
448,192,177390,1,0,0:0:0:0:
64,192,177390,1,0,0:0:0:0:
64,192,177689,1,0,0:0:0:0:
320,192,177689,1,0,0:0:0:0:
448,192,177689,1,0,0:0:0:0:
64,192,177987,1,0,0:0:0:0:
192,192,177987,1,0,0:0:0:0:
320,192,177987,1,0,0:0:0:0:
64,192,178211,1,0,0:0:0:0:
448,192,178211,1,0,0:0:0:0:
320,192,178211,128,0,178435:0:0:0:0:
448,192,178435,1,0,0:0:0:0:
192,192,178435,1,0,0:0:0:0:
64,192,178510,1,0,0:0:0:0:
192,192,178584,1,0,0:0:0:0:
320,192,178659,1,0,0:0:0:0:
192,192,178733,1,0,0:0:0:0:
64,192,178733,1,0,0:0:0:0:
448,192,178733,1,0,0:0:0:0:
320,192,178808,1,0,0:0:0:0:
192,192,178883,1,0,0:0:0:0:
448,192,178957,1,0,0:0:0:0:
320,192,179032,1,0,0:0:0:0:
64,192,179032,1,0,0:0:0:0:
192,192,179107,1,0,0:0:0:0:
320,192,179181,1,0,0:0:0:0:
448,192,179256,1,0,0:0:0:0:
320,192,179330,1,0,0:0:0:0:
64,192,179330,1,0,0:0:0:0:
192,192,179405,1,0,0:0:0:0:
320,192,179480,1,0,0:0:0:0:
448,192,179480,1,0,0:0:0:0:
192,192,179554,1,0,0:0:0:0:
320,192,179629,1,0,0:0:0:0:
448,192,179704,1,0,0:0:0:0:
192,192,179778,1,0,0:0:0:0:
320,192,179778,1,0,0:0:0:0:
64,192,179853,1,0,0:0:0:0:
192,192,179927,1,0,0:0:0:0:
320,192,180002,1,0,0:0:0:0:
64,192,180077,1,0,0:0:0:0:
192,192,180077,1,0,0:0:0:0:
448,192,180151,1,0,0:0:0:0:
64,192,180226,1,0,0:0:0:0:
320,192,180226,1,0,0:0:0:0:
192,192,180301,1,0,0:0:0:0:
320,192,180375,1,0,0:0:0:0:
448,192,180450,1,0,0:0:0:0:
320,192,180524,1,0,0:0:0:0:
64,192,180524,1,0,0:0:0:0:
192,192,180599,1,0,0:0:0:0:
448,192,180674,1,0,0:0:0:0:
320,192,180748,1,0,0:0:0:0:
448,192,180823,1,0,0:0:0:0:
192,192,180823,1,0,0:0:0:0:
64,192,180898,1,0,0:0:0:0:
320,192,180972,1,0,0:0:0:0:
192,192,181047,1,0,0:0:0:0:
320,192,181122,1,0,0:0:0:0:
448,192,181122,1,0,0:0:0:0:
192,192,181196,1,0,0:0:0:0:
64,192,181271,1,0,0:0:0:0:
320,192,181345,1,0,0:0:0:0:
64,192,181420,1,0,0:0:0:0:
192,192,181420,1,0,0:0:0:0:
448,192,181495,1,0,0:0:0:0:
64,192,181569,1,0,0:0:0:0:
192,192,181644,1,0,0:0:0:0:
64,192,181719,1,0,0:0:0:0:
320,192,181719,1,0,0:0:0:0:
448,192,181793,1,0,0:0:0:0:
320,192,181868,1,0,0:0:0:0:
192,192,181942,1,0,0:0:0:0:
320,192,182017,1,0,0:0:0:0:
64,192,182017,1,0,0:0:0:0:
448,192,182092,1,0,0:0:0:0:
192,192,182166,1,0,0:0:0:0:
320,192,182166,1,0,0:0:0:0:
448,192,182241,1,0,0:0:0:0:
192,192,182316,1,0,0:0:0:0:
320,192,182316,1,0,0:0:0:0:
448,192,182390,1,0,0:0:0:0:
192,192,182465,1,0,0:0:0:0:
320,192,182465,1,0,0:0:0:0:
448,192,182539,1,0,0:0:0:0:
192,192,182614,1,0,0:0:0:0:
320,192,182614,1,0,0:0:0:0:
64,192,182689,1,0,0:0:0:0:
192,192,182763,1,0,0:0:0:0:
320,192,182763,1,0,0:0:0:0:
64,192,182838,1,0,0:0:0:0:
192,192,182913,1,0,0:0:0:0:
320,192,182913,1,0,0:0:0:0:
64,192,182987,1,0,0:0:0:0:
320,192,183062,1,0,0:0:0:0:
448,192,183136,1,0,0:0:0:0:
64,192,183211,1,0,0:0:0:0:
192,192,183211,1,0,0:0:0:0:
320,192,183211,1,0,0:0:0:0:
448,192,183286,1,0,0:0:0:0:
320,192,183360,1,0,0:0:0:0:
64,192,183435,1,0,0:0:0:0:
192,192,183435,1,0,0:0:0:0:
448,192,183435,1,0,0:0:0:0:
320,192,183510,1,0,0:0:0:0:
192,192,183584,1,0,0:0:0:0:
64,192,183659,1,0,0:0:0:0:
320,192,183659,1,0,0:0:0:0:
448,192,183659,1,0,0:0:0:0:
192,192,183733,1,0,0:0:0:0:
64,192,183808,1,0,0:0:0:0:
192,192,183883,1,0,0:0:0:0:
320,192,183883,1,0,0:0:0:0:
448,192,183883,1,0,0:0:0:0:
64,192,183957,1,0,0:0:0:0:
192,192,184032,1,0,0:0:0:0:
64,192,184107,1,0,0:0:0:0:
320,192,184107,1,0,0:0:0:0:
448,192,184107,1,0,0:0:0:0:
192,192,184181,1,0,0:0:0:0:
320,192,184256,1,0,0:0:0:0:
64,192,184330,1,0,0:0:0:0:
192,192,184330,1,0,0:0:0:0:
320,192,184405,1,0,0:0:0:0:
448,192,184405,1,0,0:0:0:0:
192,192,184480,1,0,0:0:0:0:
320,192,184554,1,0,0:0:0:0:
192,192,184629,1,0,0:0:0:0:
64,192,184629,1,0,0:0:0:0:
448,192,184629,1,0,0:0:0:0:
320,192,184704,1,0,0:0:0:0:
192,192,184778,1,0,0:0:0:0:
448,192,184853,1,0,0:0:0:0:
320,192,184853,1,0,0:0:0:0:
64,192,184853,1,0,0:0:0:0:
192,192,184927,1,0,0:0:0:0:
64,192,185002,1,0,0:0:0:0:
448,192,185077,1,0,0:0:0:0:
320,192,185077,1,0,0:0:0:0:
192,192,185077,1,0,0:0:0:0:
64,192,185151,1,0,0:0:0:0:
320,192,185226,1,0,0:0:0:0:
448,192,185226,1,0,0:0:0:0:
192,192,185301,1,0,0:0:0:0:
64,192,185301,1,0,0:0:0:0:
320,192,185375,1,0,0:0:0:0:
448,192,185375,1,0,0:0:0:0:
192,192,185524,1,0,0:0:0:0:
64,192,185524,1,0,0:0:0:0:
320,192,185599,1,0,0:0:0:0:
448,192,185599,1,0,0:0:0:0:
192,192,185674,1,0,0:0:0:0:
64,192,185748,1,0,0:0:0:0:
192,192,185823,1,0,0:0:0:0:
448,192,185823,1,0,0:0:0:0:
320,192,185823,1,0,0:0:0:0:
64,192,185898,1,0,0:0:0:0:
192,192,185972,1,0,0:0:0:0:
64,192,186047,1,0,0:0:0:0:
320,192,186047,1,0,0:0:0:0:
448,192,186047,1,0,0:0:0:0:
192,192,186122,1,0,0:0:0:0:
64,192,186196,1,0,0:0:0:0:
320,192,186196,1,0,0:0:0:0:
448,192,186196,1,0,0:0:0:0:
192,192,186271,1,0,0:0:0:0:
320,192,186345,1,0,0:0:0:0:
64,192,186420,1,0,0:0:0:0:
192,192,186420,1,0,0:0:0:0:
448,192,186420,1,0,0:0:0:0:
320,192,186495,1,0,0:0:0:0:
192,192,186569,1,0,0:0:0:0:
64,192,186569,1,0,0:0:0:0:
320,192,186644,1,0,0:0:0:0:
448,192,186644,1,0,0:0:0:0:
192,192,186719,1,0,0:0:0:0:
320,192,186793,1,0,0:0:0:0:
448,192,186793,1,0,0:0:0:0:
64,192,186793,128,0,187092:0:0:0:0:
192,192,187092,128,0,187241:0:0:0:0:
320,192,187092,1,0,0:0:0:0:
320,192,187241,128,0,187316:0:0:0:0:
64,192,187241,1,0,0:0:0:0:
448,192,187316,128,0,187390:0:0:0:0:
320,192,187390,128,0,187465:0:0:0:0:
192,192,187465,128,0,187689:0:0:0:0:
64,192,187465,1,0,0:0:0:0:
320,192,187689,128,0,187838:0:0:0:0:
64,192,187689,1,0,0:0:0:0:
448,192,187838,128,0,187987:0:0:0:0:
192,192,187838,1,0,0:0:0:0:
64,192,187987,128,0,189181:0:0:0:0:
320,192,187987,1,0,0:0:0:0:
192,192,188136,128,0,188435:0:0:0:0:
320,192,188733,128,0,189032:0:0:0:0:
192,192,189181,128,0,189927:0:0:0:0:
448,192,189181,128,0,189330:0:0:0:0:
320,192,189330,128,0,189480:0:0:0:0:
448,192,189480,128,0,189629:0:0:0:0:
320,192,189629,128,0,189778:0:0:0:0:
64,192,189778,128,0,189927:0:0:0:0:
448,192,189927,1,0,0:0:0:0:
320,192,190002,1,0,0:0:0:0:
192,192,190077,1,0,0:0:0:0:
64,192,190226,1,0,0:0:0:0:
320,192,190226,1,0,0:0:0:0:
192,192,190375,1,0,0:0:0:0:
320,192,190375,1,0,0:0:0:0:
448,192,190375,1,0,0:0:0:0:
64,192,190450,1,0,0:0:0:0:
192,192,190524,1,0,0:0:0:0:
448,192,190599,1,0,0:0:0:0:
64,192,190674,1,0,0:0:0:0:
320,192,190674,1,0,0:0:0:0:
192,192,190748,1,0,0:0:0:0:
448,192,190823,1,0,0:0:0:0:
320,192,190898,1,0,0:0:0:0:
64,192,190972,1,0,0:0:0:0:
192,192,190972,1,0,0:0:0:0:
320,192,191047,1,0,0:0:0:0:
192,192,191122,1,0,0:0:0:0:
448,192,191196,1,0,0:0:0:0:
320,192,191271,1,0,0:0:0:0:
192,192,191271,1,0,0:0:0:0:
64,192,191345,1,0,0:0:0:0:
192,192,191420,1,0,0:0:0:0:
320,192,191495,1,0,0:0:0:0:
192,192,191569,1,0,0:0:0:0:
448,192,191569,1,0,0:0:0:0:
64,192,191569,1,0,0:0:0:0:
320,192,191644,1,0,0:0:0:0:
192,192,191719,1,0,0:0:0:0:
64,192,191793,1,0,0:0:0:0:
192,192,191868,1,0,0:0:0:0:
320,192,191868,1,0,0:0:0:0:
64,192,191942,1,0,0:0:0:0:
320,192,192017,1,0,0:0:0:0:
448,192,192017,1,0,0:0:0:0:
192,192,192092,1,0,0:0:0:0:
64,192,192092,1,0,0:0:0:0:
320,192,192166,1,0,0:0:0:0:
448,192,192166,1,0,0:0:0:0:
64,192,192241,1,0,0:0:0:0:
192,192,192316,1,0,0:0:0:0:
448,192,192390,1,0,0:0:0:0:
320,192,192390,1,0,0:0:0:0:
192,192,192465,1,0,0:0:0:0:
64,192,192539,1,0,0:0:0:0:
192,192,192614,1,0,0:0:0:0:
320,192,192614,1,0,0:0:0:0:
448,192,192689,1,0,0:0:0:0:
192,192,192763,1,0,0:0:0:0:
320,192,192763,1,0,0:0:0:0:
64,192,192763,128,0,193808:0:0:0:0:
320,192,192913,128,0,193062:0:0:0:0:
192,192,193062,128,0,193360:0:0:0:0:
320,192,193360,128,0,193510:0:0:0:0:
448,192,193510,128,0,193659:0:0:0:0:
192,192,193659,128,0,193808:0:0:0:0:
320,192,193808,1,0,0:0:0:0:
448,192,193808,1,0,0:0:0:0:
192,192,193883,1,0,0:0:0:0:
64,192,193883,1,0,0:0:0:0:
320,192,193957,1,0,0:0:0:0:
448,192,193957,1,0,0:0:0:0:
320,192,194107,1,0,0:0:0:0:
448,192,194107,1,0,0:0:0:0:
192,192,194256,1,0,0:0:0:0:
64,192,194256,1,0,0:0:0:0:
320,192,194330,1,0,0:0:0:0:
448,192,194330,1,0,0:0:0:0:
192,192,194405,1,0,0:0:0:0:
64,192,194405,1,0,0:0:0:0:
192,192,194554,1,0,0:0:0:0:
320,192,194554,1,0,0:0:0:0:
448,192,194554,1,0,0:0:0:0:
320,192,194704,1,0,0:0:0:0:
448,192,194704,1,0,0:0:0:0:
320,192,194778,1,0,0:0:0:0:
448,192,194778,1,0,0:0:0:0:
320,192,194853,1,0,0:0:0:0:
448,192,194853,1,0,0:0:0:0:
192,192,194927,1,0,0:0:0:0:
64,192,194927,1,0,0:0:0:0:
64,192,195002,1,0,0:0:0:0:
192,192,195002,1,0,0:0:0:0:
192,192,195077,1,0,0:0:0:0:
64,192,195077,1,0,0:0:0:0:
320,192,195151,1,0,0:0:0:0:
448,192,195151,1,0,0:0:0:0:
192,192,195226,1,0,0:0:0:0:
64,192,195301,1,0,0:0:0:0:
320,192,195375,1,0,0:0:0:0:
192,192,195450,1,0,0:0:0:0:
448,192,195450,1,0,0:0:0:0:
320,192,195524,1,0,0:0:0:0:
192,192,195599,1,0,0:0:0:0:
64,192,195674,1,0,0:0:0:0:
192,192,195748,1,0,0:0:0:0:
320,192,195748,1,0,0:0:0:0:
64,192,195823,1,0,0:0:0:0:
192,192,195898,1,0,0:0:0:0:
64,192,195972,1,0,0:0:0:0:
192,192,196047,1,0,0:0:0:0:
448,192,196047,1,0,0:0:0:0:
320,192,196122,1,0,0:0:0:0:
192,192,196196,1,0,0:0:0:0:
64,192,196271,1,0,0:0:0:0:
320,192,196345,1,0,0:0:0:0:
448,192,196345,1,0,0:0:0:0:
192,192,196345,1,0,0:0:0:0:
64,192,196569,1,0,0:0:0:0:
192,192,196569,1,0,0:0:0:0:
448,192,196569,1,0,0:0:0:0:
64,192,196793,1,0,0:0:0:0:
320,192,196793,1,0,0:0:0:0:
192,192,196793,1,0,0:0:0:0:
448,192,196942,1,0,0:0:0:0:
320,192,196942,1,0,0:0:0:0:
64,192,196942,1,0,0:0:0:0:
192,192,197017,1,0,0:0:0:0:
64,192,197092,1,0,0:0:0:0:
320,192,197166,1,0,0:0:0:0:
192,192,197241,128,0,197539:0:0:0:0:
64,192,197241,1,0,0:0:0:0:
320,192,197539,1,0,0:0:0:0:
448,192,197539,1,0,0:0:0:0:
64,192,197614,1,0,0:0:0:0:
192,192,197689,1,0,0:0:0:0:
320,192,197763,1,0,0:0:0:0:
192,192,197838,1,0,0:0:0:0:
64,192,197838,1,0,0:0:0:0:
448,192,197838,1,0,0:0:0:0:
320,192,197913,1,0,0:0:0:0:
192,192,197987,1,0,0:0:0:0:
448,192,198062,1,0,0:0:0:0:
320,192,198136,1,0,0:0:0:0:
64,192,198136,1,0,0:0:0:0:
192,192,198211,1,0,0:0:0:0:
320,192,198286,1,0,0:0:0:0:
64,192,198360,1,0,0:0:0:0:
192,192,198435,1,0,0:0:0:0:
320,192,198435,1,0,0:0:0:0:
448,192,198510,1,0,0:0:0:0:
320,192,198584,1,0,0:0:0:0:
192,192,198659,1,0,0:0:0:0:
320,192,198733,1,0,0:0:0:0:
448,192,198733,1,0,0:0:0:0:
64,192,198733,1,0,0:0:0:0:
192,192,198808,1,0,0:0:0:0:
320,192,198883,1,0,0:0:0:0:
192,192,198957,1,0,0:0:0:0:
64,192,199032,1,0,0:0:0:0:
320,192,199032,1,0,0:0:0:0:
448,192,199107,1,0,0:0:0:0:
320,192,199181,1,0,0:0:0:0:
192,192,199256,1,0,0:0:0:0:
448,192,199330,1,0,0:0:0:0:
320,192,199330,1,0,0:0:0:0:
192,192,199405,1,0,0:0:0:0:
64,192,199480,1,0,0:0:0:0:
192,192,199554,1,0,0:0:0:0:
320,192,199629,1,0,0:0:0:0:
448,192,199629,1,0,0:0:0:0:
192,192,199704,1,0,0:0:0:0:
320,192,199778,1,0,0:0:0:0:
448,192,199778,1,0,0:0:0:0:
192,192,199853,1,0,0:0:0:0:
320,192,199927,1,0,0:0:0:0:
64,192,199927,1,0,0:0:0:0:
192,192,200002,1,0,0:0:0:0:
320,192,200077,1,0,0:0:0:0:
448,192,200151,1,0,0:0:0:0:
320,192,200226,1,0,0:0:0:0:
64,192,200226,1,0,0:0:0:0:
192,192,200301,1,0,0:0:0:0:
320,192,200375,1,0,0:0:0:0:
64,192,200450,1,0,0:0:0:0:
192,192,200524,1,0,0:0:0:0:
448,192,200524,1,0,0:0:0:0:
320,192,200599,1,0,0:0:0:0:
192,192,200674,1,0,0:0:0:0:
64,192,200748,1,0,0:0:0:0:
320,192,200823,1,0,0:0:0:0:
448,192,200823,1,0,0:0:0:0:
192,192,200898,1,0,0:0:0:0:
64,192,200898,1,0,0:0:0:0:
320,192,200972,1,0,0:0:0:0:
448,192,200972,1,0,0:0:0:0:
192,192,201047,1,0,0:0:0:0:
64,192,201047,1,0,0:0:0:0:
320,192,201122,1,0,0:0:0:0:
448,192,201122,1,0,0:0:0:0:
64,192,201271,1,0,0:0:0:0:
192,192,201271,1,0,0:0:0:0:
320,192,201271,1,0,0:0:0:0:
448,192,201345,1,0,0:0:0:0:
64,192,201420,1,0,0:0:0:0:
192,192,201420,1,0,0:0:0:0:
320,192,201495,1,0,0:0:0:0:
192,192,201569,1,0,0:0:0:0:
448,192,201569,1,0,0:0:0:0:
320,192,201719,128,0,202017:0:0:0:0:
192,192,201719,1,0,0:0:0:0:
64,192,201719,1,0,0:0:0:0:
448,192,202017,128,0,202316:0:0:0:0:
192,192,202017,1,0,0:0:0:0:
64,192,202017,1,0,0:0:0:0:
320,192,202316,1,0,0:0:0:0:
192,192,202316,1,0,0:0:0:0:
64,192,202390,1,0,0:0:0:0:
320,192,202465,1,0,0:0:0:0:
448,192,202465,1,0,0:0:0:0:
192,192,202539,1,0,0:0:0:0:
64,192,202539,1,0,0:0:0:0:
64,192,202689,1,0,0:0:0:0:
320,192,202689,1,0,0:0:0:0:
192,192,202763,1,0,0:0:0:0:
448,192,202763,1,0,0:0:0:0:
64,192,202913,1,0,0:0:0:0:
192,192,202913,1,0,0:0:0:0:
320,192,202913,1,0,0:0:0:0:
192,192,203062,1,0,0:0:0:0:
320,192,203062,1,0,0:0:0:0:
448,192,203062,1,0,0:0:0:0:
64,192,203211,128,0,203510:0:0:0:0:
192,192,203211,1,0,0:0:0:0:
320,192,203211,1,0,0:0:0:0:
192,192,203510,1,0,0:0:0:0:
448,192,203510,1,0,0:0:0:0:
320,192,203659,1,0,0:0:0:0:
448,192,203659,1,0,0:0:0:0:
192,192,203733,1,0,0:0:0:0:
64,192,203733,1,0,0:0:0:0:
64,192,203883,1,0,0:0:0:0:
448,192,203883,1,0,0:0:0:0:
320,192,203957,1,0,0:0:0:0:
192,192,203957,1,0,0:0:0:0:
192,192,204107,1,0,0:0:0:0:
320,192,204107,1,0,0:0:0:0:
448,192,204181,1,0,0:0:0:0:
64,192,204181,1,0,0:0:0:0:
192,192,204256,1,0,0:0:0:0:
320,192,204256,1,0,0:0:0:0:
192,192,204405,1,0,0:0:0:0:
448,192,204405,1,0,0:0:0:0:
320,192,204405,128,0,204554:0:0:0:0:
192,192,204554,128,0,204704:0:0:0:0:
320,192,204704,1,0,0:0:0:0:
448,192,204704,1,0,0:0:0:0:
64,192,204853,1,0,0:0:0:0:
320,192,204853,1,0,0:0:0:0:
192,192,204927,1,0,0:0:0:0:
448,192,204927,1,0,0:0:0:0:
64,192,205077,1,0,0:0:0:0:
320,192,205077,1,0,0:0:0:0:
192,192,205151,1,0,0:0:0:0:
448,192,205151,1,0,0:0:0:0:
64,192,205301,1,0,0:0:0:0:
192,192,205301,1,0,0:0:0:0:
448,192,205301,1,0,0:0:0:0:
320,192,205450,1,0,0:0:0:0:
448,192,205450,1,0,0:0:0:0:
192,192,205524,1,0,0:0:0:0:
64,192,205524,1,0,0:0:0:0:
192,192,205674,1,0,0:0:0:0:
320,192,205674,1,0,0:0:0:0:
64,192,205748,1,0,0:0:0:0:
448,192,205748,1,0,0:0:0:0:
192,192,205898,1,0,0:0:0:0:
320,192,205898,1,0,0:0:0:0:
64,192,205898,128,0,206122:0:0:0:0:
320,192,206122,128,0,206345:0:0:0:0:
192,192,206345,128,0,206420:0:0:0:0:
64,192,206420,128,0,206495:0:0:0:0:
320,192,206495,128,0,206719:0:0:0:0:
192,192,206719,128,0,206868:0:0:0:0:
64,192,206868,128,0,207092:0:0:0:0:
320,192,207092,1,0,0:0:0:0:
448,192,207092,1,0,0:0:0:0:
192,192,207092,128,0,207390:0:0:0:0:
320,192,207390,128,0,207539:0:0:0:0:
192,192,207539,128,0,207689:0:0:0:0:
448,192,207539,1,0,0:0:0:0:
64,192,207689,128,0,207838:0:0:0:0:
320,192,207689,1,0,0:0:0:0:
320,192,207838,128,0,207987:0:0:0:0:
192,192,207838,1,0,0:0:0:0:
192,192,207987,128,0,208136:0:0:0:0:
448,192,208136,128,0,208286:0:0:0:0:
64,192,208136,1,0,0:0:0:0:
320,192,208286,1,0,0:0:0:0:
192,192,208286,1,0,0:0:0:0:
320,192,208435,1,0,0:0:0:0:
448,192,208435,1,0,0:0:0:0:
64,192,208435,1,0,0:0:0:0:
192,192,208584,1,0,0:0:0:0:
320,192,208584,1,0,0:0:0:0:
448,192,208584,1,0,0:0:0:0:
64,192,208733,1,0,0:0:0:0:
192,192,208733,1,0,0:0:0:0:
448,192,208733,1,0,0:0:0:0:
64,192,208883,1,0,0:0:0:0:
192,192,208883,1,0,0:0:0:0:
320,192,208883,1,0,0:0:0:0:
64,192,209032,1,0,0:0:0:0:
192,192,209032,1,0,0:0:0:0:
448,192,209032,1,0,0:0:0:0:
192,192,209181,1,0,0:0:0:0:
320,192,209181,1,0,0:0:0:0:
448,192,209181,1,0,0:0:0:0:
320,192,209330,1,0,0:0:0:0:
448,192,209330,1,0,0:0:0:0:
192,192,209405,1,0,0:0:0:0:
64,192,209405,1,0,0:0:0:0:
448,192,209480,1,0,0:0:0:0:
320,192,209480,128,0,209629:0:0:0:0:
192,192,209629,128,0,209778:0:0:0:0:
64,192,209629,1,0,0:0:0:0:
64,192,209778,128,0,209927:0:0:0:0:
320,192,209778,1,0,0:0:0:0:
320,192,209927,128,0,210077:0:0:0:0:
192,192,209927,1,0,0:0:0:0:
192,192,210077,128,0,210226:0:0:0:0:
64,192,210077,1,0,0:0:0:0:
320,192,210226,128,0,210375:0:0:0:0:
448,192,210226,1,0,0:0:0:0:
64,192,210375,128,0,210524:0:0:0:0:
192,192,210375,1,0,0:0:0:0:
192,192,210524,128,0,210674:0:0:0:0:
320,192,210524,1,0,0:0:0:0:
320,192,210674,1,0,0:0:0:0:
448,192,210674,1,0,0:0:0:0:
320,192,210823,1,0,0:0:0:0:
448,192,210823,1,0,0:0:0:0:
64,192,210823,1,0,0:0:0:0:
192,192,210972,1,0,0:0:0:0:
320,192,210972,1,0,0:0:0:0:
448,192,210972,1,0,0:0:0:0:
64,192,211122,1,0,0:0:0:0:
320,192,211122,1,0,0:0:0:0:
192,192,211196,1,0,0:0:0:0:
448,192,211196,1,0,0:0:0:0:
320,192,211271,1,0,0:0:0:0:
64,192,211271,1,0,0:0:0:0:
64,192,211420,1,0,0:0:0:0:
192,192,211420,1,0,0:0:0:0:
320,192,211420,1,0,0:0:0:0:
64,192,211569,1,0,0:0:0:0:
192,192,211569,1,0,0:0:0:0:
320,192,211644,1,0,0:0:0:0:
448,192,211644,1,0,0:0:0:0:
192,192,211719,1,0,0:0:0:0:
64,192,211719,1,0,0:0:0:0:
320,192,211793,1,0,0:0:0:0:
448,192,211793,1,0,0:0:0:0:
192,192,211868,1,0,0:0:0:0:
320,192,211868,1,0,0:0:0:0:
64,192,211868,128,0,212316:0:0:0:0:
192,192,212017,1,0,0:0:0:0:
320,192,212166,1,0,0:0:0:0:
192,192,212316,128,0,212465:0:0:0:0:
448,192,212316,1,0,0:0:0:0:
320,192,212465,1,0,0:0:0:0:
448,192,212465,1,0,0:0:0:0:
64,192,212614,1,0,0:0:0:0:
192,192,212614,1,0,0:0:0:0:
320,192,212614,1,0,0:0:0:0:
192,192,212763,1,0,0:0:0:0:
320,192,212763,1,0,0:0:0:0:
448,192,212763,1,0,0:0:0:0:
64,192,212913,1,0,0:0:0:0:
192,192,212913,1,0,0:0:0:0:
320,192,212913,1,0,0:0:0:0:
64,192,213062,128,0,213510:0:0:0:0:
192,192,213062,1,0,0:0:0:0:
320,192,213062,1,0,0:0:0:0:
192,192,213211,1,0,0:0:0:0:
320,192,213360,1,0,0:0:0:0:
448,192,213510,1,0,0:0:0:0:
64,192,213659,1,0,0:0:0:0:
192,192,213709,1,0,0:0:0:0:
320,192,213758,1,0,0:0:0:0:
448,192,213808,1,0,0:0:0:0:
64,192,213957,1,0,0:0:0:0:
192,192,213957,1,0,0:0:0:0:
320,192,213957,1,0,0:0:0:0:
64,192,214107,1,0,0:0:0:0:
192,192,214156,1,0,0:0:0:0:
320,192,214206,1,0,0:0:0:0:
448,192,214256,1,0,0:0:0:0:
64,192,214405,1,0,0:0:0:0:
192,192,214405,1,0,0:0:0:0:
448,192,214405,1,0,0:0:0:0:
64,192,214554,1,0,0:0:0:0:
192,192,214554,1,0,0:0:0:0:
320,192,214554,1,0,0:0:0:0:
64,192,214704,1,0,0:0:0:0:
192,192,214704,1,0,0:0:0:0:
320,192,214704,1,0,0:0:0:0:
64,192,214853,1,0,0:0:0:0:
192,192,214853,1,0,0:0:0:0:
320,192,214853,1,0,0:0:0:0:
64,192,215002,1,0,0:0:0:0:
192,192,215002,1,0,0:0:0:0:
320,192,215002,1,0,0:0:0:0:
64,192,215151,1,0,0:0:0:0:
192,192,215151,1,0,0:0:0:0:
320,192,215151,1,0,0:0:0:0:
64,192,215301,1,0,0:0:0:0:
192,192,215301,1,0,0:0:0:0:
320,192,215301,1,0,0:0:0:0:
320,192,215450,1,0,0:0:0:0:
64,192,215450,128,0,215748:0:0:0:0:
192,192,215748,128,0,216047:0:0:0:0:
320,192,215898,1,0,0:0:0:0:
64,192,216047,128,0,216345:0:0:0:0:
192,192,216345,1,0,0:0:0:0:
320,192,216345,128,0,216644:0:0:0:0:
192,192,216644,1,0,0:0:0:0:
64,192,216644,1,0,0:0:0:0:
448,192,216719,1,0,0:0:0:0:
64,192,216793,1,0,0:0:0:0:
192,192,216793,1,0,0:0:0:0:
320,192,216868,1,0,0:0:0:0:
448,192,216942,1,0,0:0:0:0:
192,192,216942,1,0,0:0:0:0:
320,192,217017,1,0,0:0:0:0:
64,192,217092,1,0,0:0:0:0:
192,192,217092,1,0,0:0:0:0:
320,192,217166,1,0,0:0:0:0:
448,192,217241,1,0,0:0:0:0:
64,192,217241,1,0,0:0:0:0:
320,192,217316,1,0,0:0:0:0:
192,192,217390,1,0,0:0:0:0:
64,192,217390,1,0,0:0:0:0:
448,192,217465,1,0,0:0:0:0:
320,192,217539,1,0,0:0:0:0:
192,192,217539,1,0,0:0:0:0:
64,192,217614,1,0,0:0:0:0:
320,192,217689,1,0,0:0:0:0:
448,192,217689,1,0,0:0:0:0:
192,192,217763,1,0,0:0:0:0:
64,192,217763,1,0,0:0:0:0:
320,192,217838,1,0,0:0:0:0:
448,192,217838,1,0,0:0:0:0:
192,192,217913,1,0,0:0:0:0:
64,192,217987,1,0,0:0:0:0:
320,192,217987,1,0,0:0:0:0:
192,192,218062,1,0,0:0:0:0:
320,192,218136,1,0,0:0:0:0:
448,192,218136,1,0,0:0:0:0:
192,192,218211,1,0,0:0:0:0:
64,192,218286,1,0,0:0:0:0:
320,192,218286,1,0,0:0:0:0:
192,192,218360,1,0,0:0:0:0:
320,192,218435,1,0,0:0:0:0:
448,192,218435,1,0,0:0:0:0:
192,192,218510,1,0,0:0:0:0:
64,192,218510,1,0,0:0:0:0:
320,192,218584,1,0,0:0:0:0:
448,192,218584,1,0,0:0:0:0:
192,192,218659,1,0,0:0:0:0:
64,192,218659,1,0,0:0:0:0:
320,192,218733,128,0,219032:0:0:0:0:
448,192,218733,1,0,0:0:0:0:
192,192,219032,1,0,0:0:0:0:
64,192,219032,1,0,0:0:0:0:
448,192,219107,1,0,0:0:0:0:
192,192,219181,1,0,0:0:0:0:
320,192,219181,1,0,0:0:0:0:
64,192,219256,1,0,0:0:0:0:
192,192,219330,1,0,0:0:0:0:
448,192,219330,1,0,0:0:0:0:
320,192,219405,1,0,0:0:0:0:
192,192,219480,1,0,0:0:0:0:
64,192,219480,1,0,0:0:0:0:
320,192,219554,1,0,0:0:0:0:
448,192,219554,1,0,0:0:0:0:
192,192,219629,1,0,0:0:0:0:
64,192,219629,1,0,0:0:0:0:
320,192,219704,1,0,0:0:0:0:
192,192,219778,1,0,0:0:0:0:
448,192,219778,1,0,0:0:0:0:
64,192,219853,1,0,0:0:0:0:
320,192,219927,1,0,0:0:0:0:
448,192,219927,1,0,0:0:0:0:
64,192,220002,1,0,0:0:0:0:
320,192,220077,1,0,0:0:0:0:
448,192,220077,1,0,0:0:0:0:
192,192,220151,1,0,0:0:0:0:
64,192,220151,1,0,0:0:0:0:
448,192,220226,1,0,0:0:0:0:
320,192,220226,1,0,0:0:0:0:
192,192,220301,1,0,0:0:0:0:
64,192,220375,1,0,0:0:0:0:
192,192,220425,1,0,0:0:0:0:
320,192,220475,1,0,0:0:0:0:
448,192,220524,1,0,0:0:0:0:
448,192,220674,1,0,0:0:0:0:
320,192,220724,1,0,0:0:0:0:
192,192,220773,1,0,0:0:0:0:
64,192,220823,1,0,0:0:0:0:
64,192,220972,128,0,221420:0:0:0:0:
192,192,220972,1,0,0:0:0:0:
192,192,221122,128,0,221420:0:0:0:0:
320,192,221122,1,0,0:0:0:0:
320,192,221420,1,0,0:0:0:0:
448,192,221420,1,0,0:0:0:0:
192,192,221495,1,0,0:0:0:0:
64,192,221495,1,0,0:0:0:0:
448,192,221569,1,0,0:0:0:0:
320,192,221569,1,0,0:0:0:0:
64,192,221644,1,0,0:0:0:0:
192,192,221644,1,0,0:0:0:0:
320,192,221719,1,0,0:0:0:0:
448,192,221719,1,0,0:0:0:0:
192,192,221793,1,0,0:0:0:0:
320,192,221868,1,0,0:0:0:0:
64,192,221868,1,0,0:0:0:0:
448,192,221942,1,0,0:0:0:0:
320,192,222017,1,0,0:0:0:0:
192,192,222017,1,0,0:0:0:0:
64,192,222092,1,0,0:0:0:0:
448,192,222166,1,0,0:0:0:0:
320,192,222166,1,0,0:0:0:0:
64,192,222241,1,0,0:0:0:0:
192,192,222316,1,0,0:0:0:0:
320,192,222316,1,0,0:0:0:0:
448,192,222390,1,0,0:0:0:0:
64,192,222465,1,0,0:0:0:0:
192,192,222465,1,0,0:0:0:0:
448,192,222539,1,0,0:0:0:0:
320,192,222539,1,0,0:0:0:0:
64,192,222614,1,0,0:0:0:0:
192,192,222614,1,0,0:0:0:0:
320,192,222689,1,0,0:0:0:0:
192,192,222763,1,0,0:0:0:0:
448,192,222763,1,0,0:0:0:0:
320,192,222838,1,0,0:0:0:0:
192,192,222913,1,0,0:0:0:0:
64,192,222913,1,0,0:0:0:0:
448,192,222987,1,0,0:0:0:0:
320,192,223062,1,0,0:0:0:0:
192,192,223062,1,0,0:0:0:0:
448,192,223136,1,0,0:0:0:0:
320,192,223211,1,0,0:0:0:0:
64,192,223211,1,0,0:0:0:0:
192,192,223286,1,0,0:0:0:0:
448,192,223286,1,0,0:0:0:0:
320,192,223360,1,0,0:0:0:0:
64,192,223360,1,0,0:0:0:0:
192,192,223435,1,0,0:0:0:0:
448,192,223435,1,0,0:0:0:0:
320,192,223510,128,0,223808:0:0:0:0:
64,192,223510,1,0,0:0:0:0:
192,192,223510,128,0,223808:0:0:0:0:
448,192,223808,1,0,0:0:0:0:
64,192,223883,1,0,0:0:0:0:
320,192,223957,1,0,0:0:0:0:
448,192,223957,1,0,0:0:0:0:
192,192,224032,1,0,0:0:0:0:
64,192,224032,1,0,0:0:0:0:
320,192,224181,1,0,0:0:0:0:
448,192,224181,1,0,0:0:0:0:
192,192,224256,1,0,0:0:0:0:
64,192,224256,1,0,0:0:0:0:
320,192,224330,1,0,0:0:0:0:
448,192,224330,1,0,0:0:0:0:
192,192,224405,1,0,0:0:0:0:
64,192,224405,1,0,0:0:0:0:
192,192,224554,1,0,0:0:0:0:
320,192,224554,1,0,0:0:0:0:
64,192,224629,1,0,0:0:0:0:
448,192,224629,1,0,0:0:0:0:
64,192,224778,1,0,0:0:0:0:
320,192,224778,1,0,0:0:0:0:
192,192,224853,1,0,0:0:0:0:
448,192,224853,1,0,0:0:0:0:
320,192,224927,1,0,0:0:0:0:
64,192,224927,1,0,0:0:0:0:
320,192,225151,128,0,225450:0:0:0:0:
192,192,225151,1,0,0:0:0:0:
448,192,225151,128,0,226196:0:0:0:0:
192,192,225450,128,0,225748:0:0:0:0:
64,192,225450,1,0,0:0:0:0:
320,192,225748,1,0,0:0:0:0:
64,192,225748,128,0,226047:0:0:0:0:
192,192,225898,128,0,226047:0:0:0:0:
320,192,225898,1,0,0:0:0:0:
64,192,226196,1,0,0:0:0:0:
192,192,226246,1,0,0:0:0:0:
320,192,226296,1,0,0:0:0:0:
448,192,226345,1,0,0:0:0:0:
64,192,226420,1,0,0:0:0:0:
192,192,226420,1,0,0:0:0:0:
320,192,226495,1,0,0:0:0:0:
448,192,226495,1,0,0:0:0:0:
64,192,226569,1,0,0:0:0:0:
192,192,226569,1,0,0:0:0:0:
64,192,226719,1,0,0:0:0:0:
192,192,226719,1,0,0:0:0:0:
448,192,226793,1,0,0:0:0:0:
320,192,226843,1,0,0:0:0:0:
192,192,226893,1,0,0:0:0:0:
64,192,226942,1,0,0:0:0:0:
448,192,227017,1,0,0:0:0:0:
320,192,227017,1,0,0:0:0:0:
192,192,227092,1,0,0:0:0:0:
64,192,227092,1,0,0:0:0:0:
320,192,227166,1,0,0:0:0:0:
448,192,227166,1,0,0:0:0:0:
320,192,227316,1,0,0:0:0:0:
448,192,227316,1,0,0:0:0:0:
64,192,227390,1,0,0:0:0:0:
192,192,227440,1,0,0:0:0:0:
320,192,227490,1,0,0:0:0:0:
448,192,227539,1,0,0:0:0:0:
320,192,227614,1,0,0:0:0:0:
192,192,227689,1,0,0:0:0:0:
448,192,227689,1,0,0:0:0:0:
64,192,227763,1,0,0:0:0:0:
448,192,227838,1,0,0:0:0:0:
320,192,227888,1,0,0:0:0:0:
192,192,227937,1,0,0:0:0:0:
64,192,227987,1,0,0:0:0:0:
192,192,228037,1,0,0:0:0:0:
320,192,228087,1,0,0:0:0:0:
448,192,228136,1,0,0:0:0:0:
64,192,228186,1,0,0:0:0:0:
192,192,228236,1,0,0:0:0:0:
320,192,228286,128,0,228584:0:0:0:0:
64,192,228584,1,0,0:0:0:0:
192,192,228634,1,0,0:0:0:0:
320,192,228684,1,0,0:0:0:0:
448,192,228733,1,0,0:0:0:0:
64,192,228808,1,0,0:0:0:0:
192,192,228883,1,0,0:0:0:0:
64,192,228957,1,0,0:0:0:0:
320,192,228957,1,0,0:0:0:0:
448,192,229032,1,0,0:0:0:0:
64,192,229107,1,0,0:0:0:0:
320,192,229107,1,0,0:0:0:0:
448,192,229181,1,0,0:0:0:0:
320,192,229231,1,0,0:0:0:0:
192,192,229281,1,0,0:0:0:0:
64,192,229330,1,0,0:0:0:0:
448,192,229405,1,0,0:0:0:0:
320,192,229480,1,0,0:0:0:0:
64,192,229480,1,0,0:0:0:0:
192,192,229554,1,0,0:0:0:0:
448,192,229554,1,0,0:0:0:0:
320,192,229704,1,0,0:0:0:0:
448,192,229704,1,0,0:0:0:0:
64,192,229778,1,0,0:0:0:0:
192,192,229828,1,0,0:0:0:0:
320,192,229878,1,0,0:0:0:0:
448,192,229927,1,0,0:0:0:0:
320,192,229977,1,0,0:0:0:0:
192,192,230027,1,0,0:0:0:0:
64,192,230077,1,0,0:0:0:0:
192,192,230151,1,0,0:0:0:0:
448,192,230151,1,0,0:0:0:0:
64,192,230226,1,0,0:0:0:0:
192,192,230276,1,0,0:0:0:0:
320,192,230325,1,0,0:0:0:0:
192,192,230375,1,0,0:0:0:0:
64,192,230375,1,0,0:0:0:0:
320,192,230450,1,0,0:0:0:0:
448,192,230450,1,0,0:0:0:0:
192,192,230524,1,0,0:0:0:0:
64,192,230524,1,0,0:0:0:0:
448,192,230599,1,0,0:0:0:0:
320,192,230599,1,0,0:0:0:0:
64,192,230674,128,0,230972:0:0:0:0:
192,192,230674,128,0,230972:0:0:0:0:
448,192,230972,1,0,0:0:0:0:
320,192,231022,1,0,0:0:0:0:
192,192,231072,1,0,0:0:0:0:
64,192,231122,1,0,0:0:0:0:
448,192,231221,1,0,0:0:0:0:
320,192,231271,1,0,0:0:0:0:
192,192,231321,1,0,0:0:0:0:
64,192,231370,1,0,0:0:0:0:
64,192,231569,1,0,0:0:0:0:
192,192,231619,1,0,0:0:0:0:
320,192,231669,1,0,0:0:0:0:
448,192,231719,1,0,0:0:0:0:
64,192,231768,1,0,0:0:0:0:
192,192,231818,1,0,0:0:0:0:
320,192,231868,1,0,0:0:0:0:
448,192,231918,1,0,0:0:0:0:
320,192,231967,1,0,0:0:0:0:
192,192,232017,1,0,0:0:0:0:
64,192,232067,1,0,0:0:0:0:
320,192,232117,1,0,0:0:0:0:
192,192,232166,1,0,0:0:0:0:
64,192,232216,1,0,0:0:0:0:
192,192,232266,1,0,0:0:0:0:
320,192,232316,1,0,0:0:0:0:
448,192,232365,1,0,0:0:0:0:
64,192,232415,1,0,0:0:0:0:
192,192,232465,1,0,0:0:0:0:
320,192,232515,1,0,0:0:0:0:
448,192,232564,1,0,0:0:0:0:
320,192,232614,1,0,0:0:0:0:
192,192,232664,1,0,0:0:0:0:
64,192,232714,1,0,0:0:0:0:
448,192,232763,1,0,0:0:0:0:
320,192,232813,1,0,0:0:0:0:
192,192,232863,1,0,0:0:0:0:
320,192,232913,1,0,0:0:0:0:
448,192,232913,1,0,0:0:0:0:
192,192,232987,1,0,0:0:0:0:
64,192,232987,1,0,0:0:0:0:
320,192,233062,1,0,0:0:0:0:
448,192,233062,1,0,0:0:0:0:
64,192,233360,1,0,0:0:0:0:
192,192,233360,1,0,0:0:0:0:
448,192,233360,1,0,0:0:0:0:
320,192,233510,1,0,0:0:0:0:
448,192,233510,1,0,0:0:0:0:
192,192,233510,1,0,0:0:0:0:
448,192,233659,128,0,233957:0:0:0:0:
192,192,233957,1,0,0:0:0:0:
64,192,233957,1,0,0:0:0:0:
320,192,234007,1,0,0:0:0:0:
448,192,234007,1,0,0:0:0:0:
192,192,234057,1,0,0:0:0:0:
64,192,234057,1,0,0:0:0:0:
320,192,234107,1,0,0:0:0:0:
448,192,234107,1,0,0:0:0:0:
192,192,234156,1,0,0:0:0:0:
64,192,234156,1,0,0:0:0:0:
320,192,234206,1,0,0:0:0:0:
448,192,234206,1,0,0:0:0:0:
320,192,234554,1,0,0:0:0:0:
192,192,234604,1,0,0:0:0:0:
64,192,234654,1,0,0:0:0:0:
320,192,234704,1,0,0:0:0:0:
448,192,234704,1,0,0:0:0:0:
192,192,234753,1,0,0:0:0:0:
320,192,234803,1,0,0:0:0:0:
448,192,234853,1,0,0:0:0:0:
192,192,234903,1,0,0:0:0:0:
64,192,234952,1,0,0:0:0:0:
192,192,235002,1,0,0:0:0:0:
320,192,235002,1,0,0:0:0:0:
448,192,235052,1,0,0:0:0:0:
320,192,235102,1,0,0:0:0:0:
192,192,235151,1,0,0:0:0:0:
64,192,235201,1,0,0:0:0:0:
192,192,235251,1,0,0:0:0:0:
320,192,235301,1,0,0:0:0:0:
448,192,235301,1,0,0:0:0:0:
192,192,235350,1,0,0:0:0:0:
64,192,235400,1,0,0:0:0:0:
320,192,235450,1,0,0:0:0:0:
192,192,235450,1,0,0:0:0:0:
448,192,235500,1,0,0:0:0:0:
320,192,235549,1,0,0:0:0:0:
64,192,235599,128,0,235748:0:0:0:0:
192,192,235599,1,0,0:0:0:0:
192,192,235748,1,0,0:0:0:0:
320,192,235748,1,0,0:0:0:0:
448,192,235748,1,0,0:0:0:0:
448,192,236047,1,0,0:0:0:0:
320,192,236495,1,0,0:0:0:0:
320,192,236942,1,0,0:0:0:0:
192,192,237390,1,0,0:0:0:0:
320,192,237838,1,0,0:0:0:0:
192,192,237987,1,0,0:0:0:0:
64,192,238435,1,0,0:0:0:0:
64,192,238883,1,0,0:0:0:0:
64,192,239330,1,0,0:0:0:0:
64,192,239778,1,0,0:0:0:0:
448,192,240077,1,0,0:0:0:0:
320,192,240226,1,0,0:0:0:0:
192,192,240375,128,0,245301:0:0:0:0:
