osu file format v14

[General]
AudioFilename: audio.mp3
AudioLeadIn: 0
PreviewTime: 222483
Countdown: 0
SampleSet: Normal
StackLeniency: 0.7
Mode: 3
LetterboxInBreaks: 0
SpecialStyle: 0
WidescreenStoryboard: 0

[Editor]
Bookmarks: 63477,114477,150477,174477,198477,222477
DistanceSpacing: 0.8
BeatDivisor: 4
GridSize: 32
TimelineZoom: 2.1

[Metadata]
Title:GHOST-NOVA
TitleUnicode:GHOST-NOVA
Artist:Camellia
ArtistUnicode:かめりあ
Creator:ExVeemon
Version:DIGIBRO-TERRAFORCE
Source:
Tags:galaxy burst cametek kamelcamellia psystyle solacexcix
BeatmapID:1888527
BeatmapSetID:904768

[Difficulty]
HPDrainRate:8
CircleSize:4
OverallDifficulty:8
ApproachRate:5
SliderMultiplier:1.4
SliderTickRate:1

[Events]
//Background and Video events
0,0,"and-save-image-to-download-the-space-art-purple-background-wallpaper (1).jpg",0,0
//Break Periods
//Storyboard Layer 0 (Background)
//Storyboard Layer 1 (Fail)
//Storyboard Layer 2 (Pass)
//Storyboard Layer 3 (Foreground)
//Storyboard Sound Samples

[TimingPoints]
501,750,4,1,0,25,1,0
601,-80,4,1,0,25,0,0
20844,-76.9230769230769,4,1,0,25,0,0
20938,-74.0740740740741,4,1,0,25,0,0
21032,-71.4285714285714,4,1,0,25,0,0
21126,-68.9655172413793,4,1,0,25,0,0
21219,-66.6666666666667,4,1,0,25,0,0
21313,-64.5161290322581,4,1,0,25,0,0
21407,-62.5,4,1,0,25,0,0
21501,-60.6060606060606,4,1,0,25,0,0
21594,-62.5,4,1,0,25,0,0
21688,-64.5161290322581,4,1,0,25,0,0
21782,-66.6666666666667,4,1,0,25,0,0
21876,-68.9655172413793,4,1,0,25,0,0
21969,-71.4285714285714,4,1,0,25,0,0
22063,-74.0740740740741,4,1,0,25,0,0
22157,-76.9230769230769,4,1,0,25,0,0
22251,-79.9999999999999,4,1,0,25,0,0
36501,-74.0740740740741,4,1,0,25,0,0
36876,-68.9655172413793,4,1,0,25,0,0
37251,-64.5161290322581,4,1,0,25,0,0
37626,-60.6060606060606,4,1,0,25,0,0
38001,-57.1428571428571,4,1,0,25,0,0
38376,-54.054054054054,4,1,0,25,0,0
38751,-51.2820512820513,4,1,0,25,0,0
39126,-50,4,1,0,25,0,0
39501,375,4,1,0,25,1,0
45032,-83.3333333333333,4,1,0,25,0,0
45079,-125,4,1,0,25,0,0
45126,-83.3333333333333,4,1,0,25,0,0
45172,-125,4,1,0,25,0,0
45219,-83.3333333333333,4,1,0,25,0,0
45266,-125,4,1,0,25,0,0
45313,-83.3333333333333,4,1,0,25,0,0
45360,-125,4,1,0,25,0,0
45407,-83.3333333333333,4,1,0,25,0,0
45454,-125,4,1,0,25,0,0
45501,-100,4,1,0,25,0,0
51126,-100,4,1,0,25,0,0
51172,-111.111111111111,4,1,0,25,0,0
51219,-125,4,1,0,25,0,0
51266,-142.857142857143,4,1,0,25,0,0
51313,-166.666666666667,4,1,0,25,0,0
51360,-200,4,1,0,25,0,0
51407,-250,4,1,0,25,0,0
51454,-333.333333333333,4,1,0,25,0,0
51501,-50,4,1,0,25,0,0
51547,-55.5555555555556,4,1,0,25,0,0
51594,-62.5,4,1,0,25,0,0
51641,-71.4285714285714,4,1,0,25,0,0
51688,-90.909090909091,4,1,0,25,0,0
51735,-142.857142857143,4,1,0,25,0,0
51782,-250.000000000001,4,1,0,25,0,0
51829,-1000,4,1,0,25,0,0
51876,-500,4,1,0,25,0,0
51922,-250,4,1,0,25,0,0
51969,-166.666666666667,4,1,0,25,0,0
52016,-125,4,1,0,25,0,0
52063,-100,4,1,0,25,0,0
52110,-83.3333333333333,4,1,0,25,0,0
52157,-76.9230769230769,4,1,0,25,0,0
52204,-71.4285714285714,4,1,0,25,0,0
52251,-50,4,1,0,25,0,0
52297,-55.5555555555556,4,1,0,25,0,0
52344,-62.5,4,1,0,25,0,0
52391,-71.4285714285714,4,1,0,25,0,0
52438,-90.909090909091,4,1,0,25,0,0
52485,-142.857142857143,4,1,0,25,0,0
52532,-250.000000000001,4,1,0,25,0,0
52579,-1000,4,1,0,25,0,0
52626,-500,4,1,0,25,0,0
52672,-250,4,1,0,25,0,0
52719,-166.666666666667,4,1,0,25,0,0
52766,-125,4,1,0,25,0,0
52813,-100,4,1,0,25,0,0
52860,-83.3333333333333,4,1,0,25,0,0
52907,-76.9230769230769,4,1,0,25,0,0
52954,-71.4285714285714,4,1,0,25,0,0
53001,-50,4,1,0,25,0,0
53047,-55.5555555555556,4,1,0,25,0,0
53094,-62.5,4,1,0,25,0,0
53141,-71.4285714285714,4,1,0,25,0,0
53188,-90.909090909091,4,1,0,25,0,0
53235,-142.857142857143,4,1,0,25,0,0
53282,-250.000000000001,4,1,0,25,0,0
53329,-1000,4,1,0,25,0,0
53376,-500,4,1,0,25,0,0
53422,-250,4,1,0,25,0,0
53469,-166.666666666667,4,1,0,25,0,0
53516,-125,4,1,0,25,0,0
53563,-100,4,1,0,25,0,0
53610,-83.3333333333333,4,1,0,25,0,0
53657,-76.9230769230769,4,1,0,25,0,0
53704,-71.4285714285714,4,1,0,25,0,0
53751,-50,4,1,0,25,0,0
53797,-55.5555555555556,4,1,0,25,0,0
53844,-62.5,4,1,0,25,0,0
53891,-71.4285714285714,4,1,0,25,0,0
53938,-90.909090909091,4,1,0,25,0,0
53985,-142.857142857143,4,1,0,25,0,0
54032,-250.000000000001,4,1,0,25,0,0
54079,-1000,4,1,0,25,0,0
54126,-250,4,1,0,25,0,0
54172,-125,4,1,0,25,0,0
54219,-90.909090909091,4,1,0,25,0,0
54266,-76.9230769230769,4,1,0,25,0,0
54313,-58.8235294117647,4,1,0,25,0,0
54360,-71.4285714285714,4,1,0,25,0,0
54407,-142.857142857143,4,1,0,25,0,0
54454,-250,4,1,0,25,0,0
54501,-50,4,1,0,25,0,0
54547,-55.5555555555556,4,1,0,25,0,0
54594,-62.5,4,1,0,25,0,0
54641,-71.4285714285714,4,1,0,25,0,0
54688,-90.909090909091,4,1,0,25,0,0
54735,-142.857142857143,4,1,0,25,0,0
54782,-250.000000000001,4,1,0,25,0,0
54829,-1000,4,1,0,25,0,0
54876,-500,4,1,0,25,0,0
54922,-250,4,1,0,25,0,0
54969,-166.666666666667,4,1,0,25,0,0
55016,-125,4,1,0,25,0,0
55063,-100,4,1,0,25,0,0
55110,-83.3333333333333,4,1,0,25,0,0
55157,-76.9230769230769,4,1,0,25,0,0
55204,-71.4285714285714,4,1,0,25,0,0
55251,-50,4,1,0,25,0,0
55297,-55.5555555555556,4,1,0,25,0,0
55344,-62.5,4,1,0,25,0,0
55391,-71.4285714285714,4,1,0,25,0,0
55438,-90.909090909091,4,1,0,25,0,0
55485,-142.857142857143,4,1,0,25,0,0
55532,-250.000000000001,4,1,0,25,0,0
55579,-1000,4,1,0,25,0,0
55626,-250,4,1,0,25,0,0
55672,-125,4,1,0,25,0,0
55719,-90.909090909091,4,1,0,25,0,0
55766,-76.9230769230769,4,1,0,25,0,0
55813,-58.8235294117647,4,1,0,25,0,0
55860,-71.4285714285714,4,1,0,25,0,0
55907,-142.857142857143,4,1,0,25,0,0
55954,-250,4,1,0,25,0,0
56001,-58.8235294117647,4,1,0,25,0,0
56047,-66.6666666666667,4,1,0,25,0,0
56094,-83.3333333333333,4,1,0,25,0,0
56141,-111.111111111111,4,1,0,25,0,0
56188,-166.666666666667,4,1,0,25,0,0
56235,-333.333333333333,4,1,0,25,0,0
56282,-58.8235294117647,4,1,0,25,0,0
56329,-66.6666666666667,4,1,0,25,0,0
56376,-83.3333333333333,4,1,0,25,0,0
56422,-111.111111111111,4,1,0,25,0,0
56469,-166.666666666667,4,1,0,25,0,0
56516,-333.333333333333,4,1,0,25,0,0
56563,-58.8235294117647,4,1,0,25,0,0
56610,-66.6666666666667,4,1,0,25,0,0
56657,-83.3333333333333,4,1,0,25,0,0
56704,-111.111111111111,4,1,0,25,0,0
56751,-166.666666666667,4,1,0,25,0,0
56797,-333.333333333333,4,1,0,25,0,0
56844,-58.8235294117647,4,1,0,25,0,0
56891,-66.6666666666667,4,1,0,25,0,0
56938,-83.3333333333333,4,1,0,25,0,0
56985,-111.111111111111,4,1,0,25,0,0
57032,-166.666666666667,4,1,0,25,0,0
57079,-333.333333333333,4,1,0,25,0,0
57126,-58.8235294117647,4,1,0,25,0,0
57172,-66.6666666666667,4,1,0,25,0,0
57219,-76.9230769230769,4,1,0,25,0,0
57266,-90.9090909090909,4,1,0,25,0,0
57313,-111.111111111111,4,1,0,25,0,0
57360,-142.857142857143,4,1,0,25,0,0
57407,-200,4,1,0,25,0,0
57454,-333.333333333333,4,1,0,25,0,0
57501,-100,4,1,0,25,0,0
62001,-52.6315789473684,4,1,0,25,0,0
62094,-58.8235294117647,4,1,0,25,0,0
62188,-66.6666666666667,4,1,0,25,0,0
62282,-76.9230769230769,4,1,0,25,0,0
62376,-90.9090909090908,4,1,0,25,0,0
62469,-111.111111111111,4,1,0,25,0,0
62563,-142.857142857143,4,1,0,25,0,0
62657,-200,4,1,0,25,0,0
62751,-333.333333333336,4,1,0,25,0,0
62844,-1000.00000000002,4,1,0,25,0,0
62891,-333.333333333333,4,1,0,25,0,0
62938,-200,4,1,0,25,0,0
62985,-111.111111111111,4,1,0,25,0,0
63032,-83.3333333333333,4,1,0,25,0,0
63079,-66.6666666666667,4,1,0,25,0,0
63126,-55.5555555555556,4,1,0,25,0,0
63172,-66.6666666666667,4,1,0,25,0,0
63219,-76.9230769230769,4,1,0,25,0,0
63266,-90.9090909090909,4,1,0,25,0,0
63313,-111.111111111111,4,1,0,25,0,0
63360,-142.857142857143,4,1,0,25,0,0
63407,-200,4,1,0,25,0,0
63454,-500,4,1,0,25,0,0
63501,-100,4,1,0,25,0,0
66126,-125,4,1,0,25,0,0
66501,-100,4,1,0,25,0,0
69126,-125,4,1,0,25,0,0
69501,-100,4,1,0,25,0,0
72126,-125,4,1,0,25,0,0
72501,-100,4,1,0,25,0,0
78313,-71.4285714285714,4,1,0,25,0,0
78336,-166.666666666667,4,1,0,25,0,0
78360,-71.4285714285714,4,1,0,25,0,0
78383,-166.666666666667,4,1,0,25,0,0
78407,-71.4285714285714,4,1,0,25,0,0
78430,-166.666666666667,4,1,0,25,0,0
78454,-71.4285714285714,4,1,0,25,0,0
78477,-166.666666666667,4,1,0,25,0,0
78501,-100,4,1,0,25,0,0
86001,-166.666666666667,4,1,0,25,0,0
86188,-142.857142857143,4,1,0,25,0,0
86376,-125,4,1,0,25,0,0
86563,-111.111111111111,4,1,0,25,0,0
86751,-100,4,1,0,25,0,0
86938,-90.9090909090909,4,1,0,25,0,0
87126,-52.6315789473684,4,1,0,25,0,0
87219,-66.6666666666667,4,1,0,25,0,0
87313,-142.857142857143,4,1,0,25,0,0
87407,-333.333333333333,4,1,0,25,0,0
87501,-100,4,1,0,25,0,1
93126,-133.333333333333,4,1,0,25,0,1
93501,-100,4,1,0,25,0,1
99501,-66.6666666666667,4,1,0,25,0,1
99594,-200,4,1,0,25,0,1
99688,-66.6666666666667,4,1,0,25,0,1
99735,-200,4,1,0,25,0,1
99782,-66.6666666666667,4,1,0,25,0,1
99829,-200,4,1,0,25,0,1
99876,-83.3333333333333,4,1,0,25,0,1
99922,-100,4,1,0,25,0,1
105501,-125,4,1,0,25,0,1
105876,-100,4,1,0,25,0,1
106251,-125,4,1,0,25,0,1
106626,-100,4,1,0,25,0,1
107001,-125,4,1,0,25,0,1
107376,-100,4,1,0,25,0,1
107751,-125,4,1,0,25,0,1
108126,-100,4,1,0,25,0,1
110376,-111.111111111111,4,1,0,25,0,1
110751,-125,4,1,0,25,0,1
111126,-142.857142857143,4,1,0,25,0,1
111501,-166.666666666667,4,1,0,25,0,1
111876,-142.857142857143,4,1,0,25,0,1
112251,-125,4,1,0,25,0,1
112626,-111.111111111111,4,1,0,25,0,1
113001,-100,4,1,0,25,0,1
113376,-90.9090909090909,4,1,0,25,0,1
113751,-83.3333333333333,4,1,0,25,0,1
114126,-200,4,1,0,25,0,1
114172,-142.857142857143,4,1,0,25,0,1
114219,-111.111111111111,4,1,0,25,0,1
114266,-90.9090909090909,4,1,0,25,0,1
114313,-76.9230769230769,4,1,0,25,0,1
114360,-66.6666666666667,4,1,0,25,0,1
114407,-58.8235294117647,4,1,0,25,0,1
114454,-52.6315789473684,4,1,0,25,0,1
114501,-100,4,1,0,25,0,0
116751,-125,4,1,0,25,0,0
117501,-100,4,1,0,25,0,0
120501,-333.333333333333,4,1,0,25,0,0
120594,-250,4,1,0,25,0,0
120641,-200,4,1,0,25,0,0
120688,-142.857142857143,4,1,0,25,0,0
120735,-111.111111111111,4,1,0,25,0,0
120782,-71.4285714285714,4,1,0,25,0,0
120829,-58.8235294117647,4,1,0,25,0,0
120876,-66.6666666666667,4,1,0,25,0,0
120922,-83.3333333333333,4,1,0,25,0,0
120969,-125,4,1,0,25,0,0
121016,-200,4,1,0,25,0,0
121063,-66.6666666666667,4,1,0,25,0,0
121110,-83.3333333333333,4,1,0,25,0,0
121157,-125,4,1,0,25,0,0
121204,-200,4,1,0,25,0,0
121251,-76.9230769230769,4,1,0,25,0,0
121344,-250,4,1,0,25,0,0
121391,-200,4,1,0,25,0,0
121438,-142.857142857143,4,1,0,25,0,0
121485,-111.111111111111,4,1,0,25,0,0
121532,-71.4285714285714,4,1,0,25,0,0
121579,-58.8235294117647,4,1,0,25,0,0
121626,-83.3333333333333,4,1,0,25,0,0
121672,-125,4,1,0,25,0,0
121719,-83.3333333333333,4,1,0,25,0,0
121766,-125,4,1,0,25,0,0
121813,-83.3333333333333,4,1,0,25,0,0
121860,-125,4,1,0,25,0,0
121907,-83.3333333333333,4,1,0,25,0,0
121954,-125,4,1,0,25,0,0
122001,-125,4,1,0,25,0,0
122376,-111.111111111111,4,1,0,25,0,0
122751,-100,4,1,0,25,0,0
123126,-66.6666666666667,4,1,0,25,0,0
123172,-76.9230769230769,4,1,0,25,0,0
123219,-90.9090909090909,4,1,0,25,0,0
123266,-111.111111111111,4,1,0,25,0,0
123313,-142.857142857143,4,1,0,25,0,0
123360,-250.000000000001,4,1,0,25,0,0
123407,-76.9230769230769,4,1,0,25,0,0
123454,-142.857142857143,4,1,0,25,0,0
123501,-76.9230769230769,4,1,0,25,0,0
123547,-142.857142857143,4,1,0,25,0,0
123594,-76.9230769230769,4,1,0,25,0,0
123641,-142.857142857143,4,1,0,25,0,0
123688,-76.9230769230769,4,1,0,25,0,0
123735,-142.857142857143,4,1,0,25,0,0
123782,-76.9230769230769,4,1,0,25,0,0
123829,-142.857142857143,4,1,0,25,0,0
123876,-76.9230769230769,4,1,0,25,0,0
123922,-100,4,1,0,25,0,0
125001,-200,4,1,0,25,0,0
125047,-166.666666666667,4,1,0,25,0,0
125094,-125,4,1,0,25,0,0
125141,-100,4,1,0,25,0,0
125188,-83.3333333333333,4,1,0,25,0,0
125235,-71.4285714285714,4,1,0,25,0,0
125282,-200,4,1,0,25,0,0
125329,-166.666666666667,4,1,0,25,0,0
125376,-125,4,1,0,25,0,0
125422,-100,4,1,0,25,0,0
125469,-83.3333333333333,4,1,0,25,0,0
125516,-71.4285714285714,4,1,0,25,0,0
125563,-200,4,1,0,25,0,0
125610,-166.666666666667,4,1,0,25,0,0
125657,-125,4,1,0,25,0,0
125704,-100,4,1,0,25,0,0
125751,-83.3333333333333,4,1,0,25,0,0
125797,-71.4285714285714,4,1,0,25,0,0
125844,-200,4,1,0,25,0,0
125891,-166.666666666667,4,1,0,25,0,0
125938,-125,4,1,0,25,0,0
125985,-100,4,1,0,25,0,0
126032,-83.3333333333333,4,1,0,25,0,0
126079,-71.4285714285714,4,1,0,25,0,0
126126,-200,4,1,0,25,0,0
126172,-166.666666666667,4,1,0,25,0,0
126219,-125,4,1,0,25,0,0
126266,-100,4,1,0,25,0,0
126313,-71.4285714285714,4,1,0,25,0,0
126360,-166.666666666667,4,1,0,25,0,0
126407,-71.4285714285714,4,1,0,25,0,0
126454,-166.666666666667,4,1,0,25,0,0
126501,-500,4,1,0,25,0,0
126641,-200,4,1,0,25,0,0
126688,-142.857142857143,4,1,0,25,0,0
126735,-111.111111111111,4,1,0,25,0,0
126782,-71.4285714285714,4,1,0,25,0,0
126829,-58.8235294117647,4,1,0,25,0,0
126876,-100,4,1,0,25,0,0
128001,-83.3333333333333,4,1,0,25,0,0
128047,-125,4,1,0,25,0,0
128094,-83.3333333333333,4,1,0,25,0,0
128141,-125,4,1,0,25,0,0
128188,-83.3333333333333,4,1,0,25,0,0
128235,-125,4,1,0,25,0,0
128282,-83.3333333333333,4,1,0,25,0,0
128329,-125,4,1,0,25,0,0
128376,-83.3333333333333,4,1,0,25,0,0
128422,-125,4,1,0,25,0,0
128522,-100,4,1,0,25,0,0
128563,-83.3333333333333,4,1,0,25,0,0
128610,-125,4,1,0,25,0,0
128657,-83.3333333333333,4,1,0,25,0,0
128704,-125,4,1,0,25,0,0
128751,-83.3333333333333,4,1,0,25,0,0
128797,-125,4,1,0,25,0,0
128844,-83.3333333333333,4,1,0,25,0,0
128891,-125,4,1,0,25,0,0
128938,-100,4,1,0,25,0,0
129126,-76.9230769230769,4,1,0,25,0,0
129172,-142.857142857143,4,1,0,25,0,0
129219,-76.9230769230769,4,1,0,25,0,0
129266,-142.857142857143,4,1,0,25,0,0
129313,-76.9230769230769,4,1,0,25,0,0
129360,-111.111111111111,4,1,0,25,0,0
129501,-90.9090909090909,4,1,0,25,0,0
129594,-99.9999999999999,4,1,0,25,0,0
129688,-111.111111111111,4,1,0,25,0,0
129782,-90.9090909090909,4,1,0,25,0,0
129876,-99.9999999999999,4,1,0,25,0,0
129969,-111.111111111111,4,1,0,25,0,0
130063,-90.9090909090909,4,1,0,25,0,0
130157,-99.9999999999999,4,1,0,25,0,0
130251,-111.111111111111,4,1,0,25,0,0
130344,-90.9090909090909,4,1,0,25,0,0
130438,-99.9999999999999,4,1,0,25,0,0
130532,-111.111111111111,4,1,0,25,0,0
130626,-125,4,1,0,25,0,0
131001,-90.9090909090909,4,1,0,25,0,0
131094,-99.9999999999999,4,1,0,25,0,0
131188,-111.111111111111,4,1,0,25,0,0
131282,-90.9090909090909,4,1,0,25,0,0
131376,-99.9999999999999,4,1,0,25,0,0
131469,-111.111111111111,4,1,0,25,0,0
131563,-90.9090909090909,4,1,0,25,0,0
131657,-99.9999999999999,4,1,0,25,0,0
131751,-111.111111111111,4,1,0,25,0,0
131844,-90.9090909090909,4,1,0,25,0,0
131938,-99.9999999999999,4,1,0,25,0,0
132032,-111.111111111111,4,1,0,25,0,0
132126,-125,4,1,0,25,0,0
132501,-76.923076923077,4,1,0,25,0,0
132547,-90.9090909090909,4,1,0,25,0,0
132594,-111.111111111111,4,1,0,25,0,0
132641,-142.857142857143,4,1,0,25,0,0
132688,-200,4,1,0,25,0,0
132735,-333.333333333333,4,1,0,25,0,0
132782,-76.9230769230769,4,1,0,25,0,0
132829,-90.9090909090909,4,1,0,25,0,0
132876,-142.857142857143,4,1,0,25,0,0
132922,-250,4,1,0,25,0,0
132969,-76.9230769230769,4,1,0,25,0,0
133016,-142.857142857143,4,1,0,25,0,0
133063,-76.9230769230769,4,1,0,25,0,0
133110,-142.857142857143,4,1,0,25,0,0
133157,-76.9230769230769,4,1,0,25,0,0
133204,-142.857142857143,4,1,0,25,0,0
133251,-76.9230769230769,4,1,0,25,0,0
133297,-90.9090909090909,4,1,0,25,0,0
133344,-111.111111111111,4,1,0,25,0,0
133391,-142.857142857143,4,1,0,25,0,0
133438,-200,4,1,0,25,0,0
133485,-333.333333333333,4,1,0,25,0,0
133532,-76.9230769230769,4,1,0,25,0,0
133579,-90.9090909090909,4,1,0,25,0,0
133626,-142.857142857143,4,1,0,25,0,0
133672,-250,4,1,0,25,0,0
133719,-76.9230769230769,4,1,0,25,0,0
133766,-142.857142857143,4,1,0,25,0,0
133813,-76.9230769230769,4,1,0,25,0,0
133860,-142.857142857143,4,1,0,25,0,0
133907,-76.9230769230769,4,1,0,25,0,0
133954,-142.857142857143,4,1,0,25,0,0
134001,-76.9230769230769,4,1,0,25,0,0
134047,-100,4,1,0,25,0,0
134376,-111.111111111111,4,1,0,25,0,0
134751,-125,4,1,0,25,0,0
135126,-142.857142857143,4,1,0,25,0,0
135219,-125,4,1,0,25,0,0
135313,-111.111111111111,4,1,0,25,0,0
135407,-100,4,1,0,25,0,0
135501,-111.111111111111,4,1,0,15,0,0
135516,-100,4,1,0,15,0,0
135531,-91.743119266055,4,1,0,15,0,0
135546,-85.4700854700855,4,1,0,15,0,0
135561,-80.6451612903226,4,1,0,15,0,0
135576,-78.125,4,1,0,15,0,0
135591,-76.9230769230769,4,1,0,15,0,0
135606,-77.5193798449612,4,1,0,15,0,0
135621,-79.3650793650794,4,1,0,15,0,0
135636,-82.6446280991736,4,1,0,15,0,0
135651,-87.719298245614,4,1,0,15,0,0
135666,-95.2380952380952,4,1,0,15,0,0
135681,-105.263157894737,4,1,0,15,0,0
135696,-117.647058823529,4,1,0,15,0,0
135711,-133.333333333333,4,1,0,15,0,0
135726,-151.515151515152,4,1,0,15,0,0
135741,-169.491525423729,4,1,0,15,0,0
135756,-185.185185185185,4,1,0,15,0,0
135771,-196.078431372549,4,1,0,15,0,0
135786,-200,4,1,0,15,0,0
135801,-192.307692307692,4,1,0,15,0,0
135816,-178.571428571429,4,1,0,15,0,0
135831,-158.730158730159,4,1,0,15,0,0
135846,-140.845070422535,4,1,0,15,0,0
135861,-125,4,1,0,15,0,0
135876,-111.111111111111,4,1,0,15,0,0
135891,-100,4,1,0,15,0,0
135906,-91.743119266055,4,1,0,15,0,0
135921,-85.4700854700855,4,1,0,15,0,0
135936,-80.6451612903226,4,1,0,15,0,0
135951,-78.125,4,1,0,15,0,0
135966,-76.9230769230769,4,1,0,15,0,0
135981,-77.5193798449612,4,1,0,15,0,0
135996,-79.3650793650794,4,1,0,15,0,0
136011,-82.6446280991736,4,1,0,15,0,0
136026,-87.719298245614,4,1,0,15,0,0
136041,-95.2380952380952,4,1,0,15,0,0
136056,-105.263157894737,4,1,0,15,0,0
136071,-117.647058823529,4,1,0,15,0,0
136086,-133.333333333333,4,1,0,15,0,0
136101,-151.515151515152,4,1,0,15,0,0
136116,-169.491525423729,4,1,0,15,0,0
136131,-185.185185185185,4,1,0,15,0,0
136146,-196.078431372549,4,1,0,15,0,0
136161,-200,4,1,0,15,0,0
136176,-192.307692307692,4,1,0,15,0,0
136191,-178.571428571429,4,1,0,15,0,0
136206,-158.730158730159,4,1,0,15,0,0
136221,-140.845070422535,4,1,0,15,0,0
136236,-125,4,1,0,15,0,0
136251,-111.111111111111,4,1,0,15,0,0
136266,-100,4,1,0,15,0,0
136281,-91.743119266055,4,1,0,15,0,0
136296,-85.4700854700855,4,1,0,15,0,0
136311,-80.6451612903226,4,1,0,15,0,0
136326,-78.125,4,1,0,15,0,0
136341,-76.9230769230769,4,1,0,15,0,0
136356,-77.5193798449612,4,1,0,15,0,0
136371,-79.3650793650794,4,1,0,15,0,0
136386,-82.6446280991736,4,1,0,15,0,0
136401,-87.719298245614,4,1,0,15,0,0
136416,-95.2380952380952,4,1,0,15,0,0
136431,-105.263157894737,4,1,0,15,0,0
136446,-117.647058823529,4,1,0,15,0,0
136461,-133.333333333333,4,1,0,15,0,0
136476,-151.515151515152,4,1,0,15,0,0
136491,-169.491525423729,4,1,0,15,0,0
136506,-185.185185185185,4,1,0,15,0,0
136521,-196.078431372549,4,1,0,15,0,0
136536,-200,4,1,0,15,0,0
136551,-192.307692307692,4,1,0,15,0,0
136566,-178.571428571429,4,1,0,15,0,0
136581,-158.730158730159,4,1,0,15,0,0
136596,-140.845070422535,4,1,0,15,0,0
136611,-125,4,1,0,15,0,0
136626,-111.111111111111,4,1,0,15,0,0
136641,-100,4,1,0,15,0,0
136656,-91.743119266055,4,1,0,15,0,0
136671,-85.4700854700855,4,1,0,15,0,0
136686,-80.6451612903226,4,1,0,15,0,0
136701,-78.125,4,1,0,15,0,0
136716,-76.9230769230769,4,1,0,15,0,0
136731,-77.5193798449612,4,1,0,15,0,0
136746,-79.3650793650794,4,1,0,15,0,0
136761,-82.6446280991736,4,1,0,15,0,0
136776,-87.719298245614,4,1,0,15,0,0
136791,-95.2380952380952,4,1,0,15,0,0
136806,-105.263157894737,4,1,0,15,0,0
136821,-117.647058823529,4,1,0,15,0,0
136836,-133.333333333333,4,1,0,15,0,0
136851,-151.515151515152,4,1,0,15,0,0
136866,-169.491525423729,4,1,0,15,0,0
136881,-185.185185185185,4,1,0,15,0,0
136896,-196.078431372549,4,1,0,15,0,0
136911,-200,4,1,0,15,0,0
136926,-192.307692307692,4,1,0,15,0,0
136941,-178.571428571429,4,1,0,15,0,0
136956,-158.730158730159,4,1,0,15,0,0
136971,-140.845070422535,4,1,0,15,0,0
136986,-125,4,1,0,15,0,0
137001,-111.111111111111,4,1,0,15,0,0
137016,-100,4,1,0,15,0,0
137031,-91.743119266055,4,1,0,15,0,0
137046,-85.4700854700855,4,1,0,15,0,0
137061,-80.6451612903226,4,1,0,15,0,0
137076,-78.125,4,1,0,15,0,0
137091,-76.9230769230769,4,1,0,15,0,0
137106,-77.5193798449612,4,1,0,15,0,0
137121,-79.3650793650794,4,1,0,15,0,0
137136,-82.6446280991736,4,1,0,15,0,0
137151,-87.719298245614,4,1,0,15,0,0
137166,-95.2380952380952,4,1,0,15,0,0
137181,-105.263157894737,4,1,0,15,0,0
137196,-117.647058823529,4,1,0,15,0,0
137211,-133.333333333333,4,1,0,15,0,0
137226,-151.515151515152,4,1,0,15,0,0
137241,-169.491525423729,4,1,0,15,0,0
137256,-185.185185185185,4,1,0,15,0,0
137271,-196.078431372549,4,1,0,15,0,0
137286,-200,4,1,0,15,0,0
137301,-192.307692307692,4,1,0,15,0,0
137316,-178.571428571429,4,1,0,15,0,0
137331,-158.730158730159,4,1,0,15,0,0
137346,-140.845070422535,4,1,0,15,0,0
137361,-125,4,1,0,15,0,0
137376,-111.111111111111,4,1,0,15,0,0
137391,-100,4,1,0,15,0,0
137406,-91.743119266055,4,1,0,15,0,0
137421,-85.4700854700855,4,1,0,15,0,0
137436,-80.6451612903226,4,1,0,15,0,0
137451,-78.125,4,1,0,15,0,0
137466,-76.9230769230769,4,1,0,15,0,0
137481,-77.5193798449612,4,1,0,15,0,0
137496,-79.3650793650794,4,1,0,15,0,0
137511,-82.6446280991736,4,1,0,15,0,0
137526,-87.719298245614,4,1,0,15,0,0
137541,-95.2380952380952,4,1,0,15,0,0
137556,-105.263157894737,4,1,0,15,0,0
137571,-117.647058823529,4,1,0,15,0,0
137586,-133.333333333333,4,1,0,15,0,0
137601,-151.515151515152,4,1,0,15,0,0
137616,-169.491525423729,4,1,0,15,0,0
137631,-185.185185185185,4,1,0,15,0,0
137646,-196.078431372549,4,1,0,15,0,0
137661,-200,4,1,0,15,0,0
137676,-192.307692307692,4,1,0,15,0,0
137691,-178.571428571429,4,1,0,15,0,0
137706,-158.730158730159,4,1,0,15,0,0
137721,-140.845070422535,4,1,0,15,0,0
137736,-125,4,1,0,15,0,0
137751,-111.111111111111,4,1,0,15,0,0
137766,-100,4,1,0,15,0,0
137781,-91.743119266055,4,1,0,15,0,0
137796,-85.4700854700855,4,1,0,15,0,0
137811,-80.6451612903226,4,1,0,15,0,0
137826,-78.125,4,1,0,15,0,0
137841,-76.9230769230769,4,1,0,15,0,0
137856,-77.5193798449612,4,1,0,15,0,0
137871,-79.3650793650794,4,1,0,15,0,0
137886,-82.6446280991736,4,1,0,15,0,0
137901,-87.719298245614,4,1,0,15,0,0
137916,-95.2380952380952,4,1,0,15,0,0
137931,-105.263157894737,4,1,0,15,0,0
137946,-117.647058823529,4,1,0,15,0,0
137961,-133.333333333333,4,1,0,15,0,0
137976,-151.515151515152,4,1,0,15,0,0
137991,-169.491525423729,4,1,0,15,0,0
138006,-185.185185185185,4,1,0,15,0,0
138021,-196.078431372549,4,1,0,15,0,0
138036,-200,4,1,0,15,0,0
138051,-192.307692307692,4,1,0,15,0,0
138066,-178.571428571429,4,1,0,15,0,0
138081,-158.730158730159,4,1,0,15,0,0
138096,-140.845070422535,4,1,0,15,0,0
138111,-125,4,1,0,15,0,0
138126,-111.111111111111,4,1,0,15,0,0
138141,-100,4,1,0,15,0,0
138156,-91.743119266055,4,1,0,15,0,0
138171,-85.4700854700855,4,1,0,15,0,0
138186,-80.6451612903226,4,1,0,15,0,0
138201,-78.125,4,1,0,15,0,0
138216,-76.9230769230769,4,1,0,15,0,0
138231,-77.5193798449612,4,1,0,15,0,0
138246,-79.3650793650794,4,1,0,15,0,0
138261,-82.6446280991736,4,1,0,15,0,0
138276,-87.719298245614,4,1,0,15,0,0
138291,-95.2380952380952,4,1,0,15,0,0
138306,-105.263157894737,4,1,0,15,0,0
138321,-117.647058823529,4,1,0,15,0,0
138336,-133.333333333333,4,1,0,15,0,0
138351,-151.515151515152,4,1,0,15,0,0
138366,-169.491525423729,4,1,0,15,0,0
138381,-185.185185185185,4,1,0,15,0,0
138396,-196.078431372549,4,1,0,15,0,0
138411,-200,4,1,0,15,0,0
138426,-192.307692307692,4,1,0,15,0,0
138441,-178.571428571429,4,1,0,15,0,0
138456,-158.730158730159,4,1,0,15,0,0
138471,-140.845070422535,4,1,0,15,0,0
138486,-125,4,1,0,15,0,0
138501,-500,4,1,0,15,0,0
138519.75,-344.827586206897,4,1,0,15,0,0
138538.5,-263.157894736842,4,1,0,15,0,0
138557.25,-212.765957446809,4,1,0,15,0,0
138576,-178.571428571429,4,1,0,15,0,0
138594.75,-153.846153846154,4,1,0,15,0,0
138613.5,-135.135135135135,4,1,0,15,0,0
138632.25,-120.481927710843,4,1,0,15,0,0
138651,-108.695652173913,4,1,0,15,0,0
138669.75,-99.009900990099,4,1,0,15,0,0
138688.5,-90.9090909090909,4,1,0,15,0,0
138707.25,-84.0336134453782,4,1,0,15,0,0
138726,-78.125,4,1,0,15,0,0
138744.75,-72.992700729927,4,1,0,15,0,0
138763.5,-68.4931506849315,4,1,0,15,0,0
138782.25,-64.5161290322581,4,1,0,15,0,0
138801,-60.9756097560976,4,1,0,15,0,0
138819.75,-57.8034682080925,4,1,0,15,0,0
138838.5,-54.9450549450549,4,1,0,15,0,0
138857.25,-52.3560209424084,4,1,0,15,0,0
138876,-111.111111111111,4,1,0,15,0,0
138891,-100,4,1,0,15,0,0
138906,-91.743119266055,4,1,0,15,0,0
138921,-85.4700854700855,4,1,0,15,0,0
138936,-80.6451612903226,4,1,0,15,0,0
138951,-78.125,4,1,0,15,0,0
138966,-76.9230769230769,4,1,0,15,0,0
138981,-77.5193798449612,4,1,0,15,0,0
138996,-79.3650793650794,4,1,0,15,0,0
139011,-82.6446280991736,4,1,0,15,0,0
139026,-87.719298245614,4,1,0,15,0,0
139041,-95.2380952380952,4,1,0,15,0,0
139056,-105.263157894737,4,1,0,15,0,0
139071,-117.647058823529,4,1,0,15,0,0
139086,-133.333333333333,4,1,0,15,0,0
139101,-151.515151515152,4,1,0,15,0,0
139116,-169.491525423729,4,1,0,15,0,0
139131,-185.185185185185,4,1,0,15,0,0
139146,-196.078431372549,4,1,0,15,0,0
139161,-200,4,1,0,15,0,0
139176,-192.307692307692,4,1,0,15,0,0
139191,-178.571428571429,4,1,0,15,0,0
139206,-158.730158730159,4,1,0,15,0,0
139221,-140.845070422535,4,1,0,15,0,0
139236,-125,4,1,0,15,0,0
139251,-111.111111111111,4,1,0,15,0,0
139266,-100,4,1,0,15,0,0
139281,-91.743119266055,4,1,0,15,0,0
139296,-85.4700854700855,4,1,0,15,0,0
139311,-80.6451612903226,4,1,0,15,0,0
139326,-78.125,4,1,0,15,0,0
139341,-76.9230769230769,4,1,0,15,0,0
139356,-77.5193798449612,4,1,0,15,0,0
139371,-79.3650793650794,4,1,0,15,0,0
139386,-82.6446280991736,4,1,0,15,0,0
139401,-87.719298245614,4,1,0,15,0,0
139416,-95.2380952380952,4,1,0,15,0,0
139431,-105.263157894737,4,1,0,15,0,0
139446,-117.647058823529,4,1,0,15,0,0
139461,-133.333333333333,4,1,0,15,0,0
139476,-151.515151515152,4,1,0,15,0,0
139491,-169.491525423729,4,1,0,15,0,0
139506,-185.185185185185,4,1,0,15,0,0
139521,-196.078431372549,4,1,0,15,0,0
139536,-200,4,1,0,15,0,0
139551,-192.307692307692,4,1,0,15,0,0
139566,-178.571428571429,4,1,0,15,0,0
139581,-158.730158730159,4,1,0,15,0,0
139596,-140.845070422535,4,1,0,15,0,0
139611,-125,4,1,0,15,0,0
139626,-111.111111111111,4,1,0,15,0,0
139641,-100,4,1,0,15,0,0
139656,-91.743119266055,4,1,0,15,0,0
139671,-85.4700854700855,4,1,0,15,0,0
139686,-80.6451612903226,4,1,0,15,0,0
139701,-78.125,4,1,0,15,0,0
139716,-76.9230769230769,4,1,0,15,0,0
139731,-77.5193798449612,4,1,0,15,0,0
139746,-79.3650793650794,4,1,0,15,0,0
139761,-82.6446280991736,4,1,0,15,0,0
139776,-87.719298245614,4,1,0,15,0,0
139791,-95.2380952380952,4,1,0,15,0,0
139806,-105.263157894737,4,1,0,15,0,0
139821,-117.647058823529,4,1,0,15,0,0
139836,-133.333333333333,4,1,0,15,0,0
139851,-151.515151515152,4,1,0,15,0,0
139866,-169.491525423729,4,1,0,15,0,0
139881,-185.185185185185,4,1,0,15,0,0
139896,-196.078431372549,4,1,0,15,0,0
139911,-200,4,1,0,15,0,0
139926,-192.307692307692,4,1,0,15,0,0
139941,-178.571428571429,4,1,0,15,0,0
139956,-158.730158730159,4,1,0,15,0,0
139971,-140.845070422535,4,1,0,15,0,0
139986,-125,4,1,0,15,0,0
140001,-111.111111111111,4,1,0,15,0,0
140016,-100,4,1,0,15,0,0
140031,-91.743119266055,4,1,0,15,0,0
140046,-85.4700854700855,4,1,0,15,0,0
140061,-80.6451612903226,4,1,0,15,0,0
140076,-78.125,4,1,0,15,0,0
140091,-76.9230769230769,4,1,0,15,0,0
140106,-77.5193798449612,4,1,0,15,0,0
140121,-79.3650793650794,4,1,0,15,0,0
140136,-82.6446280991736,4,1,0,15,0,0
140151,-87.719298245614,4,1,0,15,0,0
140166,-95.2380952380952,4,1,0,15,0,0
140181,-105.263157894737,4,1,0,15,0,0
140196,-117.647058823529,4,1,0,15,0,0
140211,-133.333333333333,4,1,0,15,0,0
140226,-151.515151515152,4,1,0,15,0,0
140241,-169.491525423729,4,1,0,15,0,0
140256,-185.185185185185,4,1,0,15,0,0
140271,-196.078431372549,4,1,0,15,0,0
140286,-200,4,1,0,15,0,0
140301,-192.307692307692,4,1,0,15,0,0
140316,-178.571428571429,4,1,0,15,0,0
140331,-158.730158730159,4,1,0,15,0,0
140346,-140.845070422535,4,1,0,15,0,0
140361,-125,4,1,0,15,0,0
140376,-111.111111111111,4,1,0,15,0,0
140391,-100,4,1,0,15,0,0
140406,-91.743119266055,4,1,0,15,0,0
140421,-85.4700854700855,4,1,0,15,0,0
140436,-80.6451612903226,4,1,0,15,0,0
140451,-78.125,4,1,0,15,0,0
140466,-76.9230769230769,4,1,0,15,0,0
140481,-77.5193798449612,4,1,0,15,0,0
140496,-79.3650793650794,4,1,0,15,0,0
140511,-82.6446280991736,4,1,0,15,0,0
140526,-87.719298245614,4,1,0,15,0,0
140541,-95.2380952380952,4,1,0,15,0,0
140556,-105.263157894737,4,1,0,15,0,0
140571,-117.647058823529,4,1,0,15,0,0
140586,-133.333333333333,4,1,0,15,0,0
140601,-151.515151515152,4,1,0,15,0,0
140616,-169.491525423729,4,1,0,15,0,0
140631,-185.185185185185,4,1,0,15,0,0
140646,-196.078431372549,4,1,0,15,0,0
140661,-200,4,1,0,15,0,0
140676,-192.307692307692,4,1,0,15,0,0
140691,-178.571428571429,4,1,0,15,0,0
140706,-158.730158730159,4,1,0,15,0,0
140721,-140.845070422535,4,1,0,15,0,0
140736,-125,4,1,0,15,0,0
140751,-111.111111111111,4,1,0,15,0,0
140766,-100,4,1,0,15,0,0
140781,-91.743119266055,4,1,0,15,0,0
140796,-85.4700854700855,4,1,0,15,0,0
140811,-80.6451612903226,4,1,0,15,0,0
140826,-78.125,4,1,0,15,0,0
140841,-76.9230769230769,4,1,0,15,0,0
140856,-77.5193798449612,4,1,0,15,0,0
140871,-79.3650793650794,4,1,0,15,0,0
140886,-82.6446280991736,4,1,0,15,0,0
140901,-87.719298245614,4,1,0,15,0,0
140916,-95.2380952380952,4,1,0,15,0,0
140931,-105.263157894737,4,1,0,15,0,0
140946,-117.647058823529,4,1,0,15,0,0
140961,-133.333333333333,4,1,0,15,0,0
140976,-151.515151515152,4,1,0,15,0,0
140991,-169.491525423729,4,1,0,15,0,0
141006,-185.185185185185,4,1,0,15,0,0
141021,-196.078431372549,4,1,0,15,0,0
141036,-200,4,1,0,15,0,0
141051,-192.307692307692,4,1,0,15,0,0
141066,-178.571428571429,4,1,0,15,0,0
141081,-158.730158730159,4,1,0,15,0,0
141096,-140.845070422535,4,1,0,15,0,0
141111,-125,4,1,0,15,0,0
141126,-166.666666666667,4,1,0,15,0,0
141501,-111.111111111111,4,1,0,15,0,0
141516,-100,4,1,0,15,0,0
141531,-91.743119266055,4,1,0,15,0,0
141546,-85.4700854700855,4,1,0,15,0,0
141561,-80.6451612903226,4,1,0,15,0,0
141576,-78.125,4,1,0,15,0,0
141591,-76.9230769230769,4,1,0,15,0,0
141606,-77.5193798449612,4,1,0,15,0,0
141621,-79.3650793650794,4,1,0,15,0,0
141636,-82.6446280991736,4,1,0,15,0,0
141651,-87.719298245614,4,1,0,15,0,0
141666,-95.2380952380952,4,1,0,15,0,0
141681,-105.263157894737,4,1,0,15,0,0
141696,-117.647058823529,4,1,0,15,0,0
141711,-133.333333333333,4,1,0,15,0,0
141726,-151.515151515152,4,1,0,15,0,0
141741,-169.491525423729,4,1,0,15,0,0
141756,-185.185185185185,4,1,0,15,0,0
141771,-196.078431372549,4,1,0,15,0,0
141786,-200,4,1,0,15,0,0
141801,-192.307692307692,4,1,0,15,0,0
141816,-178.571428571429,4,1,0,15,0,0
141831,-158.730158730159,4,1,0,15,0,0
141846,-140.845070422535,4,1,0,15,0,0
141861,-125,4,1,0,15,0,0
141876,-111.111111111111,4,1,0,15,0,0
141891,-100,4,1,0,15,0,0
141906,-91.743119266055,4,1,0,15,0,0
141921,-85.4700854700855,4,1,0,15,0,0
141936,-80.6451612903226,4,1,0,15,0,0
141951,-78.125,4,1,0,15,0,0
141966,-76.9230769230769,4,1,0,15,0,0
141981,-77.5193798449612,4,1,0,15,0,0
141996,-79.3650793650794,4,1,0,15,0,0
142011,-82.6446280991736,4,1,0,15,0,0
142026,-87.719298245614,4,1,0,15,0,0
142041,-95.2380952380952,4,1,0,15,0,0
142056,-105.263157894737,4,1,0,15,0,0
142071,-117.647058823529,4,1,0,15,0,0
142086,-133.333333333333,4,1,0,15,0,0
142101,-151.515151515152,4,1,0,15,0,0
142116,-169.491525423729,4,1,0,15,0,0
142131,-185.185185185185,4,1,0,15,0,0
142146,-196.078431372549,4,1,0,15,0,0
142161,-200,4,1,0,15,0,0
142176,-192.307692307692,4,1,0,15,0,0
142191,-178.571428571429,4,1,0,15,0,0
142206,-158.730158730159,4,1,0,15,0,0
142221,-140.845070422535,4,1,0,15,0,0
142236,-125,4,1,0,15,0,0
142251,-111.111111111111,4,1,0,15,0,0
142266,-100,4,1,0,15,0,0
142281,-91.743119266055,4,1,0,15,0,0
142296,-85.4700854700855,4,1,0,15,0,0
142311,-80.6451612903226,4,1,0,15,0,0
142326,-78.125,4,1,0,15,0,0
142341,-76.9230769230769,4,1,0,15,0,0
142356,-77.5193798449612,4,1,0,15,0,0
142371,-79.3650793650794,4,1,0,15,0,0
142386,-82.6446280991736,4,1,0,15,0,0
142401,-87.719298245614,4,1,0,15,0,0
142416,-95.2380952380952,4,1,0,15,0,0
142431,-105.263157894737,4,1,0,15,0,0
142446,-117.647058823529,4,1,0,15,0,0
142461,-133.333333333333,4,1,0,15,0,0
142476,-151.515151515152,4,1,0,15,0,0
142491,-169.491525423729,4,1,0,15,0,0
142506,-185.185185185185,4,1,0,15,0,0
142521,-196.078431372549,4,1,0,15,0,0
142536,-200,4,1,0,15,0,0
142551,-192.307692307692,4,1,0,15,0,0
142566,-178.571428571429,4,1,0,15,0,0
142581,-158.730158730159,4,1,0,15,0,0
142596,-140.845070422535,4,1,0,15,0,0
142611,-125,4,1,0,15,0,0
142626,-111.111111111111,4,1,0,15,0,0
142641,-100,4,1,0,15,0,0
142656,-91.743119266055,4,1,0,15,0,0
142671,-85.4700854700855,4,1,0,15,0,0
142686,-80.6451612903226,4,1,0,15,0,0
142701,-78.125,4,1,0,15,0,0
142716,-76.9230769230769,4,1,0,15,0,0
142731,-77.5193798449612,4,1,0,15,0,0
142746,-79.3650793650794,4,1,0,15,0,0
142761,-82.6446280991736,4,1,0,15,0,0
142776,-87.719298245614,4,1,0,15,0,0
142791,-95.2380952380952,4,1,0,15,0,0
142806,-105.263157894737,4,1,0,15,0,0
142821,-117.647058823529,4,1,0,15,0,0
142836,-133.333333333333,4,1,0,15,0,0
142851,-151.515151515152,4,1,0,15,0,0
142866,-169.491525423729,4,1,0,15,0,0
142881,-185.185185185185,4,1,0,15,0,0
142896,-196.078431372549,4,1,0,15,0,0
142911,-200,4,1,0,15,0,0
142926,-192.307692307692,4,1,0,15,0,0
142941,-178.571428571429,4,1,0,15,0,0
142956,-158.730158730159,4,1,0,15,0,0
142971,-140.845070422535,4,1,0,15,0,0
142986,-125,4,1,0,15,0,0
143001,-111.111111111111,4,1,0,15,0,0
143016,-100,4,1,0,15,0,0
143031,-91.743119266055,4,1,0,15,0,0
143046,-85.4700854700855,4,1,0,15,0,0
143061,-80.6451612903226,4,1,0,15,0,0
143076,-78.125,4,1,0,15,0,0
143091,-76.9230769230769,4,1,0,15,0,0
143106,-77.5193798449612,4,1,0,15,0,0
143121,-79.3650793650794,4,1,0,15,0,0
143136,-82.6446280991736,4,1,0,15,0,0
143151,-87.719298245614,4,1,0,15,0,0
143166,-95.2380952380952,4,1,0,15,0,0
143181,-105.263157894737,4,1,0,15,0,0
143196,-117.647058823529,4,1,0,15,0,0
143211,-133.333333333333,4,1,0,15,0,0
143226,-151.515151515152,4,1,0,15,0,0
143241,-169.491525423729,4,1,0,15,0,0
143256,-185.185185185185,4,1,0,15,0,0
143271,-196.078431372549,4,1,0,15,0,0
143286,-200,4,1,0,15,0,0
143301,-192.307692307692,4,1,0,15,0,0
143316,-178.571428571429,4,1,0,15,0,0
143331,-158.730158730159,4,1,0,15,0,0
143346,-140.845070422535,4,1,0,15,0,0
143361,-125,4,1,0,15,0,0
143376,-111.111111111111,4,1,0,15,0,0
143391,-100,4,1,0,15,0,0
143406,-91.743119266055,4,1,0,15,0,0
143421,-85.4700854700855,4,1,0,15,0,0
143436,-80.6451612903226,4,1,0,15,0,0
143451,-78.125,4,1,0,15,0,0
143466,-76.9230769230769,4,1,0,15,0,0
143481,-77.5193798449612,4,1,0,15,0,0
143496,-79.3650793650794,4,1,0,15,0,0
143511,-82.6446280991736,4,1,0,15,0,0
143526,-87.719298245614,4,1,0,15,0,0
143541,-95.2380952380952,4,1,0,15,0,0
143556,-105.263157894737,4,1,0,15,0,0
143571,-117.647058823529,4,1,0,15,0,0
143586,-133.333333333333,4,1,0,15,0,0
143601,-151.515151515152,4,1,0,15,0,0
143616,-169.491525423729,4,1,0,15,0,0
143631,-185.185185185185,4,1,0,15,0,0
143646,-196.078431372549,4,1,0,15,0,0
143661,-200,4,1,0,15,0,0
143676,-192.307692307692,4,1,0,15,0,0
143691,-178.571428571429,4,1,0,15,0,0
143706,-158.730158730159,4,1,0,15,0,0
143721,-140.845070422535,4,1,0,15,0,0
143736,-125,4,1,0,15,0,0
143751,-111.111111111111,4,1,0,15,0,0
143766,-100,4,1,0,15,0,0
143781,-91.743119266055,4,1,0,15,0,0
143796,-85.4700854700855,4,1,0,15,0,0
143811,-80.6451612903226,4,1,0,15,0,0
143826,-78.125,4,1,0,15,0,0
143841,-76.9230769230769,4,1,0,15,0,0
143856,-77.5193798449612,4,1,0,15,0,0
143871,-79.3650793650794,4,1,0,15,0,0
143886,-82.6446280991736,4,1,0,15,0,0
143901,-87.719298245614,4,1,0,15,0,0
143916,-95.2380952380952,4,1,0,15,0,0
143931,-105.263157894737,4,1,0,15,0,0
143946,-117.647058823529,4,1,0,15,0,0
143961,-133.333333333333,4,1,0,15,0,0
143976,-151.515151515152,4,1,0,15,0,0
143991,-169.491525423729,4,1,0,15,0,0
144006,-185.185185185185,4,1,0,15,0,0
144021,-196.078431372549,4,1,0,15,0,0
144036,-200,4,1,0,15,0,0
144051,-192.307692307692,4,1,0,15,0,0
144066,-178.571428571429,4,1,0,15,0,0
144081,-158.730158730159,4,1,0,15,0,0
144096,-140.845070422535,4,1,0,15,0,0
144111,-125,4,1,0,15,0,0
144126,-111.111111111111,4,1,0,15,0,0
144141,-100,4,1,0,15,0,0
144156,-91.743119266055,4,1,0,15,0,0
144171,-85.4700854700855,4,1,0,15,0,0
144186,-80.6451612903226,4,1,0,15,0,0
144201,-78.125,4,1,0,15,0,0
144216,-76.9230769230769,4,1,0,15,0,0
144231,-77.5193798449612,4,1,0,15,0,0
144246,-79.3650793650794,4,1,0,15,0,0
144261,-82.6446280991736,4,1,0,15,0,0
144276,-87.719298245614,4,1,0,15,0,0
144291,-95.2380952380952,4,1,0,15,0,0
144306,-105.263157894737,4,1,0,15,0,0
144321,-117.647058823529,4,1,0,15,0,0
144336,-133.333333333333,4,1,0,15,0,0
144351,-151.515151515152,4,1,0,15,0,0
144366,-169.491525423729,4,1,0,15,0,0
144381,-185.185185185185,4,1,0,15,0,0
144396,-196.078431372549,4,1,0,15,0,0
144411,-200,4,1,0,15,0,0
144426,-192.307692307692,4,1,0,15,0,0
144441,-178.571428571429,4,1,0,15,0,0
144456,-158.730158730159,4,1,0,15,0,0
144471,-140.845070422535,4,1,0,15,0,0
144486,-125,4,1,0,15,0,0
144501,-76.9230769230769,4,1,0,15,0,0
144519.75,-79.3650793650794,4,1,0,15,0,0
144538.5,-81.9672131147541,4,1,0,15,0,0
144557.25,-84.7457627118644,4,1,0,15,0,0
144576,-87.719298245614,4,1,0,15,0,0
144594.75,-90.9090909090909,4,1,0,15,0,0
144613.5,-94.3396226415094,4,1,0,15,0,0
144632.25,-98.0392156862745,4,1,0,15,0,0
144651,-102.040816326531,4,1,0,15,0,0
144669.75,-106.382978723404,4,1,0,15,0,0
144688.5,-111.111111111111,4,1,0,15,0,0
144707.25,-116.279069767442,4,1,0,15,0,0
144726,-121.951219512195,4,1,0,15,0,0
144744.75,-128.205128205128,4,1,0,15,0,0
144763.5,-135.135135135135,4,1,0,15,0,0
144782.25,-142.857142857143,4,1,0,15,0,0
144801,-151.515151515152,4,1,0,15,0,0
144819.75,-161.290322580645,4,1,0,15,0,0
144838.5,-172.413793103448,4,1,0,15,0,0
144857.25,-185.185185185185,4,1,0,15,0,0
144876,-500,4,1,0,15,0,0
144899,-333.333333333334,4,1,0,15,0,0
144922,-142.857142857143,4,1,0,15,0,0
144946,-125,4,1,0,15,0,0
144969,-90.9090909090909,4,1,0,15,0,0
144993,-76.9230769230769,4,1,0,15,0,0
145016,-62.5,4,1,0,15,0,0
145040,-52.6315789473684,4,1,0,15,0,0
145063,-45.4545454545455,4,1,0,15,0,0
145110,-100,4,1,0,15,0,0
145157,-133.333333333333,4,1,0,15,0,0
145251,-111.111111111111,4,1,0,15,0,0
145266,-100,4,1,0,15,0,0
145281,-91.743119266055,4,1,0,15,0,0
145296,-85.4700854700855,4,1,0,15,0,0
145311,-80.6451612903226,4,1,0,15,0,0
145326,-78.125,4,1,0,15,0,0
145341,-76.9230769230769,4,1,0,15,0,0
145356,-77.5193798449612,4,1,0,15,0,0
145371,-79.3650793650794,4,1,0,15,0,0
145386,-82.6446280991736,4,1,0,15,0,0
145401,-87.719298245614,4,1,0,15,0,0
145416,-95.2380952380952,4,1,0,15,0,0
145431,-105.263157894737,4,1,0,15,0,0
145446,-117.647058823529,4,1,0,15,0,0
145461,-133.333333333333,4,1,0,15,0,0
145476,-151.515151515152,4,1,0,15,0,0
145491,-169.491525423729,4,1,0,15,0,0
145506,-185.185185185185,4,1,0,15,0,0
145521,-196.078431372549,4,1,0,15,0,0
145536,-200,4,1,0,15,0,0
145551,-192.307692307692,4,1,0,15,0,0
145566,-178.571428571429,4,1,0,15,0,0
145581,-158.730158730159,4,1,0,15,0,0
145596,-140.845070422535,4,1,0,15,0,0
145611,-125,4,1,0,15,0,0
145626,-111.111111111111,4,1,0,15,0,0
145641,-100,4,1,0,15,0,0
145656,-91.743119266055,4,1,0,15,0,0
145671,-85.4700854700855,4,1,0,15,0,0
145686,-80.6451612903226,4,1,0,15,0,0
145701,-78.125,4,1,0,15,0,0
145716,-76.9230769230769,4,1,0,15,0,0
145731,-77.5193798449612,4,1,0,15,0,0
145746,-79.3650793650794,4,1,0,15,0,0
145761,-82.6446280991736,4,1,0,15,0,0
145776,-87.719298245614,4,1,0,15,0,0
145791,-95.2380952380952,4,1,0,15,0,0
145806,-105.263157894737,4,1,0,15,0,0
145821,-117.647058823529,4,1,0,15,0,0
145836,-133.333333333333,4,1,0,15,0,0
145851,-151.515151515152,4,1,0,15,0,0
145866,-169.491525423729,4,1,0,15,0,0
145881,-185.185185185185,4,1,0,15,0,0
145896,-196.078431372549,4,1,0,15,0,0
145911,-200,4,1,0,15,0,0
145926,-192.307692307692,4,1,0,15,0,0
145941,-178.571428571429,4,1,0,15,0,0
145956,-158.730158730159,4,1,0,15,0,0
145971,-140.845070422535,4,1,0,15,0,0
145986,-125,4,1,0,15,0,0
146001,-111.111111111111,4,1,0,15,0,0
146016,-100,4,1,0,15,0,0
146031,-91.743119266055,4,1,0,15,0,0
146046,-85.4700854700855,4,1,0,15,0,0
146061,-80.6451612903226,4,1,0,15,0,0
146076,-78.125,4,1,0,15,0,0
146091,-76.9230769230769,4,1,0,15,0,0
146106,-77.5193798449612,4,1,0,15,0,0
146121,-79.3650793650794,4,1,0,15,0,0
146136,-82.6446280991736,4,1,0,15,0,0
146151,-87.719298245614,4,1,0,15,0,0
146166,-95.2380952380952,4,1,0,15,0,0
146181,-105.263157894737,4,1,0,15,0,0
146196,-117.647058823529,4,1,0,15,0,0
146211,-133.333333333333,4,1,0,15,0,0
146226,-151.515151515152,4,1,0,15,0,0
146241,-169.491525423729,4,1,0,15,0,0
146256,-185.185185185185,4,1,0,15,0,0
146271,-196.078431372549,4,1,0,15,0,0
146286,-200,4,1,0,15,0,0
146301,-192.307692307692,4,1,0,15,0,0
146316,-178.571428571429,4,1,0,15,0,0
146331,-158.730158730159,4,1,0,15,0,0
146346,-140.845070422535,4,1,0,15,0,0
146361,-125,4,1,0,15,0,0
146376,-111.111111111111,4,1,0,15,0,0
146391,-100,4,1,0,15,0,0
146406,-91.743119266055,4,1,0,15,0,0
146421,-85.4700854700855,4,1,0,15,0,0
146436,-80.6451612903226,4,1,0,15,0,0
146451,-78.125,4,1,0,15,0,0
146466,-76.9230769230769,4,1,0,15,0,0
146481,-77.5193798449612,4,1,0,15,0,0
146496,-79.3650793650794,4,1,0,15,0,0
146511,-82.6446280991736,4,1,0,15,0,0
146526,-87.719298245614,4,1,0,15,0,0
146541,-95.2380952380952,4,1,0,15,0,0
146556,-105.263157894737,4,1,0,15,0,0
146571,-117.647058823529,4,1,0,15,0,0
146586,-133.333333333333,4,1,0,15,0,0
146601,-151.515151515152,4,1,0,15,0,0
146616,-169.491525423729,4,1,0,15,0,0
146631,-185.185185185185,4,1,0,15,0,0
146646,-196.078431372549,4,1,0,15,0,0
146661,-200,4,1,0,15,0,0
146676,-192.307692307692,4,1,0,15,0,0
146691,-178.571428571429,4,1,0,15,0,0
146706,-158.730158730159,4,1,0,15,0,0
146721,-140.845070422535,4,1,0,15,0,0
146736,-125,4,1,0,15,0,0
146751,-111.111111111111,4,1,0,15,0,0
146766,-100,4,1,0,15,0,0
146781,-91.743119266055,4,1,0,15,0,0
146796,-85.4700854700855,4,1,0,15,0,0
146811,-80.6451612903226,4,1,0,15,0,0
146826,-78.125,4,1,0,15,0,0
146841,-76.9230769230769,4,1,0,15,0,0
146856,-77.5193798449612,4,1,0,15,0,0
146871,-79.3650793650794,4,1,0,15,0,0
146886,-82.6446280991736,4,1,0,15,0,0
146901,-87.719298245614,4,1,0,15,0,0
146916,-95.2380952380952,4,1,0,15,0,0
146931,-105.263157894737,4,1,0,15,0,0
146946,-117.647058823529,4,1,0,15,0,0
146961,-133.333333333333,4,1,0,15,0,0
146976,-151.515151515152,4,1,0,15,0,0
146991,-169.491525423729,4,1,0,15,0,0
147006,-185.185185185185,4,1,0,15,0,0
147021,-196.078431372549,4,1,0,15,0,0
147036,-200,4,1,0,15,0,0
147051,-192.307692307692,4,1,0,15,0,0
147066,-178.571428571429,4,1,0,15,0,0
147081,-158.730158730159,4,1,0,15,0,0
147096,-140.845070422535,4,1,0,15,0,0
147111,-125,4,1,0,15,0,0
147126,-111.111111111111,4,1,0,15,0,0
147141,-100,4,1,0,15,0,0
147156,-91.743119266055,4,1,0,15,0,0
147171,-85.4700854700855,4,1,0,15,0,0
147186,-80.6451612903226,4,1,0,15,0,0
147201,-78.125,4,1,0,15,0,0
147216,-76.9230769230769,4,1,0,15,0,0
147231,-77.5193798449612,4,1,0,15,0,0
147246,-79.3650793650794,4,1,0,15,0,0
147261,-82.6446280991736,4,1,0,15,0,0
147276,-87.719298245614,4,1,0,15,0,0
147291,-95.2380952380952,4,1,0,15,0,0
147306,-105.263157894737,4,1,0,15,0,0
147321,-117.647058823529,4,1,0,15,0,0
147336,-133.333333333333,4,1,0,15,0,0
147351,-151.515151515152,4,1,0,15,0,0
147366,-169.491525423729,4,1,0,15,0,0
147381,-185.185185185185,4,1,0,15,0,0
147396,-196.078431372549,4,1,0,15,0,0
147411,-200,4,1,0,15,0,0
147426,-192.307692307692,4,1,0,15,0,0
147441,-178.571428571429,4,1,0,15,0,0
147456,-158.730158730159,4,1,0,15,0,0
147471,-140.845070422535,4,1,0,15,0,0
147486,-125,4,1,0,15,0,0
147501,-83.3333333333333,4,1,0,15,0,0
147688,-90.9090909090909,4,1,0,25,0,0
147876,-100,4,1,0,25,0,0
148251,-105.263157894737,4,1,0,25,0,0
148626,-111.111111111111,4,1,0,25,0,0
149001,-117.647058823529,4,1,0,25,0,0
149376,-125,4,1,0,25,0,0
149751,-133.333333333333,4,1,0,25,0,0
150126,-142.857142857143,4,1,0,25,0,0
168501,-133.333333333333,4,1,0,25,0,0
170001,-125,4,1,0,25,0,0
171501,-105.263157894737,4,1,0,25,0,0
171876,-95.2380952380952,4,1,0,25,0,0
172251,-83.3333333333333,4,1,0,25,0,0
172626,-76.9230769230769,4,1,0,25,0,0
173001,-100,4,1,0,25,0,0
173376,-111.111111111111,4,1,0,25,0,0
173751,-125,4,1,0,25,0,0
174126,-142.857142857143,4,1,0,25,0,0
174219,-125,4,1,0,25,0,0
174313,-111.111111111111,4,1,0,25,0,0
174407,-100,4,1,0,25,0,0
174501,-90.9090909090909,4,1,0,25,0,0
174594,-100,4,1,0,25,0,0
174688,-111.111111111111,4,1,0,25,0,0
174782,-125,4,1,0,25,0,0
182001,-111.111111111111,4,1,0,25,0,0
183501,-99.9999999999999,4,1,0,25,0,0
185001,-90.9090909090909,4,1,0,25,0,0
186126,-100,4,1,0,25,0,0
186172,-111.111111111111,4,1,0,25,0,0
186219,-125,4,1,0,25,0,0
186266,-142.857142857143,4,1,0,25,0,0
186313,-166.666666666667,4,1,0,25,0,0
186360,-200,4,1,0,25,0,0
186407,-250,4,1,0,25,0,0
186454,-333.333333333333,4,1,0,25,0,0
186501,-50,4,1,0,25,0,0
186547,-55.5555555555556,4,1,0,25,0,0
186594,-62.5,4,1,0,25,0,0
186641,-71.4285714285714,4,1,0,25,0,0
186688,-90.909090909091,4,1,0,25,0,0
186735,-142.857142857143,4,1,0,25,0,0
186782,-250.000000000001,4,1,0,25,0,0
186829,-1000,4,1,0,25,0,0
186876,-500,4,1,0,25,0,0
186922,-250,4,1,0,25,0,0
186969,-166.666666666667,4,1,0,25,0,0
187016,-125,4,1,0,25,0,0
187063,-100,4,1,0,25,0,0
187110,-83.3333333333333,4,1,0,25,0,0
187157,-76.9230769230769,4,1,0,25,0,0
187204,-71.4285714285714,4,1,0,25,0,0
187251,-50,4,1,0,25,0,0
187297,-55.5555555555556,4,1,0,25,0,0
187344,-62.5,4,1,0,25,0,0
187391,-71.4285714285714,4,1,0,25,0,0
187438,-90.909090909091,4,1,0,25,0,0
187485,-142.857142857143,4,1,0,25,0,0
187532,-250.000000000001,4,1,0,25,0,0
187579,-1000,4,1,0,25,0,0
187626,-500,4,1,0,25,0,0
187672,-250,4,1,0,25,0,0
187719,-166.666666666667,4,1,0,25,0,0
187766,-125,4,1,0,25,0,0
187813,-100,4,1,0,25,0,0
187860,-83.3333333333333,4,1,0,25,0,0
187907,-76.9230769230769,4,1,0,25,0,0
187954,-71.4285714285714,4,1,0,25,0,0
188001,-50,4,1,0,25,0,0
188047,-55.5555555555556,4,1,0,25,0,0
188094,-62.5,4,1,0,25,0,0
188141,-71.4285714285714,4,1,0,25,0,0
188188,-90.909090909091,4,1,0,25,0,0
188235,-142.857142857143,4,1,0,25,0,0
188282,-250.000000000001,4,1,0,25,0,0
188329,-1000,4,1,0,25,0,0
188376,-500,4,1,0,25,0,0
188422,-250,4,1,0,25,0,0
188469,-166.666666666667,4,1,0,25,0,0
188516,-125,4,1,0,25,0,0
188563,-100,4,1,0,25,0,0
188610,-83.3333333333333,4,1,0,25,0,0
188657,-76.9230769230769,4,1,0,25,0,0
188704,-71.4285714285714,4,1,0,25,0,0
188751,-50,4,1,0,25,0,0
188797,-55.5555555555556,4,1,0,25,0,0
188844,-62.5,4,1,0,25,0,0
188891,-71.4285714285714,4,1,0,25,0,0
188938,-90.909090909091,4,1,0,25,0,0
188985,-142.857142857143,4,1,0,25,0,0
189032,-250.000000000001,4,1,0,25,0,0
189079,-1000,4,1,0,25,0,0
189126,-250,4,1,0,25,0,0
189172,-125,4,1,0,25,0,0
189219,-90.909090909091,4,1,0,25,0,0
189266,-76.9230769230769,4,1,0,25,0,0
189313,-58.8235294117647,4,1,0,25,0,0
189360,-71.4285714285714,4,1,0,25,0,0
189407,-142.857142857143,4,1,0,25,0,0
189454,-250,4,1,0,25,0,0
189501,-50,4,1,0,25,0,0
189547,-55.5555555555556,4,1,0,25,0,0
189594,-62.5,4,1,0,25,0,0
189641,-71.4285714285714,4,1,0,25,0,0
189688,-90.909090909091,4,1,0,25,0,0
189735,-142.857142857143,4,1,0,25,0,0
189782,-250.000000000001,4,1,0,25,0,0
189829,-1000,4,1,0,25,0,0
189876,-500,4,1,0,25,0,0
189922,-250,4,1,0,25,0,0
189969,-166.666666666667,4,1,0,25,0,0
190016,-125,4,1,0,25,0,0
190063,-100,4,1,0,25,0,0
190110,-83.3333333333333,4,1,0,25,0,0
190157,-76.9230769230769,4,1,0,25,0,0
190204,-71.4285714285714,4,1,0,25,0,0
190251,-50,4,1,0,25,0,0
190297,-55.5555555555556,4,1,0,25,0,0
190344,-62.5,4,1,0,25,0,0
190391,-71.4285714285714,4,1,0,25,0,0
190438,-90.909090909091,4,1,0,25,0,0
190485,-142.857142857143,4,1,0,25,0,0
190532,-250.000000000001,4,1,0,25,0,0
190579,-1000,4,1,0,25,0,0
190626,-250,4,1,0,25,0,0
190672,-125,4,1,0,25,0,0
190719,-90.909090909091,4,1,0,25,0,0
190766,-76.9230769230769,4,1,0,25,0,0
190813,-58.8235294117647,4,1,0,25,0,0
190860,-71.4285714285714,4,1,0,25,0,0
190907,-142.857142857143,4,1,0,25,0,0
190954,-250,4,1,0,25,0,0
191001,-58.8235294117647,4,1,0,25,0,0
191047,-66.6666666666667,4,1,0,25,0,0
191094,-83.3333333333333,4,1,0,25,0,0
191141,-111.111111111111,4,1,0,25,0,0
191188,-166.666666666667,4,1,0,25,0,0
191235,-333.333333333333,4,1,0,25,0,0
191282,-58.8235294117647,4,1,0,25,0,0
191329,-66.6666666666667,4,1,0,25,0,0
191376,-83.3333333333333,4,1,0,25,0,0
191422,-111.111111111111,4,1,0,25,0,0
191469,-166.666666666667,4,1,0,25,0,0
191516,-333.333333333333,4,1,0,25,0,0
191563,-58.8235294117647,4,1,0,25,0,0
191610,-66.6666666666667,4,1,0,25,0,0
191657,-83.3333333333333,4,1,0,25,0,0
191704,-111.111111111111,4,1,0,25,0,0
191751,-166.666666666667,4,1,0,25,0,0
191797,-333.333333333333,4,1,0,25,0,0
191844,-58.8235294117647,4,1,0,25,0,0
191891,-66.6666666666667,4,1,0,25,0,0
191938,-83.3333333333333,4,1,0,25,0,0
191985,-111.111111111111,4,1,0,25,0,0
192032,-166.666666666667,4,1,0,25,0,0
192079,-333.333333333333,4,1,0,25,0,0
192126,-58.8235294117647,4,1,0,25,0,0
192172,-66.6666666666667,4,1,0,25,0,0
192219,-76.9230769230769,4,1,0,25,0,0
192266,-90.9090909090909,4,1,0,25,0,0
192313,-111.111111111111,4,1,0,25,0,0
192360,-142.857142857143,4,1,0,25,0,0
192407,-200,4,1,0,25,0,0
192454,-333.333333333333,4,1,0,25,0,0
192501,-100,4,1,0,25,0,0
197001,-52.6315789473684,4,1,0,25,0,0
197094,-58.8235294117647,4,1,0,25,0,0
197188,-66.6666666666667,4,1,0,25,0,0
197282,-76.9230769230769,4,1,0,25,0,0
197376,-90.9090909090908,4,1,0,25,0,0
197469,-111.111111111111,4,1,0,25,0,0
197563,-142.857142857143,4,1,0,25,0,0
197657,-200,4,1,0,25,0,0
197751,-333.333333333336,4,1,0,25,0,0
197844,-1000.00000000002,4,1,0,25,0,0
197891,-333.333333333333,4,1,0,25,0,0
197938,-200,4,1,0,25,0,0
197985,-111.111111111111,4,1,0,25,0,0
198032,-83.3333333333333,4,1,0,25,0,0
198079,-66.6666666666667,4,1,0,25,0,0
198126,-55.5555555555556,4,1,0,25,0,0
198172,-66.6666666666667,4,1,0,25,0,0
198219,-76.9230769230769,4,1,0,25,0,0
198266,-90.9090909090909,4,1,0,25,0,0
198313,-111.111111111111,4,1,0,25,0,0
198360,-142.857142857143,4,1,0,25,0,0
198407,-200,4,1,0,25,0,0
198454,-500,4,1,0,25,0,0
198501,-100,4,1,0,25,0,1
213126,-111.111111111111,4,1,0,25,0,1
213501,-100,4,1,0,25,0,1
216501,-90.9090909090909,4,1,0,25,0,1
216876,-111.111111111111,4,1,0,25,0,1
218001,-90.9090909090909,4,1,0,25,0,1
218376,-111.111111111111,4,1,0,25,0,1
219501,-90.9090909090909,4,1,0,25,0,1
219876,-111.111111111111,4,1,0,25,0,1
220251,-90.9090909090909,4,1,0,25,0,1
220626,-111.111111111111,4,1,0,25,0,1
221001,-166.666666666667,4,1,0,25,0,1
221188,-142.857142857143,4,1,0,25,0,1
221376,-125,4,1,0,25,0,1
221563,-111.111111111111,4,1,0,25,0,1
221751,-100,4,1,0,25,0,1
221938,-90.9090909090909,4,1,0,25,0,1
222126,-52.6315789473684,4,1,0,25,0,1
222219,-66.6666666666667,4,1,0,25,0,1
222313,-142.857142857143,4,1,0,25,0,1
222407,-333.333333333333,4,1,0,25,0,1
222501,-105.263157894737,4,1,0,15,0,0
222516,-98.0392156862745,4,1,0,15,0,0
222531,-91.743119266055,4,1,0,15,0,0
222546,-86.2068965517241,4,1,0,15,0,0
222561,-83.3333333333333,4,1,0,15,0,0
222576,-80.6451612903226,4,1,0,15,0,0
222591,-80,4,1,0,15,0,0
222606,-80.6451612903226,4,1,0,15,0,0
222621,-81.9672131147541,4,1,0,15,0,0
222636,-84.7457627118644,4,1,0,15,0,0
222651,-88.495575221239,4,1,0,15,0,0
222666,-94.3396226415094,4,1,0,15,0,0
222681,-101.010101010101,4,1,0,15,0,0
222696,-109.89010989011,4,1,0,15,0,0
222711,-119.047619047619,4,1,0,15,0,0
222726,-129.87012987013,4,1,0,15,0,0
222741,-138.888888888889,4,1,0,15,0,0
222756,-147.058823529412,4,1,0,15,0,0
222771,-151.515151515152,4,1,0,15,0,0
222786,-153.846153846154,4,1,0,15,0,0
222801,-151.515151515152,4,1,0,15,0,0
222816,-142.857142857143,4,1,0,15,0,0
222831,-135.135135135135,4,1,0,15,0,0
222846,-123.456790123457,4,1,0,15,0,0
222861,-113.636363636364,4,1,0,15,0,0
222876,-105.263157894737,4,1,0,15,0,0
222891,-98.0392156862745,4,1,0,15,0,0
222906,-91.743119266055,4,1,0,15,0,0
222921,-86.2068965517241,4,1,0,15,0,0
222936,-83.3333333333333,4,1,0,15,0,0
222951,-80.6451612903226,4,1,0,15,0,0
222966,-80,4,1,0,15,0,0
222981,-80.6451612903226,4,1,0,15,0,0
222996,-81.9672131147541,4,1,0,15,0,0
223011,-84.7457627118644,4,1,0,15,0,0
223026,-88.495575221239,4,1,0,15,0,0
223041,-94.3396226415094,4,1,0,15,0,0
223056,-101.010101010101,4,1,0,15,0,0
223071,-109.89010989011,4,1,0,15,0,0
223086,-119.047619047619,4,1,0,15,0,0
223101,-129.87012987013,4,1,0,15,0,0
223116,-138.888888888889,4,1,0,15,0,0
223131,-147.058823529412,4,1,0,15,0,0
223146,-151.515151515152,4,1,0,15,0,0
223161,-153.846153846154,4,1,0,15,0,0
223176,-151.515151515152,4,1,0,15,0,0
223191,-142.857142857143,4,1,0,15,0,0
223206,-135.135135135135,4,1,0,15,0,0
223221,-123.456790123457,4,1,0,15,0,0
223236,-113.636363636364,4,1,0,15,0,0
223251,-105.263157894737,4,1,0,15,0,0
223266,-98.0392156862745,4,1,0,15,0,0
223281,-91.743119266055,4,1,0,15,0,0
223296,-86.2068965517241,4,1,0,15,0,0
223311,-83.3333333333333,4,1,0,15,0,0
223326,-80.6451612903226,4,1,0,15,0,0
223341,-80,4,1,0,15,0,0
223356,-80.6451612903226,4,1,0,15,0,0
223371,-81.9672131147541,4,1,0,15,0,0
223386,-84.7457627118644,4,1,0,15,0,0
223401,-88.495575221239,4,1,0,15,0,0
223416,-94.3396226415094,4,1,0,15,0,0
223431,-101.010101010101,4,1,0,15,0,0
223446,-109.89010989011,4,1,0,15,0,0
223461,-119.047619047619,4,1,0,15,0,0
223476,-129.87012987013,4,1,0,15,0,0
223491,-138.888888888889,4,1,0,15,0,0
223506,-147.058823529412,4,1,0,15,0,0
223521,-151.515151515152,4,1,0,15,0,0
223536,-153.846153846154,4,1,0,15,0,0
223551,-151.515151515152,4,1,0,15,0,0
223566,-142.857142857143,4,1,0,15,0,0
223581,-135.135135135135,4,1,0,15,0,0
223596,-123.456790123457,4,1,0,15,0,0
223611,-113.636363636364,4,1,0,15,0,0
223626,-105.263157894737,4,1,0,15,0,0
223641,-98.0392156862745,4,1,0,15,0,0
223656,-91.743119266055,4,1,0,15,0,0
223671,-86.2068965517241,4,1,0,15,0,0
223686,-83.3333333333333,4,1,0,15,0,0
223701,-80.6451612903226,4,1,0,15,0,0
223716,-80,4,1,0,15,0,0
223731,-80.6451612903226,4,1,0,15,0,0
223746,-81.9672131147541,4,1,0,15,0,0
223761,-84.7457627118644,4,1,0,15,0,0
223776,-88.495575221239,4,1,0,15,0,0
223791,-94.3396226415094,4,1,0,15,0,0
223806,-101.010101010101,4,1,0,15,0,0
223821,-109.89010989011,4,1,0,15,0,0
223836,-119.047619047619,4,1,0,15,0,0
223851,-129.87012987013,4,1,0,15,0,0
223866,-138.888888888889,4,1,0,15,0,0
223881,-147.058823529412,4,1,0,15,0,0
223896,-151.515151515152,4,1,0,15,0,0
223911,-153.846153846154,4,1,0,15,0,0
223926,-151.515151515152,4,1,0,15,0,0
223941,-142.857142857143,4,1,0,15,0,0
223956,-135.135135135135,4,1,0,15,0,0
223971,-123.456790123457,4,1,0,15,0,0
223986,-113.636363636364,4,1,0,15,0,0
224001,-105.263157894737,4,1,0,15,0,0
224016,-98.0392156862745,4,1,0,15,0,0
224031,-91.743119266055,4,1,0,15,0,0
224046,-86.2068965517241,4,1,0,15,0,0
224061,-83.3333333333333,4,1,0,15,0,0
224076,-80.6451612903226,4,1,0,15,0,0
224091,-80,4,1,0,15,0,0
224106,-80.6451612903226,4,1,0,15,0,0
224121,-81.9672131147541,4,1,0,15,0,0
224136,-84.7457627118644,4,1,0,15,0,0
224151,-88.495575221239,4,1,0,15,0,0
224166,-94.3396226415094,4,1,0,15,0,0
224181,-101.010101010101,4,1,0,15,0,0
224196,-109.89010989011,4,1,0,15,0,0
224211,-119.047619047619,4,1,0,15,0,0
224226,-129.87012987013,4,1,0,15,0,0
224241,-138.888888888889,4,1,0,15,0,0
224256,-147.058823529412,4,1,0,15,0,0
224271,-151.515151515152,4,1,0,15,0,0
224286,-153.846153846154,4,1,0,15,0,0
224301,-151.515151515152,4,1,0,15,0,0
224316,-142.857142857143,4,1,0,15,0,0
224331,-135.135135135135,4,1,0,15,0,0
224346,-123.456790123457,4,1,0,15,0,0
224361,-113.636363636364,4,1,0,15,0,0
224376,-105.263157894737,4,1,0,15,0,0
224391,-98.0392156862745,4,1,0,15,0,0
224406,-91.743119266055,4,1,0,15,0,0
224421,-86.2068965517241,4,1,0,15,0,0
224436,-83.3333333333333,4,1,0,15,0,0
224451,-80.6451612903226,4,1,0,15,0,0
224466,-80,4,1,0,15,0,0
224481,-80.6451612903226,4,1,0,15,0,0
224496,-81.9672131147541,4,1,0,15,0,0
224511,-84.7457627118644,4,1,0,15,0,0
224526,-88.495575221239,4,1,0,15,0,0
224541,-94.3396226415094,4,1,0,15,0,0
224556,-101.010101010101,4,1,0,15,0,0
224571,-109.89010989011,4,1,0,15,0,0
224586,-119.047619047619,4,1,0,15,0,0
224601,-129.87012987013,4,1,0,15,0,0
224616,-138.888888888889,4,1,0,15,0,0
224631,-147.058823529412,4,1,0,15,0,0
224646,-151.515151515152,4,1,0,15,0,0
224661,-153.846153846154,4,1,0,15,0,0
224676,-151.515151515152,4,1,0,15,0,0
224691,-142.857142857143,4,1,0,15,0,0
224706,-135.135135135135,4,1,0,15,0,0
224721,-123.456790123457,4,1,0,15,0,0
224736,-113.636363636364,4,1,0,15,0,0
224751,-105.263157894737,4,1,0,15,0,0
224766,-98.0392156862745,4,1,0,15,0,0
224781,-91.743119266055,4,1,0,15,0,0
224796,-86.2068965517241,4,1,0,15,0,0
224811,-83.3333333333333,4,1,0,15,0,0
224826,-80.6451612903226,4,1,0,15,0,0
224841,-80,4,1,0,15,0,0
224856,-80.6451612903226,4,1,0,15,0,0
224871,-81.9672131147541,4,1,0,15,0,0
224886,-84.7457627118644,4,1,0,15,0,0
224901,-88.495575221239,4,1,0,15,0,0
224916,-94.3396226415094,4,1,0,15,0,0
224931,-101.010101010101,4,1,0,15,0,0
224946,-109.89010989011,4,1,0,15,0,0
224961,-119.047619047619,4,1,0,15,0,0
224976,-129.87012987013,4,1,0,15,0,0
224991,-138.888888888889,4,1,0,15,0,0
225006,-147.058823529412,4,1,0,15,0,0
225021,-151.515151515152,4,1,0,15,0,0
225036,-153.846153846154,4,1,0,15,0,0
225051,-151.515151515152,4,1,0,15,0,0
225066,-142.857142857143,4,1,0,15,0,0
225081,-135.135135135135,4,1,0,15,0,0
225096,-123.456790123457,4,1,0,15,0,0
225111,-113.636363636364,4,1,0,15,0,0
225126,-105.263157894737,4,1,0,15,0,0
225141,-98.0392156862745,4,1,0,15,0,0
225156,-91.743119266055,4,1,0,15,0,0
225171,-86.2068965517241,4,1,0,15,0,0
225186,-83.3333333333333,4,1,0,15,0,0
225201,-80.6451612903226,4,1,0,15,0,0
225216,-80,4,1,0,15,0,0
225231,-80.6451612903226,4,1,0,15,0,0
225246,-81.9672131147541,4,1,0,15,0,0
225261,-84.7457627118644,4,1,0,15,0,0
225276,-88.495575221239,4,1,0,15,0,0
225291,-94.3396226415094,4,1,0,15,0,0
225306,-101.010101010101,4,1,0,15,0,0
225321,-109.89010989011,4,1,0,15,0,0
225336,-119.047619047619,4,1,0,15,0,0
225351,-129.87012987013,4,1,0,15,0,0
225366,-138.888888888889,4,1,0,15,0,0
225381,-147.058823529412,4,1,0,15,0,0
225396,-151.515151515152,4,1,0,15,0,0
225411,-153.846153846154,4,1,0,15,0,0
225426,-151.515151515152,4,1,0,15,0,0
225441,-142.857142857143,4,1,0,15,0,0
225456,-135.135135135135,4,1,0,15,0,0
225471,-123.456790123457,4,1,0,15,0,0
225486,-113.636363636364,4,1,0,15,0,0
225501,-105.263157894737,4,1,0,15,0,0
225516,-98.0392156862745,4,1,0,15,0,0
225531,-91.743119266055,4,1,0,15,0,0
225546,-86.2068965517241,4,1,0,15,0,0
225561,-83.3333333333333,4,1,0,15,0,0
225576,-80.6451612903226,4,1,0,15,0,0
225591,-80,4,1,0,15,0,0
225606,-80.6451612903226,4,1,0,15,0,0
225621,-81.9672131147541,4,1,0,15,0,0
225636,-84.7457627118644,4,1,0,15,0,0
225651,-88.495575221239,4,1,0,15,0,0
225666,-94.3396226415094,4,1,0,15,0,0
225681,-101.010101010101,4,1,0,15,0,0
225696,-109.89010989011,4,1,0,15,0,0
225711,-119.047619047619,4,1,0,15,0,0
225726,-129.87012987013,4,1,0,15,0,0
225741,-138.888888888889,4,1,0,15,0,0
225756,-147.058823529412,4,1,0,15,0,0
225771,-151.515151515152,4,1,0,15,0,0
225786,-153.846153846154,4,1,0,15,0,0
225801,-151.515151515152,4,1,0,15,0,0
225816,-142.857142857143,4,1,0,15,0,0
225831,-135.135135135135,4,1,0,15,0,0
225846,-123.456790123457,4,1,0,15,0,0
225861,-113.636363636364,4,1,0,15,0,0
225876,-105.263157894737,4,1,0,15,0,0
225891,-98.0392156862745,4,1,0,15,0,0
225906,-91.743119266055,4,1,0,15,0,0
225921,-86.2068965517241,4,1,0,15,0,0
225936,-83.3333333333333,4,1,0,15,0,0
225951,-80.6451612903226,4,1,0,15,0,0
225966,-80,4,1,0,15,0,0
225981,-80.6451612903226,4,1,0,15,0,0
225996,-81.9672131147541,4,1,0,15,0,0
226011,-84.7457627118644,4,1,0,15,0,0
226026,-88.495575221239,4,1,0,15,0,0
226041,-94.3396226415094,4,1,0,15,0,0
226056,-101.010101010101,4,1,0,15,0,0
226071,-109.89010989011,4,1,0,15,0,0
226086,-119.047619047619,4,1,0,15,0,0
226101,-129.87012987013,4,1,0,15,0,0
226116,-138.888888888889,4,1,0,15,0,0
226131,-147.058823529412,4,1,0,15,0,0
226146,-151.515151515152,4,1,0,15,0,0
226161,-153.846153846154,4,1,0,15,0,0
226176,-151.515151515152,4,1,0,15,0,0
226191,-142.857142857143,4,1,0,15,0,0
226206,-135.135135135135,4,1,0,15,0,0
226221,-123.456790123457,4,1,0,15,0,0
226236,-113.636363636364,4,1,0,15,0,0
226251,-105.263157894737,4,1,0,15,0,0
226266,-98.0392156862745,4,1,0,15,0,0
226281,-91.743119266055,4,1,0,15,0,0
226296,-86.2068965517241,4,1,0,15,0,0
226311,-83.3333333333333,4,1,0,15,0,0
226326,-80.6451612903226,4,1,0,15,0,0
226341,-80,4,1,0,15,0,0
226356,-80.6451612903226,4,1,0,15,0,0
226371,-81.9672131147541,4,1,0,15,0,0
226386,-84.7457627118644,4,1,0,15,0,0
226401,-88.495575221239,4,1,0,15,0,0
226416,-94.3396226415094,4,1,0,15,0,0
226431,-101.010101010101,4,1,0,15,0,0
226446,-109.89010989011,4,1,0,15,0,0
226461,-119.047619047619,4,1,0,15,0,0
226476,-129.87012987013,4,1,0,15,0,0
226491,-138.888888888889,4,1,0,15,0,0
226506,-147.058823529412,4,1,0,15,0,0
226521,-151.515151515152,4,1,0,15,0,0
226536,-153.846153846154,4,1,0,15,0,0
226551,-151.515151515152,4,1,0,15,0,0
226566,-142.857142857143,4,1,0,15,0,0
226581,-135.135135135135,4,1,0,15,0,0
226596,-123.456790123457,4,1,0,15,0,0
226611,-113.636363636364,4,1,0,15,0,0
226626,-105.263157894737,4,1,0,15,0,0
226641,-98.0392156862745,4,1,0,15,0,0
226656,-91.743119266055,4,1,0,15,0,0
226671,-86.2068965517241,4,1,0,15,0,0
226686,-83.3333333333333,4,1,0,15,0,0
226701,-80.6451612903226,4,1,0,15,0,0
226716,-80,4,1,0,15,0,0
226731,-80.6451612903226,4,1,0,15,0,0
226746,-81.9672131147541,4,1,0,15,0,0
226761,-84.7457627118644,4,1,0,15,0,0
226776,-88.495575221239,4,1,0,15,0,0
226791,-94.3396226415094,4,1,0,15,0,0
226806,-101.010101010101,4,1,0,15,0,0
226821,-109.89010989011,4,1,0,15,0,0
226836,-119.047619047619,4,1,0,15,0,0
226851,-129.87012987013,4,1,0,15,0,0
226866,-138.888888888889,4,1,0,15,0,0
226881,-147.058823529412,4,1,0,15,0,0
226896,-151.515151515152,4,1,0,15,0,0
226911,-153.846153846154,4,1,0,15,0,0
226926,-151.515151515152,4,1,0,15,0,0
226941,-142.857142857143,4,1,0,15,0,0
226956,-135.135135135135,4,1,0,15,0,0
226971,-123.456790123457,4,1,0,15,0,0
226986,-113.636363636364,4,1,0,15,0,0
227001,-105.263157894737,4,1,0,15,0,0
227016,-98.0392156862745,4,1,0,15,0,0
227031,-91.743119266055,4,1,0,15,0,0
227046,-86.2068965517241,4,1,0,15,0,0
227061,-83.3333333333333,4,1,0,15,0,0
227076,-80.6451612903226,4,1,0,15,0,0
227091,-80,4,1,0,15,0,0
227106,-80.6451612903226,4,1,0,15,0,0
227121,-81.9672131147541,4,1,0,15,0,0
227136,-84.7457627118644,4,1,0,15,0,0
227151,-88.495575221239,4,1,0,15,0,0
227166,-94.3396226415094,4,1,0,15,0,0
227181,-101.010101010101,4,1,0,15,0,0
227196,-109.89010989011,4,1,0,15,0,0
227211,-119.047619047619,4,1,0,15,0,0
227226,-129.87012987013,4,1,0,15,0,0
227241,-138.888888888889,4,1,0,15,0,0
227256,-147.058823529412,4,1,0,15,0,0
227271,-151.515151515152,4,1,0,15,0,0
227286,-153.846153846154,4,1,0,15,0,0
227301,-151.515151515152,4,1,0,15,0,0
227316,-142.857142857143,4,1,0,15,0,0
227331,-135.135135135135,4,1,0,15,0,0
227346,-123.456790123457,4,1,0,15,0,0
227361,-113.636363636364,4,1,0,15,0,0
227376,-105.263157894737,4,1,0,15,0,0
227391,-98.0392156862745,4,1,0,15,0,0
227406,-91.743119266055,4,1,0,15,0,0
227421,-86.2068965517241,4,1,0,15,0,0
227436,-83.3333333333333,4,1,0,15,0,0
227451,-80.6451612903226,4,1,0,15,0,0
227466,-80,4,1,0,15,0,0
227481,-80.6451612903226,4,1,0,15,0,0
227496,-81.9672131147541,4,1,0,15,0,0
227511,-84.7457627118644,4,1,0,15,0,0
227526,-88.495575221239,4,1,0,15,0,0
227541,-94.3396226415094,4,1,0,15,0,0
227556,-101.010101010101,4,1,0,15,0,0
227571,-109.89010989011,4,1,0,15,0,0
227586,-119.047619047619,4,1,0,15,0,0
227601,-129.87012987013,4,1,0,15,0,0
227616,-138.888888888889,4,1,0,15,0,0
227631,-147.058823529412,4,1,0,15,0,0
227646,-151.515151515152,4,1,0,15,0,0
227661,-153.846153846154,4,1,0,15,0,0
227676,-151.515151515152,4,1,0,15,0,0
227691,-142.857142857143,4,1,0,15,0,0
227706,-135.135135135135,4,1,0,15,0,0
227721,-123.456790123457,4,1,0,15,0,0
227736,-113.636363636364,4,1,0,15,0,0
227751,-105.263157894737,4,1,0,15,0,0
227766,-98.0392156862745,4,1,0,15,0,0
227781,-91.743119266055,4,1,0,15,0,0
227796,-86.2068965517241,4,1,0,15,0,0
227811,-83.3333333333333,4,1,0,15,0,0
227826,-80.6451612903226,4,1,0,15,0,0
227841,-80,4,1,0,15,0,0
227856,-80.6451612903226,4,1,0,15,0,0
227871,-81.9672131147541,4,1,0,15,0,0
227886,-84.7457627118644,4,1,0,15,0,0
227901,-88.495575221239,4,1,0,15,0,0
227916,-94.3396226415094,4,1,0,15,0,0
227931,-101.010101010101,4,1,0,15,0,0
227946,-109.89010989011,4,1,0,15,0,0
227961,-119.047619047619,4,1,0,15,0,0
227976,-129.87012987013,4,1,0,15,0,0
227991,-138.888888888889,4,1,0,15,0,0
228006,-147.058823529412,4,1,0,15,0,0
228021,-151.515151515152,4,1,0,15,0,0
228036,-153.846153846154,4,1,0,15,0,0
228051,-151.515151515152,4,1,0,15,0,0
228066,-142.857142857143,4,1,0,15,0,0
228081,-135.135135135135,4,1,0,15,0,0
228096,-123.456790123457,4,1,0,15,0,0
228111,-113.636363636364,4,1,0,15,0,0
228126,-105.263157894737,4,1,0,15,0,0
228141,-98.0392156862745,4,1,0,15,0,0
228156,-91.743119266055,4,1,0,15,0,0
228171,-86.2068965517241,4,1,0,15,0,0
228186,-83.3333333333333,4,1,0,15,0,0
228201,-80.6451612903226,4,1,0,15,0,0
228216,-80,4,1,0,15,0,0
228231,-80.6451612903226,4,1,0,15,0,0
228246,-81.9672131147541,4,1,0,15,0,0
228261,-84.7457627118644,4,1,0,15,0,0
228276,-88.495575221239,4,1,0,15,0,0
228291,-94.3396226415094,4,1,0,15,0,0
228306,-101.010101010101,4,1,0,15,0,0
228321,-109.89010989011,4,1,0,15,0,0
228336,-119.047619047619,4,1,0,15,0,0
228351,-129.87012987013,4,1,0,15,0,0
228366,-138.888888888889,4,1,0,15,0,0
228381,-147.058823529412,4,1,0,15,0,0
228396,-151.515151515152,4,1,0,15,0,0
228411,-153.846153846154,4,1,0,15,0,0
228426,-151.515151515152,4,1,0,15,0,0
228441,-142.857142857143,4,1,0,15,0,0
228456,-135.135135135135,4,1,0,15,0,0
228471,-123.456790123457,4,1,0,15,0,0
228486,-113.636363636364,4,1,0,15,0,0
228501,-105.263157894737,4,1,0,15,0,0
228516,-98.0392156862745,4,1,0,15,0,0
228531,-91.743119266055,4,1,0,15,0,0
228546,-86.2068965517241,4,1,0,15,0,0
228561,-83.3333333333333,4,1,0,15,0,0
228576,-80.6451612903226,4,1,0,15,0,0
228591,-80,4,1,0,15,0,0
228606,-80.6451612903226,4,1,0,15,0,0
228621,-81.9672131147541,4,1,0,15,0,0
228636,-84.7457627118644,4,1,0,15,0,0
228651,-88.495575221239,4,1,0,15,0,0
228666,-94.3396226415094,4,1,0,15,0,0
228681,-101.010101010101,4,1,0,15,0,0
228696,-109.89010989011,4,1,0,15,0,0
228711,-119.047619047619,4,1,0,15,0,0
228726,-129.87012987013,4,1,0,15,0,0
228741,-138.888888888889,4,1,0,15,0,0
228756,-147.058823529412,4,1,0,15,0,0
228771,-151.515151515152,4,1,0,15,0,0
228786,-153.846153846154,4,1,0,15,0,0
228801,-151.515151515152,4,1,0,15,0,0
228816,-142.857142857143,4,1,0,15,0,0
228831,-135.135135135135,4,1,0,15,0,0
228846,-123.456790123457,4,1,0,15,0,0
228861,-113.636363636364,4,1,0,15,0,0
228876,-105.263157894737,4,1,0,15,0,0
228891,-98.0392156862745,4,1,0,15,0,0
228906,-91.743119266055,4,1,0,15,0,0
228921,-86.2068965517241,4,1,0,15,0,0
228936,-83.3333333333333,4,1,0,15,0,0
228951,-80.6451612903226,4,1,0,15,0,0
228966,-80,4,1,0,15,0,0
228981,-80.6451612903226,4,1,0,15,0,0
228996,-81.9672131147541,4,1,0,15,0,0
229011,-84.7457627118644,4,1,0,15,0,0
229026,-88.495575221239,4,1,0,15,0,0
229041,-94.3396226415094,4,1,0,15,0,0
229056,-101.010101010101,4,1,0,15,0,0
229071,-109.89010989011,4,1,0,15,0,0
229086,-119.047619047619,4,1,0,15,0,0
229101,-129.87012987013,4,1,0,15,0,0
229116,-138.888888888889,4,1,0,15,0,0
229131,-147.058823529412,4,1,0,15,0,0
229146,-151.515151515152,4,1,0,15,0,0
229161,-153.846153846154,4,1,0,15,0,0
229176,-151.515151515152,4,1,0,15,0,0
229191,-142.857142857143,4,1,0,15,0,0
229206,-135.135135135135,4,1,0,15,0,0
229221,-123.456790123457,4,1,0,15,0,0
229236,-113.636363636364,4,1,0,15,0,0
229251,-105.263157894737,4,1,0,15,0,0
229266,-98.0392156862745,4,1,0,15,0,0
229281,-91.743119266055,4,1,0,15,0,0
229296,-86.2068965517241,4,1,0,15,0,0
229311,-83.3333333333333,4,1,0,15,0,0
229326,-80.6451612903226,4,1,0,15,0,0
229341,-80,4,1,0,15,0,0
229356,-80.6451612903226,4,1,0,15,0,0
229371,-81.9672131147541,4,1,0,15,0,0
229386,-84.7457627118644,4,1,0,15,0,0
229401,-88.495575221239,4,1,0,15,0,0
229416,-94.3396226415094,4,1,0,15,0,0
229431,-101.010101010101,4,1,0,15,0,0
229446,-109.89010989011,4,1,0,15,0,0
229461,-119.047619047619,4,1,0,15,0,0
229476,-129.87012987013,4,1,0,15,0,0
229491,-138.888888888889,4,1,0,15,0,0
229506,-147.058823529412,4,1,0,15,0,0
229521,-151.515151515152,4,1,0,15,0,0
229536,-153.846153846154,4,1,0,15,0,0
229551,-151.515151515152,4,1,0,15,0,0
229566,-142.857142857143,4,1,0,15,0,0
229581,-135.135135135135,4,1,0,15,0,0
229596,-123.456790123457,4,1,0,15,0,0
229611,-113.636363636364,4,1,0,15,0,0
229626,-105.263157894737,4,1,0,15,0,0
229641,-98.0392156862745,4,1,0,15,0,0
229656,-91.743119266055,4,1,0,15,0,0
229671,-86.2068965517241,4,1,0,15,0,0
229686,-83.3333333333333,4,1,0,15,0,0
229701,-80.6451612903226,4,1,0,15,0,0
229716,-80,4,1,0,15,0,0
229731,-80.6451612903226,4,1,0,15,0,0
229746,-81.9672131147541,4,1,0,15,0,0
229761,-84.7457627118644,4,1,0,15,0,0
229776,-88.495575221239,4,1,0,15,0,0
229791,-94.3396226415094,4,1,0,15,0,0
229806,-101.010101010101,4,1,0,15,0,0
229821,-109.89010989011,4,1,0,15,0,0
229836,-119.047619047619,4,1,0,15,0,0
229851,-129.87012987013,4,1,0,15,0,0
229866,-138.888888888889,4,1,0,15,0,0
229881,-147.058823529412,4,1,0,15,0,0
229896,-151.515151515152,4,1,0,15,0,0
229911,-153.846153846154,4,1,0,15,0,0
229926,-151.515151515152,4,1,0,15,0,0
229941,-142.857142857143,4,1,0,15,0,0
229956,-135.135135135135,4,1,0,15,0,0
229971,-123.456790123457,4,1,0,15,0,0
229986,-113.636363636364,4,1,0,15,0,0
230001,-105.263157894737,4,1,0,15,0,0
230016,-98.0392156862745,4,1,0,15,0,0
230031,-91.743119266055,4,1,0,15,0,0
230046,-86.2068965517241,4,1,0,15,0,0
230061,-83.3333333333333,4,1,0,15,0,0
230076,-80.6451612903226,4,1,0,15,0,0
230091,-80,4,1,0,15,0,0
230106,-80.6451612903226,4,1,0,15,0,0
230121,-81.9672131147541,4,1,0,15,0,0
230136,-84.7457627118644,4,1,0,15,0,0
230151,-88.495575221239,4,1,0,15,0,0
230166,-94.3396226415094,4,1,0,15,0,0
230181,-101.010101010101,4,1,0,15,0,0
230196,-109.89010989011,4,1,0,15,0,0
230211,-119.047619047619,4,1,0,15,0,0
230226,-129.87012987013,4,1,0,15,0,0
230241,-138.888888888889,4,1,0,15,0,0
230256,-147.058823529412,4,1,0,15,0,0
230271,-151.515151515152,4,1,0,15,0,0
230286,-153.846153846154,4,1,0,15,0,0
230301,-151.515151515152,4,1,0,15,0,0
230316,-142.857142857143,4,1,0,15,0,0
230331,-135.135135135135,4,1,0,15,0,0
230346,-123.456790123457,4,1,0,15,0,0
230361,-113.636363636364,4,1,0,15,0,0
230376,-105.263157894737,4,1,0,15,0,0
230391,-98.0392156862745,4,1,0,15,0,0
230406,-91.743119266055,4,1,0,15,0,0
230421,-86.2068965517241,4,1,0,15,0,0
230436,-83.3333333333333,4,1,0,15,0,0
230451,-80.6451612903226,4,1,0,15,0,0
230466,-80,4,1,0,15,0,0
230481,-80.6451612903226,4,1,0,15,0,0
230496,-81.9672131147541,4,1,0,15,0,0
230511,-84.7457627118644,4,1,0,15,0,0
230526,-88.495575221239,4,1,0,15,0,0
230541,-94.3396226415094,4,1,0,15,0,0
230556,-101.010101010101,4,1,0,15,0,0
230571,-109.89010989011,4,1,0,15,0,0
230586,-119.047619047619,4,1,0,15,0,0
230601,-129.87012987013,4,1,0,15,0,0
230616,-138.888888888889,4,1,0,15,0,0
230631,-147.058823529412,4,1,0,15,0,0
230646,-151.515151515152,4,1,0,15,0,0
230661,-153.846153846154,4,1,0,15,0,0
230676,-151.515151515152,4,1,0,15,0,0
230691,-142.857142857143,4,1,0,15,0,0
230706,-135.135135135135,4,1,0,15,0,0
230721,-123.456790123457,4,1,0,15,0,0
230736,-113.636363636364,4,1,0,15,0,0
230751,-105.263157894737,4,1,0,15,0,0
230766,-98.0392156862745,4,1,0,15,0,0
230781,-91.743119266055,4,1,0,15,0,0
230796,-86.2068965517241,4,1,0,15,0,0
230811,-83.3333333333333,4,1,0,15,0,0
230826,-80.6451612903226,4,1,0,15,0,0
230841,-80,4,1,0,15,0,0
230856,-80.6451612903226,4,1,0,15,0,0
230871,-81.9672131147541,4,1,0,15,0,0
230886,-84.7457627118644,4,1,0,15,0,0
230901,-88.495575221239,4,1,0,15,0,0
230916,-94.3396226415094,4,1,0,15,0,0
230931,-101.010101010101,4,1,0,15,0,0
230946,-109.89010989011,4,1,0,15,0,0
230961,-119.047619047619,4,1,0,15,0,0
230976,-129.87012987013,4,1,0,15,0,0
230991,-138.888888888889,4,1,0,15,0,0
231006,-147.058823529412,4,1,0,15,0,0
231021,-151.515151515152,4,1,0,15,0,0
231036,-153.846153846154,4,1,0,15,0,0
231051,-151.515151515152,4,1,0,15,0,0
231066,-142.857142857143,4,1,0,15,0,0
231081,-135.135135135135,4,1,0,15,0,0
231096,-123.456790123457,4,1,0,15,0,0
231111,-113.636363636364,4,1,0,15,0,0
231126,-105.263157894737,4,1,0,15,0,0
231141,-98.0392156862745,4,1,0,15,0,0
231156,-91.743119266055,4,1,0,15,0,0
231171,-86.2068965517241,4,1,0,15,0,0
231186,-83.3333333333333,4,1,0,15,0,0
231201,-80.6451612903226,4,1,0,15,0,0
231216,-80,4,1,0,15,0,0
231231,-80.6451612903226,4,1,0,15,0,0
231246,-81.9672131147541,4,1,0,15,0,0
231261,-84.7457627118644,4,1,0,15,0,0
231276,-88.495575221239,4,1,0,15,0,0
231291,-94.3396226415094,4,1,0,15,0,0
231306,-101.010101010101,4,1,0,15,0,0
231321,-109.89010989011,4,1,0,15,0,0
231336,-119.047619047619,4,1,0,15,0,0
231351,-129.87012987013,4,1,0,15,0,0
231366,-138.888888888889,4,1,0,15,0,0
231381,-147.058823529412,4,1,0,15,0,0
231396,-151.515151515152,4,1,0,15,0,0
231411,-153.846153846154,4,1,0,15,0,0
231426,-151.515151515152,4,1,0,15,0,0
231441,-142.857142857143,4,1,0,15,0,0
231456,-135.135135135135,4,1,0,15,0,0
231471,-123.456790123457,4,1,0,15,0,0
231486,-113.636363636364,4,1,0,15,0,0
231501,-105.263157894737,4,1,0,15,0,0
231516,-98.0392156862745,4,1,0,15,0,0
231531,-91.743119266055,4,1,0,15,0,0
231546,-86.2068965517241,4,1,0,15,0,0
231561,-83.3333333333333,4,1,0,15,0,0
231576,-80.6451612903226,4,1,0,15,0,0
231591,-80,4,1,0,15,0,0
231606,-80.6451612903226,4,1,0,15,0,0
231621,-81.9672131147541,4,1,0,15,0,0
231636,-84.7457627118644,4,1,0,15,0,0
231651,-88.495575221239,4,1,0,15,0,0
231666,-94.3396226415094,4,1,0,15,0,0
231681,-101.010101010101,4,1,0,15,0,0
231696,-109.89010989011,4,1,0,15,0,0
231711,-119.047619047619,4,1,0,15,0,0
231726,-129.87012987013,4,1,0,15,0,0
231741,-138.888888888889,4,1,0,15,0,0
231756,-147.058823529412,4,1,0,15,0,0
231771,-151.515151515152,4,1,0,15,0,0
231786,-153.846153846154,4,1,0,15,0,0
231801,-151.515151515152,4,1,0,15,0,0
231816,-142.857142857143,4,1,0,15,0,0
231831,-135.135135135135,4,1,0,15,0,0
231846,-123.456790123457,4,1,0,15,0,0
231861,-113.636363636364,4,1,0,15,0,0
231876,-105.263157894737,4,1,0,15,0,0
231891,-98.0392156862745,4,1,0,15,0,0
231906,-91.743119266055,4,1,0,15,0,0
231921,-86.2068965517241,4,1,0,15,0,0
231936,-83.3333333333333,4,1,0,15,0,0
231951,-80.6451612903226,4,1,0,15,0,0
231966,-80,4,1,0,15,0,0
231981,-80.6451612903226,4,1,0,15,0,0
231996,-81.9672131147541,4,1,0,15,0,0
232011,-84.7457627118644,4,1,0,15,0,0
232026,-88.495575221239,4,1,0,15,0,0
232041,-94.3396226415094,4,1,0,15,0,0
232056,-101.010101010101,4,1,0,15,0,0
232071,-109.89010989011,4,1,0,15,0,0
232086,-119.047619047619,4,1,0,15,0,0
232101,-129.87012987013,4,1,0,15,0,0
232116,-138.888888888889,4,1,0,15,0,0
232131,-147.058823529412,4,1,0,15,0,0
232146,-151.515151515152,4,1,0,15,0,0
232161,-153.846153846154,4,1,0,15,0,0
232176,-151.515151515152,4,1,0,15,0,0
232191,-142.857142857143,4,1,0,15,0,0
232206,-135.135135135135,4,1,0,15,0,0
232221,-123.456790123457,4,1,0,15,0,0
232236,-113.636363636364,4,1,0,15,0,0
232251,-105.263157894737,4,1,0,15,0,0
232266,-98.0392156862745,4,1,0,15,0,0
232281,-91.743119266055,4,1,0,15,0,0
232296,-86.2068965517241,4,1,0,15,0,0
232311,-83.3333333333333,4,1,0,15,0,0
232326,-80.6451612903226,4,1,0,15,0,0
232341,-80,4,1,0,15,0,0
232356,-80.6451612903226,4,1,0,15,0,0
232371,-81.9672131147541,4,1,0,15,0,0
232386,-84.7457627118644,4,1,0,15,0,0
232401,-88.495575221239,4,1,0,15,0,0
232416,-94.3396226415094,4,1,0,15,0,0
232431,-101.010101010101,4,1,0,15,0,0
232446,-109.89010989011,4,1,0,15,0,0
232461,-119.047619047619,4,1,0,15,0,0
232476,-129.87012987013,4,1,0,15,0,0
232491,-138.888888888889,4,1,0,15,0,0
232506,-147.058823529412,4,1,0,15,0,0
232521,-151.515151515152,4,1,0,15,0,0
232536,-153.846153846154,4,1,0,15,0,0
232551,-151.515151515152,4,1,0,15,0,0
232566,-142.857142857143,4,1,0,15,0,0
232581,-135.135135135135,4,1,0,15,0,0
232596,-123.456790123457,4,1,0,15,0,0
232611,-113.636363636364,4,1,0,15,0,0
232626,-105.263157894737,4,1,0,15,0,0
232641,-98.0392156862745,4,1,0,15,0,0
232656,-91.743119266055,4,1,0,15,0,0
232671,-86.2068965517241,4,1,0,15,0,0
232686,-83.3333333333333,4,1,0,15,0,0
232701,-80.6451612903226,4,1,0,15,0,0
232716,-80,4,1,0,15,0,0
232731,-80.6451612903226,4,1,0,15,0,0
232746,-81.9672131147541,4,1,0,15,0,0
232761,-84.7457627118644,4,1,0,15,0,0
232776,-88.495575221239,4,1,0,15,0,0
232791,-94.3396226415094,4,1,0,15,0,0
232806,-101.010101010101,4,1,0,15,0,0
232821,-109.89010989011,4,1,0,15,0,0
232836,-119.047619047619,4,1,0,15,0,0
232851,-129.87012987013,4,1,0,15,0,0
232866,-138.888888888889,4,1,0,15,0,0
232881,-147.058823529412,4,1,0,15,0,0
232896,-151.515151515152,4,1,0,15,0,0
232911,-153.846153846154,4,1,0,15,0,0
232926,-151.515151515152,4,1,0,15,0,0
232941,-142.857142857143,4,1,0,15,0,0
232956,-135.135135135135,4,1,0,15,0,0
232971,-123.456790123457,4,1,0,15,0,0
232986,-113.636363636364,4,1,0,15,0,0
233001,-83.3333333333333,4,1,0,15,0,0
233094,-105.263157894737,4,1,0,15,0,0
233188,-133.333333333333,4,1,0,15,0,0
233235,-153.846153846153,4,1,0,15,0,0
233282,-222.222222222221,4,1,0,15,0,0
233329,-285.714285714284,4,1,0,15,0,0
233376,-200,4,1,0,15,0,0
233469,-166.666666666667,4,1,0,15,0,0
233563,-142.857142857143,4,1,0,15,0,0
233657,-125,4,1,0,15,0,0
233751,-111.111111111111,4,1,0,15,0,0
233844,-99.9999999999999,4,1,0,15,0,0
233938,-90.9090909090909,4,1,0,15,0,0
234032,-86.9565217391304,4,1,0,15,0,0
234126,-83.3333333333333,4,1,0,15,0,0
234501,-76.9230769230769,4,1,0,15,0,0
234547,-142.857142857143,4,1,0,15,0,0
234594,-76.9230769230769,4,1,0,15,0,0
234641,-142.857142857143,4,1,0,15,0,0
234688,-76.9230769230769,4,1,0,15,0,0
234735,-142.857142857143,4,1,0,15,0,0
234782,-76.9230769230769,4,1,0,15,0,0
234829,-142.857142857143,4,1,0,15,0,0
234876,-105.263157894737,4,1,0,15,0,0
234891,-98.0392156862745,4,1,0,15,0,0
234906,-91.743119266055,4,1,0,15,0,0
234921,-86.2068965517241,4,1,0,15,0,0
234936,-83.3333333333333,4,1,0,15,0,0
234951,-80.6451612903226,4,1,0,15,0,0
234966,-80,4,1,0,15,0,0
234981,-80.6451612903226,4,1,0,15,0,0
234996,-81.9672131147541,4,1,0,15,0,0
235011,-84.7457627118644,4,1,0,15,0,0
235026,-88.495575221239,4,1,0,15,0,0
235041,-94.3396226415094,4,1,0,15,0,0
235056,-101.010101010101,4,1,0,15,0,0
235071,-109.89010989011,4,1,0,15,0,0
235086,-119.047619047619,4,1,0,15,0,0
235101,-129.87012987013,4,1,0,15,0,0
235116,-138.888888888889,4,1,0,15,0,0
235131,-147.058823529412,4,1,0,15,0,0
235146,-151.515151515152,4,1,0,15,0,0
235161,-153.846153846154,4,1,0,15,0,0
235176,-151.515151515152,4,1,0,15,0,0
235191,-142.857142857143,4,1,0,15,0,0
235206,-135.135135135135,4,1,0,15,0,0
235221,-123.456790123457,4,1,0,15,0,0
235236,-113.636363636364,4,1,0,15,0,0
235251,-105.263157894737,4,1,0,15,0,0
235266,-98.0392156862745,4,1,0,15,0,0
235281,-91.743119266055,4,1,0,15,0,0
235296,-86.2068965517241,4,1,0,15,0,0
235311,-83.3333333333333,4,1,0,15,0,0
235326,-80.6451612903226,4,1,0,15,0,0
235341,-80,4,1,0,15,0,0
235356,-80.6451612903226,4,1,0,15,0,0
235371,-81.9672131147541,4,1,0,15,0,0
235386,-84.7457627118644,4,1,0,15,0,0
235401,-88.495575221239,4,1,0,15,0,0
235416,-94.3396226415094,4,1,0,15,0,0
235431,-101.010101010101,4,1,0,15,0,0
235446,-109.89010989011,4,1,0,15,0,0
235461,-119.047619047619,4,1,0,15,0,0
235476,-129.87012987013,4,1,0,15,0,0
235491,-138.888888888889,4,1,0,15,0,0
235506,-147.058823529412,4,1,0,15,0,0
235521,-151.515151515152,4,1,0,15,0,0
235536,-153.846153846154,4,1,0,15,0,0
235551,-151.515151515152,4,1,0,15,0,0
235566,-142.857142857143,4,1,0,15,0,0
235581,-135.135135135135,4,1,0,15,0,0
235596,-123.456790123457,4,1,0,15,0,0
235611,-113.636363636364,4,1,0,15,0,0
235626,-105.263157894737,4,1,0,15,0,0
235641,-98.0392156862745,4,1,0,15,0,0
235656,-91.743119266055,4,1,0,15,0,0
235671,-86.2068965517241,4,1,0,15,0,0
235686,-83.3333333333333,4,1,0,15,0,0
235701,-80.6451612903226,4,1,0,15,0,0
235716,-80,4,1,0,15,0,0
235731,-80.6451612903226,4,1,0,15,0,0
235746,-81.9672131147541,4,1,0,15,0,0
235761,-84.7457627118644,4,1,0,15,0,0
235776,-88.495575221239,4,1,0,15,0,0
235791,-94.3396226415094,4,1,0,15,0,0
235806,-101.010101010101,4,1,0,15,0,0
235821,-109.89010989011,4,1,0,15,0,0
235836,-119.047619047619,4,1,0,15,0,0
235851,-129.87012987013,4,1,0,15,0,0
235866,-138.888888888889,4,1,0,15,0,0
235881,-147.058823529412,4,1,0,15,0,0
235896,-151.515151515152,4,1,0,15,0,0
235911,-153.846153846154,4,1,0,15,0,0
235926,-151.515151515152,4,1,0,15,0,0
235941,-142.857142857143,4,1,0,15,0,0
235956,-135.135135135135,4,1,0,15,0,0
235971,-123.456790123457,4,1,0,15,0,0
235986,-113.636363636364,4,1,0,15,0,0
236001,-200,4,1,0,25,0,0
236047,-166.666666666667,4,1,0,25,0,0
236094,-125,4,1,0,25,0,0
236141,-100,4,1,0,25,0,0
236188,-83.3333333333333,4,1,0,25,0,0
236235,-71.4285714285714,4,1,0,25,0,0
236282,-200,4,1,0,25,0,0
236329,-166.666666666667,4,1,0,25,0,0
236376,-125,4,1,0,25,0,0
236422,-100,4,1,0,25,0,0
236469,-83.3333333333333,4,1,0,25,0,0
236516,-71.4285714285714,4,1,0,25,0,0
236563,-200,4,1,0,25,0,0
236610,-166.666666666667,4,1,0,25,0,0
236657,-125,4,1,0,25,0,0
236704,-100,4,1,0,25,0,0
236751,-83.3333333333333,4,1,0,25,0,0
236797,-71.4285714285714,4,1,0,25,0,0
236844,-200,4,1,0,25,0,0
236891,-166.666666666667,4,1,0,25,0,0
236938,-125,4,1,0,25,0,0
236985,-100,4,1,0,25,0,0
237032,-83.3333333333333,4,1,0,25,0,0
237079,-71.4285714285714,4,1,0,25,0,0
237126,-200,4,1,0,25,0,0
237172,-166.666666666667,4,1,0,25,0,0
237219,-125,4,1,0,25,0,0
237266,-100,4,1,0,25,0,0
237313,-71.4285714285714,4,1,0,25,0,0
237360,-166.666666666667,4,1,0,25,0,0
237407,-71.4285714285714,4,1,0,25,0,0
237454,-166.666666666667,4,1,0,25,0,0
237501,-500,4,1,0,25,0,0
237547,-250,4,1,0,25,0,0
237641,-200,4,1,0,25,0,0
237688,-142.857142857143,4,1,0,25,0,0
237735,-111.111111111111,4,1,0,25,0,0
237782,-71.4285714285714,4,1,0,25,0,0
237829,-58.8235294117647,4,1,0,25,0,0
237876,-100,4,1,0,15,0,0
237895,-94.3396226415094,4,1,0,15,0,0
237914,-89.2857142857143,4,1,0,15,0,0
237932,-86.2068965517241,4,1,0,15,0,0
237951,-84.0336134453782,4,1,0,15,0,0
237970,-83.3333333333333,4,1,0,15,0,0
237989,-84.0336134453782,4,1,0,15,0,0
238007,-86.2068965517241,4,1,0,15,0,0
238026,-89.2857142857143,4,1,0,15,0,0
238045,-94.3396226415094,4,1,0,15,0,0
238064,-100,4,1,0,15,0,0
238082,-106.382978723404,4,1,0,15,0,0
238101,-113.636363636364,4,1,0,15,0,0
238120,-119.047619047619,4,1,0,15,0,0
238139,-123.456790123457,4,1,0,15,0,0
238157,-125,4,1,0,15,0,0
238176,-123.456790123457,4,1,0,15,0,0
238195,-119.047619047619,4,1,0,15,0,0
238214,-113.636363636364,4,1,0,15,0,0
238232,-106.382978723404,4,1,0,15,0,0
238251,-100,4,1,0,15,0,0
238270,-94.3396226415094,4,1,0,15,0,0
238289,-89.2857142857143,4,1,0,15,0,0
238307,-86.2068965517241,4,1,0,15,0,0
238326,-84.0336134453782,4,1,0,15,0,0
238345,-83.3333333333333,4,1,0,15,0,0
238364,-84.0336134453782,4,1,0,15,0,0
238382,-86.2068965517241,4,1,0,15,0,0
238401,-89.2857142857143,4,1,0,15,0,0
238420,-94.3396226415094,4,1,0,15,0,0
238439,-100,4,1,0,15,0,0
238457,-106.382978723404,4,1,0,15,0,0
238476,-113.636363636364,4,1,0,15,0,0
238495,-119.047619047619,4,1,0,15,0,0
238514,-123.456790123457,4,1,0,15,0,0
238532,-125,4,1,0,15,0,0
238551,-123.456790123457,4,1,0,15,0,0
238570,-119.047619047619,4,1,0,15,0,0
238589,-113.636363636364,4,1,0,15,0,0
238607,-106.382978723404,4,1,0,15,0,0
238626,-100,4,1,0,15,0,0
238645,-94.3396226415094,4,1,0,15,0,0
238664,-89.2857142857143,4,1,0,15,0,0
238682,-86.2068965517241,4,1,0,15,0,0
238701,-84.0336134453782,4,1,0,15,0,0
238720,-83.3333333333333,4,1,0,15,0,0
238739,-84.0336134453782,4,1,0,15,0,0
238757,-86.2068965517241,4,1,0,15,0,0
238776,-89.2857142857143,4,1,0,15,0,0
238795,-94.3396226415094,4,1,0,15,0,0
238814,-100,4,1,0,15,0,0
238832,-106.382978723404,4,1,0,15,0,0
238851,-113.636363636364,4,1,0,15,0,0
238870,-119.047619047619,4,1,0,15,0,0
238889,-123.456790123457,4,1,0,15,0,0
238907,-125,4,1,0,15,0,0
238926,-123.456790123457,4,1,0,15,0,0
238945,-119.047619047619,4,1,0,15,0,0
238964,-113.636363636364,4,1,0,15,0,0
238982,-106.382978723404,4,1,0,15,0,0
239001,-100,4,1,0,15,0,0
239094,-117.647058823529,4,1,0,15,0,0
239188,-142.857142857143,4,1,0,15,0,0
239282,-100,4,1,0,15,0,0
239376,-117.647058823529,4,1,0,15,0,0
239469,-142.857142857143,4,1,0,15,0,0
239563,-100,4,1,0,15,0,0
239657,-117.647058823529,4,1,0,15,0,0
239938,-111.111111111111,4,1,0,15,0,0
240032,-100,4,1,0,15,0,0
240126,-90.9090909090909,4,1,0,15,0,0
240219,-86.9565217391303,4,1,0,15,0,0
240313,-83.3333333333333,4,1,0,15,0,0
240407,-80,4,1,0,15,0,0
240501,-90.9090909090909,4,1,0,25,0,0
240594,-99.9999999999999,4,1,0,25,0,0
240688,-111.111111111111,4,1,0,25,0,0
240782,-90.9090909090909,4,1,0,25,0,0
240876,-99.9999999999999,4,1,0,25,0,0
240969,-111.111111111111,4,1,0,25,0,0
241063,-90.9090909090909,4,1,0,25,0,0
241157,-99.9999999999999,4,1,0,25,0,0
241251,-111.111111111111,4,1,0,25,0,0
241344,-90.9090909090909,4,1,0,25,0,0
241438,-99.9999999999999,4,1,0,25,0,0
241532,-111.111111111111,4,1,0,25,0,0
241626,-90.9090909090909,4,1,0,25,0,0
241719,-100,4,1,0,25,0,0
241813,-76.9230769230769,4,1,0,25,0,0
241860,-142.857142857143,4,1,0,25,0,0
241907,-76.9230769230769,4,1,0,25,0,0
241954,-166.666666666667,4,1,0,25,0,0
242001,-90.9090909090909,4,1,0,25,0,0
242094,-99.9999999999999,4,1,0,25,0,0
242188,-111.111111111111,4,1,0,25,0,0
242282,-90.9090909090909,4,1,0,25,0,0
242376,-99.9999999999999,4,1,0,25,0,0
242469,-111.111111111111,4,1,0,25,0,0
242563,-90.9090909090909,4,1,0,25,0,0
242657,-99.9999999999999,4,1,0,25,0,0
242751,-111.111111111111,4,1,0,25,0,0
242844,-90.9090909090909,4,1,0,25,0,0
242938,-99.9999999999999,4,1,0,25,0,0
243032,-111.111111111111,4,1,0,25,0,0
243126,-125,4,1,0,25,0,0
243313,-76.9230769230769,4,1,0,25,0,0
243360,-142.857142857143,4,1,0,25,0,0
243407,-76.9230769230769,4,1,0,25,0,0
243454,-142.857142857143,4,1,0,25,0,0
243501,-76.9230769230769,4,1,0,25,0,0
243547,-100,4,1,0,25,0,0
243782,-76.9230769230769,4,1,0,25,0,0
243829,-100,4,1,0,25,0,0
243969,-76.9230769230769,4,1,0,25,0,0
244016,-100,4,1,0,25,0,0
244063,-76.9230769230769,4,1,0,25,0,0
244110,-100,4,1,0,25,0,0
244157,-76.9230769230769,4,1,0,25,0,0
244204,-100,4,1,0,25,0,0
244251,-76.9230769230769,4,1,0,25,0,0
244297,-100,4,1,0,25,0,0
244532,-76.9230769230769,4,1,0,25,0,0
244579,-100,4,1,0,25,0,0
244719,-76.9230769230769,4,1,0,25,0,0
244766,-142.857142857143,4,1,0,25,0,0
244813,-76.9230769230769,4,1,0,25,0,0
244860,-142.857142857143,4,1,0,25,0,0
244907,-76.9230769230769,4,1,0,25,0,0
244954,-142.857142857143,4,1,0,25,0,0
245001,-100,4,1,0,25,0,0
245047,-100,4,1,0,25,0,0
245188,-111.111111111111,4,1,0,25,0,0
245376,-125,4,1,0,25,0,0
245563,-142.857142857143,4,1,0,25,0,0
245751,-166.666666666667,4,1,0,25,0,0
245938,-200,4,1,0,25,0,0
246126,-142.857142857143,4,1,0,25,0,0
246219,-111.111111111111,4,1,0,25,0,0
246313,-90.9090909090909,4,1,0,25,0,0
246407,-76.9230769230769,4,1,0,25,0,0
246501,-111.111111111111,4,1,0,15,0,0
246516,-105.263157894737,4,1,0,15,0,0
246531,-100,4,1,0,15,0,0
246546,-96.1538461538461,4,1,0,15,0,0
246561,-93.4579439252336,4,1,0,15,0,0
246576,-91.743119266055,4,1,0,15,0,0
246591,-90.9090909090909,4,1,0,15,0,0
246621,-92.5925925925926,4,1,0,15,0,0
246636,-95.2380952380952,4,1,0,15,0,0
246651,-98.0392156862745,4,1,0,15,0,0
246666,-103.092783505155,4,1,0,15,0,0
246681,-107.52688172043,4,1,0,15,0,0
246696,-114.942528735632,4,1,0,15,0,0
246711,-120.481927710843,4,1,0,15,0,0
246726,-128.205128205128,4,1,0,15,0,0
246741,-133.333333333333,4,1,0,15,0,0
246756,-138.888888888889,4,1,0,15,0,0
246771,-142.857142857143,4,1,0,15,0,0
246801,-140.845070422535,4,1,0,15,0,0
246816,-136.986301369863,4,1,0,15,0,0
246831,-131.578947368421,4,1,0,15,0,0
246846,-125,4,1,0,15,0,0
246861,-117.647058823529,4,1,0,15,0,0
246876,-111.111111111111,4,1,0,15,0,0
246891,-105.263157894737,4,1,0,15,0,0
246906,-100,4,1,0,15,0,0
246921,-96.1538461538461,4,1,0,15,0,0
246936,-93.4579439252336,4,1,0,15,0,0
246951,-91.743119266055,4,1,0,15,0,0
246966,-90.9090909090909,4,1,0,15,0,0
246996,-92.5925925925926,4,1,0,15,0,0
247011,-95.2380952380952,4,1,0,15,0,0
247026,-98.0392156862745,4,1,0,15,0,0
247041,-103.092783505155,4,1,0,15,0,0
247056,-107.52688172043,4,1,0,15,0,0
247071,-114.942528735632,4,1,0,15,0,0
247086,-120.481927710843,4,1,0,15,0,0
247101,-128.205128205128,4,1,0,15,0,0
247116,-133.333333333333,4,1,0,15,0,0
247131,-138.888888888889,4,1,0,15,0,0
247146,-142.857142857143,4,1,0,15,0,0
247176,-140.845070422535,4,1,0,15,0,0
247191,-136.986301369863,4,1,0,15,0,0
247206,-131.578947368421,4,1,0,15,0,0
247221,-125,4,1,0,15,0,0
247236,-117.647058823529,4,1,0,15,0,0
247251,-111.111111111111,4,1,0,15,0,0
247266,-105.263157894737,4,1,0,15,0,0
247281,-100,4,1,0,15,0,0
247296,-96.1538461538461,4,1,0,15,0,0
247311,-93.4579439252336,4,1,0,15,0,0
247326,-91.743119266055,4,1,0,15,0,0
247341,-90.9090909090909,4,1,0,15,0,0
247371,-92.5925925925926,4,1,0,15,0,0
247386,-95.2380952380952,4,1,0,15,0,0
247401,-98.0392156862745,4,1,0,15,0,0
247416,-103.092783505155,4,1,0,15,0,0
247431,-107.52688172043,4,1,0,15,0,0
247446,-114.942528735632,4,1,0,15,0,0
247461,-120.481927710843,4,1,0,15,0,0
247476,-128.205128205128,4,1,0,15,0,0
247491,-133.333333333333,4,1,0,15,0,0
247506,-138.888888888889,4,1,0,15,0,0
247521,-142.857142857143,4,1,0,15,0,0
247551,-140.845070422535,4,1,0,15,0,0
247566,-136.986301369863,4,1,0,15,0,0
247581,-131.578947368421,4,1,0,15,0,0
247596,-125,4,1,0,15,0,0
247611,-117.647058823529,4,1,0,15,0,0
247626,-111.111111111111,4,1,0,15,0,0
247641,-105.263157894737,4,1,0,15,0,0
247656,-100,4,1,0,15,0,0
247671,-96.1538461538461,4,1,0,15,0,0
247686,-93.4579439252336,4,1,0,15,0,0
247701,-91.743119266055,4,1,0,15,0,0
247716,-90.9090909090909,4,1,0,15,0,0
247746,-92.5925925925926,4,1,0,15,0,0
247761,-95.2380952380952,4,1,0,15,0,0
247776,-98.0392156862745,4,1,0,15,0,0
247791,-103.092783505155,4,1,0,15,0,0
247806,-107.52688172043,4,1,0,15,0,0
247821,-114.942528735632,4,1,0,15,0,0
247836,-120.481927710843,4,1,0,15,0,0
247851,-128.205128205128,4,1,0,15,0,0
247866,-133.333333333333,4,1,0,15,0,0
247881,-138.888888888889,4,1,0,15,0,0
247896,-142.857142857143,4,1,0,15,0,0
247926,-140.845070422535,4,1,0,15,0,0
247941,-136.986301369863,4,1,0,15,0,0
247956,-131.578947368421,4,1,0,15,0,0
247971,-125,4,1,0,15,0,0
247986,-117.647058823529,4,1,0,15,0,0
248001,-111.111111111111,4,1,0,15,0,0
248016,-105.263157894737,4,1,0,15,0,0
248031,-100,4,1,0,15,0,0
248046,-96.1538461538461,4,1,0,15,0,0
248061,-93.4579439252336,4,1,0,15,0,0
248076,-91.743119266055,4,1,0,15,0,0
248091,-90.9090909090909,4,1,0,15,0,0
248121,-92.5925925925926,4,1,0,15,0,0
248136,-95.2380952380952,4,1,0,15,0,0
248151,-98.0392156862745,4,1,0,15,0,0
248166,-103.092783505155,4,1,0,15,0,0
248181,-107.52688172043,4,1,0,15,0,0
248196,-114.942528735632,4,1,0,15,0,0
248211,-120.481927710843,4,1,0,15,0,0
248226,-128.205128205128,4,1,0,15,0,0
248241,-133.333333333333,4,1,0,15,0,0
248256,-138.888888888889,4,1,0,15,0,0
248271,-142.857142857143,4,1,0,15,0,0
248301,-140.845070422535,4,1,0,15,0,0
248316,-136.986301369863,4,1,0,15,0,0
248331,-131.578947368421,4,1,0,15,0,0
248346,-125,4,1,0,15,0,0
248361,-117.647058823529,4,1,0,15,0,0
248376,-111.111111111111,4,1,0,15,0,0
248391,-105.263157894737,4,1,0,15,0,0
248406,-100,4,1,0,15,0,0
248421,-96.1538461538461,4,1,0,15,0,0
248436,-93.4579439252336,4,1,0,15,0,0
248451,-91.743119266055,4,1,0,15,0,0
248466,-90.9090909090909,4,1,0,15,0,0
248496,-92.5925925925926,4,1,0,15,0,0
248511,-95.2380952380952,4,1,0,15,0,0
248526,-98.0392156862745,4,1,0,15,0,0
248541,-103.092783505155,4,1,0,15,0,0
248556,-107.52688172043,4,1,0,15,0,0
248571,-114.942528735632,4,1,0,15,0,0
248586,-120.481927710843,4,1,0,15,0,0
248601,-128.205128205128,4,1,0,15,0,0
248616,-133.333333333333,4,1,0,15,0,0
248631,-138.888888888889,4,1,0,15,0,0
248646,-142.857142857143,4,1,0,15,0,0
248676,-140.845070422535,4,1,0,15,0,0
248691,-136.986301369863,4,1,0,15,0,0
248706,-131.578947368421,4,1,0,15,0,0
248721,-125,4,1,0,15,0,0
248736,-117.647058823529,4,1,0,15,0,0
248751,-111.111111111111,4,1,0,15,0,0
248766,-105.263157894737,4,1,0,15,0,0
248781,-100,4,1,0,15,0,0
248796,-96.1538461538461,4,1,0,15,0,0
248811,-93.4579439252336,4,1,0,15,0,0
248826,-91.743119266055,4,1,0,15,0,0
248841,-90.9090909090909,4,1,0,15,0,0
248871,-92.5925925925926,4,1,0,15,0,0
248886,-95.2380952380952,4,1,0,15,0,0
248901,-98.0392156862745,4,1,0,15,0,0
248916,-103.092783505155,4,1,0,15,0,0
248931,-107.52688172043,4,1,0,15,0,0
248946,-114.942528735632,4,1,0,15,0,0
248961,-120.481927710843,4,1,0,15,0,0
248976,-128.205128205128,4,1,0,15,0,0
248991,-133.333333333333,4,1,0,15,0,0
249006,-138.888888888889,4,1,0,15,0,0
249021,-142.857142857143,4,1,0,15,0,0
249051,-140.845070422535,4,1,0,15,0,0
249066,-136.986301369863,4,1,0,15,0,0
249081,-131.578947368421,4,1,0,15,0,0
249096,-125,4,1,0,15,0,0
249111,-117.647058823529,4,1,0,15,0,0
249126,-111.111111111111,4,1,0,15,0,0
249141,-105.263157894737,4,1,0,15,0,0
249156,-100,4,1,0,15,0,0
249171,-96.1538461538461,4,1,0,15,0,0
249186,-93.4579439252336,4,1,0,15,0,0
249201,-91.743119266055,4,1,0,15,0,0
249216,-90.9090909090909,4,1,0,15,0,0
249246,-92.5925925925926,4,1,0,15,0,0
249261,-95.2380952380952,4,1,0,15,0,0
249276,-98.0392156862745,4,1,0,15,0,0
249291,-103.092783505155,4,1,0,15,0,0
249306,-107.52688172043,4,1,0,15,0,0
249321,-114.942528735632,4,1,0,15,0,0
249336,-120.481927710843,4,1,0,15,0,0
249351,-128.205128205128,4,1,0,15,0,0
249366,-133.333333333333,4,1,0,15,0,0
249381,-138.888888888889,4,1,0,15,0,0
249396,-142.857142857143,4,1,0,15,0,0
249426,-140.845070422535,4,1,0,15,0,0
249441,-136.986301369863,4,1,0,15,0,0
249456,-131.578947368421,4,1,0,15,0,0
249471,-125,4,1,0,15,0,0
249486,-117.647058823529,4,1,0,15,0,0
249519.75,-344.827586206897,4,1,0,15,0,0
249538.5,-263.157894736842,4,1,0,15,0,0
249557.25,-212.765957446809,4,1,0,15,0,0
249576,-178.571428571429,4,1,0,15,0,0
249594.75,-153.846153846154,4,1,0,15,0,0
249613.5,-135.135135135135,4,1,0,15,0,0
249632.25,-120.481927710843,4,1,0,15,0,0
249651,-108.695652173913,4,1,0,15,0,0
249669.75,-99.009900990099,4,1,0,15,0,0
249688.5,-90.9090909090909,4,1,0,15,0,0
249707.25,-84.0336134453782,4,1,0,15,0,0
249726,-78.125,4,1,0,15,0,0
249744.75,-72.992700729927,4,1,0,15,0,0
249763.5,-68.4931506849315,4,1,0,15,0,0
249782.25,-64.5161290322581,4,1,0,15,0,0
249801,-60.9756097560976,4,1,0,15,0,0
249819.75,-57.8034682080925,4,1,0,15,0,0
249838.5,-54.9450549450549,4,1,0,15,0,0
249857.25,-52.3560209424084,4,1,0,15,0,0
249876,-111.111111111111,4,1,0,15,0,0
249891,-105.263157894737,4,1,0,15,0,0
249906,-100,4,1,0,15,0,0
249921,-96.1538461538461,4,1,0,15,0,0
249936,-93.4579439252336,4,1,0,15,0,0
249951,-91.743119266055,4,1,0,15,0,0
249966,-90.9090909090909,4,1,0,15,0,0
249996,-92.5925925925926,4,1,0,15,0,0
250011,-95.2380952380952,4,1,0,15,0,0
250026,-98.0392156862745,4,1,0,15,0,0
250041,-103.092783505155,4,1,0,15,0,0
250056,-107.52688172043,4,1,0,15,0,0
250071,-114.942528735632,4,1,0,15,0,0
250086,-120.481927710843,4,1,0,15,0,0
250101,-128.205128205128,4,1,0,15,0,0
250116,-133.333333333333,4,1,0,15,0,0
250131,-138.888888888889,4,1,0,15,0,0
250146,-142.857142857143,4,1,0,15,0,0
250176,-140.845070422535,4,1,0,15,0,0
250191,-136.986301369863,4,1,0,15,0,0
250206,-131.578947368421,4,1,0,15,0,0
250221,-125,4,1,0,15,0,0
250236,-117.647058823529,4,1,0,15,0,0
250251,-111.111111111111,4,1,0,15,0,0
250266,-105.263157894737,4,1,0,15,0,0
250281,-100,4,1,0,15,0,0
250296,-96.1538461538461,4,1,0,15,0,0
250311,-93.4579439252336,4,1,0,15,0,0
250326,-91.743119266055,4,1,0,15,0,0
250341,-90.9090909090909,4,1,0,15,0,0
250371,-92.5925925925926,4,1,0,15,0,0
250386,-95.2380952380952,4,1,0,15,0,0
250401,-98.0392156862745,4,1,0,15,0,0
250416,-103.092783505155,4,1,0,15,0,0
250431,-107.52688172043,4,1,0,15,0,0
250446,-114.942528735632,4,1,0,15,0,0
250461,-120.481927710843,4,1,0,15,0,0
250476,-128.205128205128,4,1,0,15,0,0
250491,-133.333333333333,4,1,0,15,0,0
250506,-138.888888888889,4,1,0,15,0,0
250521,-142.857142857143,4,1,0,15,0,0
250551,-140.845070422535,4,1,0,15,0,0
250566,-136.986301369863,4,1,0,15,0,0
250581,-131.578947368421,4,1,0,15,0,0
250596,-125,4,1,0,15,0,0
250611,-117.647058823529,4,1,0,15,0,0
250626,-111.111111111111,4,1,0,15,0,0
250641,-105.263157894737,4,1,0,15,0,0
250656,-100,4,1,0,15,0,0
250671,-96.1538461538461,4,1,0,15,0,0
250686,-93.4579439252336,4,1,0,15,0,0
250701,-91.743119266055,4,1,0,15,0,0
250716,-90.9090909090909,4,1,0,15,0,0
250746,-92.5925925925926,4,1,0,15,0,0
250761,-95.2380952380952,4,1,0,15,0,0
250776,-98.0392156862745,4,1,0,15,0,0
250791,-103.092783505155,4,1,0,15,0,0
250806,-107.52688172043,4,1,0,15,0,0
250821,-114.942528735632,4,1,0,15,0,0
250836,-120.481927710843,4,1,0,15,0,0
250851,-128.205128205128,4,1,0,15,0,0
250866,-133.333333333333,4,1,0,15,0,0
250881,-138.888888888889,4,1,0,15,0,0
250896,-142.857142857143,4,1,0,15,0,0
250926,-140.845070422535,4,1,0,15,0,0
250941,-136.986301369863,4,1,0,15,0,0
250956,-131.578947368421,4,1,0,15,0,0
250971,-125,4,1,0,15,0,0
250986,-117.647058823529,4,1,0,15,0,0
251001,-111.111111111111,4,1,0,15,0,0
251016,-105.263157894737,4,1,0,15,0,0
251031,-100,4,1,0,15,0,0
251046,-96.1538461538461,4,1,0,15,0,0
251061,-93.4579439252336,4,1,0,15,0,0
251076,-91.743119266055,4,1,0,15,0,0
251091,-90.9090909090909,4,1,0,15,0,0
251121,-92.5925925925926,4,1,0,15,0,0
251136,-95.2380952380952,4,1,0,15,0,0
251151,-98.0392156862745,4,1,0,15,0,0
251166,-103.092783505155,4,1,0,15,0,0
251181,-107.52688172043,4,1,0,15,0,0
251196,-114.942528735632,4,1,0,15,0,0
251211,-120.481927710843,4,1,0,15,0,0
251226,-128.205128205128,4,1,0,15,0,0
251241,-133.333333333333,4,1,0,15,0,0
251256,-138.888888888889,4,1,0,15,0,0
251271,-142.857142857143,4,1,0,15,0,0
251301,-140.845070422535,4,1,0,15,0,0
251316,-136.986301369863,4,1,0,15,0,0
251331,-131.578947368421,4,1,0,15,0,0
251346,-125,4,1,0,15,0,0
251361,-117.647058823529,4,1,0,15,0,0
251376,-111.111111111111,4,1,0,15,0,0
251391,-105.263157894737,4,1,0,15,0,0
251406,-100,4,1,0,15,0,0
251421,-96.1538461538461,4,1,0,15,0,0
251436,-93.4579439252336,4,1,0,15,0,0
251451,-91.743119266055,4,1,0,15,0,0
251466,-90.9090909090909,4,1,0,15,0,0
251496,-92.5925925925926,4,1,0,15,0,0
251511,-95.2380952380952,4,1,0,15,0,0
251526,-98.0392156862745,4,1,0,15,0,0
251541,-103.092783505155,4,1,0,15,0,0
251556,-107.52688172043,4,1,0,15,0,0
251571,-114.942528735632,4,1,0,15,0,0
251586,-120.481927710843,4,1,0,15,0,0
251601,-128.205128205128,4,1,0,15,0,0
251616,-133.333333333333,4,1,0,15,0,0
251631,-138.888888888889,4,1,0,15,0,0
251646,-142.857142857143,4,1,0,15,0,0
251676,-140.845070422535,4,1,0,15,0,0
251691,-136.986301369863,4,1,0,15,0,0
251706,-131.578947368421,4,1,0,15,0,0
251721,-125,4,1,0,15,0,0
251736,-117.647058823529,4,1,0,15,0,0
251751,-111.111111111111,4,1,0,15,0,0
251766,-105.263157894737,4,1,0,15,0,0
251781,-100,4,1,0,15,0,0
251796,-96.1538461538461,4,1,0,15,0,0
251811,-93.4579439252336,4,1,0,15,0,0
251826,-91.743119266055,4,1,0,15,0,0
251841,-90.9090909090909,4,1,0,15,0,0
251871,-92.5925925925926,4,1,0,15,0,0
251886,-95.2380952380952,4,1,0,15,0,0
251901,-98.0392156862745,4,1,0,15,0,0
251916,-103.092783505155,4,1,0,15,0,0
251931,-107.52688172043,4,1,0,15,0,0
251946,-114.942528735632,4,1,0,15,0,0
251961,-120.481927710843,4,1,0,15,0,0
251976,-128.205128205128,4,1,0,15,0,0
251991,-133.333333333333,4,1,0,15,0,0
252006,-138.888888888889,4,1,0,15,0,0
252021,-142.857142857143,4,1,0,15,0,0
252051,-140.845070422535,4,1,0,15,0,0
252066,-136.986301369863,4,1,0,15,0,0
252081,-131.578947368421,4,1,0,15,0,0
252096,-125,4,1,0,15,0,0
252111,-117.647058823529,4,1,0,15,0,0
252126,-166.666666666667,4,1,0,15,0,0
252501,-111.111111111111,4,1,0,15,0,0
252516,-105.263157894737,4,1,0,15,0,0
252531,-100,4,1,0,15,0,0
252546,-96.1538461538461,4,1,0,15,0,0
252561,-93.4579439252336,4,1,0,15,0,0
252576,-91.743119266055,4,1,0,15,0,0
252591,-90.9090909090909,4,1,0,15,0,0
252621,-92.5925925925926,4,1,0,15,0,0
252636,-95.2380952380952,4,1,0,15,0,0
252651,-98.0392156862745,4,1,0,15,0,0
252666,-103.092783505155,4,1,0,15,0,0
252681,-107.52688172043,4,1,0,15,0,0
252696,-114.942528735632,4,1,0,15,0,0
252711,-120.481927710843,4,1,0,15,0,0
252726,-128.205128205128,4,1,0,15,0,0
252741,-133.333333333333,4,1,0,15,0,0
252756,-138.888888888889,4,1,0,15,0,0
252771,-142.857142857143,4,1,0,15,0,0
252801,-140.845070422535,4,1,0,15,0,0
252816,-136.986301369863,4,1,0,15,0,0
252831,-131.578947368421,4,1,0,15,0,0
252846,-125,4,1,0,15,0,0
252861,-117.647058823529,4,1,0,15,0,0
252876,-111.111111111111,4,1,0,15,0,0
252891,-105.263157894737,4,1,0,15,0,0
252906,-100,4,1,0,15,0,0
252921,-96.1538461538461,4,1,0,15,0,0
252936,-93.4579439252336,4,1,0,15,0,0
252951,-91.743119266055,4,1,0,15,0,0
252966,-90.9090909090909,4,1,0,15,0,0
252996,-92.5925925925926,4,1,0,15,0,0
253011,-95.2380952380952,4,1,0,15,0,0
253026,-98.0392156862745,4,1,0,15,0,0
253041,-103.092783505155,4,1,0,15,0,0
253056,-107.52688172043,4,1,0,15,0,0
253071,-114.942528735632,4,1,0,15,0,0
253086,-120.481927710843,4,1,0,15,0,0
253101,-128.205128205128,4,1,0,15,0,0
253116,-133.333333333333,4,1,0,15,0,0
253131,-138.888888888889,4,1,0,15,0,0
253146,-142.857142857143,4,1,0,15,0,0
253176,-140.845070422535,4,1,0,15,0,0
253191,-136.986301369863,4,1,0,15,0,0
253206,-131.578947368421,4,1,0,15,0,0
253221,-125,4,1,0,15,0,0
253236,-117.647058823529,4,1,0,15,0,0
253251,-111.111111111111,4,1,0,15,0,0
253266,-105.263157894737,4,1,0,15,0,0
253281,-100,4,1,0,15,0,0
253296,-96.1538461538461,4,1,0,15,0,0
253311,-93.4579439252336,4,1,0,15,0,0
253326,-91.743119266055,4,1,0,15,0,0
253341,-90.9090909090909,4,1,0,15,0,0
253371,-92.5925925925926,4,1,0,15,0,0
253386,-95.2380952380952,4,1,0,15,0,0
253401,-98.0392156862745,4,1,0,15,0,0
253416,-103.092783505155,4,1,0,15,0,0
253431,-107.52688172043,4,1,0,15,0,0
253446,-114.942528735632,4,1,0,15,0,0
253461,-120.481927710843,4,1,0,15,0,0
253476,-128.205128205128,4,1,0,15,0,0
253491,-133.333333333333,4,1,0,15,0,0
253506,-138.888888888889,4,1,0,15,0,0
253521,-142.857142857143,4,1,0,15,0,0
253551,-140.845070422535,4,1,0,15,0,0
253566,-136.986301369863,4,1,0,15,0,0
253581,-131.578947368421,4,1,0,15,0,0
253596,-125,4,1,0,15,0,0
253611,-117.647058823529,4,1,0,15,0,0
253626,-111.111111111111,4,1,0,15,0,0
253641,-105.263157894737,4,1,0,15,0,0
253656,-100,4,1,0,15,0,0
253671,-96.1538461538461,4,1,0,15,0,0
253686,-93.4579439252336,4,1,0,15,0,0
253701,-91.743119266055,4,1,0,15,0,0
253716,-90.9090909090909,4,1,0,15,0,0
253746,-92.5925925925926,4,1,0,15,0,0
253761,-95.2380952380952,4,1,0,15,0,0
253776,-98.0392156862745,4,1,0,15,0,0
253791,-103.092783505155,4,1,0,15,0,0
253806,-107.52688172043,4,1,0,15,0,0
253821,-114.942528735632,4,1,0,15,0,0
253836,-120.481927710843,4,1,0,15,0,0
253851,-128.205128205128,4,1,0,15,0,0
253866,-133.333333333333,4,1,0,15,0,0
253881,-138.888888888889,4,1,0,15,0,0
253896,-142.857142857143,4,1,0,15,0,0
253926,-140.845070422535,4,1,0,15,0,0
253941,-136.986301369863,4,1,0,15,0,0
253956,-131.578947368421,4,1,0,15,0,0
253971,-125,4,1,0,15,0,0
253986,-117.647058823529,4,1,0,15,0,0
254001,-111.111111111111,4,1,0,15,0,0
254016,-105.263157894737,4,1,0,15,0,0
254031,-100,4,1,0,15,0,0
254046,-96.1538461538461,4,1,0,15,0,0
254061,-93.4579439252336,4,1,0,15,0,0
254076,-91.743119266055,4,1,0,15,0,0
254091,-90.9090909090909,4,1,0,15,0,0
254121,-92.5925925925926,4,1,0,15,0,0
254136,-95.2380952380952,4,1,0,15,0,0
254151,-98.0392156862745,4,1,0,15,0,0
254166,-103.092783505155,4,1,0,15,0,0
254181,-107.52688172043,4,1,0,15,0,0
254196,-114.942528735632,4,1,0,15,0,0
254211,-120.481927710843,4,1,0,15,0,0
254226,-128.205128205128,4,1,0,15,0,0
254241,-133.333333333333,4,1,0,15,0,0
254256,-138.888888888889,4,1,0,15,0,0
254271,-142.857142857143,4,1,0,15,0,0
254301,-140.845070422535,4,1,0,15,0,0
254316,-136.986301369863,4,1,0,15,0,0
254331,-131.578947368421,4,1,0,15,0,0
254346,-125,4,1,0,15,0,0
254361,-117.647058823529,4,1,0,15,0,0
254376,-111.111111111111,4,1,0,15,0,0
254391,-105.263157894737,4,1,0,15,0,0
254406,-100,4,1,0,15,0,0
254421,-96.1538461538461,4,1,0,15,0,0
254436,-93.4579439252336,4,1,0,15,0,0
254451,-91.743119266055,4,1,0,15,0,0
254466,-90.9090909090909,4,1,0,15,0,0
254496,-92.5925925925926,4,1,0,15,0,0
254511,-95.2380952380952,4,1,0,15,0,0
254526,-98.0392156862745,4,1,0,15,0,0
254541,-103.092783505155,4,1,0,15,0,0
254556,-107.52688172043,4,1,0,15,0,0
254571,-114.942528735632,4,1,0,15,0,0
254586,-120.481927710843,4,1,0,15,0,0
254601,-128.205128205128,4,1,0,15,0,0
254616,-133.333333333333,4,1,0,15,0,0
254631,-138.888888888889,4,1,0,15,0,0
254646,-142.857142857143,4,1,0,15,0,0
254676,-140.845070422535,4,1,0,15,0,0
254691,-136.986301369863,4,1,0,15,0,0
254706,-131.578947368421,4,1,0,15,0,0
254721,-125,4,1,0,15,0,0
254736,-117.647058823529,4,1,0,15,0,0
254751,-111.111111111111,4,1,0,15,0,0
254766,-105.263157894737,4,1,0,15,0,0
254781,-100,4,1,0,15,0,0
254796,-96.1538461538461,4,1,0,15,0,0
254811,-93.4579439252336,4,1,0,15,0,0
254826,-91.743119266055,4,1,0,15,0,0
254841,-90.9090909090909,4,1,0,15,0,0
254871,-92.5925925925926,4,1,0,15,0,0
254886,-95.2380952380952,4,1,0,15,0,0
254901,-98.0392156862745,4,1,0,15,0,0
254916,-103.092783505155,4,1,0,15,0,0
254931,-107.52688172043,4,1,0,15,0,0
254946,-114.942528735632,4,1,0,15,0,0
254961,-120.481927710843,4,1,0,15,0,0
254976,-128.205128205128,4,1,0,15,0,0
254991,-133.333333333333,4,1,0,15,0,0
255006,-138.888888888889,4,1,0,15,0,0
255021,-142.857142857143,4,1,0,15,0,0
255051,-140.845070422535,4,1,0,15,0,0
255066,-136.986301369863,4,1,0,15,0,0
255081,-131.578947368421,4,1,0,15,0,0
255096,-125,4,1,0,15,0,0
255111,-117.647058823529,4,1,0,15,0,0
255126,-111.111111111111,4,1,0,15,0,0
255141,-105.263157894737,4,1,0,15,0,0
255156,-100,4,1,0,15,0,0
255171,-96.1538461538461,4,1,0,15,0,0
255186,-93.4579439252336,4,1,0,15,0,0
255201,-91.743119266055,4,1,0,15,0,0
255216,-90.9090909090909,4,1,0,15,0,0
255246,-92.5925925925926,4,1,0,15,0,0
255261,-95.2380952380952,4,1,0,15,0,0
255276,-98.0392156862745,4,1,0,15,0,0
255291,-103.092783505155,4,1,0,15,0,0
255306,-107.52688172043,4,1,0,15,0,0
255321,-114.942528735632,4,1,0,15,0,0
255336,-120.481927710843,4,1,0,15,0,0
255351,-128.205128205128,4,1,0,15,0,0
255366,-133.333333333333,4,1,0,15,0,0
255381,-138.888888888889,4,1,0,15,0,0
255396,-142.857142857143,4,1,0,15,0,0
255426,-140.845070422535,4,1,0,15,0,0
255441,-136.986301369863,4,1,0,15,0,0
255456,-131.578947368421,4,1,0,15,0,0
255471,-125,4,1,0,15,0,0
255486,-117.647058823529,4,1,0,15,0,0
255501,-76.9230769230769,4,1,0,15,0,0
255519.75,-79.3650793650794,4,1,0,15,0,0
255538.5,-81.9672131147541,4,1,0,15,0,0
255557.25,-84.7457627118644,4,1,0,15,0,0
255576,-87.719298245614,4,1,0,15,0,0
255594.75,-90.9090909090909,4,1,0,15,0,0
255613.5,-94.3396226415094,4,1,0,15,0,0
255632.25,-98.0392156862745,4,1,0,15,0,0
255651,-102.040816326531,4,1,0,15,0,0
255669.75,-106.382978723404,4,1,0,15,0,0
255688.5,-111.111111111111,4,1,0,15,0,0
255707.25,-116.279069767442,4,1,0,15,0,0
255726,-121.951219512195,4,1,0,15,0,0
255744.75,-128.205128205128,4,1,0,15,0,0
255763.5,-135.135135135135,4,1,0,15,0,0
255782.25,-142.857142857143,4,1,0,15,0,0
255801,-151.515151515152,4,1,0,15,0,0
255819.75,-161.290322580645,4,1,0,15,0,0
255838.5,-172.413793103448,4,1,0,15,0,0
255857.25,-185.185185185185,4,1,0,15,0,0
255876,-500,4,1,0,15,0,0
255899,-333.333333333334,4,1,0,15,0,0
255922,-142.857142857143,4,1,0,15,0,0
255946,-125,4,1,0,15,0,0
255969,-90.9090909090909,4,1,0,15,0,0
255993,-76.9230769230769,4,1,0,15,0,0
256016,-62.5,4,1,0,15,0,0
256040,-52.6315789473684,4,1,0,15,0,0
256063,-45.4545454545455,4,1,0,15,0,0
256110,-100,4,1,0,15,0,0
256157,-133.333333333333,4,1,0,15,0,0
256241,-111.111111111111,4,1,0,15,0,0
256256,-105.263157894737,4,1,0,15,0,0
256271,-100,4,1,0,15,0,0
256286,-96.1538461538461,4,1,0,15,0,0
256301,-93.4579439252336,4,1,0,15,0,0
256316,-91.743119266055,4,1,0,15,0,0
256331,-90.9090909090909,4,1,0,15,0,0
256361,-92.5925925925926,4,1,0,15,0,0
256376,-95.2380952380952,4,1,0,15,0,0
256391,-98.0392156862745,4,1,0,15,0,0
256406,-103.092783505155,4,1,0,15,0,0
256421,-107.52688172043,4,1,0,15,0,0
256436,-114.942528735632,4,1,0,15,0,0
256451,-120.481927710843,4,1,0,15,0,0
256466,-128.205128205128,4,1,0,15,0,0
256481,-133.333333333333,4,1,0,15,0,0
256496,-138.888888888889,4,1,0,15,0,0
256511,-142.857142857143,4,1,0,15,0,0
256541,-140.845070422535,4,1,0,15,0,0
256556,-136.986301369863,4,1,0,15,0,0
256571,-131.578947368421,4,1,0,15,0,0
256586,-125,4,1,0,15,0,0
256601,-117.647058823529,4,1,0,15,0,0
256616,-111.111111111111,4,1,0,15,0,0
256631,-105.263157894737,4,1,0,15,0,0
256646,-100,4,1,0,15,0,0
256661,-96.1538461538461,4,1,0,15,0,0
256676,-93.4579439252336,4,1,0,15,0,0
256691,-91.743119266055,4,1,0,15,0,0
256706,-90.9090909090909,4,1,0,15,0,0
256736,-92.5925925925926,4,1,0,15,0,0
256751,-95.2380952380952,4,1,0,15,0,0
256766,-98.0392156862745,4,1,0,15,0,0
256781,-103.092783505155,4,1,0,15,0,0
256796,-107.52688172043,4,1,0,15,0,0
256811,-114.942528735632,4,1,0,15,0,0
256826,-120.481927710843,4,1,0,15,0,0
256841,-128.205128205128,4,1,0,15,0,0
256856,-133.333333333333,4,1,0,15,0,0
256871,-138.888888888889,4,1,0,15,0,0
256886,-142.857142857143,4,1,0,15,0,0
256916,-140.845070422535,4,1,0,15,0,0
256931,-136.986301369863,4,1,0,15,0,0
256946,-131.578947368421,4,1,0,15,0,0
256961,-125,4,1,0,15,0,0
256976,-117.647058823529,4,1,0,15,0,0
256991,-111.111111111111,4,1,0,15,0,0
257006,-105.263157894737,4,1,0,15,0,0
257021,-100,4,1,0,15,0,0
257036,-96.1538461538461,4,1,0,15,0,0
257051,-93.4579439252336,4,1,0,15,0,0
257066,-91.743119266055,4,1,0,15,0,0
257081,-90.9090909090909,4,1,0,15,0,0
257111,-92.5925925925926,4,1,0,15,0,0
257126,-95.2380952380952,4,1,0,15,0,0
257141,-98.0392156862745,4,1,0,15,0,0
257156,-103.092783505155,4,1,0,15,0,0
257171,-107.52688172043,4,1,0,15,0,0
257186,-114.942528735632,4,1,0,15,0,0
257201,-120.481927710843,4,1,0,15,0,0
257216,-128.205128205128,4,1,0,15,0,0
257231,-133.333333333333,4,1,0,15,0,0
257246,-138.888888888889,4,1,0,15,0,0
257261,-142.857142857143,4,1,0,15,0,0
257291,-140.845070422535,4,1,0,15,0,0
257306,-136.986301369863,4,1,0,15,0,0
257321,-131.578947368421,4,1,0,15,0,0
257336,-125,4,1,0,15,0,0
257351,-117.647058823529,4,1,0,15,0,0
257366,-111.111111111111,4,1,0,15,0,0
257381,-105.263157894737,4,1,0,15,0,0
257396,-100,4,1,0,15,0,0
257411,-96.1538461538461,4,1,0,15,0,0
257426,-93.4579439252336,4,1,0,15,0,0
257441,-91.743119266055,4,1,0,15,0,0
257456,-90.9090909090909,4,1,0,15,0,0
257486,-92.5925925925926,4,1,0,15,0,0
257501,-95.2380952380952,4,1,0,15,0,0
257516,-98.0392156862745,4,1,0,15,0,0
257531,-103.092783505155,4,1,0,15,0,0
257546,-107.52688172043,4,1,0,15,0,0
257561,-114.942528735632,4,1,0,15,0,0
257576,-120.481927710843,4,1,0,15,0,0
257591,-128.205128205128,4,1,0,15,0,0
257606,-133.333333333333,4,1,0,15,0,0
257621,-138.888888888889,4,1,0,15,0,0
257636,-142.857142857143,4,1,0,15,0,0
257666,-140.845070422535,4,1,0,15,0,0
257681,-136.986301369863,4,1,0,15,0,0
257696,-131.578947368421,4,1,0,15,0,0
257711,-125,4,1,0,15,0,0
257726,-117.647058823529,4,1,0,15,0,0
257741,-111.111111111111,4,1,0,15,0,0
257756,-105.263157894737,4,1,0,15,0,0
257771,-100,4,1,0,15,0,0
257786,-96.1538461538461,4,1,0,15,0,0
257801,-93.4579439252336,4,1,0,15,0,0
257816,-91.743119266055,4,1,0,15,0,0
257831,-90.9090909090909,4,1,0,15,0,0
257861,-92.5925925925926,4,1,0,15,0,0
257876,-95.2380952380952,4,1,0,15,0,0
257891,-98.0392156862745,4,1,0,15,0,0
257906,-103.092783505155,4,1,0,15,0,0
257921,-107.52688172043,4,1,0,15,0,0
257936,-114.942528735632,4,1,0,15,0,0
257951,-120.481927710843,4,1,0,15,0,0
257966,-128.205128205128,4,1,0,15,0,0
257981,-133.333333333333,4,1,0,15,0,0
257996,-138.888888888889,4,1,0,15,0,0
258011,-142.857142857143,4,1,0,15,0,0
258041,-140.845070422535,4,1,0,15,0,0
258056,-136.986301369863,4,1,0,15,0,0
258071,-131.578947368421,4,1,0,15,0,0
258086,-125,4,1,0,15,0,0
258101,-117.647058823529,4,1,0,15,0,0
258116,-111.111111111111,4,1,0,15,0,0
258131,-105.263157894737,4,1,0,15,0,0
258146,-100,4,1,0,15,0,0
258161,-96.1538461538461,4,1,0,15,0,0
258176,-93.4579439252336,4,1,0,15,0,0
258191,-91.743119266055,4,1,0,15,0,0
258206,-90.9090909090909,4,1,0,15,0,0
258236,-92.5925925925926,4,1,0,15,0,0
258251,-95.2380952380952,4,1,0,15,0,0
258266,-98.0392156862745,4,1,0,15,0,0
258281,-103.092783505155,4,1,0,15,0,0
258296,-107.52688172043,4,1,0,15,0,0
258311,-114.942528735632,4,1,0,15,0,0
258326,-120.481927710843,4,1,0,15,0,0
258341,-128.205128205128,4,1,0,15,0,0
258356,-133.333333333333,4,1,0,15,0,0
258371,-138.888888888889,4,1,0,15,0,0
258386,-142.857142857143,4,1,0,15,0,0
258416,-140.845070422535,4,1,0,15,0,0
258431,-136.986301369863,4,1,0,15,0,0
258446,-131.578947368421,4,1,0,15,0,0
258461,-125,4,1,0,15,0,0
258476,-117.647058823529,4,1,0,15,0,0
258501,-83.3333333333333,4,1,0,15,0,0
258688,-90.9090909090909,4,1,0,25,0,0
258876,-100,4,1,0,25,0,0
259251,-105.263157894737,4,1,0,25,0,0
259626,-111.111111111111,4,1,0,25,0,0
260001,-117.647058823529,4,1,0,25,0,0
260376,-125,4,1,0,25,0,0
260751,-133.333333333333,4,1,0,25,0,0
261126,-142.857142857143,4,1,0,25,0,0
261501,-166.666666666667,4,1,0,25,0,0

[HitObjects]
192,192,3501,128,0,6126:0:0:0:0:
192,192,6501,128,0,9126:0:0:0:0:
448,192,9501,1,0,0:0:0:0:
64,192,9563,1,0,0:0:0:0:
192,192,9626,1,0,0:0:0:0:
320,192,9688,128,0,11751:0:0:0:0:
64,192,10251,1,0,0:0:0:0:
448,192,11001,1,0,0:0:0:0:
192,192,11751,1,0,0:0:0:0:
448,192,12501,1,0,0:0:0:0:
320,192,12563,1,0,0:0:0:0:
192,192,12626,1,0,0:0:0:0:
64,192,12688,128,0,14001:0:0:0:0:
320,192,13251,1,0,0:0:0:0:
192,192,14001,1,0,0:0:0:0:
64,192,14751,1,0,0:0:0:0:
448,192,15501,1,0,0:0:0:0:
192,192,15563,1,0,0:0:0:0:
64,192,15626,1,0,0:0:0:0:
320,192,15688,128,0,17751:0:0:0:0:
192,192,16251,1,0,0:0:0:0:
448,192,17001,1,0,0:0:0:0:
64,192,17751,1,0,0:0:0:0:
192,192,18501,1,0,0:0:0:0:
320,192,18563,1,0,0:0:0:0:
448,192,18626,1,0,0:0:0:0:
64,192,18688,128,0,20001:0:0:0:0:
320,192,19251,1,0,0:0:0:0:
192,192,20001,1,0,0:0:0:0:
64,192,20751,1,0,0:0:0:0:
448,192,21501,1,0,0:0:0:0:
64,192,21501,1,0,0:0:0:0:
192,192,21563,1,0,0:0:0:0:
320,192,21626,1,0,0:0:0:0:
448,192,21688,128,0,23751:0:0:0:0:
64,192,22251,1,0,0:0:0:0:
320,192,23001,1,0,0:0:0:0:
192,192,23751,1,0,0:0:0:0:
320,192,24501,1,0,0:0:0:0:
192,192,24563,1,0,0:0:0:0:
64,192,24626,1,0,0:0:0:0:
320,192,24688,128,0,26751:0:0:0:0:
448,192,25251,1,0,0:0:0:0:
192,192,26001,1,0,0:0:0:0:
64,192,26751,1,0,0:0:0:0:
64,192,27501,1,0,0:0:0:0:
320,192,27563,1,0,0:0:0:0:
448,192,27626,1,0,0:0:0:0:
192,192,27688,128,0,29751:0:0:0:0:
320,192,28251,1,0,0:0:0:0:
448,192,29001,1,0,0:0:0:0:
320,192,29751,1,0,0:0:0:0:
64,192,30501,1,0,0:0:0:0:
192,192,30563,1,0,0:0:0:0:
320,192,30626,1,0,0:0:0:0:
448,192,30688,128,0,32001:0:0:0:0:
320,192,31251,1,0,0:0:0:0:
192,192,32001,1,0,0:0:0:0:
448,192,32751,1,0,0:0:0:0:
64,192,33501,1,0,0:0:0:0:
448,192,33501,1,0,0:0:0:0:
192,192,33594,1,0,0:0:0:0:
320,192,33688,1,0,0:0:0:0:
64,192,33782,1,0,0:0:0:0:
448,192,33876,1,0,0:0:0:0:
320,192,33969,1,0,0:0:0:0:
192,192,34063,1,0,0:0:0:0:
64,192,34157,1,0,0:0:0:0:
448,192,34251,1,0,0:0:0:0:
192,192,34344,1,0,0:0:0:0:
320,192,34438,1,0,0:0:0:0:
64,192,34532,1,0,0:0:0:0:
448,192,34626,1,0,0:0:0:0:
320,192,34719,1,0,0:0:0:0:
192,192,34813,1,0,0:0:0:0:
64,192,34907,1,0,0:0:0:0:
448,192,35001,1,0,0:0:0:0:
192,192,35094,1,0,0:0:0:0:
320,192,35188,1,0,0:0:0:0:
64,192,35282,1,0,0:0:0:0:
448,192,35376,1,0,0:0:0:0:
320,192,35469,1,0,0:0:0:0:
192,192,35563,1,0,0:0:0:0:
64,192,35657,1,0,0:0:0:0:
448,192,35751,1,0,0:0:0:0:
192,192,35844,1,0,0:0:0:0:
320,192,35938,1,0,0:0:0:0:
64,192,36032,1,0,0:0:0:0:
448,192,36126,1,0,0:0:0:0:
320,192,36219,1,0,0:0:0:0:
192,192,36313,1,0,0:0:0:0:
64,192,36407,1,0,0:0:0:0:
448,192,36501,1,0,0:0:0:0:
192,192,36594,1,0,0:0:0:0:
320,192,36688,1,0,0:0:0:0:
64,192,36782,1,0,0:0:0:0:
448,192,36876,1,0,0:0:0:0:
320,192,36969,1,0,0:0:0:0:
192,192,37063,1,0,0:0:0:0:
64,192,37157,1,0,0:0:0:0:
448,192,37251,1,0,0:0:0:0:
192,192,37344,1,0,0:0:0:0:
320,192,37438,1,0,0:0:0:0:
64,192,37532,1,0,0:0:0:0:
448,192,37626,1,0,0:0:0:0:
320,192,37719,1,0,0:0:0:0:
192,192,37813,1,0,0:0:0:0:
64,192,37907,1,0,0:0:0:0:
448,192,38001,1,0,0:0:0:0:
192,192,38094,1,0,0:0:0:0:
320,192,38188,1,0,0:0:0:0:
64,192,38282,1,0,0:0:0:0:
448,192,38376,1,0,0:0:0:0:
320,192,38469,1,0,0:0:0:0:
192,192,38563,1,0,0:0:0:0:
64,192,38657,1,0,0:0:0:0:
448,192,38751,1,0,0:0:0:0:
192,192,38844,1,0,0:0:0:0:
320,192,38938,1,0,0:0:0:0:
64,192,39032,1,0,0:0:0:0:
448,192,39126,1,0,0:0:0:0:
320,192,39219,1,0,0:0:0:0:
192,192,39313,1,0,0:0:0:0:
64,192,39407,1,0,0:0:0:0:
320,192,39501,1,0,0:0:0:0:
448,192,39501,1,0,0:0:0:0:
192,192,39501,1,0,0:0:0:0:
64,192,39594,1,0,0:0:0:0:
64,192,39782,1,0,0:0:0:0:
320,192,39876,1,0,0:0:0:0:
448,192,39876,1,0,0:0:0:0:
192,192,40063,1,0,0:0:0:0:
320,192,40157,1,0,0:0:0:0:
192,192,40251,1,0,0:0:0:0:
64,192,40251,1,0,0:0:0:0:
320,192,40344,1,0,0:0:0:0:
448,192,40438,1,0,0:0:0:0:
320,192,40626,1,0,0:0:0:0:
64,192,40626,1,0,0:0:0:0:
192,192,40813,1,0,0:0:0:0:
64,192,41001,1,0,0:0:0:0:
448,192,41001,1,0,0:0:0:0:
320,192,41094,1,0,0:0:0:0:
320,192,41282,1,0,0:0:0:0:
192,192,41376,1,0,0:0:0:0:
448,192,41376,1,0,0:0:0:0:
64,192,41563,1,0,0:0:0:0:
320,192,41657,1,0,0:0:0:0:
64,192,41751,1,0,0:0:0:0:
448,192,41751,1,0,0:0:0:0:
192,192,41844,1,0,0:0:0:0:
448,192,41938,1,0,0:0:0:0:
64,192,42126,1,0,0:0:0:0:
320,192,42126,1,0,0:0:0:0:
320,192,42313,1,0,0:0:0:0:
320,192,42407,1,0,0:0:0:0:
448,192,42501,1,0,0:0:0:0:
64,192,42501,1,0,0:0:0:0:
192,192,42594,1,0,0:0:0:0:
192,192,42782,1,0,0:0:0:0:
448,192,42876,1,0,0:0:0:0:
320,192,42876,1,0,0:0:0:0:
320,192,43063,1,0,0:0:0:0:
64,192,43157,1,0,0:0:0:0:
448,192,43251,1,0,0:0:0:0:
192,192,43251,1,0,0:0:0:0:
64,192,43344,1,0,0:0:0:0:
320,192,43438,1,0,0:0:0:0:
448,192,43626,1,0,0:0:0:0:
64,192,43626,1,0,0:0:0:0:
192,192,43813,1,0,0:0:0:0:
64,192,44001,1,0,0:0:0:0:
320,192,44001,1,0,0:0:0:0:
448,192,44094,1,0,0:0:0:0:
192,192,44282,1,0,0:0:0:0:
320,192,44376,1,0,0:0:0:0:
64,192,44376,1,0,0:0:0:0:
448,192,44563,1,0,0:0:0:0:
192,192,44657,1,0,0:0:0:0:
448,192,44751,1,0,0:0:0:0:
64,192,44751,1,0,0:0:0:0:
320,192,44844,128,0,45501:0:0:0:0:
64,192,45032,128,0,45501:0:0:0:0:
448,192,45126,1,0,0:0:0:0:
192,192,45126,1,0,0:0:0:0:
192,192,45501,1,0,0:0:0:0:
448,192,45501,1,0,0:0:0:0:
320,192,45594,1,0,0:0:0:0:
64,192,45782,1,0,0:0:0:0:
320,192,45876,1,0,0:0:0:0:
192,192,45876,1,0,0:0:0:0:
448,192,46063,1,0,0:0:0:0:
192,192,46157,1,0,0:0:0:0:
448,192,46251,1,0,0:0:0:0:
320,192,46251,1,0,0:0:0:0:
64,192,46344,1,0,0:0:0:0:
320,192,46438,1,0,0:0:0:0:
320,192,46626,1,0,0:0:0:0:
64,192,46626,1,0,0:0:0:0:
192,192,46813,1,0,0:0:0:0:
320,192,47001,1,0,0:0:0:0:
448,192,47001,1,0,0:0:0:0:
192,192,47094,1,0,0:0:0:0:
320,192,47282,1,0,0:0:0:0:
448,192,47376,1,0,0:0:0:0:
64,192,47376,1,0,0:0:0:0:
192,192,47563,1,0,0:0:0:0:
448,192,47657,1,0,0:0:0:0:
320,192,47751,1,0,0:0:0:0:
192,192,47751,1,0,0:0:0:0:
64,192,47844,1,0,0:0:0:0:
320,192,47938,1,0,0:0:0:0:
448,192,48126,1,0,0:0:0:0:
192,192,48126,1,0,0:0:0:0:
192,192,48313,1,0,0:0:0:0:
192,192,48407,1,0,0:0:0:0:
64,192,48501,1,0,0:0:0:0:
448,192,48501,1,0,0:0:0:0:
320,192,48594,1,0,0:0:0:0:
64,192,48782,1,0,0:0:0:0:
448,192,48876,1,0,0:0:0:0:
192,192,48876,1,0,0:0:0:0:
320,192,49063,1,0,0:0:0:0:
64,192,49157,1,0,0:0:0:0:
448,192,49251,1,0,0:0:0:0:
320,192,49251,1,0,0:0:0:0:
192,192,49344,1,0,0:0:0:0:
448,192,49438,1,0,0:0:0:0:
192,192,49626,1,0,0:0:0:0:
320,192,49626,1,0,0:0:0:0:
192,192,49813,1,0,0:0:0:0:
448,192,50001,1,0,0:0:0:0:
64,192,50001,1,0,0:0:0:0:
320,192,50094,1,0,0:0:0:0:
192,192,50282,1,0,0:0:0:0:
64,192,50376,1,0,0:0:0:0:
448,192,50376,1,0,0:0:0:0:
192,192,50469,1,0,0:0:0:0:
64,192,50657,1,0,0:0:0:0:
448,192,50751,1,0,0:0:0:0:
320,192,50751,1,0,0:0:0:0:
320,192,50938,1,0,0:0:0:0:
192,192,51126,1,0,0:0:0:0:
448,192,51126,1,0,0:0:0:0:
64,192,51126,128,0,51501:0:0:0:0:
192,192,51501,1,0,0:0:0:0:
448,192,51501,1,0,0:0:0:0:
320,192,51501,1,0,0:0:0:0:
320,192,52063,1,0,0:0:0:0:
192,192,52063,1,0,0:0:0:0:
448,192,52251,1,0,0:0:0:0:
192,192,52251,1,0,0:0:0:0:
64,192,52251,1,0,0:0:0:0:
320,192,52813,1,0,0:0:0:0:
64,192,52813,1,0,0:0:0:0:
448,192,53001,1,0,0:0:0:0:
320,192,53001,1,0,0:0:0:0:
192,192,53001,1,0,0:0:0:0:
448,192,53563,1,0,0:0:0:0:
64,192,53563,1,0,0:0:0:0:
64,192,53751,1,0,0:0:0:0:
320,192,53751,1,0,0:0:0:0:
192,192,53751,1,0,0:0:0:0:
448,192,54313,1,0,0:0:0:0:
320,192,54313,1,0,0:0:0:0:
192,192,54313,1,0,0:0:0:0:
448,192,54501,1,0,0:0:0:0:
192,192,54501,1,0,0:0:0:0:
64,192,54501,1,0,0:0:0:0:
320,192,55063,1,0,0:0:0:0:
192,192,55063,1,0,0:0:0:0:
320,192,55251,1,0,0:0:0:0:
448,192,55251,1,0,0:0:0:0:
64,192,55251,1,0,0:0:0:0:
320,192,55813,1,0,0:0:0:0:
192,192,55813,1,0,0:0:0:0:
64,192,55813,1,0,0:0:0:0:
192,192,56001,1,0,0:0:0:0:
448,192,56001,1,0,0:0:0:0:
320,192,56001,1,0,0:0:0:0:
448,192,56282,1,0,0:0:0:0:
192,192,56282,1,0,0:0:0:0:
64,192,56282,1,0,0:0:0:0:
64,192,56563,1,0,0:0:0:0:
320,192,56563,1,0,0:0:0:0:
192,192,56563,1,0,0:0:0:0:
64,192,56844,1,0,0:0:0:0:
448,192,56844,1,0,0:0:0:0:
320,192,56844,1,0,0:0:0:0:
448,192,57126,1,0,0:0:0:0:
192,192,57126,1,0,0:0:0:0:
64,192,57126,1,0,0:0:0:0:
320,192,57501,128,0,57594:0:0:0:0:
448,192,57501,1,0,0:0:0:0:
64,192,57501,1,0,0:0:0:0:
192,192,57594,128,0,57688:0:0:0:0:
64,192,57688,1,0,0:0:0:0:
448,192,57688,1,0,0:0:0:0:
192,192,57782,128,0,57876:0:0:0:0:
320,192,57876,128,0,57969:0:0:0:0:
448,192,57876,1,0,0:0:0:0:
192,192,57969,128,0,58063:0:0:0:0:
320,192,58063,1,0,0:0:0:0:
64,192,58063,1,0,0:0:0:0:
448,192,58157,128,0,58251:0:0:0:0:
192,192,58157,1,0,0:0:0:0:
320,192,58251,128,0,58344:0:0:0:0:
64,192,58251,1,0,0:0:0:0:
448,192,58344,128,0,58438:0:0:0:0:
320,192,58438,1,0,0:0:0:0:
192,192,58438,1,0,0:0:0:0:
64,192,58532,128,0,58626:0:0:0:0:
448,192,58626,1,0,0:0:0:0:
192,192,58626,128,0,58719:0:0:0:0:
64,192,58719,128,0,58813:0:0:0:0:
320,192,58813,1,0,0:0:0:0:
448,192,58813,1,0,0:0:0:0:
64,192,58907,1,0,0:0:0:0:
192,192,58907,128,0,59001:0:0:0:0:
320,192,59001,128,0,59094:0:0:0:0:
448,192,59001,1,0,0:0:0:0:
64,192,59094,128,0,59188:0:0:0:0:
192,192,59188,1,0,0:0:0:0:
448,192,59282,128,0,59376:0:0:0:0:
64,192,59376,1,0,0:0:0:0:
320,192,59376,128,0,59469:0:0:0:0:
192,192,59469,128,0,59563:0:0:0:0:
64,192,59563,1,0,0:0:0:0:
448,192,59563,1,0,0:0:0:0:
192,192,59657,1,0,0:0:0:0:
320,192,59657,128,0,59751:0:0:0:0:
64,192,59751,128,0,59844:0:0:0:0:
448,192,59751,1,0,0:0:0:0:
320,192,59938,1,0,0:0:0:0:
64,192,59938,128,0,60032:0:0:0:0:
448,192,60126,1,0,0:0:0:0:
320,192,60126,1,0,0:0:0:0:
64,192,60126,128,0,60501:0:0:0:0:
192,192,60219,1,0,0:0:0:0:
448,192,60313,1,0,0:0:0:0:
320,192,60313,1,0,0:0:0:0:
192,192,60407,1,0,0:0:0:0:
448,192,60501,1,0,0:0:0:0:
320,192,60501,1,0,0:0:0:0:
192,192,60594,1,0,0:0:0:0:
64,192,60594,1,0,0:0:0:0:
448,192,60688,1,0,0:0:0:0:
320,192,60688,1,0,0:0:0:0:
192,192,60782,1,0,0:0:0:0:
64,192,60782,1,0,0:0:0:0:
448,192,60876,1,0,0:0:0:0:
320,192,60876,1,0,0:0:0:0:
192,192,60969,1,0,0:0:0:0:
64,192,60969,1,0,0:0:0:0:
448,192,61063,1,0,0:0:0:0:
320,192,61063,1,0,0:0:0:0:
192,192,61157,1,0,0:0:0:0:
64,192,61157,1,0,0:0:0:0:
448,192,61251,1,0,0:0:0:0:
320,192,61251,1,0,0:0:0:0:
192,192,61344,1,0,0:0:0:0:
64,192,61344,1,0,0:0:0:0:
448,192,61438,1,0,0:0:0:0:
320,192,61438,1,0,0:0:0:0:
192,192,61532,1,0,0:0:0:0:
64,192,61532,1,0,0:0:0:0:
320,192,61626,1,0,0:0:0:0:
448,192,61672,1,0,0:0:0:0:
192,192,61719,1,0,0:0:0:0:
64,192,61766,1,0,0:0:0:0:
320,192,61813,1,0,0:0:0:0:
448,192,61860,1,0,0:0:0:0:
192,192,61907,1,0,0:0:0:0:
64,192,61954,1,0,0:0:0:0:
320,192,62001,1,0,0:0:0:0:
64,192,63126,1,0,0:0:0:0:
448,192,63126,1,0,0:0:0:0:
64,192,63501,5,0,0:0:0:0:
320,192,63501,1,0,0:0:0:0:
448,192,63501,1,0,0:0:0:0:
192,192,63594,1,0,0:0:0:0:
192,192,63688,1,0,0:0:0:0:
192,192,63782,1,0,0:0:0:0:
448,192,63876,1,0,0:0:0:0:
64,192,63876,1,0,0:0:0:0:
320,192,63876,1,0,0:0:0:0:
320,192,63969,1,0,0:0:0:0:
192,192,64063,1,0,0:0:0:0:
64,192,64157,1,0,0:0:0:0:
64,192,64251,1,0,0:0:0:0:
192,192,64251,1,0,0:0:0:0:
448,192,64251,1,0,0:0:0:0:
320,192,64344,1,0,0:0:0:0:
320,192,64438,1,0,0:0:0:0:
320,192,64532,1,0,0:0:0:0:
64,192,64626,1,0,0:0:0:0:
192,192,64626,1,0,0:0:0:0:
448,192,64626,1,0,0:0:0:0:
448,192,64719,1,0,0:0:0:0:
192,192,64813,1,0,0:0:0:0:
192,192,64907,1,0,0:0:0:0:
64,192,65001,5,0,0:0:0:0:
192,192,65001,1,0,0:0:0:0:
448,192,65001,1,0,0:0:0:0:
320,192,65094,1,0,0:0:0:0:
320,192,65188,1,0,0:0:0:0:
320,192,65282,1,0,0:0:0:0:
448,192,65376,1,0,0:0:0:0:
64,192,65376,1,0,0:0:0:0:
192,192,65376,1,0,0:0:0:0:
320,192,65469,1,0,0:0:0:0:
192,192,65563,1,0,0:0:0:0:
64,192,65657,1,0,0:0:0:0:
64,192,65751,1,0,0:0:0:0:
320,192,65751,1,0,0:0:0:0:
448,192,65751,1,0,0:0:0:0:
192,192,65844,1,0,0:0:0:0:
192,192,65938,1,0,0:0:0:0:
192,192,66032,1,0,0:0:0:0:
448,192,66126,1,0,0:0:0:0:
320,192,66126,1,0,0:0:0:0:
64,192,66219,1,0,0:0:0:0:
192,192,66219,1,0,0:0:0:0:
320,192,66313,1,0,0:0:0:0:
448,192,66313,1,0,0:0:0:0:
192,192,66407,1,0,0:0:0:0:
64,192,66407,1,0,0:0:0:0:
320,192,66501,1,0,0:0:0:0:
448,192,66501,1,0,0:0:0:0:
64,192,66501,1,0,0:0:0:0:
192,192,66594,1,0,0:0:0:0:
192,192,66688,1,0,0:0:0:0:
192,192,66782,1,0,0:0:0:0:
448,192,66876,1,0,0:0:0:0:
320,192,66876,1,0,0:0:0:0:
64,192,66876,1,0,0:0:0:0:
192,192,66969,1,0,0:0:0:0:
320,192,67063,1,0,0:0:0:0:
448,192,67157,1,0,0:0:0:0:
64,192,67251,1,0,0:0:0:0:
448,192,67251,1,0,0:0:0:0:
320,192,67251,1,0,0:0:0:0:
192,192,67344,1,0,0:0:0:0:
192,192,67438,1,0,0:0:0:0:
192,192,67532,1,0,0:0:0:0:
64,192,67626,1,0,0:0:0:0:
320,192,67626,1,0,0:0:0:0:
448,192,67626,1,0,0:0:0:0:
320,192,67719,1,0,0:0:0:0:
192,192,67813,1,0,0:0:0:0:
192,192,67907,1,0,0:0:0:0:
320,192,68001,1,0,0:0:0:0:
448,192,68001,1,0,0:0:0:0:
64,192,68047,1,0,0:0:0:0:
320,192,68094,1,0,0:0:0:0:
64,192,68141,1,0,0:0:0:0:
320,192,68188,1,0,0:0:0:0:
192,192,68282,1,0,0:0:0:0:
192,192,68376,128,0,68469:0:0:0:0:
448,192,68376,1,0,0:0:0:0:
64,192,68563,128,0,68657:0:0:0:0:
320,192,68657,128,0,68751:0:0:0:0:
192,192,68751,128,0,68844:0:0:0:0:
320,192,68844,128,0,68938:0:0:0:0:
192,192,68938,128,0,69126:0:0:0:0:
64,192,69126,1,0,0:0:0:0:
448,192,69126,1,0,0:0:0:0:
192,192,69219,1,0,0:0:0:0:
320,192,69219,1,0,0:0:0:0:
64,192,69313,1,0,0:0:0:0:
448,192,69313,1,0,0:0:0:0:
192,192,69407,1,0,0:0:0:0:
320,192,69407,1,0,0:0:0:0:
320,192,69501,128,0,69876:0:0:0:0:
64,192,69501,1,0,0:0:0:0:
448,192,69594,1,0,0:0:0:0:
64,192,69688,1,0,0:0:0:0:
192,192,69782,1,0,0:0:0:0:
64,192,69876,128,0,70251:0:0:0:0:
448,192,69876,1,0,0:0:0:0:
320,192,69969,1,0,0:0:0:0:
448,192,70063,1,0,0:0:0:0:
320,192,70157,1,0,0:0:0:0:
192,192,70251,128,0,70626:0:0:0:0:
448,192,70251,1,0,0:0:0:0:
64,192,70344,1,0,0:0:0:0:
448,192,70438,1,0,0:0:0:0:
320,192,70532,1,0,0:0:0:0:
448,192,70626,128,0,71001:0:0:0:0:
64,192,70626,1,0,0:0:0:0:
192,192,70719,1,0,0:0:0:0:
320,192,70813,1,0,0:0:0:0:
192,192,70907,1,0,0:0:0:0:
320,192,71001,128,0,71376:0:0:0:0:
64,192,71001,1,0,0:0:0:0:
448,192,71094,1,0,0:0:0:0:
64,192,71188,1,0,0:0:0:0:
448,192,71282,1,0,0:0:0:0:
64,192,71376,128,0,71751:0:0:0:0:
192,192,71376,1,0,0:0:0:0:
448,192,71469,1,0,0:0:0:0:
192,192,71563,1,0,0:0:0:0:
448,192,71657,1,0,0:0:0:0:
192,192,71751,128,0,72126:0:0:0:0:
320,192,71751,1,0,0:0:0:0:
64,192,71844,1,0,0:0:0:0:
320,192,71938,1,0,0:0:0:0:
64,192,72032,1,0,0:0:0:0:
448,192,72126,1,0,0:0:0:0:
320,192,72126,1,0,0:0:0:0:
320,192,72219,1,0,0:0:0:0:
448,192,72219,1,0,0:0:0:0:
192,192,72313,1,0,0:0:0:0:
64,192,72313,1,0,0:0:0:0:
64,192,72407,1,0,0:0:0:0:
192,192,72407,1,0,0:0:0:0:
448,192,72501,1,0,0:0:0:0:
320,192,72501,128,0,72969:0:0:0:0:
64,192,72594,1,0,0:0:0:0:
448,192,72688,1,0,0:0:0:0:
64,192,72782,1,0,0:0:0:0:
192,192,72876,1,0,0:0:0:0:
64,192,72969,128,0,73344:0:0:0:0:
448,192,72969,1,0,0:0:0:0:
192,192,73063,1,0,0:0:0:0:
448,192,73157,1,0,0:0:0:0:
320,192,73251,1,0,0:0:0:0:
192,192,73344,128,0,73719:0:0:0:0:
448,192,73344,1,0,0:0:0:0:
64,192,73438,1,0,0:0:0:0:
448,192,73532,1,0,0:0:0:0:
320,192,73626,1,0,0:0:0:0:
448,192,73719,128,0,74094:0:0:0:0:
64,192,73719,1,0,0:0:0:0:
192,192,73813,1,0,0:0:0:0:
320,192,73907,1,0,0:0:0:0:
192,192,74001,1,0,0:0:0:0:
64,192,74188,128,0,74282:0:0:0:0:
192,192,74188,128,0,74376:0:0:0:0:
320,192,74188,128,0,74469:0:0:0:0:
448,192,74188,128,0,74563:0:0:0:0:
64,192,74376,128,0,74563:0:0:0:0:
192,192,74469,128,0,74657:0:0:0:0:
320,192,74563,128,0,74751:0:0:0:0:
448,192,74657,128,0,74844:0:0:0:0:
64,192,74657,128,0,75126:0:0:0:0:
192,192,74751,128,0,74938:0:0:0:0:
320,192,74844,128,0,74938:0:0:0:0:
448,192,74938,128,0,75126:0:0:0:0:
320,192,75032,128,0,75219:0:0:0:0:
192,192,75126,128,0,75407:0:0:0:0:
64,192,75219,128,0,75407:0:0:0:0:
448,192,75219,128,0,75407:0:0:0:0:
320,192,75313,128,0,75407:0:0:0:0:
192,192,75501,128,0,75782:0:0:0:0:
448,192,75501,1,0,0:0:0:0:
320,192,75501,1,0,0:0:0:0:
64,192,75501,1,0,0:0:0:0:
64,192,75594,1,0,0:0:0:0:
320,192,75688,1,0,0:0:0:0:
448,192,75782,1,0,0:0:0:0:
192,192,75876,128,0,76438:0:0:0:0:
320,192,75876,1,0,0:0:0:0:
448,192,75876,1,0,0:0:0:0:
448,192,75969,1,0,0:0:0:0:
320,192,76063,1,0,0:0:0:0:
64,192,76157,1,0,0:0:0:0:
448,192,76251,1,0,0:0:0:0:
320,192,76251,1,0,0:0:0:0:
64,192,76344,1,0,0:0:0:0:
448,192,76438,128,0,77001:0:0:0:0:
320,192,76438,1,0,0:0:0:0:
192,192,76532,1,0,0:0:0:0:
320,192,76626,1,0,0:0:0:0:
64,192,76626,1,0,0:0:0:0:
192,192,76719,1,0,0:0:0:0:
320,192,76813,1,0,0:0:0:0:
64,192,76813,1,0,0:0:0:0:
192,192,76907,1,0,0:0:0:0:
320,192,77001,1,0,0:0:0:0:
192,192,77001,1,0,0:0:0:0:
64,192,77094,128,0,77657:0:0:0:0:
448,192,77094,1,0,0:0:0:0:
320,192,77188,1,0,0:0:0:0:
192,192,77282,1,0,0:0:0:0:
320,192,77376,1,0,0:0:0:0:
448,192,77376,1,0,0:0:0:0:
192,192,77469,1,0,0:0:0:0:
320,192,77563,1,0,0:0:0:0:
448,192,77657,1,0,0:0:0:0:
320,192,77751,128,0,78126:0:0:0:0:
192,192,77751,1,0,0:0:0:0:
64,192,77844,1,0,0:0:0:0:
64,192,77938,1,0,0:0:0:0:
448,192,78032,1,0,0:0:0:0:
448,192,78126,1,0,0:0:0:0:
192,192,78126,1,0,0:0:0:0:
320,192,78219,128,0,78501:0:0:0:0:
64,192,78313,128,0,78407:0:0:0:0:
448,192,78313,128,0,78407:0:0:0:0:
192,192,78407,128,0,78501:0:0:0:0:
448,192,78501,128,0,78594:0:0:0:0:
64,192,78594,128,0,79157:0:0:0:0:
448,192,78688,128,0,78782:0:0:0:0:
192,192,78876,1,0,0:0:0:0:
320,192,78969,1,0,0:0:0:0:
448,192,79063,1,0,0:0:0:0:
320,192,79157,1,0,0:0:0:0:
192,192,79251,1,0,0:0:0:0:
448,192,79344,128,0,79626:0:0:0:0:
64,192,79344,1,0,0:0:0:0:
64,192,79438,1,0,0:0:0:0:
192,192,79532,1,0,0:0:0:0:
192,192,79626,1,0,0:0:0:0:
448,192,79719,128,0,80001:0:0:0:0:
320,192,79719,1,0,0:0:0:0:
192,192,79813,1,0,0:0:0:0:
64,192,79907,1,0,0:0:0:0:
192,192,80001,1,0,0:0:0:0:
320,192,80094,128,0,80376:0:0:0:0:
192,192,80094,1,0,0:0:0:0:
192,192,80188,1,0,0:0:0:0:
448,192,80282,1,0,0:0:0:0:
64,192,80376,1,0,0:0:0:0:
320,192,80469,128,0,80751:0:0:0:0:
192,192,80563,1,0,0:0:0:0:
64,192,80657,1,0,0:0:0:0:
192,192,80751,1,0,0:0:0:0:
320,192,80844,1,0,0:0:0:0:
448,192,80938,128,0,81032:0:0:0:0:
320,192,81032,128,0,81126:0:0:0:0:
192,192,81126,128,0,81219:0:0:0:0:
320,192,81219,128,0,81313:0:0:0:0:
192,192,81313,128,0,81407:0:0:0:0:
64,192,81407,128,0,81501:0:0:0:0:
320,192,81501,1,0,0:0:0:0:
320,192,81594,1,0,0:0:0:0:
320,192,81688,1,0,0:0:0:0:
448,192,81782,1,0,0:0:0:0:
320,192,81876,1,0,0:0:0:0:
192,192,81969,1,0,0:0:0:0:
64,192,82063,1,0,0:0:0:0:
192,192,82157,1,0,0:0:0:0:
64,192,82251,128,0,82438:0:0:0:0:
320,192,82251,128,0,82344:0:0:0:0:
448,192,82251,128,0,82438:0:0:0:0:
192,192,82344,128,0,82438:0:0:0:0:
320,192,82438,128,0,82532:0:0:0:0:
448,192,82532,128,0,82626:0:0:0:0:
64,192,82532,128,0,82626:0:0:0:0:
320,192,82626,128,0,82719:0:0:0:0:
192,192,82719,128,0,82813:0:0:0:0:
64,192,82719,128,0,83001:0:0:0:0:
320,192,82813,128,0,83001:0:0:0:0:
192,192,83001,1,0,0:0:0:0:
448,192,83001,1,0,0:0:0:0:
320,192,83094,1,0,0:0:0:0:
320,192,83188,1,0,0:0:0:0:
320,192,83282,1,0,0:0:0:0:
448,192,83376,1,0,0:0:0:0:
320,192,83469,1,0,0:0:0:0:
192,192,83563,1,0,0:0:0:0:
64,192,83657,1,0,0:0:0:0:
64,192,83751,128,0,84126:0:0:0:0:
448,192,83751,128,0,83938:0:0:0:0:
192,192,83751,128,0,83844:0:0:0:0:
320,192,83844,128,0,83938:0:0:0:0:
192,192,83938,128,0,84126:0:0:0:0:
320,192,84032,128,0,84126:0:0:0:0:
448,192,84126,128,0,84501:0:0:0:0:
320,192,84219,128,0,84313:0:0:0:0:
192,192,84313,128,0,84407:0:0:0:0:
64,192,84407,128,0,84501:0:0:0:0:
192,192,84501,1,0,0:0:0:0:
320,192,84501,1,0,0:0:0:0:
320,192,84594,1,0,0:0:0:0:
320,192,84688,1,0,0:0:0:0:
320,192,84782,1,0,0:0:0:0:
64,192,84876,128,0,85063:0:0:0:0:
448,192,84876,128,0,85063:0:0:0:0:
192,192,85063,128,0,85251:0:0:0:0:
320,192,85063,128,0,85251:0:0:0:0:
64,192,85251,1,0,0:0:0:0:
448,192,85251,1,0,0:0:0:0:
192,192,85344,1,0,0:0:0:0:
192,192,85438,1,0,0:0:0:0:
192,192,85532,1,0,0:0:0:0:
64,192,85626,128,0,85719:0:0:0:0:
448,192,85719,128,0,85813:0:0:0:0:
64,192,85813,128,0,85907:0:0:0:0:
448,192,85907,128,0,86001:0:0:0:0:
192,192,86188,1,0,0:0:0:0:
320,192,86282,1,0,0:0:0:0:
192,192,86376,1,0,0:0:0:0:
320,192,86563,1,0,0:0:0:0:
320,192,86657,1,0,0:0:0:0:
192,192,86844,1,0,0:0:0:0:
320,192,86938,1,0,0:0:0:0:
64,192,87126,1,0,0:0:0:0:
192,192,87126,1,0,0:0:0:0:
448,192,87126,1,0,0:0:0:0:
64,192,87501,1,0,0:0:0:0:
320,192,87501,1,0,0:0:0:0:
448,192,87501,1,0,0:0:0:0:
192,192,87501,128,0,87876:0:0:0:0:
320,192,87594,1,0,0:0:0:0:
448,192,87688,1,0,0:0:0:0:
64,192,87782,1,0,0:0:0:0:
64,192,87876,128,0,88251:0:0:0:0:
448,192,87876,1,0,0:0:0:0:
320,192,87969,1,0,0:0:0:0:
192,192,88063,1,0,0:0:0:0:
320,192,88157,1,0,0:0:0:0:
320,192,88251,128,0,88626:0:0:0:0:
448,192,88251,1,0,0:0:0:0:
192,192,88344,1,0,0:0:0:0:
64,192,88438,1,0,0:0:0:0:
192,192,88532,1,0,0:0:0:0:
448,192,88626,128,0,89001:0:0:0:0:
64,192,88626,1,0,0:0:0:0:
320,192,88719,1,0,0:0:0:0:
192,192,88813,1,0,0:0:0:0:
64,192,88907,1,0,0:0:0:0:
320,192,89001,128,0,89376:0:0:0:0:
192,192,89001,1,0,0:0:0:0:
448,192,89094,1,0,0:0:0:0:
64,192,89188,1,0,0:0:0:0:
448,192,89282,1,0,0:0:0:0:
192,192,89376,128,0,89751:0:0:0:0:
64,192,89376,1,0,0:0:0:0:
320,192,89469,1,0,0:0:0:0:
448,192,89563,1,0,0:0:0:0:
320,192,89657,1,0,0:0:0:0:
64,192,89751,128,0,90126:0:0:0:0:
448,192,89751,1,0,0:0:0:0:
320,192,89844,1,0,0:0:0:0:
192,192,89938,1,0,0:0:0:0:
320,192,90032,1,0,0:0:0:0:
192,192,90126,1,0,0:0:0:0:
448,192,90126,128,0,90501:0:0:0:0:
320,192,90219,1,0,0:0:0:0:
192,192,90313,1,0,0:0:0:0:
64,192,90407,1,0,0:0:0:0:
192,192,90501,128,0,90876:0:0:0:0:
320,192,90501,1,0,0:0:0:0:
448,192,90594,1,0,0:0:0:0:
320,192,90688,1,0,0:0:0:0:
448,192,90782,1,0,0:0:0:0:
320,192,90876,128,0,91251:0:0:0:0:
64,192,90876,1,0,0:0:0:0:
192,192,90969,1,0,0:0:0:0:
448,192,91063,1,0,0:0:0:0:
192,192,91157,1,0,0:0:0:0:
64,192,91251,128,0,91626:0:0:0:0:
448,192,91251,1,0,0:0:0:0:
320,192,91344,1,0,0:0:0:0:
192,192,91438,1,0,0:0:0:0:
448,192,91532,1,0,0:0:0:0:
448,192,91626,128,0,92001:0:0:0:0:
320,192,91626,1,0,0:0:0:0:
192,192,91719,1,0,0:0:0:0:
64,192,91813,1,0,0:0:0:0:
320,192,91907,1,0,0:0:0:0:
64,192,92001,128,0,92094:0:0:0:0:
192,192,92001,128,0,92282:0:0:0:0:
320,192,92001,128,0,92469:0:0:0:0:
64,192,92188,128,0,92376:0:0:0:0:
448,192,92282,128,0,92751:0:0:0:0:
192,192,92376,128,0,92563:0:0:0:0:
320,192,92563,128,0,92751:0:0:0:0:
64,192,92751,128,0,92844:0:0:0:0:
192,192,92751,128,0,92844:0:0:0:0:
320,192,92844,128,0,92938:0:0:0:0:
64,192,92938,128,0,93126:0:0:0:0:
192,192,93032,128,0,93126:0:0:0:0:
320,192,93126,128,0,93501:0:0:0:0:
64,192,93313,128,0,93501:0:0:0:0:
192,192,93501,128,0,93876:0:0:0:0:
448,192,93501,1,0,0:0:0:0:
320,192,93594,1,0,0:0:0:0:
448,192,93688,1,0,0:0:0:0:
64,192,93782,1,0,0:0:0:0:
64,192,93876,128,0,94251:0:0:0:0:
448,192,93876,1,0,0:0:0:0:
320,192,93969,1,0,0:0:0:0:
192,192,94063,1,0,0:0:0:0:
320,192,94157,1,0,0:0:0:0:
320,192,94251,128,0,94626:0:0:0:0:
448,192,94251,1,0,0:0:0:0:
192,192,94344,1,0,0:0:0:0:
64,192,94438,1,0,0:0:0:0:
192,192,94532,1,0,0:0:0:0:
448,192,94626,128,0,95001:0:0:0:0:
64,192,94626,1,0,0:0:0:0:
320,192,94719,1,0,0:0:0:0:
192,192,94813,1,0,0:0:0:0:
64,192,94907,1,0,0:0:0:0:
320,192,95001,128,0,95376:0:0:0:0:
192,192,95001,1,0,0:0:0:0:
448,192,95094,1,0,0:0:0:0:
64,192,95188,1,0,0:0:0:0:
448,192,95282,1,0,0:0:0:0:
192,192,95376,128,0,95751:0:0:0:0:
64,192,95376,1,0,0:0:0:0:
320,192,95469,1,0,0:0:0:0:
448,192,95563,1,0,0:0:0:0:
320,192,95657,1,0,0:0:0:0:
64,192,95751,128,0,96126:0:0:0:0:
448,192,95751,1,0,0:0:0:0:
320,192,95844,1,0,0:0:0:0:
192,192,95938,1,0,0:0:0:0:
320,192,96032,1,0,0:0:0:0:
192,192,96126,1,0,0:0:0:0:
448,192,96126,128,0,96501:0:0:0:0:
320,192,96219,1,0,0:0:0:0:
192,192,96313,1,0,0:0:0:0:
64,192,96407,1,0,0:0:0:0:
192,192,96501,128,0,96876:0:0:0:0:
320,192,96501,1,0,0:0:0:0:
448,192,96594,1,0,0:0:0:0:
320,192,96688,1,0,0:0:0:0:
448,192,96782,1,0,0:0:0:0:
320,192,96876,128,0,97251:0:0:0:0:
64,192,96876,1,0,0:0:0:0:
192,192,96969,1,0,0:0:0:0:
448,192,97063,1,0,0:0:0:0:
192,192,97157,1,0,0:0:0:0:
64,192,97251,128,0,97626:0:0:0:0:
448,192,97251,1,0,0:0:0:0:
320,192,97344,1,0,0:0:0:0:
192,192,97438,1,0,0:0:0:0:
448,192,97532,1,0,0:0:0:0:
448,192,97626,128,0,98001:0:0:0:0:
320,192,97626,1,0,0:0:0:0:
192,192,97719,1,0,0:0:0:0:
64,192,97813,1,0,0:0:0:0:
64,192,97907,128,0,98001:0:0:0:0:
320,192,97907,1,0,0:0:0:0:
192,192,98001,128,0,98282:0:0:0:0:
320,192,98001,128,0,98188:0:0:0:0:
64,192,98094,128,0,98563:0:0:0:0:
448,192,98188,128,0,98282:0:0:0:0:
320,192,98282,128,0,98376:0:0:0:0:
192,192,98376,128,0,98469:0:0:0:0:
192,192,98563,128,0,98657:0:0:0:0:
320,192,98657,128,0,98751:0:0:0:0:
448,192,98751,128,0,99313:0:0:0:0:
320,192,98844,128,0,98938:0:0:0:0:
192,192,98938,128,0,99126:0:0:0:0:
64,192,99126,128,0,99219:0:0:0:0:
320,192,99219,128,0,99313:0:0:0:0:
64,192,99313,128,0,99407:0:0:0:0:
448,192,99407,128,0,99501:0:0:0:0:
64,192,99501,128,0,99876:0:0:0:0:
320,192,99501,128,0,99876:0:0:0:0:
192,192,99876,128,0,100251:0:0:0:0:
448,192,99876,1,0,0:0:0:0:
320,192,99969,1,0,0:0:0:0:
448,192,100063,1,0,0:0:0:0:
64,192,100157,1,0,0:0:0:0:
448,192,100251,1,0,0:0:0:0:
64,192,100251,128,0,100626:0:0:0:0:
320,192,100344,1,0,0:0:0:0:
192,192,100438,1,0,0:0:0:0:
320,192,100532,1,0,0:0:0:0:
448,192,100626,1,0,0:0:0:0:
320,192,100626,128,0,101001:0:0:0:0:
192,192,100719,1,0,0:0:0:0:
64,192,100813,1,0,0:0:0:0:
192,192,100907,1,0,0:0:0:0:
64,192,101001,1,0,0:0:0:0:
448,192,101001,128,0,101376:0:0:0:0:
320,192,101094,1,0,0:0:0:0:
192,192,101188,1,0,0:0:0:0:
64,192,101282,1,0,0:0:0:0:
192,192,101376,1,0,0:0:0:0:
320,192,101376,128,0,101751:0:0:0:0:
448,192,101469,1,0,0:0:0:0:
64,192,101563,1,0,0:0:0:0:
448,192,101657,1,0,0:0:0:0:
64,192,101751,1,0,0:0:0:0:
192,192,101751,128,0,102126:0:0:0:0:
320,192,101844,1,0,0:0:0:0:
448,192,101938,1,0,0:0:0:0:
320,192,102032,1,0,0:0:0:0:
448,192,102126,1,0,0:0:0:0:
64,192,102126,128,0,102501:0:0:0:0:
320,192,102219,1,0,0:0:0:0:
192,192,102313,1,0,0:0:0:0:
320,192,102407,1,0,0:0:0:0:
448,192,102501,128,0,102876:0:0:0:0:
192,192,102501,1,0,0:0:0:0:
320,192,102594,1,0,0:0:0:0:
192,192,102688,1,0,0:0:0:0:
64,192,102782,1,0,0:0:0:0:
320,192,102876,1,0,0:0:0:0:
192,192,102876,128,0,103251:0:0:0:0:
448,192,102969,1,0,0:0:0:0:
320,192,103063,1,0,0:0:0:0:
448,192,103157,1,0,0:0:0:0:
64,192,103251,1,0,0:0:0:0:
320,192,103251,128,0,103626:0:0:0:0:
192,192,103344,1,0,0:0:0:0:
448,192,103438,1,0,0:0:0:0:
192,192,103532,1,0,0:0:0:0:
448,192,103626,1,0,0:0:0:0:
64,192,103626,128,0,104001:0:0:0:0:
320,192,103719,1,0,0:0:0:0:
192,192,103813,1,0,0:0:0:0:
448,192,103907,1,0,0:0:0:0:
448,192,104001,128,0,104094:0:0:0:0:
192,192,104001,128,0,104282:0:0:0:0:
320,192,104001,128,0,104469:0:0:0:0:
64,192,104188,128,0,104376:0:0:0:0:
448,192,104282,128,0,104751:0:0:0:0:
192,192,104376,128,0,104563:0:0:0:0:
320,192,104563,128,0,104751:0:0:0:0:
64,192,104751,128,0,104844:0:0:0:0:
192,192,104751,128,0,104844:0:0:0:0:
320,192,104844,128,0,104938:0:0:0:0:
448,192,104844,128,0,104938:0:0:0:0:
64,192,104938,128,0,105126:0:0:0:0:
192,192,104938,128,0,105032:0:0:0:0:
448,192,105032,128,0,105126:0:0:0:0:
320,192,105032,128,0,105126:0:0:0:0:
192,192,105126,128,0,105219:0:0:0:0:
320,192,105219,128,0,105313:0:0:0:0:
448,192,105219,128,0,105313:0:0:0:0:
64,192,105313,128,0,105876:0:0:0:0:
192,192,105313,128,0,105407:0:0:0:0:
320,192,105407,128,0,105501:0:0:0:0:
448,192,105407,128,0,105501:0:0:0:0:
448,192,105876,1,0,0:0:0:0:
320,192,105876,1,0,0:0:0:0:
192,192,105969,1,0,0:0:0:0:
192,192,106063,1,0,0:0:0:0:
192,192,106157,1,0,0:0:0:0:
64,192,106251,1,0,0:0:0:0:
448,192,106344,1,0,0:0:0:0:
64,192,106438,1,0,0:0:0:0:
448,192,106532,1,0,0:0:0:0:
64,192,106626,1,0,0:0:0:0:
448,192,106626,1,0,0:0:0:0:
192,192,106626,1,0,0:0:0:0:
320,192,106719,1,0,0:0:0:0:
320,192,106813,1,0,0:0:0:0:
320,192,106907,1,0,0:0:0:0:
192,192,107001,1,0,0:0:0:0:
320,192,107094,1,0,0:0:0:0:
192,192,107188,1,0,0:0:0:0:
320,192,107282,1,0,0:0:0:0:
192,192,107376,1,0,0:0:0:0:
448,192,107376,1,0,0:0:0:0:
320,192,107376,1,0,0:0:0:0:
64,192,107469,1,0,0:0:0:0:
64,192,107563,1,0,0:0:0:0:
64,192,107657,1,0,0:0:0:0:
192,192,107751,1,0,0:0:0:0:
448,192,107844,1,0,0:0:0:0:
192,192,107938,1,0,0:0:0:0:
448,192,108032,1,0,0:0:0:0:
64,192,108126,128,0,108501:0:0:0:0:
448,192,108126,128,0,108501:0:0:0:0:
192,192,108126,1,0,0:0:0:0:
192,192,108501,1,0,0:0:0:0:
320,192,108501,1,0,0:0:0:0:
192,192,108594,1,0,0:0:0:0:
320,192,108688,1,0,0:0:0:0:
320,192,108782,1,0,0:0:0:0:
448,192,108876,1,0,0:0:0:0:
64,192,108876,1,0,0:0:0:0:
192,192,108876,1,0,0:0:0:0:
192,192,108969,1,0,0:0:0:0:
320,192,109063,1,0,0:0:0:0:
320,192,109157,1,0,0:0:0:0:
448,192,109251,1,0,0:0:0:0:
64,192,109251,1,0,0:0:0:0:
192,192,109251,1,0,0:0:0:0:
64,192,109344,1,0,0:0:0:0:
64,192,109438,1,0,0:0:0:0:
320,192,109438,1,0,0:0:0:0:
320,192,109532,1,0,0:0:0:0:
320,192,109626,1,0,0:0:0:0:
64,192,109626,1,0,0:0:0:0:
448,192,109626,1,0,0:0:0:0:
448,192,109719,1,0,0:0:0:0:
320,192,109813,1,0,0:0:0:0:
192,192,109813,1,0,0:0:0:0:
192,192,109907,1,0,0:0:0:0:
64,192,110001,1,0,0:0:0:0:
448,192,110001,1,0,0:0:0:0:
320,192,110094,1,0,0:0:0:0:
192,192,110188,1,0,0:0:0:0:
64,192,110282,1,0,0:0:0:0:
448,192,110376,1,0,0:0:0:0:
320,192,110469,1,0,0:0:0:0:
192,192,110563,1,0,0:0:0:0:
64,192,110657,1,0,0:0:0:0:
448,192,110751,1,0,0:0:0:0:
320,192,110844,1,0,0:0:0:0:
192,192,110938,1,0,0:0:0:0:
64,192,111032,1,0,0:0:0:0:
320,192,111126,1,0,0:0:0:0:
448,192,111219,1,0,0:0:0:0:
192,192,111313,1,0,0:0:0:0:
320,192,111407,1,0,0:0:0:0:
448,192,111501,128,0,112719:0:0:0:0:
320,192,111876,128,0,112719:0:0:0:0:
192,192,112251,128,0,112813:0:0:0:0:
64,192,112626,128,0,112813:0:0:0:0:
320,192,112813,128,0,112907:0:0:0:0:
448,192,112813,128,0,112907:0:0:0:0:
64,192,112907,128,0,113001:0:0:0:0:
192,192,112907,128,0,113001:0:0:0:0:
320,192,113001,128,0,113094:0:0:0:0:
448,192,113001,128,0,113094:0:0:0:0:
64,192,113094,128,0,113188:0:0:0:0:
192,192,113094,128,0,113188:0:0:0:0:
320,192,113188,128,0,113282:0:0:0:0:
448,192,113188,128,0,113282:0:0:0:0:
64,192,113282,128,0,113376:0:0:0:0:
192,192,113282,128,0,113376:0:0:0:0:
320,192,113376,128,0,113469:0:0:0:0:
448,192,113376,128,0,113469:0:0:0:0:
192,192,113469,128,0,113563:0:0:0:0:
64,192,113469,128,0,113563:0:0:0:0:
448,192,113563,128,0,113657:0:0:0:0:
320,192,113563,128,0,113657:0:0:0:0:
192,192,113657,128,0,113751:0:0:0:0:
64,192,113751,128,0,113844:0:0:0:0:
448,192,113751,128,0,113844:0:0:0:0:
192,192,113844,128,0,113938:0:0:0:0:
320,192,113844,128,0,113938:0:0:0:0:
64,192,113938,128,0,114032:0:0:0:0:
448,192,113938,128,0,114032:0:0:0:0:
192,192,114032,128,0,114126:0:0:0:0:
320,192,114032,128,0,114126:0:0:0:0:
64,192,114126,128,0,114501:0:0:0:0:
448,192,114126,128,0,114501:0:0:0:0:
192,192,114501,1,0,0:0:0:0:
320,192,114501,1,0,0:0:0:0:
448,192,114594,5,0,0:0:0:0:
192,192,114688,1,0,0:0:0:0:
320,192,114782,1,0,0:0:0:0:
192,192,114876,1,0,0:0:0:0:
64,192,114876,1,0,0:0:0:0:
448,192,114876,1,0,0:0:0:0:
320,192,114969,1,0,0:0:0:0:
64,192,115063,1,0,0:0:0:0:
192,192,115157,1,0,0:0:0:0:
64,192,115251,1,0,0:0:0:0:
320,192,115251,1,0,0:0:0:0:
448,192,115251,1,0,0:0:0:0:
192,192,115344,1,0,0:0:0:0:
320,192,115438,1,0,0:0:0:0:
64,192,115532,1,0,0:0:0:0:
320,192,115626,1,0,0:0:0:0:
192,192,115626,1,0,0:0:0:0:
448,192,115626,1,0,0:0:0:0:
64,192,115719,1,0,0:0:0:0:
192,192,115813,1,0,0:0:0:0:
320,192,115907,1,0,0:0:0:0:
192,192,116001,1,0,0:0:0:0:
64,192,116001,1,0,0:0:0:0:
448,192,116001,1,0,0:0:0:0:
320,192,116047,1,0,0:0:0:0:
192,192,116094,1,0,0:0:0:0:
320,192,116141,1,0,0:0:0:0:
192,192,116188,1,0,0:0:0:0:
320,192,116282,1,0,0:0:0:0:
64,192,116376,1,0,0:0:0:0:
320,192,116376,1,0,0:0:0:0:
448,192,116376,1,0,0:0:0:0:
192,192,116563,128,0,116657:0:0:0:0:
448,192,116657,128,0,116751:0:0:0:0:
320,192,116751,128,0,116844:0:0:0:0:
64,192,116844,128,0,116938:0:0:0:0:
320,192,116938,128,0,117032:0:0:0:0:
64,192,117032,128,0,117126:0:0:0:0:
448,192,117126,128,0,117219:0:0:0:0:
192,192,117219,128,0,117313:0:0:0:0:
448,192,117313,128,0,117407:0:0:0:0:
192,192,117407,128,0,117501:0:0:0:0:
64,192,117501,1,0,0:0:0:0:
320,192,117501,1,0,0:0:0:0:
448,192,117501,1,0,0:0:0:0:
192,192,117594,1,0,0:0:0:0:
320,192,117688,1,0,0:0:0:0:
64,192,117782,1,0,0:0:0:0:
192,192,117876,1,0,0:0:0:0:
320,192,117876,1,0,0:0:0:0:
448,192,117876,1,0,0:0:0:0:
64,192,117969,1,0,0:0:0:0:
320,192,118063,1,0,0:0:0:0:
448,192,118157,1,0,0:0:0:0:
192,192,118251,1,0,0:0:0:0:
64,192,118251,1,0,0:0:0:0:
320,192,118251,1,0,0:0:0:0:
448,192,118344,1,0,0:0:0:0:
192,192,118438,1,0,0:0:0:0:
320,192,118532,1,0,0:0:0:0:
192,192,118626,1,0,0:0:0:0:
64,192,118626,1,0,0:0:0:0:
448,192,118626,1,0,0:0:0:0:
320,192,118719,1,0,0:0:0:0:
192,192,118813,1,0,0:0:0:0:
64,192,118907,1,0,0:0:0:0:
192,192,119001,1,0,0:0:0:0:
320,192,119001,1,0,0:0:0:0:
448,192,119001,1,0,0:0:0:0:
64,192,119094,1,0,0:0:0:0:
320,192,119188,1,0,0:0:0:0:
192,192,119282,1,0,0:0:0:0:
448,192,119376,1,0,0:0:0:0:
64,192,119376,1,0,0:0:0:0:
320,192,119376,1,0,0:0:0:0:
192,192,119469,1,0,0:0:0:0:
320,192,119563,1,0,0:0:0:0:
448,192,119657,1,0,0:0:0:0:
320,192,119751,1,0,0:0:0:0:
64,192,119751,1,0,0:0:0:0:
192,192,119751,1,0,0:0:0:0:
448,192,119844,1,0,0:0:0:0:
320,192,119938,1,0,0:0:0:0:
192,192,120032,1,0,0:0:0:0:
64,192,120126,1,0,0:0:0:0:
448,192,120126,1,0,0:0:0:0:
320,192,120126,128,0,120501:0:0:0:0:
192,192,120219,1,0,0:0:0:0:
448,192,120313,1,0,0:0:0:0:
192,192,120407,1,0,0:0:0:0:
448,192,120501,128,0,120876:0:0:0:0:
192,192,120876,1,0,0:0:0:0:
64,192,120876,1,0,0:0:0:0:
320,192,120876,128,0,120938:0:0:0:0:
192,192,121063,1,0,0:0:0:0:
64,192,121063,1,0,0:0:0:0:
320,192,121063,128,0,121126:0:0:0:0:
448,192,121251,1,0,0:0:0:0:
192,192,121251,1,0,0:0:0:0:
64,192,121626,1,0,0:0:0:0:
448,192,121626,1,0,0:0:0:0:
320,192,121626,128,0,121719:0:0:0:0:
192,192,121719,128,0,121813:0:0:0:0:
64,192,121813,1,0,0:0:0:0:
448,192,121813,1,0,0:0:0:0:
320,192,121813,128,0,121907:0:0:0:0:
192,192,121907,128,0,122001:0:0:0:0:
448,192,122001,1,0,0:0:0:0:
320,192,122032,1,0,0:0:0:0:
192,192,122063,1,0,0:0:0:0:
64,192,122094,1,0,0:0:0:0:
448,192,122126,1,0,0:0:0:0:
320,192,122157,1,0,0:0:0:0:
192,192,122188,128,0,122282:0:0:0:0:
192,192,122376,128,0,122469:0:0:0:0:
64,192,122563,1,0,0:0:0:0:
320,192,122657,1,0,0:0:0:0:
192,192,122844,1,0,0:0:0:0:
192,192,123032,1,0,0:0:0:0:
64,192,123126,128,0,123407:0:0:0:0:
320,192,123407,1,0,0:0:0:0:
448,192,123407,1,0,0:0:0:0:
64,192,123501,1,0,0:0:0:0:
192,192,123501,1,0,0:0:0:0:
320,192,123594,1,0,0:0:0:0:
448,192,123594,1,0,0:0:0:0:
64,192,123688,1,0,0:0:0:0:
192,192,123688,1,0,0:0:0:0:
320,192,123782,1,0,0:0:0:0:
448,192,123782,1,0,0:0:0:0:
64,192,123876,1,0,0:0:0:0:
192,192,123876,1,0,0:0:0:0:
320,192,123876,1,0,0:0:0:0:
448,192,123969,1,0,0:0:0:0:
320,192,124063,128,0,124157:0:0:0:0:
64,192,124157,1,0,0:0:0:0:
192,192,124251,1,0,0:0:0:0:
448,192,124251,1,0,0:0:0:0:
320,192,124251,1,0,0:0:0:0:
64,192,124344,1,0,0:0:0:0:
192,192,124438,128,0,124532:0:0:0:0:
320,192,124532,1,0,0:0:0:0:
192,192,124626,1,0,0:0:0:0:
64,192,124626,1,0,0:0:0:0:
448,192,124626,1,0,0:0:0:0:
320,192,124719,1,0,0:0:0:0:
64,192,124813,128,0,124907:0:0:0:0:
192,192,124907,1,0,0:0:0:0:
64,192,125001,1,0,0:0:0:0:
320,192,125001,1,0,0:0:0:0:
448,192,125001,1,0,0:0:0:0:
320,192,125188,1,0,0:0:0:0:
64,192,125282,1,0,0:0:0:0:
192,192,125282,1,0,0:0:0:0:
448,192,125282,1,0,0:0:0:0:
64,192,125469,1,0,0:0:0:0:
448,192,125563,1,0,0:0:0:0:
320,192,125563,1,0,0:0:0:0:
192,192,125563,1,0,0:0:0:0:
448,192,125751,1,0,0:0:0:0:
64,192,125844,1,0,0:0:0:0:
192,192,125844,1,0,0:0:0:0:
320,192,125844,1,0,0:0:0:0:
192,192,126032,1,0,0:0:0:0:
320,192,126126,1,0,0:0:0:0:
448,192,126126,1,0,0:0:0:0:
64,192,126126,1,0,0:0:0:0:
64,192,126313,1,0,0:0:0:0:
320,192,126313,1,0,0:0:0:0:
64,192,126407,1,0,0:0:0:0:
320,192,126407,1,0,0:0:0:0:
192,192,126501,128,0,126876:0:0:0:0:
64,192,126876,1,0,0:0:0:0:
448,192,126876,1,0,0:0:0:0:
320,192,126876,1,0,0:0:0:0:
192,192,126969,1,0,0:0:0:0:
448,192,127063,128,0,127157:0:0:0:0:
192,192,127157,1,0,0:0:0:0:
64,192,127251,1,0,0:0:0:0:
320,192,127251,1,0,0:0:0:0:
448,192,127251,1,0,0:0:0:0:
192,192,127344,1,0,0:0:0:0:
320,192,127438,128,0,127532:0:0:0:0:
448,192,127532,1,0,0:0:0:0:
64,192,127626,1,0,0:0:0:0:
192,192,127626,1,0,0:0:0:0:
320,192,127626,1,0,0:0:0:0:
448,192,127719,1,0,0:0:0:0:
64,192,127813,128,0,127907:0:0:0:0:
192,192,127907,1,0,0:0:0:0:
64,192,128001,1,0,0:0:0:0:
320,192,128001,1,0,0:0:0:0:
448,192,128001,128,0,128047:0:0:0:0:
192,192,128094,128,0,128141:0:0:0:0:
320,192,128188,128,0,128235:0:0:0:0:
192,192,128282,1,0,0:0:0:0:
64,192,128282,128,0,128329:0:0:0:0:
448,192,128282,1,0,0:0:0:0:
320,192,128376,128,0,128422:0:0:0:0:
320,192,128563,128,0,128610:0:0:0:0:
64,192,128563,1,0,0:0:0:0:
448,192,128563,1,0,0:0:0:0:
192,192,128657,128,0,128704:0:0:0:0:
64,192,128751,128,0,128797:0:0:0:0:
448,192,128844,128,0,128891:0:0:0:0:
192,192,128938,128,0,129126:0:0:0:0:
64,192,129032,128,0,129126:0:0:0:0:
320,192,129126,1,0,0:0:0:0:
320,192,129219,1,0,0:0:0:0:
448,192,129313,128,0,129501:0:0:0:0:
64,192,129313,128,0,129501:0:0:0:0:
192,192,129501,1,0,0:0:0:0:
320,192,129501,1,0,0:0:0:0:
448,192,129594,1,0,0:0:0:0:
320,192,129688,1,0,0:0:0:0:
64,192,129782,1,0,0:0:0:0:
192,192,129782,1,0,0:0:0:0:
448,192,129782,1,0,0:0:0:0:
320,192,129876,1,0,0:0:0:0:
192,192,129969,1,0,0:0:0:0:
64,192,130063,1,0,0:0:0:0:
320,192,130063,1,0,0:0:0:0:
448,192,130063,1,0,0:0:0:0:
192,192,130157,1,0,0:0:0:0:
448,192,130251,1,0,0:0:0:0:
192,192,130344,1,0,0:0:0:0:
320,192,130344,1,0,0:0:0:0:
64,192,130344,1,0,0:0:0:0:
448,192,130438,1,0,0:0:0:0:
320,192,130532,1,0,0:0:0:0:
64,192,130626,128,0,131001:0:0:0:0:
448,192,130626,128,0,130813:0:0:0:0:
192,192,130626,1,0,0:0:0:0:
320,192,130813,128,0,131001:0:0:0:0:
192,192,131001,1,0,0:0:0:0:
448,192,131001,1,0,0:0:0:0:
320,192,131094,1,0,0:0:0:0:
192,192,131188,1,0,0:0:0:0:
64,192,131282,1,0,0:0:0:0:
320,192,131282,1,0,0:0:0:0:
448,192,131282,1,0,0:0:0:0:
192,192,131376,1,0,0:0:0:0:
448,192,131469,1,0,0:0:0:0:
64,192,131563,1,0,0:0:0:0:
192,192,131563,1,0,0:0:0:0:
320,192,131563,1,0,0:0:0:0:
448,192,131657,1,0,0:0:0:0:
64,192,131751,1,0,0:0:0:0:
448,192,131844,1,0,0:0:0:0:
320,192,131844,1,0,0:0:0:0:
192,192,131844,1,0,0:0:0:0:
64,192,131938,1,0,0:0:0:0:
192,192,132032,1,0,0:0:0:0:
448,192,132126,128,0,132501:0:0:0:0:
64,192,132126,128,0,132313:0:0:0:0:
320,192,132126,1,0,0:0:0:0:
192,192,132313,128,0,132501:0:0:0:0:
64,192,132501,1,0,0:0:0:0:
320,192,132501,1,0,0:0:0:0:
64,192,132782,1,0,0:0:0:0:
448,192,132782,1,0,0:0:0:0:
192,192,132782,1,0,0:0:0:0:
448,192,132969,1,0,0:0:0:0:
320,192,132969,1,0,0:0:0:0:
448,192,133063,1,0,0:0:0:0:
320,192,133063,1,0,0:0:0:0:
448,192,133157,1,0,0:0:0:0:
320,192,133157,1,0,0:0:0:0:
64,192,133251,1,0,0:0:0:0:
192,192,133251,1,0,0:0:0:0:
320,192,133251,1,0,0:0:0:0:
64,192,133532,1,0,0:0:0:0:
192,192,133532,1,0,0:0:0:0:
448,192,133532,1,0,0:0:0:0:
64,192,133719,1,0,0:0:0:0:
192,192,133719,1,0,0:0:0:0:
64,192,133813,1,0,0:0:0:0:
192,192,133813,1,0,0:0:0:0:
192,192,133907,1,0,0:0:0:0:
64,192,133907,1,0,0:0:0:0:
448,192,134001,128,0,135219:0:0:0:0:
320,192,134001,1,0,0:0:0:0:
192,192,134001,1,0,0:0:0:0:
64,192,134094,1,0,0:0:0:0:
320,192,134188,1,0,0:0:0:0:
192,192,134282,1,0,0:0:0:0:
64,192,134376,1,0,0:0:0:0:
320,192,134469,1,0,0:0:0:0:
192,192,134563,1,0,0:0:0:0:
64,192,134657,1,0,0:0:0:0:
320,192,134751,1,0,0:0:0:0:
64,192,134844,1,0,0:0:0:0:
192,192,134938,1,0,0:0:0:0:
320,192,135032,1,0,0:0:0:0:
64,192,135126,1,0,0:0:0:0:
192,192,135219,1,0,0:0:0:0:
320,192,135313,1,0,0:0:0:0:
448,192,135407,1,0,0:0:0:0:
320,192,135501,1,0,0:0:0:0:
192,192,135501,1,0,0:0:0:0:
64,192,135501,1,0,0:0:0:0:
448,192,135782,1,0,0:0:0:0:
192,192,135782,1,0,0:0:0:0:
320,192,135782,1,0,0:0:0:0:
320,192,136063,1,0,0:0:0:0:
448,192,136063,1,0,0:0:0:0:
64,192,136063,1,0,0:0:0:0:
64,192,136344,1,0,0:0:0:0:
192,192,136344,1,0,0:0:0:0:
320,192,136344,1,0,0:0:0:0:
64,192,136438,1,0,0:0:0:0:
192,192,136438,1,0,0:0:0:0:
320,192,136438,1,0,0:0:0:0:
192,192,136626,1,0,0:0:0:0:
320,192,136626,1,0,0:0:0:0:
448,192,136626,1,0,0:0:0:0:
192,192,136813,1,0,0:0:0:0:
64,192,136813,1,0,0:0:0:0:
448,192,136813,1,0,0:0:0:0:
448,192,136907,1,0,0:0:0:0:
64,192,136907,1,0,0:0:0:0:
192,192,136907,1,0,0:0:0:0:
64,192,137094,1,0,0:0:0:0:
448,192,137094,1,0,0:0:0:0:
320,192,137094,1,0,0:0:0:0:
64,192,137376,1,0,0:0:0:0:
320,192,137376,1,0,0:0:0:0:
448,192,137376,1,0,0:0:0:0:
64,192,137563,1,0,0:0:0:0:
192,192,137563,1,0,0:0:0:0:
320,192,137610,1,0,0:0:0:0:
448,192,137610,1,0,0:0:0:0:
64,192,137657,1,0,0:0:0:0:
192,192,137657,1,0,0:0:0:0:
320,192,137704,1,0,0:0:0:0:
448,192,137704,1,0,0:0:0:0:
64,192,137751,1,0,0:0:0:0:
192,192,137751,1,0,0:0:0:0:
192,192,138032,1,0,0:0:0:0:
320,192,138032,1,0,0:0:0:0:
448,192,138032,1,0,0:0:0:0:
320,192,138313,1,0,0:0:0:0:
64,192,138313,1,0,0:0:0:0:
192,192,138313,1,0,0:0:0:0:
64,192,138407,1,0,0:0:0:0:
192,192,138407,1,0,0:0:0:0:
320,192,138407,1,0,0:0:0:0:
448,192,138501,128,0,138876:0:0:0:0:
192,192,138876,1,0,0:0:0:0:
320,192,138876,1,0,0:0:0:0:
64,192,138876,1,0,0:0:0:0:
192,192,139157,1,0,0:0:0:0:
64,192,139157,1,0,0:0:0:0:
448,192,139157,1,0,0:0:0:0:
64,192,139251,1,0,0:0:0:0:
192,192,139251,1,0,0:0:0:0:
448,192,139251,1,0,0:0:0:0:
320,192,139532,1,0,0:0:0:0:
448,192,139532,1,0,0:0:0:0:
64,192,139532,1,0,0:0:0:0:
448,192,139626,1,0,0:0:0:0:
320,192,139626,1,0,0:0:0:0:
64,192,139626,1,0,0:0:0:0:
64,192,139813,1,0,0:0:0:0:
192,192,139813,1,0,0:0:0:0:
448,192,139907,1,0,0:0:0:0:
320,192,139907,1,0,0:0:0:0:
192,192,140001,1,0,0:0:0:0:
64,192,140001,1,0,0:0:0:0:
448,192,140094,1,0,0:0:0:0:
320,192,140094,1,0,0:0:0:0:
192,192,140188,1,0,0:0:0:0:
64,192,140188,1,0,0:0:0:0:
448,192,140282,1,0,0:0:0:0:
320,192,140282,1,0,0:0:0:0:
64,192,140376,1,0,0:0:0:0:
192,192,140376,1,0,0:0:0:0:
448,192,140469,1,0,0:0:0:0:
320,192,140469,1,0,0:0:0:0:
64,192,140563,1,0,0:0:0:0:
192,192,140563,1,0,0:0:0:0:
448,192,140844,1,0,0:0:0:0:
320,192,140844,1,0,0:0:0:0:
64,192,140844,1,0,0:0:0:0:
64,192,141126,128,0,141501:0:0:0:0:
448,192,141126,128,0,141501:0:0:0:0:
192,192,141126,1,0,0:0:0:0:
192,192,141501,1,0,0:0:0:0:
320,192,141501,1,0,0:0:0:0:
64,192,141782,1,0,0:0:0:0:
192,192,141782,1,0,0:0:0:0:
448,192,141782,1,0,0:0:0:0:
192,192,141876,1,0,0:0:0:0:
64,192,141876,1,0,0:0:0:0:
448,192,141876,1,0,0:0:0:0:
448,192,142063,1,0,0:0:0:0:
64,192,142063,1,0,0:0:0:0:
320,192,142063,1,0,0:0:0:0:
448,192,142344,1,0,0:0:0:0:
320,192,142344,1,0,0:0:0:0:
64,192,142438,1,0,0:0:0:0:
192,192,142438,1,0,0:0:0:0:
320,192,142532,1,0,0:0:0:0:
448,192,142532,1,0,0:0:0:0:
64,192,142626,1,0,0:0:0:0:
192,192,142626,1,0,0:0:0:0:
192,192,142813,1,0,0:0:0:0:
64,192,142813,1,0,0:0:0:0:
448,192,142813,1,0,0:0:0:0:
64,192,143094,1,0,0:0:0:0:
320,192,143094,1,0,0:0:0:0:
192,192,143094,1,0,0:0:0:0:
64,192,143188,1,0,0:0:0:0:
320,192,143188,1,0,0:0:0:0:
192,192,143188,1,0,0:0:0:0:
320,192,143376,1,0,0:0:0:0:
448,192,143376,1,0,0:0:0:0:
192,192,143376,1,0,0:0:0:0:
192,192,143469,1,0,0:0:0:0:
320,192,143469,1,0,0:0:0:0:
448,192,143469,1,0,0:0:0:0:
64,192,143657,1,0,0:0:0:0:
192,192,143657,1,0,0:0:0:0:
448,192,143657,1,0,0:0:0:0:
64,192,143751,1,0,0:0:0:0:
448,192,143751,1,0,0:0:0:0:
192,192,143751,1,0,0:0:0:0:
64,192,143938,1,0,0:0:0:0:
448,192,143938,1,0,0:0:0:0:
320,192,143938,1,0,0:0:0:0:
320,192,144219,1,0,0:0:0:0:
64,192,144219,1,0,0:0:0:0:
192,192,144313,1,0,0:0:0:0:
448,192,144313,1,0,0:0:0:0:
320,192,144407,1,0,0:0:0:0:
64,192,144407,1,0,0:0:0:0:
448,192,144501,128,0,144594:0:0:0:0:
320,192,144594,128,0,144688:0:0:0:0:
192,192,144688,128,0,144782:0:0:0:0:
64,192,144782,128,0,144876:0:0:0:0:
448,192,144876,128,0,145063:0:0:0:0:
320,192,145063,1,0,0:0:0:0:
64,192,145063,1,0,0:0:0:0:
192,192,145063,1,0,0:0:0:0:
64,192,145438,1,0,0:0:0:0:
192,192,145438,1,0,0:0:0:0:
320,192,145485,1,0,0:0:0:0:
448,192,145485,1,0,0:0:0:0:
64,192,145532,1,0,0:0:0:0:
192,192,145532,1,0,0:0:0:0:
320,192,145626,1,0,0:0:0:0:
448,192,145626,1,0,0:0:0:0:
448,192,145719,1,0,0:0:0:0:
320,192,145719,1,0,0:0:0:0:
64,192,145907,1,0,0:0:0:0:
192,192,145907,1,0,0:0:0:0:
320,192,146001,1,0,0:0:0:0:
448,192,146001,1,0,0:0:0:0:
192,192,146047,1,0,0:0:0:0:
64,192,146047,1,0,0:0:0:0:
320,192,146094,1,0,0:0:0:0:
448,192,146094,1,0,0:0:0:0:
192,192,146141,1,0,0:0:0:0:
64,192,146141,1,0,0:0:0:0:
320,192,146188,1,0,0:0:0:0:
448,192,146188,1,0,0:0:0:0:
64,192,146376,1,0,0:0:0:0:
192,192,146376,1,0,0:0:0:0:
320,192,146376,1,0,0:0:0:0:
64,192,146563,1,0,0:0:0:0:
192,192,146563,1,0,0:0:0:0:
320,192,146610,1,0,0:0:0:0:
448,192,146610,1,0,0:0:0:0:
64,192,146657,1,0,0:0:0:0:
192,192,146657,1,0,0:0:0:0:
320,192,146704,1,0,0:0:0:0:
448,192,146704,1,0,0:0:0:0:
64,192,146751,1,0,0:0:0:0:
192,192,146751,1,0,0:0:0:0:
320,192,146938,1,0,0:0:0:0:
192,192,146938,1,0,0:0:0:0:
64,192,147032,1,0,0:0:0:0:
448,192,147032,1,0,0:0:0:0:
320,192,147126,1,0,0:0:0:0:
192,192,147126,1,0,0:0:0:0:
64,192,147219,1,0,0:0:0:0:
448,192,147219,1,0,0:0:0:0:
192,192,147313,1,0,0:0:0:0:
320,192,147313,1,0,0:0:0:0:
64,192,147407,1,0,0:0:0:0:
448,192,147407,1,0,0:0:0:0:
192,192,147501,1,0,0:0:0:0:
320,192,147501,1,0,0:0:0:0:
320,192,147688,1,0,0:0:0:0:
192,192,147876,1,0,0:0:0:0:
192,192,148063,1,0,0:0:0:0:
64,192,148251,1,0,0:0:0:0:
64,192,148438,1,0,0:0:0:0:
448,192,148626,1,0,0:0:0:0:
448,192,148813,1,0,0:0:0:0:
320,192,149001,1,0,0:0:0:0:
320,192,149188,1,0,0:0:0:0:
192,192,149376,5,0,0:0:0:0:
192,192,149563,1,0,0:0:0:0:
64,192,149751,1,0,0:0:0:0:
64,192,149938,1,0,0:0:0:0:
448,192,150126,1,0,0:0:0:0:
448,192,150313,1,0,0:0:0:0:
320,192,150501,128,0,151157:0:0:0:0:
448,192,150501,128,0,152376:0:0:0:0:
192,192,150501,128,0,156501:0:0:0:0:
64,192,150501,128,0,153219:0:0:0:0:
320,192,151251,128,0,156501:0:0:0:0:
448,192,152469,128,0,156501:0:0:0:0:
64,192,153313,128,0,156501:0:0:0:0:
448,192,157626,128,0,157719:0:0:0:0:
64,192,157719,128,0,157813:0:0:0:0:
320,192,157813,128,0,157907:0:0:0:0:
448,192,157907,128,0,158001:0:0:0:0:
320,192,158001,128,0,158094:0:0:0:0:
192,192,158094,128,0,158188:0:0:0:0:
320,192,158188,128,0,158282:0:0:0:0:
64,192,158282,128,0,158376:0:0:0:0:
192,192,158376,128,0,158469:0:0:0:0:
448,192,158469,128,0,158563:0:0:0:0:
320,192,158563,128,0,158657:0:0:0:0:
192,192,158657,128,0,158751:0:0:0:0:
320,192,158751,128,0,158844:0:0:0:0:
64,192,158844,128,0,158938:0:0:0:0:
192,192,158938,128,0,159032:0:0:0:0:
320,192,159032,128,0,159126:0:0:0:0:
192,192,159126,128,0,159219:0:0:0:0:
448,192,159219,128,0,159313:0:0:0:0:
64,192,159313,128,0,159407:0:0:0:0:
192,192,159407,128,0,159501:0:0:0:0:
320,192,159501,128,0,159594:0:0:0:0:
192,192,159594,128,0,159688:0:0:0:0:
320,192,159688,128,0,159782:0:0:0:0:
448,192,159782,128,0,159876:0:0:0:0:
192,192,159876,128,0,159969:0:0:0:0:
64,192,159969,128,0,160063:0:0:0:0:
448,192,160063,128,0,160157:0:0:0:0:
64,192,160157,128,0,160251:0:0:0:0:
448,192,160251,128,0,160344:0:0:0:0:
192,192,160344,128,0,160438:0:0:0:0:
320,192,160438,128,0,160532:0:0:0:0:
448,192,160532,128,0,160626:0:0:0:0:
320,192,160626,128,0,160719:0:0:0:0:
192,192,160719,128,0,160813:0:0:0:0:
448,192,160813,128,0,160907:0:0:0:0:
64,192,160907,128,0,161001:0:0:0:0:
448,192,161001,128,0,161094:0:0:0:0:
192,192,161094,128,0,161188:0:0:0:0:
320,192,161188,128,0,161282:0:0:0:0:
448,192,161282,128,0,161376:0:0:0:0:
320,192,161376,128,0,161469:0:0:0:0:
192,192,161469,128,0,161563:0:0:0:0:
448,192,161563,128,0,161657:0:0:0:0:
192,192,161657,128,0,161751:0:0:0:0:
448,192,161751,128,0,161844:0:0:0:0:
64,192,161844,128,0,161938:0:0:0:0:
320,192,161938,128,0,162032:0:0:0:0:
448,192,162032,128,0,162126:0:0:0:0:
320,192,162126,128,0,162219:0:0:0:0:
192,192,162219,128,0,162313:0:0:0:0:
64,192,162313,128,0,162407:0:0:0:0:
320,192,162407,128,0,162501:0:0:0:0:
448,192,162501,128,0,162594:0:0:0:0:
64,192,162594,128,0,162688:0:0:0:0:
320,192,162688,128,0,162782:0:0:0:0:
448,192,162782,128,0,162876:0:0:0:0:
320,192,162876,128,0,162969:0:0:0:0:
192,192,162969,128,0,163063:0:0:0:0:
320,192,163063,128,0,163157:0:0:0:0:
64,192,163157,128,0,163251:0:0:0:0:
192,192,163251,128,0,163344:0:0:0:0:
448,192,163344,128,0,163438:0:0:0:0:
320,192,163438,128,0,163532:0:0:0:0:
192,192,163532,128,0,163626:0:0:0:0:
320,192,163626,128,0,163719:0:0:0:0:
64,192,163719,128,0,163813:0:0:0:0:
192,192,163813,128,0,163907:0:0:0:0:
320,192,163907,128,0,164001:0:0:0:0:
192,192,164001,128,0,164094:0:0:0:0:
448,192,164094,128,0,164188:0:0:0:0:
64,192,164188,128,0,164282:0:0:0:0:
192,192,164282,128,0,164376:0:0:0:0:
320,192,164376,128,0,164469:0:0:0:0:
192,192,164469,128,0,164563:0:0:0:0:
320,192,164563,128,0,164657:0:0:0:0:
448,192,164657,128,0,164751:0:0:0:0:
192,192,164751,128,0,164844:0:0:0:0:
64,192,164844,128,0,164938:0:0:0:0:
448,192,164938,128,0,165032:0:0:0:0:
64,192,165032,128,0,165126:0:0:0:0:
448,192,165126,128,0,165219:0:0:0:0:
192,192,165219,128,0,165313:0:0:0:0:
320,192,165313,128,0,165407:0:0:0:0:
448,192,165407,128,0,165501:0:0:0:0:
320,192,165501,128,0,165594:0:0:0:0:
192,192,165594,128,0,165688:0:0:0:0:
448,192,165688,128,0,165782:0:0:0:0:
64,192,165782,128,0,165876:0:0:0:0:
448,192,165876,128,0,165969:0:0:0:0:
192,192,165969,128,0,166063:0:0:0:0:
320,192,166063,128,0,166157:0:0:0:0:
448,192,166157,128,0,166251:0:0:0:0:
320,192,166251,128,0,166344:0:0:0:0:
192,192,166344,128,0,166438:0:0:0:0:
448,192,166438,128,0,166532:0:0:0:0:
192,192,166532,128,0,166626:0:0:0:0:
448,192,166626,128,0,166719:0:0:0:0:
64,192,166719,128,0,166813:0:0:0:0:
320,192,166813,128,0,166907:0:0:0:0:
448,192,166907,128,0,167001:0:0:0:0:
320,192,167001,128,0,167094:0:0:0:0:
192,192,167094,128,0,167188:0:0:0:0:
64,192,167188,128,0,167282:0:0:0:0:
320,192,167282,128,0,167376:0:0:0:0:
448,192,167376,128,0,167469:0:0:0:0:
192,192,167469,128,0,167563:0:0:0:0:
448,192,167563,128,0,167657:0:0:0:0:
64,192,167657,128,0,167751:0:0:0:0:
320,192,167751,128,0,167844:0:0:0:0:
448,192,167844,128,0,167938:0:0:0:0:
192,192,167938,128,0,168032:0:0:0:0:
64,192,168032,128,0,168126:0:0:0:0:
448,192,168126,128,0,168219:0:0:0:0:
320,192,168219,128,0,168313:0:0:0:0:
192,192,168313,128,0,168407:0:0:0:0:
64,192,168407,128,0,168501:0:0:0:0:
448,192,168501,128,0,168594:0:0:0:0:
64,192,168594,128,0,168688:0:0:0:0:
320,192,168688,128,0,168782:0:0:0:0:
448,192,168782,128,0,168876:0:0:0:0:
320,192,168876,128,0,168969:0:0:0:0:
192,192,168969,128,0,169063:0:0:0:0:
320,192,169063,128,0,169157:0:0:0:0:
64,192,169157,128,0,169251:0:0:0:0:
192,192,169251,128,0,169344:0:0:0:0:
448,192,169344,128,0,169438:0:0:0:0:
320,192,169438,128,0,169532:0:0:0:0:
192,192,169532,128,0,169626:0:0:0:0:
320,192,169626,128,0,169719:0:0:0:0:
64,192,169719,128,0,169813:0:0:0:0:
192,192,169813,128,0,169907:0:0:0:0:
320,192,169907,128,0,170001:0:0:0:0:
192,192,170001,128,0,170094:0:0:0:0:
448,192,170094,128,0,170188:0:0:0:0:
64,192,170188,128,0,170282:0:0:0:0:
192,192,170282,128,0,170376:0:0:0:0:
320,192,170376,128,0,170469:0:0:0:0:
192,192,170469,128,0,170563:0:0:0:0:
320,192,170563,128,0,170657:0:0:0:0:
448,192,170657,128,0,170751:0:0:0:0:
192,192,170751,128,0,170844:0:0:0:0:
64,192,170844,128,0,170938:0:0:0:0:
448,192,170938,128,0,171032:0:0:0:0:
64,192,171032,128,0,171126:0:0:0:0:
448,192,171126,128,0,171219:0:0:0:0:
192,192,171219,128,0,171313:0:0:0:0:
320,192,171313,128,0,171407:0:0:0:0:
448,192,171407,128,0,171501:0:0:0:0:
192,192,171501,128,0,171594:0:0:0:0:
448,192,171594,128,0,171688:0:0:0:0:
192,192,171688,128,0,171782:0:0:0:0:
448,192,171782,128,0,171876:0:0:0:0:
192,192,171876,128,0,171969:0:0:0:0:
448,192,171969,128,0,172063:0:0:0:0:
192,192,172063,128,0,172157:0:0:0:0:
448,192,172157,128,0,172251:0:0:0:0:
320,192,172251,128,0,172344:0:0:0:0:
64,192,172344,128,0,172438:0:0:0:0:
320,192,172438,128,0,172532:0:0:0:0:
64,192,172532,128,0,172626:0:0:0:0:
320,192,172626,128,0,172719:0:0:0:0:
64,192,172719,128,0,172813:0:0:0:0:
320,192,172813,128,0,172907:0:0:0:0:
64,192,172907,128,0,173001:0:0:0:0:
448,192,173001,128,0,173094:0:0:0:0:
320,192,173094,128,0,173188:0:0:0:0:
192,192,173188,128,0,173282:0:0:0:0:
448,192,173188,128,0,173282:0:0:0:0:
64,192,173282,128,0,173376:0:0:0:0:
320,192,173282,128,0,173376:0:0:0:0:
192,192,173376,128,0,173469:0:0:0:0:
64,192,173469,128,0,173563:0:0:0:0:
192,192,173563,128,0,173657:0:0:0:0:
320,192,173657,128,0,173751:0:0:0:0:
64,192,173657,128,0,173751:0:0:0:0:
448,192,173751,128,0,173844:0:0:0:0:
192,192,173751,128,0,173844:0:0:0:0:
320,192,173844,128,0,173938:0:0:0:0:
192,192,173938,128,0,174032:0:0:0:0:
320,192,174032,128,0,174126:0:0:0:0:
64,192,174032,128,0,174126:0:0:0:0:
192,192,174126,128,0,174219:0:0:0:0:
448,192,174126,128,0,174219:0:0:0:0:
320,192,174219,128,0,174313:0:0:0:0:
64,192,174219,128,0,174313:0:0:0:0:
192,192,174313,128,0,174407:0:0:0:0:
448,192,174313,128,0,174407:0:0:0:0:
320,192,174407,128,0,174501:0:0:0:0:
64,192,174501,5,0,0:0:0:0:
448,192,174501,1,0,0:0:0:0:
192,192,174594,128,0,174688:0:0:0:0:
320,192,174688,128,0,174782:0:0:0:0:
448,192,174688,1,0,0:0:0:0:
64,192,174782,1,0,0:0:0:0:
192,192,174782,128,0,174876:0:0:0:0:
448,192,174876,128,0,174969:0:0:0:0:
320,192,174876,1,0,0:0:0:0:
64,192,174969,128,0,175063:0:0:0:0:
192,192,175063,128,0,175157:0:0:0:0:
448,192,175063,1,0,0:0:0:0:
320,192,175157,128,0,175251:0:0:0:0:
64,192,175157,1,0,0:0:0:0:
448,192,175251,1,0,0:0:0:0:
320,192,175344,128,0,175438:0:0:0:0:
192,192,175438,128,0,175532:0:0:0:0:
64,192,175438,1,0,0:0:0:0:
448,192,175532,1,0,0:0:0:0:
64,192,175626,128,0,175719:0:0:0:0:
192,192,175626,1,0,0:0:0:0:
320,192,175719,128,0,175813:0:0:0:0:
64,192,175813,128,0,175907:0:0:0:0:
192,192,175813,1,0,0:0:0:0:
448,192,175907,128,0,176001:0:0:0:0:
320,192,175907,1,0,0:0:0:0:
64,192,176001,1,0,0:0:0:0:
320,192,176094,128,0,176188:0:0:0:0:
64,192,176188,128,0,176282:0:0:0:0:
192,192,176188,1,0,0:0:0:0:
448,192,176282,1,0,0:0:0:0:
320,192,176376,128,0,176469:0:0:0:0:
192,192,176376,1,0,0:0:0:0:
448,192,176469,128,0,176563:0:0:0:0:
192,192,176563,128,0,176657:0:0:0:0:
64,192,176563,1,0,0:0:0:0:
320,192,176657,128,0,176751:0:0:0:0:
448,192,176657,1,0,0:0:0:0:
64,192,176751,1,0,0:0:0:0:
320,192,176844,128,0,176938:0:0:0:0:
192,192,176938,128,0,177032:0:0:0:0:
64,192,176938,1,0,0:0:0:0:
448,192,177032,1,0,0:0:0:0:
192,192,177126,128,0,177219:0:0:0:0:
320,192,177126,1,0,0:0:0:0:
448,192,177219,128,0,177313:0:0:0:0:
192,192,177313,128,0,177407:0:0:0:0:
64,192,177313,1,0,0:0:0:0:
320,192,177407,128,0,177501:0:0:0:0:
448,192,177407,1,0,0:0:0:0:
192,192,177501,1,0,0:0:0:0:
448,192,177594,128,0,177688:0:0:0:0:
192,192,177688,128,0,177782:0:0:0:0:
320,192,177688,1,0,0:0:0:0:
64,192,177782,1,0,0:0:0:0:
192,192,177876,128,0,177969:0:0:0:0:
448,192,177876,1,0,0:0:0:0:
320,192,177969,128,0,178063:0:0:0:0:
192,192,178063,1,0,0:0:0:0:
448,192,178157,128,0,178251:0:0:0:0:
64,192,178157,1,0,0:0:0:0:
320,192,178251,1,0,0:0:0:0:
448,192,178344,128,0,178438:0:0:0:0:
192,192,178438,128,0,178532:0:0:0:0:
64,192,178438,1,0,0:0:0:0:
320,192,178532,1,0,0:0:0:0:
192,192,178626,128,0,178719:0:0:0:0:
448,192,178626,1,0,0:0:0:0:
320,192,178719,128,0,178813:0:0:0:0:
64,192,178813,1,0,0:0:0:0:
448,192,178907,128,0,179001:0:0:0:0:
320,192,178907,1,0,0:0:0:0:
192,192,179001,1,0,0:0:0:0:
448,192,179094,128,0,179188:0:0:0:0:
192,192,179188,128,0,179282:0:0:0:0:
320,192,179188,1,0,0:0:0:0:
448,192,179282,1,0,0:0:0:0:
64,192,179376,128,0,179469:0:0:0:0:
192,192,179376,1,0,0:0:0:0:
320,192,179469,128,0,179563:0:0:0:0:
448,192,179563,1,0,0:0:0:0:
192,192,179657,128,0,179751:0:0:0:0:
320,192,179657,1,0,0:0:0:0:
64,192,179751,1,0,0:0:0:0:
320,192,179844,128,0,179938:0:0:0:0:
192,192,179938,128,0,180032:0:0:0:0:
64,192,179938,1,0,0:0:0:0:
448,192,180032,1,0,0:0:0:0:
64,192,180126,128,0,180219:0:0:0:0:
320,192,180126,1,0,0:0:0:0:
192,192,180219,128,0,180313:0:0:0:0:
320,192,180313,128,0,180407:0:0:0:0:
64,192,180313,1,0,0:0:0:0:
448,192,180407,128,0,180501:0:0:0:0:
192,192,180407,1,0,0:0:0:0:
64,192,180501,1,0,0:0:0:0:
320,192,180594,128,0,180688:0:0:0:0:
64,192,180688,128,0,180782:0:0:0:0:
192,192,180688,1,0,0:0:0:0:
320,192,180782,1,0,0:0:0:0:
192,192,180876,128,0,180969:0:0:0:0:
448,192,180876,1,0,0:0:0:0:
320,192,180969,128,0,181063:0:0:0:0:
64,192,181063,1,0,0:0:0:0:
448,192,181157,128,0,181251:0:0:0:0:
192,192,181157,1,0,0:0:0:0:
64,192,181251,1,0,0:0:0:0:
320,192,181344,128,0,181438:0:0:0:0:
192,192,181438,128,0,181532:0:0:0:0:
448,192,181438,1,0,0:0:0:0:
64,192,181532,1,0,0:0:0:0:
192,192,181626,128,0,181719:0:0:0:0:
448,192,181626,1,0,0:0:0:0:
320,192,181719,128,0,181813:0:0:0:0:
64,192,181813,1,0,0:0:0:0:
448,192,181907,128,0,182001:0:0:0:0:
320,192,181907,1,0,0:0:0:0:
192,192,182001,1,0,0:0:0:0:
320,192,182094,128,0,182188:0:0:0:0:
64,192,182188,128,0,182282:0:0:0:0:
448,192,182188,1,0,0:0:0:0:
320,192,182282,1,0,0:0:0:0:
64,192,182376,128,0,182469:0:0:0:0:
448,192,182376,1,0,0:0:0:0:
192,192,182469,128,0,182563:0:0:0:0:
448,192,182563,1,0,0:0:0:0:
320,192,182657,128,0,182751:0:0:0:0:
64,192,182657,1,0,0:0:0:0:
192,192,182751,1,0,0:0:0:0:
448,192,182844,128,0,182938:0:0:0:0:
64,192,182938,128,0,183032:0:0:0:0:
192,192,182938,1,0,0:0:0:0:
448,192,183032,1,0,0:0:0:0:
192,192,183126,128,0,183219:0:0:0:0:
320,192,183126,1,0,0:0:0:0:
448,192,183219,128,0,183313:0:0:0:0:
64,192,183313,128,0,183407:0:0:0:0:
320,192,183313,1,0,0:0:0:0:
192,192,183407,128,0,183501:0:0:0:0:
448,192,183407,1,0,0:0:0:0:
320,192,183501,1,0,0:0:0:0:
448,192,183594,128,0,183688:0:0:0:0:
64,192,183688,128,0,183782:0:0:0:0:
192,192,183688,1,0,0:0:0:0:
448,192,183782,1,0,0:0:0:0:
192,192,183876,128,0,183969:0:0:0:0:
320,192,183876,1,0,0:0:0:0:
448,192,183969,128,0,184063:0:0:0:0:
192,192,184063,1,0,0:0:0:0:
320,192,184157,128,0,184251:0:0:0:0:
64,192,184157,1,0,0:0:0:0:
192,192,184251,1,0,0:0:0:0:
320,192,184344,128,0,184438:0:0:0:0:
192,192,184438,128,0,184532:0:0:0:0:
448,192,184438,1,0,0:0:0:0:
320,192,184532,1,0,0:0:0:0:
192,192,184626,128,0,184719:0:0:0:0:
448,192,184626,1,0,0:0:0:0:
320,192,184719,128,0,184813:0:0:0:0:
192,192,184813,1,0,0:0:0:0:
448,192,184907,128,0,185001:0:0:0:0:
64,192,184907,1,0,0:0:0:0:
192,192,185001,1,0,0:0:0:0:
320,192,185094,128,0,185188:0:0:0:0:
64,192,185188,128,0,185282:0:0:0:0:
192,192,185188,1,0,0:0:0:0:
320,192,185282,1,0,0:0:0:0:
64,192,185376,128,0,185469:0:0:0:0:
448,192,185376,1,0,0:0:0:0:
192,192,185469,128,0,185563:0:0:0:0:
64,192,185563,1,0,0:0:0:0:
320,192,185657,128,0,185751:0:0:0:0:
448,192,185657,1,0,0:0:0:0:
64,192,185751,1,0,0:0:0:0:
192,192,185751,1,0,0:0:0:0:
448,192,185844,128,0,185938:0:0:0:0:
64,192,185938,128,0,186032:0:0:0:0:
320,192,185938,1,0,0:0:0:0:
192,192,185938,1,0,0:0:0:0:
448,192,186126,1,0,0:0:0:0:
64,192,186126,1,0,0:0:0:0:
192,192,186126,128,0,186501:0:0:0:0:
320,192,186501,1,0,0:0:0:0:
448,192,186501,1,0,0:0:0:0:
64,192,186501,1,0,0:0:0:0:
192,192,187063,1,0,0:0:0:0:
320,192,187063,1,0,0:0:0:0:
64,192,187251,1,0,0:0:0:0:
320,192,187251,1,0,0:0:0:0:
448,192,187251,1,0,0:0:0:0:
192,192,187813,1,0,0:0:0:0:
448,192,187813,1,0,0:0:0:0:
64,192,188001,1,0,0:0:0:0:
192,192,188001,1,0,0:0:0:0:
320,192,188001,1,0,0:0:0:0:
64,192,188563,1,0,0:0:0:0:
448,192,188563,1,0,0:0:0:0:
448,192,188751,1,0,0:0:0:0:
192,192,188751,1,0,0:0:0:0:
320,192,188751,1,0,0:0:0:0:
64,192,189313,1,0,0:0:0:0:
192,192,189313,1,0,0:0:0:0:
320,192,189313,1,0,0:0:0:0:
64,192,189501,1,0,0:0:0:0:
320,192,189501,1,0,0:0:0:0:
448,192,189501,1,0,0:0:0:0:
192,192,190063,1,0,0:0:0:0:
320,192,190063,1,0,0:0:0:0:
192,192,190251,1,0,0:0:0:0:
64,192,190251,1,0,0:0:0:0:
448,192,190251,1,0,0:0:0:0:
192,192,190813,1,0,0:0:0:0:
320,192,190813,1,0,0:0:0:0:
448,192,190813,1,0,0:0:0:0:
320,192,191001,1,0,0:0:0:0:
64,192,191001,1,0,0:0:0:0:
192,192,191001,1,0,0:0:0:0:
64,192,191282,1,0,0:0:0:0:
320,192,191282,1,0,0:0:0:0:
448,192,191282,1,0,0:0:0:0:
448,192,191563,1,0,0:0:0:0:
192,192,191563,1,0,0:0:0:0:
320,192,191563,1,0,0:0:0:0:
448,192,191844,1,0,0:0:0:0:
64,192,191844,1,0,0:0:0:0:
192,192,191844,1,0,0:0:0:0:
64,192,192126,1,0,0:0:0:0:
320,192,192126,1,0,0:0:0:0:
448,192,192126,1,0,0:0:0:0:
192,192,192501,128,0,192594:0:0:0:0:
64,192,192501,1,0,0:0:0:0:
448,192,192501,1,0,0:0:0:0:
320,192,192594,128,0,192688:0:0:0:0:
448,192,192688,1,0,0:0:0:0:
64,192,192688,1,0,0:0:0:0:
320,192,192782,128,0,192876:0:0:0:0:
192,192,192876,128,0,192969:0:0:0:0:
64,192,192876,1,0,0:0:0:0:
320,192,192969,128,0,193063:0:0:0:0:
192,192,193063,1,0,0:0:0:0:
448,192,193063,1,0,0:0:0:0:
64,192,193157,128,0,193251:0:0:0:0:
320,192,193157,1,0,0:0:0:0:
192,192,193251,128,0,193344:0:0:0:0:
448,192,193251,1,0,0:0:0:0:
64,192,193344,128,0,193438:0:0:0:0:
192,192,193438,1,0,0:0:0:0:
320,192,193438,1,0,0:0:0:0:
448,192,193532,128,0,193626:0:0:0:0:
64,192,193626,1,0,0:0:0:0:
320,192,193626,128,0,193719:0:0:0:0:
448,192,193719,128,0,193813:0:0:0:0:
320,192,193813,1,0,0:0:0:0:
64,192,193813,1,0,0:0:0:0:
448,192,193907,1,0,0:0:0:0:
192,192,193907,128,0,194001:0:0:0:0:
320,192,194001,128,0,194094:0:0:0:0:
64,192,194001,1,0,0:0:0:0:
448,192,194094,128,0,194188:0:0:0:0:
192,192,194188,1,0,0:0:0:0:
320,192,194282,128,0,194376:0:0:0:0:
64,192,194376,1,0,0:0:0:0:
192,192,194376,128,0,194469:0:0:0:0:
320,192,194469,128,0,194563:0:0:0:0:
448,192,194563,1,0,0:0:0:0:
64,192,194563,1,0,0:0:0:0:
192,192,194657,1,0,0:0:0:0:
320,192,194657,128,0,194751:0:0:0:0:
64,192,194751,128,0,194844:0:0:0:0:
448,192,194751,1,0,0:0:0:0:
320,192,194938,1,0,0:0:0:0:
64,192,194938,128,0,195032:0:0:0:0:
192,192,195126,1,0,0:0:0:0:
320,192,195126,1,0,0:0:0:0:
64,192,195126,128,0,195501:0:0:0:0:
448,192,195219,1,0,0:0:0:0:
192,192,195313,1,0,0:0:0:0:
320,192,195313,1,0,0:0:0:0:
448,192,195407,1,0,0:0:0:0:
320,192,195501,1,0,0:0:0:0:
192,192,195501,1,0,0:0:0:0:
448,192,195594,1,0,0:0:0:0:
64,192,195594,1,0,0:0:0:0:
192,192,195688,1,0,0:0:0:0:
320,192,195688,1,0,0:0:0:0:
448,192,195782,1,0,0:0:0:0:
64,192,195782,1,0,0:0:0:0:
192,192,195876,1,0,0:0:0:0:
320,192,195876,1,0,0:0:0:0:
448,192,195969,1,0,0:0:0:0:
64,192,195969,1,0,0:0:0:0:
192,192,196063,1,0,0:0:0:0:
320,192,196063,1,0,0:0:0:0:
448,192,196157,1,0,0:0:0:0:
64,192,196157,1,0,0:0:0:0:
192,192,196251,1,0,0:0:0:0:
320,192,196251,1,0,0:0:0:0:
448,192,196344,1,0,0:0:0:0:
64,192,196344,1,0,0:0:0:0:
192,192,196438,1,0,0:0:0:0:
320,192,196438,1,0,0:0:0:0:
448,192,196532,1,0,0:0:0:0:
64,192,196532,1,0,0:0:0:0:
320,192,196626,1,0,0:0:0:0:
192,192,196626,1,0,0:0:0:0:
64,192,196719,1,0,0:0:0:0:
448,192,196719,1,0,0:0:0:0:
320,192,196813,1,0,0:0:0:0:
192,192,196813,1,0,0:0:0:0:
448,192,196907,1,0,0:0:0:0:
64,192,196907,1,0,0:0:0:0:
192,192,197001,128,0,197751:0:0:0:0:
320,192,197001,128,0,197376:0:0:0:0:
64,192,198126,5,0,0:0:0:0:
192,192,198126,1,0,0:0:0:0:
448,192,198126,1,0,0:0:0:0:
320,192,198126,1,0,0:0:0:0:
64,192,198501,5,0,0:0:0:0:
192,192,198501,1,0,0:0:0:0:
448,192,198501,1,0,0:0:0:0:
320,192,198594,1,0,0:0:0:0:
192,192,198688,1,0,0:0:0:0:
320,192,198782,1,0,0:0:0:0:
448,192,198876,1,0,0:0:0:0:
192,192,198876,1,0,0:0:0:0:
64,192,198876,1,0,0:0:0:0:
320,192,198969,1,0,0:0:0:0:
192,192,199063,1,0,0:0:0:0:
448,192,199157,1,0,0:0:0:0:
192,192,199251,1,0,0:0:0:0:
320,192,199251,1,0,0:0:0:0:
64,192,199251,1,0,0:0:0:0:
448,192,199344,1,0,0:0:0:0:
320,192,199438,1,0,0:0:0:0:
192,192,199532,1,0,0:0:0:0:
320,192,199626,1,0,0:0:0:0:
448,192,199626,1,0,0:0:0:0:
192,192,199626,1,0,0:0:0:0:
64,192,199719,1,0,0:0:0:0:
448,192,199813,1,0,0:0:0:0:
320,192,199907,1,0,0:0:0:0:
192,192,200001,1,0,0:0:0:0:
64,192,200001,1,0,0:0:0:0:
448,192,200001,1,0,0:0:0:0:
320,192,200094,1,0,0:0:0:0:
192,192,200188,1,0,0:0:0:0:
448,192,200282,1,0,0:0:0:0:
64,192,200376,1,0,0:0:0:0:
192,192,200376,1,0,0:0:0:0:
320,192,200376,1,0,0:0:0:0:
448,192,200469,1,0,0:0:0:0:
64,192,200563,1,0,0:0:0:0:
320,192,200657,1,0,0:0:0:0:
64,192,200751,1,0,0:0:0:0:
192,192,200751,1,0,0:0:0:0:
448,192,200751,1,0,0:0:0:0:
320,192,200844,1,0,0:0:0:0:
192,192,200938,1,0,0:0:0:0:
64,192,201032,1,0,0:0:0:0:
192,192,201126,1,0,0:0:0:0:
320,192,201126,1,0,0:0:0:0:
448,192,201126,1,0,0:0:0:0:
64,192,201219,1,0,0:0:0:0:
448,192,201313,1,0,0:0:0:0:
192,192,201407,1,0,0:0:0:0:
448,192,201501,5,0,0:0:0:0:
320,192,201501,1,0,0:0:0:0:
64,192,201501,1,0,0:0:0:0:
192,192,201594,1,0,0:0:0:0:
320,192,201688,1,0,0:0:0:0:
192,192,201782,1,0,0:0:0:0:
64,192,201876,1,0,0:0:0:0:
320,192,201876,1,0,0:0:0:0:
448,192,201876,1,0,0:0:0:0:
192,192,201969,1,0,0:0:0:0:
320,192,202063,1,0,0:0:0:0:
64,192,202157,1,0,0:0:0:0:
320,192,202251,1,0,0:0:0:0:
192,192,202251,1,0,0:0:0:0:
448,192,202251,1,0,0:0:0:0:
64,192,202344,1,0,0:0:0:0:
192,192,202438,1,0,0:0:0:0:
320,192,202532,1,0,0:0:0:0:
192,192,202626,1,0,0:0:0:0:
64,192,202626,1,0,0:0:0:0:
320,192,202626,1,0,0:0:0:0:
448,192,202719,1,0,0:0:0:0:
64,192,202813,1,0,0:0:0:0:
192,192,202907,1,0,0:0:0:0:
448,192,203001,1,0,0:0:0:0:
64,192,203001,1,0,0:0:0:0:
192,192,203047,1,0,0:0:0:0:
448,192,203094,1,0,0:0:0:0:
192,192,203141,1,0,0:0:0:0:
448,192,203188,1,0,0:0:0:0:
64,192,203282,1,0,0:0:0:0:
320,192,203376,1,0,0:0:0:0:
448,192,203469,1,0,0:0:0:0:
64,192,203563,128,0,203657:0:0:0:0:
448,192,203657,128,0,203751:0:0:0:0:
192,192,203751,128,0,203844:0:0:0:0:
448,192,203844,128,0,203938:0:0:0:0:
192,192,203938,128,0,204126:0:0:0:0:
320,192,204032,1,0,0:0:0:0:
320,192,204126,1,0,0:0:0:0:
64,192,204126,1,0,0:0:0:0:
448,192,204126,1,0,0:0:0:0:
448,192,204219,1,0,0:0:0:0:
64,192,204219,1,0,0:0:0:0:
192,192,204219,1,0,0:0:0:0:
320,192,204313,1,0,0:0:0:0:
448,192,204313,1,0,0:0:0:0:
192,192,204407,1,0,0:0:0:0:
64,192,204407,1,0,0:0:0:0:
64,192,204501,5,0,0:0:0:0:
320,192,204501,1,0,0:0:0:0:
448,192,204501,1,0,0:0:0:0:
192,192,204594,1,0,0:0:0:0:
192,192,204688,1,0,0:0:0:0:
192,192,204782,1,0,0:0:0:0:
448,192,204876,1,0,0:0:0:0:
64,192,204876,1,0,0:0:0:0:
320,192,204876,1,0,0:0:0:0:
320,192,204969,1,0,0:0:0:0:
192,192,205063,1,0,0:0:0:0:
64,192,205157,1,0,0:0:0:0:
64,192,205251,1,0,0:0:0:0:
192,192,205251,1,0,0:0:0:0:
448,192,205251,1,0,0:0:0:0:
320,192,205344,1,0,0:0:0:0:
320,192,205438,1,0,0:0:0:0:
320,192,205532,1,0,0:0:0:0:
64,192,205626,1,0,0:0:0:0:
192,192,205626,1,0,0:0:0:0:
448,192,205626,1,0,0:0:0:0:
448,192,205719,1,0,0:0:0:0:
192,192,205813,1,0,0:0:0:0:
192,192,205907,1,0,0:0:0:0:
64,192,206001,5,0,0:0:0:0:
192,192,206001,1,0,0:0:0:0:
448,192,206001,1,0,0:0:0:0:
320,192,206094,1,0,0:0:0:0:
320,192,206188,1,0,0:0:0:0:
320,192,206282,1,0,0:0:0:0:
448,192,206376,1,0,0:0:0:0:
64,192,206376,1,0,0:0:0:0:
192,192,206376,1,0,0:0:0:0:
320,192,206469,1,0,0:0:0:0:
192,192,206563,1,0,0:0:0:0:
64,192,206657,1,0,0:0:0:0:
64,192,206751,1,0,0:0:0:0:
320,192,206751,1,0,0:0:0:0:
448,192,206751,1,0,0:0:0:0:
192,192,206844,1,0,0:0:0:0:
192,192,206938,1,0,0:0:0:0:
192,192,207032,1,0,0:0:0:0:
320,192,207126,1,0,0:0:0:0:
192,192,207126,1,0,0:0:0:0:
320,192,207219,1,0,0:0:0:0:
448,192,207219,1,0,0:0:0:0:
64,192,207313,1,0,0:0:0:0:
192,192,207313,1,0,0:0:0:0:
320,192,207407,1,0,0:0:0:0:
192,192,207407,1,0,0:0:0:0:
320,192,207501,1,0,0:0:0:0:
448,192,207501,1,0,0:0:0:0:
64,192,207501,1,0,0:0:0:0:
192,192,207594,1,0,0:0:0:0:
320,192,207688,1,0,0:0:0:0:
64,192,207782,1,0,0:0:0:0:
192,192,207782,1,0,0:0:0:0:
448,192,207782,1,0,0:0:0:0:
320,192,207876,1,0,0:0:0:0:
64,192,207876,1,0,0:0:0:0:
192,192,207969,1,0,0:0:0:0:
64,192,208063,1,0,0:0:0:0:
320,192,208063,1,0,0:0:0:0:
448,192,208063,1,0,0:0:0:0:
448,192,208157,1,0,0:0:0:0:
64,192,208251,1,0,0:0:0:0:
320,192,208251,1,0,0:0:0:0:
448,192,208251,1,0,0:0:0:0:
192,192,208344,1,0,0:0:0:0:
192,192,208438,1,0,0:0:0:0:
192,192,208532,1,0,0:0:0:0:
64,192,208532,1,0,0:0:0:0:
320,192,208532,1,0,0:0:0:0:
448,192,208626,1,0,0:0:0:0:
320,192,208719,1,0,0:0:0:0:
192,192,208813,1,0,0:0:0:0:
64,192,208813,1,0,0:0:0:0:
448,192,208813,1,0,0:0:0:0:
320,192,208907,1,0,0:0:0:0:
64,192,209001,128,0,209094:0:0:0:0:
192,192,209001,128,0,209188:0:0:0:0:
320,192,209001,128,0,209282:0:0:0:0:
448,192,209001,128,0,209376:0:0:0:0:
64,192,209188,128,0,209376:0:0:0:0:
192,192,209282,128,0,209469:0:0:0:0:
320,192,209376,128,0,209563:0:0:0:0:
448,192,209469,128,0,209657:0:0:0:0:
64,192,209469,128,0,209938:0:0:0:0:
192,192,209563,128,0,209751:0:0:0:0:
320,192,209657,128,0,209751:0:0:0:0:
448,192,209751,128,0,209938:0:0:0:0:
320,192,209844,128,0,210032:0:0:0:0:
192,192,209938,128,0,210219:0:0:0:0:
64,192,210032,128,0,210126:0:0:0:0:
448,192,210032,128,0,210126:0:0:0:0:
320,192,210126,128,0,210219:0:0:0:0:
64,192,210219,128,0,210313:0:0:0:0:
448,192,210219,128,0,210313:0:0:0:0:
320,192,210313,128,0,210407:0:0:0:0:
192,192,210313,128,0,210407:0:0:0:0:
64,192,210407,128,0,210501:0:0:0:0:
448,192,210407,128,0,210501:0:0:0:0:
320,192,210501,1,0,0:0:0:0:
192,192,210501,1,0,0:0:0:0:
448,192,210594,128,0,210688:0:0:0:0:
192,192,210688,128,0,210876:0:0:0:0:
320,192,210782,128,0,210876:0:0:0:0:
64,192,210876,1,0,0:0:0:0:
448,192,210969,128,0,211063:0:0:0:0:
64,192,211063,128,0,211251:0:0:0:0:
192,192,211063,128,0,211157:0:0:0:0:
320,192,211157,1,0,0:0:0:0:
448,192,211251,1,0,0:0:0:0:
320,192,211251,1,0,0:0:0:0:
192,192,211344,128,0,211532:0:0:0:0:
320,192,211438,128,0,211532:0:0:0:0:
64,192,211532,128,0,211626:0:0:0:0:
320,192,211626,1,0,0:0:0:0:
192,192,211719,128,0,211813:0:0:0:0:
320,192,211813,128,0,212001:0:0:0:0:
448,192,211813,1,0,0:0:0:0:
64,192,211907,128,0,212001:0:0:0:0:
448,192,211907,1,0,0:0:0:0:
192,192,212001,1,0,0:0:0:0:
192,192,212094,128,0,212188:0:0:0:0:
64,192,212188,128,0,212376:0:0:0:0:
448,192,212282,128,0,212376:0:0:0:0:
320,192,212282,1,0,0:0:0:0:
192,192,212376,1,0,0:0:0:0:
320,192,212376,1,0,0:0:0:0:
320,192,212469,128,0,212657:0:0:0:0:
192,192,212563,128,0,212657:0:0:0:0:
64,192,212657,128,0,212751:0:0:0:0:
448,192,212751,1,0,0:0:0:0:
192,192,212751,1,0,0:0:0:0:
320,192,212844,128,0,212938:0:0:0:0:
448,192,212938,128,0,213126:0:0:0:0:
192,192,213032,128,0,213126:0:0:0:0:
64,192,213126,1,0,0:0:0:0:
64,192,213219,1,0,0:0:0:0:
448,192,213313,1,0,0:0:0:0:
64,192,213313,1,0,0:0:0:0:
192,192,213313,1,0,0:0:0:0:
448,192,213407,1,0,0:0:0:0:
320,192,213407,1,0,0:0:0:0:
64,192,213501,1,0,0:0:0:0:
192,192,213501,1,0,0:0:0:0:
320,192,213594,128,0,213688:0:0:0:0:
448,192,213688,128,0,213876:0:0:0:0:
64,192,213688,1,0,0:0:0:0:
192,192,213782,128,0,213876:0:0:0:0:
64,192,213782,1,0,0:0:0:0:
320,192,213876,1,0,0:0:0:0:
320,192,213969,128,0,214063:0:0:0:0:
192,192,214063,128,0,214251:0:0:0:0:
64,192,214157,128,0,214251:0:0:0:0:
320,192,214251,1,0,0:0:0:0:
448,192,214251,1,0,0:0:0:0:
192,192,214344,128,0,214532:0:0:0:0:
320,192,214438,128,0,214532:0:0:0:0:
448,192,214532,128,0,214626:0:0:0:0:
320,192,214626,1,0,0:0:0:0:
64,192,214626,1,0,0:0:0:0:
192,192,214719,128,0,214813:0:0:0:0:
320,192,214813,128,0,215001:0:0:0:0:
192,192,214907,128,0,215001:0:0:0:0:
64,192,215001,1,0,0:0:0:0:
320,192,215094,128,0,215188:0:0:0:0:
448,192,215094,128,0,215188:0:0:0:0:
192,192,215188,128,0,215282:0:0:0:0:
64,192,215188,128,0,215282:0:0:0:0:
320,192,215282,1,0,0:0:0:0:
448,192,215282,1,0,0:0:0:0:
192,192,215376,128,0,215469:0:0:0:0:
320,192,215376,128,0,215469:0:0:0:0:
64,192,215469,128,0,215563:0:0:0:0:
448,192,215469,128,0,215563:0:0:0:0:
192,192,215563,1,0,0:0:0:0:
320,192,215563,1,0,0:0:0:0:
448,192,215751,128,0,215844:0:0:0:0:
320,192,215844,128,0,215938:0:0:0:0:
192,192,215938,128,0,216032:0:0:0:0:
320,192,216032,128,0,216126:0:0:0:0:
192,192,216126,128,0,216219:0:0:0:0:
64,192,216219,128,0,216313:0:0:0:0:
448,192,216219,128,0,216313:0:0:0:0:
192,192,216313,128,0,216407:0:0:0:0:
320,192,216313,128,0,216407:0:0:0:0:
192,192,216501,128,0,216688:0:0:0:0:
320,192,216501,128,0,216969:0:0:0:0:
448,192,216501,128,0,217251:0:0:0:0:
64,192,216501,128,0,216688:0:0:0:0:
64,192,216782,128,0,217157:0:0:0:0:
192,192,216876,128,0,217251:0:0:0:0:
320,192,217063,128,0,217157:0:0:0:0:
320,192,217251,128,0,217344:0:0:0:0:
64,192,217344,128,0,217532:0:0:0:0:
192,192,217438,128,0,217719:0:0:0:0:
320,192,217438,128,0,217532:0:0:0:0:
448,192,217532,128,0,217626:0:0:0:0:
320,192,217626,128,0,217813:0:0:0:0:
64,192,217626,128,0,217813:0:0:0:0:
448,192,217719,128,0,217813:0:0:0:0:
192,192,217813,128,0,217907:0:0:0:0:
192,192,218001,128,0,218188:0:0:0:0:
320,192,218001,128,0,218469:0:0:0:0:
448,192,218001,128,0,218751:0:0:0:0:
64,192,218001,128,0,218188:0:0:0:0:
64,192,218282,128,0,218657:0:0:0:0:
192,192,218376,128,0,218751:0:0:0:0:
320,192,218563,128,0,218657:0:0:0:0:
320,192,218751,128,0,218844:0:0:0:0:
64,192,218844,128,0,219032:0:0:0:0:
448,192,218938,128,0,219032:0:0:0:0:
320,192,218938,128,0,219032:0:0:0:0:
192,192,218938,128,0,219032:0:0:0:0:
192,192,219126,128,0,219219:0:0:0:0:
320,192,219126,128,0,219219:0:0:0:0:
448,192,219126,128,0,219219:0:0:0:0:
192,192,219313,128,0,219407:0:0:0:0:
320,192,219313,128,0,219407:0:0:0:0:
448,192,219313,128,0,219407:0:0:0:0:
64,192,219501,128,0,219876:0:0:0:0:
192,192,219501,128,0,219876:0:0:0:0:
320,192,219501,128,0,219876:0:0:0:0:
448,192,219501,128,0,219876:0:0:0:0:
320,192,219969,128,0,220063:0:0:0:0:
192,192,220063,128,0,220157:0:0:0:0:
64,192,220251,128,0,220626:0:0:0:0:
192,192,220251,128,0,220626:0:0:0:0:
320,192,220251,128,0,220626:0:0:0:0:
448,192,220251,128,0,220626:0:0:0:0:
64,192,220719,128,0,220813:0:0:0:0:
448,192,220813,128,0,220907:0:0:0:0:
320,192,221001,1,0,0:0:0:0:
64,192,221001,1,0,0:0:0:0:
192,192,221094,1,0,0:0:0:0:
448,192,221188,1,0,0:0:0:0:
320,192,221376,1,0,0:0:0:0:
448,192,221469,1,0,0:0:0:0:
192,192,221657,1,0,0:0:0:0:
320,192,221844,1,0,0:0:0:0:
64,192,221938,1,0,0:0:0:0:
64,192,222126,1,0,0:0:0:0:
448,192,222126,1,0,0:0:0:0:
320,192,222126,1,0,0:0:0:0:
64,192,222501,128,0,223251:0:0:0:0:
192,192,222501,1,0,0:0:0:0:
320,192,222501,1,0,0:0:0:0:
448,192,222594,1,0,0:0:0:0:
320,192,222688,1,0,0:0:0:0:
320,192,222782,1,0,0:0:0:0:
448,192,222876,1,0,0:0:0:0:
192,192,222876,1,0,0:0:0:0:
320,192,222969,1,0,0:0:0:0:
192,192,223063,1,0,0:0:0:0:
448,192,223157,1,0,0:0:0:0:
320,192,223251,1,0,0:0:0:0:
192,192,223251,128,0,224001:0:0:0:0:
448,192,223251,1,0,0:0:0:0:
320,192,223438,1,0,0:0:0:0:
64,192,223626,1,0,0:0:0:0:
320,192,223626,1,0,0:0:0:0:
448,192,223626,128,0,224001:0:0:0:0:
64,192,223813,1,0,0:0:0:0:
320,192,224001,128,0,224751:0:0:0:0:
64,192,224001,1,0,0:0:0:0:
448,192,224094,1,0,0:0:0:0:
192,192,224188,1,0,0:0:0:0:
192,192,224282,1,0,0:0:0:0:
448,192,224376,1,0,0:0:0:0:
64,192,224376,1,0,0:0:0:0:
192,192,224469,1,0,0:0:0:0:
448,192,224563,1,0,0:0:0:0:
64,192,224657,1,0,0:0:0:0:
448,192,224751,128,0,225501:0:0:0:0:
64,192,224751,1,0,0:0:0:0:
192,192,224751,1,0,0:0:0:0:
320,192,224938,1,0,0:0:0:0:
320,192,225126,1,0,0:0:0:0:
64,192,225126,128,0,225501:0:0:0:0:
192,192,225126,1,0,0:0:0:0:
192,192,225313,1,0,0:0:0:0:
320,192,225501,128,0,225688:0:0:0:0:
192,192,225501,1,0,0:0:0:0:
448,192,225594,1,0,0:0:0:0:
192,192,225688,1,0,0:0:0:0:
192,192,225782,1,0,0:0:0:0:
64,192,225876,1,0,0:0:0:0:
320,192,225876,1,0,0:0:0:0:
448,192,225876,1,0,0:0:0:0:
192,192,225969,1,0,0:0:0:0:
320,192,226063,1,0,0:0:0:0:
448,192,226157,1,0,0:0:0:0:
192,192,226251,128,0,226438:0:0:0:0:
64,192,226251,1,0,0:0:0:0:
320,192,226251,1,0,0:0:0:0:
448,192,226344,1,0,0:0:0:0:
320,192,226438,1,0,0:0:0:0:
320,192,226532,1,0,0:0:0:0:
448,192,226626,128,0,227001:0:0:0:0:
64,192,226626,1,0,0:0:0:0:
192,192,226626,1,0,0:0:0:0:
320,192,226719,1,0,0:0:0:0:
64,192,226813,1,0,0:0:0:0:
192,192,226907,1,0,0:0:0:0:
320,192,227001,128,0,227188:0:0:0:0:
64,192,227001,1,0,0:0:0:0:
448,192,227094,1,0,0:0:0:0:
192,192,227188,1,0,0:0:0:0:
192,192,227282,1,0,0:0:0:0:
320,192,227376,1,0,0:0:0:0:
448,192,227376,1,0,0:0:0:0:
64,192,227376,1,0,0:0:0:0:
192,192,227469,1,0,0:0:0:0:
64,192,227563,1,0,0:0:0:0:
448,192,227610,1,0,0:0:0:0:
320,192,227657,1,0,0:0:0:0:
192,192,227704,1,0,0:0:0:0:
64,192,227751,1,0,0:0:0:0:
448,192,227751,1,0,0:0:0:0:
320,192,227751,1,0,0:0:0:0:
64,192,227844,1,0,0:0:0:0:
192,192,227938,1,0,0:0:0:0:
320,192,228032,1,0,0:0:0:0:
448,192,228126,128,0,228313:0:0:0:0:
64,192,228126,1,0,0:0:0:0:
192,192,228126,1,0,0:0:0:0:
64,192,228313,128,0,228501:0:0:0:0:
448,192,228501,128,0,229251:0:0:0:0:
320,192,228501,1,0,0:0:0:0:
192,192,228501,1,0,0:0:0:0:
64,192,228594,1,0,0:0:0:0:
192,192,228688,1,0,0:0:0:0:
192,192,228782,1,0,0:0:0:0:
64,192,228876,1,0,0:0:0:0:
320,192,228876,1,0,0:0:0:0:
192,192,228969,1,0,0:0:0:0:
320,192,229063,1,0,0:0:0:0:
64,192,229157,1,0,0:0:0:0:
320,192,229251,128,0,230001:0:0:0:0:
192,192,229251,1,0,0:0:0:0:
64,192,229251,1,0,0:0:0:0:
192,192,229438,1,0,0:0:0:0:
192,192,229626,1,0,0:0:0:0:
64,192,229626,128,0,230001:0:0:0:0:
448,192,229626,1,0,0:0:0:0:
448,192,229813,1,0,0:0:0:0:
192,192,230001,128,0,230751:0:0:0:0:
448,192,230001,1,0,0:0:0:0:
64,192,230094,1,0,0:0:0:0:
320,192,230188,1,0,0:0:0:0:
320,192,230282,1,0,0:0:0:0:
64,192,230376,1,0,0:0:0:0:
448,192,230376,1,0,0:0:0:0:
320,192,230469,1,0,0:0:0:0:
64,192,230563,1,0,0:0:0:0:
448,192,230657,1,0,0:0:0:0:
64,192,230751,128,0,231501:0:0:0:0:
320,192,230751,1,0,0:0:0:0:
448,192,230751,1,0,0:0:0:0:
192,192,230938,1,0,0:0:0:0:
448,192,231126,128,0,231501:0:0:0:0:
320,192,231126,1,0,0:0:0:0:
192,192,231126,1,0,0:0:0:0:
320,192,231313,1,0,0:0:0:0:
320,192,231501,1,0,0:0:0:0:
192,192,231501,128,0,231688:0:0:0:0:
64,192,231594,1,0,0:0:0:0:
448,192,231688,1,0,0:0:0:0:
448,192,231782,1,0,0:0:0:0:
64,192,231876,1,0,0:0:0:0:
192,192,231876,1,0,0:0:0:0:
320,192,231876,1,0,0:0:0:0:
448,192,231969,1,0,0:0:0:0:
320,192,232063,1,0,0:0:0:0:
192,192,232157,1,0,0:0:0:0:
64,192,232251,128,0,232438:0:0:0:0:
320,192,232251,1,0,0:0:0:0:
448,192,232251,1,0,0:0:0:0:
192,192,232344,1,0,0:0:0:0:
320,192,232438,1,0,0:0:0:0:
320,192,232532,1,0,0:0:0:0:
192,192,232626,1,0,0:0:0:0:
64,192,232626,1,0,0:0:0:0:
448,192,232626,128,0,233001:0:0:0:0:
320,192,232719,1,0,0:0:0:0:
192,192,232813,1,0,0:0:0:0:
64,192,232907,1,0,0:0:0:0:
192,192,233001,128,0,233376:0:0:0:0:
320,192,233001,128,0,233376:0:0:0:0:
64,192,233376,1,0,0:0:0:0:
448,192,233376,1,0,0:0:0:0:
192,192,233469,1,0,0:0:0:0:
320,192,233563,1,0,0:0:0:0:
448,192,233657,1,0,0:0:0:0:
320,192,233751,128,0,234032:0:0:0:0:
448,192,234032,1,0,0:0:0:0:
192,192,234079,1,0,0:0:0:0:
64,192,234126,128,0,234501:0:0:0:0:
448,192,234501,1,0,0:0:0:0:
320,192,234501,1,0,0:0:0:0:
64,192,234594,1,0,0:0:0:0:
192,192,234594,1,0,0:0:0:0:
192,192,234688,1,0,0:0:0:0:
448,192,234688,1,0,0:0:0:0:
64,192,234782,1,0,0:0:0:0:
320,192,234782,1,0,0:0:0:0:
64,192,234876,1,0,0:0:0:0:
448,192,234876,1,0,0:0:0:0:
192,192,234876,1,0,0:0:0:0:
320,192,234969,1,0,0:0:0:0:
64,192,235063,1,0,0:0:0:0:
192,192,235157,1,0,0:0:0:0:
448,192,235251,128,0,235344:0:0:0:0:
64,192,235251,1,0,0:0:0:0:
320,192,235251,1,0,0:0:0:0:
192,192,235344,1,0,0:0:0:0:
320,192,235438,128,0,235532:0:0:0:0:
448,192,235532,1,0,0:0:0:0:
192,192,235626,128,0,235719:0:0:0:0:
64,192,235626,128,0,236001:0:0:0:0:
320,192,235626,1,0,0:0:0:0:
448,192,235719,1,0,0:0:0:0:
320,192,235813,128,0,235907:0:0:0:0:
192,192,235907,1,0,0:0:0:0:
448,192,236001,1,0,0:0:0:0:
320,192,236001,1,0,0:0:0:0:
320,192,236188,1,0,0:0:0:0:
192,192,236282,1,0,0:0:0:0:
64,192,236282,1,0,0:0:0:0:
448,192,236282,1,0,0:0:0:0:
64,192,236469,1,0,0:0:0:0:
192,192,236563,1,0,0:0:0:0:
448,192,236563,1,0,0:0:0:0:
320,192,236563,1,0,0:0:0:0:
448,192,236751,1,0,0:0:0:0:
64,192,236844,1,0,0:0:0:0:
192,192,236844,1,0,0:0:0:0:
320,192,236844,1,0,0:0:0:0:
192,192,237032,1,0,0:0:0:0:
448,192,237126,1,0,0:0:0:0:
320,192,237126,1,0,0:0:0:0:
64,192,237126,128,0,237501:0:0:0:0:
448,192,237313,1,0,0:0:0:0:
192,192,237313,1,0,0:0:0:0:
192,192,237407,1,0,0:0:0:0:
448,192,237407,1,0,0:0:0:0:
320,192,237501,128,0,237876:0:0:0:0:
448,192,237876,1,0,0:0:0:0:
192,192,237876,1,0,0:0:0:0:
64,192,237969,1,0,0:0:0:0:
192,192,238063,1,0,0:0:0:0:
320,192,238157,1,0,0:0:0:0:
448,192,238251,128,0,238438:0:0:0:0:
64,192,238251,1,0,0:0:0:0:
192,192,238251,1,0,0:0:0:0:
320,192,238344,1,0,0:0:0:0:
192,192,238438,1,0,0:0:0:0:
192,192,238532,1,0,0:0:0:0:
320,192,238626,1,0,0:0:0:0:
64,192,238626,1,0,0:0:0:0:
448,192,238626,128,0,239001:0:0:0:0:
192,192,238719,1,0,0:0:0:0:
320,192,238813,1,0,0:0:0:0:
192,192,238907,1,0,0:0:0:0:
64,192,239001,1,0,0:0:0:0:
320,192,239001,1,0,0:0:0:0:
64,192,239188,1,0,0:0:0:0:
192,192,239282,1,0,0:0:0:0:
320,192,239282,1,0,0:0:0:0:
448,192,239282,1,0,0:0:0:0:
320,192,239563,1,0,0:0:0:0:
448,192,239563,1,0,0:0:0:0:
192,192,239610,1,0,0:0:0:0:
64,192,239657,1,0,0:0:0:0:
320,192,239751,1,0,0:0:0:0:
192,192,239797,1,0,0:0:0:0:
448,192,239844,1,0,0:0:0:0:
64,192,239891,1,0,0:0:0:0:
192,192,239938,1,0,0:0:0:0:
320,192,239985,1,0,0:0:0:0:
64,192,240032,1,0,0:0:0:0:
448,192,240079,1,0,0:0:0:0:
192,192,240126,1,0,0:0:0:0:
320,192,240172,1,0,0:0:0:0:
64,192,240219,1,0,0:0:0:0:
448,192,240266,1,0,0:0:0:0:
320,192,240313,1,0,0:0:0:0:
64,192,240360,1,0,0:0:0:0:
192,192,240407,1,0,0:0:0:0:
320,192,240454,1,0,0:0:0:0:
192,192,240501,1,0,0:0:0:0:
448,192,240501,1,0,0:0:0:0:
64,192,240501,128,0,240594:0:0:0:0:
320,192,240594,128,0,240688:0:0:0:0:
192,192,240688,128,0,240782:0:0:0:0:
64,192,240782,1,0,0:0:0:0:
320,192,240782,1,0,0:0:0:0:
448,192,240782,128,0,240876:0:0:0:0:
192,192,240876,1,0,0:0:0:0:
448,192,240969,128,0,241063:0:0:0:0:
64,192,241063,1,0,0:0:0:0:
320,192,241063,1,0,0:0:0:0:
192,192,241063,128,0,241157:0:0:0:0:
448,192,241157,128,0,241251:0:0:0:0:
320,192,241251,128,0,241344:0:0:0:0:
64,192,241344,1,0,0:0:0:0:
448,192,241344,1,0,0:0:0:0:
192,192,241438,128,0,241532:0:0:0:0:
448,192,241532,1,0,0:0:0:0:
64,192,241626,128,0,241719:0:0:0:0:
192,192,241626,1,0,0:0:0:0:
320,192,241626,1,0,0:0:0:0:
448,192,241719,1,0,0:0:0:0:
448,192,241813,1,0,0:0:0:0:
320,192,241813,1,0,0:0:0:0:
192,192,241813,128,0,241907:0:0:0:0:
448,192,241907,1,0,0:0:0:0:
320,192,241907,1,0,0:0:0:0:
64,192,242001,1,0,0:0:0:0:
192,192,242001,128,0,242094:0:0:0:0:
320,192,242001,1,0,0:0:0:0:
448,192,242094,128,0,242188:0:0:0:0:
192,192,242188,128,0,242282:0:0:0:0:
448,192,242282,1,0,0:0:0:0:
320,192,242282,1,0,0:0:0:0:
64,192,242282,128,0,242376:0:0:0:0:
192,192,242376,1,0,0:0:0:0:
448,192,242469,128,0,242563:0:0:0:0:
64,192,242563,1,0,0:0:0:0:
192,192,242563,1,0,0:0:0:0:
320,192,242563,128,0,242657:0:0:0:0:
448,192,242657,128,0,242751:0:0:0:0:
64,192,242751,1,0,0:0:0:0:
448,192,242844,1,0,0:0:0:0:
320,192,242844,1,0,0:0:0:0:
192,192,242844,1,0,0:0:0:0:
64,192,242938,128,0,243032:0:0:0:0:
320,192,243032,1,0,0:0:0:0:
64,192,243126,1,0,0:0:0:0:
448,192,243126,128,0,243219:0:0:0:0:
320,192,243126,1,0,0:0:0:0:
192,192,243219,1,0,0:0:0:0:
320,192,243313,1,0,0:0:0:0:
64,192,243313,128,0,243407:0:0:0:0:
448,192,243313,1,0,0:0:0:0:
448,192,243407,1,0,0:0:0:0:
320,192,243407,1,0,0:0:0:0:
64,192,243501,128,0,243594:0:0:0:0:
448,192,243501,1,0,0:0:0:0:
192,192,243501,1,0,0:0:0:0:
320,192,243594,128,0,243688:0:0:0:0:
64,192,243688,128,0,243782:0:0:0:0:
448,192,243782,1,0,0:0:0:0:
192,192,243782,1,0,0:0:0:0:
320,192,243782,128,0,243876:0:0:0:0:
320,192,243969,1,0,0:0:0:0:
64,192,243969,128,0,244063:0:0:0:0:
448,192,244063,1,0,0:0:0:0:
192,192,244063,128,0,244157:0:0:0:0:
64,192,244157,1,0,0:0:0:0:
320,192,244157,128,0,244251:0:0:0:0:
192,192,244251,1,0,0:0:0:0:
448,192,244251,128,0,244344:0:0:0:0:
320,192,244344,128,0,244438:0:0:0:0:
64,192,244438,128,0,244532:0:0:0:0:
448,192,244532,1,0,0:0:0:0:
192,192,244532,128,0,244626:0:0:0:0:
320,192,244532,1,0,0:0:0:0:
320,192,244719,1,0,0:0:0:0:
64,192,244719,128,0,244813:0:0:0:0:
448,192,244813,1,0,0:0:0:0:
192,192,244813,128,0,244907:0:0:0:0:
64,192,244907,1,0,0:0:0:0:
320,192,244907,128,0,245001:0:0:0:0:
192,192,245001,1,0,0:0:0:0:
448,192,245001,128,0,246501:0:0:0:0:
64,192,245751,128,0,246501:0:0:0:0:
320,192,246501,1,0,0:0:0:0:
192,192,246501,128,0,246688:0:0:0:0:
64,192,246688,128,0,246876:0:0:0:0:
448,192,246782,1,0,0:0:0:0:
320,192,246782,1,0,0:0:0:0:
192,192,246876,128,0,247063:0:0:0:0:
320,192,247063,1,0,0:0:0:0:
64,192,247063,128,0,247157:0:0:0:0:
448,192,247063,1,0,0:0:0:0:
192,192,247157,128,0,247251:0:0:0:0:
448,192,247251,128,0,247438:0:0:0:0:
64,192,247344,1,0,0:0:0:0:
192,192,247344,1,0,0:0:0:0:
64,192,247438,1,0,0:0:0:0:
192,192,247438,1,0,0:0:0:0:
320,192,247438,128,0,247626:0:0:0:0:
448,192,247626,1,0,0:0:0:0:
64,192,247626,1,0,0:0:0:0:
192,192,247626,128,0,247813:0:0:0:0:
320,192,247813,1,0,0:0:0:0:
64,192,247813,128,0,247907:0:0:0:0:
192,192,247907,128,0,248001:0:0:0:0:
320,192,247907,1,0,0:0:0:0:
448,192,248001,128,0,248188:0:0:0:0:
64,192,248094,1,0,0:0:0:0:
320,192,248094,1,0,0:0:0:0:
192,192,248188,128,0,248376:0:0:0:0:
64,192,248376,1,0,0:0:0:0:
320,192,248376,1,0,0:0:0:0:
448,192,248376,128,0,248563:0:0:0:0:
320,192,248563,1,0,0:0:0:0:
192,192,248610,1,0,0:0:0:0:
64,192,248657,1,0,0:0:0:0:
320,192,248704,1,0,0:0:0:0:
448,192,248751,128,0,248938:0:0:0:0:
192,192,248751,1,0,0:0:0:0:
64,192,249032,1,0,0:0:0:0:
192,192,249032,1,0,0:0:0:0:
320,192,249032,1,0,0:0:0:0:
448,192,249126,128,0,249313:0:0:0:0:
320,192,249313,1,0,0:0:0:0:
192,192,249313,128,0,249407:0:0:0:0:
320,192,249407,1,0,0:0:0:0:
64,192,249407,128,0,249501:0:0:0:0:
448,192,249501,128,0,249876:0:0:0:0:
192,192,249876,1,0,0:0:0:0:
64,192,249876,1,0,0:0:0:0:
320,192,249876,128,0,250063:0:0:0:0:
192,192,250063,128,0,250157:0:0:0:0:
64,192,250157,128,0,250251:0:0:0:0:
320,192,250157,1,0,0:0:0:0:
448,192,250251,128,0,250438:0:0:0:0:
192,192,250251,1,0,0:0:0:0:
448,192,250532,1,0,0:0:0:0:
192,192,250532,1,0,0:0:0:0:
320,192,250532,1,0,0:0:0:0:
448,192,250626,1,0,0:0:0:0:
192,192,250626,1,0,0:0:0:0:
64,192,250626,128,0,250813:0:0:0:0:
320,192,250626,1,0,0:0:0:0:
192,192,250813,1,0,0:0:0:0:
448,192,250813,128,0,250907:0:0:0:0:
320,192,250907,1,0,0:0:0:0:
64,192,250907,128,0,251001:0:0:0:0:
448,192,251001,128,0,251188:0:0:0:0:
192,192,251001,1,0,0:0:0:0:
320,192,251094,1,0,0:0:0:0:
64,192,251188,128,0,251376:0:0:0:0:
192,192,251188,1,0,0:0:0:0:
320,192,251282,1,0,0:0:0:0:
448,192,251376,128,0,251469:0:0:0:0:
192,192,251376,1,0,0:0:0:0:
320,192,251469,1,0,0:0:0:0:
64,192,251469,128,0,251563:0:0:0:0:
448,192,251563,128,0,251751:0:0:0:0:
192,192,251563,1,0,0:0:0:0:
64,192,251751,128,0,251938:0:0:0:0:
320,192,251844,1,0,0:0:0:0:
448,192,251844,1,0,0:0:0:0:
192,192,251844,1,0,0:0:0:0:
64,192,252126,128,0,252501:0:0:0:0:
448,192,252126,128,0,252501:0:0:0:0:
192,192,252126,1,0,0:0:0:0:
320,192,252501,1,0,0:0:0:0:
192,192,252501,128,0,252688:0:0:0:0:
64,192,252688,128,0,252876:0:0:0:0:
320,192,252782,1,0,0:0:0:0:
448,192,252782,1,0,0:0:0:0:
320,192,252876,1,0,0:0:0:0:
448,192,252876,1,0,0:0:0:0:
192,192,252876,128,0,252969:0:0:0:0:
64,192,252969,128,0,253063:0:0:0:0:
448,192,253063,1,0,0:0:0:0:
192,192,253063,1,0,0:0:0:0:
320,192,253063,128,0,253251:0:0:0:0:
448,192,253251,128,0,253438:0:0:0:0:
192,192,253344,1,0,0:0:0:0:
320,192,253438,1,0,0:0:0:0:
64,192,253438,128,0,253626:0:0:0:0:
192,192,253532,1,0,0:0:0:0:
320,192,253626,128,0,253813:0:0:0:0:
448,192,253626,1,0,0:0:0:0:
64,192,253813,1,0,0:0:0:0:
448,192,253813,1,0,0:0:0:0:
192,192,253813,128,0,254001:0:0:0:0:
448,192,254001,128,0,254188:0:0:0:0:
64,192,254094,1,0,0:0:0:0:
192,192,254188,1,0,0:0:0:0:
320,192,254188,128,0,254282:0:0:0:0:
64,192,254282,128,0,254376:0:0:0:0:
448,192,254376,1,0,0:0:0:0:
192,192,254376,128,0,254469:0:0:0:0:
448,192,254469,1,0,0:0:0:0:
64,192,254469,128,0,254563:0:0:0:0:
320,192,254563,128,0,254657:0:0:0:0:
192,192,254657,1,0,0:0:0:0:
448,192,254657,128,0,254751:0:0:0:0:
64,192,254751,1,0,0:0:0:0:
320,192,254751,128,0,254938:0:0:0:0:
64,192,254938,1,0,0:0:0:0:
448,192,254938,1,0,0:0:0:0:
192,192,254938,1,0,0:0:0:0:
192,192,255126,128,0,255219:0:0:0:0:
448,192,255219,1,0,0:0:0:0:
320,192,255219,128,0,255313:0:0:0:0:
64,192,255313,1,0,0:0:0:0:
192,192,255313,128,0,255407:0:0:0:0:
448,192,255407,1,0,0:0:0:0:
320,192,255407,128,0,255501:0:0:0:0:
64,192,255501,128,0,255594:0:0:0:0:
192,192,255594,128,0,255688:0:0:0:0:
320,192,255688,128,0,255782:0:0:0:0:
448,192,255782,128,0,255876:0:0:0:0:
64,192,255876,128,0,256063:0:0:0:0:
192,192,256063,1,0,0:0:0:0:
448,192,256063,1,0,0:0:0:0:
320,192,256063,1,0,0:0:0:0:
192,192,256438,1,0,0:0:0:0:
320,192,256485,1,0,0:0:0:0:
192,192,256532,1,0,0:0:0:0:
320,192,256626,1,0,0:0:0:0:
64,192,256626,128,0,256813:0:0:0:0:
320,192,256719,1,0,0:0:0:0:
448,192,256813,128,0,256907:0:0:0:0:
320,192,256907,128,0,257001:0:0:0:0:
192,192,256907,1,0,0:0:0:0:
192,192,257001,1,0,0:0:0:0:
64,192,257001,128,0,257188:0:0:0:0:
320,192,257047,1,0,0:0:0:0:
448,192,257094,1,0,0:0:0:0:
192,192,257141,1,0,0:0:0:0:
320,192,257188,1,0,0:0:0:0:
448,192,257188,128,0,257282:0:0:0:0:
320,192,257282,128,0,257376:0:0:0:0:
448,192,257376,1,0,0:0:0:0:
64,192,257376,1,0,0:0:0:0:
192,192,257376,128,0,257563:0:0:0:0:
320,192,257563,1,0,0:0:0:0:
448,192,257563,128,0,257751:0:0:0:0:
192,192,257610,1,0,0:0:0:0:
64,192,257657,1,0,0:0:0:0:
320,192,257704,1,0,0:0:0:0:
64,192,257751,128,0,257938:0:0:0:0:
192,192,257751,1,0,0:0:0:0:
448,192,257938,1,0,0:0:0:0:
320,192,257938,1,0,0:0:0:0:
192,192,258032,1,0,0:0:0:0:
64,192,258032,1,0,0:0:0:0:
448,192,258126,1,0,0:0:0:0:
320,192,258126,1,0,0:0:0:0:
192,192,258219,1,0,0:0:0:0:
64,192,258219,1,0,0:0:0:0:
448,192,258313,1,0,0:0:0:0:
320,192,258313,1,0,0:0:0:0:
192,192,258407,1,0,0:0:0:0:
64,192,258407,1,0,0:0:0:0:
448,192,258501,1,0,0:0:0:0:
320,192,258501,1,0,0:0:0:0:
448,192,258688,1,0,0:0:0:0:
320,192,258876,1,0,0:0:0:0:
320,192,259063,1,0,0:0:0:0:
192,192,259251,1,0,0:0:0:0:
192,192,259438,1,0,0:0:0:0:
64,192,259626,1,0,0:0:0:0:
64,192,259813,1,0,0:0:0:0:
448,192,260001,1,0,0:0:0:0:
448,192,260188,1,0,0:0:0:0:
320,192,260376,5,0,0:0:0:0:
320,192,260563,1,0,0:0:0:0:
192,192,260751,1,0,0:0:0:0:
192,192,260938,1,0,0:0:0:0:
64,192,261126,1,0,0:0:0:0:
64,192,261313,1,0,0:0:0:0:
448,192,261501,128,0,268251:0:0:0:0:
64,192,261501,128,0,268251:0:0:0:0:
320,192,261501,1,0,0:0:0:0:
