osu file format v14

[General]
AudioFilename: audio.ogg
AudioLeadIn: 0
PreviewTime: 146128
Countdown: 0
SampleSet: Soft
StackLeniency: 0.7
Mode: 3
LetterboxInBreaks: 0
SpecialStyle: 0
WidescreenStoryboard: 0

[Editor]
Bookmarks: 2128,16737,41781,48041,64998,65781,70476,70998,87694,88737,97650,98128,100737,101259,101781,102302,103868,114824,120563,128389,129433,131259,131520,133346,135694,137259,145085,154744,158650,162824,203520,204563,212911,221259,245259,245781,277607,289085
DistanceSpacing: 0.6
BeatDivisor: 4
GridSize: 4
TimelineZoom: 3.000004

[Metadata]
Title:GHOST VS. GHOUL Mashup
TitleUnicode:GHOST VS. GHOUL Mashup
Artist:Camellia
ArtistUnicode:かめりあ
Creator:Kim_GodSSI
Version:Apparition
Source:
Tags:kamelcamellia cametek かめてく かめりあ Cyphisonia E.P. U.U.F.O electronic Instrumental TANO*C STREAM #4 hardcore techno bass marathon fa featured artist kimgodssi
BeatmapID:3968336
BeatmapSetID:1922400

[Difficulty]
HPDrainRate:8
CircleSize:7
OverallDifficulty:7
ApproachRate:5
SliderMultiplier:1.4
SliderTickRate:1

[Events]
//Background and Video events
0,0,"Cover BQ.jpg",0,0
Video,-1989,"GHOST VS. GHOUL MASHUP.mp4"
//Break Periods
//Storyboard Layer 0 (Background)
//Storyboard Layer 1 (Fail)
//Storyboard Layer 2 (Pass)
//Storyboard Layer 3 (Foreground)
//Storyboard Layer 4 (Overlay)
//Storyboard Sound Samples

[TimingPoints]
49,260.869565217391,4,2,1,29,1,0
49,-100,4,2,1,15,0,0
15701,-100,4,2,1,30,0,0
45962,-100,4,2,1,35,0,0
47005,-100,4,2,1,38,0,0
50135,-100,4,2,1,50,0,0
101788,-100,4,2,1,25,0,0
102309,-100,4,2,1,50,0,0
104396,-100,4,2,1,15,0,0
121092,-100,4,2,1,25,0,0
128396,-100,4,2,1,30,0,0
129440,-100,4,2,1,38,0,0
146135,-100,4,2,1,50,0,0
163614,-100,4,2,1,65,0,0
167005,-100,4,2,1,45,0,0
171179,-100,4,2,1,50,0,0
171962,-100,4,2,1,65,0,0
175353,-100,4,2,1,45,0,0
177570,-100,4,2,1,35,0,0
178483,-100,4,2,1,50,0,0
194135,-100,4,2,1,35,0,0
196222,-100,4,2,1,50,0,0
278657,-100,4,2,1,25,0,0
279701,-100,4,2,1,15,0,0

[HitObjects]
109,192,49,128,0,2070:0:0:0:0:
36,192,49,128,0,4092:0:0:0:0:
475,192,49,1,0,0:0:0:0:
329,192,49,1,0,0:0:0:0:
256,192,49,1,0,0:0:0:0:
329,192,570,1,0,0:0:0:0:
475,192,570,1,0,0:0:0:0:
256,192,831,1,0,0:0:0:0:
475,192,831,1,0,0:0:0:0:
402,192,831,1,0,0:0:0:0:
329,192,1614,1,0,0:0:0:0:
475,192,1614,1,0,0:0:0:0:
256,192,1875,128,0,2070:0:0:0:0:
475,192,2135,128,0,2918:0:0:0:0:
182,192,2135,1,0,0:0:0:0:
109,192,2135,1,0,0:0:0:0:
329,192,2135,1,0,0:0:0:0:
182,192,2657,1,0,0:0:0:0:
329,192,2657,1,0,0:0:0:0:
329,192,2918,128,0,3440:0:0:0:0:
109,192,2918,1,0,0:0:0:0:
182,192,2918,1,0,0:0:0:0:
402,192,2918,1,0,0:0:0:0:
182,192,3440,128,0,4092:0:0:0:0:
475,192,3440,1,0,0:0:0:0:
475,192,4222,128,0,7353:0:0:0:0:
182,192,4222,1,0,0:0:0:0:
36,192,4222,1,0,0:0:0:0:
402,192,4222,128,0,5135:0:0:0:0:
36,192,4744,1,0,0:0:0:0:
182,192,4744,1,0,0:0:0:0:
182,192,5005,1,0,0:0:0:0:
36,192,5005,1,0,0:0:0:0:
329,192,5005,1,0,0:0:0:0:
109,192,5135,128,0,6309:0:0:0:0:
256,192,5527,1,0,0:0:0:0:
402,192,5527,1,0,0:0:0:0:
329,192,6309,128,0,7353:0:0:0:0:
36,192,6309,1,0,0:0:0:0:
402,192,6309,1,0,0:0:0:0:
256,192,6309,1,0,0:0:0:0:
109,192,6831,1,0,0:0:0:0:
182,192,6831,1,0,0:0:0:0:
36,192,7092,128,0,8396:0:0:0:0:
256,192,7092,1,0,0:0:0:0:
109,192,7092,1,0,0:0:0:0:
402,192,7092,1,0,0:0:0:0:
329,192,7614,1,0,0:0:0:0:
475,192,7614,1,0,0:0:0:0:
256,192,8396,1,0,0:0:0:0:
109,192,8396,1,0,0:0:0:0:
475,192,8396,1,0,0:0:0:0:
329,192,8527,1,0,0:0:0:0:
402,192,8657,1,0,0:0:0:0:
475,192,8788,1,0,0:0:0:0:
182,192,8918,1,0,0:0:0:0:
36,192,8918,1,0,0:0:0:0:
256,192,9048,1,0,0:0:0:0:
329,192,9179,1,0,0:0:0:0:
109,192,9179,1,0,0:0:0:0:
475,192,9179,1,0,0:0:0:0:
402,192,9309,1,0,0:0:0:0:
109,192,9440,1,0,0:0:0:0:
182,192,9570,1,0,0:0:0:0:
256,192,9701,1,0,0:0:0:0:
475,192,9701,1,0,0:0:0:0:
329,192,9831,1,0,0:0:0:0:
36,192,9962,1,0,0:0:0:0:
402,192,9962,1,0,0:0:0:0:
475,192,9962,1,0,0:0:0:0:
109,192,10092,1,0,0:0:0:0:
182,192,10222,1,0,0:0:0:0:
256,192,10353,1,0,0:0:0:0:
36,192,10483,1,0,0:0:0:0:
475,192,10483,1,0,0:0:0:0:
182,192,10483,128,0,10548:0:0:0:0:
256,192,10614,128,0,10679:0:0:0:0:
329,192,10744,128,0,10809:0:0:0:0:
402,192,10875,128,0,10940:0:0:0:0:
109,192,11005,128,0,11070:0:0:0:0:
329,192,11005,1,0,0:0:0:0:
182,192,11135,128,0,11201:0:0:0:0:
256,192,11266,128,0,11331:0:0:0:0:
475,192,11266,1,0,0:0:0:0:
36,192,11266,1,0,0:0:0:0:
329,192,11396,128,0,11462:0:0:0:0:
36,192,11527,128,0,11592:0:0:0:0:
109,192,11657,128,0,11722:0:0:0:0:
182,192,11788,128,0,11853:0:0:0:0:
402,192,11788,1,0,0:0:0:0:
256,192,11918,128,0,11983:0:0:0:0:
402,192,12048,128,0,12114:0:0:0:0:
475,192,12048,1,0,0:0:0:0:
36,192,12048,1,0,0:0:0:0:
182,192,12179,128,0,12244:0:0:0:0:
329,192,12309,128,0,12375:0:0:0:0:
109,192,12440,128,0,12505:0:0:0:0:
475,192,12440,1,0,0:0:0:0:
402,192,12505,1,0,0:0:0:0:
182,192,12570,128,0,12635:0:0:0:0:
329,192,12570,1,0,0:0:0:0:
36,192,12570,1,0,0:0:0:0:
256,192,12701,128,0,12766:0:0:0:0:
329,192,12831,128,0,12896:0:0:0:0:
402,192,12962,128,0,13027:0:0:0:0:
109,192,13092,128,0,13157:0:0:0:0:
329,192,13092,1,0,0:0:0:0:
182,192,13222,128,0,13288:0:0:0:0:
256,192,13353,128,0,13418:0:0:0:0:
36,192,13353,1,0,0:0:0:0:
475,192,13353,1,0,0:0:0:0:
329,192,13483,128,0,13548:0:0:0:0:
36,192,13614,128,0,13679:0:0:0:0:
109,192,13744,128,0,13809:0:0:0:0:
182,192,13875,128,0,13940:0:0:0:0:
402,192,13875,1,0,0:0:0:0:
256,192,14005,128,0,14070:0:0:0:0:
182,192,14135,128,0,14201:0:0:0:0:
36,192,14135,128,0,15375:0:0:0:0:
329,192,14135,1,0,0:0:0:0:
475,192,14135,1,0,0:0:0:0:
256,192,14266,128,0,14331:0:0:0:0:
329,192,14396,128,0,14462:0:0:0:0:
402,192,14527,128,0,14592:0:0:0:0:
475,192,14657,128,0,15635:0:0:0:0:
182,192,14657,128,0,14766:0:0:0:0:
109,192,14657,1,0,0:0:0:0:
329,192,14657,1,0,0:0:0:0:
256,192,14722,128,0,14831:0:0:0:0:
329,192,14788,128,0,14896:0:0:0:0:
402,192,14853,128,0,14962:0:0:0:0:
109,192,14918,128,0,15027:0:0:0:0:
182,192,14983,128,0,15092:0:0:0:0:
256,192,15048,128,0,15157:0:0:0:0:
329,192,15114,128,0,15222:0:0:0:0:
402,192,15179,128,0,15309:0:0:0:0:
109,192,15179,1,0,0:0:0:0:
182,192,15244,128,0,15375:0:0:0:0:
256,192,15309,128,0,15440:0:0:0:0:
329,192,15375,128,0,15635:0:0:0:0:
402,192,15440,128,0,15635:0:0:0:0:
36,192,15440,128,0,15635:0:0:0:0:
109,192,15505,128,0,15635:0:0:0:0:
182,192,15570,128,0,15635:0:0:0:0:
256,192,15635,1,0,0:0:0:0:
402,192,15701,1,0,0:0:0:0:
475,192,15701,1,0,0:0:0:0:
329,192,15701,1,0,0:0:0:0:
109,192,15766,1,0,0:0:0:0:
36,192,15766,1,0,0:0:0:0:
256,192,15831,1,0,0:0:0:0:
329,192,15831,1,0,0:0:0:0:
402,192,15831,1,0,0:0:0:0:
182,192,15896,1,0,0:0:0:0:
109,192,15896,1,0,0:0:0:0:
402,192,15962,1,0,0:0:0:0:
475,192,15962,1,0,0:0:0:0:
109,192,16027,1,0,0:0:0:0:
36,192,16027,1,0,0:0:0:0:
402,192,16092,1,0,0:0:0:0:
329,192,16092,1,0,0:0:0:0:
109,192,16157,1,0,0:0:0:0:
182,192,16157,1,0,0:0:0:0:
329,192,16222,1,0,0:0:0:0:
256,192,16222,1,0,0:0:0:0:
109,192,16288,1,0,0:0:0:0:
36,192,16288,1,0,0:0:0:0:
402,192,16353,1,0,0:0:0:0:
329,192,16353,1,0,0:0:0:0:
182,192,16418,1,0,0:0:0:0:
109,192,16418,1,0,0:0:0:0:
329,192,16483,1,0,0:0:0:0:
402,192,16483,1,0,0:0:0:0:
475,192,16483,1,0,0:0:0:0:
182,192,16548,1,0,0:0:0:0:
256,192,16548,1,0,0:0:0:0:
36,192,16548,1,0,0:0:0:0:
402,192,16614,1,0,0:0:0:0:
329,192,16614,1,0,0:0:0:0:
475,192,16614,1,0,0:0:0:0:
109,192,16679,1,0,0:0:0:0:
36,192,16679,1,0,0:0:0:0:
182,192,16679,1,0,0:0:0:0:
329,192,16744,1,0,0:0:0:0:
256,192,16744,128,0,17201:0:0:0:0:
402,192,16744,128,0,16940:0:0:0:0:
475,192,16744,128,0,16940:0:0:0:0:
36,192,16744,1,0,0:0:0:0:
109,192,16744,1,0,0:0:0:0:
182,192,16875,128,0,16940:0:0:0:0:
36,192,16875,128,0,16940:0:0:0:0:
109,192,17005,128,0,17201:0:0:0:0:
36,192,17005,1,0,0:0:0:0:
182,192,17005,1,0,0:0:0:0:
402,192,17005,128,0,17070:0:0:0:0:
329,192,17135,128,0,17201:0:0:0:0:
475,192,17135,128,0,17201:0:0:0:0:
182,192,17266,128,0,17722:0:0:0:0:
36,192,17266,128,0,17462:0:0:0:0:
402,192,17266,1,0,0:0:0:0:
475,192,17266,128,0,17462:0:0:0:0:
256,192,17266,1,0,0:0:0:0:
329,192,17353,128,0,17462:0:0:0:0:
109,192,17396,128,0,17462:0:0:0:0:
475,192,17527,128,0,17722:0:0:0:0:
256,192,17527,128,0,17592:0:0:0:0:
402,192,17527,1,0,0:0:0:0:
36,192,17527,1,0,0:0:0:0:
36,192,17657,128,0,17722:0:0:0:0:
402,192,17657,1,0,0:0:0:0:
329,192,17722,1,0,0:0:0:0:
475,192,17788,128,0,18244:0:0:0:0:
256,192,17788,128,0,17983:0:0:0:0:
36,192,17788,128,0,17983:0:0:0:0:
182,192,17788,1,0,0:0:0:0:
402,192,17918,128,0,17983:0:0:0:0:
109,192,17918,128,0,17983:0:0:0:0:
329,192,18048,128,0,18244:0:0:0:0:
36,192,18048,1,0,0:0:0:0:
182,192,18048,1,0,0:0:0:0:
109,192,18048,128,0,18114:0:0:0:0:
402,192,18048,1,0,0:0:0:0:
36,192,18179,1,0,0:0:0:0:
256,192,18179,128,0,18244:0:0:0:0:
109,192,18244,1,0,0:0:0:0:
182,192,18309,128,0,18766:0:0:0:0:
36,192,18309,128,0,18505:0:0:0:0:
329,192,18309,128,0,18505:0:0:0:0:
402,192,18309,1,0,0:0:0:0:
475,192,18309,1,0,0:0:0:0:
256,192,18396,128,0,18505:0:0:0:0:
475,192,18440,128,0,18505:0:0:0:0:
36,192,18570,128,0,18766:0:0:0:0:
109,192,18570,128,0,18635:0:0:0:0:
475,192,18570,1,0,0:0:0:0:
256,192,18570,1,0,0:0:0:0:
402,192,18635,1,0,0:0:0:0:
329,192,18701,1,0,0:0:0:0:
475,192,18701,128,0,18766:0:0:0:0:
256,192,18766,1,0,0:0:0:0:
475,192,18831,1,0,0:0:0:0:
36,192,18831,128,0,19288:0:0:0:0:
182,192,18831,128,0,19027:0:0:0:0:
329,192,18831,128,0,19027:0:0:0:0:
402,192,18831,1,0,0:0:0:0:
109,192,18962,128,0,19027:0:0:0:0:
475,192,18962,128,0,19027:0:0:0:0:
256,192,19092,128,0,19288:0:0:0:0:
475,192,19092,128,0,19288:0:0:0:0:
109,192,19092,1,0,0:0:0:0:
329,192,19092,1,0,0:0:0:0:
182,192,19222,128,0,19288:0:0:0:0:
402,192,19222,128,0,19288:0:0:0:0:
475,192,19353,128,0,19809:0:0:0:0:
36,192,19353,128,0,19548:0:0:0:0:
109,192,19353,128,0,19548:0:0:0:0:
329,192,19353,1,0,0:0:0:0:
182,192,19353,1,0,0:0:0:0:
256,192,19440,128,0,19548:0:0:0:0:
402,192,19483,128,0,19548:0:0:0:0:
329,192,19614,128,0,19809:0:0:0:0:
182,192,19614,128,0,19679:0:0:0:0:
36,192,19614,1,0,0:0:0:0:
402,192,19614,1,0,0:0:0:0:
256,192,19744,128,0,19809:0:0:0:0:
36,192,19744,1,0,0:0:0:0:
109,192,19809,1,0,0:0:0:0:
402,192,19875,128,0,20331:0:0:0:0:
182,192,19875,128,0,20070:0:0:0:0:
475,192,19875,128,0,20070:0:0:0:0:
329,192,19875,1,0,0:0:0:0:
256,192,20005,128,0,20070:0:0:0:0:
36,192,20005,128,0,20070:0:0:0:0:
109,192,20135,128,0,20331:0:0:0:0:
36,192,20135,1,0,0:0:0:0:
329,192,20135,1,0,0:0:0:0:
182,192,20135,128,0,20201:0:0:0:0:
256,192,20135,1,0,0:0:0:0:
182,192,20266,1,0,0:0:0:0:
475,192,20266,128,0,20331:0:0:0:0:
256,192,20331,1,0,0:0:0:0:
109,192,20396,128,0,20853:0:0:0:0:
329,192,20396,1,0,0:0:0:0:
475,192,20396,1,0,0:0:0:0:
36,192,20396,128,0,20592:0:0:0:0:
402,192,20396,128,0,20592:0:0:0:0:
256,192,20483,128,0,20592:0:0:0:0:
475,192,20527,128,0,20592:0:0:0:0:
475,192,20657,128,0,20853:0:0:0:0:
36,192,20657,1,0,0:0:0:0:
182,192,20657,1,0,0:0:0:0:
329,192,20657,128,0,20722:0:0:0:0:
256,192,20722,1,0,0:0:0:0:
402,192,20788,1,0,0:0:0:0:
182,192,20788,128,0,20853:0:0:0:0:
329,192,20853,1,0,0:0:0:0:
109,192,20918,1,0,0:0:0:0:
36,192,20918,1,0,0:0:0:0:
256,192,20918,1,0,0:0:0:0:
402,192,20918,1,0,0:0:0:0:
475,192,20918,1,0,0:0:0:0:
329,192,21048,1,0,0:0:0:0:
402,192,21048,1,0,0:0:0:0:
182,192,21048,1,0,0:0:0:0:
256,192,21179,1,0,0:0:0:0:
36,192,21179,1,0,0:0:0:0:
109,192,21179,1,0,0:0:0:0:
475,192,21179,1,0,0:0:0:0:
182,192,21309,1,0,0:0:0:0:
109,192,21309,1,0,0:0:0:0:
329,192,21309,1,0,0:0:0:0:
182,192,21440,1,0,0:0:0:0:
402,192,21440,1,0,0:0:0:0:
475,192,21440,1,0,0:0:0:0:
36,192,21440,1,0,0:0:0:0:
256,192,21440,1,0,0:0:0:0:
329,192,21570,1,0,0:0:0:0:
182,192,21570,1,0,0:0:0:0:
475,192,21570,1,0,0:0:0:0:
402,192,21701,1,0,0:0:0:0:
182,192,21701,1,0,0:0:0:0:
256,192,21701,1,0,0:0:0:0:
109,192,21701,1,0,0:0:0:0:
36,192,21701,1,0,0:0:0:0:
36,192,21831,1,0,0:0:0:0:
182,192,21831,1,0,0:0:0:0:
475,192,21831,1,0,0:0:0:0:
402,192,21962,1,0,0:0:0:0:
256,192,21962,1,0,0:0:0:0:
36,192,21962,1,0,0:0:0:0:
109,192,21962,1,0,0:0:0:0:
109,192,22092,1,0,0:0:0:0:
329,192,22092,1,0,0:0:0:0:
182,192,22092,1,0,0:0:0:0:
109,192,22222,1,0,0:0:0:0:
256,192,22222,1,0,0:0:0:0:
36,192,22222,1,0,0:0:0:0:
402,192,22222,1,0,0:0:0:0:
475,192,22222,1,0,0:0:0:0:
182,192,22353,1,0,0:0:0:0:
329,192,22353,1,0,0:0:0:0:
402,192,22353,1,0,0:0:0:0:
109,192,22483,1,0,0:0:0:0:
256,192,22483,1,0,0:0:0:0:
182,192,22483,1,0,0:0:0:0:
475,192,22483,1,0,0:0:0:0:
36,192,22483,1,0,0:0:0:0:
182,192,22614,1,0,0:0:0:0:
329,192,22614,1,0,0:0:0:0:
36,192,22614,1,0,0:0:0:0:
182,192,22744,1,0,0:0:0:0:
329,192,22744,1,0,0:0:0:0:
402,192,22744,1,0,0:0:0:0:
475,192,22744,1,0,0:0:0:0:
256,192,22875,1,0,0:0:0:0:
36,192,22875,1,0,0:0:0:0:
109,192,22875,1,0,0:0:0:0:
402,192,22875,1,0,0:0:0:0:
36,192,23005,1,0,0:0:0:0:
182,192,23005,1,0,0:0:0:0:
256,192,23005,1,0,0:0:0:0:
329,192,23005,1,0,0:0:0:0:
475,192,23005,1,0,0:0:0:0:
109,192,23135,1,0,0:0:0:0:
402,192,23135,1,0,0:0:0:0:
182,192,23135,1,0,0:0:0:0:
329,192,23266,1,0,0:0:0:0:
256,192,23266,1,0,0:0:0:0:
36,192,23266,1,0,0:0:0:0:
475,192,23266,1,0,0:0:0:0:
182,192,23396,1,0,0:0:0:0:
329,192,23396,1,0,0:0:0:0:
402,192,23396,1,0,0:0:0:0:
402,192,23527,1,0,0:0:0:0:
36,192,23527,1,0,0:0:0:0:
256,192,23527,1,0,0:0:0:0:
475,192,23527,1,0,0:0:0:0:
109,192,23527,1,0,0:0:0:0:
329,192,23657,1,0,0:0:0:0:
182,192,23657,1,0,0:0:0:0:
36,192,23657,1,0,0:0:0:0:
109,192,23788,1,0,0:0:0:0:
329,192,23788,1,0,0:0:0:0:
402,192,23788,1,0,0:0:0:0:
475,192,23788,1,0,0:0:0:0:
256,192,23788,1,0,0:0:0:0:
182,192,23918,1,0,0:0:0:0:
329,192,23918,1,0,0:0:0:0:
475,192,23918,1,0,0:0:0:0:
109,192,24048,1,0,0:0:0:0:
36,192,24048,1,0,0:0:0:0:
256,192,24048,1,0,0:0:0:0:
402,192,24048,1,0,0:0:0:0:
329,192,24179,1,0,0:0:0:0:
182,192,24179,1,0,0:0:0:0:
36,192,24179,1,0,0:0:0:0:
109,192,24179,1,0,0:0:0:0:
256,192,24309,1,0,0:0:0:0:
402,192,24309,1,0,0:0:0:0:
475,192,24309,1,0,0:0:0:0:
182,192,24309,1,0,0:0:0:0:
182,192,24440,1,0,0:0:0:0:
36,192,24440,1,0,0:0:0:0:
109,192,24440,1,0,0:0:0:0:
329,192,24440,1,0,0:0:0:0:
256,192,24570,1,0,0:0:0:0:
109,192,24570,1,0,0:0:0:0:
402,192,24570,1,0,0:0:0:0:
475,192,24570,1,0,0:0:0:0:
329,192,24570,1,0,0:0:0:0:
109,192,24701,1,0,0:0:0:0:
36,192,24701,1,0,0:0:0:0:
256,192,24701,1,0,0:0:0:0:
402,192,24701,1,0,0:0:0:0:
182,192,24831,1,0,0:0:0:0:
329,192,24831,1,0,0:0:0:0:
475,192,24831,1,0,0:0:0:0:
182,192,24962,1,0,0:0:0:0:
109,192,24962,1,0,0:0:0:0:
36,192,24962,1,0,0:0:0:0:
329,192,25027,1,0,0:0:0:0:
402,192,25027,1,0,0:0:0:0:
475,192,25027,1,0,0:0:0:0:
182,192,25092,1,0,0:0:0:0:
256,192,25092,128,0,25548:0:0:0:0:
475,192,25092,128,0,25288:0:0:0:0:
36,192,25092,128,0,25288:0:0:0:0:
402,192,25092,1,0,0:0:0:0:
109,192,25222,128,0,25288:0:0:0:0:
329,192,25222,128,0,25288:0:0:0:0:
402,192,25353,128,0,25548:0:0:0:0:
475,192,25353,1,0,0:0:0:0:
329,192,25353,1,0,0:0:0:0:
109,192,25353,128,0,25418:0:0:0:0:
182,192,25483,128,0,25548:0:0:0:0:
36,192,25483,128,0,25548:0:0:0:0:
402,192,25614,128,0,26070:0:0:0:0:
475,192,25614,128,0,25809:0:0:0:0:
109,192,25614,1,0,0:0:0:0:
36,192,25614,128,0,25809:0:0:0:0:
256,192,25614,1,0,0:0:0:0:
182,192,25701,128,0,25809:0:0:0:0:
329,192,25744,128,0,25809:0:0:0:0:
109,192,25875,128,0,26070:0:0:0:0:
256,192,25875,128,0,25940:0:0:0:0:
475,192,25875,1,0,0:0:0:0:
36,192,25875,1,0,0:0:0:0:
475,192,26005,128,0,26070:0:0:0:0:
182,192,26005,1,0,0:0:0:0:
256,192,26070,1,0,0:0:0:0:
36,192,26135,128,0,26592:0:0:0:0:
329,192,26135,128,0,26331:0:0:0:0:
475,192,26135,128,0,26331:0:0:0:0:
402,192,26135,1,0,0:0:0:0:
109,192,26266,128,0,26331:0:0:0:0:
256,192,26266,128,0,26331:0:0:0:0:
182,192,26396,128,0,26592:0:0:0:0:
475,192,26396,1,0,0:0:0:0:
109,192,26396,1,0,0:0:0:0:
402,192,26396,128,0,26462:0:0:0:0:
329,192,26396,1,0,0:0:0:0:
475,192,26527,1,0,0:0:0:0:
256,192,26527,128,0,26592:0:0:0:0:
402,192,26592,1,0,0:0:0:0:
182,192,26657,128,0,27114:0:0:0:0:
475,192,26657,128,0,26853:0:0:0:0:
329,192,26657,1,0,0:0:0:0:
36,192,26657,128,0,26853:0:0:0:0:
256,192,26657,1,0,0:0:0:0:
109,192,26744,128,0,26853:0:0:0:0:
329,192,26788,128,0,26853:0:0:0:0:
402,192,26918,128,0,27114:0:0:0:0:
256,192,26918,128,0,26983:0:0:0:0:
36,192,26918,1,0,0:0:0:0:
475,192,26918,1,0,0:0:0:0:
109,192,26983,1,0,0:0:0:0:
329,192,27048,1,0,0:0:0:0:
36,192,27048,128,0,27114:0:0:0:0:
256,192,27114,1,0,0:0:0:0:
475,192,27179,1,0,0:0:0:0:
36,192,27179,128,0,27635:0:0:0:0:
109,192,27179,128,0,27375:0:0:0:0:
402,192,27179,128,0,27375:0:0:0:0:
182,192,27179,1,0,0:0:0:0:
475,192,27309,128,0,27375:0:0:0:0:
256,192,27309,128,0,27375:0:0:0:0:
182,192,27440,128,0,27635:0:0:0:0:
329,192,27440,128,0,27635:0:0:0:0:
109,192,27440,1,0,0:0:0:0:
475,192,27440,1,0,0:0:0:0:
475,192,27570,128,0,27635:0:0:0:0:
256,192,27570,128,0,27635:0:0:0:0:
475,192,27701,128,0,28157:0:0:0:0:
36,192,27701,128,0,27896:0:0:0:0:
109,192,27701,128,0,27896:0:0:0:0:
329,192,27701,1,0,0:0:0:0:
182,192,27701,1,0,0:0:0:0:
256,192,27788,128,0,27896:0:0:0:0:
402,192,27831,128,0,27896:0:0:0:0:
329,192,27962,128,0,28157:0:0:0:0:
36,192,27962,128,0,28027:0:0:0:0:
182,192,27962,1,0,0:0:0:0:
402,192,27962,1,0,0:0:0:0:
256,192,28092,128,0,28157:0:0:0:0:
109,192,28092,1,0,0:0:0:0:
182,192,28157,1,0,0:0:0:0:
36,192,28222,128,0,28679:0:0:0:0:
329,192,28222,128,0,28418:0:0:0:0:
475,192,28222,128,0,28418:0:0:0:0:
256,192,28222,1,0,0:0:0:0:
182,192,28353,128,0,28418:0:0:0:0:
109,192,28353,128,0,28418:0:0:0:0:
402,192,28483,128,0,28679:0:0:0:0:
109,192,28483,1,0,0:0:0:0:
475,192,28483,1,0,0:0:0:0:
329,192,28483,128,0,28548:0:0:0:0:
182,192,28483,1,0,0:0:0:0:
329,192,28614,1,0,0:0:0:0:
182,192,28614,128,0,28679:0:0:0:0:
256,192,28679,1,0,0:0:0:0:
402,192,28744,128,0,28940:0:0:0:0:
109,192,28744,1,0,0:0:0:0:
36,192,28744,1,0,0:0:0:0:
475,192,28744,128,0,28940:0:0:0:0:
182,192,28744,128,0,28940:0:0:0:0:
256,192,28831,128,0,28940:0:0:0:0:
36,192,28875,128,0,28940:0:0:0:0:
475,192,29005,128,0,29222:0:0:0:0:
36,192,29005,128,0,29157:0:0:0:0:
256,192,29005,128,0,29070:0:0:0:0:
109,192,29005,128,0,29114:0:0:0:0:
402,192,29048,128,0,29222:0:0:0:0:
329,192,29092,128,0,29222:0:0:0:0:
182,192,29135,128,0,29222:0:0:0:0:
109,192,29179,128,0,29222:0:0:0:0:
402,192,29266,1,0,0:0:0:0:
475,192,29266,1,0,0:0:0:0:
256,192,29266,1,0,0:0:0:0:
182,192,29266,1,0,0:0:0:0:
36,192,29266,1,0,0:0:0:0:
329,192,29396,1,0,0:0:0:0:
402,192,29396,1,0,0:0:0:0:
182,192,29396,1,0,0:0:0:0:
256,192,29527,1,0,0:0:0:0:
109,192,29527,1,0,0:0:0:0:
475,192,29527,1,0,0:0:0:0:
36,192,29527,1,0,0:0:0:0:
329,192,29657,1,0,0:0:0:0:
182,192,29657,1,0,0:0:0:0:
109,192,29657,1,0,0:0:0:0:
109,192,29788,1,0,0:0:0:0:
475,192,29788,1,0,0:0:0:0:
256,192,29788,1,0,0:0:0:0:
36,192,29788,1,0,0:0:0:0:
402,192,29788,1,0,0:0:0:0:
182,192,29918,1,0,0:0:0:0:
475,192,29918,1,0,0:0:0:0:
329,192,29918,1,0,0:0:0:0:
36,192,30048,1,0,0:0:0:0:
256,192,30048,1,0,0:0:0:0:
182,192,30048,1,0,0:0:0:0:
402,192,30048,1,0,0:0:0:0:
475,192,30048,1,0,0:0:0:0:
109,192,30179,1,0,0:0:0:0:
256,192,30179,1,0,0:0:0:0:
402,192,30179,1,0,0:0:0:0:
329,192,30309,1,0,0:0:0:0:
36,192,30309,1,0,0:0:0:0:
182,192,30309,1,0,0:0:0:0:
109,192,30309,1,0,0:0:0:0:
256,192,30440,1,0,0:0:0:0:
402,192,30440,1,0,0:0:0:0:
475,192,30440,1,0,0:0:0:0:
182,192,30570,1,0,0:0:0:0:
36,192,30570,1,0,0:0:0:0:
329,192,30570,1,0,0:0:0:0:
256,192,30570,1,0,0:0:0:0:
475,192,30570,1,0,0:0:0:0:
182,192,30701,1,0,0:0:0:0:
36,192,30701,1,0,0:0:0:0:
329,192,30701,1,0,0:0:0:0:
256,192,30831,1,0,0:0:0:0:
109,192,30831,1,0,0:0:0:0:
402,192,30831,1,0,0:0:0:0:
475,192,30831,1,0,0:0:0:0:
329,192,30831,1,0,0:0:0:0:
109,192,30962,1,0,0:0:0:0:
256,192,30962,1,0,0:0:0:0:
402,192,30962,1,0,0:0:0:0:
475,192,31092,1,0,0:0:0:0:
36,192,31092,1,0,0:0:0:0:
182,192,31092,1,0,0:0:0:0:
329,192,31092,1,0,0:0:0:0:
36,192,31222,1,0,0:0:0:0:
256,192,31222,1,0,0:0:0:0:
109,192,31222,1,0,0:0:0:0:
402,192,31222,1,0,0:0:0:0:
182,192,31353,1,0,0:0:0:0:
329,192,31353,1,0,0:0:0:0:
402,192,31353,1,0,0:0:0:0:
475,192,31353,1,0,0:0:0:0:
36,192,31353,1,0,0:0:0:0:
256,192,31483,1,0,0:0:0:0:
182,192,31483,1,0,0:0:0:0:
109,192,31483,1,0,0:0:0:0:
182,192,31614,1,0,0:0:0:0:
36,192,31614,1,0,0:0:0:0:
329,192,31614,1,0,0:0:0:0:
475,192,31614,1,0,0:0:0:0:
402,192,31744,1,0,0:0:0:0:
329,192,31744,1,0,0:0:0:0:
256,192,31744,1,0,0:0:0:0:
109,192,31875,1,0,0:0:0:0:
256,192,31875,1,0,0:0:0:0:
402,192,31875,1,0,0:0:0:0:
475,192,31875,1,0,0:0:0:0:
36,192,31875,1,0,0:0:0:0:
182,192,32005,1,0,0:0:0:0:
109,192,32005,1,0,0:0:0:0:
329,192,32005,1,0,0:0:0:0:
36,192,32135,1,0,0:0:0:0:
109,192,32135,1,0,0:0:0:0:
475,192,32135,1,0,0:0:0:0:
402,192,32135,1,0,0:0:0:0:
256,192,32135,1,0,0:0:0:0:
109,192,32266,1,0,0:0:0:0:
182,192,32266,1,0,0:0:0:0:
402,192,32266,1,0,0:0:0:0:
329,192,32266,1,0,0:0:0:0:
109,192,32396,1,0,0:0:0:0:
36,192,32396,1,0,0:0:0:0:
256,192,32396,1,0,0:0:0:0:
402,192,32396,1,0,0:0:0:0:
475,192,32396,1,0,0:0:0:0:
475,192,32527,1,0,0:0:0:0:
329,192,32527,1,0,0:0:0:0:
402,192,32527,1,0,0:0:0:0:
109,192,32592,1,0,0:0:0:0:
36,192,32592,1,0,0:0:0:0:
256,192,32657,1,0,0:0:0:0:
402,192,32657,1,0,0:0:0:0:
475,192,32657,1,0,0:0:0:0:
329,192,32657,1,0,0:0:0:0:
182,192,32788,1,0,0:0:0:0:
256,192,32788,1,0,0:0:0:0:
329,192,32788,1,0,0:0:0:0:
402,192,32788,1,0,0:0:0:0:
109,192,32918,1,0,0:0:0:0:
182,192,32918,1,0,0:0:0:0:
256,192,32918,1,0,0:0:0:0:
329,192,32918,1,0,0:0:0:0:
475,192,32918,1,0,0:0:0:0:
256,192,33048,1,0,0:0:0:0:
182,192,33048,1,0,0:0:0:0:
109,192,33048,1,0,0:0:0:0:
36,192,33048,1,0,0:0:0:0:
402,192,33048,1,0,0:0:0:0:
182,192,33179,1,0,0:0:0:0:
109,192,33179,1,0,0:0:0:0:
36,192,33179,1,0,0:0:0:0:
475,192,33179,1,0,0:0:0:0:
329,192,33179,1,0,0:0:0:0:
402,192,33309,1,0,0:0:0:0:
475,192,33309,1,0,0:0:0:0:
109,192,33309,1,0,0:0:0:0:
36,192,33309,1,0,0:0:0:0:
256,192,33309,1,0,0:0:0:0:
329,192,33440,1,0,0:0:0:0:
182,192,33440,1,0,0:0:0:0:
36,192,33440,1,0,0:0:0:0:
475,192,33440,1,0,0:0:0:0:
402,192,33440,1,0,0:0:0:0:
109,192,33570,1,0,0:0:0:0:
256,192,33570,1,0,0:0:0:0:
36,192,33570,1,0,0:0:0:0:
182,192,33701,1,0,0:0:0:0:
329,192,33701,1,0,0:0:0:0:
402,192,33701,1,0,0:0:0:0:
475,192,33701,1,0,0:0:0:0:
256,192,33701,1,0,0:0:0:0:
475,192,33831,1,0,0:0:0:0:
329,192,33831,1,0,0:0:0:0:
182,192,33831,1,0,0:0:0:0:
109,192,33831,1,0,0:0:0:0:
36,192,33831,1,0,0:0:0:0:
256,192,33962,1,0,0:0:0:0:
402,192,33962,1,0,0:0:0:0:
475,192,33962,1,0,0:0:0:0:
256,192,34092,1,0,0:0:0:0:
329,192,34092,1,0,0:0:0:0:
182,192,34092,1,0,0:0:0:0:
109,192,34092,1,0,0:0:0:0:
36,192,34092,1,0,0:0:0:0:
36,192,34222,1,0,0:0:0:0:
182,192,34222,1,0,0:0:0:0:
329,192,34222,1,0,0:0:0:0:
402,192,34222,1,0,0:0:0:0:
475,192,34222,1,0,0:0:0:0:
256,192,34353,1,0,0:0:0:0:
109,192,34353,1,0,0:0:0:0:
36,192,34353,1,0,0:0:0:0:
36,192,34483,1,0,0:0:0:0:
182,192,34483,1,0,0:0:0:0:
329,192,34483,1,0,0:0:0:0:
402,192,34483,1,0,0:0:0:0:
475,192,34483,1,0,0:0:0:0:
109,192,34614,1,0,0:0:0:0:
36,192,34614,1,0,0:0:0:0:
256,192,34614,1,0,0:0:0:0:
182,192,34744,1,0,0:0:0:0:
256,192,34744,1,0,0:0:0:0:
329,192,34744,1,0,0:0:0:0:
402,192,34744,1,0,0:0:0:0:
475,192,34744,1,0,0:0:0:0:
182,192,34875,1,0,0:0:0:0:
36,192,34875,1,0,0:0:0:0:
109,192,34875,1,0,0:0:0:0:
329,192,34875,1,0,0:0:0:0:
475,192,34875,1,0,0:0:0:0:
256,192,35005,1,0,0:0:0:0:
402,192,35005,1,0,0:0:0:0:
475,192,35005,1,0,0:0:0:0:
329,192,35135,1,0,0:0:0:0:
256,192,35135,1,0,0:0:0:0:
182,192,35135,1,0,0:0:0:0:
109,192,35135,1,0,0:0:0:0:
36,192,35135,1,0,0:0:0:0:
36,192,35266,1,0,0:0:0:0:
182,192,35266,1,0,0:0:0:0:
329,192,35266,1,0,0:0:0:0:
402,192,35266,1,0,0:0:0:0:
475,192,35266,1,0,0:0:0:0:
256,192,35396,1,0,0:0:0:0:
109,192,35396,1,0,0:0:0:0:
36,192,35396,1,0,0:0:0:0:
109,192,35527,1,0,0:0:0:0:
36,192,35527,1,0,0:0:0:0:
256,192,35527,1,0,0:0:0:0:
402,192,35527,1,0,0:0:0:0:
475,192,35527,1,0,0:0:0:0:
182,192,35657,1,0,0:0:0:0:
329,192,35657,1,0,0:0:0:0:
475,192,35657,1,0,0:0:0:0:
256,192,35788,1,0,0:0:0:0:
182,192,35788,1,0,0:0:0:0:
109,192,35788,1,0,0:0:0:0:
36,192,35788,1,0,0:0:0:0:
329,192,35788,1,0,0:0:0:0:
109,192,35918,1,0,0:0:0:0:
36,192,35918,1,0,0:0:0:0:
256,192,35918,1,0,0:0:0:0:
402,192,35918,1,0,0:0:0:0:
475,192,35918,1,0,0:0:0:0:
182,192,36048,1,0,0:0:0:0:
36,192,36048,1,0,0:0:0:0:
329,192,36048,1,0,0:0:0:0:
182,192,36179,1,0,0:0:0:0:
256,192,36179,1,0,0:0:0:0:
329,192,36179,1,0,0:0:0:0:
402,192,36179,1,0,0:0:0:0:
475,192,36179,1,0,0:0:0:0:
109,192,36309,1,0,0:0:0:0:
36,192,36309,1,0,0:0:0:0:
256,192,36309,1,0,0:0:0:0:
402,192,36309,1,0,0:0:0:0:
475,192,36309,1,0,0:0:0:0:
182,192,36440,1,0,0:0:0:0:
329,192,36440,1,0,0:0:0:0:
475,192,36440,1,0,0:0:0:0:
402,192,36570,1,0,0:0:0:0:
475,192,36570,1,0,0:0:0:0:
256,192,36570,1,0,0:0:0:0:
109,192,36570,1,0,0:0:0:0:
36,192,36570,1,0,0:0:0:0:
182,192,36701,1,0,0:0:0:0:
329,192,36701,1,0,0:0:0:0:
475,192,36701,1,0,0:0:0:0:
256,192,36831,1,0,0:0:0:0:
182,192,36831,1,0,0:0:0:0:
109,192,36831,1,0,0:0:0:0:
36,192,36831,1,0,0:0:0:0:
329,192,36831,1,0,0:0:0:0:
36,192,36962,1,0,0:0:0:0:
109,192,36962,1,0,0:0:0:0:
256,192,36962,1,0,0:0:0:0:
402,192,36962,1,0,0:0:0:0:
475,192,36962,1,0,0:0:0:0:
182,192,37092,1,0,0:0:0:0:
329,192,37092,1,0,0:0:0:0:
36,192,37092,1,0,0:0:0:0:
182,192,37222,1,0,0:0:0:0:
256,192,37222,1,0,0:0:0:0:
329,192,37222,1,0,0:0:0:0:
402,192,37222,1,0,0:0:0:0:
475,192,37222,1,0,0:0:0:0:
475,192,37353,1,0,0:0:0:0:
256,192,37353,1,0,0:0:0:0:
109,192,37353,1,0,0:0:0:0:
36,192,37353,1,0,0:0:0:0:
182,192,37353,1,0,0:0:0:0:
402,192,37418,1,0,0:0:0:0:
329,192,37418,1,0,0:0:0:0:
182,192,37483,1,0,0:0:0:0:
109,192,37483,1,0,0:0:0:0:
402,192,37548,1,0,0:0:0:0:
329,192,37548,1,0,0:0:0:0:
256,192,37614,1,0,0:0:0:0:
475,192,37614,1,0,0:0:0:0:
36,192,37614,1,0,0:0:0:0:
182,192,37614,1,0,0:0:0:0:
109,192,37614,1,0,0:0:0:0:
109,192,37744,1,0,0:0:0:0:
182,192,37744,1,0,0:0:0:0:
36,192,37744,1,0,0:0:0:0:
182,192,37875,1,0,0:0:0:0:
329,192,37875,1,0,0:0:0:0:
402,192,37875,1,0,0:0:0:0:
475,192,37875,1,0,0:0:0:0:
256,192,37875,1,0,0:0:0:0:
329,192,38005,1,0,0:0:0:0:
182,192,38005,1,0,0:0:0:0:
475,192,38005,1,0,0:0:0:0:
256,192,38005,1,0,0:0:0:0:
36,192,38005,1,0,0:0:0:0:
329,192,38135,1,0,0:0:0:0:
402,192,38135,1,0,0:0:0:0:
475,192,38135,1,0,0:0:0:0:
182,192,38266,1,0,0:0:0:0:
256,192,38266,1,0,0:0:0:0:
329,192,38266,1,0,0:0:0:0:
109,192,38266,1,0,0:0:0:0:
36,192,38266,1,0,0:0:0:0:
256,192,38396,1,0,0:0:0:0:
36,192,38396,1,0,0:0:0:0:
182,192,38396,1,0,0:0:0:0:
329,192,38396,1,0,0:0:0:0:
475,192,38396,1,0,0:0:0:0:
182,192,38527,1,0,0:0:0:0:
109,192,38527,1,0,0:0:0:0:
36,192,38527,1,0,0:0:0:0:
36,192,38657,1,0,0:0:0:0:
182,192,38657,1,0,0:0:0:0:
256,192,38657,1,0,0:0:0:0:
329,192,38657,1,0,0:0:0:0:
475,192,38657,1,0,0:0:0:0:
182,192,38788,1,0,0:0:0:0:
109,192,38788,1,0,0:0:0:0:
36,192,38788,1,0,0:0:0:0:
256,192,38918,1,0,0:0:0:0:
182,192,38918,1,0,0:0:0:0:
329,192,38918,1,0,0:0:0:0:
402,192,38918,1,0,0:0:0:0:
475,192,38918,1,0,0:0:0:0:
36,192,39048,1,0,0:0:0:0:
182,192,39048,1,0,0:0:0:0:
256,192,39048,1,0,0:0:0:0:
329,192,39048,1,0,0:0:0:0:
475,192,39048,1,0,0:0:0:0:
329,192,39179,1,0,0:0:0:0:
402,192,39179,1,0,0:0:0:0:
475,192,39179,1,0,0:0:0:0:
329,192,39309,1,0,0:0:0:0:
256,192,39309,1,0,0:0:0:0:
182,192,39309,1,0,0:0:0:0:
109,192,39309,1,0,0:0:0:0:
36,192,39309,1,0,0:0:0:0:
182,192,39440,1,0,0:0:0:0:
36,192,39440,1,0,0:0:0:0:
256,192,39440,1,0,0:0:0:0:
329,192,39440,1,0,0:0:0:0:
475,192,39440,1,0,0:0:0:0:
182,192,39570,1,0,0:0:0:0:
109,192,39570,1,0,0:0:0:0:
36,192,39570,1,0,0:0:0:0:
109,192,39701,1,0,0:0:0:0:
36,192,39701,1,0,0:0:0:0:
182,192,39701,1,0,0:0:0:0:
329,192,39701,1,0,0:0:0:0:
475,192,39701,1,0,0:0:0:0:
256,192,39831,1,0,0:0:0:0:
402,192,39831,1,0,0:0:0:0:
475,192,39831,1,0,0:0:0:0:
109,192,39962,1,0,0:0:0:0:
36,192,39962,1,0,0:0:0:0:
182,192,39962,1,0,0:0:0:0:
329,192,39962,1,0,0:0:0:0:
256,192,39962,1,0,0:0:0:0:
36,192,40092,1,0,0:0:0:0:
182,192,40092,1,0,0:0:0:0:
329,192,40092,1,0,0:0:0:0:
402,192,40092,1,0,0:0:0:0:
475,192,40092,1,0,0:0:0:0:
256,192,40222,1,0,0:0:0:0:
109,192,40222,1,0,0:0:0:0:
36,192,40222,1,0,0:0:0:0:
256,192,40353,1,0,0:0:0:0:
329,192,40353,1,0,0:0:0:0:
182,192,40353,1,0,0:0:0:0:
402,192,40353,1,0,0:0:0:0:
475,192,40353,1,0,0:0:0:0:
182,192,40483,1,0,0:0:0:0:
109,192,40483,1,0,0:0:0:0:
36,192,40483,1,0,0:0:0:0:
329,192,40483,1,0,0:0:0:0:
475,192,40483,1,0,0:0:0:0:
256,192,40614,5,0,0:0:0:0:
402,192,40614,1,0,0:0:0:0:
475,192,40614,1,0,0:0:0:0:
329,192,40744,1,0,0:0:0:0:
402,192,40744,1,0,0:0:0:0:
475,192,40744,1,0,0:0:0:0:
182,192,40744,1,0,0:0:0:0:
36,192,40744,1,0,0:0:0:0:
256,192,40875,1,0,0:0:0:0:
402,192,40875,1,0,0:0:0:0:
475,192,40875,1,0,0:0:0:0:
329,192,41005,1,0,0:0:0:0:
256,192,41005,1,0,0:0:0:0:
182,192,41005,1,0,0:0:0:0:
109,192,41005,1,0,0:0:0:0:
36,192,41005,1,0,0:0:0:0:
36,192,41135,1,0,0:0:0:0:
182,192,41135,1,0,0:0:0:0:
329,192,41135,1,0,0:0:0:0:
402,192,41135,1,0,0:0:0:0:
475,192,41135,1,0,0:0:0:0:
109,192,41266,1,0,0:0:0:0:
182,192,41266,1,0,0:0:0:0:
256,192,41266,1,0,0:0:0:0:
475,192,41331,1,0,0:0:0:0:
402,192,41331,1,0,0:0:0:0:
182,192,41396,1,0,0:0:0:0:
109,192,41396,1,0,0:0:0:0:
36,192,41396,1,0,0:0:0:0:
329,192,41462,1,0,0:0:0:0:
402,192,41462,1,0,0:0:0:0:
475,192,41527,1,0,0:0:0:0:
109,192,41527,1,0,0:0:0:0:
36,192,41527,1,0,0:0:0:0:
182,192,41527,1,0,0:0:0:0:
256,192,41527,1,0,0:0:0:0:
402,192,41657,1,0,0:0:0:0:
182,192,41657,1,0,0:0:0:0:
475,192,41657,1,0,0:0:0:0:
329,192,41722,1,0,0:0:0:0:
109,192,41722,1,0,0:0:0:0:
475,192,41788,128,0,42114:0:0:0:0:
36,192,41788,128,0,41853:0:0:0:0:
256,192,41788,128,0,41983:0:0:0:0:
402,192,41788,1,0,0:0:0:0:
182,192,41853,128,0,41918:0:0:0:0:
329,192,41918,128,0,41983:0:0:0:0:
36,192,41918,1,0,0:0:0:0:
109,192,41983,1,0,0:0:0:0:
329,192,42048,1,0,0:0:0:0:
402,192,42048,128,0,42244:0:0:0:0:
36,192,42048,128,0,42375:0:0:0:0:
182,192,42048,128,0,42114:0:0:0:0:
256,192,42114,128,0,42179:0:0:0:0:
109,192,42179,128,0,42244:0:0:0:0:
475,192,42179,1,0,0:0:0:0:
329,192,42244,1,0,0:0:0:0:
475,192,42309,128,0,42635:0:0:0:0:
256,192,42309,128,0,42375:0:0:0:0:
109,192,42309,1,0,0:0:0:0:
182,192,42309,128,0,42505:0:0:0:0:
402,192,42375,128,0,42440:0:0:0:0:
109,192,42440,128,0,42505:0:0:0:0:
329,192,42440,1,0,0:0:0:0:
256,192,42505,1,0,0:0:0:0:
36,192,42570,128,0,42766:0:0:0:0:
329,192,42570,128,0,42766:0:0:0:0:
182,192,42570,1,0,0:0:0:0:
109,192,42570,128,0,42635:0:0:0:0:
256,192,42635,128,0,42701:0:0:0:0:
475,192,42701,128,0,42766:0:0:0:0:
109,192,42701,1,0,0:0:0:0:
182,192,42766,1,0,0:0:0:0:
109,192,42831,128,0,43027:0:0:0:0:
402,192,42831,128,0,43027:0:0:0:0:
256,192,42831,128,0,42896:0:0:0:0:
475,192,42831,1,0,0:0:0:0:
329,192,42896,128,0,42962:0:0:0:0:
182,192,42962,128,0,43027:0:0:0:0:
36,192,42962,1,0,0:0:0:0:
329,192,43027,1,0,0:0:0:0:
36,192,43092,128,0,43288:0:0:0:0:
256,192,43092,128,0,43288:0:0:0:0:
475,192,43092,128,0,43157:0:0:0:0:
182,192,43092,1,0,0:0:0:0:
329,192,43157,128,0,43222:0:0:0:0:
402,192,43222,128,0,43288:0:0:0:0:
109,192,43222,1,0,0:0:0:0:
182,192,43288,1,0,0:0:0:0:
109,192,43353,128,0,43418:0:0:0:0:
475,192,43353,128,0,43418:0:0:0:0:
256,192,43353,1,0,0:0:0:0:
36,192,43353,128,0,43483:0:0:0:0:
329,192,43418,128,0,43483:0:0:0:0:
182,192,43483,128,0,43548:0:0:0:0:
475,192,43483,1,0,0:0:0:0:
329,192,43548,1,0,0:0:0:0:
36,192,43614,128,0,43679:0:0:0:0:
182,192,43614,1,0,0:0:0:0:
402,192,43614,128,0,43679:0:0:0:0:
475,192,43614,128,0,43744:0:0:0:0:
256,192,43679,128,0,43744:0:0:0:0:
109,192,43744,128,0,43809:0:0:0:0:
329,192,43744,1,0,0:0:0:0:
402,192,43809,1,0,0:0:0:0:
475,192,43875,128,0,43940:0:0:0:0:
256,192,43875,128,0,43940:0:0:0:0:
36,192,43875,1,0,0:0:0:0:
182,192,43875,1,0,0:0:0:0:
329,192,43940,128,0,44005:0:0:0:0:
402,192,44005,128,0,44070:0:0:0:0:
182,192,44005,1,0,0:0:0:0:
475,192,44070,128,0,44135:0:0:0:0:
182,192,44135,128,0,44201:0:0:0:0:
109,192,44135,1,0,0:0:0:0:
329,192,44135,1,0,0:0:0:0:
36,192,44135,128,0,44201:0:0:0:0:
256,192,44201,128,0,44266:0:0:0:0:
329,192,44266,128,0,44331:0:0:0:0:
109,192,44266,1,0,0:0:0:0:
402,192,44331,128,0,44396:0:0:0:0:
109,192,44396,128,0,44462:0:0:0:0:
256,192,44396,1,0,0:0:0:0:
36,192,44396,1,0,0:0:0:0:
475,192,44396,1,0,0:0:0:0:
182,192,44462,128,0,44527:0:0:0:0:
256,192,44527,128,0,44592:0:0:0:0:
402,192,44527,1,0,0:0:0:0:
329,192,44592,128,0,44657:0:0:0:0:
36,192,44657,128,0,44722:0:0:0:0:
182,192,44657,1,0,0:0:0:0:
402,192,44657,1,0,0:0:0:0:
475,192,44657,1,0,0:0:0:0:
109,192,44722,128,0,44788:0:0:0:0:
182,192,44788,128,0,44853:0:0:0:0:
329,192,44788,1,0,0:0:0:0:
256,192,44853,128,0,44918:0:0:0:0:
36,192,44918,1,0,0:0:0:0:
109,192,44918,1,0,0:0:0:0:
475,192,44918,1,0,0:0:0:0:
402,192,44918,1,0,0:0:0:0:
329,192,44983,1,0,0:0:0:0:
402,192,45048,1,0,0:0:0:0:
475,192,45114,1,0,0:0:0:0:
109,192,45179,1,0,0:0:0:0:
36,192,45179,1,0,0:0:0:0:
182,192,45179,1,0,0:0:0:0:
256,192,45244,1,0,0:0:0:0:
329,192,45309,1,0,0:0:0:0:
402,192,45375,1,0,0:0:0:0:
109,192,45440,1,0,0:0:0:0:
36,192,45440,1,0,0:0:0:0:
475,192,45440,1,0,0:0:0:0:
182,192,45505,1,0,0:0:0:0:
256,192,45570,1,0,0:0:0:0:
329,192,45635,1,0,0:0:0:0:
36,192,45701,1,0,0:0:0:0:
402,192,45701,1,0,0:0:0:0:
109,192,45766,1,0,0:0:0:0:
182,192,45831,1,0,0:0:0:0:
256,192,45896,1,0,0:0:0:0:
329,192,45962,1,0,0:0:0:0:
109,192,45962,1,0,0:0:0:0:
475,192,45962,1,0,0:0:0:0:
182,192,46027,1,0,0:0:0:0:
256,192,46092,1,0,0:0:0:0:
402,192,46092,1,0,0:0:0:0:
475,192,46092,1,0,0:0:0:0:
109,192,46157,1,0,0:0:0:0:
182,192,46222,1,0,0:0:0:0:
329,192,46222,1,0,0:0:0:0:
402,192,46222,1,0,0:0:0:0:
36,192,46288,1,0,0:0:0:0:
109,192,46353,1,0,0:0:0:0:
256,192,46353,1,0,0:0:0:0:
329,192,46353,1,0,0:0:0:0:
402,192,46418,1,0,0:0:0:0:
182,192,46483,1,0,0:0:0:0:
36,192,46483,1,0,0:0:0:0:
256,192,46483,1,0,0:0:0:0:
402,192,46548,1,0,0:0:0:0:
109,192,46614,1,0,0:0:0:0:
182,192,46614,1,0,0:0:0:0:
329,192,46614,1,0,0:0:0:0:
475,192,46679,1,0,0:0:0:0:
402,192,46744,1,0,0:0:0:0:
182,192,46744,1,0,0:0:0:0:
256,192,46744,1,0,0:0:0:0:
109,192,46809,1,0,0:0:0:0:
256,192,46875,1,0,0:0:0:0:
329,192,46875,1,0,0:0:0:0:
475,192,46875,1,0,0:0:0:0:
182,192,46940,1,0,0:0:0:0:
402,192,47005,1,0,0:0:0:0:
329,192,47005,1,0,0:0:0:0:
475,192,47005,1,0,0:0:0:0:
182,192,47070,1,0,0:0:0:0:
109,192,47070,1,0,0:0:0:0:
402,192,47135,1,0,0:0:0:0:
256,192,47135,1,0,0:0:0:0:
329,192,47135,1,0,0:0:0:0:
36,192,47201,1,0,0:0:0:0:
109,192,47201,1,0,0:0:0:0:
182,192,47266,1,0,0:0:0:0:
256,192,47266,1,0,0:0:0:0:
329,192,47266,1,0,0:0:0:0:
402,192,47331,1,0,0:0:0:0:
475,192,47331,1,0,0:0:0:0:
256,192,47396,1,0,0:0:0:0:
182,192,47396,1,0,0:0:0:0:
109,192,47396,1,0,0:0:0:0:
329,192,47462,1,0,0:0:0:0:
402,192,47462,1,0,0:0:0:0:
36,192,47527,1,0,0:0:0:0:
182,192,47527,1,0,0:0:0:0:
109,192,47527,1,0,0:0:0:0:
256,192,47592,1,0,0:0:0:0:
329,192,47592,1,0,0:0:0:0:
36,192,47657,1,0,0:0:0:0:
109,192,47657,1,0,0:0:0:0:
475,192,47657,1,0,0:0:0:0:
182,192,47722,1,0,0:0:0:0:
256,192,47722,1,0,0:0:0:0:
475,192,47788,1,0,0:0:0:0:
402,192,47788,1,0,0:0:0:0:
36,192,47788,1,0,0:0:0:0:
109,192,47853,1,0,0:0:0:0:
182,192,47853,1,0,0:0:0:0:
329,192,47918,1,0,0:0:0:0:
402,192,47918,1,0,0:0:0:0:
475,192,47918,1,0,0:0:0:0:
36,192,47983,1,0,0:0:0:0:
109,192,47983,1,0,0:0:0:0:
109,192,48048,128,0,48135:0:0:0:0:
329,192,48048,1,0,0:0:0:0:
475,192,48048,1,0,0:0:0:0:
36,192,48048,128,0,48092:0:0:0:0:
402,192,48048,1,0,0:0:0:0:
182,192,48092,128,0,48179:0:0:0:0:
256,192,48114,128,0,48570:0:0:0:0:
329,192,48179,128,0,48266:0:0:0:0:
402,192,48222,128,0,48309:0:0:0:0:
475,192,48266,128,0,48353:0:0:0:0:
36,192,48309,128,0,48396:0:0:0:0:
109,192,48353,128,0,48440:0:0:0:0:
182,192,48396,128,0,48483:0:0:0:0:
329,192,48440,128,0,48570:0:0:0:0:
402,192,48483,128,0,48570:0:0:0:0:
475,192,48527,128,0,48570:0:0:0:0:
36,192,48570,128,0,48896:0:0:0:0:
109,192,48570,128,0,48679:0:0:0:0:
182,192,48570,128,0,48635:0:0:0:0:
402,192,48614,128,0,48722:0:0:0:0:
329,192,48657,128,0,48766:0:0:0:0:
256,192,48701,128,0,48809:0:0:0:0:
182,192,48744,128,0,48853:0:0:0:0:
475,192,48788,128,0,49048:0:0:0:0:
402,192,48831,128,0,49048:0:0:0:0:
329,192,48875,128,0,49048:0:0:0:0:
256,192,48918,128,0,49048:0:0:0:0:
182,192,48962,128,0,49048:0:0:0:0:
109,192,49005,128,0,49048:0:0:0:0:
182,192,49092,1,0,0:0:0:0:
36,192,49092,1,0,0:0:0:0:
109,192,49092,1,0,0:0:0:0:
402,192,49092,1,0,0:0:0:0:
329,192,49125,1,0,0:0:0:0:
402,192,49222,1,0,0:0:0:0:
329,192,49255,1,0,0:0:0:0:
402,192,49353,1,0,0:0:0:0:
329,192,49385,1,0,0:0:0:0:
36,192,49483,1,0,0:0:0:0:
182,192,49483,1,0,0:0:0:0:
475,192,49483,1,0,0:0:0:0:
256,192,49548,1,0,0:0:0:0:
329,192,49614,1,0,0:0:0:0:
109,192,49679,1,0,0:0:0:0:
182,192,49744,1,0,0:0:0:0:
256,192,49809,1,0,0:0:0:0:
109,192,49875,1,0,0:0:0:0:
36,192,49875,1,0,0:0:0:0:
475,192,49875,1,0,0:0:0:0:
402,192,49918,1,0,0:0:0:0:
329,192,49962,1,0,0:0:0:0:
256,192,50005,1,0,0:0:0:0:
182,192,50048,1,0,0:0:0:0:
109,192,50092,1,0,0:0:0:0:
36,192,50135,1,0,0:0:0:0:
329,192,50135,1,0,0:0:0:0:
402,192,50135,1,0,0:0:0:0:
475,192,50135,1,0,0:0:0:0:
256,192,50135,1,0,0:0:0:0:
329,192,50396,1,0,0:0:0:0:
402,192,50396,1,0,0:0:0:0:
182,192,50462,1,0,0:0:0:0:
109,192,50462,1,0,0:0:0:0:
402,192,50527,1,0,0:0:0:0:
475,192,50527,1,0,0:0:0:0:
109,192,50592,1,0,0:0:0:0:
36,192,50592,1,0,0:0:0:0:
256,192,50657,1,0,0:0:0:0:
329,192,50657,1,0,0:0:0:0:
182,192,50657,1,0,0:0:0:0:
402,192,50657,1,0,0:0:0:0:
475,192,50657,1,0,0:0:0:0:
182,192,50918,1,0,0:0:0:0:
109,192,50918,1,0,0:0:0:0:
256,192,50918,1,0,0:0:0:0:
36,192,50918,1,0,0:0:0:0:
475,192,50983,1,0,0:0:0:0:
402,192,50983,1,0,0:0:0:0:
36,192,51048,1,0,0:0:0:0:
182,192,51048,1,0,0:0:0:0:
109,192,51048,1,0,0:0:0:0:
329,192,51114,1,0,0:0:0:0:
402,192,51114,1,0,0:0:0:0:
36,192,51179,1,0,0:0:0:0:
475,192,51179,1,0,0:0:0:0:
109,192,51179,1,0,0:0:0:0:
329,192,51244,1,0,0:0:0:0:
256,192,51244,1,0,0:0:0:0:
402,192,51309,1,0,0:0:0:0:
475,192,51309,1,0,0:0:0:0:
36,192,51309,1,0,0:0:0:0:
182,192,51375,1,0,0:0:0:0:
256,192,51375,1,0,0:0:0:0:
475,192,51440,1,0,0:0:0:0:
402,192,51440,1,0,0:0:0:0:
329,192,51440,1,0,0:0:0:0:
36,192,51440,1,0,0:0:0:0:
182,192,51505,1,0,0:0:0:0:
109,192,51505,1,0,0:0:0:0:
329,192,51570,1,0,0:0:0:0:
256,192,51570,1,0,0:0:0:0:
402,192,51570,1,0,0:0:0:0:
182,192,51635,1,0,0:0:0:0:
109,192,51635,1,0,0:0:0:0:
36,192,51701,1,0,0:0:0:0:
475,192,51701,1,0,0:0:0:0:
402,192,51701,1,0,0:0:0:0:
329,192,51701,1,0,0:0:0:0:
182,192,51766,1,0,0:0:0:0:
256,192,51766,1,0,0:0:0:0:
329,192,51831,1,0,0:0:0:0:
402,192,51831,1,0,0:0:0:0:
475,192,51831,1,0,0:0:0:0:
109,192,51896,1,0,0:0:0:0:
182,192,51896,1,0,0:0:0:0:
256,192,51962,1,0,0:0:0:0:
329,192,51962,1,0,0:0:0:0:
402,192,51962,1,0,0:0:0:0:
36,192,52027,1,0,0:0:0:0:
109,192,52027,1,0,0:0:0:0:
182,192,52092,1,0,0:0:0:0:
256,192,52092,1,0,0:0:0:0:
329,192,52092,1,0,0:0:0:0:
475,192,52157,1,0,0:0:0:0:
402,192,52157,1,0,0:0:0:0:
256,192,52222,1,0,0:0:0:0:
182,192,52222,1,0,0:0:0:0:
109,192,52222,1,0,0:0:0:0:
36,192,52222,1,0,0:0:0:0:
402,192,52288,1,0,0:0:0:0:
475,192,52288,1,0,0:0:0:0:
182,192,52353,1,0,0:0:0:0:
36,192,52353,1,0,0:0:0:0:
109,192,52353,1,0,0:0:0:0:
402,192,52418,1,0,0:0:0:0:
329,192,52418,1,0,0:0:0:0:
109,192,52483,1,0,0:0:0:0:
36,192,52483,1,0,0:0:0:0:
256,192,52483,1,0,0:0:0:0:
402,192,52614,1,0,0:0:0:0:
256,192,52614,1,0,0:0:0:0:
475,192,52614,1,0,0:0:0:0:
109,192,52744,1,0,0:0:0:0:
182,192,52744,1,0,0:0:0:0:
329,192,52744,1,0,0:0:0:0:
36,192,52744,1,0,0:0:0:0:
182,192,52875,1,0,0:0:0:0:
329,192,52875,1,0,0:0:0:0:
475,192,52875,1,0,0:0:0:0:
109,192,53005,1,0,0:0:0:0:
36,192,53005,1,0,0:0:0:0:
256,192,53005,1,0,0:0:0:0:
475,192,53005,1,0,0:0:0:0:
402,192,53048,1,0,0:0:0:0:
329,192,53092,1,0,0:0:0:0:
256,192,53135,1,0,0:0:0:0:
182,192,53179,1,0,0:0:0:0:
109,192,53222,1,0,0:0:0:0:
36,192,53266,1,0,0:0:0:0:
256,192,53266,1,0,0:0:0:0:
402,192,53266,1,0,0:0:0:0:
475,192,53266,1,0,0:0:0:0:
402,192,53396,1,0,0:0:0:0:
182,192,53396,1,0,0:0:0:0:
256,192,53396,1,0,0:0:0:0:
475,192,53429,1,0,0:0:0:0:
329,192,53527,1,0,0:0:0:0:
182,192,53527,1,0,0:0:0:0:
109,192,53527,1,0,0:0:0:0:
402,192,53559,1,0,0:0:0:0:
256,192,53657,1,0,0:0:0:0:
109,192,53657,1,0,0:0:0:0:
36,192,53657,1,0,0:0:0:0:
329,192,53690,1,0,0:0:0:0:
182,192,53788,1,0,0:0:0:0:
36,192,53788,1,0,0:0:0:0:
475,192,53788,1,0,0:0:0:0:
256,192,53820,1,0,0:0:0:0:
109,192,53918,1,0,0:0:0:0:
475,192,53918,1,0,0:0:0:0:
402,192,53918,1,0,0:0:0:0:
182,192,53951,1,0,0:0:0:0:
36,192,54048,1,0,0:0:0:0:
329,192,54048,1,0,0:0:0:0:
402,192,54048,1,0,0:0:0:0:
109,192,54081,1,0,0:0:0:0:
256,192,54179,1,0,0:0:0:0:
475,192,54179,1,0,0:0:0:0:
329,192,54179,1,0,0:0:0:0:
109,192,54244,1,0,0:0:0:0:
36,192,54244,1,0,0:0:0:0:
182,192,54309,1,0,0:0:0:0:
329,192,54309,1,0,0:0:0:0:
402,192,54309,1,0,0:0:0:0:
475,192,54309,1,0,0:0:0:0:
256,192,54309,1,0,0:0:0:0:
256,192,54570,1,0,0:0:0:0:
36,192,54570,1,0,0:0:0:0:
329,192,54614,1,0,0:0:0:0:
402,192,54657,1,0,0:0:0:0:
109,192,54701,1,0,0:0:0:0:
182,192,54744,1,0,0:0:0:0:
256,192,54788,1,0,0:0:0:0:
475,192,54831,1,0,0:0:0:0:
402,192,54831,1,0,0:0:0:0:
36,192,54831,1,0,0:0:0:0:
109,192,54831,1,0,0:0:0:0:
329,192,54875,1,0,0:0:0:0:
256,192,54918,1,0,0:0:0:0:
182,192,54962,1,0,0:0:0:0:
109,192,55005,1,0,0:0:0:0:
36,192,55048,1,0,0:0:0:0:
402,192,55092,1,0,0:0:0:0:
329,192,55092,1,0,0:0:0:0:
475,192,55092,1,0,0:0:0:0:
256,192,55092,1,0,0:0:0:0:
109,192,55157,1,0,0:0:0:0:
36,192,55157,1,0,0:0:0:0:
329,192,55222,1,0,0:0:0:0:
402,192,55222,1,0,0:0:0:0:
475,192,55222,1,0,0:0:0:0:
182,192,55288,1,0,0:0:0:0:
109,192,55288,1,0,0:0:0:0:
402,192,55353,1,0,0:0:0:0:
475,192,55353,1,0,0:0:0:0:
36,192,55353,1,0,0:0:0:0:
182,192,55418,1,0,0:0:0:0:
256,192,55418,1,0,0:0:0:0:
36,192,55483,1,0,0:0:0:0:
109,192,55483,1,0,0:0:0:0:
475,192,55483,1,0,0:0:0:0:
256,192,55548,1,0,0:0:0:0:
329,192,55548,1,0,0:0:0:0:
182,192,55614,1,0,0:0:0:0:
109,192,55614,1,0,0:0:0:0:
36,192,55614,1,0,0:0:0:0:
475,192,55614,1,0,0:0:0:0:
329,192,55679,1,0,0:0:0:0:
402,192,55679,1,0,0:0:0:0:
109,192,55744,1,0,0:0:0:0:
256,192,55744,1,0,0:0:0:0:
182,192,55744,1,0,0:0:0:0:
329,192,55809,1,0,0:0:0:0:
402,192,55809,1,0,0:0:0:0:
182,192,55875,1,0,0:0:0:0:
36,192,55875,1,0,0:0:0:0:
475,192,55875,1,0,0:0:0:0:
109,192,55875,1,0,0:0:0:0:
329,192,55940,1,0,0:0:0:0:
256,192,55940,1,0,0:0:0:0:
109,192,56005,1,0,0:0:0:0:
36,192,56005,1,0,0:0:0:0:
182,192,56005,1,0,0:0:0:0:
402,192,56070,1,0,0:0:0:0:
329,192,56070,1,0,0:0:0:0:
256,192,56135,1,0,0:0:0:0:
109,192,56135,1,0,0:0:0:0:
182,192,56135,1,0,0:0:0:0:
475,192,56201,1,0,0:0:0:0:
402,192,56201,1,0,0:0:0:0:
329,192,56266,1,0,0:0:0:0:
182,192,56266,1,0,0:0:0:0:
256,192,56266,1,0,0:0:0:0:
36,192,56331,1,0,0:0:0:0:
109,192,56331,1,0,0:0:0:0:
256,192,56396,1,0,0:0:0:0:
402,192,56396,1,0,0:0:0:0:
475,192,56396,1,0,0:0:0:0:
329,192,56396,1,0,0:0:0:0:
256,192,56527,1,0,0:0:0:0:
182,192,56527,1,0,0:0:0:0:
36,192,56527,1,0,0:0:0:0:
109,192,56527,1,0,0:0:0:0:
475,192,56657,1,0,0:0:0:0:
109,192,56657,1,0,0:0:0:0:
182,192,56657,1,0,0:0:0:0:
402,192,56701,1,0,0:0:0:0:
329,192,56744,1,0,0:0:0:0:
109,192,56788,1,0,0:0:0:0:
256,192,56788,1,0,0:0:0:0:
36,192,56788,1,0,0:0:0:0:
182,192,56918,1,0,0:0:0:0:
329,192,56918,1,0,0:0:0:0:
402,192,56918,1,0,0:0:0:0:
475,192,56918,1,0,0:0:0:0:
109,192,57048,1,0,0:0:0:0:
256,192,57048,1,0,0:0:0:0:
402,192,57048,1,0,0:0:0:0:
256,192,57179,1,0,0:0:0:0:
402,192,57179,1,0,0:0:0:0:
109,192,57179,1,0,0:0:0:0:
475,192,57179,1,0,0:0:0:0:
36,192,57179,1,0,0:0:0:0:
36,192,57309,1,0,0:0:0:0:
329,192,57309,1,0,0:0:0:0:
402,192,57309,1,0,0:0:0:0:
109,192,57353,1,0,0:0:0:0:
182,192,57396,1,0,0:0:0:0:
256,192,57440,1,0,0:0:0:0:
402,192,57440,1,0,0:0:0:0:
475,192,57440,1,0,0:0:0:0:
182,192,57570,1,0,0:0:0:0:
109,192,57570,1,0,0:0:0:0:
36,192,57570,1,0,0:0:0:0:
329,192,57570,1,0,0:0:0:0:
182,192,57701,1,0,0:0:0:0:
329,192,57701,1,0,0:0:0:0:
402,192,57701,1,0,0:0:0:0:
475,192,57701,1,0,0:0:0:0:
109,192,57831,1,0,0:0:0:0:
256,192,57831,1,0,0:0:0:0:
36,192,57831,1,0,0:0:0:0:
329,192,57831,1,0,0:0:0:0:
402,192,57896,1,0,0:0:0:0:
475,192,57896,1,0,0:0:0:0:
256,192,57962,1,0,0:0:0:0:
182,192,57962,1,0,0:0:0:0:
109,192,57962,1,0,0:0:0:0:
36,192,57962,1,0,0:0:0:0:
329,192,58027,1,0,0:0:0:0:
402,192,58092,1,0,0:0:0:0:
109,192,58092,1,0,0:0:0:0:
36,192,58092,1,0,0:0:0:0:
182,192,58157,1,0,0:0:0:0:
256,192,58222,1,0,0:0:0:0:
402,192,58222,1,0,0:0:0:0:
475,192,58222,1,0,0:0:0:0:
36,192,58222,1,0,0:0:0:0:
109,192,58288,1,0,0:0:0:0:
329,192,58353,1,0,0:0:0:0:
402,192,58353,1,0,0:0:0:0:
475,192,58353,1,0,0:0:0:0:
109,192,58418,1,0,0:0:0:0:
182,192,58418,1,0,0:0:0:0:
36,192,58418,1,0,0:0:0:0:
36,192,58483,128,0,58679:0:0:0:0:
329,192,58483,128,0,58788:0:0:0:0:
475,192,58483,128,0,58940:0:0:0:0:
182,192,58527,128,0,58940:0:0:0:0:
256,192,58570,128,0,58679:0:0:0:0:
402,192,58614,128,0,58679:0:0:0:0:
402,192,58744,128,0,58940:0:0:0:0:
36,192,58744,128,0,59201:0:0:0:0:
256,192,58809,128,0,59201:0:0:0:0:
109,192,58875,128,0,58940:0:0:0:0:
475,192,59005,128,0,59201:0:0:0:0:
109,192,59005,1,0,0:0:0:0:
182,192,59005,1,0,0:0:0:0:
402,192,59048,128,0,59201:0:0:0:0:
329,192,59092,128,0,59201:0:0:0:0:
182,192,59135,128,0,59201:0:0:0:0:
329,192,59266,1,0,0:0:0:0:
182,192,59266,1,0,0:0:0:0:
36,192,59266,1,0,0:0:0:0:
475,192,59266,128,0,59722:0:0:0:0:
256,192,59266,1,0,0:0:0:0:
109,192,59396,128,0,59462:0:0:0:0:
402,192,59396,128,0,59722:0:0:0:0:
182,192,59418,128,0,59483:0:0:0:0:
109,192,59527,128,0,59592:0:0:0:0:
329,192,59527,128,0,59722:0:0:0:0:
182,192,59548,128,0,59614:0:0:0:0:
109,192,59657,128,0,59722:0:0:0:0:
182,192,59679,128,0,59744:0:0:0:0:
402,192,59788,128,0,59983:0:0:0:0:
36,192,59788,1,0,0:0:0:0:
475,192,59788,1,0,0:0:0:0:
256,192,59788,1,0,0:0:0:0:
109,192,59918,128,0,59983:0:0:0:0:
329,192,59918,128,0,59983:0:0:0:0:
182,192,59940,128,0,60005:0:0:0:0:
36,192,60048,128,0,60505:0:0:0:0:
256,192,60048,1,0,0:0:0:0:
402,192,60048,1,0,0:0:0:0:
475,192,60048,1,0,0:0:0:0:
402,192,60179,128,0,60244:0:0:0:0:
109,192,60179,128,0,60505:0:0:0:0:
329,192,60201,128,0,60266:0:0:0:0:
402,192,60309,128,0,60375:0:0:0:0:
182,192,60309,128,0,60505:0:0:0:0:
329,192,60331,128,0,60396:0:0:0:0:
402,192,60440,128,0,60505:0:0:0:0:
329,192,60462,128,0,60527:0:0:0:0:
109,192,60570,128,0,61027:0:0:0:0:
182,192,60570,1,0,0:0:0:0:
36,192,60570,1,0,0:0:0:0:
475,192,60570,1,0,0:0:0:0:
256,192,60570,1,0,0:0:0:0:
402,192,60701,128,0,60766:0:0:0:0:
182,192,60701,128,0,61027:0:0:0:0:
329,192,60722,128,0,60788:0:0:0:0:
402,192,60831,128,0,60896:0:0:0:0:
36,192,60831,128,0,61027:0:0:0:0:
329,192,60853,128,0,60918:0:0:0:0:
402,192,60962,128,0,61027:0:0:0:0:
329,192,60983,128,0,61048:0:0:0:0:
256,192,61092,128,0,61157:0:0:0:0:
36,192,61092,128,0,61288:0:0:0:0:
109,192,61092,1,0,0:0:0:0:
475,192,61092,1,0,0:0:0:0:
329,192,61114,128,0,61179:0:0:0:0:
182,192,61222,128,0,61288:0:0:0:0:
475,192,61222,128,0,61288:0:0:0:0:
256,192,61244,128,0,61309:0:0:0:0:
402,192,61353,128,0,61809:0:0:0:0:
36,192,61353,1,0,0:0:0:0:
109,192,61353,1,0,0:0:0:0:
182,192,61353,1,0,0:0:0:0:
475,192,61353,1,0,0:0:0:0:
109,192,61483,128,0,61570:0:0:0:0:
329,192,61483,128,0,61570:0:0:0:0:
182,192,61505,128,0,61570:0:0:0:0:
475,192,61614,128,0,61809:0:0:0:0:
36,192,61614,128,0,61809:0:0:0:0:
256,192,61614,128,0,61701:0:0:0:0:
182,192,61679,128,0,61788:0:0:0:0:
329,192,61744,128,0,61875:0:0:0:0:
256,192,61809,128,0,61875:0:0:0:0:
109,192,61875,1,0,0:0:0:0:
36,192,61875,1,0,0:0:0:0:
475,192,61875,1,0,0:0:0:0:
402,192,61875,128,0,62070:0:0:0:0:
182,192,61875,1,0,0:0:0:0:
329,192,62005,128,0,62070:0:0:0:0:
109,192,62005,128,0,62070:0:0:0:0:
182,192,62027,128,0,62092:0:0:0:0:
256,192,62135,1,0,0:0:0:0:
36,192,62135,1,0,0:0:0:0:
475,192,62135,1,0,0:0:0:0:
109,192,62135,128,0,62592:0:0:0:0:
329,192,62266,128,0,62331:0:0:0:0:
182,192,62266,128,0,62331:0:0:0:0:
402,192,62288,128,0,62353:0:0:0:0:
329,192,62396,128,0,62592:0:0:0:0:
402,192,62418,128,0,62592:0:0:0:0:
475,192,62462,128,0,62592:0:0:0:0:
36,192,62483,128,0,62592:0:0:0:0:
182,192,62527,128,0,62592:0:0:0:0:
256,192,62657,128,0,63114:0:0:0:0:
475,192,62657,128,0,62962:0:0:0:0:
36,192,62657,128,0,62853:0:0:0:0:
402,192,62701,128,0,63114:0:0:0:0:
109,192,62744,128,0,62853:0:0:0:0:
329,192,62788,128,0,62853:0:0:0:0:
182,192,62918,128,0,63114:0:0:0:0:
36,192,62918,128,0,63375:0:0:0:0:
329,192,62983,128,0,63375:0:0:0:0:
109,192,63048,128,0,63114:0:0:0:0:
182,192,63179,1,0,0:0:0:0:
475,192,63179,128,0,63375:0:0:0:0:
109,192,63179,1,0,0:0:0:0:
402,192,63222,128,0,63375:0:0:0:0:
256,192,63266,128,0,63375:0:0:0:0:
182,192,63309,128,0,63375:0:0:0:0:
109,192,63440,128,0,63635:0:0:0:0:
36,192,63440,1,0,0:0:0:0:
402,192,63440,1,0,0:0:0:0:
475,192,63440,128,0,63896:0:0:0:0:
329,192,63440,1,0,0:0:0:0:
182,192,63462,128,0,63635:0:0:0:0:
329,192,63570,1,0,0:0:0:0:
256,192,63635,1,0,0:0:0:0:
402,192,63701,128,0,63896:0:0:0:0:
36,192,63701,128,0,64092:0:0:0:0:
109,192,63701,1,0,0:0:0:0:
182,192,63701,1,0,0:0:0:0:
329,192,63722,128,0,63896:0:0:0:0:
256,192,63831,1,0,0:0:0:0:
109,192,63962,128,0,64092:0:0:0:0:
329,192,63962,1,0,0:0:0:0:
402,192,63962,1,0,0:0:0:0:
475,192,63962,1,0,0:0:0:0:
182,192,63983,128,0,64092:0:0:0:0:
402,192,64092,128,0,64157:0:0:0:0:
329,192,64114,128,0,64418:0:0:0:0:
256,192,64135,128,0,64222:0:0:0:0:
36,192,64222,128,0,64418:0:0:0:0:
475,192,64222,128,0,64418:0:0:0:0:
402,192,64222,1,0,0:0:0:0:
109,192,64244,128,0,64418:0:0:0:0:
182,192,64353,1,0,0:0:0:0:
182,192,64483,128,0,64614:0:0:0:0:
36,192,64483,1,0,0:0:0:0:
256,192,64505,128,0,64614:0:0:0:0:
475,192,64614,128,0,64679:0:0:0:0:
402,192,64635,128,0,64940:0:0:0:0:
329,192,64657,128,0,64744:0:0:0:0:
475,192,64744,1,0,0:0:0:0:
182,192,64744,1,0,0:0:0:0:
109,192,64744,128,0,64875:0:0:0:0:
36,192,64744,1,0,0:0:0:0:
256,192,64744,1,0,0:0:0:0:
256,192,64940,128,0,65201:0:0:0:0:
475,192,64940,128,0,65201:0:0:0:0:
36,192,64983,128,0,65201:0:0:0:0:
182,192,65027,128,0,65201:0:0:0:0:
329,192,65070,128,0,65201:0:0:0:0:
402,192,65135,128,0,65331:0:0:0:0:
109,192,65135,1,0,0:0:0:0:
36,192,65266,128,0,65331:0:0:0:0:
256,192,65266,128,0,65396:0:0:0:0:
109,192,65266,128,0,65462:0:0:0:0:
475,192,65266,1,0,0:0:0:0:
329,192,65331,128,0,65396:0:0:0:0:
475,192,65396,128,0,65722:0:0:0:0:
182,192,65396,1,0,0:0:0:0:
256,192,65462,128,0,65527:0:0:0:0:
402,192,65527,128,0,65722:0:0:0:0:
109,192,65527,1,0,0:0:0:0:
182,192,65592,128,0,65657:0:0:0:0:
329,192,65657,128,0,65722:0:0:0:0:
36,192,65657,1,0,0:0:0:0:
109,192,65722,128,0,65788:0:0:0:0:
182,192,65788,1,0,0:0:0:0:
36,192,65788,1,0,0:0:0:0:
329,192,65788,1,0,0:0:0:0:
402,192,65788,1,0,0:0:0:0:
475,192,65788,1,0,0:0:0:0:
256,192,65918,1,0,0:0:0:0:
109,192,65918,1,0,0:0:0:0:
402,192,65918,1,0,0:0:0:0:
36,192,65918,1,0,0:0:0:0:
256,192,66048,1,0,0:0:0:0:
109,192,66048,1,0,0:0:0:0:
402,192,66048,1,0,0:0:0:0:
475,192,66048,1,0,0:0:0:0:
109,192,66179,1,0,0:0:0:0:
36,192,66179,1,0,0:0:0:0:
182,192,66179,1,0,0:0:0:0:
329,192,66244,1,0,0:0:0:0:
402,192,66244,1,0,0:0:0:0:
475,192,66244,1,0,0:0:0:0:
182,192,66309,1,0,0:0:0:0:
109,192,66309,1,0,0:0:0:0:
36,192,66309,1,0,0:0:0:0:
256,192,66309,1,0,0:0:0:0:
475,192,66353,1,0,0:0:0:0:
402,192,66396,1,0,0:0:0:0:
329,192,66440,1,0,0:0:0:0:
256,192,66483,1,0,0:0:0:0:
182,192,66527,1,0,0:0:0:0:
402,192,66570,1,0,0:0:0:0:
329,192,66614,1,0,0:0:0:0:
256,192,66657,1,0,0:0:0:0:
182,192,66701,1,0,0:0:0:0:
109,192,66744,1,0,0:0:0:0:
36,192,66788,1,0,0:0:0:0:
256,192,66831,1,0,0:0:0:0:
329,192,66831,1,0,0:0:0:0:
402,192,66831,1,0,0:0:0:0:
475,192,66831,1,0,0:0:0:0:
182,192,66831,1,0,0:0:0:0:
475,192,66962,1,0,0:0:0:0:
402,192,67005,1,0,0:0:0:0:
329,192,67048,1,0,0:0:0:0:
36,192,67092,1,0,0:0:0:0:
109,192,67135,1,0,0:0:0:0:
182,192,67179,1,0,0:0:0:0:
256,192,67222,1,0,0:0:0:0:
329,192,67266,1,0,0:0:0:0:
402,192,67309,1,0,0:0:0:0:
256,192,67353,1,0,0:0:0:0:
182,192,67363,1,0,0:0:0:0:
402,192,67461,1,0,0:0:0:0:
475,192,67472,1,0,0:0:0:0:
182,192,67570,1,0,0:0:0:0:
109,192,67581,1,0,0:0:0:0:
329,192,67679,1,0,0:0:0:0:
402,192,67689,1,0,0:0:0:0:
109,192,67766,1,0,0:0:0:0:
36,192,67776,1,0,0:0:0:0:
256,192,67874,1,0,0:0:0:0:
329,192,67885,1,0,0:0:0:0:
182,192,67983,1,0,0:0:0:0:
109,192,67994,1,0,0:0:0:0:
329,192,68092,1,0,0:0:0:0:
402,192,68103,1,0,0:0:0:0:
256,192,68189,1,0,0:0:0:0:
182,192,68200,1,0,0:0:0:0:
402,192,68298,1,0,0:0:0:0:
475,192,68309,1,0,0:0:0:0:
182,192,68385,1,0,0:0:0:0:
109,192,68396,1,0,0:0:0:0:
36,192,68407,1,0,0:0:0:0:
329,192,68494,1,0,0:0:0:0:
402,192,68505,1,0,0:0:0:0:
475,192,68516,1,0,0:0:0:0:
256,192,68581,1,0,0:0:0:0:
182,192,68592,1,0,0:0:0:0:
109,192,68603,1,0,0:0:0:0:
256,192,68694,1,0,0:0:0:0:
329,192,68706,1,0,0:0:0:0:
402,192,68717,1,0,0:0:0:0:
182,192,68793,1,0,0:0:0:0:
109,192,68804,1,0,0:0:0:0:
36,192,68814,1,0,0:0:0:0:
256,192,68918,1,0,0:0:0:0:
329,192,68962,1,0,0:0:0:0:
402,192,69005,1,0,0:0:0:0:
182,192,69048,1,0,0:0:0:0:
256,192,69092,1,0,0:0:0:0:
329,192,69135,1,0,0:0:0:0:
109,192,69179,1,0,0:0:0:0:
182,192,69222,1,0,0:0:0:0:
256,192,69266,1,0,0:0:0:0:
36,192,69309,1,0,0:0:0:0:
109,192,69353,1,0,0:0:0:0:
182,192,69396,1,0,0:0:0:0:
402,192,69440,1,0,0:0:0:0:
475,192,69440,1,0,0:0:0:0:
329,192,69440,1,0,0:0:0:0:
109,192,69570,1,0,0:0:0:0:
402,192,69570,1,0,0:0:0:0:
256,192,69570,1,0,0:0:0:0:
36,192,69570,1,0,0:0:0:0:
256,192,69701,1,0,0:0:0:0:
329,192,69701,1,0,0:0:0:0:
109,192,69701,1,0,0:0:0:0:
475,192,69701,1,0,0:0:0:0:
182,192,69831,1,0,0:0:0:0:
256,192,69831,1,0,0:0:0:0:
36,192,69831,1,0,0:0:0:0:
402,192,69831,1,0,0:0:0:0:
109,192,69962,1,0,0:0:0:0:
182,192,69962,1,0,0:0:0:0:
329,192,69962,1,0,0:0:0:0:
475,192,69962,1,0,0:0:0:0:
182,192,70092,1,0,0:0:0:0:
36,192,70092,1,0,0:0:0:0:
256,192,70092,1,0,0:0:0:0:
402,192,70092,1,0,0:0:0:0:
109,192,70222,1,0,0:0:0:0:
256,192,70222,1,0,0:0:0:0:
329,192,70222,1,0,0:0:0:0:
475,192,70222,1,0,0:0:0:0:
329,192,70353,1,0,0:0:0:0:
402,192,70353,1,0,0:0:0:0:
182,192,70353,1,0,0:0:0:0:
36,192,70353,1,0,0:0:0:0:
256,192,70483,1,0,0:0:0:0:
36,192,70483,1,0,0:0:0:0:
402,192,70483,1,0,0:0:0:0:
475,192,70483,1,0,0:0:0:0:
109,192,70483,1,0,0:0:0:0:
36,192,70614,1,0,0:0:0:0:
256,192,70614,1,0,0:0:0:0:
109,192,70614,1,0,0:0:0:0:
475,192,70744,1,0,0:0:0:0:
329,192,70744,1,0,0:0:0:0:
36,192,70744,1,0,0:0:0:0:
182,192,70744,1,0,0:0:0:0:
475,192,70875,1,0,0:0:0:0:
256,192,70875,1,0,0:0:0:0:
402,192,70875,1,0,0:0:0:0:
329,192,71005,128,0,71070:0:0:0:0:
36,192,71005,1,0,0:0:0:0:
109,192,71005,1,0,0:0:0:0:
402,192,71027,128,0,71092:0:0:0:0:
182,192,71092,128,0,71157:0:0:0:0:
109,192,71114,128,0,71179:0:0:0:0:
402,192,71179,128,0,71244:0:0:0:0:
475,192,71201,128,0,71266:0:0:0:0:
109,192,71266,128,0,71331:0:0:0:0:
256,192,71266,1,0,0:0:0:0:
36,192,71288,128,0,71353:0:0:0:0:
329,192,71375,128,0,71440:0:0:0:0:
402,192,71396,128,0,71462:0:0:0:0:
109,192,71462,128,0,71527:0:0:0:0:
182,192,71483,128,0,71548:0:0:0:0:
36,192,71527,1,0,0:0:0:0:
475,192,71527,1,0,0:0:0:0:
402,192,71527,1,0,0:0:0:0:
329,192,71527,128,0,71614:0:0:0:0:
256,192,71570,128,0,71657:0:0:0:0:
182,192,71614,128,0,71701:0:0:0:0:
475,192,71657,128,0,71722:0:0:0:0:
402,192,71701,128,0,71766:0:0:0:0:
329,192,71744,128,0,71788:0:0:0:0:
36,192,71788,1,0,0:0:0:0:
475,192,71788,1,0,0:0:0:0:
109,192,71788,128,0,71918:0:0:0:0:
256,192,71788,128,0,71831:0:0:0:0:
182,192,71875,128,0,72005:0:0:0:0:
329,192,71875,128,0,71918:0:0:0:0:
256,192,71962,128,0,72092:0:0:0:0:
402,192,71962,128,0,72005:0:0:0:0:
475,192,72048,128,0,72179:0:0:0:0:
36,192,72048,128,0,72092:0:0:0:0:
329,192,72048,1,0,0:0:0:0:
402,192,72135,128,0,72266:0:0:0:0:
182,192,72135,128,0,72179:0:0:0:0:
329,192,72222,128,0,72353:0:0:0:0:
109,192,72222,128,0,72266:0:0:0:0:
475,192,72309,1,0,0:0:0:0:
36,192,72309,128,0,72440:0:0:0:0:
256,192,72309,128,0,72353:0:0:0:0:
402,192,72309,1,0,0:0:0:0:
182,192,72309,1,0,0:0:0:0:
109,192,72396,128,0,72527:0:0:0:0:
329,192,72396,128,0,72440:0:0:0:0:
182,192,72483,128,0,72614:0:0:0:0:
475,192,72483,128,0,72527:0:0:0:0:
109,192,72570,1,0,0:0:0:0:
329,192,72570,128,0,72701:0:0:0:0:
36,192,72570,128,0,72614:0:0:0:0:
402,192,72570,1,0,0:0:0:0:
256,192,72657,128,0,72788:0:0:0:0:
475,192,72657,128,0,72701:0:0:0:0:
182,192,72744,128,0,72875:0:0:0:0:
402,192,72744,128,0,72788:0:0:0:0:
329,192,72831,128,0,72875:0:0:0:0:
36,192,72831,128,0,73048:0:0:0:0:
475,192,72831,1,0,0:0:0:0:
256,192,72918,128,0,72962:0:0:0:0:
109,192,72918,128,0,73048:0:0:0:0:
329,192,73005,128,0,73048:0:0:0:0:
182,192,73005,128,0,73048:0:0:0:0:
256,192,73092,128,0,73222:0:0:0:0:
36,192,73092,128,0,73135:0:0:0:0:
402,192,73092,1,0,0:0:0:0:
475,192,73092,1,0,0:0:0:0:
329,192,73179,128,0,73309:0:0:0:0:
109,192,73179,128,0,73222:0:0:0:0:
402,192,73266,128,0,73396:0:0:0:0:
182,192,73266,128,0,73309:0:0:0:0:
109,192,73353,128,0,73483:0:0:0:0:
256,192,73353,128,0,73396:0:0:0:0:
36,192,73353,1,0,0:0:0:0:
182,192,73440,128,0,73570:0:0:0:0:
329,192,73440,128,0,73483:0:0:0:0:
256,192,73527,128,0,73657:0:0:0:0:
402,192,73527,128,0,73570:0:0:0:0:
36,192,73614,128,0,73744:0:0:0:0:
182,192,73614,1,0,0:0:0:0:
475,192,73614,128,0,73657:0:0:0:0:
329,192,73614,1,0,0:0:0:0:
109,192,73701,128,0,73831:0:0:0:0:
256,192,73701,128,0,73744:0:0:0:0:
182,192,73788,128,0,73918:0:0:0:0:
329,192,73788,128,0,73831:0:0:0:0:
402,192,73875,128,0,74005:0:0:0:0:
475,192,73875,1,0,0:0:0:0:
36,192,73875,128,0,73918:0:0:0:0:
256,192,73875,1,0,0:0:0:0:
109,192,73875,1,0,0:0:0:0:
329,192,73962,128,0,74092:0:0:0:0:
182,192,73962,128,0,74005:0:0:0:0:
256,192,74048,128,0,74179:0:0:0:0:
109,192,74048,128,0,74092:0:0:0:0:
36,192,74135,128,0,74266:0:0:0:0:
475,192,74135,128,0,74179:0:0:0:0:
402,192,74135,1,0,0:0:0:0:
109,192,74222,128,0,74353:0:0:0:0:
329,192,74222,128,0,74266:0:0:0:0:
182,192,74309,128,0,74440:0:0:0:0:
402,192,74309,128,0,74353:0:0:0:0:
475,192,74396,128,0,74527:0:0:0:0:
256,192,74396,1,0,0:0:0:0:
36,192,74396,128,0,74440:0:0:0:0:
329,192,74396,1,0,0:0:0:0:
109,192,74396,1,0,0:0:0:0:
402,192,74483,128,0,74614:0:0:0:0:
182,192,74483,128,0,74527:0:0:0:0:
329,192,74570,128,0,74701:0:0:0:0:
109,192,74570,128,0,74614:0:0:0:0:
36,192,74657,128,0,74788:0:0:0:0:
256,192,74657,128,0,74701:0:0:0:0:
475,192,74657,1,0,0:0:0:0:
182,192,74657,1,0,0:0:0:0:
109,192,74744,128,0,74875:0:0:0:0:
329,192,74744,128,0,74788:0:0:0:0:
182,192,74831,128,0,74962:0:0:0:0:
402,192,74831,128,0,74875:0:0:0:0:
475,192,74918,128,0,75135:0:0:0:0:
329,192,74918,128,0,74962:0:0:0:0:
36,192,74918,1,0,0:0:0:0:
402,192,75005,128,0,75135:0:0:0:0:
256,192,75005,128,0,75048:0:0:0:0:
329,192,75092,128,0,75135:0:0:0:0:
182,192,75092,128,0,75135:0:0:0:0:
36,192,75179,128,0,75244:0:0:0:0:
402,192,75179,1,0,0:0:0:0:
256,192,75179,1,0,0:0:0:0:
109,192,75201,128,0,75266:0:0:0:0:
475,192,75266,128,0,75331:0:0:0:0:
402,192,75288,128,0,75353:0:0:0:0:
182,192,75353,128,0,75418:0:0:0:0:
109,192,75375,128,0,75440:0:0:0:0:
329,192,75440,128,0,75505:0:0:0:0:
256,192,75440,1,0,0:0:0:0:
402,192,75462,128,0,75527:0:0:0:0:
109,192,75548,128,0,75614:0:0:0:0:
36,192,75570,128,0,75635:0:0:0:0:
475,192,75635,128,0,75701:0:0:0:0:
402,192,75657,128,0,75722:0:0:0:0:
256,192,75701,1,0,0:0:0:0:
36,192,75701,128,0,75788:0:0:0:0:
329,192,75701,1,0,0:0:0:0:
109,192,75744,128,0,75831:0:0:0:0:
182,192,75788,128,0,75875:0:0:0:0:
475,192,75831,128,0,75918:0:0:0:0:
402,192,75875,128,0,75940:0:0:0:0:
329,192,75918,128,0,75962:0:0:0:0:
109,192,75962,128,0,76027:0:0:0:0:
36,192,75962,1,0,0:0:0:0:
256,192,75962,1,0,0:0:0:0:
475,192,75962,128,0,76157:0:0:0:0:
182,192,76027,128,0,76092:0:0:0:0:
109,192,76092,128,0,76157:0:0:0:0:
329,192,76092,1,0,0:0:0:0:
256,192,76157,128,0,76222:0:0:0:0:
182,192,76222,128,0,76288:0:0:0:0:
36,192,76222,128,0,76418:0:0:0:0:
402,192,76222,1,0,0:0:0:0:
329,192,76288,128,0,76353:0:0:0:0:
256,192,76353,128,0,76418:0:0:0:0:
475,192,76353,1,0,0:0:0:0:
402,192,76418,128,0,76483:0:0:0:0:
329,192,76483,128,0,76548:0:0:0:0:
36,192,76483,1,0,0:0:0:0:
109,192,76483,1,0,0:0:0:0:
182,192,76483,1,0,0:0:0:0:
475,192,76548,128,0,76614:0:0:0:0:
36,192,76614,128,0,76701:0:0:0:0:
256,192,76614,1,0,0:0:0:0:
109,192,76657,128,0,76722:0:0:0:0:
329,192,76679,1,0,0:0:0:0:
182,192,76701,128,0,76744:0:0:0:0:
256,192,76744,128,0,76809:0:0:0:0:
402,192,76744,1,0,0:0:0:0:
475,192,76744,128,0,76940:0:0:0:0:
36,192,76744,1,0,0:0:0:0:
329,192,76809,128,0,76875:0:0:0:0:
182,192,76875,128,0,76940:0:0:0:0:
36,192,76875,1,0,0:0:0:0:
256,192,76940,128,0,77005:0:0:0:0:
109,192,77005,128,0,77070:0:0:0:0:
402,192,77005,1,0,0:0:0:0:
182,192,77070,128,0,77135:0:0:0:0:
475,192,77135,128,0,77222:0:0:0:0:
36,192,77135,1,0,0:0:0:0:
402,192,77179,128,0,77244:0:0:0:0:
109,192,77201,1,0,0:0:0:0:
329,192,77222,128,0,77266:0:0:0:0:
475,192,77266,1,0,0:0:0:0:
182,192,77266,1,0,0:0:0:0:
256,192,77266,128,0,77353:0:0:0:0:
36,192,77266,128,0,77462:0:0:0:0:
402,192,77331,128,0,77418:0:0:0:0:
182,192,77396,128,0,77483:0:0:0:0:
109,192,77396,1,0,0:0:0:0:
329,192,77462,128,0,77548:0:0:0:0:
109,192,77527,128,0,77614:0:0:0:0:
475,192,77527,1,0,0:0:0:0:
256,192,77592,128,0,77679:0:0:0:0:
36,192,77657,128,0,77744:0:0:0:0:
329,192,77657,1,0,0:0:0:0:
109,192,77701,128,0,77766:0:0:0:0:
402,192,77722,1,0,0:0:0:0:
182,192,77744,128,0,77788:0:0:0:0:
329,192,77788,1,0,0:0:0:0:
256,192,77788,128,0,77875:0:0:0:0:
36,192,77788,1,0,0:0:0:0:
475,192,77788,128,0,77983:0:0:0:0:
109,192,77853,128,0,77940:0:0:0:0:
329,192,77918,128,0,78005:0:0:0:0:
402,192,77918,1,0,0:0:0:0:
182,192,77983,128,0,78070:0:0:0:0:
36,192,78048,1,0,0:0:0:0:
402,192,78048,128,0,78135:0:0:0:0:
475,192,78048,1,0,0:0:0:0:
109,192,78048,1,0,0:0:0:0:
256,192,78114,128,0,78201:0:0:0:0:
475,192,78179,128,0,78266:0:0:0:0:
182,192,78179,1,0,0:0:0:0:
402,192,78222,128,0,78288:0:0:0:0:
109,192,78244,1,0,0:0:0:0:
329,192,78266,128,0,78309:0:0:0:0:
475,192,78309,1,0,0:0:0:0:
182,192,78309,128,0,78375:0:0:0:0:
36,192,78309,128,0,78505:0:0:0:0:
402,192,78375,128,0,78440:0:0:0:0:
109,192,78440,128,0,78505:0:0:0:0:
256,192,78440,1,0,0:0:0:0:
329,192,78505,128,0,78570:0:0:0:0:
36,192,78570,128,0,78635:0:0:0:0:
475,192,78570,1,0,0:0:0:0:
182,192,78570,1,0,0:0:0:0:
402,192,78570,1,0,0:0:0:0:
256,192,78635,128,0,78701:0:0:0:0:
36,192,78701,128,0,78788:0:0:0:0:
329,192,78701,1,0,0:0:0:0:
109,192,78744,128,0,78809:0:0:0:0:
402,192,78766,1,0,0:0:0:0:
182,192,78788,128,0,78831:0:0:0:0:
475,192,78831,1,0,0:0:0:0:
402,192,78875,1,0,0:0:0:0:
329,192,78918,1,0,0:0:0:0:
256,192,78962,1,0,0:0:0:0:
182,192,79005,1,0,0:0:0:0:
36,192,79005,1,0,0:0:0:0:
182,192,79179,1,0,0:0:0:0:
329,192,79179,1,0,0:0:0:0:
402,192,79353,1,0,0:0:0:0:
475,192,79353,1,0,0:0:0:0:
36,192,79353,1,0,0:0:0:0:
182,192,79353,1,0,0:0:0:0:
256,192,79396,1,0,0:0:0:0:
329,192,79440,1,0,0:0:0:0:
109,192,79483,1,0,0:0:0:0:
182,192,79527,1,0,0:0:0:0:
256,192,79570,1,0,0:0:0:0:
475,192,79614,1,0,0:0:0:0:
402,192,79657,1,0,0:0:0:0:
329,192,79701,1,0,0:0:0:0:
36,192,79744,1,0,0:0:0:0:
109,192,79788,1,0,0:0:0:0:
182,192,79831,1,0,0:0:0:0:
256,192,79875,1,0,0:0:0:0:
402,192,79875,1,0,0:0:0:0:
329,192,79875,1,0,0:0:0:0:
475,192,79875,1,0,0:0:0:0:
36,192,79875,1,0,0:0:0:0:
36,192,79994,1,0,0:0:0:0:
109,192,80005,1,0,0:0:0:0:
182,192,80016,1,0,0:0:0:0:
475,192,80081,1,0,0:0:0:0:
402,192,80092,1,0,0:0:0:0:
329,192,80103,1,0,0:0:0:0:
36,192,80135,1,0,0:0:0:0:
109,192,80146,1,0,0:0:0:0:
182,192,80157,1,0,0:0:0:0:
256,192,80168,1,0,0:0:0:0:
475,192,80277,1,0,0:0:0:0:
402,192,80288,1,0,0:0:0:0:
329,192,80298,1,0,0:0:0:0:
109,192,80407,1,0,0:0:0:0:
182,192,80418,1,0,0:0:0:0:
256,192,80429,1,0,0:0:0:0:
402,192,80516,1,0,0:0:0:0:
329,192,80527,1,0,0:0:0:0:
256,192,80538,1,0,0:0:0:0:
182,192,80603,1,0,0:0:0:0:
109,192,80614,1,0,0:0:0:0:
36,192,80625,1,0,0:0:0:0:
475,192,80657,1,0,0:0:0:0:
402,192,80668,1,0,0:0:0:0:
329,192,80679,1,0,0:0:0:0:
256,192,80690,1,0,0:0:0:0:
36,192,80809,1,0,0:0:0:0:
109,192,80820,1,0,0:0:0:0:
182,192,80831,1,0,0:0:0:0:
256,192,80918,1,0,0:0:0:0:
329,192,80918,1,0,0:0:0:0:
402,192,80918,1,0,0:0:0:0:
475,192,80918,1,0,0:0:0:0:
182,192,81114,1,0,0:0:0:0:
256,192,81114,1,0,0:0:0:0:
329,192,81114,1,0,0:0:0:0:
402,192,81114,1,0,0:0:0:0:
109,192,81331,1,0,0:0:0:0:
182,192,81331,1,0,0:0:0:0:
256,192,81331,1,0,0:0:0:0:
329,192,81331,1,0,0:0:0:0:
109,192,81440,1,0,0:0:0:0:
36,192,81440,1,0,0:0:0:0:
402,192,81440,1,0,0:0:0:0:
475,192,81440,1,0,0:0:0:0:
329,192,81440,1,0,0:0:0:0:
256,192,81483,1,0,0:0:0:0:
182,192,81527,1,0,0:0:0:0:
109,192,81570,1,0,0:0:0:0:
402,192,81570,1,0,0:0:0:0:
329,192,81614,1,0,0:0:0:0:
256,192,81657,1,0,0:0:0:0:
36,192,81701,1,0,0:0:0:0:
402,192,81701,1,0,0:0:0:0:
475,192,81701,1,0,0:0:0:0:
109,192,81701,1,0,0:0:0:0:
182,192,81744,1,0,0:0:0:0:
329,192,81788,1,0,0:0:0:0:
256,192,81831,1,0,0:0:0:0:
182,192,81875,1,0,0:0:0:0:
109,192,81918,1,0,0:0:0:0:
36,192,81962,1,0,0:0:0:0:
256,192,81962,1,0,0:0:0:0:
402,192,81962,1,0,0:0:0:0:
475,192,81983,1,0,0:0:0:0:
329,192,82108,1,0,0:0:0:0:
182,192,82108,1,0,0:0:0:0:
402,192,82129,1,0,0:0:0:0:
256,192,82222,1,0,0:0:0:0:
475,192,82222,1,0,0:0:0:0:
109,192,82222,1,0,0:0:0:0:
36,192,82244,1,0,0:0:0:0:
329,192,82244,1,0,0:0:0:0:
182,192,82402,1,0,0:0:0:0:
402,192,82402,1,0,0:0:0:0:
256,192,82423,1,0,0:0:0:0:
109,192,82538,1,0,0:0:0:0:
329,192,82538,1,0,0:0:0:0:
182,192,82561,1,0,0:0:0:0:
256,192,82690,1,0,0:0:0:0:
36,192,82690,1,0,0:0:0:0:
109,192,82712,1,0,0:0:0:0:
475,192,82744,1,0,0:0:0:0:
402,192,82744,1,0,0:0:0:0:
329,192,82766,1,0,0:0:0:0:
36,192,82852,1,0,0:0:0:0:
256,192,82852,1,0,0:0:0:0:
182,192,82874,1,0,0:0:0:0:
329,192,83005,1,0,0:0:0:0:
36,192,83005,1,0,0:0:0:0:
475,192,83005,1,0,0:0:0:0:
109,192,83027,1,0,0:0:0:0:
256,192,83027,1,0,0:0:0:0:
402,192,83135,1,0,0:0:0:0:
182,192,83135,1,0,0:0:0:0:
329,192,83157,1,0,0:0:0:0:
256,192,83266,1,0,0:0:0:0:
475,192,83266,1,0,0:0:0:0:
402,192,83288,1,0,0:0:0:0:
182,192,83396,1,0,0:0:0:0:
109,192,83396,1,0,0:0:0:0:
36,192,83396,1,0,0:0:0:0:
329,192,83462,1,0,0:0:0:0:
475,192,83462,1,0,0:0:0:0:
402,192,83462,1,0,0:0:0:0:
256,192,83527,1,0,0:0:0:0:
109,192,83527,1,0,0:0:0:0:
36,192,83527,1,0,0:0:0:0:
402,192,83527,1,0,0:0:0:0:
475,192,83527,1,0,0:0:0:0:
182,192,83570,1,0,0:0:0:0:
329,192,83614,1,0,0:0:0:0:
109,192,83657,1,0,0:0:0:0:
256,192,83701,1,0,0:0:0:0:
36,192,83744,1,0,0:0:0:0:
182,192,83788,1,0,0:0:0:0:
329,192,83831,1,0,0:0:0:0:
475,192,83875,1,0,0:0:0:0:
402,192,83918,1,0,0:0:0:0:
256,192,83962,1,0,0:0:0:0:
109,192,84005,1,0,0:0:0:0:
36,192,84048,1,0,0:0:0:0:
182,192,84048,1,0,0:0:0:0:
329,192,84048,1,0,0:0:0:0:
402,192,84048,1,0,0:0:0:0:
475,192,84048,1,0,0:0:0:0:
475,192,84167,1,0,0:0:0:0:
402,192,84179,1,0,0:0:0:0:
329,192,84190,1,0,0:0:0:0:
36,192,84255,1,0,0:0:0:0:
109,192,84266,1,0,0:0:0:0:
182,192,84277,1,0,0:0:0:0:
475,192,84309,1,0,0:0:0:0:
402,192,84320,1,0,0:0:0:0:
329,192,84331,1,0,0:0:0:0:
256,192,84342,1,0,0:0:0:0:
36,192,84451,1,0,0:0:0:0:
109,192,84462,1,0,0:0:0:0:
182,192,84472,1,0,0:0:0:0:
402,192,84581,1,0,0:0:0:0:
329,192,84592,1,0,0:0:0:0:
256,192,84603,1,0,0:0:0:0:
109,192,84690,1,0,0:0:0:0:
182,192,84701,1,0,0:0:0:0:
256,192,84712,1,0,0:0:0:0:
329,192,84777,1,0,0:0:0:0:
402,192,84788,1,0,0:0:0:0:
475,192,84798,1,0,0:0:0:0:
36,192,84831,1,0,0:0:0:0:
109,192,84842,1,0,0:0:0:0:
182,192,84853,1,0,0:0:0:0:
256,192,84864,1,0,0:0:0:0:
475,192,84983,1,0,0:0:0:0:
402,192,84994,1,0,0:0:0:0:
329,192,85005,1,0,0:0:0:0:
109,192,85092,1,0,0:0:0:0:
36,192,85092,1,0,0:0:0:0:
256,192,85092,1,0,0:0:0:0:
182,192,85092,1,0,0:0:0:0:
182,192,85288,1,0,0:0:0:0:
109,192,85288,1,0,0:0:0:0:
329,192,85288,1,0,0:0:0:0:
256,192,85288,1,0,0:0:0:0:
256,192,85505,1,0,0:0:0:0:
182,192,85505,1,0,0:0:0:0:
402,192,85505,1,0,0:0:0:0:
329,192,85505,1,0,0:0:0:0:
402,192,85614,1,0,0:0:0:0:
475,192,85614,1,0,0:0:0:0:
109,192,85614,1,0,0:0:0:0:
36,192,85614,1,0,0:0:0:0:
182,192,85614,1,0,0:0:0:0:
256,192,85657,1,0,0:0:0:0:
329,192,85701,1,0,0:0:0:0:
402,192,85744,1,0,0:0:0:0:
109,192,85744,1,0,0:0:0:0:
182,192,85788,1,0,0:0:0:0:
256,192,85831,1,0,0:0:0:0:
475,192,85875,1,0,0:0:0:0:
109,192,85875,1,0,0:0:0:0:
36,192,85875,1,0,0:0:0:0:
402,192,85875,1,0,0:0:0:0:
329,192,85918,1,0,0:0:0:0:
182,192,85962,1,0,0:0:0:0:
256,192,86005,1,0,0:0:0:0:
329,192,86048,1,0,0:0:0:0:
402,192,86092,1,0,0:0:0:0:
475,192,86135,1,0,0:0:0:0:
109,192,86135,1,0,0:0:0:0:
256,192,86135,1,0,0:0:0:0:
36,192,86157,1,0,0:0:0:0:
329,192,86282,1,0,0:0:0:0:
182,192,86282,1,0,0:0:0:0:
109,192,86302,1,0,0:0:0:0:
402,192,86396,1,0,0:0:0:0:
36,192,86396,1,0,0:0:0:0:
256,192,86396,1,0,0:0:0:0:
182,192,86418,1,0,0:0:0:0:
475,192,86418,1,0,0:0:0:0:
256,192,86580,1,0,0:0:0:0:
475,192,86580,1,0,0:0:0:0:
402,192,86599,1,0,0:0:0:0:
36,192,86657,1,0,0:0:0:0:
182,192,86657,1,0,0:0:0:0:
36,192,86788,1,0,0:0:0:0:
182,192,86788,1,0,0:0:0:0:
256,192,86788,1,0,0:0:0:0:
402,192,86788,1,0,0:0:0:0:
475,192,86788,1,0,0:0:0:0:
329,192,86918,1,0,0:0:0:0:
475,192,86918,1,0,0:0:0:0:
475,192,87048,1,0,0:0:0:0:
329,192,87048,1,0,0:0:0:0:
109,192,87048,1,0,0:0:0:0:
36,192,87048,1,0,0:0:0:0:
256,192,87048,1,0,0:0:0:0:
256,192,87179,1,0,0:0:0:0:
109,192,87179,1,0,0:0:0:0:
36,192,87179,1,0,0:0:0:0:
182,192,87179,1,0,0:0:0:0:
475,192,87179,1,0,0:0:0:0:
329,192,87222,1,0,0:0:0:0:
402,192,87266,1,0,0:0:0:0:
182,192,87309,1,0,0:0:0:0:
256,192,87353,1,0,0:0:0:0:
329,192,87396,1,0,0:0:0:0:
109,192,87440,1,0,0:0:0:0:
182,192,87483,1,0,0:0:0:0:
256,192,87527,1,0,0:0:0:0:
329,192,87570,1,0,0:0:0:0:
402,192,87570,1,0,0:0:0:0:
475,192,87570,1,0,0:0:0:0:
182,192,87635,1,0,0:0:0:0:
36,192,87635,1,0,0:0:0:0:
109,192,87635,1,0,0:0:0:0:
109,192,87701,1,0,0:0:0:0:
36,192,87701,1,0,0:0:0:0:
182,192,87701,1,0,0:0:0:0:
475,192,87701,1,0,0:0:0:0:
402,192,87744,1,0,0:0:0:0:
329,192,87788,1,0,0:0:0:0:
109,192,87831,1,0,0:0:0:0:
182,192,87875,1,0,0:0:0:0:
256,192,87918,1,0,0:0:0:0:
329,192,87962,1,0,0:0:0:0:
36,192,87962,1,0,0:0:0:0:
475,192,87962,1,0,0:0:0:0:
109,192,88092,1,0,0:0:0:0:
329,192,88092,1,0,0:0:0:0:
182,192,88092,1,0,0:0:0:0:
402,192,88092,1,0,0:0:0:0:
256,192,88222,1,0,0:0:0:0:
475,192,88222,1,0,0:0:0:0:
36,192,88222,1,0,0:0:0:0:
402,192,88266,1,0,0:0:0:0:
182,192,88309,1,0,0:0:0:0:
329,192,88353,1,0,0:0:0:0:
109,192,88396,1,0,0:0:0:0:
256,192,88440,1,0,0:0:0:0:
182,192,88483,1,0,0:0:0:0:
36,192,88483,1,0,0:0:0:0:
402,192,88483,1,0,0:0:0:0:
475,192,88483,1,0,0:0:0:0:
329,192,88548,1,0,0:0:0:0:
109,192,88614,1,0,0:0:0:0:
256,192,88679,1,0,0:0:0:0:
402,192,88744,1,0,0:0:0:0:
475,192,88744,1,0,0:0:0:0:
329,192,88744,1,0,0:0:0:0:
36,192,88744,1,0,0:0:0:0:
109,192,88788,1,0,0:0:0:0:
182,192,88831,1,0,0:0:0:0:
402,192,88875,1,0,0:0:0:0:
329,192,88918,1,0,0:0:0:0:
256,192,88962,1,0,0:0:0:0:
182,192,89005,1,0,0:0:0:0:
475,192,89005,1,0,0:0:0:0:
36,192,89005,1,0,0:0:0:0:
182,192,89135,1,0,0:0:0:0:
329,192,89135,1,0,0:0:0:0:
402,192,89135,1,0,0:0:0:0:
109,192,89135,1,0,0:0:0:0:
256,192,89266,1,0,0:0:0:0:
36,192,89266,1,0,0:0:0:0:
475,192,89266,1,0,0:0:0:0:
109,192,89309,1,0,0:0:0:0:
329,192,89353,1,0,0:0:0:0:
182,192,89396,1,0,0:0:0:0:
402,192,89440,1,0,0:0:0:0:
256,192,89483,1,0,0:0:0:0:
329,192,89527,1,0,0:0:0:0:
475,192,89527,1,0,0:0:0:0:
109,192,89527,1,0,0:0:0:0:
36,192,89527,1,0,0:0:0:0:
182,192,89592,1,0,0:0:0:0:
402,192,89657,1,0,0:0:0:0:
256,192,89722,1,0,0:0:0:0:
475,192,89788,1,0,0:0:0:0:
36,192,89788,1,0,0:0:0:0:
182,192,89788,1,0,0:0:0:0:
109,192,89788,1,0,0:0:0:0:
402,192,89831,1,0,0:0:0:0:
329,192,89875,1,0,0:0:0:0:
109,192,89918,1,0,0:0:0:0:
182,192,89962,1,0,0:0:0:0:
402,192,90005,1,0,0:0:0:0:
36,192,90048,1,0,0:0:0:0:
256,192,90048,1,0,0:0:0:0:
475,192,90048,1,0,0:0:0:0:
402,192,90179,1,0,0:0:0:0:
256,192,90179,1,0,0:0:0:0:
109,192,90179,1,0,0:0:0:0:
475,192,90179,1,0,0:0:0:0:
36,192,90309,1,0,0:0:0:0:
109,192,90309,1,0,0:0:0:0:
475,192,90309,1,0,0:0:0:0:
329,192,90309,1,0,0:0:0:0:
182,192,90353,1,0,0:0:0:0:
402,192,90396,1,0,0:0:0:0:
256,192,90440,1,0,0:0:0:0:
109,192,90483,1,0,0:0:0:0:
36,192,90527,1,0,0:0:0:0:
475,192,90570,1,0,0:0:0:0:
329,192,90570,1,0,0:0:0:0:
182,192,90570,1,0,0:0:0:0:
402,192,90570,1,0,0:0:0:0:
109,192,90635,1,0,0:0:0:0:
402,192,90701,1,0,0:0:0:0:
256,192,90766,1,0,0:0:0:0:
36,192,90831,1,0,0:0:0:0:
475,192,90831,1,0,0:0:0:0:
329,192,90831,1,0,0:0:0:0:
402,192,90831,1,0,0:0:0:0:
109,192,90875,1,0,0:0:0:0:
182,192,90918,1,0,0:0:0:0:
402,192,90962,1,0,0:0:0:0:
329,192,91005,1,0,0:0:0:0:
109,192,91048,1,0,0:0:0:0:
475,192,91092,1,0,0:0:0:0:
256,192,91092,1,0,0:0:0:0:
36,192,91092,1,0,0:0:0:0:
109,192,91222,1,0,0:0:0:0:
256,192,91222,1,0,0:0:0:0:
402,192,91222,1,0,0:0:0:0:
36,192,91222,1,0,0:0:0:0:
475,192,91353,1,0,0:0:0:0:
402,192,91353,1,0,0:0:0:0:
36,192,91353,1,0,0:0:0:0:
182,192,91353,1,0,0:0:0:0:
329,192,91396,1,0,0:0:0:0:
109,192,91440,1,0,0:0:0:0:
256,192,91483,1,0,0:0:0:0:
402,192,91527,1,0,0:0:0:0:
475,192,91570,1,0,0:0:0:0:
36,192,91614,1,0,0:0:0:0:
182,192,91614,1,0,0:0:0:0:
329,192,91614,1,0,0:0:0:0:
109,192,91614,1,0,0:0:0:0:
402,192,91679,1,0,0:0:0:0:
109,192,91744,1,0,0:0:0:0:
256,192,91809,1,0,0:0:0:0:
36,192,91875,1,0,0:0:0:0:
182,192,91875,1,0,0:0:0:0:
475,192,91875,1,0,0:0:0:0:
109,192,91875,1,0,0:0:0:0:
402,192,91918,1,0,0:0:0:0:
329,192,91962,1,0,0:0:0:0:
109,192,92005,1,0,0:0:0:0:
256,192,92048,1,0,0:0:0:0:
402,192,92092,1,0,0:0:0:0:
475,192,92135,1,0,0:0:0:0:
182,192,92135,1,0,0:0:0:0:
36,192,92135,1,0,0:0:0:0:
256,192,92266,1,0,0:0:0:0:
475,192,92266,1,0,0:0:0:0:
109,192,92266,1,0,0:0:0:0:
402,192,92266,1,0,0:0:0:0:
109,192,92396,1,0,0:0:0:0:
36,192,92396,1,0,0:0:0:0:
475,192,92396,1,0,0:0:0:0:
329,192,92396,1,0,0:0:0:0:
182,192,92440,1,0,0:0:0:0:
256,192,92483,1,0,0:0:0:0:
109,192,92527,1,0,0:0:0:0:
402,192,92570,1,0,0:0:0:0:
329,192,92614,1,0,0:0:0:0:
182,192,92657,1,0,0:0:0:0:
475,192,92657,1,0,0:0:0:0:
256,192,92657,1,0,0:0:0:0:
36,192,92657,1,0,0:0:0:0:
402,192,92722,1,0,0:0:0:0:
109,192,92788,1,0,0:0:0:0:
256,192,92853,1,0,0:0:0:0:
475,192,92918,1,0,0:0:0:0:
329,192,92918,1,0,0:0:0:0:
36,192,92918,1,0,0:0:0:0:
402,192,92918,1,0,0:0:0:0:
109,192,92962,1,0,0:0:0:0:
182,192,93005,1,0,0:0:0:0:
402,192,93048,1,0,0:0:0:0:
256,192,93092,1,0,0:0:0:0:
109,192,93135,1,0,0:0:0:0:
36,192,93179,1,0,0:0:0:0:
329,192,93179,1,0,0:0:0:0:
475,192,93179,1,0,0:0:0:0:
256,192,93309,1,0,0:0:0:0:
36,192,93309,1,0,0:0:0:0:
402,192,93309,1,0,0:0:0:0:
109,192,93309,1,0,0:0:0:0:
402,192,93440,1,0,0:0:0:0:
475,192,93440,1,0,0:0:0:0:
36,192,93440,1,0,0:0:0:0:
182,192,93440,1,0,0:0:0:0:
329,192,93483,1,0,0:0:0:0:
256,192,93527,1,0,0:0:0:0:
402,192,93570,1,0,0:0:0:0:
109,192,93614,1,0,0:0:0:0:
182,192,93657,1,0,0:0:0:0:
329,192,93701,1,0,0:0:0:0:
36,192,93701,1,0,0:0:0:0:
256,192,93701,1,0,0:0:0:0:
475,192,93701,1,0,0:0:0:0:
109,192,93766,1,0,0:0:0:0:
402,192,93831,1,0,0:0:0:0:
256,192,93896,1,0,0:0:0:0:
182,192,93962,1,0,0:0:0:0:
109,192,93962,1,0,0:0:0:0:
36,192,93962,1,0,0:0:0:0:
475,192,93962,1,0,0:0:0:0:
329,192,94005,1,0,0:0:0:0:
402,192,94048,1,0,0:0:0:0:
256,192,94092,1,0,0:0:0:0:
329,192,94135,1,0,0:0:0:0:
182,192,94179,1,0,0:0:0:0:
109,192,94222,1,0,0:0:0:0:
36,192,94222,1,0,0:0:0:0:
256,192,94222,1,0,0:0:0:0:
402,192,94353,1,0,0:0:0:0:
329,192,94353,1,0,0:0:0:0:
475,192,94353,1,0,0:0:0:0:
36,192,94353,1,0,0:0:0:0:
182,192,94396,1,0,0:0:0:0:
109,192,94440,1,0,0:0:0:0:
256,192,94483,1,0,0:0:0:0:
402,192,94483,1,0,0:0:0:0:
475,192,94483,1,0,0:0:0:0:
182,192,94527,1,0,0:0:0:0:
329,192,94570,1,0,0:0:0:0:
256,192,94614,1,0,0:0:0:0:
109,192,94614,1,0,0:0:0:0:
36,192,94614,1,0,0:0:0:0:
475,192,94744,1,0,0:0:0:0:
182,192,94744,1,0,0:0:0:0:
36,192,94744,1,0,0:0:0:0:
109,192,94744,1,0,0:0:0:0:
329,192,94788,1,0,0:0:0:0:
402,192,94831,1,0,0:0:0:0:
256,192,94875,1,0,0:0:0:0:
329,192,94918,1,0,0:0:0:0:
402,192,95005,1,0,0:0:0:0:
475,192,95005,1,0,0:0:0:0:
36,192,95005,1,0,0:0:0:0:
182,192,95048,1,0,0:0:0:0:
109,192,95092,1,0,0:0:0:0:
256,192,95135,1,0,0:0:0:0:
182,192,95179,1,0,0:0:0:0:
329,192,95222,1,0,0:0:0:0:
402,192,95266,1,0,0:0:0:0:
475,192,95266,1,0,0:0:0:0:
256,192,95266,1,0,0:0:0:0:
109,192,95396,1,0,0:0:0:0:
182,192,95396,1,0,0:0:0:0:
36,192,95396,1,0,0:0:0:0:
475,192,95396,1,0,0:0:0:0:
329,192,95440,1,0,0:0:0:0:
402,192,95483,1,0,0:0:0:0:
256,192,95527,1,0,0:0:0:0:
109,192,95527,1,0,0:0:0:0:
36,192,95527,1,0,0:0:0:0:
329,192,95570,1,0,0:0:0:0:
182,192,95614,1,0,0:0:0:0:
256,192,95657,1,0,0:0:0:0:
402,192,95657,1,0,0:0:0:0:
475,192,95657,1,0,0:0:0:0:
36,192,95788,1,0,0:0:0:0:
402,192,95788,1,0,0:0:0:0:
475,192,95788,1,0,0:0:0:0:
109,192,95788,1,0,0:0:0:0:
256,192,95853,1,0,0:0:0:0:
329,192,95853,1,0,0:0:0:0:
109,192,95918,1,0,0:0:0:0:
182,192,95918,1,0,0:0:0:0:
402,192,95983,1,0,0:0:0:0:
329,192,95983,1,0,0:0:0:0:
36,192,96048,1,0,0:0:0:0:
109,192,96048,1,0,0:0:0:0:
182,192,96048,1,0,0:0:0:0:
475,192,96048,1,0,0:0:0:0:
329,192,96092,1,0,0:0:0:0:
402,192,96135,1,0,0:0:0:0:
256,192,96179,1,0,0:0:0:0:
36,192,96179,1,0,0:0:0:0:
329,192,96222,1,0,0:0:0:0:
182,192,96266,1,0,0:0:0:0:
256,192,96309,1,0,0:0:0:0:
402,192,96309,1,0,0:0:0:0:
475,192,96309,1,0,0:0:0:0:
36,192,96353,1,0,0:0:0:0:
109,192,96396,1,0,0:0:0:0:
329,192,96440,1,0,0:0:0:0:
402,192,96440,1,0,0:0:0:0:
182,192,96483,1,0,0:0:0:0:
256,192,96527,1,0,0:0:0:0:
402,192,96570,1,0,0:0:0:0:
36,192,96570,1,0,0:0:0:0:
475,192,96570,1,0,0:0:0:0:
109,192,96570,1,0,0:0:0:0:
329,192,96614,1,0,0:0:0:0:
182,192,96657,1,0,0:0:0:0:
109,192,96701,1,0,0:0:0:0:
256,192,96744,1,0,0:0:0:0:
329,192,96788,1,0,0:0:0:0:
402,192,96831,1,0,0:0:0:0:
475,192,96831,1,0,0:0:0:0:
36,192,96831,1,0,0:0:0:0:
109,192,96875,1,0,0:0:0:0:
182,192,96918,1,0,0:0:0:0:
256,192,96962,1,0,0:0:0:0:
329,192,97005,1,0,0:0:0:0:
329,192,97092,1,0,0:0:0:0:
475,192,97092,1,0,0:0:0:0:
402,192,97092,1,0,0:0:0:0:
36,192,97092,1,0,0:0:0:0:
182,192,97135,1,0,0:0:0:0:
109,192,97179,1,0,0:0:0:0:
475,192,97222,1,0,0:0:0:0:
256,192,97222,1,0,0:0:0:0:
182,192,97266,1,0,0:0:0:0:
329,192,97309,1,0,0:0:0:0:
256,192,97353,1,0,0:0:0:0:
109,192,97353,1,0,0:0:0:0:
36,192,97353,1,0,0:0:0:0:
475,192,97396,1,0,0:0:0:0:
402,192,97440,1,0,0:0:0:0:
182,192,97483,1,0,0:0:0:0:
109,192,97483,1,0,0:0:0:0:
329,192,97527,1,0,0:0:0:0:
256,192,97570,1,0,0:0:0:0:
109,192,97614,1,0,0:0:0:0:
475,192,97614,1,0,0:0:0:0:
36,192,97614,1,0,0:0:0:0:
402,192,97614,1,0,0:0:0:0:
182,192,97657,1,0,0:0:0:0:
329,192,97701,1,0,0:0:0:0:
402,192,97744,1,0,0:0:0:0:
256,192,97788,1,0,0:0:0:0:
182,192,97831,1,0,0:0:0:0:
36,192,97875,1,0,0:0:0:0:
475,192,97875,1,0,0:0:0:0:
109,192,97875,1,0,0:0:0:0:
402,192,97918,1,0,0:0:0:0:
329,192,97962,1,0,0:0:0:0:
256,192,98005,1,0,0:0:0:0:
182,192,98048,1,0,0:0:0:0:
36,192,98135,1,0,0:0:0:0:
475,192,98135,1,0,0:0:0:0:
182,192,98135,1,0,0:0:0:0:
109,192,98135,1,0,0:0:0:0:
329,192,98179,1,0,0:0:0:0:
402,192,98222,1,0,0:0:0:0:
256,192,98266,1,0,0:0:0:0:
36,192,98266,1,0,0:0:0:0:
329,192,98309,1,0,0:0:0:0:
182,192,98353,1,0,0:0:0:0:
256,192,98396,1,0,0:0:0:0:
402,192,98396,1,0,0:0:0:0:
475,192,98396,1,0,0:0:0:0:
36,192,98440,1,0,0:0:0:0:
109,192,98483,1,0,0:0:0:0:
329,192,98527,1,0,0:0:0:0:
402,192,98527,1,0,0:0:0:0:
182,192,98570,1,0,0:0:0:0:
256,192,98614,1,0,0:0:0:0:
109,192,98657,1,0,0:0:0:0:
36,192,98657,1,0,0:0:0:0:
475,192,98657,1,0,0:0:0:0:
402,192,98657,1,0,0:0:0:0:
329,192,98701,1,0,0:0:0:0:
182,192,98744,1,0,0:0:0:0:
109,192,98788,1,0,0:0:0:0:
256,192,98831,1,0,0:0:0:0:
329,192,98875,1,0,0:0:0:0:
402,192,98918,1,0,0:0:0:0:
475,192,98918,1,0,0:0:0:0:
36,192,98918,1,0,0:0:0:0:
109,192,98962,1,0,0:0:0:0:
182,192,99005,1,0,0:0:0:0:
256,192,99048,1,0,0:0:0:0:
329,192,99092,1,0,0:0:0:0:
475,192,99179,1,0,0:0:0:0:
329,192,99179,1,0,0:0:0:0:
36,192,99179,1,0,0:0:0:0:
402,192,99179,1,0,0:0:0:0:
182,192,99222,1,0,0:0:0:0:
109,192,99266,1,0,0:0:0:0:
256,192,99309,1,0,0:0:0:0:
475,192,99309,1,0,0:0:0:0:
182,192,99353,1,0,0:0:0:0:
329,192,99396,1,0,0:0:0:0:
109,192,99440,1,0,0:0:0:0:
256,192,99440,1,0,0:0:0:0:
36,192,99440,1,0,0:0:0:0:
475,192,99483,1,0,0:0:0:0:
402,192,99527,1,0,0:0:0:0:
182,192,99570,1,0,0:0:0:0:
109,192,99570,1,0,0:0:0:0:
329,192,99614,1,0,0:0:0:0:
256,192,99657,1,0,0:0:0:0:
109,192,99701,1,0,0:0:0:0:
475,192,99701,1,0,0:0:0:0:
36,192,99701,1,0,0:0:0:0:
402,192,99701,1,0,0:0:0:0:
182,192,99744,1,0,0:0:0:0:
329,192,99788,1,0,0:0:0:0:
402,192,99831,1,0,0:0:0:0:
256,192,99875,1,0,0:0:0:0:
182,192,99918,1,0,0:0:0:0:
36,192,99962,1,0,0:0:0:0:
109,192,99962,1,0,0:0:0:0:
475,192,99962,1,0,0:0:0:0:
402,192,100005,1,0,0:0:0:0:
329,192,100048,1,0,0:0:0:0:
256,192,100092,1,0,0:0:0:0:
182,192,100135,1,0,0:0:0:0:
109,192,100222,1,0,0:0:0:0:
36,192,100222,1,0,0:0:0:0:
256,192,100222,1,0,0:0:0:0:
475,192,100222,1,0,0:0:0:0:
402,192,100222,1,0,0:0:0:0:
329,192,100288,1,0,0:0:0:0:
182,192,100353,1,0,0:0:0:0:
402,192,100353,1,0,0:0:0:0:
256,192,100418,1,0,0:0:0:0:
329,192,100483,1,0,0:0:0:0:
36,192,100483,1,0,0:0:0:0:
475,192,100483,1,0,0:0:0:0:
109,192,100483,1,0,0:0:0:0:
182,192,100548,1,0,0:0:0:0:
109,192,100614,1,0,0:0:0:0:
329,192,100614,1,0,0:0:0:0:
256,192,100679,1,0,0:0:0:0:
182,192,100744,128,0,100831:0:0:0:0:
36,192,100744,128,0,100853:0:0:0:0:
329,192,100744,128,0,100809:0:0:0:0:
475,192,100744,128,0,100788:0:0:0:0:
402,192,100809,128,0,101070:0:0:0:0:
256,192,100853,128,0,101222:0:0:0:0:
109,192,100896,128,0,100962:0:0:0:0:
36,192,101005,128,0,101222:0:0:0:0:
182,192,101070,128,0,101222:0:0:0:0:
475,192,101114,128,0,101222:0:0:0:0:
329,192,101157,128,0,101222:0:0:0:0:
402,192,101266,1,0,0:0:0:0:
256,192,101266,1,0,0:0:0:0:
475,192,101266,1,0,0:0:0:0:
36,192,101266,1,0,0:0:0:0:
109,192,101266,1,0,0:0:0:0:
182,192,101331,1,0,0:0:0:0:
109,192,101396,1,0,0:0:0:0:
329,192,101396,1,0,0:0:0:0:
256,192,101462,1,0,0:0:0:0:
402,192,101527,1,0,0:0:0:0:
182,192,101527,1,0,0:0:0:0:
475,192,101527,1,0,0:0:0:0:
36,192,101527,1,0,0:0:0:0:
329,192,101592,1,0,0:0:0:0:
402,192,101657,1,0,0:0:0:0:
182,192,101657,1,0,0:0:0:0:
256,192,101722,1,0,0:0:0:0:
475,192,101788,1,0,0:0:0:0:
402,192,101788,1,0,0:0:0:0:
36,192,101853,1,0,0:0:0:0:
109,192,101885,1,0,0:0:0:0:
182,192,101918,1,0,0:0:0:0:
256,192,101951,1,0,0:0:0:0:
329,192,101983,1,0,0:0:0:0:
36,192,102048,1,0,0:0:0:0:
182,192,102048,1,0,0:0:0:0:
109,192,102048,1,0,0:0:0:0:
475,192,102092,1,0,0:0:0:0:
402,192,102135,1,0,0:0:0:0:
329,192,102179,1,0,0:0:0:0:
256,192,102222,1,0,0:0:0:0:
329,192,102309,1,0,0:0:0:0:
256,192,102309,1,0,0:0:0:0:
402,192,102309,1,0,0:0:0:0:
475,192,102309,1,0,0:0:0:0:
36,192,102375,1,0,0:0:0:0:
109,192,102375,1,0,0:0:0:0:
182,192,102375,1,0,0:0:0:0:
329,192,102440,1,0,0:0:0:0:
402,192,102440,1,0,0:0:0:0:
475,192,102440,1,0,0:0:0:0:
109,192,102505,1,0,0:0:0:0:
256,192,102570,1,0,0:0:0:0:
329,192,102570,1,0,0:0:0:0:
402,192,102570,1,0,0:0:0:0:
182,192,102635,1,0,0:0:0:0:
36,192,102635,1,0,0:0:0:0:
402,192,102701,1,0,0:0:0:0:
475,192,102701,1,0,0:0:0:0:
329,192,102701,1,0,0:0:0:0:
182,192,102766,1,0,0:0:0:0:
36,192,102766,1,0,0:0:0:0:
109,192,102766,1,0,0:0:0:0:
329,192,102831,1,0,0:0:0:0:
475,192,102831,1,0,0:0:0:0:
402,192,102831,1,0,0:0:0:0:
256,192,102831,1,0,0:0:0:0:
36,192,102896,1,0,0:0:0:0:
109,192,102962,1,0,0:0:0:0:
256,192,102962,1,0,0:0:0:0:
182,192,102962,1,0,0:0:0:0:
329,192,103027,1,0,0:0:0:0:
475,192,103027,1,0,0:0:0:0:
182,192,103092,1,0,0:0:0:0:
109,192,103092,1,0,0:0:0:0:
36,192,103092,1,0,0:0:0:0:
475,192,103157,1,0,0:0:0:0:
402,192,103157,1,0,0:0:0:0:
329,192,103157,1,0,0:0:0:0:
182,192,103222,1,0,0:0:0:0:
109,192,103222,1,0,0:0:0:0:
256,192,103222,1,0,0:0:0:0:
329,192,103288,1,0,0:0:0:0:
402,192,103353,1,0,0:0:0:0:
475,192,103353,128,0,103418:0:0:0:0:
256,192,103353,128,0,103418:0:0:0:0:
36,192,103353,128,0,103483:0:0:0:0:
329,192,103418,128,0,103483:0:0:0:0:
109,192,103418,128,0,103548:0:0:0:0:
402,192,103483,128,0,103548:0:0:0:0:
182,192,103483,128,0,103614:0:0:0:0:
475,192,103548,128,0,103614:0:0:0:0:
256,192,103548,128,0,103679:0:0:0:0:
329,192,103614,128,0,103744:0:0:0:0:
36,192,103614,128,0,103809:0:0:0:0:
109,192,103679,128,0,103809:0:0:0:0:
402,192,103679,128,0,103809:0:0:0:0:
182,192,103744,128,0,103809:0:0:0:0:
475,192,103744,128,0,103809:0:0:0:0:
256,192,103809,1,0,0:0:0:0:
402,192,103875,1,0,0:0:0:0:
109,192,104005,1,0,0:0:0:0:
109,192,104135,1,0,0:0:0:0:
256,192,104135,1,0,0:0:0:0:
402,192,104135,1,0,0:0:0:0:
109,192,104396,128,0,106027:0:0:0:0:
402,192,104396,128,0,106027:0:0:0:0:
475,192,104396,128,0,107135:0:0:0:0:
256,192,104396,128,0,106027:0:0:0:0:
36,192,104396,128,0,106483:0:0:0:0:
182,192,104396,1,0,0:0:0:0:
329,192,104396,1,0,0:0:0:0:
109,192,106092,128,0,106483:0:0:0:0:
182,192,106092,128,0,106483:0:0:0:0:
329,192,106092,128,0,107135:0:0:0:0:
402,192,106092,128,0,108635:0:0:0:0:
36,192,106548,128,0,107592:0:0:0:0:
182,192,106548,128,0,107592:0:0:0:0:
109,192,106548,128,0,107592:0:0:0:0:
329,192,107201,128,0,108635:0:0:0:0:
475,192,107201,128,0,108635:0:0:0:0:
36,192,107657,128,0,109679:0:0:0:0:
109,192,107657,128,0,108635:0:0:0:0:
256,192,107657,128,0,109679:0:0:0:0:
182,192,108701,128,0,109679:0:0:0:0:
475,192,108701,128,0,110722:0:0:0:0:
329,192,108701,128,0,110722:0:0:0:0:
402,192,108701,128,0,112809:0:0:0:0:
109,192,109744,128,0,110722:0:0:0:0:
36,192,109744,128,0,111701:0:0:0:0:
256,192,109744,128,0,110722:0:0:0:0:
109,192,110788,128,0,111701:0:0:0:0:
329,192,110788,128,0,112809:0:0:0:0:
182,192,110788,128,0,111701:0:0:0:0:
475,192,110788,128,0,113853:0:0:0:0:
36,192,111766,128,0,112809:0:0:0:0:
109,192,111766,128,0,115157:0:0:0:0:
256,192,111766,128,0,112809:0:0:0:0:
182,192,112875,128,0,113853:0:0:0:0:
256,192,112875,128,0,115288:0:0:0:0:
402,192,112875,128,0,113853:0:0:0:0:
36,192,112875,128,0,114896:0:0:0:0:
329,192,113918,128,0,114896:0:0:0:0:
182,192,113918,128,0,115027:0:0:0:0:
475,192,113918,128,0,114896:0:0:0:0:
36,192,114962,128,0,115940:0:0:0:0:
402,192,114962,128,0,115548:0:0:0:0:
475,192,114962,128,0,116070:0:0:0:0:
182,192,115092,128,0,115940:0:0:0:0:
109,192,115222,128,0,115418:0:0:0:0:
256,192,115353,128,0,115679:0:0:0:0:
109,192,115483,128,0,115940:0:0:0:0:
402,192,115614,128,0,115809:0:0:0:0:
256,192,115744,128,0,116201:0:0:0:0:
402,192,115875,128,0,116331:0:0:0:0:
182,192,116005,128,0,116722:0:0:0:0:
329,192,116005,128,0,116592:0:0:0:0:
36,192,116005,128,0,117375:0:0:0:0:
475,192,116135,128,0,116462:0:0:0:0:
256,192,116266,128,0,116983:0:0:0:0:
402,192,116396,128,0,116853:0:0:0:0:
475,192,116527,128,0,116983:0:0:0:0:
329,192,116657,128,0,116983:0:0:0:0:
182,192,116788,128,0,117114:0:0:0:0:
402,192,116918,128,0,117766:0:0:0:0:
109,192,117048,128,0,117896:0:0:0:0:
329,192,117048,128,0,117244:0:0:0:0:
475,192,117048,128,0,117505:0:0:0:0:
182,192,117179,128,0,117635:0:0:0:0:
329,192,117309,128,0,118027:0:0:0:0:
36,192,117440,128,0,118157:0:0:0:0:
475,192,117570,128,0,118679:0:0:0:0:
182,192,117701,128,0,119070:0:0:0:0:
402,192,117831,128,0,118288:0:0:0:0:
109,192,117962,128,0,118418:0:0:0:0:
329,192,118092,128,0,118548:0:0:0:0:
36,192,118222,128,0,119070:0:0:0:0:
402,192,118353,128,0,119070:0:0:0:0:
109,192,118483,128,0,118809:0:0:0:0:
329,192,118614,128,0,118940:0:0:0:0:
475,192,118744,128,0,119070:0:0:0:0:
109,192,118875,128,0,119592:0:0:0:0:
329,192,119005,128,0,119462:0:0:0:0:
36,192,119135,128,0,119331:0:0:0:0:
256,192,119135,128,0,119853:0:0:0:0:
475,192,119135,128,0,120375:0:0:0:0:
402,192,119266,128,0,119722:0:0:0:0:
36,192,119396,128,0,119983:0:0:0:0:
329,192,119527,128,0,120244:0:0:0:0:
182,192,119657,128,0,120114:0:0:0:0:
402,192,119788,128,0,120114:0:0:0:0:
256,192,119918,128,0,120114:0:0:0:0:
36,192,120048,128,0,120570:0:0:0:0:
109,192,120179,128,0,120798:0:0:0:0:
256,192,120179,128,0,120864:0:0:0:0:
402,192,120179,128,0,120929:0:0:0:0:
329,192,120309,128,0,120440:0:0:0:0:
475,192,120440,128,0,120766:0:0:0:0:
329,192,120505,128,0,120701:0:0:0:0:
182,192,120570,128,0,120635:0:0:0:0:
36,192,120635,128,0,120766:0:0:0:0:
182,192,120701,128,0,120831:0:0:0:0:
329,192,120766,128,0,120896:0:0:0:0:
475,192,120831,128,0,120962:0:0:0:0:
36,192,121092,1,0,0:0:0:0:
256,192,121092,1,0,0:0:0:0:
109,192,121092,1,0,0:0:0:0:
402,192,121092,1,0,0:0:0:0:
475,192,121092,1,0,0:0:0:0:
329,192,121353,1,0,0:0:0:0:
36,192,121353,1,0,0:0:0:0:
109,192,121353,1,0,0:0:0:0:
182,192,121353,1,0,0:0:0:0:
475,192,121483,1,0,0:0:0:0:
329,192,121483,1,0,0:0:0:0:
402,192,121483,1,0,0:0:0:0:
402,192,121614,1,0,0:0:0:0:
109,192,121614,1,0,0:0:0:0:
256,192,121614,1,0,0:0:0:0:
36,192,121614,1,0,0:0:0:0:
329,192,121744,1,0,0:0:0:0:
182,192,121744,1,0,0:0:0:0:
402,192,121875,1,0,0:0:0:0:
329,192,121875,1,0,0:0:0:0:
475,192,121875,1,0,0:0:0:0:
182,192,121875,1,0,0:0:0:0:
36,192,122005,1,0,0:0:0:0:
182,192,122005,1,0,0:0:0:0:
36,192,122135,1,0,0:0:0:0:
109,192,122135,1,0,0:0:0:0:
402,192,122135,1,0,0:0:0:0:
256,192,122135,1,0,0:0:0:0:
475,192,122135,1,0,0:0:0:0:
329,192,122266,1,0,0:0:0:0:
475,192,122266,1,0,0:0:0:0:
182,192,122266,1,0,0:0:0:0:
36,192,122396,1,0,0:0:0:0:
109,192,122396,1,0,0:0:0:0:
256,192,122396,1,0,0:0:0:0:
402,192,122396,1,0,0:0:0:0:
329,192,122527,1,0,0:0:0:0:
182,192,122527,1,0,0:0:0:0:
329,192,122657,1,0,0:0:0:0:
182,192,122657,1,0,0:0:0:0:
36,192,122657,1,0,0:0:0:0:
475,192,122657,1,0,0:0:0:0:
256,192,122788,1,0,0:0:0:0:
109,192,122788,1,0,0:0:0:0:
109,192,122918,1,0,0:0:0:0:
36,192,122918,1,0,0:0:0:0:
256,192,122918,1,0,0:0:0:0:
402,192,122918,1,0,0:0:0:0:
329,192,123048,1,0,0:0:0:0:
475,192,123048,1,0,0:0:0:0:
182,192,123048,1,0,0:0:0:0:
475,192,123179,1,0,0:0:0:0:
329,192,123179,1,0,0:0:0:0:
402,192,123179,1,0,0:0:0:0:
182,192,123179,1,0,0:0:0:0:
36,192,123179,1,0,0:0:0:0:
256,192,123309,1,0,0:0:0:0:
109,192,123309,1,0,0:0:0:0:
109,192,123440,1,0,0:0:0:0:
36,192,123440,1,0,0:0:0:0:
402,192,123440,1,0,0:0:0:0:
256,192,123440,1,0,0:0:0:0:
329,192,123570,1,0,0:0:0:0:
475,192,123570,1,0,0:0:0:0:
402,192,123570,1,0,0:0:0:0:
329,192,123701,1,0,0:0:0:0:
475,192,123701,1,0,0:0:0:0:
36,192,123701,1,0,0:0:0:0:
182,192,123701,1,0,0:0:0:0:
109,192,123831,1,0,0:0:0:0:
256,192,123831,1,0,0:0:0:0:
402,192,123962,1,0,0:0:0:0:
475,192,123962,1,0,0:0:0:0:
256,192,123962,1,0,0:0:0:0:
109,192,123962,1,0,0:0:0:0:
182,192,124092,1,0,0:0:0:0:
329,192,124092,1,0,0:0:0:0:
109,192,124222,1,0,0:0:0:0:
36,192,124222,1,0,0:0:0:0:
402,192,124222,1,0,0:0:0:0:
475,192,124222,1,0,0:0:0:0:
256,192,124222,1,0,0:0:0:0:
36,192,124353,1,0,0:0:0:0:
182,192,124353,1,0,0:0:0:0:
329,192,124353,1,0,0:0:0:0:
475,192,124483,1,0,0:0:0:0:
256,192,124483,1,0,0:0:0:0:
109,192,124483,1,0,0:0:0:0:
402,192,124483,1,0,0:0:0:0:
329,192,124614,1,0,0:0:0:0:
182,192,124614,1,0,0:0:0:0:
256,192,124744,1,0,0:0:0:0:
36,192,124744,1,0,0:0:0:0:
182,192,124744,1,0,0:0:0:0:
402,192,124744,1,0,0:0:0:0:
475,192,124875,1,0,0:0:0:0:
329,192,124875,1,0,0:0:0:0:
36,192,125005,1,0,0:0:0:0:
256,192,125005,1,0,0:0:0:0:
402,192,125005,1,0,0:0:0:0:
475,192,125005,1,0,0:0:0:0:
109,192,125005,1,0,0:0:0:0:
182,192,125135,1,0,0:0:0:0:
329,192,125135,1,0,0:0:0:0:
36,192,125135,1,0,0:0:0:0:
109,192,125266,1,0,0:0:0:0:
256,192,125266,1,0,0:0:0:0:
402,192,125266,1,0,0:0:0:0:
36,192,125266,1,0,0:0:0:0:
475,192,125266,1,0,0:0:0:0:
329,192,125396,1,0,0:0:0:0:
182,192,125396,1,0,0:0:0:0:
36,192,125527,1,0,0:0:0:0:
256,192,125527,1,0,0:0:0:0:
475,192,125527,1,0,0:0:0:0:
109,192,125527,1,0,0:0:0:0:
329,192,125657,1,0,0:0:0:0:
475,192,125657,1,0,0:0:0:0:
402,192,125657,1,0,0:0:0:0:
182,192,125788,1,0,0:0:0:0:
329,192,125788,1,0,0:0:0:0:
475,192,125788,1,0,0:0:0:0:
36,192,125788,1,0,0:0:0:0:
109,192,125918,1,0,0:0:0:0:
256,192,125918,1,0,0:0:0:0:
256,192,126048,1,0,0:0:0:0:
109,192,126048,1,0,0:0:0:0:
36,192,126048,1,0,0:0:0:0:
402,192,126048,1,0,0:0:0:0:
182,192,126179,1,0,0:0:0:0:
329,192,126179,1,0,0:0:0:0:
36,192,126309,1,0,0:0:0:0:
475,192,126309,1,0,0:0:0:0:
256,192,126309,1,0,0:0:0:0:
402,192,126309,1,0,0:0:0:0:
182,192,126440,1,0,0:0:0:0:
109,192,126440,1,0,0:0:0:0:
329,192,126440,1,0,0:0:0:0:
36,192,126570,1,0,0:0:0:0:
182,192,126570,1,0,0:0:0:0:
475,192,126570,1,0,0:0:0:0:
329,192,126570,1,0,0:0:0:0:
402,192,126701,1,0,0:0:0:0:
256,192,126701,1,0,0:0:0:0:
256,192,126831,1,0,0:0:0:0:
475,192,126831,1,0,0:0:0:0:
402,192,126831,1,0,0:0:0:0:
109,192,126831,1,0,0:0:0:0:
36,192,126962,1,0,0:0:0:0:
182,192,126962,1,0,0:0:0:0:
256,192,127092,1,0,0:0:0:0:
109,192,127092,1,0,0:0:0:0:
36,192,127092,1,0,0:0:0:0:
475,192,127092,1,0,0:0:0:0:
329,192,127222,1,0,0:0:0:0:
402,192,127222,1,0,0:0:0:0:
182,192,127222,1,0,0:0:0:0:
329,192,127353,1,0,0:0:0:0:
182,192,127353,1,0,0:0:0:0:
36,192,127353,1,0,0:0:0:0:
475,192,127353,1,0,0:0:0:0:
109,192,127353,1,0,0:0:0:0:
256,192,127483,1,0,0:0:0:0:
402,192,127483,1,0,0:0:0:0:
475,192,127614,1,0,0:0:0:0:
36,192,127614,1,0,0:0:0:0:
182,192,127614,1,0,0:0:0:0:
329,192,127614,1,0,0:0:0:0:
36,192,127744,1,0,0:0:0:0:
109,192,127744,1,0,0:0:0:0:
182,192,127744,1,0,0:0:0:0:
256,192,127875,1,0,0:0:0:0:
109,192,127875,1,0,0:0:0:0:
402,192,127875,1,0,0:0:0:0:
475,192,127875,1,0,0:0:0:0:
329,192,127875,1,0,0:0:0:0:
182,192,128005,1,0,0:0:0:0:
329,192,128005,1,0,0:0:0:0:
36,192,128005,1,0,0:0:0:0:
109,192,128135,1,0,0:0:0:0:
36,192,128135,1,0,0:0:0:0:
256,192,128135,1,0,0:0:0:0:
402,192,128135,1,0,0:0:0:0:
475,192,128135,1,0,0:0:0:0:
329,192,128266,1,0,0:0:0:0:
182,192,128266,1,0,0:0:0:0:
402,192,128266,1,0,0:0:0:0:
109,192,128396,1,0,0:0:0:0:
36,192,128396,1,0,0:0:0:0:
256,192,128396,1,0,0:0:0:0:
402,192,128396,1,0,0:0:0:0:
475,192,128396,128,0,128462:0:0:0:0:
182,192,128462,1,0,0:0:0:0:
402,192,128527,128,0,128592:0:0:0:0:
256,192,128527,1,0,0:0:0:0:
36,192,128527,1,0,0:0:0:0:
109,192,128592,1,0,0:0:0:0:
329,192,128657,128,0,128722:0:0:0:0:
182,192,128657,1,0,0:0:0:0:
36,192,128657,1,0,0:0:0:0:
475,192,128657,1,0,0:0:0:0:
109,192,128722,1,0,0:0:0:0:
256,192,128788,128,0,128853:0:0:0:0:
36,192,128788,1,0,0:0:0:0:
475,192,128788,1,0,0:0:0:0:
402,192,128853,1,0,0:0:0:0:
182,192,128918,1,0,0:0:0:0:
36,192,128918,1,0,0:0:0:0:
475,192,128918,1,0,0:0:0:0:
256,192,128962,1,0,0:0:0:0:
329,192,129005,1,0,0:0:0:0:
402,192,129048,1,0,0:0:0:0:
475,192,129048,1,0,0:0:0:0:
36,192,129048,1,0,0:0:0:0:
109,192,129092,1,0,0:0:0:0:
182,192,129135,1,0,0:0:0:0:
402,192,129179,1,0,0:0:0:0:
475,192,129179,1,0,0:0:0:0:
256,192,129179,1,0,0:0:0:0:
182,192,129244,1,0,0:0:0:0:
36,192,129244,1,0,0:0:0:0:
109,192,129244,1,0,0:0:0:0:
402,192,129309,1,0,0:0:0:0:
329,192,129309,1,0,0:0:0:0:
475,192,129309,1,0,0:0:0:0:
182,192,129375,1,0,0:0:0:0:
109,192,129375,1,0,0:0:0:0:
36,192,129375,1,0,0:0:0:0:
256,192,129440,128,0,129766:0:0:0:0:
36,192,129440,128,0,129635:0:0:0:0:
402,192,129440,1,0,0:0:0:0:
475,192,129440,128,0,129505:0:0:0:0:
109,192,129440,128,0,129505:0:0:0:0:
329,192,129505,1,0,0:0:0:0:
182,192,129570,1,0,0:0:0:0:
109,192,129570,1,0,0:0:0:0:
402,192,129635,1,0,0:0:0:0:
36,192,129701,128,0,129766:0:0:0:0:
182,192,129701,128,0,129766:0:0:0:0:
475,192,129701,128,0,130027:0:0:0:0:
182,192,129831,1,0,0:0:0:0:
329,192,129831,1,0,0:0:0:0:
36,192,129831,1,0,0:0:0:0:
256,192,129962,128,0,130027:0:0:0:0:
36,192,129962,128,0,130288:0:0:0:0:
402,192,129962,128,0,130027:0:0:0:0:
256,192,130092,1,0,0:0:0:0:
109,192,130092,1,0,0:0:0:0:
402,192,130092,1,0,0:0:0:0:
182,192,130222,128,0,130288:0:0:0:0:
402,192,130222,128,0,130548:0:0:0:0:
475,192,130222,128,0,130288:0:0:0:0:
329,192,130288,1,0,0:0:0:0:
182,192,130353,1,0,0:0:0:0:
36,192,130353,1,0,0:0:0:0:
475,192,130353,1,0,0:0:0:0:
256,192,130418,1,0,0:0:0:0:
109,192,130483,128,0,130809:0:0:0:0:
329,192,130483,128,0,130548:0:0:0:0:
36,192,130483,128,0,130548:0:0:0:0:
475,192,130614,1,0,0:0:0:0:
329,192,130614,1,0,0:0:0:0:
182,192,130614,1,0,0:0:0:0:
402,192,130744,128,0,131070:0:0:0:0:
256,192,130744,128,0,130809:0:0:0:0:
36,192,130744,128,0,130809:0:0:0:0:
182,192,130875,1,0,0:0:0:0:
329,192,130875,1,0,0:0:0:0:
36,192,130875,1,0,0:0:0:0:
36,192,131005,128,0,131331:0:0:0:0:
256,192,131005,128,0,131070:0:0:0:0:
475,192,131005,128,0,131070:0:0:0:0:
256,192,131135,1,0,0:0:0:0:
109,192,131135,1,0,0:0:0:0:
402,192,131135,1,0,0:0:0:0:
402,192,131266,128,0,131483:0:0:0:0:
475,192,131266,1,0,0:0:0:0:
182,192,131266,1,0,0:0:0:0:
109,192,131266,1,0,0:0:0:0:
329,192,131309,128,0,131440:0:0:0:0:
256,192,131331,128,0,131396:0:0:0:0:
109,192,131396,128,0,131483:0:0:0:0:
182,192,131440,128,0,131483:0:0:0:0:
109,192,131527,1,0,0:0:0:0:
36,192,131527,1,0,0:0:0:0:
329,192,131527,1,0,0:0:0:0:
475,192,131527,1,0,0:0:0:0:
256,192,131527,1,0,0:0:0:0:
256,192,131657,1,0,0:0:0:0:
402,192,131657,1,0,0:0:0:0:
475,192,131657,1,0,0:0:0:0:
329,192,131788,1,0,0:0:0:0:
182,192,131788,1,0,0:0:0:0:
36,192,131788,1,0,0:0:0:0:
475,192,131788,1,0,0:0:0:0:
182,192,131918,1,0,0:0:0:0:
36,192,131918,1,0,0:0:0:0:
256,192,131918,1,0,0:0:0:0:
402,192,131918,1,0,0:0:0:0:
475,192,131918,1,0,0:0:0:0:
109,192,132048,1,0,0:0:0:0:
36,192,132048,1,0,0:0:0:0:
256,192,132048,1,0,0:0:0:0:
36,192,132179,1,0,0:0:0:0:
329,192,132179,1,0,0:0:0:0:
182,192,132179,1,0,0:0:0:0:
475,192,132179,1,0,0:0:0:0:
256,192,132309,1,0,0:0:0:0:
402,192,132309,1,0,0:0:0:0:
475,192,132309,1,0,0:0:0:0:
109,192,132309,1,0,0:0:0:0:
329,192,132309,1,0,0:0:0:0:
109,192,132440,1,0,0:0:0:0:
36,192,132440,1,0,0:0:0:0:
256,192,132440,1,0,0:0:0:0:
402,192,132440,1,0,0:0:0:0:
256,192,132570,1,0,0:0:0:0:
36,192,132570,1,0,0:0:0:0:
402,192,132570,1,0,0:0:0:0:
475,192,132570,1,0,0:0:0:0:
109,192,132570,1,0,0:0:0:0:
402,192,132701,1,0,0:0:0:0:
329,192,132701,1,0,0:0:0:0:
182,192,132701,1,0,0:0:0:0:
256,192,132831,1,0,0:0:0:0:
329,192,132831,1,0,0:0:0:0:
475,192,132831,1,0,0:0:0:0:
109,192,132831,1,0,0:0:0:0:
256,192,132962,1,0,0:0:0:0:
36,192,132962,1,0,0:0:0:0:
402,192,132962,1,0,0:0:0:0:
475,192,132962,1,0,0:0:0:0:
109,192,132962,1,0,0:0:0:0:
182,192,133027,1,0,0:0:0:0:
109,192,133092,1,0,0:0:0:0:
256,192,133157,1,0,0:0:0:0:
182,192,133222,1,0,0:0:0:0:
329,192,133288,1,0,0:0:0:0:
475,192,133353,1,0,0:0:0:0:
109,192,133353,1,0,0:0:0:0:
36,192,133353,1,0,0:0:0:0:
256,192,133353,1,0,0:0:0:0:
402,192,133396,1,0,0:0:0:0:
329,192,133440,1,0,0:0:0:0:
256,192,133483,1,0,0:0:0:0:
182,192,133527,1,0,0:0:0:0:
109,192,133570,1,0,0:0:0:0:
402,192,133614,128,0,133940:0:0:0:0:
475,192,133614,128,0,133679:0:0:0:0:
36,192,133614,128,0,133809:0:0:0:0:
329,192,133614,128,0,133679:0:0:0:0:
182,192,133679,1,0,0:0:0:0:
256,192,133744,1,0,0:0:0:0:
329,192,133744,1,0,0:0:0:0:
109,192,133809,1,0,0:0:0:0:
256,192,133875,128,0,134201:0:0:0:0:
475,192,133875,128,0,133940:0:0:0:0:
182,192,133875,128,0,133940:0:0:0:0:
36,192,133875,128,0,134070:0:0:0:0:
182,192,134005,1,0,0:0:0:0:
402,192,134005,1,0,0:0:0:0:
475,192,134005,1,0,0:0:0:0:
329,192,134135,128,0,134201:0:0:0:0:
475,192,134135,128,0,134462:0:0:0:0:
36,192,134135,128,0,134201:0:0:0:0:
109,192,134135,128,0,134331:0:0:0:0:
256,192,134266,1,0,0:0:0:0:
402,192,134266,1,0,0:0:0:0:
182,192,134266,1,0,0:0:0:0:
109,192,134396,128,0,134462:0:0:0:0:
402,192,134396,128,0,134722:0:0:0:0:
182,192,134396,128,0,134592:0:0:0:0:
36,192,134396,128,0,134462:0:0:0:0:
329,192,134462,1,0,0:0:0:0:
109,192,134527,1,0,0:0:0:0:
36,192,134527,1,0,0:0:0:0:
475,192,134527,1,0,0:0:0:0:
256,192,134592,1,0,0:0:0:0:
329,192,134657,128,0,134983:0:0:0:0:
182,192,134657,128,0,134722:0:0:0:0:
475,192,134657,128,0,134722:0:0:0:0:
36,192,134657,128,0,134853:0:0:0:0:
256,192,134788,1,0,0:0:0:0:
402,192,134788,1,0,0:0:0:0:
109,192,134788,1,0,0:0:0:0:
109,192,134918,128,0,135244:0:0:0:0:
256,192,134918,128,0,134983:0:0:0:0:
36,192,134918,128,0,134983:0:0:0:0:
475,192,134918,128,0,135114:0:0:0:0:
329,192,135048,1,0,0:0:0:0:
182,192,135048,1,0,0:0:0:0:
402,192,135048,1,0,0:0:0:0:
475,192,135179,128,0,135505:0:0:0:0:
256,192,135179,128,0,135244:0:0:0:0:
36,192,135179,128,0,135244:0:0:0:0:
402,192,135179,128,0,135375:0:0:0:0:
256,192,135309,1,0,0:0:0:0:
109,192,135309,1,0,0:0:0:0:
36,192,135309,1,0,0:0:0:0:
36,192,135440,128,0,135657:0:0:0:0:
402,192,135440,1,0,0:0:0:0:
329,192,135440,1,0,0:0:0:0:
109,192,135483,128,0,135614:0:0:0:0:
182,192,135505,128,0,135570:0:0:0:0:
329,192,135570,128,0,135657:0:0:0:0:
256,192,135614,128,0,135657:0:0:0:0:
109,192,135701,1,0,0:0:0:0:
475,192,135701,1,0,0:0:0:0:
182,192,135701,1,0,0:0:0:0:
36,192,135701,1,0,0:0:0:0:
402,192,135701,1,0,0:0:0:0:
256,192,135831,1,0,0:0:0:0:
109,192,135831,1,0,0:0:0:0:
36,192,135831,1,0,0:0:0:0:
182,192,135962,1,0,0:0:0:0:
329,192,135962,1,0,0:0:0:0:
475,192,135962,1,0,0:0:0:0:
36,192,135962,1,0,0:0:0:0:
329,192,136092,1,0,0:0:0:0:
475,192,136092,1,0,0:0:0:0:
256,192,136092,1,0,0:0:0:0:
109,192,136092,1,0,0:0:0:0:
36,192,136092,1,0,0:0:0:0:
402,192,136222,1,0,0:0:0:0:
475,192,136222,1,0,0:0:0:0:
256,192,136222,1,0,0:0:0:0:
329,192,136353,1,0,0:0:0:0:
475,192,136353,1,0,0:0:0:0:
182,192,136353,1,0,0:0:0:0:
36,192,136353,1,0,0:0:0:0:
109,192,136483,1,0,0:0:0:0:
36,192,136483,1,0,0:0:0:0:
182,192,136483,1,0,0:0:0:0:
256,192,136483,1,0,0:0:0:0:
402,192,136483,1,0,0:0:0:0:
475,192,136614,1,0,0:0:0:0:
402,192,136614,1,0,0:0:0:0:
256,192,136614,1,0,0:0:0:0:
109,192,136614,1,0,0:0:0:0:
256,192,136744,1,0,0:0:0:0:
475,192,136744,1,0,0:0:0:0:
109,192,136744,1,0,0:0:0:0:
36,192,136744,1,0,0:0:0:0:
402,192,136744,1,0,0:0:0:0:
109,192,136875,1,0,0:0:0:0:
182,192,136875,1,0,0:0:0:0:
329,192,136875,1,0,0:0:0:0:
256,192,137005,1,0,0:0:0:0:
182,192,137005,1,0,0:0:0:0:
36,192,137005,1,0,0:0:0:0:
402,192,137005,1,0,0:0:0:0:
402,192,137135,1,0,0:0:0:0:
256,192,137135,1,0,0:0:0:0:
475,192,137135,1,0,0:0:0:0:
109,192,137135,1,0,0:0:0:0:
36,192,137135,1,0,0:0:0:0:
256,192,137266,1,0,0:0:0:0:
475,192,137266,1,0,0:0:0:0:
36,192,137266,1,0,0:0:0:0:
329,192,137309,1,0,0:0:0:0:
402,192,137353,1,0,0:0:0:0:
182,192,137396,1,0,0:0:0:0:
256,192,137440,1,0,0:0:0:0:
329,192,137483,1,0,0:0:0:0:
109,192,137527,1,0,0:0:0:0:
182,192,137570,1,0,0:0:0:0:
256,192,137614,1,0,0:0:0:0:
36,192,137657,1,0,0:0:0:0:
109,192,137701,1,0,0:0:0:0:
182,192,137744,1,0,0:0:0:0:
109,192,137788,128,0,138048:0:0:0:0:
256,192,137788,128,0,137853:0:0:0:0:
475,192,137788,128,0,137853:0:0:0:0:
402,192,137788,128,0,137853:0:0:0:0:
36,192,137788,128,0,137853:0:0:0:0:
402,192,137918,1,0,0:0:0:0:
475,192,137918,1,0,0:0:0:0:
182,192,137918,128,0,138048:0:0:0:0:
329,192,137983,128,0,138048:0:0:0:0:
475,192,138048,128,0,138309:0:0:0:0:
256,192,138048,128,0,138114:0:0:0:0:
402,192,138048,128,0,138114:0:0:0:0:
36,192,138048,128,0,138114:0:0:0:0:
109,192,138179,1,0,0:0:0:0:
36,192,138179,1,0,0:0:0:0:
329,192,138179,128,0,138309:0:0:0:0:
182,192,138244,128,0,138309:0:0:0:0:
256,192,138309,128,0,138505:0:0:0:0:
36,192,138309,128,0,138375:0:0:0:0:
109,192,138309,128,0,138375:0:0:0:0:
402,192,138309,128,0,138375:0:0:0:0:
475,192,138440,1,0,0:0:0:0:
109,192,138440,1,0,0:0:0:0:
402,192,138440,128,0,138570:0:0:0:0:
329,192,138505,128,0,138570:0:0:0:0:
36,192,138570,128,0,138766:0:0:0:0:
182,192,138570,128,0,138635:0:0:0:0:
475,192,138570,128,0,138635:0:0:0:0:
109,192,138570,128,0,138635:0:0:0:0:
402,192,138701,1,0,0:0:0:0:
475,192,138701,1,0,0:0:0:0:
182,192,138701,128,0,138831:0:0:0:0:
256,192,138766,128,0,138831:0:0:0:0:
329,192,138831,128,0,139027:0:0:0:0:
109,192,138831,128,0,138896:0:0:0:0:
402,192,138831,128,0,138896:0:0:0:0:
475,192,138831,128,0,138896:0:0:0:0:
109,192,138962,1,0,0:0:0:0:
36,192,138962,1,0,0:0:0:0:
475,192,138962,128,0,139092:0:0:0:0:
182,192,139027,128,0,139092:0:0:0:0:
109,192,139092,128,0,139288:0:0:0:0:
256,192,139092,128,0,139157:0:0:0:0:
36,192,139092,128,0,139157:0:0:0:0:
402,192,139092,128,0,139157:0:0:0:0:
402,192,139222,1,0,0:0:0:0:
475,192,139222,1,0,0:0:0:0:
329,192,139222,128,0,139353:0:0:0:0:
182,192,139288,128,0,139353:0:0:0:0:
475,192,139353,128,0,139548:0:0:0:0:
402,192,139353,128,0,139418:0:0:0:0:
256,192,139353,128,0,139418:0:0:0:0:
36,192,139353,128,0,139418:0:0:0:0:
36,192,139483,128,0,139614:0:0:0:0:
182,192,139483,1,0,0:0:0:0:
329,192,139483,1,0,0:0:0:0:
256,192,139548,128,0,139614:0:0:0:0:
402,192,139614,128,0,139809:0:0:0:0:
109,192,139614,128,0,139679:0:0:0:0:
329,192,139614,128,0,139679:0:0:0:0:
475,192,139614,128,0,139679:0:0:0:0:
36,192,139744,128,0,139875:0:0:0:0:
256,192,139744,1,0,0:0:0:0:
475,192,139744,1,0,0:0:0:0:
182,192,139809,128,0,139875:0:0:0:0:
109,192,139875,128,0,140070:0:0:0:0:
475,192,139875,128,0,139940:0:0:0:0:
256,192,139875,128,0,139940:0:0:0:0:
329,192,139875,1,0,0:0:0:0:
475,192,140005,1,0,0:0:0:0:
182,192,140005,1,0,0:0:0:0:
329,192,140005,128,0,140070:0:0:0:0:
256,192,140070,128,0,140135:0:0:0:0:
36,192,140135,128,0,140331:0:0:0:0:
182,192,140135,128,0,140201:0:0:0:0:
402,192,140135,128,0,140201:0:0:0:0:
475,192,140135,1,0,0:0:0:0:
256,192,140266,128,0,140331:0:0:0:0:
329,192,140266,1,0,0:0:0:0:
475,192,140266,1,0,0:0:0:0:
182,192,140331,128,0,140396:0:0:0:0:
109,192,140396,128,0,140462:0:0:0:0:
402,192,140396,128,0,140592:0:0:0:0:
329,192,140396,1,0,0:0:0:0:
36,192,140396,1,0,0:0:0:0:
36,192,140527,1,0,0:0:0:0:
182,192,140527,128,0,140592:0:0:0:0:
329,192,140527,1,0,0:0:0:0:
256,192,140592,128,0,140657:0:0:0:0:
475,192,140657,128,0,140853:0:0:0:0:
109,192,140657,128,0,140722:0:0:0:0:
36,192,140657,1,0,0:0:0:0:
402,192,140657,1,0,0:0:0:0:
329,192,140788,128,0,140853:0:0:0:0:
182,192,140788,1,0,0:0:0:0:
109,192,140788,1,0,0:0:0:0:
256,192,140853,128,0,140918:0:0:0:0:
36,192,140918,1,0,0:0:0:0:
475,192,140918,1,0,0:0:0:0:
109,192,140918,128,0,141114:0:0:0:0:
402,192,140918,1,0,0:0:0:0:
475,192,141048,1,0,0:0:0:0:
182,192,141048,1,0,0:0:0:0:
329,192,141048,128,0,141114:0:0:0:0:
256,192,141114,1,0,0:0:0:0:
402,192,141179,128,0,141375:0:0:0:0:
36,192,141179,1,0,0:0:0:0:
475,192,141179,1,0,0:0:0:0:
109,192,141179,1,0,0:0:0:0:
182,192,141244,1,0,0:0:0:0:
475,192,141309,1,0,0:0:0:0:
329,192,141309,1,0,0:0:0:0:
109,192,141309,128,0,141375:0:0:0:0:
256,192,141375,1,0,0:0:0:0:
36,192,141440,128,0,141635:0:0:0:0:
182,192,141440,1,0,0:0:0:0:
109,192,141440,1,0,0:0:0:0:
402,192,141440,1,0,0:0:0:0:
475,192,141570,1,0,0:0:0:0:
402,192,141570,1,0,0:0:0:0:
182,192,141570,128,0,141635:0:0:0:0:
329,192,141635,1,0,0:0:0:0:
475,192,141701,128,0,141896:0:0:0:0:
109,192,141701,1,0,0:0:0:0:
36,192,141701,1,0,0:0:0:0:
256,192,141701,1,0,0:0:0:0:
36,192,141831,1,0,0:0:0:0:
182,192,141831,1,0,0:0:0:0:
329,192,141831,128,0,141896:0:0:0:0:
256,192,141896,1,0,0:0:0:0:
329,192,141962,1,0,0:0:0:0:
475,192,141962,1,0,0:0:0:0:
109,192,141962,1,0,0:0:0:0:
36,192,141962,128,0,142027:0:0:0:0:
256,192,142027,1,0,0:0:0:0:
402,192,142092,1,0,0:0:0:0:
109,192,142092,1,0,0:0:0:0:
182,192,142157,1,0,0:0:0:0:
329,192,142222,1,0,0:0:0:0:
36,192,142222,1,0,0:0:0:0:
475,192,142222,128,0,142288:0:0:0:0:
256,192,142288,1,0,0:0:0:0:
182,192,142353,1,0,0:0:0:0:
402,192,142353,1,0,0:0:0:0:
329,192,142418,1,0,0:0:0:0:
36,192,142483,1,0,0:0:0:0:
475,192,142483,1,0,0:0:0:0:
109,192,142483,128,0,142548:0:0:0:0:
256,192,142483,1,0,0:0:0:0:
402,192,142548,1,0,0:0:0:0:
182,192,142614,1,0,0:0:0:0:
475,192,142614,1,0,0:0:0:0:
256,192,142679,1,0,0:0:0:0:
36,192,142744,1,0,0:0:0:0:
475,192,142744,1,0,0:0:0:0:
329,192,142744,128,0,142809:0:0:0:0:
182,192,142809,1,0,0:0:0:0:
109,192,142875,1,0,0:0:0:0:
402,192,142875,1,0,0:0:0:0:
329,192,142940,1,0,0:0:0:0:
256,192,143005,1,0,0:0:0:0:
109,192,143005,1,0,0:0:0:0:
475,192,143005,1,0,0:0:0:0:
36,192,143005,128,0,143201:0:0:0:0:
402,192,143070,1,0,0:0:0:0:
182,192,143070,1,0,0:0:0:0:
329,192,143135,1,0,0:0:0:0:
109,192,143135,1,0,0:0:0:0:
256,192,143201,1,0,0:0:0:0:
475,192,143266,1,0,0:0:0:0:
36,192,143266,1,0,0:0:0:0:
402,192,143266,128,0,143462:0:0:0:0:
109,192,143331,1,0,0:0:0:0:
329,192,143331,1,0,0:0:0:0:
182,192,143396,1,0,0:0:0:0:
475,192,143396,1,0,0:0:0:0:
256,192,143462,1,0,0:0:0:0:
36,192,143527,1,0,0:0:0:0:
402,192,143527,1,0,0:0:0:0:
109,192,143527,128,0,143722:0:0:0:0:
475,192,143527,1,0,0:0:0:0:
329,192,143592,1,0,0:0:0:0:
182,192,143592,1,0,0:0:0:0:
256,192,143657,1,0,0:0:0:0:
475,192,143657,1,0,0:0:0:0:
402,192,143722,1,0,0:0:0:0:
36,192,143788,1,0,0:0:0:0:
256,192,143788,128,0,143983:0:0:0:0:
329,192,143788,1,0,0:0:0:0:
402,192,143853,1,0,0:0:0:0:
109,192,143853,1,0,0:0:0:0:
475,192,143918,1,0,0:0:0:0:
182,192,143918,1,0,0:0:0:0:
329,192,143983,1,0,0:0:0:0:
475,192,144048,128,0,144114:0:0:0:0:
109,192,144048,128,0,144244:0:0:0:0:
256,192,144048,1,0,0:0:0:0:
36,192,144048,1,0,0:0:0:0:
402,192,144114,128,0,144179:0:0:0:0:
182,192,144114,128,0,144179:0:0:0:0:
329,192,144179,128,0,144244:0:0:0:0:
36,192,144179,128,0,144244:0:0:0:0:
475,192,144244,128,0,144505:0:0:0:0:
256,192,144244,128,0,144309:0:0:0:0:
36,192,144309,128,0,144505:0:0:0:0:
182,192,144309,128,0,144375:0:0:0:0:
109,192,144309,128,0,144440:0:0:0:0:
402,192,144309,128,0,144505:0:0:0:0:
329,192,144375,128,0,144505:0:0:0:0:
256,192,144440,128,0,144505:0:0:0:0:
182,192,144505,128,0,144570:0:0:0:0:
475,192,144570,128,0,144983:0:0:0:0:
36,192,144570,128,0,144722:0:0:0:0:
109,192,144570,128,0,144679:0:0:0:0:
256,192,144570,128,0,144635:0:0:0:0:
402,192,144614,128,0,144940:0:0:0:0:
329,192,144657,128,0,144896:0:0:0:0:
256,192,144701,128,0,144853:0:0:0:0:
182,192,144744,128,0,144809:0:0:0:0:
36,192,144788,128,0,144875:0:0:0:0:
109,192,144831,128,0,144918:0:0:0:0:
182,192,144875,128,0,144962:0:0:0:0:
256,192,144918,128,0,145005:0:0:0:0:
329,192,144962,128,0,145048:0:0:0:0:
402,192,145005,128,0,145092:0:0:0:0:
109,192,145092,1,0,0:0:0:0:
182,192,145125,1,0,0:0:0:0:
109,192,145222,1,0,0:0:0:0:
182,192,145255,1,0,0:0:0:0:
109,192,145353,1,0,0:0:0:0:
182,192,145385,1,0,0:0:0:0:
475,192,145483,1,0,0:0:0:0:
402,192,145483,1,0,0:0:0:0:
256,192,145548,1,0,0:0:0:0:
329,192,145548,1,0,0:0:0:0:
109,192,145614,1,0,0:0:0:0:
36,192,145614,1,0,0:0:0:0:
402,192,145679,1,0,0:0:0:0:
475,192,145679,1,0,0:0:0:0:
109,192,145744,1,0,0:0:0:0:
182,192,145744,1,0,0:0:0:0:
329,192,145809,1,0,0:0:0:0:
402,192,145809,1,0,0:0:0:0:
182,192,145875,1,0,0:0:0:0:
36,192,145875,1,0,0:0:0:0:
475,192,145875,1,0,0:0:0:0:
109,192,145875,1,0,0:0:0:0:
402,192,145918,1,0,0:0:0:0:
329,192,145962,1,0,0:0:0:0:
256,192,146005,1,0,0:0:0:0:
182,192,146048,1,0,0:0:0:0:
109,192,146092,1,0,0:0:0:0:
256,192,146135,128,0,146201:0:0:0:0:
36,192,146135,128,0,146201:0:0:0:0:
475,192,146135,128,0,146201:0:0:0:0:
329,192,146135,128,0,146201:0:0:0:0:
182,192,146135,128,0,146201:0:0:0:0:
36,192,146266,128,0,146331:0:0:0:0:
109,192,146266,128,0,146331:0:0:0:0:
182,192,146266,128,0,146331:0:0:0:0:
329,192,146266,128,0,146331:0:0:0:0:
402,192,146266,128,0,146331:0:0:0:0:
475,192,146266,128,0,146331:0:0:0:0:
329,192,146396,128,0,146853:0:0:0:0:
36,192,146396,128,0,146592:0:0:0:0:
475,192,146396,128,0,146483:0:0:0:0:
402,192,146396,128,0,146440:0:0:0:0:
182,192,146396,1,0,0:0:0:0:
109,192,146440,128,0,146592:0:0:0:0:
256,192,146483,128,0,146592:0:0:0:0:
402,192,146527,128,0,146592:0:0:0:0:
182,192,146657,128,0,147114:0:0:0:0:
475,192,146657,128,0,146853:0:0:0:0:
36,192,146657,128,0,146744:0:0:0:0:
109,192,146657,128,0,146701:0:0:0:0:
402,192,146701,128,0,146853:0:0:0:0:
256,192,146744,128,0,146853:0:0:0:0:
109,192,146788,128,0,146853:0:0:0:0:
402,192,146918,128,0,147375:0:0:0:0:
475,192,146918,128,0,147114:0:0:0:0:
36,192,146918,128,0,146962:0:0:0:0:
109,192,146918,128,0,147005:0:0:0:0:
256,192,146962,128,0,147114:0:0:0:0:
329,192,147005,128,0,147114:0:0:0:0:
36,192,147048,128,0,147114:0:0:0:0:
109,192,147179,128,0,147635:0:0:0:0:
36,192,147179,128,0,147375:0:0:0:0:
182,192,147179,128,0,147222:0:0:0:0:
475,192,147179,128,0,147266:0:0:0:0:
329,192,147222,128,0,147375:0:0:0:0:
256,192,147266,128,0,147375:0:0:0:0:
182,192,147309,128,0,147375:0:0:0:0:
329,192,147440,128,0,147896:0:0:0:0:
475,192,147440,128,0,147635:0:0:0:0:
402,192,147440,128,0,147527:0:0:0:0:
256,192,147440,128,0,147483:0:0:0:0:
36,192,147483,128,0,147635:0:0:0:0:
182,192,147527,128,0,147635:0:0:0:0:
256,192,147570,128,0,147635:0:0:0:0:
182,192,147701,128,0,148157:0:0:0:0:
475,192,147701,128,0,147896:0:0:0:0:
109,192,147701,128,0,147788:0:0:0:0:
36,192,147701,128,0,147744:0:0:0:0:
256,192,147744,128,0,147896:0:0:0:0:
402,192,147788,128,0,147896:0:0:0:0:
36,192,147831,128,0,147896:0:0:0:0:
475,192,147962,128,0,148418:0:0:0:0:
36,192,147962,128,0,148157:0:0:0:0:
109,192,147962,128,0,148048:0:0:0:0:
256,192,147962,128,0,148005:0:0:0:0:
402,192,148005,128,0,148157:0:0:0:0:
329,192,148048,128,0,148157:0:0:0:0:
256,192,148092,128,0,148157:0:0:0:0:
36,192,148222,128,0,148679:0:0:0:0:
256,192,148222,128,0,148418:0:0:0:0:
329,192,148222,128,0,148266:0:0:0:0:
402,192,148222,128,0,148309:0:0:0:0:
109,192,148266,128,0,148418:0:0:0:0:
182,192,148309,128,0,148418:0:0:0:0:
329,192,148353,128,0,148418:0:0:0:0:
402,192,148483,128,0,148940:0:0:0:0:
475,192,148483,128,0,148679:0:0:0:0:
109,192,148483,128,0,148570:0:0:0:0:
182,192,148483,128,0,148527:0:0:0:0:
329,192,148527,128,0,148679:0:0:0:0:
256,192,148570,128,0,148679:0:0:0:0:
182,192,148614,128,0,148679:0:0:0:0:
109,192,148744,128,0,149201:0:0:0:0:
36,192,148744,128,0,148940:0:0:0:0:
256,192,148744,128,0,148788:0:0:0:0:
182,192,148744,128,0,148831:0:0:0:0:
475,192,148788,128,0,148940:0:0:0:0:
329,192,148831,128,0,148940:0:0:0:0:
256,192,148875,128,0,148940:0:0:0:0:
329,192,149005,128,0,149462:0:0:0:0:
36,192,149005,128,0,149201:0:0:0:0:
402,192,149005,128,0,149048:0:0:0:0:
475,192,149005,128,0,149092:0:0:0:0:
182,192,149048,128,0,149201:0:0:0:0:
256,192,149092,128,0,149201:0:0:0:0:
402,192,149135,128,0,149201:0:0:0:0:
36,192,149266,128,0,149722:0:0:0:0:
475,192,149266,128,0,149462:0:0:0:0:
182,192,149266,128,0,149309:0:0:0:0:
109,192,149266,128,0,149353:0:0:0:0:
402,192,149309,128,0,149462:0:0:0:0:
256,192,149353,128,0,149462:0:0:0:0:
182,192,149396,128,0,149462:0:0:0:0:
402,192,149527,128,0,149983:0:0:0:0:
475,192,149527,128,0,149722:0:0:0:0:
329,192,149527,128,0,149614:0:0:0:0:
256,192,149527,128,0,149570:0:0:0:0:
109,192,149570,128,0,149722:0:0:0:0:
182,192,149614,128,0,149722:0:0:0:0:
256,192,149657,128,0,149722:0:0:0:0:
182,192,149788,128,0,150244:0:0:0:0:
109,192,149788,128,0,149983:0:0:0:0:
36,192,149788,128,0,149875:0:0:0:0:
329,192,149788,128,0,149831:0:0:0:0:
475,192,149831,128,0,149983:0:0:0:0:
256,192,149875,128,0,149983:0:0:0:0:
329,192,149918,128,0,149983:0:0:0:0:
475,192,150048,128,0,150244:0:0:0:0:
36,192,150048,128,0,150244:0:0:0:0:
109,192,150048,128,0,150135:0:0:0:0:
256,192,150048,128,0,150092:0:0:0:0:
402,192,150092,128,0,150244:0:0:0:0:
329,192,150135,128,0,150244:0:0:0:0:
256,192,150179,128,0,150244:0:0:0:0:
109,192,150309,1,0,0:0:0:0:
36,192,150309,1,0,0:0:0:0:
402,192,150309,1,0,0:0:0:0:
475,192,150309,1,0,0:0:0:0:
256,192,150309,1,0,0:0:0:0:
182,192,150375,1,0,0:0:0:0:
109,192,150440,1,0,0:0:0:0:
329,192,150440,1,0,0:0:0:0:
256,192,150505,1,0,0:0:0:0:
182,192,150570,1,0,0:0:0:0:
402,192,150570,1,0,0:0:0:0:
475,192,150570,1,0,0:0:0:0:
36,192,150570,1,0,0:0:0:0:
109,192,150570,1,0,0:0:0:0:
329,192,150635,1,0,0:0:0:0:
109,192,150701,1,0,0:0:0:0:
182,192,150701,1,0,0:0:0:0:
256,192,150701,1,0,0:0:0:0:
402,192,150766,1,0,0:0:0:0:
329,192,150831,1,0,0:0:0:0:
256,192,150831,1,0,0:0:0:0:
182,192,150831,1,0,0:0:0:0:
36,192,150831,1,0,0:0:0:0:
475,192,150896,1,0,0:0:0:0:
182,192,150962,1,0,0:0:0:0:
402,192,150962,1,0,0:0:0:0:
256,192,151027,1,0,0:0:0:0:
329,192,151092,1,0,0:0:0:0:
402,192,151092,1,0,0:0:0:0:
475,192,151092,1,0,0:0:0:0:
109,192,151092,1,0,0:0:0:0:
36,192,151092,1,0,0:0:0:0:
182,192,151157,1,0,0:0:0:0:
256,192,151222,1,0,0:0:0:0:
329,192,151222,1,0,0:0:0:0:
402,192,151222,1,0,0:0:0:0:
109,192,151288,1,0,0:0:0:0:
182,192,151353,1,0,0:0:0:0:
256,192,151353,1,0,0:0:0:0:
329,192,151353,1,0,0:0:0:0:
475,192,151353,1,0,0:0:0:0:
36,192,151418,1,0,0:0:0:0:
109,192,151483,1,0,0:0:0:0:
402,192,151483,1,0,0:0:0:0:
329,192,151548,1,0,0:0:0:0:
256,192,151614,1,0,0:0:0:0:
182,192,151614,1,0,0:0:0:0:
109,192,151614,1,0,0:0:0:0:
36,192,151614,1,0,0:0:0:0:
475,192,151614,1,0,0:0:0:0:
402,192,151679,1,0,0:0:0:0:
329,192,151744,1,0,0:0:0:0:
256,192,151744,1,0,0:0:0:0:
182,192,151744,1,0,0:0:0:0:
109,192,151809,1,0,0:0:0:0:
256,192,151875,1,0,0:0:0:0:
329,192,151875,1,0,0:0:0:0:
402,192,151875,1,0,0:0:0:0:
475,192,151875,1,0,0:0:0:0:
36,192,151875,1,0,0:0:0:0:
109,192,151940,1,0,0:0:0:0:
256,192,152005,1,0,0:0:0:0:
182,192,152005,1,0,0:0:0:0:
329,192,152005,1,0,0:0:0:0:
402,192,152070,1,0,0:0:0:0:
182,192,152135,1,0,0:0:0:0:
109,192,152135,1,0,0:0:0:0:
36,192,152135,1,0,0:0:0:0:
475,192,152135,1,0,0:0:0:0:
329,192,152201,1,0,0:0:0:0:
256,192,152266,1,0,0:0:0:0:
182,192,152266,1,0,0:0:0:0:
109,192,152266,1,0,0:0:0:0:
402,192,152331,1,0,0:0:0:0:
36,192,152396,1,0,0:0:0:0:
256,192,152396,1,0,0:0:0:0:
329,192,152396,1,0,0:0:0:0:
182,192,152396,1,0,0:0:0:0:
475,192,152462,1,0,0:0:0:0:
402,192,152527,1,0,0:0:0:0:
109,192,152527,1,0,0:0:0:0:
182,192,152592,1,0,0:0:0:0:
256,192,152657,1,0,0:0:0:0:
329,192,152657,1,0,0:0:0:0:
475,192,152657,1,0,0:0:0:0:
402,192,152657,1,0,0:0:0:0:
36,192,152657,1,0,0:0:0:0:
109,192,152722,1,0,0:0:0:0:
182,192,152788,1,0,0:0:0:0:
256,192,152788,1,0,0:0:0:0:
329,192,152788,1,0,0:0:0:0:
402,192,152853,1,0,0:0:0:0:
256,192,152918,1,0,0:0:0:0:
182,192,152918,1,0,0:0:0:0:
109,192,152918,1,0,0:0:0:0:
36,192,152918,1,0,0:0:0:0:
475,192,152918,1,0,0:0:0:0:
329,192,152983,1,0,0:0:0:0:
402,192,153048,1,0,0:0:0:0:
36,192,153048,1,0,0:0:0:0:
109,192,153114,1,0,0:0:0:0:
256,192,153179,1,0,0:0:0:0:
475,192,153179,1,0,0:0:0:0:
182,192,153179,1,0,0:0:0:0:
329,192,153179,1,0,0:0:0:0:
36,192,153244,1,0,0:0:0:0:
109,192,153309,1,0,0:0:0:0:
182,192,153309,1,0,0:0:0:0:
256,192,153309,1,0,0:0:0:0:
329,192,153375,1,0,0:0:0:0:
182,192,153440,1,0,0:0:0:0:
109,192,153440,1,0,0:0:0:0:
36,192,153440,1,0,0:0:0:0:
475,192,153440,1,0,0:0:0:0:
402,192,153440,1,0,0:0:0:0:
256,192,153505,1,0,0:0:0:0:
329,192,153570,1,0,0:0:0:0:
36,192,153570,1,0,0:0:0:0:
109,192,153635,1,0,0:0:0:0:
329,192,153701,1,0,0:0:0:0:
402,192,153701,1,0,0:0:0:0:
475,192,153701,1,0,0:0:0:0:
36,192,153701,1,0,0:0:0:0:
256,192,153701,1,0,0:0:0:0:
182,192,153766,1,0,0:0:0:0:
329,192,153831,1,0,0:0:0:0:
402,192,153831,1,0,0:0:0:0:
475,192,153831,1,0,0:0:0:0:
109,192,153896,1,0,0:0:0:0:
256,192,153962,1,0,0:0:0:0:
36,192,153962,1,0,0:0:0:0:
475,192,153962,1,0,0:0:0:0:
182,192,153962,1,0,0:0:0:0:
402,192,154005,1,0,0:0:0:0:
329,192,154048,1,0,0:0:0:0:
109,192,154092,1,0,0:0:0:0:
182,192,154092,1,0,0:0:0:0:
36,192,154092,1,0,0:0:0:0:
475,192,154092,1,0,0:0:0:0:
256,192,154157,1,0,0:0:0:0:
329,192,154222,1,0,0:0:0:0:
182,192,154222,1,0,0:0:0:0:
36,192,154222,1,0,0:0:0:0:
402,192,154222,1,0,0:0:0:0:
475,192,154222,1,0,0:0:0:0:
109,192,154353,1,0,0:0:0:0:
256,192,154353,1,0,0:0:0:0:
402,192,154353,1,0,0:0:0:0:
36,192,154353,1,0,0:0:0:0:
475,192,154353,1,0,0:0:0:0:
329,192,154483,128,0,154548:0:0:0:0:
475,192,154483,128,0,154548:0:0:0:0:
402,192,154483,128,0,154548:0:0:0:0:
182,192,154483,128,0,154548:0:0:0:0:
109,192,154483,128,0,154548:0:0:0:0:
36,192,154483,128,0,154548:0:0:0:0:
182,192,154614,128,0,154679:0:0:0:0:
36,192,154614,128,0,154679:0:0:0:0:
329,192,154614,128,0,154679:0:0:0:0:
475,192,154614,128,0,154679:0:0:0:0:
256,192,154614,128,0,154679:0:0:0:0:
36,192,154744,128,0,154831:0:0:0:0:
182,192,154744,128,0,155201:0:0:0:0:
329,192,154744,1,0,0:0:0:0:
475,192,154744,128,0,154940:0:0:0:0:
109,192,154744,128,0,154788:0:0:0:0:
402,192,154788,128,0,154940:0:0:0:0:
256,192,154831,128,0,154940:0:0:0:0:
109,192,154875,128,0,154940:0:0:0:0:
329,192,155005,128,0,155462:0:0:0:0:
475,192,155005,128,0,155201:0:0:0:0:
256,192,155005,128,0,155048:0:0:0:0:
402,192,155005,128,0,155092:0:0:0:0:
36,192,155048,128,0,155201:0:0:0:0:
109,192,155092,128,0,155201:0:0:0:0:
256,192,155135,128,0,155201:0:0:0:0:
475,192,155266,128,0,155353:0:0:0:0:
36,192,155266,128,0,155462:0:0:0:0:
109,192,155266,128,0,155722:0:0:0:0:
402,192,155266,128,0,155309:0:0:0:0:
182,192,155309,128,0,155462:0:0:0:0:
256,192,155353,128,0,155462:0:0:0:0:
402,192,155396,128,0,155462:0:0:0:0:
402,192,155527,128,0,155983:0:0:0:0:
475,192,155527,128,0,155722:0:0:0:0:
256,192,155527,128,0,155614:0:0:0:0:
182,192,155527,128,0,155570:0:0:0:0:
329,192,155570,128,0,155722:0:0:0:0:
36,192,155614,128,0,155722:0:0:0:0:
182,192,155657,128,0,155722:0:0:0:0:
36,192,155788,128,0,156244:0:0:0:0:
475,192,155788,128,0,155983:0:0:0:0:
256,192,155788,128,0,155831:0:0:0:0:
329,192,155788,128,0,155875:0:0:0:0:
109,192,155831,128,0,155983:0:0:0:0:
182,192,155875,128,0,155983:0:0:0:0:
256,192,155918,128,0,155983:0:0:0:0:
329,192,156048,128,0,156505:0:0:0:0:
475,192,156048,128,0,156244:0:0:0:0:
109,192,156048,128,0,156135:0:0:0:0:
182,192,156048,128,0,156092:0:0:0:0:
402,192,156092,128,0,156244:0:0:0:0:
256,192,156135,128,0,156244:0:0:0:0:
182,192,156179,128,0,156244:0:0:0:0:
182,192,156309,128,0,156396:0:0:0:0:
36,192,156309,128,0,156505:0:0:0:0:
109,192,156309,128,0,156766:0:0:0:0:
256,192,156309,128,0,156353:0:0:0:0:
475,192,156353,128,0,156505:0:0:0:0:
402,192,156396,128,0,156505:0:0:0:0:
256,192,156440,128,0,156505:0:0:0:0:
475,192,156570,128,0,157027:0:0:0:0:
402,192,156570,128,0,156766:0:0:0:0:
36,192,156570,128,0,156657:0:0:0:0:
182,192,156570,128,0,156614:0:0:0:0:
329,192,156614,128,0,156766:0:0:0:0:
256,192,156657,128,0,156766:0:0:0:0:
182,192,156701,128,0,156766:0:0:0:0:
36,192,156831,128,0,157288:0:0:0:0:
402,192,156831,128,0,157027:0:0:0:0:
329,192,156831,128,0,156918:0:0:0:0:
256,192,156831,128,0,156875:0:0:0:0:
109,192,156875,128,0,157027:0:0:0:0:
182,192,156918,128,0,157027:0:0:0:0:
256,192,156962,128,0,157027:0:0:0:0:
182,192,157092,128,0,157135:0:0:0:0:
402,192,157092,128,0,157548:0:0:0:0:
475,192,157092,128,0,157288:0:0:0:0:
109,192,157092,128,0,157179:0:0:0:0:
329,192,157135,128,0,157288:0:0:0:0:
256,192,157179,128,0,157288:0:0:0:0:
182,192,157222,128,0,157288:0:0:0:0:
182,192,157353,128,0,157809:0:0:0:0:
475,192,157353,128,0,157548:0:0:0:0:
329,192,157353,128,0,157440:0:0:0:0:
256,192,157353,128,0,157396:0:0:0:0:
36,192,157396,128,0,157548:0:0:0:0:
109,192,157440,128,0,157548:0:0:0:0:
256,192,157483,128,0,157548:0:0:0:0:
475,192,157614,128,0,158070:0:0:0:0:
329,192,157614,128,0,157809:0:0:0:0:
109,192,157614,128,0,157657:0:0:0:0:
36,192,157614,128,0,157701:0:0:0:0:
402,192,157657,128,0,157809:0:0:0:0:
256,192,157701,128,0,157809:0:0:0:0:
109,192,157744,128,0,157809:0:0:0:0:
109,192,157875,128,0,158331:0:0:0:0:
36,192,157875,128,0,158070:0:0:0:0:
182,192,157875,128,0,157962:0:0:0:0:
256,192,157875,128,0,157918:0:0:0:0:
402,192,157918,128,0,158070:0:0:0:0:
329,192,157962,128,0,158070:0:0:0:0:
256,192,158005,128,0,158070:0:0:0:0:
329,192,158135,128,0,158592:0:0:0:0:
402,192,158135,128,0,158331:0:0:0:0:
475,192,158135,128,0,158222:0:0:0:0:
256,192,158135,128,0,158179:0:0:0:0:
36,192,158179,128,0,158331:0:0:0:0:
182,192,158222,128,0,158331:0:0:0:0:
256,192,158266,128,0,158331:0:0:0:0:
36,192,158396,128,0,158592:0:0:0:0:
475,192,158396,128,0,158592:0:0:0:0:
109,192,158396,128,0,158483:0:0:0:0:
182,192,158396,128,0,158440:0:0:0:0:
402,192,158440,128,0,158592:0:0:0:0:
256,192,158483,128,0,158592:0:0:0:0:
182,192,158527,128,0,158592:0:0:0:0:
256,192,158657,128,0,158853:0:0:0:0:
36,192,158657,1,0,0:0:0:0:
109,192,158657,1,0,0:0:0:0:
475,192,158657,1,0,0:0:0:0:
402,192,158657,1,0,0:0:0:0:
475,192,158788,128,0,158983:0:0:0:0:
109,192,158788,128,0,158853:0:0:0:0:
329,192,158788,1,0,0:0:0:0:
36,192,158918,128,0,159114:0:0:0:0:
329,192,158918,128,0,158983:0:0:0:0:
182,192,158918,128,0,158983:0:0:0:0:
182,192,159048,1,0,0:0:0:0:
329,192,159048,1,0,0:0:0:0:
475,192,159048,1,0,0:0:0:0:
402,192,159048,1,0,0:0:0:0:
402,192,159179,128,0,159505:0:0:0:0:
256,192,159179,128,0,159244:0:0:0:0:
109,192,159179,128,0,159375:0:0:0:0:
182,192,159309,128,0,159375:0:0:0:0:
329,192,159309,128,0,159375:0:0:0:0:
475,192,159309,1,0,0:0:0:0:
36,192,159440,1,0,0:0:0:0:
109,192,159440,1,0,0:0:0:0:
475,192,159440,1,0,0:0:0:0:
256,192,159440,128,0,159635:0:0:0:0:
109,192,159570,128,0,159635:0:0:0:0:
36,192,159570,128,0,159635:0:0:0:0:
402,192,159570,1,0,0:0:0:0:
329,192,159635,1,0,0:0:0:0:
182,192,159701,128,0,159962:0:0:0:0:
475,192,159701,128,0,159766:0:0:0:0:
36,192,159701,1,0,0:0:0:0:
109,192,159701,1,0,0:0:0:0:
256,192,159701,1,0,0:0:0:0:
256,192,159831,1,0,0:0:0:0:
402,192,159831,1,0,0:0:0:0:
475,192,159831,1,0,0:0:0:0:
402,192,159962,128,0,160157:0:0:0:0:
36,192,159962,128,0,160027:0:0:0:0:
329,192,159962,1,0,0:0:0:0:
475,192,160092,1,0,0:0:0:0:
109,192,160092,1,0,0:0:0:0:
36,192,160092,1,0,0:0:0:0:
256,192,160092,1,0,0:0:0:0:
182,192,160222,128,0,160418:0:0:0:0:
329,192,160222,128,0,160288:0:0:0:0:
36,192,160222,1,0,0:0:0:0:
329,192,160353,1,0,0:0:0:0:
475,192,160353,1,0,0:0:0:0:
109,192,160353,1,0,0:0:0:0:
256,192,160483,128,0,160679:0:0:0:0:
36,192,160483,1,0,0:0:0:0:
182,192,160483,1,0,0:0:0:0:
475,192,160483,1,0,0:0:0:0:
402,192,160483,1,0,0:0:0:0:
329,192,160548,1,0,0:0:0:0:
109,192,160614,1,0,0:0:0:0:
475,192,160614,1,0,0:0:0:0:
182,192,160679,1,0,0:0:0:0:
36,192,160744,1,0,0:0:0:0:
256,192,160744,1,0,0:0:0:0:
402,192,160744,1,0,0:0:0:0:
475,192,160744,1,0,0:0:0:0:
109,192,160744,1,0,0:0:0:0:
109,192,160875,1,0,0:0:0:0:
329,192,160875,1,0,0:0:0:0:
182,192,160875,1,0,0:0:0:0:
402,192,161005,1,0,0:0:0:0:
475,192,161005,1,0,0:0:0:0:
256,192,161005,1,0,0:0:0:0:
402,192,161135,1,0,0:0:0:0:
182,192,161135,1,0,0:0:0:0:
36,192,161135,1,0,0:0:0:0:
475,192,161135,1,0,0:0:0:0:
329,192,161201,1,0,0:0:0:0:
109,192,161201,1,0,0:0:0:0:
256,192,161266,1,0,0:0:0:0:
36,192,161266,1,0,0:0:0:0:
182,192,161331,1,0,0:0:0:0:
475,192,161396,1,0,0:0:0:0:
109,192,161396,1,0,0:0:0:0:
402,192,161440,1,0,0:0:0:0:
329,192,161483,1,0,0:0:0:0:
182,192,161527,1,0,0:0:0:0:
36,192,161527,1,0,0:0:0:0:
475,192,161527,1,0,0:0:0:0:
109,192,161592,1,0,0:0:0:0:
256,192,161592,1,0,0:0:0:0:
182,192,161657,1,0,0:0:0:0:
329,192,161657,1,0,0:0:0:0:
256,192,161722,1,0,0:0:0:0:
402,192,161722,1,0,0:0:0:0:
36,192,161788,1,0,0:0:0:0:
329,192,161788,1,0,0:0:0:0:
475,192,161788,1,0,0:0:0:0:
256,192,161918,1,0,0:0:0:0:
402,192,161918,1,0,0:0:0:0:
182,192,162048,1,0,0:0:0:0:
329,192,162048,1,0,0:0:0:0:
329,192,162179,1,0,0:0:0:0:
36,192,162179,1,0,0:0:0:0:
402,192,162244,1,0,0:0:0:0:
109,192,162244,1,0,0:0:0:0:
475,192,162309,1,0,0:0:0:0:
329,192,162309,1,0,0:0:0:0:
36,192,162309,1,0,0:0:0:0:
182,192,162309,1,0,0:0:0:0:
402,192,162375,1,0,0:0:0:0:
109,192,162440,1,0,0:0:0:0:
256,192,162440,1,0,0:0:0:0:
329,192,162505,1,0,0:0:0:0:
182,192,162570,1,0,0:0:0:0:
36,192,162570,1,0,0:0:0:0:
475,192,162570,1,0,0:0:0:0:
402,192,162614,1,0,0:0:0:0:
329,192,162657,1,0,0:0:0:0:
256,192,162701,1,0,0:0:0:0:
182,192,162744,1,0,0:0:0:0:
109,192,162788,1,0,0:0:0:0:
36,192,162831,1,0,0:0:0:0:
329,192,162831,1,0,0:0:0:0:
402,192,162831,1,0,0:0:0:0:
475,192,162831,1,0,0:0:0:0:
256,192,162831,1,0,0:0:0:0:
256,192,163092,1,0,0:0:0:0:
402,192,163092,1,0,0:0:0:0:
475,192,163092,1,0,0:0:0:0:
36,192,163092,1,0,0:0:0:0:
109,192,163157,1,0,0:0:0:0:
182,192,163157,1,0,0:0:0:0:
329,192,163222,1,0,0:0:0:0:
402,192,163222,1,0,0:0:0:0:
182,192,163288,1,0,0:0:0:0:
256,192,163288,1,0,0:0:0:0:
402,192,163353,1,0,0:0:0:0:
109,192,163353,1,0,0:0:0:0:
475,192,163353,1,0,0:0:0:0:
36,192,163353,1,0,0:0:0:0:
402,192,163614,1,0,0:0:0:0:
256,192,163614,1,0,0:0:0:0:
475,192,163630,1,0,0:0:0:0:
109,192,163679,1,0,0:0:0:0:
36,192,163695,1,0,0:0:0:0:
329,192,163744,1,0,0:0:0:0:
402,192,163760,1,0,0:0:0:0:
182,192,163809,1,0,0:0:0:0:
109,192,163826,1,0,0:0:0:0:
402,192,163875,1,0,0:0:0:0:
256,192,163875,1,0,0:0:0:0:
475,192,163891,1,0,0:0:0:0:
109,192,163940,1,0,0:0:0:0:
36,192,163956,1,0,0:0:0:0:
402,192,164005,1,0,0:0:0:0:
329,192,164021,1,0,0:0:0:0:
109,192,164070,1,0,0:0:0:0:
182,192,164087,1,0,0:0:0:0:
402,192,164135,1,0,0:0:0:0:
256,192,164135,1,0,0:0:0:0:
475,192,164152,1,0,0:0:0:0:
109,192,164201,1,0,0:0:0:0:
36,192,164217,1,0,0:0:0:0:
402,192,164266,1,0,0:0:0:0:
329,192,164282,1,0,0:0:0:0:
109,192,164331,1,0,0:0:0:0:
182,192,164347,1,0,0:0:0:0:
475,192,164396,1,0,0:0:0:0:
256,192,164396,1,0,0:0:0:0:
402,192,164413,1,0,0:0:0:0:
109,192,164462,1,0,0:0:0:0:
36,192,164478,1,0,0:0:0:0:
329,192,164527,1,0,0:0:0:0:
402,192,164543,1,0,0:0:0:0:
109,192,164592,1,0,0:0:0:0:
182,192,164608,1,0,0:0:0:0:
256,192,164657,1,0,0:0:0:0:
402,192,164657,1,0,0:0:0:0:
475,192,164673,1,0,0:0:0:0:
36,192,164722,1,0,0:0:0:0:
109,192,164739,1,0,0:0:0:0:
329,192,164788,1,0,0:0:0:0:
182,192,164804,1,0,0:0:0:0:
402,192,164853,1,0,0:0:0:0:
475,192,164869,1,0,0:0:0:0:
256,192,164918,1,0,0:0:0:0:
109,192,164918,1,0,0:0:0:0:
36,192,164934,1,0,0:0:0:0:
402,192,164983,1,0,0:0:0:0:
329,192,165000,1,0,0:0:0:0:
109,192,165048,1,0,0:0:0:0:
182,192,165065,1,0,0:0:0:0:
402,192,165114,1,0,0:0:0:0:
475,192,165130,1,0,0:0:0:0:
256,192,165179,1,0,0:0:0:0:
36,192,165179,1,0,0:0:0:0:
109,192,165195,1,0,0:0:0:0:
402,192,165309,1,0,0:0:0:0:
182,192,165309,1,0,0:0:0:0:
329,192,165326,1,0,0:0:0:0:
256,192,165440,1,0,0:0:0:0:
475,192,165440,1,0,0:0:0:0:
402,192,165440,1,0,0:0:0:0:
36,192,165440,1,0,0:0:0:0:
329,192,165570,1,0,0:0:0:0:
109,192,165570,1,0,0:0:0:0:
182,192,165587,1,0,0:0:0:0:
475,192,165701,1,0,0:0:0:0:
36,192,165701,1,0,0:0:0:0:
182,192,165701,1,0,0:0:0:0:
402,192,165733,1,0,0:0:0:0:
329,192,165766,1,0,0:0:0:0:
256,192,165798,1,0,0:0:0:0:
182,192,165831,1,0,0:0:0:0:
109,192,165864,1,0,0:0:0:0:
36,192,165896,1,0,0:0:0:0:
182,192,165962,1,0,0:0:0:0:
329,192,165962,1,0,0:0:0:0:
402,192,165962,1,0,0:0:0:0:
475,192,165962,1,0,0:0:0:0:
256,192,165962,1,0,0:0:0:0:
402,192,166092,1,0,0:0:0:0:
109,192,166092,1,0,0:0:0:0:
256,192,166092,1,0,0:0:0:0:
475,192,166125,1,0,0:0:0:0:
329,192,166222,1,0,0:0:0:0:
182,192,166222,1,0,0:0:0:0:
109,192,166222,1,0,0:0:0:0:
36,192,166222,1,0,0:0:0:0:
402,192,166255,1,0,0:0:0:0:
256,192,166353,1,0,0:0:0:0:
109,192,166353,1,0,0:0:0:0:
36,192,166353,1,0,0:0:0:0:
329,192,166385,1,0,0:0:0:0:
182,192,166483,1,0,0:0:0:0:
36,192,166483,1,0,0:0:0:0:
475,192,166483,1,0,0:0:0:0:
256,192,166516,1,0,0:0:0:0:
109,192,166614,1,0,0:0:0:0:
475,192,166614,1,0,0:0:0:0:
402,192,166614,1,0,0:0:0:0:
182,192,166646,1,0,0:0:0:0:
36,192,166744,1,0,0:0:0:0:
329,192,166744,1,0,0:0:0:0:
402,192,166744,1,0,0:0:0:0:
475,192,166744,1,0,0:0:0:0:
109,192,166777,1,0,0:0:0:0:
329,192,166875,1,0,0:0:0:0:
475,192,166875,1,0,0:0:0:0:
182,192,166875,1,0,0:0:0:0:
256,192,167005,128,0,167331:0:0:0:0:
36,192,167005,128,0,167070:0:0:0:0:
475,192,167005,128,0,167070:0:0:0:0:
109,192,167005,128,0,167070:0:0:0:0:
402,192,167005,1,0,0:0:0:0:
475,192,167135,128,0,167462:0:0:0:0:
329,192,167135,128,0,167201:0:0:0:0:
182,192,167135,128,0,167201:0:0:0:0:
36,192,167266,128,0,167462:0:0:0:0:
109,192,167266,128,0,167331:0:0:0:0:
402,192,167266,128,0,167331:0:0:0:0:
182,192,167396,128,0,167462:0:0:0:0:
329,192,167396,128,0,167462:0:0:0:0:
36,192,167527,128,0,167592:0:0:0:0:
402,192,167527,128,0,167592:0:0:0:0:
475,192,167527,128,0,167592:0:0:0:0:
256,192,167527,128,0,167592:0:0:0:0:
109,192,167527,1,0,0:0:0:0:
182,192,167657,128,0,167722:0:0:0:0:
329,192,167657,128,0,167722:0:0:0:0:
109,192,167788,128,0,168375:0:0:0:0:
402,192,167788,128,0,167853:0:0:0:0:
36,192,167788,128,0,167853:0:0:0:0:
256,192,167788,128,0,167853:0:0:0:0:
475,192,167788,1,0,0:0:0:0:
182,192,167788,1,0,0:0:0:0:
475,192,167918,128,0,168114:0:0:0:0:
329,192,167918,128,0,167983:0:0:0:0:
182,192,167918,128,0,167983:0:0:0:0:
256,192,168048,128,0,168244:0:0:0:0:
36,192,168048,128,0,168114:0:0:0:0:
182,192,168048,128,0,168114:0:0:0:0:
402,192,168048,128,0,168114:0:0:0:0:
329,192,168179,128,0,168244:0:0:0:0:
475,192,168179,128,0,168244:0:0:0:0:
36,192,168309,128,0,168505:0:0:0:0:
402,192,168309,128,0,168375:0:0:0:0:
256,192,168309,128,0,168375:0:0:0:0:
475,192,168309,1,0,0:0:0:0:
329,192,168440,128,0,168635:0:0:0:0:
182,192,168440,128,0,168505:0:0:0:0:
475,192,168440,128,0,168505:0:0:0:0:
475,192,168570,128,0,169027:0:0:0:0:
109,192,168570,128,0,168766:0:0:0:0:
256,192,168570,128,0,168635:0:0:0:0:
36,192,168570,128,0,168635:0:0:0:0:
402,192,168570,1,0,0:0:0:0:
329,192,168701,128,0,168766:0:0:0:0:
182,192,168701,128,0,168766:0:0:0:0:
256,192,168831,128,0,168896:0:0:0:0:
402,192,168831,128,0,168896:0:0:0:0:
109,192,168831,128,0,168896:0:0:0:0:
182,192,168962,128,0,169157:0:0:0:0:
36,192,168962,128,0,169027:0:0:0:0:
329,192,168962,128,0,169027:0:0:0:0:
36,192,169092,128,0,169548:0:0:0:0:
402,192,169092,128,0,169288:0:0:0:0:
256,192,169092,128,0,169157:0:0:0:0:
475,192,169092,128,0,169157:0:0:0:0:
109,192,169092,1,0,0:0:0:0:
182,192,169222,128,0,169288:0:0:0:0:
329,192,169222,128,0,169288:0:0:0:0:
256,192,169353,128,0,169548:0:0:0:0:
329,192,169353,128,0,169418:0:0:0:0:
109,192,169353,128,0,169418:0:0:0:0:
475,192,169353,128,0,169418:0:0:0:0:
402,192,169483,128,0,169548:0:0:0:0:
182,192,169483,128,0,169548:0:0:0:0:
475,192,169614,128,0,170070:0:0:0:0:
109,192,169614,128,0,169809:0:0:0:0:
36,192,169614,128,0,169679:0:0:0:0:
329,192,169614,128,0,169679:0:0:0:0:
182,192,169614,1,0,0:0:0:0:
256,192,169744,128,0,169809:0:0:0:0:
402,192,169744,128,0,169809:0:0:0:0:
329,192,169875,128,0,170070:0:0:0:0:
256,192,169875,128,0,169940:0:0:0:0:
36,192,169875,128,0,169940:0:0:0:0:
109,192,169875,128,0,169940:0:0:0:0:
402,192,169875,1,0,0:0:0:0:
36,192,170005,128,0,170070:0:0:0:0:
182,192,170005,128,0,170070:0:0:0:0:
36,192,170135,128,0,170592:0:0:0:0:
402,192,170135,128,0,170331:0:0:0:0:
109,192,170135,128,0,170201:0:0:0:0:
256,192,170135,128,0,170201:0:0:0:0:
182,192,170266,128,0,170331:0:0:0:0:
329,192,170266,128,0,170331:0:0:0:0:
256,192,170396,128,0,170592:0:0:0:0:
329,192,170396,128,0,170462:0:0:0:0:
109,192,170396,128,0,170462:0:0:0:0:
475,192,170396,128,0,170462:0:0:0:0:
402,192,170396,1,0,0:0:0:0:
402,192,170527,128,0,170592:0:0:0:0:
182,192,170527,128,0,170592:0:0:0:0:
475,192,170657,128,0,171114:0:0:0:0:
109,192,170657,128,0,170853:0:0:0:0:
256,192,170657,128,0,170722:0:0:0:0:
36,192,170657,128,0,170722:0:0:0:0:
402,192,170657,128,0,170722:0:0:0:0:
329,192,170657,1,0,0:0:0:0:
329,192,170788,128,0,170853:0:0:0:0:
182,192,170788,128,0,170853:0:0:0:0:
256,192,170918,128,0,171114:0:0:0:0:
182,192,170918,128,0,170983:0:0:0:0:
36,192,170918,128,0,170983:0:0:0:0:
402,192,170918,128,0,170983:0:0:0:0:
109,192,171048,128,0,171114:0:0:0:0:
329,192,171048,128,0,171114:0:0:0:0:
182,192,171179,1,0,0:0:0:0:
36,192,171179,1,0,0:0:0:0:
402,192,171179,1,0,0:0:0:0:
475,192,171179,1,0,0:0:0:0:
329,192,171179,1,0,0:0:0:0:
256,192,171440,1,0,0:0:0:0:
109,192,171440,1,0,0:0:0:0:
36,192,171440,1,0,0:0:0:0:
475,192,171440,1,0,0:0:0:0:
402,192,171505,1,0,0:0:0:0:
329,192,171505,1,0,0:0:0:0:
182,192,171570,1,0,0:0:0:0:
109,192,171570,1,0,0:0:0:0:
329,192,171635,1,0,0:0:0:0:
256,192,171635,1,0,0:0:0:0:
109,192,171701,1,0,0:0:0:0:
402,192,171701,1,0,0:0:0:0:
36,192,171701,1,0,0:0:0:0:
475,192,171701,1,0,0:0:0:0:
109,192,171962,1,0,0:0:0:0:
256,192,171962,1,0,0:0:0:0:
36,192,171978,1,0,0:0:0:0:
402,192,172027,1,0,0:0:0:0:
475,192,172043,1,0,0:0:0:0:
182,192,172092,1,0,0:0:0:0:
109,192,172108,1,0,0:0:0:0:
329,192,172157,1,0,0:0:0:0:
402,192,172173,1,0,0:0:0:0:
109,192,172222,1,0,0:0:0:0:
256,192,172222,1,0,0:0:0:0:
36,192,172239,1,0,0:0:0:0:
402,192,172288,1,0,0:0:0:0:
475,192,172304,1,0,0:0:0:0:
109,192,172353,1,0,0:0:0:0:
182,192,172369,1,0,0:0:0:0:
402,192,172418,1,0,0:0:0:0:
329,192,172434,1,0,0:0:0:0:
109,192,172483,1,0,0:0:0:0:
256,192,172483,1,0,0:0:0:0:
36,192,172500,1,0,0:0:0:0:
402,192,172548,1,0,0:0:0:0:
475,192,172565,1,0,0:0:0:0:
109,192,172614,1,0,0:0:0:0:
182,192,172630,1,0,0:0:0:0:
402,192,172679,1,0,0:0:0:0:
329,192,172695,1,0,0:0:0:0:
36,192,172744,1,0,0:0:0:0:
256,192,172744,1,0,0:0:0:0:
109,192,172760,1,0,0:0:0:0:
402,192,172809,1,0,0:0:0:0:
475,192,172826,1,0,0:0:0:0:
182,192,172875,1,0,0:0:0:0:
109,192,172891,1,0,0:0:0:0:
402,192,172940,1,0,0:0:0:0:
329,192,172956,1,0,0:0:0:0:
256,192,173005,1,0,0:0:0:0:
109,192,173005,1,0,0:0:0:0:
36,192,173021,1,0,0:0:0:0:
475,192,173070,1,0,0:0:0:0:
402,192,173087,1,0,0:0:0:0:
182,192,173135,1,0,0:0:0:0:
329,192,173152,1,0,0:0:0:0:
109,192,173201,1,0,0:0:0:0:
36,192,173217,1,0,0:0:0:0:
256,192,173266,1,0,0:0:0:0:
402,192,173266,1,0,0:0:0:0:
475,192,173282,1,0,0:0:0:0:
109,192,173331,1,0,0:0:0:0:
182,192,173347,1,0,0:0:0:0:
402,192,173396,1,0,0:0:0:0:
329,192,173413,1,0,0:0:0:0:
109,192,173462,1,0,0:0:0:0:
36,192,173478,1,0,0:0:0:0:
256,192,173527,1,0,0:0:0:0:
475,192,173527,1,0,0:0:0:0:
402,192,173543,1,0,0:0:0:0:
109,192,173657,1,0,0:0:0:0:
329,192,173657,1,0,0:0:0:0:
182,192,173673,1,0,0:0:0:0:
256,192,173788,1,0,0:0:0:0:
36,192,173788,1,0,0:0:0:0:
109,192,173788,1,0,0:0:0:0:
475,192,173788,1,0,0:0:0:0:
182,192,173918,1,0,0:0:0:0:
402,192,173918,1,0,0:0:0:0:
329,192,173934,1,0,0:0:0:0:
36,192,174048,1,0,0:0:0:0:
475,192,174048,1,0,0:0:0:0:
329,192,174048,1,0,0:0:0:0:
109,192,174081,1,0,0:0:0:0:
182,192,174114,1,0,0:0:0:0:
256,192,174146,1,0,0:0:0:0:
329,192,174179,1,0,0:0:0:0:
402,192,174212,1,0,0:0:0:0:
475,192,174244,1,0,0:0:0:0:
329,192,174309,1,0,0:0:0:0:
182,192,174309,1,0,0:0:0:0:
109,192,174309,1,0,0:0:0:0:
36,192,174309,1,0,0:0:0:0:
256,192,174309,1,0,0:0:0:0:
109,192,174440,1,0,0:0:0:0:
402,192,174440,1,0,0:0:0:0:
256,192,174440,1,0,0:0:0:0:
36,192,174472,1,0,0:0:0:0:
182,192,174570,1,0,0:0:0:0:
329,192,174570,1,0,0:0:0:0:
402,192,174570,1,0,0:0:0:0:
475,192,174570,1,0,0:0:0:0:
109,192,174603,1,0,0:0:0:0:
256,192,174701,1,0,0:0:0:0:
402,192,174701,1,0,0:0:0:0:
475,192,174701,1,0,0:0:0:0:
182,192,174733,1,0,0:0:0:0:
329,192,174831,1,0,0:0:0:0:
475,192,174831,1,0,0:0:0:0:
36,192,174831,1,0,0:0:0:0:
256,192,174864,1,0,0:0:0:0:
402,192,174962,1,0,0:0:0:0:
36,192,174962,1,0,0:0:0:0:
109,192,174962,1,0,0:0:0:0:
329,192,174994,1,0,0:0:0:0:
475,192,175092,1,0,0:0:0:0:
182,192,175092,1,0,0:0:0:0:
109,192,175092,1,0,0:0:0:0:
36,192,175092,1,0,0:0:0:0:
402,192,175125,1,0,0:0:0:0:
182,192,175222,1,0,0:0:0:0:
36,192,175222,1,0,0:0:0:0:
329,192,175222,1,0,0:0:0:0:
256,192,175353,128,0,175679:0:0:0:0:
475,192,175353,128,0,175418:0:0:0:0:
36,192,175353,128,0,175418:0:0:0:0:
402,192,175353,128,0,175418:0:0:0:0:
109,192,175353,1,0,0:0:0:0:
36,192,175483,128,0,175809:0:0:0:0:
182,192,175483,128,0,175548:0:0:0:0:
329,192,175483,128,0,175548:0:0:0:0:
475,192,175614,128,0,175809:0:0:0:0:
402,192,175614,128,0,175679:0:0:0:0:
109,192,175614,128,0,175679:0:0:0:0:
329,192,175744,128,0,175809:0:0:0:0:
182,192,175744,128,0,175809:0:0:0:0:
475,192,175875,128,0,175940:0:0:0:0:
109,192,175875,128,0,175940:0:0:0:0:
36,192,175875,128,0,175940:0:0:0:0:
256,192,175875,128,0,175940:0:0:0:0:
402,192,175875,1,0,0:0:0:0:
329,192,176005,128,0,176070:0:0:0:0:
182,192,176005,128,0,176070:0:0:0:0:
402,192,176135,128,0,176722:0:0:0:0:
109,192,176135,128,0,176201:0:0:0:0:
475,192,176135,128,0,176201:0:0:0:0:
256,192,176135,128,0,176201:0:0:0:0:
36,192,176135,1,0,0:0:0:0:
329,192,176135,1,0,0:0:0:0:
36,192,176266,128,0,176462:0:0:0:0:
182,192,176266,128,0,176331:0:0:0:0:
329,192,176266,128,0,176331:0:0:0:0:
256,192,176396,128,0,176592:0:0:0:0:
475,192,176396,128,0,176462:0:0:0:0:
329,192,176396,128,0,176462:0:0:0:0:
109,192,176396,128,0,176462:0:0:0:0:
182,192,176527,128,0,176592:0:0:0:0:
36,192,176527,128,0,176592:0:0:0:0:
475,192,176657,128,0,176853:0:0:0:0:
109,192,176657,128,0,176722:0:0:0:0:
256,192,176657,128,0,176722:0:0:0:0:
36,192,176657,1,0,0:0:0:0:
182,192,176788,128,0,176983:0:0:0:0:
329,192,176788,128,0,176853:0:0:0:0:
36,192,176788,128,0,176853:0:0:0:0:
475,192,176918,128,0,176983:0:0:0:0:
402,192,176918,128,0,177114:0:0:0:0:
36,192,176918,128,0,177375:0:0:0:0:
109,192,176918,1,0,0:0:0:0:
256,192,176918,128,0,176983:0:0:0:0:
256,192,177048,128,0,177114:0:0:0:0:
109,192,177048,128,0,177114:0:0:0:0:
475,192,177179,128,0,177244:0:0:0:0:
329,192,177179,128,0,177244:0:0:0:0:
182,192,177179,128,0,177244:0:0:0:0:
109,192,177309,128,0,177375:0:0:0:0:
256,192,177309,128,0,177505:0:0:0:0:
402,192,177309,128,0,177375:0:0:0:0:
109,192,177440,128,0,177635:0:0:0:0:
36,192,177440,128,0,177505:0:0:0:0:
402,192,177440,128,0,177635:0:0:0:0:
475,192,177440,128,0,177505:0:0:0:0:
329,192,177570,128,0,177766:0:0:0:0:
182,192,177570,128,0,177766:0:0:0:0:
36,192,177701,128,0,177766:0:0:0:0:
475,192,177701,128,0,177766:0:0:0:0:
109,192,177831,128,0,177896:0:0:0:0:
402,192,177831,128,0,177896:0:0:0:0:
256,192,177831,128,0,177896:0:0:0:0:
36,192,177962,128,0,178179:0:0:0:0:
109,192,177962,128,0,178135:0:0:0:0:
256,192,177962,128,0,178048:0:0:0:0:
475,192,178005,128,0,178092:0:0:0:0:
402,192,178048,128,0,178135:0:0:0:0:
329,192,178092,128,0,178179:0:0:0:0:
256,192,178135,128,0,178222:0:0:0:0:
182,192,178179,128,0,178266:0:0:0:0:
402,192,178222,128,0,178288:0:0:0:0:
329,192,178266,128,0,178331:0:0:0:0:
256,192,178309,128,0,178375:0:0:0:0:
182,192,178353,128,0,178418:0:0:0:0:
109,192,178396,128,0,178462:0:0:0:0:
182,192,178483,1,0,0:0:0:0:
36,192,178483,1,0,0:0:0:0:
256,192,178483,1,0,0:0:0:0:
329,192,178483,1,0,0:0:0:0:
475,192,178483,1,0,0:0:0:0:
402,192,178614,1,0,0:0:0:0:
109,192,178614,1,0,0:0:0:0:
329,192,178657,1,0,0:0:0:0:
256,192,178701,1,0,0:0:0:0:
36,192,178744,1,0,0:0:0:0:
475,192,178744,1,0,0:0:0:0:
109,192,178781,1,0,0:0:0:0:
182,192,178819,1,0,0:0:0:0:
256,192,178856,1,0,0:0:0:0:
329,192,178893,1,0,0:0:0:0:
402,192,178930,1,0,0:0:0:0:
475,192,178968,1,0,0:0:0:0:
329,192,179005,1,0,0:0:0:0:
402,192,179048,1,0,0:0:0:0:
256,192,179092,1,0,0:0:0:0:
329,192,179135,1,0,0:0:0:0:
182,192,179179,1,0,0:0:0:0:
256,192,179222,1,0,0:0:0:0:
109,192,179266,1,0,0:0:0:0:
182,192,179309,1,0,0:0:0:0:
36,192,179353,1,0,0:0:0:0:
109,192,179396,1,0,0:0:0:0:
182,192,179440,1,0,0:0:0:0:
256,192,179483,1,0,0:0:0:0:
36,192,179527,128,0,180244:0:0:0:0:
182,192,179527,128,0,179788:0:0:0:0:
402,192,179527,128,0,179657:0:0:0:0:
475,192,179527,128,0,179592:0:0:0:0:
329,192,179527,128,0,179722:0:0:0:0:
475,192,179657,1,0,0:0:0:0:
402,192,179722,1,0,0:0:0:0:
329,192,179788,1,0,0:0:0:0:
182,192,179853,1,0,0:0:0:0:
475,192,179918,128,0,180635:0:0:0:0:
109,192,179918,128,0,179983:0:0:0:0:
256,192,179918,128,0,180048:0:0:0:0:
402,192,179918,128,0,180179:0:0:0:0:
329,192,179918,128,0,180114:0:0:0:0:
109,192,180048,1,0,0:0:0:0:
256,192,180114,1,0,0:0:0:0:
329,192,180179,1,0,0:0:0:0:
402,192,180244,1,0,0:0:0:0:
109,192,180309,128,0,181418:0:0:0:0:
182,192,180309,128,0,180570:0:0:0:0:
256,192,180309,128,0,180505:0:0:0:0:
329,192,180309,128,0,180440:0:0:0:0:
36,192,180309,128,0,180375:0:0:0:0:
36,192,180440,1,0,0:0:0:0:
329,192,180505,1,0,0:0:0:0:
256,192,180570,1,0,0:0:0:0:
182,192,180635,1,0,0:0:0:0:
402,192,180701,128,0,181548:0:0:0:0:
475,192,180701,128,0,180962:0:0:0:0:
329,192,180701,128,0,180896:0:0:0:0:
256,192,180701,128,0,180831:0:0:0:0:
36,192,180701,128,0,180766:0:0:0:0:
36,192,180831,1,0,0:0:0:0:
256,192,180896,1,0,0:0:0:0:
329,192,180962,1,0,0:0:0:0:
475,192,181027,1,0,0:0:0:0:
182,192,181092,128,0,181353:0:0:0:0:
329,192,181092,128,0,181222:0:0:0:0:
36,192,181092,128,0,181157:0:0:0:0:
256,192,181092,128,0,181288:0:0:0:0:
36,192,181222,1,0,0:0:0:0:
329,192,181288,1,0,0:0:0:0:
256,192,181353,1,0,0:0:0:0:
475,192,181353,128,0,181548:0:0:0:0:
36,192,181353,128,0,181548:0:0:0:0:
182,192,181418,1,0,0:0:0:0:
329,192,181418,128,0,181548:0:0:0:0:
256,192,181483,128,0,181548:0:0:0:0:
109,192,181483,1,0,0:0:0:0:
475,192,181614,128,0,182331:0:0:0:0:
402,192,181614,128,0,181875:0:0:0:0:
182,192,181614,128,0,181744:0:0:0:0:
36,192,181614,128,0,181679:0:0:0:0:
329,192,181614,128,0,181809:0:0:0:0:
36,192,181744,1,0,0:0:0:0:
182,192,181809,1,0,0:0:0:0:
329,192,181875,1,0,0:0:0:0:
402,192,181940,1,0,0:0:0:0:
109,192,182005,128,0,182722:0:0:0:0:
182,192,182005,128,0,182070:0:0:0:0:
256,192,182005,128,0,182135:0:0:0:0:
36,192,182005,128,0,182266:0:0:0:0:
329,192,182005,128,0,182201:0:0:0:0:
182,192,182135,1,0,0:0:0:0:
256,192,182201,1,0,0:0:0:0:
329,192,182266,1,0,0:0:0:0:
36,192,182331,1,0,0:0:0:0:
402,192,182396,128,0,183179:0:0:0:0:
475,192,182396,128,0,182657:0:0:0:0:
182,192,182396,128,0,182592:0:0:0:0:
256,192,182396,128,0,182527:0:0:0:0:
329,192,182396,128,0,182462:0:0:0:0:
329,192,182527,1,0,0:0:0:0:
256,192,182592,1,0,0:0:0:0:
182,192,182657,1,0,0:0:0:0:
475,192,182722,1,0,0:0:0:0:
109,192,182788,128,0,183353:0:0:0:0:
36,192,182788,128,0,183048:0:0:0:0:
182,192,182788,128,0,182983:0:0:0:0:
256,192,182788,128,0,182918:0:0:0:0:
329,192,182788,128,0,182853:0:0:0:0:
329,192,182918,1,0,0:0:0:0:
256,192,182983,1,0,0:0:0:0:
182,192,183048,1,0,0:0:0:0:
36,192,183114,1,0,0:0:0:0:
329,192,183179,128,0,183222:0:0:0:0:
182,192,183179,128,0,183309:0:0:0:0:
256,192,183179,128,0,183266:0:0:0:0:
475,192,183222,128,0,183614:0:0:0:0:
402,192,183266,128,0,183570:0:0:0:0:
329,192,183309,128,0,183527:0:0:0:0:
256,192,183353,128,0,183483:0:0:0:0:
182,192,183396,128,0,183440:0:0:0:0:
36,192,183440,128,0,183527:0:0:0:0:
109,192,183483,128,0,183570:0:0:0:0:
182,192,183527,128,0,183614:0:0:0:0:
256,192,183570,128,0,183657:0:0:0:0:
329,192,183614,128,0,183701:0:0:0:0:
475,192,183701,128,0,184418:0:0:0:0:
402,192,183701,128,0,183962:0:0:0:0:
109,192,183701,128,0,183831:0:0:0:0:
36,192,183701,128,0,183766:0:0:0:0:
182,192,183701,128,0,183896:0:0:0:0:
36,192,183831,1,0,0:0:0:0:
109,192,183896,1,0,0:0:0:0:
182,192,183962,1,0,0:0:0:0:
402,192,184027,1,0,0:0:0:0:
36,192,184092,128,0,184809:0:0:0:0:
329,192,184092,128,0,184157:0:0:0:0:
256,192,184092,128,0,184222:0:0:0:0:
109,192,184092,128,0,184353:0:0:0:0:
182,192,184092,128,0,184288:0:0:0:0:
329,192,184222,1,0,0:0:0:0:
256,192,184288,1,0,0:0:0:0:
182,192,184353,1,0,0:0:0:0:
109,192,184418,1,0,0:0:0:0:
402,192,184483,128,0,185592:0:0:0:0:
329,192,184483,128,0,184744:0:0:0:0:
256,192,184483,128,0,184679:0:0:0:0:
182,192,184483,128,0,184614:0:0:0:0:
475,192,184483,128,0,184548:0:0:0:0:
475,192,184614,1,0,0:0:0:0:
182,192,184679,1,0,0:0:0:0:
256,192,184744,1,0,0:0:0:0:
329,192,184809,1,0,0:0:0:0:
109,192,184875,128,0,185722:0:0:0:0:
36,192,184875,128,0,185135:0:0:0:0:
182,192,184875,128,0,185070:0:0:0:0:
256,192,184875,128,0,185005:0:0:0:0:
475,192,184875,128,0,184940:0:0:0:0:
475,192,185005,1,0,0:0:0:0:
256,192,185070,1,0,0:0:0:0:
182,192,185135,1,0,0:0:0:0:
36,192,185201,1,0,0:0:0:0:
329,192,185266,128,0,185527:0:0:0:0:
182,192,185266,128,0,185396:0:0:0:0:
475,192,185266,128,0,185331:0:0:0:0:
256,192,185266,128,0,185462:0:0:0:0:
475,192,185396,1,0,0:0:0:0:
182,192,185462,1,0,0:0:0:0:
256,192,185527,1,0,0:0:0:0:
36,192,185527,128,0,185722:0:0:0:0:
475,192,185527,128,0,185722:0:0:0:0:
329,192,185592,1,0,0:0:0:0:
182,192,185592,128,0,185722:0:0:0:0:
256,192,185657,128,0,185722:0:0:0:0:
402,192,185657,1,0,0:0:0:0:
36,192,185788,128,0,186440:0:0:0:0:
109,192,185788,128,0,186048:0:0:0:0:
329,192,185788,128,0,185918:0:0:0:0:
475,192,185788,128,0,185853:0:0:0:0:
182,192,185788,128,0,185983:0:0:0:0:
475,192,185918,1,0,0:0:0:0:
329,192,185983,1,0,0:0:0:0:
182,192,186048,1,0,0:0:0:0:
109,192,186114,1,0,0:0:0:0:
475,192,186179,128,0,186244:0:0:0:0:
256,192,186179,128,0,186309:0:0:0:0:
182,192,186179,128,0,186375:0:0:0:0:
329,192,186179,128,0,186244:0:0:0:0:
475,192,186309,1,0,0:0:0:0:
402,192,186353,1,0,0:0:0:0:
329,192,186396,1,0,0:0:0:0:
256,192,186440,1,0,0:0:0:0:
402,192,186483,1,0,0:0:0:0:
329,192,186527,1,0,0:0:0:0:
256,192,186570,1,0,0:0:0:0:
182,192,186614,1,0,0:0:0:0:
329,192,186657,1,0,0:0:0:0:
256,192,186701,1,0,0:0:0:0:
182,192,186744,1,0,0:0:0:0:
109,192,186788,1,0,0:0:0:0:
36,192,186831,1,0,0:0:0:0:
402,192,186831,1,0,0:0:0:0:
475,192,186831,1,0,0:0:0:0:
329,192,186831,1,0,0:0:0:0:
182,192,186896,1,0,0:0:0:0:
109,192,186896,1,0,0:0:0:0:
329,192,186962,1,0,0:0:0:0:
402,192,186962,1,0,0:0:0:0:
109,192,187027,1,0,0:0:0:0:
36,192,187027,1,0,0:0:0:0:
402,192,187092,1,0,0:0:0:0:
475,192,187092,1,0,0:0:0:0:
182,192,187157,1,0,0:0:0:0:
329,192,187222,1,0,0:0:0:0:
402,192,187222,1,0,0:0:0:0:
109,192,187288,1,0,0:0:0:0:
36,192,187288,1,0,0:0:0:0:
475,192,187353,1,0,0:0:0:0:
402,192,187353,1,0,0:0:0:0:
182,192,187418,1,0,0:0:0:0:
109,192,187418,1,0,0:0:0:0:
329,192,187483,1,0,0:0:0:0:
402,192,187483,1,0,0:0:0:0:
36,192,187548,1,0,0:0:0:0:
109,192,187548,1,0,0:0:0:0:
475,192,187614,1,0,0:0:0:0:
329,192,187614,1,0,0:0:0:0:
402,192,187614,1,0,0:0:0:0:
182,192,187679,1,0,0:0:0:0:
109,192,187679,1,0,0:0:0:0:
36,192,187679,1,0,0:0:0:0:
402,192,187744,1,0,0:0:0:0:
475,192,187744,1,0,0:0:0:0:
182,192,187809,1,0,0:0:0:0:
256,192,187809,1,0,0:0:0:0:
109,192,187875,1,0,0:0:0:0:
36,192,187875,1,0,0:0:0:0:
402,192,187875,1,0,0:0:0:0:
329,192,187875,1,0,0:0:0:0:
475,192,187875,1,0,0:0:0:0:
329,192,188005,1,0,0:0:0:0:
475,192,188005,1,0,0:0:0:0:
182,192,188005,1,0,0:0:0:0:
36,192,188135,1,0,0:0:0:0:
402,192,188135,1,0,0:0:0:0:
256,192,188135,1,0,0:0:0:0:
109,192,188135,1,0,0:0:0:0:
475,192,188135,1,0,0:0:0:0:
36,192,188266,1,0,0:0:0:0:
182,192,188266,1,0,0:0:0:0:
329,192,188266,1,0,0:0:0:0:
402,192,188266,1,0,0:0:0:0:
475,192,188266,1,0,0:0:0:0:
256,192,188396,1,0,0:0:0:0:
109,192,188396,1,0,0:0:0:0:
36,192,188396,1,0,0:0:0:0:
256,192,188527,1,0,0:0:0:0:
182,192,188527,1,0,0:0:0:0:
329,192,188527,1,0,0:0:0:0:
402,192,188527,1,0,0:0:0:0:
475,192,188527,1,0,0:0:0:0:
475,192,188657,1,0,0:0:0:0:
256,192,188657,1,0,0:0:0:0:
402,192,188657,1,0,0:0:0:0:
109,192,188657,1,0,0:0:0:0:
36,192,188657,1,0,0:0:0:0:
182,192,188788,1,0,0:0:0:0:
402,192,188788,1,0,0:0:0:0:
329,192,188788,1,0,0:0:0:0:
475,192,188918,1,0,0:0:0:0:
402,192,188918,1,0,0:0:0:0:
256,192,188918,1,0,0:0:0:0:
109,192,188918,1,0,0:0:0:0:
36,192,188918,1,0,0:0:0:0:
329,192,189048,1,0,0:0:0:0:
475,192,189048,1,0,0:0:0:0:
182,192,189048,1,0,0:0:0:0:
475,192,189179,1,0,0:0:0:0:
402,192,189179,1,0,0:0:0:0:
256,192,189179,1,0,0:0:0:0:
109,192,189179,1,0,0:0:0:0:
36,192,189179,1,0,0:0:0:0:
329,192,189309,1,0,0:0:0:0:
475,192,189309,1,0,0:0:0:0:
402,192,189309,1,0,0:0:0:0:
182,192,189309,1,0,0:0:0:0:
36,192,189309,1,0,0:0:0:0:
256,192,189440,1,0,0:0:0:0:
109,192,189440,1,0,0:0:0:0:
36,192,189440,1,0,0:0:0:0:
182,192,189570,1,0,0:0:0:0:
256,192,189570,1,0,0:0:0:0:
329,192,189570,1,0,0:0:0:0:
402,192,189570,1,0,0:0:0:0:
475,192,189570,1,0,0:0:0:0:
475,192,189701,1,0,0:0:0:0:
256,192,189701,1,0,0:0:0:0:
402,192,189701,1,0,0:0:0:0:
109,192,189701,1,0,0:0:0:0:
36,192,189701,1,0,0:0:0:0:
182,192,189831,1,0,0:0:0:0:
475,192,189831,1,0,0:0:0:0:
329,192,189831,1,0,0:0:0:0:
402,192,189962,1,0,0:0:0:0:
475,192,189962,1,0,0:0:0:0:
256,192,189962,1,0,0:0:0:0:
109,192,189962,1,0,0:0:0:0:
36,192,189962,1,0,0:0:0:0:
329,192,190092,1,0,0:0:0:0:
182,192,190092,1,0,0:0:0:0:
36,192,190092,1,0,0:0:0:0:
182,192,190222,1,0,0:0:0:0:
475,192,190222,1,0,0:0:0:0:
329,192,190222,1,0,0:0:0:0:
109,192,190222,1,0,0:0:0:0:
36,192,190222,1,0,0:0:0:0:
402,192,190353,1,0,0:0:0:0:
475,192,190353,1,0,0:0:0:0:
256,192,190353,1,0,0:0:0:0:
109,192,190353,1,0,0:0:0:0:
36,192,190353,1,0,0:0:0:0:
329,192,190483,1,0,0:0:0:0:
475,192,190483,1,0,0:0:0:0:
182,192,190483,1,0,0:0:0:0:
329,192,190614,1,0,0:0:0:0:
256,192,190614,1,0,0:0:0:0:
182,192,190614,1,0,0:0:0:0:
109,192,190614,1,0,0:0:0:0:
36,192,190614,1,0,0:0:0:0:
402,192,190744,1,0,0:0:0:0:
475,192,190744,1,0,0:0:0:0:
256,192,190744,1,0,0:0:0:0:
109,192,190744,1,0,0:0:0:0:
36,192,190744,1,0,0:0:0:0:
329,192,190875,1,0,0:0:0:0:
182,192,190875,1,0,0:0:0:0:
475,192,190875,1,0,0:0:0:0:
109,192,191005,1,0,0:0:0:0:
36,192,191005,1,0,0:0:0:0:
256,192,191005,1,0,0:0:0:0:
402,192,191005,1,0,0:0:0:0:
475,192,191005,1,0,0:0:0:0:
329,192,191135,1,0,0:0:0:0:
182,192,191135,1,0,0:0:0:0:
475,192,191135,1,0,0:0:0:0:
182,192,191266,1,0,0:0:0:0:
329,192,191266,1,0,0:0:0:0:
402,192,191266,1,0,0:0:0:0:
475,192,191266,1,0,0:0:0:0:
36,192,191266,1,0,0:0:0:0:
475,192,191396,1,0,0:0:0:0:
402,192,191396,1,0,0:0:0:0:
256,192,191396,1,0,0:0:0:0:
109,192,191396,1,0,0:0:0:0:
36,192,191396,1,0,0:0:0:0:
329,192,191527,1,0,0:0:0:0:
182,192,191527,1,0,0:0:0:0:
475,192,191527,1,0,0:0:0:0:
329,192,191657,1,0,0:0:0:0:
256,192,191657,1,0,0:0:0:0:
182,192,191657,1,0,0:0:0:0:
109,192,191657,1,0,0:0:0:0:
36,192,191657,1,0,0:0:0:0:
36,192,191788,1,0,0:0:0:0:
256,192,191788,1,0,0:0:0:0:
402,192,191788,1,0,0:0:0:0:
475,192,191788,1,0,0:0:0:0:
329,192,191788,1,0,0:0:0:0:
109,192,191853,1,0,0:0:0:0:
182,192,191853,1,0,0:0:0:0:
329,192,191918,1,0,0:0:0:0:
402,192,191918,1,0,0:0:0:0:
109,192,191983,1,0,0:0:0:0:
182,192,191983,1,0,0:0:0:0:
256,192,192048,1,0,0:0:0:0:
36,192,192048,1,0,0:0:0:0:
475,192,192048,1,0,0:0:0:0:
329,192,192048,1,0,0:0:0:0:
402,192,192048,1,0,0:0:0:0:
36,192,192179,1,0,0:0:0:0:
182,192,192179,1,0,0:0:0:0:
329,192,192179,1,0,0:0:0:0:
475,192,192309,1,0,0:0:0:0:
256,192,192309,1,0,0:0:0:0:
109,192,192309,1,0,0:0:0:0:
36,192,192309,1,0,0:0:0:0:
402,192,192309,1,0,0:0:0:0:
182,192,192440,1,0,0:0:0:0:
329,192,192440,1,0,0:0:0:0:
36,192,192440,1,0,0:0:0:0:
256,192,192440,1,0,0:0:0:0:
475,192,192440,1,0,0:0:0:0:
182,192,192570,1,0,0:0:0:0:
109,192,192570,1,0,0:0:0:0:
36,192,192570,1,0,0:0:0:0:
329,192,192701,1,0,0:0:0:0:
256,192,192701,1,0,0:0:0:0:
182,192,192701,1,0,0:0:0:0:
402,192,192701,1,0,0:0:0:0:
475,192,192701,1,0,0:0:0:0:
256,192,192831,1,0,0:0:0:0:
475,192,192831,1,0,0:0:0:0:
329,192,192831,1,0,0:0:0:0:
182,192,192831,1,0,0:0:0:0:
36,192,192831,1,0,0:0:0:0:
109,192,192962,1,0,0:0:0:0:
402,192,192962,1,0,0:0:0:0:
256,192,192962,1,0,0:0:0:0:
475,192,193092,1,0,0:0:0:0:
329,192,193092,1,0,0:0:0:0:
402,192,193092,1,0,0:0:0:0:
182,192,193092,1,0,0:0:0:0:
36,192,193092,1,0,0:0:0:0:
182,192,193222,1,0,0:0:0:0:
329,192,193222,1,0,0:0:0:0:
475,192,193222,1,0,0:0:0:0:
475,192,193353,1,0,0:0:0:0:
256,192,193353,1,0,0:0:0:0:
402,192,193353,1,0,0:0:0:0:
109,192,193353,1,0,0:0:0:0:
36,192,193353,1,0,0:0:0:0:
475,192,193483,1,0,0:0:0:0:
329,192,193483,1,0,0:0:0:0:
256,192,193483,1,0,0:0:0:0:
182,192,193483,1,0,0:0:0:0:
36,192,193483,1,0,0:0:0:0:
182,192,193614,1,0,0:0:0:0:
475,192,193614,1,0,0:0:0:0:
256,192,193657,1,0,0:0:0:0:
329,192,193701,1,0,0:0:0:0:
36,192,193744,1,0,0:0:0:0:
402,192,193744,1,0,0:0:0:0:
109,192,193788,1,0,0:0:0:0:
182,192,193831,1,0,0:0:0:0:
256,192,193875,1,0,0:0:0:0:
475,192,193875,1,0,0:0:0:0:
36,192,193875,1,0,0:0:0:0:
402,192,193912,1,0,0:0:0:0:
329,192,193949,1,0,0:0:0:0:
256,192,193986,1,0,0:0:0:0:
182,192,194024,1,0,0:0:0:0:
109,192,194061,1,0,0:0:0:0:
36,192,194098,1,0,0:0:0:0:
256,192,194135,128,0,194918:0:0:0:0:
475,192,194135,128,0,194309:0:0:0:0:
329,192,194135,128,0,194222:0:0:0:0:
109,192,194222,128,0,194396:0:0:0:0:
182,192,194309,128,0,194396:0:0:0:0:
329,192,194396,128,0,194483:0:0:0:0:
402,192,194396,128,0,194570:0:0:0:0:
36,192,194483,128,0,194657:0:0:0:0:
182,192,194570,128,0,194657:0:0:0:0:
329,192,194657,128,0,194744:0:0:0:0:
475,192,194657,128,0,194831:0:0:0:0:
109,192,194744,128,0,194831:0:0:0:0:
402,192,194831,128,0,194918:0:0:0:0:
36,192,194918,128,0,195092:0:0:0:0:
475,192,194918,128,0,195005:0:0:0:0:
329,192,194918,128,0,195005:0:0:0:0:
182,192,195005,128,0,195092:0:0:0:0:
256,192,195092,128,0,195179:0:0:0:0:
402,192,195092,128,0,195179:0:0:0:0:
109,192,195179,128,0,195353:0:0:0:0:
329,192,195179,1,0,0:0:0:0:
36,192,195179,128,0,195266:0:0:0:0:
475,192,195179,128,0,195614:0:0:0:0:
182,192,195222,1,0,0:0:0:0:
256,192,195266,128,0,195440:0:0:0:0:
402,192,195353,128,0,195527:0:0:0:0:
36,192,195440,128,0,195570:0:0:0:0:
329,192,195440,1,0,0:0:0:0:
109,192,195440,1,0,0:0:0:0:
256,192,195483,1,0,0:0:0:0:
182,192,195527,128,0,195657:0:0:0:0:
329,192,195614,128,0,195744:0:0:0:0:
36,192,195701,128,0,195788:0:0:0:0:
475,192,195701,128,0,195831:0:0:0:0:
256,192,195701,1,0,0:0:0:0:
182,192,195788,128,0,195875:0:0:0:0:
402,192,195788,1,0,0:0:0:0:
256,192,195875,128,0,195962:0:0:0:0:
109,192,195962,128,0,196048:0:0:0:0:
329,192,195962,128,0,196048:0:0:0:0:
36,192,195962,1,0,0:0:0:0:
475,192,195962,1,0,0:0:0:0:
182,192,196048,128,0,196135:0:0:0:0:
402,192,196048,128,0,196135:0:0:0:0:
256,192,196135,128,0,196222:0:0:0:0:
475,192,196135,128,0,196222:0:0:0:0:
109,192,196222,128,0,196418:0:0:0:0:
36,192,196222,128,0,196679:0:0:0:0:
402,192,196222,128,0,196679:0:0:0:0:
329,192,196222,128,0,196288:0:0:0:0:
182,192,196266,128,0,196679:0:0:0:0:
475,192,196309,128,0,196418:0:0:0:0:
256,192,196353,128,0,196418:0:0:0:0:
329,192,196483,128,0,196679:0:0:0:0:
475,192,196483,128,0,196940:0:0:0:0:
109,192,196548,128,0,196940:0:0:0:0:
256,192,196614,128,0,196679:0:0:0:0:
402,192,196744,128,0,196831:0:0:0:0:
329,192,196744,128,0,196809:0:0:0:0:
36,192,196744,128,0,196940:0:0:0:0:
182,192,196788,128,0,196940:0:0:0:0:
256,192,196831,128,0,196940:0:0:0:0:
329,192,196875,128,0,196940:0:0:0:0:
402,192,197005,128,0,197070:0:0:0:0:
36,192,197005,128,0,197201:0:0:0:0:
256,192,197005,128,0,197070:0:0:0:0:
109,192,197005,128,0,197070:0:0:0:0:
182,192,197005,128,0,197201:0:0:0:0:
475,192,197027,128,0,197092:0:0:0:0:
329,192,197135,128,0,197201:0:0:0:0:
109,192,197135,128,0,197331:0:0:0:0:
402,192,197157,128,0,197222:0:0:0:0:
256,192,197266,128,0,197331:0:0:0:0:
475,192,197266,128,0,197462:0:0:0:0:
36,192,197266,128,0,197462:0:0:0:0:
329,192,197288,128,0,197353:0:0:0:0:
182,192,197396,128,0,197462:0:0:0:0:
402,192,197396,128,0,197592:0:0:0:0:
256,192,197418,128,0,197483:0:0:0:0:
109,192,197527,128,0,197592:0:0:0:0:
329,192,197527,128,0,197722:0:0:0:0:
475,192,197527,128,0,197722:0:0:0:0:
182,192,197548,128,0,197614:0:0:0:0:
36,192,197657,128,0,197722:0:0:0:0:
256,192,197657,128,0,197722:0:0:0:0:
402,192,197657,128,0,197722:0:0:0:0:
109,192,197679,128,0,197744:0:0:0:0:
256,192,197788,128,0,197853:0:0:0:0:
475,192,197788,128,0,197983:0:0:0:0:
329,192,197788,128,0,197983:0:0:0:0:
109,192,197788,128,0,197853:0:0:0:0:
402,192,197788,128,0,197853:0:0:0:0:
36,192,197809,128,0,197875:0:0:0:0:
402,192,197918,128,0,198114:0:0:0:0:
182,192,197918,128,0,197983:0:0:0:0:
109,192,197940,128,0,198005:0:0:0:0:
475,192,198048,128,0,198244:0:0:0:0:
256,192,198048,128,0,198114:0:0:0:0:
36,192,198048,128,0,198244:0:0:0:0:
182,192,198070,128,0,198135:0:0:0:0:
109,192,198179,128,0,198244:0:0:0:0:
329,192,198179,128,0,198244:0:0:0:0:
256,192,198201,128,0,198266:0:0:0:0:
402,192,198309,128,0,198375:0:0:0:0:
36,192,198309,128,0,198505:0:0:0:0:
256,192,198309,128,0,198375:0:0:0:0:
109,192,198309,128,0,198375:0:0:0:0:
182,192,198309,128,0,198505:0:0:0:0:
475,192,198331,128,0,198396:0:0:0:0:
329,192,198440,128,0,198505:0:0:0:0:
109,192,198440,128,0,198635:0:0:0:0:
402,192,198462,128,0,198527:0:0:0:0:
256,192,198570,128,0,198635:0:0:0:0:
475,192,198570,128,0,198766:0:0:0:0:
36,192,198570,128,0,198766:0:0:0:0:
329,192,198592,128,0,198657:0:0:0:0:
182,192,198701,128,0,198766:0:0:0:0:
402,192,198701,128,0,198766:0:0:0:0:
256,192,198722,128,0,198788:0:0:0:0:
329,192,198831,128,0,198896:0:0:0:0:
475,192,198831,128,0,198896:0:0:0:0:
402,192,198831,128,0,199027:0:0:0:0:
182,192,198831,128,0,198896:0:0:0:0:
109,192,198853,128,0,198918:0:0:0:0:
475,192,198962,128,0,199157:0:0:0:0:
256,192,198962,128,0,199027:0:0:0:0:
36,192,198962,128,0,199157:0:0:0:0:
182,192,198983,128,0,199048:0:0:0:0:
109,192,199092,128,0,199288:0:0:0:0:
329,192,199092,128,0,199157:0:0:0:0:
256,192,199114,128,0,199179:0:0:0:0:
402,192,199222,128,0,199288:0:0:0:0:
182,192,199222,128,0,199288:0:0:0:0:
36,192,199222,128,0,199288:0:0:0:0:
329,192,199244,128,0,199309:0:0:0:0:
36,192,199353,128,0,199548:0:0:0:0:
109,192,199353,128,0,199440:0:0:0:0:
475,192,199353,128,0,199548:0:0:0:0:
402,192,199353,128,0,199440:0:0:0:0:
182,192,199353,1,0,0:0:0:0:
256,192,199418,128,0,199527:0:0:0:0:
182,192,199483,128,0,199570:0:0:0:0:
329,192,199548,128,0,199614:0:0:0:0:
402,192,199614,128,0,199679:0:0:0:0:
109,192,199614,128,0,199679:0:0:0:0:
475,192,199614,128,0,199809:0:0:0:0:
256,192,199614,128,0,199679:0:0:0:0:
36,192,199635,128,0,199701:0:0:0:0:
182,192,199744,128,0,199809:0:0:0:0:
329,192,199744,128,0,199809:0:0:0:0:
109,192,199766,128,0,199831:0:0:0:0:
36,192,199875,128,0,200070:0:0:0:0:
402,192,199875,128,0,199940:0:0:0:0:
256,192,199875,128,0,199940:0:0:0:0:
109,192,199875,128,0,199940:0:0:0:0:
475,192,199896,128,0,199962:0:0:0:0:
182,192,200005,128,0,200070:0:0:0:0:
329,192,200005,128,0,200070:0:0:0:0:
402,192,200027,128,0,200114:0:0:0:0:
256,192,200135,128,0,200331:0:0:0:0:
109,192,200135,128,0,200201:0:0:0:0:
329,192,200157,128,0,200331:0:0:0:0:
475,192,200201,128,0,200331:0:0:0:0:
36,192,200222,128,0,200331:0:0:0:0:
182,192,200266,128,0,200331:0:0:0:0:
402,192,200396,128,0,200592:0:0:0:0:
475,192,200396,128,0,200853:0:0:0:0:
109,192,200396,128,0,200853:0:0:0:0:
182,192,200396,128,0,200462:0:0:0:0:
329,192,200440,128,0,200853:0:0:0:0:
36,192,200483,128,0,200592:0:0:0:0:
256,192,200527,128,0,200592:0:0:0:0:
182,192,200657,128,0,200853:0:0:0:0:
36,192,200657,128,0,201114:0:0:0:0:
402,192,200722,128,0,201114:0:0:0:0:
256,192,200788,128,0,200853:0:0:0:0:
475,192,200918,128,0,201114:0:0:0:0:
182,192,200918,128,0,200983:0:0:0:0:
109,192,200918,128,0,201005:0:0:0:0:
329,192,200962,128,0,201114:0:0:0:0:
256,192,201005,128,0,201114:0:0:0:0:
182,192,201048,128,0,201114:0:0:0:0:
329,192,201179,128,0,201244:0:0:0:0:
36,192,201179,128,0,201353:0:0:0:0:
256,192,201179,1,0,0:0:0:0:
475,192,201179,128,0,201244:0:0:0:0:
109,192,201201,128,0,201353:0:0:0:0:
182,192,201222,128,0,201353:0:0:0:0:
402,192,201309,1,0,0:0:0:0:
475,192,201309,1,0,0:0:0:0:
329,192,201309,1,0,0:0:0:0:
475,192,201440,128,0,201635:0:0:0:0:
36,192,201440,128,0,201548:0:0:0:0:
109,192,201440,128,0,201527:0:0:0:0:
182,192,201440,128,0,201505:0:0:0:0:
402,192,201462,128,0,201635:0:0:0:0:
329,192,201483,128,0,201635:0:0:0:0:
256,192,201635,1,0,0:0:0:0:
182,192,201635,1,0,0:0:0:0:
109,192,201635,1,0,0:0:0:0:
36,192,201701,128,0,201875:0:0:0:0:
329,192,201701,1,0,0:0:0:0:
402,192,201701,1,0,0:0:0:0:
475,192,201701,1,0,0:0:0:0:
109,192,201722,128,0,201875:0:0:0:0:
182,192,201744,128,0,201875:0:0:0:0:
475,192,201831,128,0,201896:0:0:0:0:
402,192,201847,128,0,201913:0:0:0:0:
329,192,201864,128,0,202157:0:0:0:0:
182,192,202027,128,0,202157:0:0:0:0:
109,192,202048,128,0,202157:0:0:0:0:
36,192,202070,128,0,202157:0:0:0:0:
256,192,202092,1,0,0:0:0:0:
402,192,202092,1,0,0:0:0:0:
475,192,202092,1,0,0:0:0:0:
329,192,202222,128,0,202396:0:0:0:0:
109,192,202222,1,0,0:0:0:0:
36,192,202222,1,0,0:0:0:0:
182,192,202222,1,0,0:0:0:0:
402,192,202244,128,0,202396:0:0:0:0:
475,192,202266,128,0,202396:0:0:0:0:
36,192,202353,128,0,202418:0:0:0:0:
109,192,202369,128,0,202434:0:0:0:0:
182,192,202385,128,0,202451:0:0:0:0:
36,192,202483,128,0,202679:0:0:0:0:
475,192,202483,128,0,202592:0:0:0:0:
402,192,202483,128,0,202570:0:0:0:0:
329,192,202483,128,0,202548:0:0:0:0:
109,192,202505,128,0,202679:0:0:0:0:
182,192,202532,128,0,202679:0:0:0:0:
402,192,202679,1,0,0:0:0:0:
329,192,202679,1,0,0:0:0:0:
256,192,202679,1,0,0:0:0:0:
109,192,202744,1,0,0:0:0:0:
36,192,202744,1,0,0:0:0:0:
475,192,202744,128,0,202918:0:0:0:0:
182,192,202744,1,0,0:0:0:0:
402,192,202766,128,0,202918:0:0:0:0:
329,192,202788,128,0,202918:0:0:0:0:
36,192,202875,128,0,202940:0:0:0:0:
109,192,202891,128,0,202956:0:0:0:0:
182,192,202907,128,0,203201:0:0:0:0:
329,192,203070,128,0,203201:0:0:0:0:
402,192,203092,128,0,203201:0:0:0:0:
475,192,203114,128,0,203201:0:0:0:0:
36,192,203135,1,0,0:0:0:0:
109,192,203135,1,0,0:0:0:0:
256,192,203135,1,0,0:0:0:0:
475,192,203266,1,0,0:0:0:0:
329,192,203266,1,0,0:0:0:0:
256,192,203266,128,0,203440:0:0:0:0:
402,192,203266,1,0,0:0:0:0:
109,192,203288,128,0,203440:0:0:0:0:
36,192,203309,128,0,203440:0:0:0:0:
475,192,203396,128,0,203462:0:0:0:0:
402,192,203413,128,0,203478:0:0:0:0:
329,192,203429,128,0,203494:0:0:0:0:
475,192,203527,128,0,203657:0:0:0:0:
36,192,203527,128,0,203635:0:0:0:0:
182,192,203527,128,0,203592:0:0:0:0:
109,192,203527,128,0,203614:0:0:0:0:
402,192,203548,128,0,203657:0:0:0:0:
256,192,203570,128,0,203853:0:0:0:0:
36,192,203722,1,0,0:0:0:0:
109,192,203722,1,0,0:0:0:0:
329,192,203788,1,0,0:0:0:0:
402,192,203788,1,0,0:0:0:0:
475,192,203788,1,0,0:0:0:0:
256,192,203918,1,0,0:0:0:0:
109,192,203918,1,0,0:0:0:0:
36,192,203918,1,0,0:0:0:0:
36,192,204048,1,0,0:0:0:0:
329,192,204048,1,0,0:0:0:0:
402,192,204048,1,0,0:0:0:0:
475,192,204048,1,0,0:0:0:0:
182,192,204048,128,0,204293:0:0:0:0:
329,192,204228,128,0,204505:0:0:0:0:
256,192,204570,1,0,0:0:0:0:
182,192,204570,1,0,0:0:0:0:
36,192,204570,1,0,0:0:0:0:
109,192,204570,1,0,0:0:0:0:
329,192,204570,1,0,0:0:0:0:
402,192,204570,1,0,0:0:0:0:
475,192,204570,1,0,0:0:0:0:
329,192,204831,1,0,0:0:0:0:
402,192,204847,1,0,0:0:0:0:
475,192,204863,1,0,0:0:0:0:
256,192,204962,1,0,0:0:0:0:
36,192,204962,1,0,0:0:0:0:
109,192,204962,1,0,0:0:0:0:
329,192,204977,1,0,0:0:0:0:
402,192,204994,1,0,0:0:0:0:
109,192,205092,1,0,0:0:0:0:
36,192,205092,1,0,0:0:0:0:
182,192,205092,1,0,0:0:0:0:
256,192,205092,1,0,0:0:0:0:
402,192,205092,1,0,0:0:0:0:
329,192,205092,1,0,0:0:0:0:
475,192,205092,1,0,0:0:0:0:
182,192,205353,1,0,0:0:0:0:
109,192,205353,1,0,0:0:0:0:
36,192,205353,1,0,0:0:0:0:
475,192,205353,1,0,0:0:0:0:
402,192,205385,1,0,0:0:0:0:
329,192,205418,1,0,0:0:0:0:
256,192,205451,1,0,0:0:0:0:
182,192,205483,1,0,0:0:0:0:
109,192,205516,1,0,0:0:0:0:
109,192,205614,1,0,0:0:0:0:
36,192,205614,1,0,0:0:0:0:
182,192,205614,1,0,0:0:0:0:
256,192,205614,1,0,0:0:0:0:
329,192,205614,1,0,0:0:0:0:
402,192,205614,1,0,0:0:0:0:
475,192,205614,1,0,0:0:0:0:
36,192,205744,1,0,0:0:0:0:
109,192,205744,1,0,0:0:0:0:
256,192,205809,1,0,0:0:0:0:
329,192,205809,1,0,0:0:0:0:
182,192,205875,1,0,0:0:0:0:
109,192,205875,1,0,0:0:0:0:
329,192,205940,1,0,0:0:0:0:
402,192,205940,1,0,0:0:0:0:
256,192,206005,1,0,0:0:0:0:
36,192,206005,1,0,0:0:0:0:
182,192,206005,1,0,0:0:0:0:
402,192,206070,1,0,0:0:0:0:
475,192,206070,1,0,0:0:0:0:
329,192,206135,1,0,0:0:0:0:
109,192,206135,1,0,0:0:0:0:
36,192,206135,1,0,0:0:0:0:
182,192,206135,1,0,0:0:0:0:
256,192,206135,1,0,0:0:0:0:
402,192,206201,1,0,0:0:0:0:
475,192,206201,1,0,0:0:0:0:
109,192,206266,1,0,0:0:0:0:
182,192,206266,1,0,0:0:0:0:
402,192,206331,1,0,0:0:0:0:
329,192,206331,1,0,0:0:0:0:
256,192,206396,1,0,0:0:0:0:
182,192,206396,1,0,0:0:0:0:
36,192,206396,1,0,0:0:0:0:
475,192,206429,1,0,0:0:0:0:
402,192,206462,1,0,0:0:0:0:
329,192,206494,1,0,0:0:0:0:
256,192,206527,1,0,0:0:0:0:
182,192,206559,1,0,0:0:0:0:
475,192,206657,1,0,0:0:0:0:
36,192,206657,1,0,0:0:0:0:
109,192,206657,1,0,0:0:0:0:
182,192,206657,1,0,0:0:0:0:
256,192,206657,1,0,0:0:0:0:
329,192,206657,1,0,0:0:0:0:
402,192,206657,1,0,0:0:0:0:
402,192,206788,1,0,0:0:0:0:
475,192,206809,1,0,0:0:0:0:
36,192,206918,1,0,0:0:0:0:
109,192,206923,1,0,0:0:0:0:
182,192,206928,1,0,0:0:0:0:
256,192,206933,1,0,0:0:0:0:
329,192,206938,1,0,0:0:0:0:
402,192,206944,1,0,0:0:0:0:
475,192,206949,1,0,0:0:0:0:
109,192,207048,1,0,0:0:0:0:
329,192,207048,1,0,0:0:0:0:
36,192,207070,1,0,0:0:0:0:
109,192,207179,1,0,0:0:0:0:
36,192,207179,1,0,0:0:0:0:
182,192,207179,1,0,0:0:0:0:
256,192,207179,1,0,0:0:0:0:
329,192,207179,1,0,0:0:0:0:
402,192,207179,1,0,0:0:0:0:
475,192,207179,1,0,0:0:0:0:
475,192,207440,1,0,0:0:0:0:
402,192,207445,1,0,0:0:0:0:
329,192,207450,1,0,0:0:0:0:
256,192,207456,1,0,0:0:0:0:
182,192,207460,1,0,0:0:0:0:
109,192,207466,1,0,0:0:0:0:
36,192,207472,1,0,0:0:0:0:
182,192,207570,1,0,0:0:0:0:
109,192,207701,1,0,0:0:0:0:
36,192,207701,1,0,0:0:0:0:
182,192,207701,1,0,0:0:0:0:
256,192,207701,1,0,0:0:0:0:
329,192,207701,1,0,0:0:0:0:
475,192,207701,1,0,0:0:0:0:
402,192,207701,1,0,0:0:0:0:
36,192,207831,1,0,0:0:0:0:
256,192,207831,1,0,0:0:0:0:
109,192,207853,1,0,0:0:0:0:
109,192,207962,1,0,0:0:0:0:
329,192,207962,1,0,0:0:0:0:
182,192,207983,1,0,0:0:0:0:
182,192,208092,1,0,0:0:0:0:
475,192,208092,1,0,0:0:0:0:
402,192,208092,1,0,0:0:0:0:
256,192,208114,1,0,0:0:0:0:
256,192,208222,1,0,0:0:0:0:
109,192,208222,1,0,0:0:0:0:
36,192,208222,1,0,0:0:0:0:
182,192,208222,1,0,0:0:0:0:
329,192,208222,1,0,0:0:0:0:
402,192,208222,1,0,0:0:0:0:
475,192,208222,1,0,0:0:0:0:
256,192,208353,1,0,0:0:0:0:
475,192,208353,1,0,0:0:0:0:
402,192,208375,1,0,0:0:0:0:
36,192,208483,1,0,0:0:0:0:
402,192,208483,1,0,0:0:0:0:
182,192,208483,1,0,0:0:0:0:
329,192,208505,1,0,0:0:0:0:
109,192,208614,1,0,0:0:0:0:
329,192,208614,1,0,0:0:0:0:
256,192,208635,1,0,0:0:0:0:
256,192,208744,128,0,209135:0:0:0:0:
475,192,208744,128,0,208940:0:0:0:0:
182,192,208744,128,0,208875:0:0:0:0:
109,192,208744,128,0,208809:0:0:0:0:
36,192,208744,1,0,0:0:0:0:
402,192,208809,128,0,208875:0:0:0:0:
36,192,208875,128,0,209005:0:0:0:0:
329,192,208875,1,0,0:0:0:0:
109,192,208940,128,0,209005:0:0:0:0:
402,192,209005,128,0,209396:0:0:0:0:
182,192,209005,128,0,209201:0:0:0:0:
329,192,209005,128,0,209070:0:0:0:0:
475,192,209005,1,0,0:0:0:0:
475,192,209135,128,0,209266:0:0:0:0:
109,192,209135,1,0,0:0:0:0:
36,192,209135,128,0,209201:0:0:0:0:
329,192,209201,128,0,209266:0:0:0:0:
109,192,209266,128,0,209592:0:0:0:0:
256,192,209266,128,0,209396:0:0:0:0:
182,192,209266,128,0,209331:0:0:0:0:
36,192,209266,1,0,0:0:0:0:
36,192,209396,128,0,209527:0:0:0:0:
329,192,209396,1,0,0:0:0:0:
475,192,209396,128,0,209462:0:0:0:0:
182,192,209462,128,0,209527:0:0:0:0:
329,192,209527,128,0,209788:0:0:0:0:
475,192,209527,128,0,209592:0:0:0:0:
256,192,209527,128,0,209592:0:0:0:0:
402,192,209592,128,0,209657:0:0:0:0:
36,192,209657,128,0,209722:0:0:0:0:
182,192,209657,1,0,0:0:0:0:
475,192,209657,1,0,0:0:0:0:
109,192,209722,128,0,209788:0:0:0:0:
256,192,209788,128,0,210146:0:0:0:0:
475,192,209788,128,0,209983:0:0:0:0:
36,192,209788,128,0,209983:0:0:0:0:
182,192,209788,128,0,209853:0:0:0:0:
402,192,209788,128,0,209853:0:0:0:0:
109,192,209853,128,0,209918:0:0:0:0:
329,192,209918,128,0,209983:0:0:0:0:
402,192,209918,1,0,0:0:0:0:
182,192,209983,128,0,210048:0:0:0:0:
475,192,210048,128,0,210114:0:0:0:0:
36,192,210048,128,0,210260:0:0:0:0:
329,192,210048,128,0,210114:0:0:0:0:
402,192,210048,128,0,210114:0:0:0:0:
109,192,210114,128,0,210179:0:0:0:0:
475,192,210179,128,0,210260:0:0:0:0:
402,192,210195,128,0,210260:0:0:0:0:
329,192,210212,128,0,210260:0:0:0:0:
329,192,210309,128,0,210375:0:0:0:0:
475,192,210309,128,0,210505:0:0:0:0:
256,192,210309,128,0,210668:0:0:0:0:
36,192,210309,128,0,210505:0:0:0:0:
109,192,210309,128,0,210375:0:0:0:0:
402,192,210375,128,0,210440:0:0:0:0:
109,192,210440,1,0,0:0:0:0:
182,192,210440,128,0,210505:0:0:0:0:
329,192,210505,128,0,210570:0:0:0:0:
182,192,210570,128,0,210635:0:0:0:0:
36,192,210570,128,0,210635:0:0:0:0:
109,192,210570,128,0,210635:0:0:0:0:
475,192,210570,128,0,210782:0:0:0:0:
402,192,210635,128,0,210701:0:0:0:0:
36,192,210701,128,0,210782:0:0:0:0:
109,192,210717,128,0,210782:0:0:0:0:
182,192,210733,128,0,210782:0:0:0:0:
402,192,210831,128,0,211135:0:0:0:0:
256,192,210831,128,0,210918:0:0:0:0:
475,192,210831,128,0,210918:0:0:0:0:
36,192,210831,128,0,211309:0:0:0:0:
109,192,210831,128,0,210918:0:0:0:0:
329,192,210831,128,0,210918:0:0:0:0:
182,192,210831,128,0,210918:0:0:0:0:
475,192,211048,128,0,211527:0:0:0:0:
182,192,211048,128,0,211309:0:0:0:0:
109,192,211048,128,0,211135:0:0:0:0:
329,192,211048,128,0,211135:0:0:0:0:
256,192,211048,128,0,211135:0:0:0:0:
402,192,211222,128,0,211309:0:0:0:0:
329,192,211222,128,0,211527:0:0:0:0:
256,192,211222,128,0,211309:0:0:0:0:
109,192,211222,128,0,211527:0:0:0:0:
402,192,211440,128,0,211527:0:0:0:0:
182,192,211440,128,0,211527:0:0:0:0:
36,192,211440,128,0,211527:0:0:0:0:
256,192,211440,128,0,211527:0:0:0:0:
182,192,211614,1,0,0:0:0:0:
109,192,211614,1,0,0:0:0:0:
36,192,211614,1,0,0:0:0:0:
475,192,211614,128,0,211679:0:0:0:0:
402,192,211635,128,0,211701:0:0:0:0:
329,192,211657,128,0,211722:0:0:0:0:
256,192,211679,128,0,211744:0:0:0:0:
182,192,211701,128,0,211766:0:0:0:0:
109,192,211722,128,0,211788:0:0:0:0:
36,192,211744,128,0,211809:0:0:0:0:
402,192,211875,128,0,211962:0:0:0:0:
182,192,211875,128,0,211962:0:0:0:0:
329,192,211875,128,0,211962:0:0:0:0:
475,192,211875,128,0,212353:0:0:0:0:
109,192,211875,128,0,212179:0:0:0:0:
256,192,211875,128,0,211962:0:0:0:0:
36,192,211875,128,0,211962:0:0:0:0:
36,192,212092,128,0,212570:0:0:0:0:
402,192,212092,128,0,212179:0:0:0:0:
256,192,212092,128,0,212179:0:0:0:0:
182,192,212092,128,0,212179:0:0:0:0:
329,192,212092,128,0,212353:0:0:0:0:
256,192,212266,128,0,212353:0:0:0:0:
109,192,212266,128,0,212353:0:0:0:0:
182,192,212266,128,0,212570:0:0:0:0:
402,192,212266,128,0,212570:0:0:0:0:
256,192,212483,128,0,212570:0:0:0:0:
329,192,212483,128,0,212570:0:0:0:0:
109,192,212483,128,0,212570:0:0:0:0:
475,192,212483,128,0,212570:0:0:0:0:
109,192,212657,128,0,212788:0:0:0:0:
402,192,212788,128,0,212918:0:0:0:0:
256,192,212918,128,0,213179:0:0:0:0:
109,192,212918,1,0,0:0:0:0:
36,192,212918,1,0,0:0:0:0:
182,192,212918,1,0,0:0:0:0:
329,192,212918,1,0,0:0:0:0:
475,192,212918,1,0,0:0:0:0:
475,192,213179,128,0,213440:0:0:0:0:
109,192,213179,1,0,0:0:0:0:
36,192,213179,1,0,0:0:0:0:
182,192,213309,1,0,0:0:0:0:
256,192,213309,1,0,0:0:0:0:
329,192,213309,1,0,0:0:0:0:
109,192,213440,128,0,213701:0:0:0:0:
402,192,213440,1,0,0:0:0:0:
36,192,213440,1,0,0:0:0:0:
402,192,213701,128,0,213962:0:0:0:0:
256,192,213701,1,0,0:0:0:0:
475,192,213701,1,0,0:0:0:0:
36,192,213701,1,0,0:0:0:0:
36,192,213962,128,0,214222:0:0:0:0:
256,192,213962,1,0,0:0:0:0:
475,192,213962,1,0,0:0:0:0:
329,192,214027,1,0,0:0:0:0:
182,192,214092,1,0,0:0:0:0:
256,192,214157,1,0,0:0:0:0:
329,192,214222,128,0,214483:0:0:0:0:
109,192,214222,1,0,0:0:0:0:
475,192,214222,1,0,0:0:0:0:
182,192,214288,1,0,0:0:0:0:
36,192,214353,1,0,0:0:0:0:
109,192,214418,1,0,0:0:0:0:
182,192,214483,128,0,214744:0:0:0:0:
475,192,214483,1,0,0:0:0:0:
36,192,214483,1,0,0:0:0:0:
402,192,214548,1,0,0:0:0:0:
329,192,214614,1,0,0:0:0:0:
402,192,214679,1,0,0:0:0:0:
475,192,214744,128,0,215005:0:0:0:0:
36,192,214744,1,0,0:0:0:0:
109,192,214788,1,0,0:0:0:0:
182,192,214831,1,0,0:0:0:0:
256,192,214875,1,0,0:0:0:0:
329,192,214918,1,0,0:0:0:0:
182,192,215005,128,0,215266:0:0:0:0:
109,192,215005,1,0,0:0:0:0:
36,192,215005,1,0,0:0:0:0:
402,192,215135,1,0,0:0:0:0:
329,192,215135,1,0,0:0:0:0:
402,192,215266,128,0,215527:0:0:0:0:
475,192,215266,1,0,0:0:0:0:
36,192,215266,1,0,0:0:0:0:
256,192,215396,1,0,0:0:0:0:
182,192,215396,1,0,0:0:0:0:
109,192,215527,128,0,215788:0:0:0:0:
36,192,215527,1,0,0:0:0:0:
475,192,215527,1,0,0:0:0:0:
329,192,215788,128,0,216048:0:0:0:0:
256,192,215788,1,0,0:0:0:0:
36,192,215788,1,0,0:0:0:0:
475,192,215788,1,0,0:0:0:0:
36,192,216048,128,0,216309:0:0:0:0:
475,192,216048,1,0,0:0:0:0:
182,192,216048,1,0,0:0:0:0:
402,192,216179,1,0,0:0:0:0:
256,192,216179,1,0,0:0:0:0:
256,192,216309,128,0,216570:0:0:0:0:
475,192,216309,1,0,0:0:0:0:
109,192,216309,1,0,0:0:0:0:
182,192,216440,1,0,0:0:0:0:
402,192,216440,1,0,0:0:0:0:
109,192,216570,128,0,216831:0:0:0:0:
36,192,216570,1,0,0:0:0:0:
475,192,216570,1,0,0:0:0:0:
402,192,216831,128,0,217092:0:0:0:0:
36,192,216831,1,0,0:0:0:0:
475,192,216831,1,0,0:0:0:0:
256,192,216831,1,0,0:0:0:0:
36,192,217092,128,0,217483:0:0:0:0:
256,192,217092,1,0,0:0:0:0:
109,192,217092,128,0,217222:0:0:0:0:
475,192,217092,1,0,0:0:0:0:
329,192,217157,128,0,217288:0:0:0:0:
475,192,217222,128,0,217353:0:0:0:0:
182,192,217222,1,0,0:0:0:0:
256,192,217288,128,0,217418:0:0:0:0:
402,192,217353,128,0,217483:0:0:0:0:
109,192,217353,1,0,0:0:0:0:
182,192,217418,128,0,217548:0:0:0:0:
329,192,217483,128,0,217614:0:0:0:0:
475,192,217483,1,0,0:0:0:0:
109,192,217548,128,0,217614:0:0:0:0:
475,192,217614,128,0,218005:0:0:0:0:
402,192,217614,128,0,217744:0:0:0:0:
256,192,217614,1,0,0:0:0:0:
36,192,217614,1,0,0:0:0:0:
182,192,217679,128,0,217809:0:0:0:0:
36,192,217744,128,0,217875:0:0:0:0:
329,192,217744,1,0,0:0:0:0:
256,192,217809,128,0,217940:0:0:0:0:
109,192,217875,128,0,218005:0:0:0:0:
402,192,217875,1,0,0:0:0:0:
329,192,217940,128,0,218070:0:0:0:0:
182,192,218005,128,0,218135:0:0:0:0:
36,192,218005,1,0,0:0:0:0:
402,192,218070,128,0,218135:0:0:0:0:
109,192,218135,128,0,218266:0:0:0:0:
256,192,218135,1,0,0:0:0:0:
36,192,218135,128,0,218527:0:0:0:0:
475,192,218135,128,0,218201:0:0:0:0:
329,192,218201,128,0,218266:0:0:0:0:
475,192,218266,128,0,218331:0:0:0:0:
182,192,218266,1,0,0:0:0:0:
256,192,218331,128,0,218396:0:0:0:0:
109,192,218396,1,0,0:0:0:0:
402,192,218396,128,0,218462:0:0:0:0:
182,192,218462,128,0,218527:0:0:0:0:
329,192,218527,128,0,218592:0:0:0:0:
475,192,218527,1,0,0:0:0:0:
109,192,218592,128,0,218657:0:0:0:0:
256,192,218657,1,0,0:0:0:0:
36,192,218657,128,0,218722:0:0:0:0:
475,192,218657,128,0,219048:0:0:0:0:
402,192,218657,128,0,218788:0:0:0:0:
182,192,218722,128,0,218788:0:0:0:0:
329,192,218788,1,0,0:0:0:0:
36,192,218788,128,0,218853:0:0:0:0:
256,192,218853,128,0,218918:0:0:0:0:
109,192,218918,128,0,218983:0:0:0:0:
402,192,218918,1,0,0:0:0:0:
329,192,218983,128,0,219048:0:0:0:0:
36,192,219048,1,0,0:0:0:0:
182,192,219048,128,0,219114:0:0:0:0:
402,192,219114,128,0,219179:0:0:0:0:
109,192,219179,128,0,219309:0:0:0:0:
36,192,219179,128,0,219570:0:0:0:0:
475,192,219179,128,0,219244:0:0:0:0:
256,192,219179,1,0,0:0:0:0:
329,192,219244,1,0,0:0:0:0:
182,192,219309,1,0,0:0:0:0:
475,192,219309,1,0,0:0:0:0:
256,192,219375,1,0,0:0:0:0:
109,192,219440,1,0,0:0:0:0:
402,192,219440,1,0,0:0:0:0:
182,192,219505,1,0,0:0:0:0:
475,192,219570,1,0,0:0:0:0:
329,192,219570,1,0,0:0:0:0:
109,192,219635,1,0,0:0:0:0:
256,192,219701,1,0,0:0:0:0:
475,192,219701,128,0,220092:0:0:0:0:
402,192,219701,1,0,0:0:0:0:
36,192,219701,1,0,0:0:0:0:
182,192,219766,1,0,0:0:0:0:
329,192,219831,1,0,0:0:0:0:
36,192,219831,1,0,0:0:0:0:
256,192,219896,1,0,0:0:0:0:
402,192,219962,1,0,0:0:0:0:
109,192,219962,1,0,0:0:0:0:
329,192,220027,1,0,0:0:0:0:
36,192,220092,1,0,0:0:0:0:
182,192,220092,1,0,0:0:0:0:
402,192,220157,1,0,0:0:0:0:
256,192,220222,128,0,220353:0:0:0:0:
109,192,220222,1,0,0:0:0:0:
36,192,220222,1,0,0:0:0:0:
475,192,220222,1,0,0:0:0:0:
36,192,220483,128,0,220614:0:0:0:0:
182,192,220614,128,0,220744:0:0:0:0:
402,192,220744,128,0,221135:0:0:0:0:
329,192,220875,128,0,221135:0:0:0:0:
109,192,221005,128,0,221135:0:0:0:0:
256,192,221266,1,0,0:0:0:0:
329,192,221266,1,0,0:0:0:0:
402,192,221266,1,0,0:0:0:0:
182,192,221331,1,0,0:0:0:0:
109,192,221331,1,0,0:0:0:0:
36,192,221331,1,0,0:0:0:0:
329,192,221396,1,0,0:0:0:0:
402,192,221396,1,0,0:0:0:0:
475,192,221396,1,0,0:0:0:0:
256,192,221462,1,0,0:0:0:0:
182,192,221462,1,0,0:0:0:0:
109,192,221462,1,0,0:0:0:0:
402,192,221527,1,0,0:0:0:0:
475,192,221527,1,0,0:0:0:0:
109,192,221788,1,0,0:0:0:0:
182,192,221788,1,0,0:0:0:0:
256,192,221788,1,0,0:0:0:0:
329,192,221853,1,0,0:0:0:0:
402,192,221853,1,0,0:0:0:0:
475,192,221853,1,0,0:0:0:0:
182,192,221918,1,0,0:0:0:0:
36,192,221918,1,0,0:0:0:0:
109,192,221918,1,0,0:0:0:0:
256,192,221983,1,0,0:0:0:0:
402,192,221983,1,0,0:0:0:0:
329,192,221983,1,0,0:0:0:0:
109,192,222048,1,0,0:0:0:0:
36,192,222048,1,0,0:0:0:0:
182,192,222309,1,0,0:0:0:0:
256,192,222309,1,0,0:0:0:0:
329,192,222309,1,0,0:0:0:0:
475,192,222309,1,0,0:0:0:0:
109,192,222375,1,0,0:0:0:0:
36,192,222375,1,0,0:0:0:0:
329,192,222440,1,0,0:0:0:0:
256,192,222440,1,0,0:0:0:0:
402,192,222440,1,0,0:0:0:0:
182,192,222505,1,0,0:0:0:0:
109,192,222505,1,0,0:0:0:0:
329,192,222570,1,0,0:0:0:0:
402,192,222570,1,0,0:0:0:0:
475,192,222570,1,0,0:0:0:0:
36,192,222570,1,0,0:0:0:0:
256,192,222635,1,0,0:0:0:0:
182,192,222635,1,0,0:0:0:0:
402,192,222701,1,0,0:0:0:0:
475,192,222701,1,0,0:0:0:0:
109,192,222701,1,0,0:0:0:0:
329,192,222766,1,0,0:0:0:0:
256,192,222766,1,0,0:0:0:0:
36,192,222831,1,0,0:0:0:0:
182,192,222896,1,0,0:0:0:0:
109,192,222962,1,0,0:0:0:0:
256,192,223027,1,0,0:0:0:0:
475,192,223092,1,0,0:0:0:0:
402,192,223157,1,0,0:0:0:0:
329,192,223222,1,0,0:0:0:0:
256,192,223288,1,0,0:0:0:0:
109,192,223353,128,0,223418:0:0:0:0:
36,192,223353,128,0,223418:0:0:0:0:
475,192,223353,128,0,223418:0:0:0:0:
329,192,223353,128,0,223418:0:0:0:0:
182,192,223353,128,0,223418:0:0:0:0:
402,192,223353,128,0,223418:0:0:0:0:
36,192,223483,128,0,223548:0:0:0:0:
256,192,223483,128,0,223548:0:0:0:0:
402,192,223483,128,0,223548:0:0:0:0:
109,192,223483,128,0,223548:0:0:0:0:
475,192,223483,128,0,223548:0:0:0:0:
329,192,223614,128,0,224070:0:0:0:0:
36,192,223614,128,0,223809:0:0:0:0:
475,192,223614,128,0,223701:0:0:0:0:
402,192,223614,128,0,223657:0:0:0:0:
182,192,223614,1,0,0:0:0:0:
109,192,223657,128,0,223809:0:0:0:0:
256,192,223701,128,0,223809:0:0:0:0:
402,192,223744,128,0,223809:0:0:0:0:
182,192,223875,128,0,224331:0:0:0:0:
475,192,223875,128,0,224070:0:0:0:0:
109,192,223875,128,0,223918:0:0:0:0:
36,192,223875,128,0,223962:0:0:0:0:
402,192,223918,128,0,224070:0:0:0:0:
256,192,223962,128,0,224070:0:0:0:0:
109,192,224005,128,0,224070:0:0:0:0:
256,192,224135,128,0,224179:0:0:0:0:
402,192,224135,128,0,224592:0:0:0:0:
475,192,224135,128,0,224331:0:0:0:0:
329,192,224135,128,0,224222:0:0:0:0:
36,192,224179,128,0,224331:0:0:0:0:
109,192,224222,128,0,224331:0:0:0:0:
256,192,224266,128,0,224331:0:0:0:0:
109,192,224396,128,0,224853:0:0:0:0:
36,192,224396,128,0,224592:0:0:0:0:
182,192,224396,128,0,224440:0:0:0:0:
475,192,224396,128,0,224483:0:0:0:0:
329,192,224440,128,0,224592:0:0:0:0:
256,192,224483,128,0,224592:0:0:0:0:
182,192,224527,128,0,224592:0:0:0:0:
329,192,224657,128,0,225114:0:0:0:0:
475,192,224657,128,0,224853:0:0:0:0:
402,192,224657,128,0,224744:0:0:0:0:
256,192,224657,128,0,224701:0:0:0:0:
36,192,224701,128,0,224853:0:0:0:0:
182,192,224744,128,0,224853:0:0:0:0:
256,192,224788,128,0,224853:0:0:0:0:
182,192,224918,128,0,225375:0:0:0:0:
475,192,224918,128,0,225114:0:0:0:0:
109,192,224918,128,0,225005:0:0:0:0:
36,192,224918,128,0,224962:0:0:0:0:
256,192,224962,128,0,225114:0:0:0:0:
402,192,225005,128,0,225114:0:0:0:0:
36,192,225048,128,0,225114:0:0:0:0:
475,192,225179,128,0,225635:0:0:0:0:
36,192,225179,128,0,225375:0:0:0:0:
109,192,225179,128,0,225266:0:0:0:0:
256,192,225179,128,0,225222:0:0:0:0:
402,192,225222,128,0,225375:0:0:0:0:
329,192,225266,128,0,225375:0:0:0:0:
256,192,225309,128,0,225375:0:0:0:0:
36,192,225440,128,0,225896:0:0:0:0:
256,192,225440,128,0,225635:0:0:0:0:
329,192,225440,128,0,225483:0:0:0:0:
402,192,225440,128,0,225527:0:0:0:0:
109,192,225483,128,0,225635:0:0:0:0:
182,192,225527,128,0,225635:0:0:0:0:
329,192,225570,128,0,225635:0:0:0:0:
402,192,225701,128,0,226157:0:0:0:0:
475,192,225701,128,0,225896:0:0:0:0:
109,192,225701,128,0,225788:0:0:0:0:
182,192,225701,128,0,225744:0:0:0:0:
329,192,225744,128,0,225896:0:0:0:0:
256,192,225788,128,0,225896:0:0:0:0:
182,192,225831,128,0,225896:0:0:0:0:
109,192,225962,128,0,226418:0:0:0:0:
36,192,225962,128,0,226157:0:0:0:0:
256,192,225962,128,0,226005:0:0:0:0:
182,192,225962,128,0,226048:0:0:0:0:
475,192,226005,128,0,226157:0:0:0:0:
329,192,226048,128,0,226157:0:0:0:0:
256,192,226092,128,0,226157:0:0:0:0:
329,192,226222,128,0,226679:0:0:0:0:
36,192,226222,128,0,226418:0:0:0:0:
402,192,226222,128,0,226266:0:0:0:0:
475,192,226222,128,0,226309:0:0:0:0:
182,192,226266,128,0,226418:0:0:0:0:
256,192,226309,128,0,226418:0:0:0:0:
402,192,226353,128,0,226418:0:0:0:0:
36,192,226483,128,0,226940:0:0:0:0:
475,192,226483,128,0,226679:0:0:0:0:
182,192,226483,128,0,226527:0:0:0:0:
109,192,226483,128,0,226570:0:0:0:0:
402,192,226527,128,0,226679:0:0:0:0:
256,192,226570,128,0,226679:0:0:0:0:
182,192,226614,128,0,226679:0:0:0:0:
402,192,226744,128,0,227201:0:0:0:0:
475,192,226744,128,0,226940:0:0:0:0:
329,192,226744,128,0,226831:0:0:0:0:
256,192,226744,128,0,226788:0:0:0:0:
109,192,226788,128,0,226940:0:0:0:0:
182,192,226831,128,0,226940:0:0:0:0:
256,192,226875,128,0,226940:0:0:0:0:
256,192,227005,128,0,227201:0:0:0:0:
182,192,227005,128,0,227462:0:0:0:0:
475,192,227005,128,0,227092:0:0:0:0:
329,192,227005,128,0,227048:0:0:0:0:
36,192,227048,128,0,227201:0:0:0:0:
109,192,227092,128,0,227201:0:0:0:0:
329,192,227135,128,0,227201:0:0:0:0:
475,192,227266,128,0,227462:0:0:0:0:
36,192,227266,128,0,227462:0:0:0:0:
109,192,227266,128,0,227353:0:0:0:0:
256,192,227266,128,0,227309:0:0:0:0:
402,192,227309,128,0,227462:0:0:0:0:
329,192,227353,128,0,227462:0:0:0:0:
256,192,227396,128,0,227462:0:0:0:0:
36,192,227527,1,0,0:0:0:0:
109,192,227527,1,0,0:0:0:0:
256,192,227527,1,0,0:0:0:0:
402,192,227527,1,0,0:0:0:0:
475,192,227527,1,0,0:0:0:0:
182,192,227592,1,0,0:0:0:0:
329,192,227592,1,0,0:0:0:0:
109,192,227592,1,0,0:0:0:0:
402,192,227592,1,0,0:0:0:0:
109,192,227722,1,0,0:0:0:0:
182,192,227722,1,0,0:0:0:0:
329,192,227722,1,0,0:0:0:0:
402,192,227722,1,0,0:0:0:0:
475,192,227788,128,0,227983:0:0:0:0:
109,192,227788,128,0,227831:0:0:0:0:
36,192,227788,128,0,227875:0:0:0:0:
182,192,227788,128,0,228244:0:0:0:0:
329,192,227831,128,0,227983:0:0:0:0:
256,192,227875,128,0,227983:0:0:0:0:
109,192,227918,128,0,227983:0:0:0:0:
402,192,228048,128,0,228135:0:0:0:0:
256,192,228048,128,0,228092:0:0:0:0:
329,192,228048,128,0,228505:0:0:0:0:
475,192,228048,128,0,228244:0:0:0:0:
36,192,228092,128,0,228244:0:0:0:0:
109,192,228135,128,0,228244:0:0:0:0:
256,192,228179,128,0,228244:0:0:0:0:
402,192,228309,128,0,228353:0:0:0:0:
109,192,228309,128,0,228766:0:0:0:0:
475,192,228309,128,0,228396:0:0:0:0:
36,192,228309,128,0,228505:0:0:0:0:
182,192,228353,128,0,228505:0:0:0:0:
256,192,228396,128,0,228505:0:0:0:0:
402,192,228440,128,0,228505:0:0:0:0:
256,192,228570,128,0,228614:0:0:0:0:
182,192,228570,128,0,228657:0:0:0:0:
402,192,228570,128,0,229027:0:0:0:0:
475,192,228570,128,0,228766:0:0:0:0:
36,192,228614,128,0,228766:0:0:0:0:
329,192,228657,128,0,228766:0:0:0:0:
256,192,228701,128,0,228766:0:0:0:0:
329,192,228831,128,0,228918:0:0:0:0:
256,192,228831,128,0,228875:0:0:0:0:
36,192,228831,128,0,229288:0:0:0:0:
475,192,228831,128,0,229027:0:0:0:0:
109,192,228875,128,0,229027:0:0:0:0:
182,192,228918,128,0,229027:0:0:0:0:
256,192,228962,128,0,229027:0:0:0:0:
182,192,229092,128,0,229135:0:0:0:0:
109,192,229092,128,0,229179:0:0:0:0:
329,192,229092,128,0,229288:0:0:0:0:
475,192,229092,128,0,229288:0:0:0:0:
402,192,229135,128,0,229288:0:0:0:0:
256,192,229179,128,0,229288:0:0:0:0:
182,192,229222,128,0,229288:0:0:0:0:
109,192,229353,128,0,229548:0:0:0:0:
182,192,229353,128,0,229483:0:0:0:0:
36,192,229353,128,0,229548:0:0:0:0:
475,192,229353,128,0,229434:0:0:0:0:
256,192,229353,128,0,229418:0:0:0:0:
402,192,229418,128,0,229499:0:0:0:0:
329,192,229483,128,0,229564:0:0:0:0:
256,192,229548,128,0,229630:0:0:0:0:
329,192,229613,128,0,229695:0:0:0:0:
475,192,229613,128,0,229695:0:0:0:0:
109,192,229614,128,0,229695:0:0:0:0:
36,192,229614,128,0,229662:0:0:0:0:
182,192,229679,128,0,229760:0:0:0:0:
402,192,229679,128,0,229760:0:0:0:0:
256,192,229744,128,0,229825:0:0:0:0:
475,192,229744,128,0,229825:0:0:0:0:
36,192,229744,128,0,229956:0:0:0:0:
109,192,229809,128,0,229891:0:0:0:0:
329,192,229809,128,0,229896:0:0:0:0:
475,192,229874,128,0,229956:0:0:0:0:
182,192,229874,128,0,229956:0:0:0:0:
402,192,229874,128,0,229956:0:0:0:0:
256,192,229875,1,0,0:0:0:0:
329,192,229940,128,0,230021:0:0:0:0:
109,192,229940,128,0,230027:0:0:0:0:
256,192,230005,128,0,230086:0:0:0:0:
36,192,230005,128,0,230086:0:0:0:0:
475,192,230005,128,0,230217:0:0:0:0:
402,192,230070,128,0,230152:0:0:0:0:
182,192,230070,128,0,230152:0:0:0:0:
329,192,230135,128,0,230217:0:0:0:0:
109,192,230135,128,0,230217:0:0:0:0:
36,192,230135,128,0,230217:0:0:0:0:
256,192,230135,1,0,0:0:0:0:
402,192,230200,128,0,230282:0:0:0:0:
182,192,230200,128,0,230282:0:0:0:0:
475,192,230266,128,0,230347:0:0:0:0:
256,192,230266,128,0,230347:0:0:0:0:
36,192,230266,128,0,230478:0:0:0:0:
329,192,230331,128,0,230412:0:0:0:0:
109,192,230331,128,0,230608:0:0:0:0:
182,192,230396,128,0,230478:0:0:0:0:
402,192,230396,128,0,230478:0:0:0:0:
475,192,230396,128,0,230478:0:0:0:0:
256,192,230461,128,0,230608:0:0:0:0:
475,192,230527,128,0,230673:0:0:0:0:
36,192,230527,128,0,230608:0:0:0:0:
182,192,230527,128,0,230608:0:0:0:0:
329,192,230527,128,0,230608:0:0:0:0:
402,192,230592,128,0,230673:0:0:0:0:
329,192,230657,128,0,230739:0:0:0:0:
182,192,230657,128,0,230739:0:0:0:0:
36,192,230657,128,0,230869:0:0:0:0:
109,192,230657,128,0,230739:0:0:0:0:
256,192,230657,1,0,0:0:0:0:
475,192,230722,128,0,230804:0:0:0:0:
402,192,230722,128,0,230804:0:0:0:0:
256,192,230787,128,0,230869:0:0:0:0:
182,192,230787,128,0,230869:0:0:0:0:
109,192,230787,128,0,230999:0:0:0:0:
329,192,230853,128,0,230934:0:0:0:0:
402,192,230853,128,0,230934:0:0:0:0:
182,192,230918,128,0,230999:0:0:0:0:
36,192,230918,128,0,230999:0:0:0:0:
475,192,230918,128,0,231130:0:0:0:0:
256,192,230983,128,0,231065:0:0:0:0:
329,192,230983,128,0,231065:0:0:0:0:
36,192,231048,128,0,231130:0:0:0:0:
109,192,231048,128,0,231130:0:0:0:0:
402,192,231048,128,0,231130:0:0:0:0:
182,192,231114,128,0,231195:0:0:0:0:
256,192,231114,128,0,231195:0:0:0:0:
402,192,231179,128,0,231325:0:0:0:0:
329,192,231179,128,0,231260:0:0:0:0:
109,192,231179,128,0,231260:0:0:0:0:
475,192,231179,128,0,231391:0:0:0:0:
36,192,231179,128,0,231260:0:0:0:0:
182,192,231244,128,0,231325:0:0:0:0:
256,192,231309,128,0,231391:0:0:0:0:
36,192,231309,128,0,231456:0:0:0:0:
329,192,231374,128,0,231456:0:0:0:0:
109,192,231374,128,0,231586:0:0:0:0:
182,192,231440,128,0,231521:0:0:0:0:
475,192,231440,128,0,231521:0:0:0:0:
402,192,231440,128,0,231521:0:0:0:0:
256,192,231440,1,0,0:0:0:0:
36,192,231505,128,0,231652:0:0:0:0:
329,192,231505,128,0,231586:0:0:0:0:
256,192,231570,128,0,231652:0:0:0:0:
475,192,231570,128,0,231652:0:0:0:0:
182,192,231635,128,0,231717:0:0:0:0:
109,192,231701,1,0,0:0:0:0:
36,192,231701,1,0,0:0:0:0:
402,192,231701,1,0,0:0:0:0:
475,192,231701,1,0,0:0:0:0:
329,192,231701,1,0,0:0:0:0:
256,192,231766,1,0,0:0:0:0:
36,192,231831,1,0,0:0:0:0:
475,192,231831,1,0,0:0:0:0:
109,192,231831,1,0,0:0:0:0:
256,192,231896,1,0,0:0:0:0:
329,192,231896,1,0,0:0:0:0:
182,192,231962,1,0,0:0:0:0:
402,192,231962,1,0,0:0:0:0:
475,192,231962,1,0,0:0:0:0:
36,192,231962,1,0,0:0:0:0:
109,192,231962,1,0,0:0:0:0:
329,192,232027,1,0,0:0:0:0:
109,192,232092,1,0,0:0:0:0:
182,192,232092,1,0,0:0:0:0:
256,192,232092,1,0,0:0:0:0:
402,192,232157,1,0,0:0:0:0:
475,192,232157,1,0,0:0:0:0:
329,192,232222,1,0,0:0:0:0:
256,192,232222,1,0,0:0:0:0:
182,192,232222,1,0,0:0:0:0:
36,192,232222,1,0,0:0:0:0:
475,192,232288,1,0,0:0:0:0:
109,192,232288,1,0,0:0:0:0:
402,192,232353,1,0,0:0:0:0:
182,192,232353,1,0,0:0:0:0:
36,192,232353,1,0,0:0:0:0:
256,192,232418,1,0,0:0:0:0:
329,192,232483,1,0,0:0:0:0:
402,192,232483,1,0,0:0:0:0:
475,192,232483,1,0,0:0:0:0:
109,192,232483,1,0,0:0:0:0:
36,192,232483,1,0,0:0:0:0:
182,192,232548,1,0,0:0:0:0:
256,192,232614,1,0,0:0:0:0:
329,192,232614,1,0,0:0:0:0:
402,192,232614,1,0,0:0:0:0:
109,192,232679,1,0,0:0:0:0:
36,192,232679,1,0,0:0:0:0:
329,192,232744,1,0,0:0:0:0:
182,192,232744,1,0,0:0:0:0:
256,192,232744,1,0,0:0:0:0:
475,192,232744,1,0,0:0:0:0:
36,192,232809,1,0,0:0:0:0:
402,192,232809,1,0,0:0:0:0:
256,192,232875,1,0,0:0:0:0:
109,192,232875,1,0,0:0:0:0:
475,192,232875,1,0,0:0:0:0:
329,192,232940,1,0,0:0:0:0:
182,192,233005,1,0,0:0:0:0:
256,192,233005,1,0,0:0:0:0:
109,192,233005,1,0,0:0:0:0:
36,192,233005,1,0,0:0:0:0:
475,192,233005,1,0,0:0:0:0:
402,192,233070,1,0,0:0:0:0:
329,192,233135,1,0,0:0:0:0:
256,192,233135,1,0,0:0:0:0:
182,192,233135,1,0,0:0:0:0:
36,192,233201,1,0,0:0:0:0:
109,192,233201,1,0,0:0:0:0:
256,192,233266,1,0,0:0:0:0:
329,192,233266,1,0,0:0:0:0:
475,192,233266,1,0,0:0:0:0:
402,192,233266,1,0,0:0:0:0:
109,192,233331,1,0,0:0:0:0:
36,192,233331,1,0,0:0:0:0:
256,192,233396,1,0,0:0:0:0:
182,192,233396,1,0,0:0:0:0:
329,192,233396,1,0,0:0:0:0:
402,192,233462,1,0,0:0:0:0:
475,192,233462,1,0,0:0:0:0:
182,192,233527,1,0,0:0:0:0:
109,192,233527,1,0,0:0:0:0:
36,192,233527,1,0,0:0:0:0:
256,192,233527,1,0,0:0:0:0:
475,192,233592,1,0,0:0:0:0:
402,192,233592,1,0,0:0:0:0:
329,192,233657,1,0,0:0:0:0:
256,192,233657,1,0,0:0:0:0:
182,192,233657,1,0,0:0:0:0:
36,192,233722,1,0,0:0:0:0:
109,192,233722,1,0,0:0:0:0:
402,192,233788,1,0,0:0:0:0:
329,192,233788,1,0,0:0:0:0:
475,192,233788,1,0,0:0:0:0:
182,192,233788,1,0,0:0:0:0:
256,192,233788,1,0,0:0:0:0:
36,192,233853,1,0,0:0:0:0:
475,192,233918,1,0,0:0:0:0:
329,192,233918,1,0,0:0:0:0:
182,192,233918,1,0,0:0:0:0:
109,192,233983,1,0,0:0:0:0:
329,192,234048,1,0,0:0:0:0:
182,192,234048,1,0,0:0:0:0:
36,192,234048,1,0,0:0:0:0:
475,192,234048,1,0,0:0:0:0:
256,192,234048,1,0,0:0:0:0:
402,192,234114,1,0,0:0:0:0:
256,192,234179,1,0,0:0:0:0:
182,192,234179,1,0,0:0:0:0:
109,192,234179,1,0,0:0:0:0:
402,192,234244,1,0,0:0:0:0:
475,192,234244,1,0,0:0:0:0:
182,192,234309,1,0,0:0:0:0:
36,192,234309,1,0,0:0:0:0:
329,192,234309,1,0,0:0:0:0:
109,192,234309,1,0,0:0:0:0:
256,192,234375,1,0,0:0:0:0:
475,192,234375,1,0,0:0:0:0:
402,192,234440,1,0,0:0:0:0:
182,192,234440,1,0,0:0:0:0:
36,192,234440,1,0,0:0:0:0:
329,192,234505,1,0,0:0:0:0:
109,192,234570,1,0,0:0:0:0:
475,192,234570,1,0,0:0:0:0:
182,192,234570,1,0,0:0:0:0:
36,192,234570,1,0,0:0:0:0:
402,192,234635,1,0,0:0:0:0:
329,192,234635,1,0,0:0:0:0:
182,192,234701,1,0,0:0:0:0:
109,192,234701,1,0,0:0:0:0:
256,192,234701,1,0,0:0:0:0:
402,192,234766,1,0,0:0:0:0:
475,192,234766,1,0,0:0:0:0:
182,192,234831,1,0,0:0:0:0:
109,192,234831,1,0,0:0:0:0:
36,192,234831,1,0,0:0:0:0:
256,192,234831,1,0,0:0:0:0:
329,192,234831,1,0,0:0:0:0:
475,192,234896,1,0,0:0:0:0:
402,192,234962,1,0,0:0:0:0:
329,192,234962,1,0,0:0:0:0:
109,192,234962,1,0,0:0:0:0:
256,192,235027,1,0,0:0:0:0:
402,192,235092,1,0,0:0:0:0:
475,192,235092,1,0,0:0:0:0:
36,192,235092,1,0,0:0:0:0:
109,192,235092,1,0,0:0:0:0:
182,192,235092,1,0,0:0:0:0:
329,192,235157,1,0,0:0:0:0:
256,192,235222,1,0,0:0:0:0:
109,192,235222,1,0,0:0:0:0:
182,192,235222,1,0,0:0:0:0:
475,192,235288,1,0,0:0:0:0:
402,192,235288,1,0,0:0:0:0:
256,192,235353,1,0,0:0:0:0:
36,192,235353,1,0,0:0:0:0:
329,192,235353,1,0,0:0:0:0:
182,192,235353,1,0,0:0:0:0:
475,192,235418,1,0,0:0:0:0:
256,192,235483,1,0,0:0:0:0:
402,192,235483,1,0,0:0:0:0:
329,192,235483,1,0,0:0:0:0:
182,192,235548,1,0,0:0:0:0:
109,192,235548,1,0,0:0:0:0:
475,192,235614,1,0,0:0:0:0:
329,192,235614,1,0,0:0:0:0:
36,192,235614,1,0,0:0:0:0:
402,192,235614,1,0,0:0:0:0:
182,192,235679,1,0,0:0:0:0:
402,192,235744,1,0,0:0:0:0:
329,192,235744,1,0,0:0:0:0:
256,192,235744,1,0,0:0:0:0:
109,192,235809,1,0,0:0:0:0:
256,192,235875,1,0,0:0:0:0:
402,192,235875,1,0,0:0:0:0:
36,192,235875,1,0,0:0:0:0:
475,192,235875,1,0,0:0:0:0:
329,192,235875,1,0,0:0:0:0:
182,192,235875,1,0,0:0:0:0:
36,192,236135,1,0,0:0:0:0:
182,192,236135,1,0,0:0:0:0:
109,192,236135,1,0,0:0:0:0:
256,192,236135,1,0,0:0:0:0:
329,192,236135,1,0,0:0:0:0:
109,192,236266,1,0,0:0:0:0:
182,192,236266,1,0,0:0:0:0:
256,192,236266,1,0,0:0:0:0:
402,192,236266,1,0,0:0:0:0:
329,192,236266,1,0,0:0:0:0:
182,192,236396,1,0,0:0:0:0:
329,192,236396,1,0,0:0:0:0:
256,192,236396,1,0,0:0:0:0:
402,192,236396,1,0,0:0:0:0:
475,192,236396,1,0,0:0:0:0:
109,192,236657,1,0,0:0:0:0:
182,192,236657,1,0,0:0:0:0:
256,192,236657,1,0,0:0:0:0:
402,192,236657,1,0,0:0:0:0:
329,192,236657,1,0,0:0:0:0:
329,192,236788,1,0,0:0:0:0:
256,192,236788,1,0,0:0:0:0:
182,192,236788,1,0,0:0:0:0:
109,192,236788,1,0,0:0:0:0:
36,192,236788,1,0,0:0:0:0:
475,192,236918,1,0,0:0:0:0:
402,192,236918,1,0,0:0:0:0:
329,192,236918,1,0,0:0:0:0:
256,192,236918,1,0,0:0:0:0:
182,192,236918,1,0,0:0:0:0:
182,192,237179,1,0,0:0:0:0:
475,192,237179,1,0,0:0:0:0:
402,192,237179,1,0,0:0:0:0:
329,192,237179,1,0,0:0:0:0:
256,192,237179,1,0,0:0:0:0:
36,192,237309,1,0,0:0:0:0:
109,192,237309,1,0,0:0:0:0:
182,192,237309,1,0,0:0:0:0:
256,192,237309,1,0,0:0:0:0:
329,192,237309,1,0,0:0:0:0:
402,192,237440,1,0,0:0:0:0:
36,192,237440,1,0,0:0:0:0:
475,192,237440,1,0,0:0:0:0:
109,192,237440,1,0,0:0:0:0:
182,192,237505,1,0,0:0:0:0:
329,192,237505,1,0,0:0:0:0:
256,192,237505,1,0,0:0:0:0:
402,192,237570,1,0,0:0:0:0:
475,192,237570,1,0,0:0:0:0:
36,192,237570,1,0,0:0:0:0:
109,192,237570,1,0,0:0:0:0:
182,192,237635,1,0,0:0:0:0:
329,192,237635,1,0,0:0:0:0:
256,192,237635,1,0,0:0:0:0:
109,192,237701,1,0,0:0:0:0:
402,192,237701,1,0,0:0:0:0:
475,192,237701,1,0,0:0:0:0:
36,192,237701,1,0,0:0:0:0:
36,192,237831,1,0,0:0:0:0:
109,192,237831,1,0,0:0:0:0:
182,192,237831,1,0,0:0:0:0:
256,192,237831,1,0,0:0:0:0:
329,192,237831,1,0,0:0:0:0:
109,192,237962,1,0,0:0:0:0:
36,192,237962,1,0,0:0:0:0:
329,192,237962,1,0,0:0:0:0:
402,192,237962,1,0,0:0:0:0:
475,192,237962,1,0,0:0:0:0:
256,192,238027,1,0,0:0:0:0:
182,192,238027,1,0,0:0:0:0:
329,192,238092,1,0,0:0:0:0:
36,192,238092,1,0,0:0:0:0:
402,192,238092,1,0,0:0:0:0:
475,192,238092,1,0,0:0:0:0:
182,192,238157,1,0,0:0:0:0:
109,192,238157,1,0,0:0:0:0:
329,192,238222,1,0,0:0:0:0:
402,192,238222,1,0,0:0:0:0:
475,192,238222,1,0,0:0:0:0:
256,192,238222,1,0,0:0:0:0:
36,192,238222,1,0,0:0:0:0:
402,192,238353,1,0,0:0:0:0:
109,192,238353,1,0,0:0:0:0:
36,192,238353,1,0,0:0:0:0:
475,192,238353,1,0,0:0:0:0:
182,192,238353,1,0,0:0:0:0:
329,192,238418,1,0,0:0:0:0:
256,192,238418,1,0,0:0:0:0:
109,192,238483,1,0,0:0:0:0:
36,192,238483,1,0,0:0:0:0:
182,192,238483,1,0,0:0:0:0:
475,192,238483,1,0,0:0:0:0:
402,192,238548,1,0,0:0:0:0:
329,192,238548,1,0,0:0:0:0:
182,192,238614,1,0,0:0:0:0:
109,192,238614,1,0,0:0:0:0:
36,192,238614,1,0,0:0:0:0:
256,192,238614,1,0,0:0:0:0:
475,192,238614,1,0,0:0:0:0:
402,192,238744,1,0,0:0:0:0:
475,192,238744,1,0,0:0:0:0:
36,192,238744,1,0,0:0:0:0:
329,192,238744,1,0,0:0:0:0:
109,192,238809,1,0,0:0:0:0:
256,192,238809,1,0,0:0:0:0:
182,192,238809,1,0,0:0:0:0:
402,192,238875,1,0,0:0:0:0:
475,192,238875,1,0,0:0:0:0:
36,192,238875,1,0,0:0:0:0:
329,192,238940,1,0,0:0:0:0:
256,192,238940,1,0,0:0:0:0:
182,192,238940,1,0,0:0:0:0:
109,192,239005,1,0,0:0:0:0:
475,192,239005,1,0,0:0:0:0:
36,192,239005,1,0,0:0:0:0:
329,192,239070,1,0,0:0:0:0:
402,192,239070,1,0,0:0:0:0:
256,192,239135,1,0,0:0:0:0:
36,192,239135,1,0,0:0:0:0:
475,192,239135,1,0,0:0:0:0:
109,192,239135,1,0,0:0:0:0:
182,192,239201,1,0,0:0:0:0:
329,192,239201,1,0,0:0:0:0:
256,192,239266,1,0,0:0:0:0:
36,192,239266,1,0,0:0:0:0:
109,192,239266,1,0,0:0:0:0:
402,192,239266,1,0,0:0:0:0:
475,192,239266,1,0,0:0:0:0:
402,192,239396,1,0,0:0:0:0:
329,192,239396,1,0,0:0:0:0:
475,192,239396,1,0,0:0:0:0:
182,192,239462,1,0,0:0:0:0:
109,192,239462,1,0,0:0:0:0:
36,192,239462,1,0,0:0:0:0:
402,192,239527,1,0,0:0:0:0:
475,192,239527,1,0,0:0:0:0:
256,192,239527,1,0,0:0:0:0:
182,192,239592,1,0,0:0:0:0:
109,192,239592,1,0,0:0:0:0:
329,192,239657,1,0,0:0:0:0:
402,192,239657,1,0,0:0:0:0:
109,192,239722,1,0,0:0:0:0:
36,192,239722,1,0,0:0:0:0:
475,192,239788,1,0,0:0:0:0:
256,192,239788,1,0,0:0:0:0:
402,192,239853,1,0,0:0:0:0:
182,192,239853,1,0,0:0:0:0:
109,192,239918,1,0,0:0:0:0:
329,192,239918,1,0,0:0:0:0:
256,192,239983,1,0,0:0:0:0:
182,192,240048,1,0,0:0:0:0:
36,192,240048,1,0,0:0:0:0:
402,192,240048,1,0,0:0:0:0:
475,192,240048,1,0,0:0:0:0:
329,192,240048,1,0,0:0:0:0:
109,192,240114,1,0,0:0:0:0:
256,192,240179,1,0,0:0:0:0:
329,192,240179,1,0,0:0:0:0:
182,192,240179,1,0,0:0:0:0:
402,192,240244,1,0,0:0:0:0:
36,192,240309,1,0,0:0:0:0:
182,192,240309,1,0,0:0:0:0:
475,192,240309,1,0,0:0:0:0:
109,192,240309,1,0,0:0:0:0:
256,192,240309,1,0,0:0:0:0:
329,192,240375,1,0,0:0:0:0:
402,192,240440,1,0,0:0:0:0:
36,192,240440,1,0,0:0:0:0:
109,192,240440,1,0,0:0:0:0:
182,192,240505,1,0,0:0:0:0:
256,192,240505,1,0,0:0:0:0:
329,192,240570,1,0,0:0:0:0:
402,192,240570,1,0,0:0:0:0:
109,192,240570,1,0,0:0:0:0:
36,192,240570,1,0,0:0:0:0:
475,192,240570,1,0,0:0:0:0:
256,192,240635,1,0,0:0:0:0:
182,192,240701,1,0,0:0:0:0:
36,192,240701,1,0,0:0:0:0:
475,192,240701,1,0,0:0:0:0:
402,192,240766,1,0,0:0:0:0:
329,192,240766,1,0,0:0:0:0:
256,192,240831,1,0,0:0:0:0:
182,192,240831,1,0,0:0:0:0:
475,192,240831,1,0,0:0:0:0:
109,192,240831,1,0,0:0:0:0:
36,192,240831,1,0,0:0:0:0:
329,192,240896,1,0,0:0:0:0:
109,192,240962,1,0,0:0:0:0:
36,192,240962,1,0,0:0:0:0:
402,192,240962,1,0,0:0:0:0:
256,192,241027,1,0,0:0:0:0:
182,192,241027,1,0,0:0:0:0:
36,192,241092,1,0,0:0:0:0:
329,192,241092,1,0,0:0:0:0:
402,192,241092,1,0,0:0:0:0:
475,192,241092,1,0,0:0:0:0:
109,192,241092,1,0,0:0:0:0:
256,192,241157,1,0,0:0:0:0:
182,192,241222,1,0,0:0:0:0:
36,192,241222,1,0,0:0:0:0:
475,192,241222,1,0,0:0:0:0:
329,192,241288,1,0,0:0:0:0:
402,192,241288,1,0,0:0:0:0:
182,192,241353,1,0,0:0:0:0:
256,192,241353,1,0,0:0:0:0:
109,192,241353,1,0,0:0:0:0:
36,192,241353,1,0,0:0:0:0:
475,192,241353,1,0,0:0:0:0:
329,192,241418,1,0,0:0:0:0:
402,192,241483,1,0,0:0:0:0:
182,192,241483,1,0,0:0:0:0:
475,192,241483,1,0,0:0:0:0:
109,192,241548,1,0,0:0:0:0:
36,192,241548,1,0,0:0:0:0:
256,192,241614,1,0,0:0:0:0:
329,192,241614,1,0,0:0:0:0:
475,192,241614,1,0,0:0:0:0:
402,192,241614,1,0,0:0:0:0:
182,192,241679,1,0,0:0:0:0:
329,192,241744,1,0,0:0:0:0:
109,192,241744,1,0,0:0:0:0:
36,192,241744,1,0,0:0:0:0:
402,192,241809,1,0,0:0:0:0:
475,192,241809,1,0,0:0:0:0:
182,192,241875,1,0,0:0:0:0:
109,192,241875,1,0,0:0:0:0:
36,192,241875,1,0,0:0:0:0:
256,192,241875,1,0,0:0:0:0:
475,192,241940,1,0,0:0:0:0:
402,192,241940,1,0,0:0:0:0:
256,192,242005,1,0,0:0:0:0:
109,192,242005,1,0,0:0:0:0:
36,192,242005,1,0,0:0:0:0:
182,192,242070,1,0,0:0:0:0:
329,192,242070,1,0,0:0:0:0:
402,192,242135,1,0,0:0:0:0:
475,192,242135,1,0,0:0:0:0:
109,192,242135,1,0,0:0:0:0:
36,192,242135,1,0,0:0:0:0:
256,192,242135,1,0,0:0:0:0:
256,192,242396,1,0,0:0:0:0:
329,192,242396,1,0,0:0:0:0:
402,192,242396,1,0,0:0:0:0:
182,192,242396,1,0,0:0:0:0:
475,192,242396,1,0,0:0:0:0:
109,192,242657,1,0,0:0:0:0:
182,192,242657,1,0,0:0:0:0:
402,192,242657,1,0,0:0:0:0:
329,192,242657,1,0,0:0:0:0:
475,192,242657,1,0,0:0:0:0:
36,192,242657,1,0,0:0:0:0:
109,192,242918,1,0,0:0:0:0:
36,192,242918,1,0,0:0:0:0:
182,192,242918,1,0,0:0:0:0:
256,192,242918,1,0,0:0:0:0:
329,192,242918,1,0,0:0:0:0:
256,192,243179,1,0,0:0:0:0:
475,192,243179,1,0,0:0:0:0:
402,192,243179,1,0,0:0:0:0:
109,192,243179,1,0,0:0:0:0:
36,192,243440,1,0,0:0:0:0:
109,192,243440,1,0,0:0:0:0:
256,192,243440,1,0,0:0:0:0:
329,192,243440,1,0,0:0:0:0:
182,192,243440,1,0,0:0:0:0:
36,192,243701,1,0,0:0:0:0:
109,192,243701,1,0,0:0:0:0:
182,192,243701,1,0,0:0:0:0:
329,192,243701,1,0,0:0:0:0:
402,192,243701,1,0,0:0:0:0:
475,192,243701,1,0,0:0:0:0:
182,192,243962,1,0,0:0:0:0:
329,192,243962,1,0,0:0:0:0:
475,192,243962,1,0,0:0:0:0:
36,192,243962,1,0,0:0:0:0:
109,192,244222,1,0,0:0:0:0:
36,192,244222,1,0,0:0:0:0:
402,192,244222,1,0,0:0:0:0:
475,192,244222,1,0,0:0:0:0:
182,192,244222,1,0,0:0:0:0:
329,192,244288,1,0,0:0:0:0:
256,192,244353,1,0,0:0:0:0:
109,192,244353,1,0,0:0:0:0:
182,192,244353,1,0,0:0:0:0:
402,192,244418,1,0,0:0:0:0:
475,192,244418,1,0,0:0:0:0:
256,192,244483,1,0,0:0:0:0:
182,192,244483,1,0,0:0:0:0:
36,192,244483,1,0,0:0:0:0:
109,192,244483,1,0,0:0:0:0:
329,192,244483,1,0,0:0:0:0:
475,192,244548,1,0,0:0:0:0:
36,192,244614,1,0,0:0:0:0:
182,192,244614,1,0,0:0:0:0:
402,192,244614,1,0,0:0:0:0:
329,192,244679,1,0,0:0:0:0:
109,192,244744,1,0,0:0:0:0:
475,192,244744,1,0,0:0:0:0:
36,192,244744,1,0,0:0:0:0:
182,192,244744,1,0,0:0:0:0:
256,192,244744,1,0,0:0:0:0:
402,192,244809,1,0,0:0:0:0:
329,192,244809,1,0,0:0:0:0:
475,192,244875,1,0,0:0:0:0:
182,192,244875,1,0,0:0:0:0:
109,192,244875,1,0,0:0:0:0:
36,192,244940,1,0,0:0:0:0:
475,192,245005,1,0,0:0:0:0:
182,192,245005,1,0,0:0:0:0:
402,192,245005,1,0,0:0:0:0:
329,192,245005,1,0,0:0:0:0:
256,192,245005,1,0,0:0:0:0:
36,192,245070,1,0,0:0:0:0:
329,192,245135,1,0,0:0:0:0:
109,192,245135,1,0,0:0:0:0:
182,192,245135,1,0,0:0:0:0:
402,192,245201,1,0,0:0:0:0:
475,192,245201,1,0,0:0:0:0:
109,192,245266,1,0,0:0:0:0:
256,192,245266,1,0,0:0:0:0:
36,192,245266,1,0,0:0:0:0:
329,192,245266,1,0,0:0:0:0:
182,192,245266,1,0,0:0:0:0:
329,192,245396,1,0,0:0:0:0:
475,192,245396,1,0,0:0:0:0:
402,192,245396,1,0,0:0:0:0:
182,192,245462,1,0,0:0:0:0:
109,192,245462,1,0,0:0:0:0:
36,192,245462,1,0,0:0:0:0:
402,192,245527,1,0,0:0:0:0:
475,192,245527,1,0,0:0:0:0:
256,192,245527,1,0,0:0:0:0:
109,192,245527,1,0,0:0:0:0:
36,192,245527,1,0,0:0:0:0:
329,192,245657,1,0,0:0:0:0:
475,192,245657,1,0,0:0:0:0:
182,192,245722,1,0,0:0:0:0:
36,192,245722,1,0,0:0:0:0:
402,192,245788,1,0,0:0:0:0:
109,192,245918,1,0,0:0:0:0:
182,192,245983,1,0,0:0:0:0:
36,192,246048,1,0,0:0:0:0:
109,192,246048,1,0,0:0:0:0:
256,192,246048,1,0,0:0:0:0:
475,192,246048,1,0,0:0:0:0:
402,192,246092,1,0,0:0:0:0:
329,192,246135,1,0,0:0:0:0:
256,192,246179,1,0,0:0:0:0:
182,192,246222,1,0,0:0:0:0:
109,192,246266,1,0,0:0:0:0:
475,192,246309,128,0,247027:0:0:0:0:
329,192,246309,128,0,246570:0:0:0:0:
182,192,246309,128,0,246440:0:0:0:0:
36,192,246309,128,0,246375:0:0:0:0:
256,192,246309,128,0,246505:0:0:0:0:
36,192,246440,1,0,0:0:0:0:
182,192,246505,1,0,0:0:0:0:
256,192,246570,1,0,0:0:0:0:
329,192,246635,1,0,0:0:0:0:
36,192,246701,128,0,247418:0:0:0:0:
402,192,246701,128,0,246766:0:0:0:0:
256,192,246701,128,0,246831:0:0:0:0:
109,192,246701,128,0,246962:0:0:0:0:
182,192,246701,128,0,246896:0:0:0:0:
402,192,246831,1,0,0:0:0:0:
256,192,246896,1,0,0:0:0:0:
182,192,246962,1,0,0:0:0:0:
109,192,247027,1,0,0:0:0:0:
402,192,247092,128,0,248201:0:0:0:0:
329,192,247092,128,0,247353:0:0:0:0:
256,192,247092,128,0,247288:0:0:0:0:
182,192,247092,128,0,247222:0:0:0:0:
475,192,247092,128,0,247157:0:0:0:0:
475,192,247222,1,0,0:0:0:0:
182,192,247288,1,0,0:0:0:0:
256,192,247353,1,0,0:0:0:0:
329,192,247418,1,0,0:0:0:0:
109,192,247483,128,0,248331:0:0:0:0:
36,192,247483,128,0,247744:0:0:0:0:
182,192,247483,128,0,247679:0:0:0:0:
256,192,247483,128,0,247614:0:0:0:0:
475,192,247483,128,0,247548:0:0:0:0:
475,192,247614,1,0,0:0:0:0:
256,192,247679,1,0,0:0:0:0:
182,192,247744,1,0,0:0:0:0:
36,192,247809,1,0,0:0:0:0:
329,192,247875,128,0,248135:0:0:0:0:
182,192,247875,128,0,248005:0:0:0:0:
475,192,247875,128,0,247940:0:0:0:0:
256,192,247875,128,0,248070:0:0:0:0:
475,192,248005,1,0,0:0:0:0:
182,192,248070,1,0,0:0:0:0:
256,192,248135,1,0,0:0:0:0:
36,192,248135,128,0,248331:0:0:0:0:
475,192,248135,128,0,248331:0:0:0:0:
329,192,248201,1,0,0:0:0:0:
182,192,248201,128,0,248331:0:0:0:0:
256,192,248266,128,0,248331:0:0:0:0:
402,192,248266,1,0,0:0:0:0:
36,192,248396,128,0,249114:0:0:0:0:
109,192,248396,128,0,248657:0:0:0:0:
402,192,248396,128,0,248527:0:0:0:0:
475,192,248396,128,0,248462:0:0:0:0:
256,192,248396,128,0,248592:0:0:0:0:
475,192,248527,1,0,0:0:0:0:
402,192,248592,1,0,0:0:0:0:
256,192,248657,1,0,0:0:0:0:
109,192,248722,1,0,0:0:0:0:
402,192,248788,128,0,249505:0:0:0:0:
329,192,248788,128,0,248853:0:0:0:0:
256,192,248788,128,0,248918:0:0:0:0:
475,192,248788,128,0,249048:0:0:0:0:
182,192,248788,128,0,248983:0:0:0:0:
329,192,248918,1,0,0:0:0:0:
256,192,248983,1,0,0:0:0:0:
182,192,249048,1,0,0:0:0:0:
475,192,249114,1,0,0:0:0:0:
109,192,249179,128,0,249962:0:0:0:0:
36,192,249179,128,0,249440:0:0:0:0:
329,192,249179,128,0,249375:0:0:0:0:
256,192,249179,128,0,249309:0:0:0:0:
182,192,249179,128,0,249244:0:0:0:0:
182,192,249309,1,0,0:0:0:0:
256,192,249375,1,0,0:0:0:0:
329,192,249440,1,0,0:0:0:0:
36,192,249505,1,0,0:0:0:0:
402,192,249570,128,0,250135:0:0:0:0:
475,192,249570,128,0,249831:0:0:0:0:
329,192,249570,128,0,249766:0:0:0:0:
256,192,249570,128,0,249701:0:0:0:0:
182,192,249570,128,0,249635:0:0:0:0:
182,192,249701,1,0,0:0:0:0:
256,192,249766,1,0,0:0:0:0:
329,192,249831,1,0,0:0:0:0:
475,192,249896,1,0,0:0:0:0:
182,192,249962,128,0,250005:0:0:0:0:
329,192,249962,128,0,250092:0:0:0:0:
256,192,249962,128,0,250048:0:0:0:0:
36,192,250005,128,0,250396:0:0:0:0:
109,192,250048,128,0,250353:0:0:0:0:
182,192,250092,128,0,250309:0:0:0:0:
256,192,250135,128,0,250266:0:0:0:0:
329,192,250179,128,0,250222:0:0:0:0:
475,192,250222,128,0,250309:0:0:0:0:
402,192,250266,128,0,250353:0:0:0:0:
329,192,250309,128,0,250396:0:0:0:0:
256,192,250353,128,0,250440:0:0:0:0:
182,192,250396,128,0,250483:0:0:0:0:
36,192,250483,128,0,251201:0:0:0:0:
109,192,250483,128,0,250744:0:0:0:0:
402,192,250483,128,0,250614:0:0:0:0:
475,192,250483,128,0,250548:0:0:0:0:
329,192,250483,128,0,250679:0:0:0:0:
475,192,250614,1,0,0:0:0:0:
402,192,250679,1,0,0:0:0:0:
329,192,250744,1,0,0:0:0:0:
109,192,250809,1,0,0:0:0:0:
475,192,250875,128,0,251592:0:0:0:0:
182,192,250875,128,0,250940:0:0:0:0:
256,192,250875,128,0,251005:0:0:0:0:
402,192,250875,128,0,251135:0:0:0:0:
329,192,250875,128,0,251070:0:0:0:0:
182,192,251005,1,0,0:0:0:0:
256,192,251070,1,0,0:0:0:0:
329,192,251135,1,0,0:0:0:0:
402,192,251201,1,0,0:0:0:0:
109,192,251266,128,0,252375:0:0:0:0:
182,192,251266,128,0,251527:0:0:0:0:
256,192,251266,128,0,251462:0:0:0:0:
329,192,251266,128,0,251396:0:0:0:0:
36,192,251266,128,0,251331:0:0:0:0:
36,192,251396,1,0,0:0:0:0:
329,192,251462,1,0,0:0:0:0:
256,192,251527,1,0,0:0:0:0:
182,192,251592,1,0,0:0:0:0:
402,192,251657,128,0,252505:0:0:0:0:
475,192,251657,128,0,251918:0:0:0:0:
329,192,251657,128,0,251853:0:0:0:0:
256,192,251657,128,0,251788:0:0:0:0:
36,192,251657,128,0,251722:0:0:0:0:
36,192,251788,1,0,0:0:0:0:
256,192,251853,1,0,0:0:0:0:
329,192,251918,1,0,0:0:0:0:
475,192,251983,1,0,0:0:0:0:
182,192,252048,128,0,252309:0:0:0:0:
329,192,252048,128,0,252179:0:0:0:0:
36,192,252048,128,0,252114:0:0:0:0:
256,192,252048,128,0,252244:0:0:0:0:
36,192,252179,1,0,0:0:0:0:
329,192,252244,1,0,0:0:0:0:
256,192,252309,1,0,0:0:0:0:
475,192,252309,128,0,252505:0:0:0:0:
36,192,252309,128,0,252505:0:0:0:0:
329,192,252375,128,0,252505:0:0:0:0:
182,192,252375,1,0,0:0:0:0:
256,192,252440,128,0,252505:0:0:0:0:
109,192,252440,1,0,0:0:0:0:
475,192,252570,128,0,253288:0:0:0:0:
402,192,252570,128,0,252831:0:0:0:0:
109,192,252570,128,0,252701:0:0:0:0:
36,192,252570,128,0,252635:0:0:0:0:
256,192,252570,128,0,252766:0:0:0:0:
36,192,252701,1,0,0:0:0:0:
109,192,252766,1,0,0:0:0:0:
256,192,252831,1,0,0:0:0:0:
402,192,252896,1,0,0:0:0:0:
109,192,252962,128,0,253679:0:0:0:0:
182,192,252962,128,0,253027:0:0:0:0:
256,192,252962,128,0,253092:0:0:0:0:
36,192,252962,128,0,253222:0:0:0:0:
329,192,252962,128,0,253157:0:0:0:0:
182,192,253092,1,0,0:0:0:0:
256,192,253157,1,0,0:0:0:0:
329,192,253222,1,0,0:0:0:0:
36,192,253288,1,0,0:0:0:0:
402,192,253353,128,0,254135:0:0:0:0:
475,192,253353,128,0,253614:0:0:0:0:
182,192,253353,128,0,253548:0:0:0:0:
256,192,253353,128,0,253483:0:0:0:0:
329,192,253353,128,0,253418:0:0:0:0:
329,192,253483,1,0,0:0:0:0:
256,192,253548,1,0,0:0:0:0:
182,192,253614,1,0,0:0:0:0:
475,192,253679,1,0,0:0:0:0:
109,192,253744,128,0,254309:0:0:0:0:
36,192,253744,128,0,254005:0:0:0:0:
182,192,253744,128,0,253940:0:0:0:0:
256,192,253744,128,0,253875:0:0:0:0:
329,192,253744,128,0,253809:0:0:0:0:
329,192,253875,1,0,0:0:0:0:
256,192,253940,1,0,0:0:0:0:
182,192,254005,1,0,0:0:0:0:
36,192,254070,1,0,0:0:0:0:
329,192,254135,128,0,254179:0:0:0:0:
182,192,254135,128,0,254266:0:0:0:0:
256,192,254135,128,0,254222:0:0:0:0:
402,192,254331,128,0,254429:0:0:0:0:
329,192,254364,128,0,254462:0:0:0:0:
256,192,254396,128,0,254494:0:0:0:0:
475,192,254527,128,0,254592:0:0:0:0:
402,192,254559,128,0,254625:0:0:0:0:
329,192,254592,128,0,254657:0:0:0:0:
475,192,254657,128,0,255375:0:0:0:0:
256,192,254657,128,0,254918:0:0:0:0:
109,192,254657,128,0,254788:0:0:0:0:
36,192,254657,128,0,254722:0:0:0:0:
182,192,254657,128,0,254853:0:0:0:0:
36,192,254788,1,0,0:0:0:0:
109,192,254853,1,0,0:0:0:0:
182,192,254918,1,0,0:0:0:0:
256,192,254983,1,0,0:0:0:0:
182,192,255048,128,0,255244:0:0:0:0:
36,192,255048,128,0,255766:0:0:0:0:
402,192,255048,128,0,255114:0:0:0:0:
329,192,255048,128,0,255179:0:0:0:0:
109,192,255048,128,0,255309:0:0:0:0:
402,192,255179,1,0,0:0:0:0:
329,192,255244,1,0,0:0:0:0:
182,192,255309,1,0,0:0:0:0:
109,192,255375,1,0,0:0:0:0:
329,192,255440,128,0,256548:0:0:0:0:
402,192,255440,128,0,255701:0:0:0:0:
256,192,255440,128,0,255635:0:0:0:0:
182,192,255440,128,0,255570:0:0:0:0:
475,192,255440,128,0,255505:0:0:0:0:
475,192,255570,1,0,0:0:0:0:
182,192,255635,1,0,0:0:0:0:
256,192,255701,1,0,0:0:0:0:
402,192,255766,1,0,0:0:0:0:
182,192,255831,128,0,256679:0:0:0:0:
36,192,255831,128,0,256092:0:0:0:0:
109,192,255831,128,0,256027:0:0:0:0:
256,192,255831,128,0,255962:0:0:0:0:
475,192,255831,128,0,255896:0:0:0:0:
475,192,255962,1,0,0:0:0:0:
256,192,256027,1,0,0:0:0:0:
109,192,256092,1,0,0:0:0:0:
36,192,256157,1,0,0:0:0:0:
109,192,256222,128,0,256483:0:0:0:0:
402,192,256222,128,0,256353:0:0:0:0:
475,192,256222,128,0,256288:0:0:0:0:
256,192,256222,128,0,256418:0:0:0:0:
475,192,256353,1,0,0:0:0:0:
402,192,256418,1,0,0:0:0:0:
256,192,256483,1,0,0:0:0:0:
36,192,256483,128,0,256679:0:0:0:0:
475,192,256483,128,0,256679:0:0:0:0:
109,192,256548,1,0,0:0:0:0:
402,192,256548,128,0,256679:0:0:0:0:
256,192,256614,128,0,256679:0:0:0:0:
36,192,256744,128,0,256809:0:0:0:0:
256,192,256744,128,0,256940:0:0:0:0:
109,192,256744,128,0,256875:0:0:0:0:
402,192,256744,128,0,257462:0:0:0:0:
475,192,256744,128,0,257005:0:0:0:0:
36,192,256875,1,0,0:0:0:0:
109,192,256940,1,0,0:0:0:0:
256,192,257005,1,0,0:0:0:0:
475,192,257070,1,0,0:0:0:0:
36,192,257135,128,0,257396:0:0:0:0:
182,192,257135,128,0,257331:0:0:0:0:
256,192,257135,128,0,257266:0:0:0:0:
109,192,257135,128,0,257853:0:0:0:0:
329,192,257135,128,0,257201:0:0:0:0:
329,192,257266,1,0,0:0:0:0:
256,192,257331,1,0,0:0:0:0:
182,192,257396,1,0,0:0:0:0:
36,192,257462,1,0,0:0:0:0:
182,192,257527,128,0,257657:0:0:0:0:
402,192,257527,128,0,257592:0:0:0:0:
256,192,257527,128,0,257722:0:0:0:0:
475,192,257527,128,0,258483:0:0:0:0:
329,192,257527,128,0,257788:0:0:0:0:
402,192,257657,1,0,0:0:0:0:
182,192,257722,1,0,0:0:0:0:
256,192,257788,1,0,0:0:0:0:
329,192,257853,1,0,0:0:0:0:
256,192,257918,128,0,258048:0:0:0:0:
402,192,257918,128,0,257983:0:0:0:0:
182,192,257918,128,0,258114:0:0:0:0:
36,192,257918,128,0,258244:0:0:0:0:
109,192,257918,128,0,258179:0:0:0:0:
402,192,258048,1,0,0:0:0:0:
256,192,258114,1,0,0:0:0:0:
182,192,258179,1,0,0:0:0:0:
109,192,258244,1,0,0:0:0:0:
329,192,258309,128,0,258396:0:0:0:0:
402,192,258309,128,0,258440:0:0:0:0:
256,192,258309,128,0,258353:0:0:0:0:
36,192,258353,128,0,258440:0:0:0:0:
109,192,258396,128,0,258483:0:0:0:0:
182,192,258440,128,0,258527:0:0:0:0:
256,192,258483,128,0,258788:0:0:0:0:
329,192,258527,128,0,258744:0:0:0:0:
402,192,258570,128,0,258701:0:0:0:0:
475,192,258614,128,0,258657:0:0:0:0:
182,192,258657,128,0,258788:0:0:0:0:
109,192,258701,128,0,258788:0:0:0:0:
36,192,258744,128,0,258788:0:0:0:0:
475,192,258831,128,0,258896:0:0:0:0:
329,192,258831,128,0,259027:0:0:0:0:
402,192,258831,128,0,258962:0:0:0:0:
109,192,258831,128,0,259548:0:0:0:0:
182,192,258831,128,0,259092:0:0:0:0:
475,192,258962,1,0,0:0:0:0:
402,192,259027,1,0,0:0:0:0:
329,192,259092,1,0,0:0:0:0:
182,192,259157,1,0,0:0:0:0:
256,192,259222,128,0,259353:0:0:0:0:
475,192,259222,128,0,259483:0:0:0:0:
36,192,259222,128,0,259288:0:0:0:0:
402,192,259222,128,0,259418:0:0:0:0:
329,192,259222,128,0,259940:0:0:0:0:
36,192,259353,1,0,0:0:0:0:
256,192,259418,1,0,0:0:0:0:
402,192,259483,1,0,0:0:0:0:
475,192,259548,1,0,0:0:0:0:
402,192,259614,128,0,259744:0:0:0:0:
36,192,259614,128,0,259679:0:0:0:0:
256,192,259614,128,0,259809:0:0:0:0:
182,192,259614,128,0,260722:0:0:0:0:
109,192,259614,128,0,259875:0:0:0:0:
36,192,259744,1,0,0:0:0:0:
402,192,259809,1,0,0:0:0:0:
256,192,259875,1,0,0:0:0:0:
109,192,259940,1,0,0:0:0:0:
256,192,260005,128,0,260135:0:0:0:0:
36,192,260005,128,0,260070:0:0:0:0:
329,192,260005,128,0,260201:0:0:0:0:
402,192,260005,128,0,260853:0:0:0:0:
475,192,260005,128,0,260266:0:0:0:0:
36,192,260135,1,0,0:0:0:0:
256,192,260201,1,0,0:0:0:0:
329,192,260266,1,0,0:0:0:0:
475,192,260331,1,0,0:0:0:0:
36,192,260396,128,0,260462:0:0:0:0:
256,192,260396,128,0,260592:0:0:0:0:
329,192,260396,128,0,260657:0:0:0:0:
109,192,260396,128,0,260527:0:0:0:0:
36,192,260527,1,0,0:0:0:0:
109,192,260592,1,0,0:0:0:0:
36,192,260657,128,0,260853:0:0:0:0:
475,192,260657,128,0,260853:0:0:0:0:
256,192,260657,1,0,0:0:0:0:
109,192,260722,128,0,260853:0:0:0:0:
329,192,260722,1,0,0:0:0:0:
256,192,260788,128,0,260853:0:0:0:0:
36,192,260918,128,0,261614:0:0:0:0:
329,192,260918,128,0,261135:0:0:0:0:
182,192,260918,1,0,0:0:0:0:
475,192,260918,1,0,0:0:0:0:
402,192,261005,128,0,261222:0:0:0:0:
475,192,261092,128,0,261309:0:0:0:0:
256,192,261179,128,0,261353:0:0:0:0:
329,192,261266,128,0,261440:0:0:0:0:
402,192,261353,128,0,261527:0:0:0:0:
182,192,261440,128,0,261527:0:0:0:0:
256,192,261527,128,0,261614:0:0:0:0:
329,192,261614,128,0,261701:0:0:0:0:
109,192,261701,128,0,261744:0:0:0:0:
182,192,261788,128,0,261831:0:0:0:0:
256,192,261875,128,0,261918:0:0:0:0:
475,192,261962,1,0,0:0:0:0:
402,192,261962,1,0,0:0:0:0:
182,192,261962,1,0,0:0:0:0:
36,192,262027,1,0,0:0:0:0:
109,192,262027,1,0,0:0:0:0:
329,192,262092,1,0,0:0:0:0:
475,192,262092,1,0,0:0:0:0:
256,192,262092,1,0,0:0:0:0:
182,192,262157,1,0,0:0:0:0:
36,192,262222,1,0,0:0:0:0:
109,192,262222,1,0,0:0:0:0:
329,192,262222,1,0,0:0:0:0:
402,192,262288,1,0,0:0:0:0:
475,192,262288,1,0,0:0:0:0:
256,192,262353,1,0,0:0:0:0:
109,192,262353,1,0,0:0:0:0:
36,192,262353,1,0,0:0:0:0:
329,192,262418,1,0,0:0:0:0:
36,192,262483,1,0,0:0:0:0:
256,192,262483,1,0,0:0:0:0:
475,192,262483,1,0,0:0:0:0:
402,192,262548,1,0,0:0:0:0:
182,192,262548,1,0,0:0:0:0:
329,192,262614,1,0,0:0:0:0:
109,192,262614,1,0,0:0:0:0:
256,192,262679,1,0,0:0:0:0:
36,192,262744,1,0,0:0:0:0:
109,192,262744,1,0,0:0:0:0:
475,192,262744,1,0,0:0:0:0:
182,192,262744,1,0,0:0:0:0:
329,192,262744,1,0,0:0:0:0:
402,192,262744,1,0,0:0:0:0:
182,192,263005,1,0,0:0:0:0:
36,192,263005,1,0,0:0:0:0:
109,192,263005,1,0,0:0:0:0:
402,192,263005,1,0,0:0:0:0:
475,192,263005,1,0,0:0:0:0:
329,192,263005,1,0,0:0:0:0:
402,192,263135,1,0,0:0:0:0:
36,192,263135,1,0,0:0:0:0:
182,192,263135,1,0,0:0:0:0:
475,192,263135,1,0,0:0:0:0:
329,192,263135,1,0,0:0:0:0:
256,192,263201,1,0,0:0:0:0:
402,192,263266,1,0,0:0:0:0:
36,192,263266,1,0,0:0:0:0:
329,192,263266,1,0,0:0:0:0:
475,192,263266,1,0,0:0:0:0:
109,192,263266,1,0,0:0:0:0:
182,192,263331,1,0,0:0:0:0:
256,192,263396,1,0,0:0:0:0:
36,192,263396,1,0,0:0:0:0:
402,192,263396,1,0,0:0:0:0:
475,192,263396,1,0,0:0:0:0:
109,192,263396,1,0,0:0:0:0:
36,192,263527,1,0,0:0:0:0:
109,192,263527,1,0,0:0:0:0:
256,192,263527,1,0,0:0:0:0:
182,192,263527,1,0,0:0:0:0:
475,192,263527,1,0,0:0:0:0:
402,192,263592,1,0,0:0:0:0:
329,192,263657,1,0,0:0:0:0:
256,192,263657,1,0,0:0:0:0:
182,192,263657,1,0,0:0:0:0:
109,192,263657,1,0,0:0:0:0:
475,192,263722,1,0,0:0:0:0:
36,192,263788,1,0,0:0:0:0:
402,192,263788,1,0,0:0:0:0:
256,192,263788,1,0,0:0:0:0:
329,192,263788,1,0,0:0:0:0:
182,192,263788,1,0,0:0:0:0:
402,192,263918,1,0,0:0:0:0:
109,192,263918,1,0,0:0:0:0:
256,192,263918,1,0,0:0:0:0:
475,192,263918,1,0,0:0:0:0:
36,192,263918,1,0,0:0:0:0:
329,192,263983,1,0,0:0:0:0:
182,192,263983,1,0,0:0:0:0:
402,192,264048,1,0,0:0:0:0:
475,192,264048,1,0,0:0:0:0:
256,192,264048,1,0,0:0:0:0:
36,192,264048,1,0,0:0:0:0:
109,192,264048,1,0,0:0:0:0:
109,192,264179,1,0,0:0:0:0:
475,192,264179,1,0,0:0:0:0:
329,192,264179,1,0,0:0:0:0:
36,192,264179,1,0,0:0:0:0:
182,192,264179,1,0,0:0:0:0:
256,192,264244,1,0,0:0:0:0:
109,192,264309,1,0,0:0:0:0:
475,192,264309,1,0,0:0:0:0:
182,192,264309,1,0,0:0:0:0:
36,192,264309,1,0,0:0:0:0:
402,192,264309,1,0,0:0:0:0:
329,192,264375,1,0,0:0:0:0:
256,192,264440,1,0,0:0:0:0:
475,192,264440,1,0,0:0:0:0:
109,192,264440,1,0,0:0:0:0:
36,192,264440,1,0,0:0:0:0:
182,192,264440,1,0,0:0:0:0:
475,192,264570,1,0,0:0:0:0:
402,192,264570,1,0,0:0:0:0:
256,192,264570,1,0,0:0:0:0:
329,192,264570,1,0,0:0:0:0:
36,192,264570,1,0,0:0:0:0:
109,192,264635,1,0,0:0:0:0:
182,192,264701,1,0,0:0:0:0:
256,192,264701,1,0,0:0:0:0:
329,192,264701,1,0,0:0:0:0:
402,192,264701,1,0,0:0:0:0:
36,192,264766,1,0,0:0:0:0:
475,192,264831,1,0,0:0:0:0:
109,192,264831,1,0,0:0:0:0:
256,192,264831,1,0,0:0:0:0:
182,192,264831,1,0,0:0:0:0:
329,192,264831,1,0,0:0:0:0:
109,192,264962,1,0,0:0:0:0:
402,192,264962,1,0,0:0:0:0:
256,192,264962,1,0,0:0:0:0:
36,192,264962,1,0,0:0:0:0:
475,192,264962,1,0,0:0:0:0:
182,192,265027,1,0,0:0:0:0:
329,192,265027,1,0,0:0:0:0:
256,192,265092,1,0,0:0:0:0:
109,192,265092,1,0,0:0:0:0:
36,192,265092,1,0,0:0:0:0:
475,192,265092,1,0,0:0:0:0:
402,192,265092,1,0,0:0:0:0:
475,192,265222,1,0,0:0:0:0:
329,192,265222,1,0,0:0:0:0:
109,192,265222,1,0,0:0:0:0:
182,192,265222,1,0,0:0:0:0:
402,192,265222,1,0,0:0:0:0:
256,192,265288,1,0,0:0:0:0:
36,192,265353,1,0,0:0:0:0:
475,192,265353,1,0,0:0:0:0:
109,192,265353,1,0,0:0:0:0:
402,192,265353,1,0,0:0:0:0:
329,192,265353,1,0,0:0:0:0:
182,192,265418,1,0,0:0:0:0:
402,192,265483,1,0,0:0:0:0:
475,192,265483,1,0,0:0:0:0:
256,192,265483,1,0,0:0:0:0:
109,192,265483,1,0,0:0:0:0:
36,192,265483,1,0,0:0:0:0:
36,192,265614,1,0,0:0:0:0:
182,192,265614,1,0,0:0:0:0:
109,192,265614,1,0,0:0:0:0:
256,192,265614,1,0,0:0:0:0:
475,192,265614,1,0,0:0:0:0:
402,192,265679,1,0,0:0:0:0:
329,192,265744,1,0,0:0:0:0:
475,192,265744,1,0,0:0:0:0:
36,192,265744,1,0,0:0:0:0:
182,192,265744,1,0,0:0:0:0:
109,192,265809,1,0,0:0:0:0:
402,192,265875,1,0,0:0:0:0:
475,192,265875,1,0,0:0:0:0:
256,192,265875,1,0,0:0:0:0:
36,192,265875,1,0,0:0:0:0:
329,192,265875,1,0,0:0:0:0:
329,192,266005,1,0,0:0:0:0:
109,192,266005,1,0,0:0:0:0:
36,192,266005,1,0,0:0:0:0:
475,192,266005,1,0,0:0:0:0:
182,192,266005,1,0,0:0:0:0:
256,192,266070,1,0,0:0:0:0:
402,192,266070,1,0,0:0:0:0:
109,192,266135,1,0,0:0:0:0:
36,192,266135,1,0,0:0:0:0:
182,192,266135,1,0,0:0:0:0:
475,192,266135,1,0,0:0:0:0:
329,192,266135,1,0,0:0:0:0:
36,192,266266,1,0,0:0:0:0:
182,192,266266,1,0,0:0:0:0:
329,192,266266,1,0,0:0:0:0:
402,192,266266,1,0,0:0:0:0:
109,192,266266,1,0,0:0:0:0:
256,192,266331,1,0,0:0:0:0:
475,192,266396,1,0,0:0:0:0:
36,192,266396,1,0,0:0:0:0:
402,192,266396,1,0,0:0:0:0:
109,192,266396,1,0,0:0:0:0:
182,192,266396,1,0,0:0:0:0:
329,192,266462,1,0,0:0:0:0:
109,192,266527,1,0,0:0:0:0:
36,192,266527,1,0,0:0:0:0:
256,192,266527,1,0,0:0:0:0:
402,192,266527,1,0,0:0:0:0:
475,192,266527,1,0,0:0:0:0:
475,192,266657,1,0,0:0:0:0:
329,192,266657,1,0,0:0:0:0:
402,192,266657,1,0,0:0:0:0:
256,192,266657,1,0,0:0:0:0:
36,192,266657,1,0,0:0:0:0:
109,192,266722,1,0,0:0:0:0:
182,192,266788,1,0,0:0:0:0:
36,192,266788,1,0,0:0:0:0:
475,192,266788,1,0,0:0:0:0:
329,192,266788,1,0,0:0:0:0:
402,192,266853,1,0,0:0:0:0:
109,192,266918,1,0,0:0:0:0:
36,192,266918,1,0,0:0:0:0:
256,192,266918,1,0,0:0:0:0:
475,192,266918,1,0,0:0:0:0:
182,192,266918,1,0,0:0:0:0:
182,192,267048,1,0,0:0:0:0:
402,192,267048,1,0,0:0:0:0:
475,192,267048,1,0,0:0:0:0:
36,192,267048,1,0,0:0:0:0:
329,192,267048,1,0,0:0:0:0:
256,192,267114,1,0,0:0:0:0:
109,192,267114,1,0,0:0:0:0:
36,192,267179,1,0,0:0:0:0:
182,192,267179,1,0,0:0:0:0:
329,192,267179,1,0,0:0:0:0:
402,192,267179,1,0,0:0:0:0:
475,192,267179,1,0,0:0:0:0:
36,192,267309,1,0,0:0:0:0:
402,192,267309,1,0,0:0:0:0:
182,192,267309,1,0,0:0:0:0:
475,192,267309,1,0,0:0:0:0:
109,192,267309,1,0,0:0:0:0:
329,192,267375,1,0,0:0:0:0:
475,192,267440,1,0,0:0:0:0:
109,192,267440,1,0,0:0:0:0:
402,192,267440,1,0,0:0:0:0:
36,192,267440,1,0,0:0:0:0:
256,192,267440,1,0,0:0:0:0:
182,192,267505,1,0,0:0:0:0:
402,192,267570,1,0,0:0:0:0:
36,192,267570,1,0,0:0:0:0:
475,192,267570,1,0,0:0:0:0:
329,192,267570,1,0,0:0:0:0:
109,192,267570,1,0,0:0:0:0:
36,192,267701,1,0,0:0:0:0:
109,192,267701,1,0,0:0:0:0:
182,192,267701,1,0,0:0:0:0:
329,192,267701,1,0,0:0:0:0:
475,192,267701,1,0,0:0:0:0:
402,192,267766,1,0,0:0:0:0:
475,192,267831,1,0,0:0:0:0:
256,192,267831,1,0,0:0:0:0:
36,192,267831,1,0,0:0:0:0:
182,192,267831,1,0,0:0:0:0:
329,192,267896,1,0,0:0:0:0:
402,192,267962,1,0,0:0:0:0:
36,192,267962,1,0,0:0:0:0:
109,192,267962,1,0,0:0:0:0:
182,192,267962,1,0,0:0:0:0:
475,192,267962,1,0,0:0:0:0:
109,192,268092,1,0,0:0:0:0:
402,192,268092,1,0,0:0:0:0:
475,192,268092,1,0,0:0:0:0:
36,192,268092,1,0,0:0:0:0:
182,192,268092,1,0,0:0:0:0:
329,192,268157,1,0,0:0:0:0:
256,192,268157,1,0,0:0:0:0:
402,192,268222,1,0,0:0:0:0:
475,192,268222,1,0,0:0:0:0:
109,192,268222,1,0,0:0:0:0:
36,192,268222,1,0,0:0:0:0:
182,192,268222,1,0,0:0:0:0:
475,192,268353,1,0,0:0:0:0:
109,192,268353,1,0,0:0:0:0:
329,192,268353,1,0,0:0:0:0:
36,192,268353,1,0,0:0:0:0:
402,192,268353,1,0,0:0:0:0:
182,192,268418,1,0,0:0:0:0:
36,192,268483,1,0,0:0:0:0:
402,192,268483,1,0,0:0:0:0:
109,192,268483,1,0,0:0:0:0:
475,192,268483,1,0,0:0:0:0:
256,192,268483,1,0,0:0:0:0:
329,192,268548,1,0,0:0:0:0:
109,192,268614,1,0,0:0:0:0:
475,192,268614,1,0,0:0:0:0:
36,192,268614,1,0,0:0:0:0:
182,192,268614,1,0,0:0:0:0:
402,192,268614,1,0,0:0:0:0:
475,192,268744,1,0,0:0:0:0:
402,192,268744,1,0,0:0:0:0:
329,192,268744,1,0,0:0:0:0:
182,192,268744,1,0,0:0:0:0:
36,192,268744,1,0,0:0:0:0:
109,192,268809,1,0,0:0:0:0:
36,192,268875,1,0,0:0:0:0:
329,192,268875,1,0,0:0:0:0:
475,192,268875,1,0,0:0:0:0:
256,192,268875,1,0,0:0:0:0:
182,192,268940,1,0,0:0:0:0:
109,192,269005,1,0,0:0:0:0:
475,192,269005,1,0,0:0:0:0:
402,192,269005,1,0,0:0:0:0:
329,192,269005,1,0,0:0:0:0:
36,192,269005,1,0,0:0:0:0:
402,192,269135,1,0,0:0:0:0:
109,192,269135,1,0,0:0:0:0:
36,192,269135,1,0,0:0:0:0:
475,192,269135,1,0,0:0:0:0:
329,192,269135,1,0,0:0:0:0:
182,192,269201,1,0,0:0:0:0:
256,192,269201,1,0,0:0:0:0:
109,192,269266,1,0,0:0:0:0:
36,192,269266,1,0,0:0:0:0:
329,192,269266,1,0,0:0:0:0:
402,192,269266,1,0,0:0:0:0:
475,192,269266,1,0,0:0:0:0:
182,192,269396,1,0,0:0:0:0:
36,192,269396,1,0,0:0:0:0:
109,192,269396,1,0,0:0:0:0:
329,192,269396,1,0,0:0:0:0:
475,192,269396,1,0,0:0:0:0:
402,192,269462,1,0,0:0:0:0:
182,192,269527,1,0,0:0:0:0:
329,192,269527,1,0,0:0:0:0:
256,192,269527,1,0,0:0:0:0:
475,192,269527,1,0,0:0:0:0:
36,192,269527,1,0,0:0:0:0:
109,192,269592,1,0,0:0:0:0:
36,192,269657,1,0,0:0:0:0:
182,192,269657,1,0,0:0:0:0:
329,192,269657,1,0,0:0:0:0:
402,192,269657,1,0,0:0:0:0:
475,192,269657,1,0,0:0:0:0:
36,192,269788,1,0,0:0:0:0:
109,192,269788,1,0,0:0:0:0:
182,192,269788,1,0,0:0:0:0:
256,192,269788,1,0,0:0:0:0:
475,192,269788,1,0,0:0:0:0:
402,192,269853,1,0,0:0:0:0:
329,192,269918,1,0,0:0:0:0:
182,192,269918,1,0,0:0:0:0:
256,192,269918,1,0,0:0:0:0:
109,192,269918,1,0,0:0:0:0:
475,192,269983,1,0,0:0:0:0:
329,192,270048,1,0,0:0:0:0:
36,192,270048,1,0,0:0:0:0:
182,192,270048,1,0,0:0:0:0:
402,192,270048,1,0,0:0:0:0:
256,192,270048,1,0,0:0:0:0:
109,192,270179,1,0,0:0:0:0:
36,192,270179,1,0,0:0:0:0:
256,192,270179,1,0,0:0:0:0:
402,192,270179,1,0,0:0:0:0:
475,192,270179,1,0,0:0:0:0:
329,192,270244,1,0,0:0:0:0:
182,192,270244,1,0,0:0:0:0:
109,192,270309,1,0,0:0:0:0:
36,192,270309,1,0,0:0:0:0:
256,192,270309,1,0,0:0:0:0:
402,192,270309,1,0,0:0:0:0:
475,192,270309,1,0,0:0:0:0:
329,192,270440,1,0,0:0:0:0:
475,192,270440,1,0,0:0:0:0:
402,192,270440,1,0,0:0:0:0:
182,192,270440,1,0,0:0:0:0:
36,192,270440,1,0,0:0:0:0:
109,192,270505,1,0,0:0:0:0:
329,192,270570,1,0,0:0:0:0:
182,192,270570,1,0,0:0:0:0:
256,192,270570,1,0,0:0:0:0:
36,192,270570,1,0,0:0:0:0:
475,192,270570,1,0,0:0:0:0:
402,192,270635,1,0,0:0:0:0:
475,192,270701,1,0,0:0:0:0:
329,192,270701,1,0,0:0:0:0:
182,192,270701,1,0,0:0:0:0:
109,192,270701,1,0,0:0:0:0:
36,192,270701,1,0,0:0:0:0:
475,192,270831,1,0,0:0:0:0:
402,192,270831,1,0,0:0:0:0:
329,192,270831,1,0,0:0:0:0:
256,192,270831,1,0,0:0:0:0:
36,192,270831,1,0,0:0:0:0:
109,192,270896,1,0,0:0:0:0:
182,192,270962,1,0,0:0:0:0:
329,192,270962,1,0,0:0:0:0:
256,192,270962,1,0,0:0:0:0:
402,192,270962,1,0,0:0:0:0:
36,192,271027,1,0,0:0:0:0:
182,192,271092,1,0,0:0:0:0:
475,192,271092,1,0,0:0:0:0:
329,192,271092,1,0,0:0:0:0:
109,192,271092,1,0,0:0:0:0:
256,192,271092,1,0,0:0:0:0:
402,192,271222,1,0,0:0:0:0:
475,192,271222,1,0,0:0:0:0:
256,192,271222,1,0,0:0:0:0:
109,192,271222,1,0,0:0:0:0:
36,192,271222,1,0,0:0:0:0:
182,192,271288,1,0,0:0:0:0:
329,192,271288,1,0,0:0:0:0:
402,192,271353,1,0,0:0:0:0:
475,192,271353,1,0,0:0:0:0:
256,192,271353,1,0,0:0:0:0:
109,192,271353,1,0,0:0:0:0:
36,192,271353,1,0,0:0:0:0:
329,192,271614,1,0,0:0:0:0:
475,192,271614,1,0,0:0:0:0:
182,192,271744,1,0,0:0:0:0:
36,192,271744,1,0,0:0:0:0:
475,192,271875,1,0,0:0:0:0:
256,192,271875,1,0,0:0:0:0:
402,192,271940,1,0,0:0:0:0:
182,192,271940,1,0,0:0:0:0:
329,192,272005,1,0,0:0:0:0:
109,192,272005,1,0,0:0:0:0:
256,192,272070,1,0,0:0:0:0:
36,192,272070,1,0,0:0:0:0:
182,192,272135,1,0,0:0:0:0:
402,192,272135,1,0,0:0:0:0:
109,192,272201,1,0,0:0:0:0:
329,192,272201,1,0,0:0:0:0:
36,192,272266,1,0,0:0:0:0:
256,192,272266,1,0,0:0:0:0:
109,192,272331,1,0,0:0:0:0:
329,192,272331,1,0,0:0:0:0:
182,192,272396,1,0,0:0:0:0:
402,192,272396,1,0,0:0:0:0:
256,192,272462,1,0,0:0:0:0:
475,192,272462,1,0,0:0:0:0:
329,192,272527,1,0,0:0:0:0:
109,192,272527,1,0,0:0:0:0:
402,192,272592,1,0,0:0:0:0:
182,192,272592,1,0,0:0:0:0:
475,192,272657,1,0,0:0:0:0:
256,192,272657,1,0,0:0:0:0:
402,192,272722,1,0,0:0:0:0:
182,192,272722,1,0,0:0:0:0:
329,192,272788,1,0,0:0:0:0:
109,192,272788,1,0,0:0:0:0:
256,192,272853,1,0,0:0:0:0:
36,192,272853,1,0,0:0:0:0:
109,192,272918,1,0,0:0:0:0:
329,192,272918,1,0,0:0:0:0:
182,192,272983,1,0,0:0:0:0:
402,192,272983,1,0,0:0:0:0:
256,192,273048,1,0,0:0:0:0:
475,192,273048,1,0,0:0:0:0:
329,192,273114,1,0,0:0:0:0:
402,192,273179,1,0,0:0:0:0:
182,192,273179,1,0,0:0:0:0:
36,192,273179,1,0,0:0:0:0:
109,192,273179,1,0,0:0:0:0:
256,192,273179,1,0,0:0:0:0:
475,192,273179,1,0,0:0:0:0:
109,192,273440,1,0,0:0:0:0:
36,192,273440,1,0,0:0:0:0:
182,192,273440,1,0,0:0:0:0:
256,192,273440,1,0,0:0:0:0:
329,192,273440,1,0,0:0:0:0:
402,192,273440,1,0,0:0:0:0:
475,192,273440,1,0,0:0:0:0:
475,192,273701,1,0,0:0:0:0:
256,192,273701,1,0,0:0:0:0:
329,192,273701,1,0,0:0:0:0:
402,192,273701,1,0,0:0:0:0:
182,192,273766,1,0,0:0:0:0:
109,192,273766,1,0,0:0:0:0:
36,192,273766,1,0,0:0:0:0:
329,192,273831,1,0,0:0:0:0:
402,192,273831,1,0,0:0:0:0:
475,192,273831,1,0,0:0:0:0:
182,192,273896,1,0,0:0:0:0:
109,192,273896,1,0,0:0:0:0:
36,192,273896,1,0,0:0:0:0:
256,192,273962,1,0,0:0:0:0:
402,192,273962,1,0,0:0:0:0:
475,192,273962,1,0,0:0:0:0:
329,192,273962,1,0,0:0:0:0:
182,192,274027,1,0,0:0:0:0:
109,192,274027,1,0,0:0:0:0:
36,192,274027,1,0,0:0:0:0:
402,192,274092,1,0,0:0:0:0:
475,192,274092,1,0,0:0:0:0:
329,192,274092,1,0,0:0:0:0:
256,192,274157,1,0,0:0:0:0:
182,192,274157,1,0,0:0:0:0:
109,192,274157,1,0,0:0:0:0:
402,192,274222,1,0,0:0:0:0:
475,192,274222,1,0,0:0:0:0:
36,192,274222,1,0,0:0:0:0:
329,192,274288,1,0,0:0:0:0:
256,192,274288,1,0,0:0:0:0:
182,192,274288,1,0,0:0:0:0:
109,192,274353,1,0,0:0:0:0:
36,192,274353,1,0,0:0:0:0:
475,192,274353,1,0,0:0:0:0:
256,192,274418,1,0,0:0:0:0:
402,192,274418,1,0,0:0:0:0:
329,192,274418,1,0,0:0:0:0:
109,192,274483,1,0,0:0:0:0:
475,192,274483,1,0,0:0:0:0:
36,192,274483,1,0,0:0:0:0:
329,192,274548,1,0,0:0:0:0:
256,192,274548,1,0,0:0:0:0:
182,192,274548,1,0,0:0:0:0:
475,192,274614,1,0,0:0:0:0:
402,192,274614,1,0,0:0:0:0:
36,192,274614,1,0,0:0:0:0:
256,192,274679,1,0,0:0:0:0:
182,192,274679,1,0,0:0:0:0:
109,192,274679,1,0,0:0:0:0:
329,192,274744,1,0,0:0:0:0:
402,192,274744,1,0,0:0:0:0:
475,192,274744,1,0,0:0:0:0:
36,192,274809,1,0,0:0:0:0:
182,192,274809,1,0,0:0:0:0:
109,192,274809,1,0,0:0:0:0:
402,192,274875,1,0,0:0:0:0:
475,192,274875,1,0,0:0:0:0:
256,192,274875,1,0,0:0:0:0:
329,192,274875,1,0,0:0:0:0:
109,192,274940,1,0,0:0:0:0:
36,192,274940,1,0,0:0:0:0:
256,192,275005,1,0,0:0:0:0:
182,192,275005,1,0,0:0:0:0:
329,192,275005,1,0,0:0:0:0:
402,192,275005,1,0,0:0:0:0:
475,192,275005,1,0,0:0:0:0:
109,192,275070,1,0,0:0:0:0:
36,192,275070,1,0,0:0:0:0:
256,192,275135,1,0,0:0:0:0:
329,192,275135,1,0,0:0:0:0:
402,192,275135,1,0,0:0:0:0:
182,192,275201,1,0,0:0:0:0:
109,192,275201,1,0,0:0:0:0:
36,192,275201,1,0,0:0:0:0:
329,192,275266,1,0,0:0:0:0:
402,192,275266,1,0,0:0:0:0:
475,192,275266,1,0,0:0:0:0:
256,192,275331,1,0,0:0:0:0:
182,192,275331,1,0,0:0:0:0:
109,192,275331,1,0,0:0:0:0:
329,192,275396,1,0,0:0:0:0:
402,192,275396,1,0,0:0:0:0:
475,192,275396,1,0,0:0:0:0:
36,192,275462,1,0,0:0:0:0:
109,192,275462,1,0,0:0:0:0:
402,192,275527,1,0,0:0:0:0:
475,192,275527,1,0,0:0:0:0:
329,192,275527,1,0,0:0:0:0:
256,192,275527,1,0,0:0:0:0:
182,192,275527,1,0,0:0:0:0:
109,192,275527,1,0,0:0:0:0:
36,192,275527,1,0,0:0:0:0:
36,192,275788,1,0,0:0:0:0:
256,192,275788,1,0,0:0:0:0:
182,192,275788,1,0,0:0:0:0:
109,192,275788,1,0,0:0:0:0:
329,192,275853,1,0,0:0:0:0:
402,192,275853,1,0,0:0:0:0:
475,192,275853,1,0,0:0:0:0:
182,192,275918,1,0,0:0:0:0:
109,192,275918,1,0,0:0:0:0:
36,192,275918,1,0,0:0:0:0:
329,192,275983,1,0,0:0:0:0:
402,192,275983,1,0,0:0:0:0:
475,192,275983,1,0,0:0:0:0:
256,192,276048,1,0,0:0:0:0:
109,192,276048,1,0,0:0:0:0:
36,192,276048,1,0,0:0:0:0:
182,192,276048,1,0,0:0:0:0:
329,192,276114,1,0,0:0:0:0:
402,192,276114,1,0,0:0:0:0:
475,192,276114,1,0,0:0:0:0:
109,192,276179,1,0,0:0:0:0:
36,192,276179,1,0,0:0:0:0:
182,192,276179,1,0,0:0:0:0:
256,192,276244,1,0,0:0:0:0:
329,192,276244,1,0,0:0:0:0:
402,192,276244,1,0,0:0:0:0:
109,192,276309,1,0,0:0:0:0:
36,192,276309,1,0,0:0:0:0:
475,192,276309,1,0,0:0:0:0:
182,192,276375,1,0,0:0:0:0:
256,192,276375,1,0,0:0:0:0:
329,192,276375,1,0,0:0:0:0:
402,192,276440,1,0,0:0:0:0:
475,192,276440,1,0,0:0:0:0:
36,192,276440,1,0,0:0:0:0:
256,192,276505,1,0,0:0:0:0:
109,192,276505,1,0,0:0:0:0:
182,192,276505,1,0,0:0:0:0:
402,192,276570,1,0,0:0:0:0:
36,192,276570,1,0,0:0:0:0:
475,192,276570,1,0,0:0:0:0:
182,192,276635,1,0,0:0:0:0:
256,192,276635,1,0,0:0:0:0:
329,192,276635,1,0,0:0:0:0:
36,192,276701,1,0,0:0:0:0:
109,192,276701,1,0,0:0:0:0:
475,192,276701,1,0,0:0:0:0:
256,192,276766,1,0,0:0:0:0:
329,192,276766,1,0,0:0:0:0:
402,192,276766,1,0,0:0:0:0:
182,192,276831,1,0,0:0:0:0:
109,192,276831,1,0,0:0:0:0:
36,192,276831,1,0,0:0:0:0:
475,192,276896,1,0,0:0:0:0:
329,192,276896,1,0,0:0:0:0:
402,192,276896,1,0,0:0:0:0:
109,192,276962,1,0,0:0:0:0:
36,192,276962,1,0,0:0:0:0:
256,192,276962,1,0,0:0:0:0:
182,192,276962,1,0,0:0:0:0:
402,192,277027,1,0,0:0:0:0:
475,192,277027,1,0,0:0:0:0:
256,192,277092,1,0,0:0:0:0:
329,192,277092,1,0,0:0:0:0:
182,192,277092,1,0,0:0:0:0:
109,192,277092,1,0,0:0:0:0:
36,192,277092,1,0,0:0:0:0:
402,192,277157,1,0,0:0:0:0:
475,192,277157,1,0,0:0:0:0:
256,192,277222,1,0,0:0:0:0:
182,192,277222,1,0,0:0:0:0:
109,192,277222,1,0,0:0:0:0:
329,192,277288,1,0,0:0:0:0:
402,192,277288,1,0,0:0:0:0:
475,192,277288,1,0,0:0:0:0:
182,192,277353,1,0,0:0:0:0:
109,192,277353,1,0,0:0:0:0:
36,192,277353,1,0,0:0:0:0:
256,192,277418,1,0,0:0:0:0:
329,192,277418,1,0,0:0:0:0:
402,192,277418,1,0,0:0:0:0:
182,192,277483,1,0,0:0:0:0:
109,192,277483,1,0,0:0:0:0:
36,192,277483,1,0,0:0:0:0:
402,192,277548,1,0,0:0:0:0:
475,192,277548,1,0,0:0:0:0:
36,192,277614,1,0,0:0:0:0:
182,192,277614,1,0,0:0:0:0:
109,192,277614,1,0,0:0:0:0:
256,192,277614,1,0,0:0:0:0:
402,192,277614,1,0,0:0:0:0:
329,192,277614,1,0,0:0:0:0:
475,192,277614,128,0,278657:0:0:0:0:
256,192,277744,128,0,277809:0:0:0:0:
329,192,277875,128,0,277940:0:0:0:0:
402,192,278005,128,0,278070:0:0:0:0:
109,192,278135,128,0,278201:0:0:0:0:
182,192,278266,128,0,278331:0:0:0:0:
256,192,278396,128,0,278462:0:0:0:0:
329,192,278527,128,0,278592:0:0:0:0:
402,192,278657,128,0,278722:0:0:0:0:
36,192,278788,128,0,279701:0:0:0:0:
329,192,278788,128,0,278853:0:0:0:0:
256,192,278918,128,0,278983:0:0:0:0:
182,192,279048,128,0,279114:0:0:0:0:
475,192,279179,128,0,279244:0:0:0:0:
402,192,279309,128,0,279375:0:0:0:0:
329,192,279440,128,0,279505:0:0:0:0:
256,192,279570,128,0,279635:0:0:0:0:
109,192,279701,1,0,0:0:0:0:
402,192,279831,128,0,280744:0:0:0:0:
182,192,279831,1,0,0:0:0:0:
256,192,279962,1,0,0:0:0:0:
329,192,280092,1,0,0:0:0:0:
36,192,280222,1,0,0:0:0:0:
109,192,280353,1,0,0:0:0:0:
182,192,280483,1,0,0:0:0:0:
109,192,280875,128,0,281788:0:0:0:0:
329,192,281918,128,0,283875:0:0:0:0:
182,192,284005,128,0,289092:0:0:0:0:
