osu file format v14

[General]
AudioFilename: audio.mp3
AudioLeadIn: 0
PreviewTime: 192031
Countdown: 0
SampleSet: Soft
StackLeniency: 0.2
Mode: 0
LetterboxInBreaks: 0
WidescreenStoryboard: 1

[Editor]
Bookmarks: 1122,8759,26213,34940,43668,61122,69849,73668,78577,87304,96031,104759,113486,122213,139668,157122,174577,192031,196395,200759,205122,209486,218213,226940,244395,253122,261849,270577,279304,288031,296759,301122,301940,305486,309849,314213
DistanceSpacing: 1
BeatDivisor: 3
GridSize: 4
TimelineZoom: 1.900001

[Metadata]
Title:GHOST
TitleUnicode:GHOST
Artist:Camellia
ArtistUnicode:かめりあ
Creator:fanzhen0019
Version:FourSeasonsHotel
Source:
Tags:intensity callionet rustbell sprosive
BeatmapID:1408449
BeatmapSetID:665530

[Difficulty]
HPDrainRate:1
CircleSize:4.6
OverallDifficulty:9.5
ApproachRate:9.8
SliderMultiplier:3
SliderTickRate:1

[Events]
//Background and Video events
0,0,"123414233142243423.png",0,0
//Break Periods
2,122413,139188
//Storyboard Layer 0 (Background)
//Storyboard Layer 1 (Fail)
//Storyboard Layer 2 (Pass)
//Storyboard Layer 3 (Foreground)
Sprite,Foreground,TopLeft,"timeline.png",320,240 S,0,1122,,1 M,0,1122,8759,608,392,320,392 M,0,8759,334940,320,392,-3736,392 M,0,334940,336031,4416,392
Sprite,Foreground,Centre,"a.png",320,240 M,0,0,,318,400 F,0,0,337395,1
//Storyboard Sound Samples

[TimingPoints]
8759,272.727272727273,4,2,0,80,1,0
26213,-200,4,2,0,80,0,0
52940,-100,4,2,0,80,0,0
53486,-200,4,2,0,80,0,0
54031,-100,4,2,0,80,0,0
54577,-200,4,2,0,80,0,0
55122,-50,4,2,0,80,0,0
55395,-100,4,2,0,80,0,0
55668,-200,4,2,0,80,0,0
56213,-66.6666666666667,4,2,0,80,0,0
56759,-100,4,2,0,80,0,0
58940,-100,4,2,0,80,0,0
59213,-200,4,2,0,80,0,0
60031,-100,4,2,0,80,0,0
60304,-66.6666666666667,4,2,0,80,0,0
60577,-500,4,2,0,80,0,0
61122,-50,4,2,0,80,0,1
61395,-66.6666666666667,4,2,0,80,0,1
61668,-100,4,2,0,80,0,1
65213,-200,4,2,0,80,0,1
65486,-50,4,2,0,80,0,1
65759,-66.6666666666667,4,2,0,80,0,1
66031,-100,4,2,0,80,0,1
69849,-50,4,2,0,80,0,1
70122,-66.6666666666667,4,2,0,80,0,1
70395,-100,4,2,0,80,0,1
73940,-200,4,2,0,80,0,1
74213,-50,4,2,0,80,0,1
74486,-200,4,2,0,80,0,1
74759,-100,4,2,0,80,0,1
74895,-200,4,2,0,80,0,1
75031,-100,4,2,0,80,0,1
75304,-200,4,2,0,80,0,1
75440,-100,4,2,0,80,0,1
75577,-66.6666666666667,4,2,0,80,0,1
75713,-100,4,2,0,80,0,1
76122,-200,4,2,0,80,0,1
76259,-100,4,2,0,80,0,1
76395,-50,4,2,0,80,0,1
76668,-200,4,2,0,80,0,1
76940,-100,4,2,0,80,0,1
77077,-200,4,2,0,80,0,1
77349,-100,4,2,0,80,0,1
77486,-200,4,2,0,80,0,1
77622,-100,4,2,0,80,0,1
78031,-200,4,2,0,80,0,1
78577,-133.333333333333,4,2,0,80,0,0
78645,-133.333333333333,4,2,0,80,0,0
82940,-100,4,2,0,80,0,0
84031,-100,4,2,0,80,0,0
85213,-100,4,2,0,80,0,0
85395,-100,4,2,0,80,0,0
85429,276.497695852535,4,2,0,80,1,0
85577,-100,4,2,0,80,0,0
85759,-100,4,2,0,80,0,0
85940,-100,4,2,0,80,0,0
86122,-100,4,2,0,80,0,0
86304,-100,4,2,0,80,0,0
86486,-100,4,2,0,80,0,0
86577,-100,4,2,0,80,0,0
86668,-100,4,2,0,80,0,0
86759,272.727272727273,4,2,0,80,1,0
86759,-200,4,2,0,80,0,0
87304,272.727272727273,4,2,0,80,1,1
88394,-80,4,2,0,80,0,1
88668,-66.6666666666667,4,2,0,80,0,1
88940,-133.333333333333,4,2,0,80,0,1
89213,-50,4,2,0,80,0,1
89486,-133.333333333333,4,2,0,80,0,1
90031,-100,4,2,0,80,0,1
90577,-66.6666666666667,4,2,0,80,0,1
91122,-50,4,2,0,80,0,1
91668,-100,4,2,0,80,0,1
92213,-50,4,2,0,80,0,1
93304,-66.6666666666667,4,2,0,80,0,1
93849,-100,4,2,0,80,0,1
94395,-133.333333333333,4,2,0,80,0,1
94940,-200,4,2,0,80,0,1
95622,-66.6666666666667,4,2,0,80,0,1
96577,-50,4,2,0,80,0,1
96849,-200,4,2,0,80,0,1
97395,-133.333333333333,4,2,0,80,0,1
97940,-100,4,2,0,80,0,1
98213,-66.6666666666667,4,2,0,80,0,1
98759,-50,4,2,0,80,0,1
101486,-100,4,2,0,80,0,1
102577,-66.6666666666667,4,2,0,80,0,1
103122,-50,4,2,0,80,0,1
104213,-100,4,2,0,80,0,0
104759,-100,4,2,0,80,0,1
105849,-142.857142857143,4,2,0,80,0,1
109122,-100,4,2,0,80,0,1
109668,-66.6666666666667,4,2,0,80,0,1
109940,-100,4,2,0,80,0,1
111849,-76.9230769230769,4,2,0,80,0,1
112395,-100,4,2,0,80,0,1
113486,-200,4,2,0,80,0,1
114031,-100,4,2,0,80,0,1
114577,-166.666666666667,4,2,0,80,0,1
115668,-100,4,2,0,80,0,1
117849,-50,4,2,0,80,0,1
118668,-100,4,2,0,80,0,1
121668,-200,4,2,0,80,0,1
122213,-100,4,2,0,80,0,0
139668,-200,4,2,0,80,0,0
157122,-166.666666666667,4,2,0,80,0,0
173486,-100,4,2,0,80,0,0
174645,-100,4,2,0,80,0,0
192031,-100,4,2,0,80,0,1
209485,-66.6666666666667,4,2,0,80,0,0
212758,-50,4,2,0,80,0,0
213849,-100,4,2,0,80,0,0
214940,-142.857142857143,4,2,0,80,0,0
217122,-200,4,2,0,80,0,0
218213,-100,4,2,0,80,0,0
220667,-66.6666666666667,4,2,0,80,0,0
220940,-200,4,2,0,80,0,0
221213,-50,4,2,0,80,0,0
221486,-100,4,2,0,80,0,0
222577,-166.666666666667,4,2,0,80,0,0
224758,-142.857142857143,4,2,0,80,0,0
225849,-200,4,2,0,80,0,0
226940,-200,4,2,0,80,0,0
230895,-50,4,2,0,80,0,0
231304,-200,4,2,0,80,0,0
232122,-100,4,2,0,80,0,0
232940,-200,4,2,0,80,0,0
233485,-100,4,2,0,80,0,0
234304,-200,4,2,0,80,0,0
235122,-66.6666666666667,4,2,0,80,0,0
239622,-100,4,2,0,80,0,0
242349,-100,4,2,0,80,0,0
242486,-100,4,2,0,80,0,0
242554,-100,4,2,0,80,0,0
242622,-100,4,2,0,80,0,0
242758,-100,4,2,0,80,0,0
242827,-100,4,2,0,80,0,0
242895,-100,4,2,0,80,0,0
243031,-100,4,2,0,80,0,0
243099,-100,4,2,0,80,0,0
243168,-100,4,2,0,80,0,0
243304,-100,4,2,0,80,0,0
243849,-66.6666666666667,4,2,0,80,0,0
244394,1E-248,4,2,0,80,1,0
245485,272.727272727273,4,2,0,80,1,0
253395,-66.6666666666667,4,2,0,80,0,1
253940,-100,4,2,0,80,0,1
257486,-200,4,2,0,80,0,1
259668,-66.6666666666667,4,2,0,80,0,1
261304,-50,4,2,0,80,0,1
262666,-100,4,2,0,80,0,1
266758,-50,4,2,0,80,0,1
268598,-57.1428571428571,4,2,0,80,0,1
268804,-66.6666666666667,4,2,0,80,0,1
269008,-80,4,2,0,80,0,1
269213,-50,4,2,0,80,0,1
269485,-66.6666666666667,4,2,0,80,0,1
269690,-80,4,2,0,80,0,1
269894,-100,4,2,0,80,0,1
270099,-133.333333333333,4,2,0,80,0,1
270304,-50,4,2,0,80,0,1
270576,-142.857142857143,4,2,0,80,0,0
272758,-200,4,2,0,80,0,0
274394,-100,4,2,0,80,0,0
278213,-200,4,2,0,80,0,0
279304,-100,4,2,0,80,0,0
283940,-133.333333333333,4,2,0,80,0,0
284213,-100,4,2,0,80,0,0
288031,-50,4,2,0,80,0,0
288304,-100,4,2,0,80,0,0
290213,-50,4,2,0,80,0,0
291304,-100,4,2,0,80,0,0
291678,-50,4,2,0,80,0,0
297167,-66.6666666666667,4,2,0,80,0,0
297576,-500,4,2,0,80,0,0
297985,-50,4,2,0,80,0,0
298394,-10,4,2,0,80,0,0
298940,-100,4,2,0,80,0,0
299758,-10,4,2,0,80,0,0
300576,-200,4,2,0,80,0,0
301122,-50,4,2,0,80,0,0
303304,-10,4,2,0,80,0,0
304940,-66.6666666666667,4,2,0,80,0,0
309303,-200,4,2,0,80,0,0
309849,-100,4,2,0,80,0,0
312031,-100,4,2,0,80,0,0
314213,-10,4,2,0,80,0,0
314485,-200,4,2,0,80,0,0
316394,1E-248,4,2,0,80,1,1
316666,272.727272727273,4,2,0,80,1,1
316938,-200,4,2,0,80,0,1
317484,272.727272727273,4,2,0,80,1,1
318302,-200,4,2,0,80,0,1
319938,1E-248,4,2,0,80,1,1
320211,272.727272727273,4,2,0,80,1,1
320756,272.727272727273,4,2,0,80,1,1
321301,-200,4,2,0,80,0,1
337165,1E+298,4,2,0,80,1,1

[HitObjects]
256,192,8759,12,4,25122,1:0:0:0:
52,128,25259,5,0,1:0:0:0:
52,128,25327,1,0,1:0:0:0:
52,128,25395,2,0,P|40:176|48:216,1,75,0|0,1:0|2:0,1:0:0:0:
148,180,25531,1,0,1:0:0:0:
248,232,25668,1,0,1:0:0:0:
248,232,25736,1,0,1:0:0:0:
248,232,25804,2,0,P|260:184|252:144,1,75,0|0,1:0|2:0,1:0:0:0:
168,96,25940,5,0,1:0:0:0:
128,268,26077,1,4,1:2:0:0:
48,288,26213,6,0,L|128:280,1,75.0000028610231,4|0,1:0|2:0,0:0:0:0:
400,368,26486,1,2,0:0:0:0:
384,272,26759,1,8,1:0:0:0:
368,176,27031,1,0,1:0:0:0:
464,320,27304,5,2,0:0:0:0:
368,304,27577,1,0,1:0:0:0:
272,288,27849,1,8,1:0:0:0:
512,240,28122,1,2,0:0:0:0:
192,192,28395,5,0,1:0:0:0:
160,384,28668,1,2,0:0:0:0:
288,336,28940,1,8,1:0:0:0:
160,384,29213,1,0,1:0:0:0:
96,224,29486,5,2,0:0:0:0:
112,304,29759,1,0,1:0:0:0:
128,384,30031,1,8,1:0:0:0:
144,144,30304,1,2,0:0:0:0:
16,352,30577,5,0,1:0:0:0:
496,304,30849,1,2,0:0:0:0:
480,208,31122,1,8,1:0:0:0:
464,112,31395,1,0,1:0:0:0:
432,352,31668,5,2,0:0:0:0:
336,336,31940,1,0,1:0:0:0:
240,320,32213,1,8,1:0:0:0:
512,288,32486,1,2,0:0:0:0:
384,64,32759,5,0,1:0:0:0:
368,160,33031,1,2,0:0:0:0:
352,256,33304,1,8,1:0:0:0:
288,0,33577,1,0,1:0:0:0:
248,256,33849,6,0,L|328:240,1,75.0000028610231,2|0,0:0|2:0,0:0:0:0:
480,328,34122,1,0,1:0:0:0:
464,272,34259,1,2,0:0:0:0:
448,216,34395,1,8,1:0:0:0:
424,288,34531,1,2,0:0:0:0:
400,360,34668,1,2,0:0:0:0:
192,320,34804,5,0,0:0:0:0:
192,320,34872,1,0,0:0:0:0:
192,320,34940,2,0,B|144:280|104:288|88:368,1,150.000005722046,0|2,1:0|0:0,0:0:0:0:
24,272,35349,1,0,0:0:0:0:
80,176,35486,2,0,L|64:96,1,75.0000028610231,8|0,1:0|0:0,0:0:0:0:
160,216,35759,5,0,1:0:0:0:
169,242,35827,1,0,0:0:0:0:
191,259,35895,1,0,0:0:0:0:
218,263,35963,1,0,0:0:0:0:
244,252,36031,2,0,L|320:248,1,75.0000028610231
472,168,36304,5,0,1:0:0:0:
416,296,36440,1,0,0:0:0:0:
416,296,36509,1,0,0:0:0:0:
416,296,36577,1,8,1:0:0:0:
336,184,36713,1,0,0:0:0:0:
416,40,36849,5,2,0:0:0:0:
407,66,36917,1,0,0:0:0:0:
385,83,36985,1,0,0:0:0:0:
358,87,37053,1,0,0:0:0:0:
332,76,37122,2,0,L|256:72,1,75.0000028610231,0|0,1:0|0:0,0:0:0:0:
88,176,37395,5,0,0:0:0:0:
160,168,37531,1,0,0:0:0:0:
232,160,37668,1,8,1:0:0:0:
168,208,37804,1,0,0:0:0:0:
104,256,37940,1,0,1:0:0:0:
128,104,38077,5,0,0:0:0:0:
128,104,38145,1,0,0:0:0:0:
128,104,38213,2,0,L|120:24,1,75.0000028610231
232,248,38486,2,0,L|224:328,1,75.0000028610231,0|0,1:0|0:0,0:0:0:0:
216,304,38690,1,0,0:0:0:0:
208,284,38759,2,0,L|236:292,5,25.0000009536744,8|0|0|0|0|0,1:0|2:0|2:0|2:0|2:0|2:0,0:0:0:0:
296,336,39031,5,2,0:0:0:0:
312,328,39099,1,0,0:0:0:0:
328,320,39168,1,0,0:0:0:0:
344,312,39236,1,0,0:0:0:0:
400,344,39304,6,0,P|440:336|480:336,1,75.0000028610231,0|0,1:0|0:0,0:0:0:0:
304,240,39577,2,0,P|264:232|224:232,1,75.0000028610231
56,288,39849,1,8,1:0:0:0:
128,312,39986,1,0,0:0:0:0:
80,368,40122,1,0,1:0:0:0:
32,208,40259,5,0,0:0:0:0:
32,208,40327,1,0,0:0:0:0:
32,208,40395,2,0,L|40:128,1,75.0000028610231
48,56,40668,1,0,1:0:0:0:
104,264,40804,5,0,0:0:0:0:
104,264,40872,1,0,0:0:0:0:
104,264,40940,2,0,P|144:272|184:272,1,75.0000028610231,8|0,1:0|0:0,0:0:0:0:
332,312,41213,5,2,0:0:0:0:
364,304,41281,1,0,0:0:0:0:
396,296,41349,1,0,0:0:0:0:
428,288,41418,1,0,0:0:0:0:
456,280,41486,6,0,P|464:248|464:200,1,75.0000028610231,0|0,1:0|2:0,0:0:0:0:
336,136,41759,2,0,P|328:168|328:216,1,75.0000028610231,0|2,0:0|2:0,0:0:0:0:
392,248,42031,6,0,L|472:240,1,75.0000028610231,2|0,0:0|2:0,0:0:0:0:
264,160,42304,2,0,L|184:168,1,75.0000028610231,2|0,0:0|2:0,0:0:0:0:
96,176,42509,1,0,2:0:0:0:
96,176,42577,1,0,0:0:0:0:
40,272,42849,6,0,P|40:248|48:224,1,37.5000014305115,2|0,0:0|2:0,0:0:0:0:
160,320,42986,2,0,P|160:344|152:368,1,37.5000014305115,2|0,0:0|2:0,0:0:0:0:
224,152,43122,6,2,L|220:120,5,25
288,200,43395,5,2,0:0:0:0:
306,231,43463,1,0,0:0:0:0:
337,252,43531,1,2,0:0:0:0:
374,256,43599,1,0,0:0:0:0:
409,244,43668,6,0,P|400:208|472:264,1,262.5,4|0,1:0|2:0,0:0:0:0:
420,312,44213,6,0,P|429:348|357:292,1,262.5,0|0,1:0|2:0,0:0:0:0:
452,208,44759,6,0,P|492:167|422:-3,1,262.5,0|0,1:0|2:0,0:0:0:0:
320,16,45304,6,0,P|263:126|341:223,1,262.5,0|0,1:0|2:0,0:0:0:0:
488,320,45849,6,0,B|344:280|376:372|224:328,1,262.5,0|0,1:0|2:0,0:0:0:0:
24,224,46395,6,0,B|168:264|136:172|288:216,1,262.5,0|0,1:0|2:0,0:0:0:0:
352,276,46940,6,0,B|435:261|508:329|508:329|504:272|460:256,1,262.5,0|0,1:0|2:0,0:0:0:0:
468,128,47486,6,0,B|386:142|313:74|313:74|316:132|360:148,1,262.5,0|0,1:0|2:0,0:0:0:0:
359,148,48031,6,0,B|239:146|308:211|189:209|189:209|264:218,1,262.5,0|0,1:0|2:0,0:0:0:0:
32,168,48577,6,0,B|151:169|82:104|201:106|201:106|126:97,1,262.5,0|0,1:0|2:0,0:0:0:0:
53,31,49122,6,0,B|60:72|40:104|40:104|136:112|148:184|111:232,1,262.5,0|0,1:0|2:0,0:0:0:0:
4,316,49668,6,0,B|48:328|84:304|84:304|92:400|204:412|232:352,1,262.5,0|0,1:0|2:0,0:0:0:0:
299,375,50213,6,0,B|308:412|420:400|428:304|428:304|464:328|508:316,1,262.5,0|0,1:0|2:0,0:0:0:0:
399,231,50759,6,0,B|364:184|376:112|472:104|472:104|452:72|458:31,1,262.5,0|0,1:0|2:0,0:0:0:0:
380,48,51304,6,0,P|348:72|348:292,1,262.5,0|0,1:0|2:0,0:0:0:0:
179,274,51850,6,0,P|207:150|131:47,1,262.5,0|0,1:0|2:0,0:0:0:0:
57,37,52395,6,0,L|137:47,1,75,4|0,1:0|2:0,0:0:0:0:
240,8,52668,6,0,P|260:44|250:88,1,75,0|0,1:0|2:0,1:0:0:0:
256,316,52940,2,0,B|239:390|239:390|198:329,1,150,0|0,1:0|2:0,0:0:0:0:
0,172,53213,2,0,B|96:160|52:208|176:184,1,150,0|0,1:0|2:0,1:0:0:0:
444,288,53486,6,0,P|440:328|464:368,1,75,0|0,1:0|2:0,0:0:0:0:
362,237,53759,6,0,P|377:203|372:166,1,75,0|0,1:0|2:0,1:0:0:0:
260,0,54031,2,0,P|336:32|424:0,1,150,0|0,1:0|2:0,0:0:0:0:
512,184,54304,2,0,P|436:152|348:184,1,150,0|0,1:0|2:0,1:0:0:0:
108,364,54577,6,0,B|100:332|100:332|132:292,1,75,0|0,1:0|2:0,0:0:0:0:
84,220,54849,6,0,B|51:246|51:246|19:238,1,75,0|0,1:0|2:0,1:0:0:0:
0,40,55122,2,0,B|58:56|126:39|126:39|184:90|184:90|252:65|352:90,1,300,0|0,1:0|2:0,1:0:0:0:
488,76,55395,2,0,P|446:136|458:209,1,150,0|0,1:0|2:0,1:0:0:0:
292,360,55668,6,0,L|379:356,1,75,0|0,1:0|2:0,0:0:0:0:
220,308,55940,2,0,L|133:304,1,75,0|0,1:0|2:0,1:0:0:0:
0,44,56213,2,0,B|140:28|80:100|228:76,1,225.000008583069,0|0,1:0|2:0,0:0:0:0:
512,160,56486,2,0,B|372:176|432:104|284:128,1,225.000008583069,0|0,1:0|2:0,1:0:0:0:
202,116,56759,5,4,1:0:0:0:
331,138,56895,1,0,1:0:0:0:
309,267,57031,1,0,1:0:0:0:
180,245,57168,1,0,1:0:0:0:
92,163,57304,5,0,1:0:0:0:
284,28,57441,1,0,1:0:0:0:
419,220,57577,1,0,1:0:0:0:
227,355,57713,1,0,1:0:0:0:
112,172,57849,6,0,P|77:158|41:166,1,75,4|0,1:0|1:0,1:0:0:0:
70,238,57986,2,0,P|56:272|64:308,1,75,0|0,1:0|1:0,1:0:0:0:
184,357,58122,2,0,P|218:370|254:361,1,75,0|0,1:0|1:0,1:0:0:0:
224,295,58259,2,0,P|249:267|254:231,1,75,0|0,1:0|1:0,1:0:0:0:
376,284,58395,5,0,1:0:0:0:
414,307,58463,1,0,1:0:0:0:
444,273,58531,1,0,1:0:0:0:
414,307,58599,1,0,1:0:0:0:
384,340,58668,1,0,1:0:0:0:
414,307,58736,1,0,1:0:0:0:
453,330,58804,1,0,1:0:0:0:
414,307,58872,1,0,1:0:0:0:
414,307,58940,6,0,P|388:240|424:80,1,225,4|0,1:0|2:0,1:0:0:0:
496,64,59213,6,0,P|474:35|396:11,1,112.5,0|0,3:0|2:0,1:0:0:0:
415,93,59486,6,0,P|388:136|314:146,1,112.5,0|0,3:0|2:0,1:0:0:0:
328,60,59759,6,0,P|272:20|220:28,1,112.5,2|0,3:0|2:0,1:0:0:0:
252,100,60031,2,2,P|180:176|224:300,1,225,2|0,3:0|2:0,1:0:0:0:
348,376,60304,2,2,P|460:347|378:134,1,337.500012874604,2|0,3:0|2:0,1:0:0:0:
372,212,60577,2,0,B|339:240|339:240|355:284,1,90,12|0,1:0|2:0,1:0:0:0:
304,236,60849,5,4,0:1:0:0:
217,112,61122,6,2,B|88:112|88:112|72:304|72:304|200:304,1,450,4|0,1:0|2:0,1:0:0:0:
200,136,61395,6,2,B|103:136|103:136|91:280|91:280|188:280,1,337.500012874604,0|0,0:0|2:0,1:0:0:0:
184,160,61668,6,2,B|119:160|119:160|111:256|111:256|175:256,1,225,8|0,1:0|2:0,1:0:0:0:
32,208,61940,5,4,1:0:0:0:
284,348,62077,2,0,L|292:268,1,75,2|0,0:0|2:0,0:0:0:0:
392,320,62213,2,0,L|400:240,1,75,2|0,0:0|2:0,0:0:0:0:
500,292,62349,2,0,L|508:212,1,75,2|0,0:0|2:0,0:0:0:0:
336,72,62486,5,4,1:0:0:0:
64,352,62622,2,0,L|71:277,1,75,2|0,0:0|2:0,0:0:0:0:
172,324,62758,2,0,L|179:249,1,75,8|0,1:0|2:0,0:0:0:0:
284,348,62895,2,0,L|292:268,1,75,2|0,0:0|2:0,0:0:0:0:
392,320,63031,2,0,L|400:240,1,75,2|0,0:0|2:0,0:0:0:0:
500,292,63167,2,0,L|508:212,1,75,2|0,0:0|2:0,0:0:0:0:
240,132,63304,5,4,1:0:0:0:
64,304,63440,2,0,L|48:216,1,75,2|0,0:0|2:0,0:0:0:0:
172,324,63577,2,0,L|156:236,1,75,2|0,0:0|2:0,0:0:0:0:
276,344,63713,2,0,L|260:256,1,75,2|0,0:0|2:0,0:0:0:0:
380,312,63849,2,0,L|364:224,1,75,8|0,1:0|2:0,0:0:0:0:
484,332,63986,2,0,L|468:244,1,75,2|0,0:0|2:0,0:0:0:0:
240,132,64122,5,4,1:0:0:0:
64,304,64258,2,0,L|48:216,1,75,2|0,0:0|2:0,0:0:0:0:
172,288,64395,6,0,L|180:232,1,37.5,2|0,0:0|2:0,0:0:0:0:
240,304,64463,2,0,L|248:248,1,37.5,2|0,0:0|2:0,0:0:0:0:
308,320,64531,2,0,L|316:264,1,37.5,2|0,0:0|2:0,0:0:0:0:
376,336,64599,2,0,L|384:280,1,37.5,2|0,0:0|2:0,0:0:0:0:
444,352,64668,2,0,L|456:272,1,75,4|0,1:0|2:0,0:0:0:0:
512,176,64804,2,0,L|496:88,1,75,2|0,0:0|2:0,0:0:0:0:
276,224,64940,6,0,L|260:312,1,75,8|0,1:0|2:0,0:0:0:0:
172,244,65076,2,0,L|156:332,1,75,2|0,0:0|2:0,0:0:0:0:
64,264,65213,2,2,L|48:352,1,75,0|0,0:0|2:0,1:0:0:0:
80,96,65486,6,2,B|160:144|160:144|512:80,1,450,4|0,1:0|2:0,1:0:0:0:
80,96,65759,6,2,B|119:120|119:120|407:68,1,337.500012874604,0|0,0:0|2:0,1:0:0:0:
80,96,66031,6,2,L|316:52,1,225,8|0,1:0|2:0,1:0:0:0:
512,160,66304,6,0,L|352:136,1,150,4|2,1:0|2:0,0:0:0:0:
0,200,66577,2,0,L|160:176,1,150,2|0,0:0|2:0,0:0:0:0:
440,240,66849,5,4,1:0:0:0:
468,36,66986,1,2,0:0:0:0:
440,240,67122,2,0,L|280:216,1,150,8|2,1:0|2:0,0:0:0:0:
72,312,67395,5,2,0:0:0:0:
44,108,67532,1,0,0:0:0:0:
72,312,67668,2,0,L|232:288,1,150,4|2,1:0|2:0,0:0:0:0:
504,376,67940,5,0,0:0:0:0:
476,184,68077,1,2,0:0:0:0:
400,364,68213,2,0,B|356:340|356:340|368:228,1,150,8|2,1:0|0:0,0:0:0:0:
0,336,68486,5,4,1:0:0:0:
28,144,68623,1,2,0:0:0:0:
104,324,68759,2,0,B|148:300|148:300|136:188,1,150,0|0,0:0|2:0,0:0:0:0:
448,292,69031,5,4,1:0:0:0:
420,100,69168,1,2,0:0:0:0:
188,48,69304,6,0,L|108:52,1,75,8|0,1:0|2:0,0:0:0:0:
336,136,69440,2,0,L|416:132,1,75,2|0,0:0|2:0,0:0:0:0:
448,152,69577,2,0,L|368:148,1,75,2|0,0:0|2:0,0:0:0:0:
312,168,69713,2,0,L|392:164,1,75,2|0,0:0|2:0,0:0:0:0:
488,344,69849,6,2,P|452:204|412:376,1,450,4|0,1:0|2:0,1:0:0:0:
471,329,70122,6,2,P|444:224|414:353,1,337.500012874604,0|0,0:0|2:0,1:0:0:0:
455,317,70395,6,0,P|437:247|417:333,1,225,8|0,1:0|2:0,1:0:0:0:
420,288,70668,5,4,1:0:0:0:
260,248,70804,2,0,L|275:174,1,75,2|0,3:2|2:0,0:0:0:0:
488,128,70940,2,0,L|472:208,1,75,0|0,3:0|2:0,0:0:0:0:
384,152,71077,2,0,L|368:228,1,75,2|0,3:2|2:0,0:0:0:0:
512,372,71213,5,4,1:0:0:0:
472,96,71349,2,0,L|456:176,1,75,2|0,3:2|2:0,0:0:0:0:
368,120,71486,2,0,L|352:196,1,75,8|0,1:0|2:0,0:0:0:0:
264,144,71622,2,0,L|248:220,1,75,2|0,3:2|2:0,0:0:0:0:
160,168,71759,2,0,L|144:244,1,75,2|0,3:2|2:0,0:0:0:0:
56,192,71895,2,0,L|40:268,1,75,2|0,3:2|2:0,0:0:0:0:
248,372,72031,5,4,1:0:0:0:
472,243,72168,2,0,L|456:163,1,75,0|0,3:0|2:0,0:0:0:0:
368,219,72304,2,0,L|352:143,1,75,2|0,3:2|2:0,0:0:0:0:
264,195,72441,2,0,L|248:119,1,75,2|0,3:2|2:0,0:0:0:0:
160,171,72578,2,0,L|144:95,1,75,8|0,1:0|2:0,0:0:0:0:
56,147,72714,2,0,L|40:71,1,75,2|0,3:2|2:0,0:0:0:0:
220,308,72849,5,4,1:0:0:0:
472,96,72986,2,0,L|456:176,1,75,0|0,3:0|2:0,0:0:0:0:
368,219,73122,6,0,L|360:172,1,37.5,0|0,3:0|2:0,0:0:0:0:
296,200,73190,2,0,L|288:153,1,37.5,0|0,3:0|2:0,0:0:0:0:
224,181,73259,2,0,L|216:134,1,37.5,2|0,3:2|2:0,0:0:0:0:
152,162,73327,2,0,L|144:115,1,37.5,2|0,3:2|2:0,0:0:0:0:
80,144,73395,2,0,L|68:60,1,75,4|0,1:0|2:0,0:0:0:0:
28,312,73531,2,0,L|42:238,1,75,2|0,3:2|2:0,0:0:0:0:
192,28,73668,6,0,L|208:104,1,75,8|0,1:0|2:0,0:0:0:0:
296,52,73804,2,0,L|312:128,1,75,0|0,3:0|2:0,0:0:0:0:
400,76,73941,2,2,L|416:152,1,75,0|0,0:0|2:0,1:0:0:0:
260,264,74213,6,2,B|444:280|444:280|488:368|488:368|316:352,1,450,4|0,1:0|2:0,1:0:0:0:
244,384,74486,6,0,B|212:364|212:364|124:372,1,112.5,0|0,0:0|2:0,1:0:0:0:
56,352,74759,5,8,1:0:0:0:
56,352,74827,2,0,P|63:336|81:323,1,37.5,2|0,3:2|2:0,0:0:0:0:
56,352,74895,2,0,P|51:328|58:300,1,37.5,0|0,3:0|2:0,0:0:0:0:
44,120,75031,1,4,1:0:0:0:
152,224,75168,6,0,P|144:204|144:172,1,37.5,2|0,3:2|2:0,0:0:0:0:
224,248,75236,2,0,P|209:231|198:201,1,37.5,2|0,3:2|2:0,0:0:0:0:
300,248,75304,2,0,P|281:237|260:213,1,37.5,0|0,3:0|2:0,0:0:0:0:
400,56,75440,2,0,P|404:92|380:132,1,75,0|0,3:0|2:0,0:0:0:0:
404,328,75577,6,0,B|448:332|448:332|472:344|472:344|516:348,1,112.500004291535,4|2,1:0|3:2,0:0:0:0:
228,364,75713,6,0,P|260:347|306:356,1,75,2|0,3:2|2:0,0:0:0:0:
56,232,75849,2,0,P|39:264|48:310,1,75,8|0,1:0|2:0,0:0:0:0:
232,152,75986,6,0,P|213:141|192:117,1,37.5,2|0,3:2|2:0,0:0:0:0:
302,127,76054,2,0,P|279:123|251:107,1,37.5,2|0,3:2|2:0,0:0:0:0:
360,79,76122,2,0,P|338:82|306:77,1,37.5,2|0,3:2|2:0,0:0:0:0:
64,48,76259,2,0,P|104:48|148:64,1,75,0|0,3:0|2:0,0:0:0:0:
408,216,76395,6,2,B|416:136|416:136|504:96|504:96|488:368,1,450,4|0,1:0|2:0,1:0:0:0:
352,288,76668,6,0,B|320:296|320:296|304:328|304:328|256:340,1,112.5,0|0,0:0|2:0,1:0:0:0:
176,264,76940,6,0,P|184:280|197:294,1,37.5,8|0,1:0|2:0,0:0:0:0:
115,232,77009,2,0,P|117:250|125:267,1,37.5,0|0,3:0|2:0,0:0:0:0:
72,176,77077,2,0,P|68:194|69:212,1,37.5,2|0,3:2|2:0,0:0:0:0:
32,384,77213,1,4,1:0:0:0:
384,328,77349,6,0,P|375:344|362:358,1,37.5,2|0,3:2|2:0,0:0:0:0:
445,296,77417,2,0,P|442:314|434:331,1,37.5,2|0,3:2|2:0,0:0:0:0:
488,240,77486,2,0,P|491:258|490:276,1,37.5,2|0,3:2|2:0,0:0:0:0:
376,112,77622,2,0,P|368:72|384:32,1,75,2|0,3:2|2:0,0:0:0:0:
256,264,77759,6,0,L|336:256,1,75,4|0,1:0|3:0,0:0:0:0:
120,168,77895,2,0,L|40:160,1,75,2|0,3:2|2:0,0:0:0:0:
288,72,78031,2,0,B|476:92|476:92|440:116,1,225,4|0,0:2|2:0,1:0:0:0:
336,224,78577,6,0,P|336:256|352:288,3,56.2500021457673,4|0|0|0,1:0|0:0|0:0|0:0,1:0:0:0:
416,320,78849,2,0,P|448:320|480:304,3,56.2500021457673,0|0|0|0,1:0|0:0|0:0|0:0,1:0:0:0:
512,240,79122,2,0,P|512:208|496:176,3,56.2500021457673,0|0|0|0,1:0|0:0|0:0|0:0,1:0:0:0:
432,144,79394,2,0,P|400:144|368:160,3,56.2500021457673,0|0|0|0,1:0|0:0|0:0|0:0,1:0:0:0:
336,224,79668,6,0,P|336:256|328:280,3,56.2500021457673,0|0|0|0,1:0|0:0|0:0|0:0,1:0:0:0:
272,336,79940,2,0,P|240:336|216:328,3,56.2500021457673,0|0|0|0,1:0|0:0|0:0|0:0,1:0:0:0:
160,272,80213,2,0,P|160:240|152:216,3,56.2500021457673,0|0|0|0,1:0|0:0|0:0|0:0,1:0:0:0:
88,168,80485,2,0,P|56:168|32:176,3,56.2500021457673,0|0|0|0,1:0|0:0|0:0|0:0,1:0:0:0:
0,248,80759,6,0,P|0:280|16:312,3,56.2500021457673,0|0|0|0,1:0|0:0|0:0|0:0,1:0:0:0:
80,344,81031,2,0,P|112:344|144:328,3,56.2500021457673,0|0|0|0,1:0|0:0|0:0|0:0,1:0:0:0:
184,264,81304,2,0,P|184:232|200:200,3,56.2500021457673,0|0|0|0,1:0|0:0|0:0|0:0,1:0:0:0:
264,168,81576,2,0,P|296:168|328:184,3,56.2500021457673,0|0|0|0,1:0|0:0|0:0|0:0,1:0:0:0:
368,240,81849,6,0,L|376:304,3,56.2500021457673,0|0|0|0,1:0|0:0|0:0|0:0,1:0:0:0:
464,192,82122,2,0,L|456:128,3,56.2500021457673,0|0|0|0,1:0|0:0|0:0|0:0,1:0:0:0:
376,368,82395,6,0,L|369:312,3,56.2500021457673,0|0|0|0,1:0|0:0|0:0|0:0,1:0:0:0:
456,64,82668,2,0,L|462:119,3,56.2500021457673,0|0|0|0,1:0|0:0|0:0|0:0,1:0:0:0:
496,140,82940,6,0,P|456:128|416:132,1,75,4|0,1:0|0:0,0:0:0:0:
284,160,83077,2,0,P|324:172|364:168,1,75,0|0,1:0|0:0,0:0:0:0:
496,140,83213,6,0,P|456:128|416:132,1,75,0|0,1:0|0:0,0:0:0:0:
232,128,83349,2,0,P|273:132|312:121,1,75,0|0,1:0|0:0,0:0:0:0:
496,140,83486,6,0,P|456:128|416:132,1,75,0|0,1:0|0:0,0:0:0:0:
168,108,83622,2,0,P|209:105|245:88,1,75,0|0,1:0|0:0,0:0:0:0:
496,140,83759,6,0,P|456:128|416:132,1,75,0|0,1:0|0:0,0:0:0:0:
100,96,83895,2,0,P|140:86|173:62,1,75,0|0,1:0|0:0,0:0:0:0:
496,140,84031,5,4,1:0:0:0:
506,175,84099,1,0,1:0:0:0:
506,213,84167,1,0,1:0:0:0:
493,248,84235,1,0,1:0:0:0:
400,300,84304,5,0,1:0:0:0:
401,250,84372,1,0,1:0:0:0:
402,200,84440,1,0,1:0:0:0:
403,150,84508,1,0,1:0:0:0:
352,68,84577,5,0,1:0:0:0:
285,36,84645,1,0,1:0:0:0:
214,53,84713,1,0,1:0:0:0:
171,113,84781,1,0,1:0:0:0:
192,216,84849,5,0,1:0:0:0:
164,284,84917,1,0,1:0:0:0:
100,320,84985,1,0,1:0:0:0:
27,310,85053,1,0,1:0:0:0:
0,216,85122,6,0,B|8:64|8:64|8:92|24:116,1,200,4|0,1:0|3:0,0:0:0:0:
80,184,85429,5,0,3:0:0:0:
112,208,85521,1,0,3:0:0:0:
152,216,85613,1,2,3:2:0:0:
192,192,85705,5,0,3:0:0:0:
256,152,85797,1,0,3:0:0:0:
328,168,85889,1,2,3:2:0:0:
376,224,85981,5,0,3:0:0:0:
424,288,86074,1,0,3:0:0:0:
496,256,86166,1,2,3:2:0:0:
512,176,86258,5,0,3:0:0:0:
408,156,86350,1,2,3:2:0:0:
444,256,86442,1,2,3:2:0:0:
485,143,86534,5,0,3:0:0:0:
393,195,86627,1,2,3:2:0:0:
485,248,86719,1,2,3:2:0:0:
488,228,86759,6,0,L|260:236,1,225,12|0,1:0|2:0,1:0:0:0:
104,276,87304,5,4,1:0:0:0:
28,144,87395,1,2,3:2:0:0:
132,24,87486,1,2,3:2:0:0:
256,64,87577,5,2,3:2:0:0:
160,60,87668,1,2,3:2:0:0:
96,124,87759,1,2,3:2:0:0:
104,212,87849,2,0,B|160:236|220:216|220:216|172:228|156:276,1,200,8|0,1:0|2:0,1:0:0:0:
428,304,88122,6,0,B|420:252|420:252|472:288,2,100,4|2|2,1:0|3:2|3:2,0:0:0:0:
428,304,88395,6,0,B|408:244|408:244|460:280,2,125,0|2|2,3:0|3:2|3:2,0:0:0:0:
428,304,88668,6,0,B|397:237|397:237|478:291,2,150.000005722046,4|2|2,1:0|3:2|3:2,0:0:0:0:
428,304,88940,6,0,B|392:292|392:292|348:300,2,75.000002861023,8|2|2,1:0|3:2|3:2,1:0:0:0:
280,256,89213,6,0,B|176:268|176:268|72:228,2,200,0|2|2,3:0|3:2|3:2,0:0:0:0:
104,80,89486,5,4,1:0:0:0:
176,60,89577,2,2,P|192:76|176:65,1,75.000002861023,2|2,3:2|3:2,3:2:0:0:
276,80,89759,1,0,3:0:0:0:
348,60,89850,2,2,P|364:76|349:66,1,75.000002861023,2|2,3:2|3:2,3:2:0:0:
104,80,90031,5,8,1:0:0:0:
176,60,90122,2,2,P|203:77|176:65,1,100,2|2,3:2|3:2,3:2:0:0:
276,80,90304,1,4,1:0:0:0:
348,60,90395,2,2,P|376:78|349:66,1,100,2|2,3:2|3:2,3:2:0:0:
104,80,90576,5,0,3:0:0:0:
176,60,90668,2,2,P|220:80|176:65,1,150.000005722046,2|2,3:2|3:2,3:2:0:0:
276,80,90849,1,4,1:0:0:0:
348,60,90940,2,2,P|392:80|349:66,1,150.000005722046,2|2,3:2|3:2,3:2:0:0:
104,80,91122,5,8,1:0:0:0:
176,60,91213,2,2,P|219:93|176:65,1,200,2|2,3:2|3:2,3:2:0:0:
276,80,91395,1,0,3:0:0:0:
348,60,91486,2,2,P|391:93|349:66,1,200,2|2,3:2|3:2,3:2:0:0:
144,156,91668,5,4,1:0:0:0:
137,163,91759,1,2,3:2:0:0:
133,172,91849,1,0,3:0:0:0:
131,181,91940,1,0,3:0:0:0:
131,190,92031,1,2,3:2:0:0:
134,199,92122,1,0,3:0:0:0:
196,240,92213,6,0,B|211:301|211:301|283:281|323:209|248:96|148:132|92:184|92:256|167:337,1,450,8|0,1:0|0:0,1:0:0:0:
316,312,92485,6,0,B|320:248|320:248|372:284|372:284|348:296,3,150,4|2|2|2,1:0|0:0|0:0|0:0,0:0:0:0:
508,284,92758,5,2,0:0:0:0:
496,212,92827,1,2,0:0:0:0:
420,224,92895,1,2,0:0:0:0:
436,296,92963,1,2,0:0:0:0:
480,220,93031,2,0,B|368:220|368:220|312:240|312:240|184:240,1,300,4|2,1:0|3:0,1:0:0:0:
16,224,93304,5,8,1:0:0:0:
24,156,93372,1,2,0:0:0:0:
96,164,93440,1,2,0:0:0:0:
88,232,93508,1,2,0:0:0:0:
40,152,93576,2,0,B|124:152|124:152|166:167|166:167|263:167,1,225.000008583069,0|2,3:0|3:0,1:0:0:0:
496,144,93849,5,4,1:0:0:0:
488,88,93917,1,2,0:0:0:0:
436,96,93985,1,2,0:0:0:0:
444,148,94053,1,2,0:0:0:0:
472,96,94122,2,0,B|415:96|415:96|387:106|387:106|323:106,1,150,0|2,3:0|3:0,1:0:0:0:
52,80,94395,5,8,1:0:0:0:
48,56,94463,1,2,0:0:0:0:
71,55,94531,1,2,0:0:0:0:
71,75,94599,1,2,0:0:0:0:
80,56,94667,2,0,B|122:56|122:56|143:63|143:63|191:63,1,112.500004291535,4|2,1:0|3:0,1:0:0:0:
408,24,94940,5,2,0:0:0:0:
415,23,95008,1,2,0:0:0:0:
415,15,95076,1,2,0:0:0:0:
407,16,95144,1,2,0:0:0:0:
388,8,95212,2,0,B|360:8|360:8|346:12|346:12|314:12,1,75,4|2,1:0|3:0,1:0:0:0:
256,272,95486,5,8,1:0:0:0:
164,227,95622,2,2,B|232:235|232:235|244:260|244:260|280:264|280:264|292:244|292:244|360:252,2,225.000008583069,0|2|2,3:0|3:1|3:1,0:1:0:0:
24,148,96031,5,4,1:0:0:0:
96,136,96122,1,2,3:2:0:0:
124,64,96213,1,0,3:0:0:0:
48,76,96304,1,0,3:0:0:0:
96,136,96395,1,2,3:2:0:0:
172,124,96486,1,0,3:0:0:0:
240,152,96577,6,2,B|300:208|336:132|292:96|292:96|296:160|412:204|484:132|456:8|368:24,1,450,8|0,1:0|0:0,1:0:0:0:
312,240,96849,5,4,1:0:0:0:
392,308,96940,2,2,P|406:316|394:300,1,50,0|2,3:0|3:1,1:0:0:0:
301,144,97122,5,0,3:2:0:0:
261,23,97213,2,2,P|261:7|268:26,1,50,0|2,3:0|3:1,1:0:0:0:
213,232,97394,5,4,1:0:0:0:
131,346,97486,2,2,P|121:367|139:348,1,75.000002861023,0|2,3:0|3:1,1:0:0:0:
288,233,97668,5,8,1:0:0:0:
450,196,97759,2,2,P|474:198|447:203,1,75.000002861023,0|2,3:0|3:1,1:0:0:0:
231,153,97940,5,0,3:0:0:0:
88,58,98031,2,2,P|59:46|86:66,1,100,0|2,3:0|3:1,1:0:0:0:
273,228,98213,5,4,1:0:0:0:
468,192,98304,2,2,P|517:206|465:199,1,150.000005722046,0|2,3:0|3:1,1:0:0:0:
223,198,98486,5,0,3:0:0:0:
100,352,98577,2,2,P|86:401|108:354,1,150.000005722046,0|2,3:0|3:1,1:0:0:0:
250,222,98759,5,8,1:0:0:0:
400,80,98849,2,2,P|463:89|397:87,1,200,0|2,3:0|3:1,1:0:0:0:
238,219,99031,5,4,1:0:0:0:
324,360,99122,2,2,P|383:385|326:352,1,200,0|2,3:0|3:1,1:0:0:0:
224,216,99304,5,0,3:0:0:0:
108,256,99395,2,2,P|36:256|108:224,1,200,0|2,3:0|3:1,1:0:0:0:
296,160,99577,5,4,1:0:0:0:
412,200,99667,2,2,P|484:200|412:168,1,200,0|2,3:0|3:1,1:0:0:0:
220,96,99849,5,8,1:0:0:0:
104,136,99940,2,2,P|32:136|104:104,1,200,0|2,3:0|3:1,1:0:0:0:
292,40,100122,5,0,3:0:0:0:
408,80,100213,2,2,P|480:80|408:48,1,200,0|2,3:0|3:1,1:0:0:0:
219,1,100394,5,4,1:0:0:0:
207,17,100486,1,2,3:2:0:0:
189,25,100577,1,2,3:2:0:0:
169,26,100668,1,0,3:0:0:0:
149,23,100759,1,2,3:2:0:0:
132,12,100849,1,2,3:2:0:0:
51,84,100940,6,0,B|65:72|65:72|69:86|69:86|84:73|84:73|89:89|89:89|105:75|105:75|107:91|107:91|124:77|124:77|128:93|128:93|173:121|166:198|90:230|30:212|26:151|26:151|106:157,1,450,8|0,1:0|0:0,1:0:0:0:
180,245,101213,6,0,B|230:188|230:188|243:275,3,150,4|2|2|2,1:0|0:0|0:0|0:0,0:0:0:0:
336,340,101486,5,2,0:0:0:0:
333,325,101554,1,0,0:0:0:0:
330,310,101622,1,2,0:0:0:0:
327,295,101690,1,0,0:0:0:0:
325,279,101758,2,0,B|312:221|312:221|424:237|424:237|400:273,1,150,4|2,1:0|3:0,1:0:0:0:
32,312,102031,5,8,1:0:0:0:
28,294,102099,1,2,0:0:0:0:
24,276,102167,1,2,0:0:0:0:
21,258,102235,1,2,0:0:0:0:
16,240,102304,2,0,B|3:182|3:182|115:198|115:198|91:234,1,150,0|2,3:0|3:0,1:0:0:0:
192,268,102577,5,4,1:0:0:0:
200,236,102645,1,2,0:0:0:0:
208,204,102713,1,2,0:0:0:0:
216,172,102781,1,2,0:0:0:0:
224,140,102849,2,0,B|244:64|244:64|151:76|151:76|134:144,1,225.000008583069,0|2,3:0|3:0,1:0:0:0:
416,296,103122,5,8,1:0:0:0:
428,252,103190,1,2,0:0:0:0:
440,208,103259,1,2,0:0:0:0:
452,164,103327,1,2,0:0:0:0:
464,120,103394,2,0,B|484:40|484:40|364:56|364:56|332:164,1,300,4|2,1:0|3:0,1:0:0:0:
80,288,103668,5,2,0:0:0:0:
66,237,103736,1,2,0:0:0:0:
52,187,103805,1,2,0:0:0:0:
38,137,103873,1,2,0:0:0:0:
24,88,103941,2,0,B|4:8|4:8|124:24|124:24|140:80|140:80|90:72,1,300,4|0,1:0|0:0,1:0:0:0:
216,68,104213,6,0,P|229:64|217:72,14,37.5,4|0|0|0|0|0|0|0|0|0|0|0|0|0|0,1:0|0:0|0:0|0:0|0:0|0:0|0:0|0:0|0:0|0:0|0:0|0:0|0:0|0:0|0:0,1:0:0:0:
200,88,104758,6,0,P|188:56|196:12,2,75,4|2|2,1:0|3:2|3:2,0:0:0:0:
284,248,104986,1,0,3:2:0:0:
216,196,105099,1,2,3:2:0:0:
296,160,105167,1,8,1:0:0:0:
268,60,105304,2,2,B|292:136|252:204|252:204|212:272|248:364,1,300,4|8,1:0|1:0,1:0:0:0:
324,368,105645,1,2,0:0:0:0:
396,328,105713,2,0,P|428:332|472:332,1,75,2|2,0:0|0:0,0:0:0:0:
144,356,105849,5,4,1:0:0:0:
128,340,105918,1,2,0:0:0:0:
116,328,105985,2,2,P|84:332|40:332,1,52.4999983978272
48,188,106122,5,0,0:0:0:0:
64,172,106190,1,2,0:0:0:0:
76,160,106258,2,2,P|72:128|72:84,1,52.4999983978272,8|2,1:0|0:0,0:0:0:0:
228,92,106395,5,0,1:0:0:0:
244,108,106464,1,2,0:0:0:0:
256,120,106532,2,0,P|288:116|332:116,1,52.4999983978272,2|2,0:0|0:0,0:0:0:0:
324,260,106668,5,8,1:0:0:0:
308,276,106735,1,2,0:0:0:0:
296,288,106805,2,2,P|300:320|300:364,1,52.4999983978272
164,380,106940,5,4,1:0:0:0:
169,343,107009,1,2,0:0:0:0:
153,378,107077,5,2,0:0:0:0:
169,343,107145,1,2,0:0:0:0:
144,373,107213,5,0,0:0:0:0:
169,343,107281,1,2,0:0:0:0:
136,365,107349,5,8,1:0:0:0:
169,343,107417,1,2,0:0:0:0:
131,355,107486,5,0,1:0:0:0:
169,343,107554,1,2,0:0:0:0:
129,345,107622,5,2,0:0:0:0:
169,343,107690,1,2,0:0:0:0:
132,335,107758,5,8,1:0:0:0:
169,343,107826,1,2,0:0:0:0:
137,325,107895,5,2,0:0:0:0:
169,343,107963,1,2,0:0:0:0:
145,319,108031,5,4,1:0:0:0:
168,352,108099,2,0,L|260:360,2,52.4999983978272,2|2|2,0:0|0:0|0:0,0:0:0:0:
108,168,108304,5,0,0:0:0:0:
85,135,108372,2,0,L|-7:127,2,52.4999983978272,2|8|2,0:0|1:0|0:0,0:0:0:0:
208,60,108577,5,0,1:0:0:0:
231,27,108644,2,0,L|323:19,2,52.4999983978272,2|0|0,0:0|0:0|0:0,0:0:0:0:
171,211,108850,5,8,1:0:0:0:
148,244,108918,2,0,L|56:252,2,52.4999983978272,2|2|2,0:0|0:0|0:0,0:0:0:0:
448,296,109122,5,4,1:0:0:0:
355,351,109236,2,0,P|363:295|351:227,1,125,2|2,3:2|3:2,0:0:0:0:
360,104,109440,1,0,3:0:0:0:
432,144,109531,2,0,P|426:180|440:231,1,75,8|2,1:0|3:2,0:0:0:0:
512,124,109668,2,2,B|414:105|366:186|366:186|316:272|198:244,1,337.500012874604,4|0,1:0|0:0,1:0:0:0:
120,192,109940,6,0,P|110:164|124:108,3,75,8|2|2|2,1:0|0:0|0:0|0:0,0:0:0:0:
0,36,110213,6,0,P|39:47|78:50,1,75,4|2,1:0|0:0,0:0:0:0:
272,160,110349,2,0,P|234:166|199:178,1,75,2|2,0:0|0:0,0:0:0:0:
8,48,110486,2,0,P|45:62|84:68,1,75,0|2,0:0|0:0,0:0:0:0:
282,193,110622,2,0,P|242:195|207:204,1,75,8|2,1:0|0:0,0:0:0:0:
16,64,110759,6,0,P|52:81|90:91,1,75,0|2,1:0|0:0,0:0:0:0:
293,230,110895,2,0,P|254:228|218:235,1,75,2|2,0:0|0:0,0:0:0:0:
24,80,111031,2,0,P|58:100|95:113,1,75,8|2,1:0|0:0,0:0:0:0:
301,267,111167,2,0,P|262:262|225:266,1,75,2|2,0:0|0:0,0:0:0:0:
24,304,111304,5,4,1:0:0:0:
57,288,111372,1,2,0:0:0:0:
94,290,111440,1,2,0:0:0:0:
126,308,111508,1,2,0:0:0:0:
146,339,111576,1,0,0:0:0:0:
176,360,111645,1,2,0:0:0:0:
216,360,111713,2,0,L|224:320,1,37.5,8|0,1:0|2:0,0:0:0:0:
248,344,111781,2,0,L|256:288,1,37.5,2|0,0:0|2:0,0:0:0:0:
280,344,111849,5,0,1:0:0:0:
320,360,111918,1,2,0:0:0:0:
360,368,111986,1,2,0:0:0:0:
400,352,112054,1,2,0:0:0:0:
424,322,112122,1,8,1:0:0:0:
434,279,112190,1,2,0:0:0:0:
430,234,112258,2,0,L|456:192,1,48.7499977684022,2|0,0:0|2:0,0:0:0:0:
415,193,112327,2,0,L|444:136,1,48.7499977684022,2|0,0:0|2:0,0:0:0:0:
392,148,112394,5,4,1:0:0:0:
353,113,112463,1,2,0:0:0:0:
303,88,112531,1,2,0:0:0:0:
248,88,112599,1,2,0:0:0:0:
199,117,112667,1,0,0:0:0:0:
151,145,112736,1,2,0:0:0:0:
95,145,112804,2,0,L|84:96,1,37.5,8|0,1:0|2:0,0:0:0:0:
46,120,112872,2,0,L|40:76,1,37.5,2|0,0:0|2:0,0:0:0:0:
16,80,112940,6,0,B|124:84,1,75,0|0,1:0|2:0,0:0:0:0:
340,112,113076,2,0,P|348:148|344:185,1,75,2|0,3:0|2:0,0:0:0:0:
264,360,113213,2,0,P|255:323|259:286,1,75,8|0,1:0|2:0,0:0:0:0:
136,248,113349,2,0,L|173:251,1,37.5,2|0,3:0|2:0,0:0:0:0:
139,254,113418,2,0,L|191:258,1,37.5,2|0,3:0|2:0,0:0:0:0:
248,204,113486,6,0,P|264:172|256:124,5,50,4|2|2|0|2|2,1:0|3:2|3:2|3:0|3:2|3:2,0:0:0:0:
264,304,114031,6,2,B|268:220|268:220|244:192|244:192|252:76,1,225,4|0,1:0|0:0,1:0:0:0:
304,32,114304,2,0,B|329:64|329:64|326:102,1,75,8|0,1:0|3:0,0:0:0:0:
188,252,114440,2,0,B|164:219|164:219|167:181,1,75,2|2,3:2|3:2,0:0:0:0:
368,168,114577,5,4,1:0:0:0:
374,166,114645,1,2,3:2:0:0:
380,165,114713,2,2,L|324:172,1,44.999998626709,2|2,3:2|3:2,3:2:0:0:
108,340,114849,5,8,1:0:0:0:
114,338,114917,1,2,3:2:0:0:
120,336,114985,2,0,L|164:331,1,44.999998626709,2|2,3:2|3:2,0:0:0:0:
432,240,115122,5,0,1:0:0:0:
426,242,115190,1,2,3:2:0:0:
420,245,115258,2,2,L|364:252,1,44.999998626709,2|2,3:2|3:2,3:2:0:0:
100,104,115394,5,2,3:2:0:0:
106,106,115462,1,2,3:2:0:0:
112,112,115531,2,0,L|156:107,1,44.999998626709,8|2,1:0|3:2,0:0:0:0:
221,365,115668,2,0,P|257:373|293:362,3,75,4|2|2|2,1:0|3:2|3:2|3:2,0:0:0:0:
416,328,115940,5,0,3:0:0:0:
453,263,116008,1,2,3:2:0:0:
463,189,116076,1,8,1:0:0:0:
445,117,116144,1,2,3:2:0:0:
400,57,116212,1,0,1:0:0:0:
290,18,116281,2,2,P|254:11|218:22,2,75,2|2|2,3:2|3:2|3:2,3:2:0:0:
112,57,116486,5,8,1:0:0:0:
67,117,116554,1,2,3:2:0:0:
49,189,116622,1,2,3:2:0:0:
59,263,116690,1,2,3:2:0:0:
96,328,116758,5,4,1:0:0:0:
157,373,116826,2,2,P|194:367|232:368,1,75,2|2,3:2|3:2,3:2:0:0:
392,312,116963,1,2,3:2:0:0:
392,312,117031,5,0,3:0:0:0:
392,312,117099,2,0,P|352:312|314:306,1,75,2|8,3:2|1:0,0:0:0:0:
120,216,117235,1,2,3:2:0:0:
120,216,117304,5,0,1:0:0:0:
120,216,117372,2,2,P|160:216|198:210,1,75,2|2,3:2|3:2,3:2:0:0:
392,120,117508,1,2,3:2:0:0:
392,120,117577,5,8,1:0:0:0:
392,120,117645,2,2,P|352:120|314:114,1,75,2|2,3:2|3:2,3:2:0:0:
256,64,117781,1,2,3:2:0:0:
212,144,117849,6,0,P|243:213|300:142,5,200,4|2|0|0|2|0,1:0|3:2|3:0|0:0|3:2|3:0,0:0:0:0:
465,197,118394,2,2,B|297:212|297:212|217:286|217:286|-2:306,1,450,4|0,1:0|0:0,1:0:0:0:
32,296,118668,2,0,P|41:337|39:417,1,75,8|0,1:0|3:0,0:0:0:0:
104,248,118804,2,0,P|94:211|91:174,1,75,0|0,3:0|3:0,0:0:0:0:
0,32,118940,5,4,1:0:0:0:
35,74,119008,1,2,0:0:0:0:
86,97,119076,1,2,0:0:0:0:
142,94,119144,1,2,0:0:0:0:
192,80,119213,2,0,P|197:42|204:6,1,75,0|2,3:0|3:2,0:0:0:0:
240,192,119349,2,0,P|247:228|252:265,1,75,8|2,1:0|3:2,0:0:0:0:
320,344,119486,5,0,1:0:0:0:
355,302,119554,1,2,0:0:0:0:
406,279,119622,1,2,0:0:0:0:
462,282,119690,1,2,0:0:0:0:
512,312,119759,2,0,P|506:274|499:238,1,75,8|2,1:0|3:2,0:0:0:0:
416,136,119894,2,0,P|421:98|428:62,1,75,2|2,3:2|3:2,0:0:0:0:
392,0,120031,5,4,1:0:0:0:
373,16,120099,1,2,0:0:0:0:
360,37,120167,1,2,0:0:0:0:
354,62,120235,1,2,0:0:0:0:
312,136,120304,5,0,3:0:0:0:
292,120,120372,1,2,3:2:0:0:
279,99,120440,1,8,1:0:0:0:
272,74,120508,1,2,3:2:0:0:
208,24,120577,5,0,1:0:0:0:
192,43,120645,1,2,0:0:0:0:
186,67,120713,1,2,0:0:0:0:
187,93,120781,1,2,0:0:0:0:
165,175,120850,5,8,1:0:0:0:
142,165,120918,1,2,3:2:0:0:
124,148,120986,1,2,3:2:0:0:
113,125,121054,1,2,3:2:0:0:
32,88,121122,5,4,1:0:0:0:
22,111,121190,1,2,0:0:0:0:
24,135,121258,1,2,0:0:0:0:
33,160,121326,1,2,0:0:0:0:
96,216,121394,5,0,3:0:0:0:
78,234,121463,1,2,3:2:0:0:
56,245,121531,1,8,1:0:0:0:
31,247,121599,1,2,3:2:0:0:
8,240,121668,2,0,B|160:252|160:252|64:300,1,225,4|0,1:0|0:0,1:0:0:0:
417,100,122213,5,4,1:2:0:0:
56,304,139667,5,2,0:0:0:0:
112,232,139804,1,0,0:0:0:0:
148,316,139940,2,0,L|64:320,1,75,2|2,0:0|0:0,0:0:0:0:
212,368,140213,2,0,P|240:308|220:224,1,150,2|0,0:0|0:0,0:0:0:0:
296,176,140622,1,2,0:0:0:0:
296,176,140690,1,2,0:0:0:0:
296,176,140758,5,2,0:0:0:0:
392,188,140895,1,0,0:0:0:0:
468,128,141031,1,2,0:0:0:0:
392,188,141168,1,0,0:0:0:0:
296,176,141304,2,0,P|268:116|288:32,1,150,2|0,0:0|0:0,0:0:0:0:
28,84,141849,6,0,L|200:88,1,150,2|0,0:0|0:0,0:0:0:0:
192,184,142258,1,2,0:0:0:0:
192,184,142327,1,2,0:0:0:0:
192,184,142395,2,0,L|108:192,1,75,2|0,0:0|0:0,0:0:0:0:
12,272,142668,2,0,L|96:280,1,75,0|2,0:0|0:0,0:0:0:0:
192,332,142940,5,0,0:0:0:0:
293,257,143077,1,2,0:0:0:0:
380,352,143213,1,2,0:0:0:0:
284,340,143349,1,0,0:0:0:0:
464,320,143486,2,0,P|496:256|484:176,1,150,2|0,0:0|0:0,0:0:0:0:
216,16,144031,6,0,P|184:80|196:160,1,150,2|0,0:0|0:0,0:0:0:0:
288,184,144440,1,2,0:0:0:0:
376,140,144577,2,0,L|464:132,2,75,2|0|0,0:0|0:0|0:0,0:0:0:0:
288,184,144986,1,2,0:0:0:0:
193,155,145122,2,0,B|112:136|116:184|24:160,2,150,2|0|2,0:0|0:0|0:0,0:0:0:0:
244,236,145804,2,0,P|248:284|232:328,1,75,0|2,0:0|0:0,0:0:0:0:
488,188,146213,6,0,L|404:180,1,75,2|0,0:0|0:0,0:0:0:0:
344,328,146485,2,0,L|428:320,1,75,2|0,0:0|0:0,0:0:0:0:
296,168,146758,1,2,0:0:0:0:
152,232,147031,5,0,0:0:0:0:
8,92,147167,1,2,0:0:0:0:
8,92,147235,1,2,0:0:0:0:
8,92,147303,2,0,L|92:84,1,75,2|0,0:0|0:0,0:0:0:0:
152,232,147577,2,0,L|68:224,1,75,2|0,0:0|0:0,0:0:0:0:
240,36,147849,2,0,P|260:88|228:188,1,150,2|0,0:0|0:0,0:0:0:0:
492,312,148394,6,0,L|328:304,1,150,2|0,0:0|0:0,0:0:0:0:
260,252,148804,1,0,0:0:0:0:
196,336,148940,2,0,L|46:343,1,150,2|0,0:0|0:0,0:0:0:0:
16,148,149486,6,0,P|8:92|12:64,1,75,2|0,0:0|0:0,0:0:0:0:
160,16,149758,2,0,P|161:53|153:89,1,75,2|0,0:0|0:0,0:0:0:0:
268,176,150031,2,0,P|348:184|420:156,1,150,2|0,0:0|0:0,0:0:0:0:
512,348,150577,6,0,P|441:324|367:332,1,150,2|0,0:0|0:0,0:0:0:0:
292,272,150986,1,0,0:0:0:0:
196,268,151122,2,0,P|125:291|51:283,1,150,2|0,0:0|0:0,0:0:0:0:
12,192,151531,1,2,0:0:0:0:
56,104,151668,6,0,L|144:96,1,75,2|0,0:0|0:0,0:0:0:0:
224,40,151940,2,0,P|231:76|232:128,1,75,2|0,0:0|0:0,0:0:0:0:
292,196,152213,2,0,L|380:204,1,75,2|0,0:0|0:0,0:0:0:0:
460,260,152485,2,0,P|467:223|468:172,1,75,2|0,0:0|0:0,0:0:0:0:
469,185,152690,1,0,0:0:0:0:
469,185,152758,1,0,0:0:0:0:
400,344,153031,5,0,0:0:0:0:
304,356,153168,1,2,0:0:0:0:
212,332,153304,1,0,0:0:0:0:
116,348,153440,1,2,0:0:0:0:
24,316,153577,2,0,P|12:236|24:160,1,150,2|0,0:0|0:0,0:0:0:0:
84,92,153986,5,2,0:0:0:0:
180,212,154122,2,0,P|180:160|164:132,1,75,2|0,0:0|0:0,0:0:0:0:
4,80,154395,2,0,L|92:84,1,75,2|0,0:0|0:0,0:0:0:0:
220,40,154668,1,0,0:0:0:0:
308,76,154804,1,0,0:0:0:0:
388,20,154940,1,2,0:0:0:0:
488,284,155349,5,0,0:0:0:0:
488,284,155486,1,0,0:0:0:0:
176,256,157122,6,0,P|66:310|45:373,2,179.999994506836,4|0|8,1:0|0:0|0:0,0:0:0:0:
344,56,157940,1,0,1:0:0:0:
168,144,158213,1,0,0:0:0:0:
257,16,158486,2,0,B|221:109|298:95|244:230,2,179.999994506836,0|0|0,1:0|0:0|0:0,0:0:0:0:
80,136,159304,6,0,P|136:144|184:144,1,89.9999972534181,0|0,1:0|2:0,0:0:0:0:
156,276,159577,2,0,P|154:320|124:372,1,89.9999972534181,0|0,0:0|2:0,0:0:0:0:
256,328,159849,1,8,0:0:0:0:
464,360,160122,2,0,P|446:272|492:160,2,179.999994506836,0|0|0,1:0|0:0|1:0,0:0:0:0:
352,376,160940,1,0,0:0:0:0:
160,352,161213,6,0,P|152:304|160:248,1,89.9999972534181,0|0,3:0|1:0,0:0:0:0:
160,168,161485,2,0,P|32:144|-8:96,2,179.999994506836,0|0|8,1:0|0:0|0:0,0:0:0:0:
480,224,162304,6,0,P|449:186|427:133,1,89.9999972534181,0|0,1:0|2:0,0:0:0:0:
480,3,162577,2,0,P|462:48|428:93,1,89.9999972534181,0|0,0:0|2:0,0:0:0:0:
288,114,162849,2,0,P|336:106|392:113,1,89.9999972534181,0|0,1:0|2:0,0:0:0:0:
496,312,163122,1,0,0:0:0:0:
416,352,163259,1,0,0:0:0:0:
400,264,163395,1,0,0:0:0:0:
320,80,163668,6,0,P|408:96|512:56,2,179.999994506836,0|0|8,1:0|0:0|0:0,0:0:0:0:
272,168,164486,1,0,1:0:0:0:
352,384,164758,2,0,P|336:296|376:192,1,179.999994506836,0|0,0:0|1:0,0:0:0:0:
464,144,165168,1,0,0:0:0:0:
362,211,165304,2,0,P|372:166|356:110,1,89.9999972534181,0|0,3:0|3:0,3:0:0:0:
150,173,165577,2,0,P|140:218|156:274,1,89.9999972534181,0|0,3:0|1:0,0:0:0:0:
32,384,165849,6,0,P|48:312|0:216,1,179.999994506836,0|0,1:0|0:0,0:0:0:0:
3,219,166258,1,0,0:0:0:0:
76,80,166394,2,0,P|72:151|61:191,1,89.9999972534181,8|0,0:0|2:0,0:0:0:0:
0,8,166668,2,0,P|72:4|112:-5,1,89.9999972534181,0|0,1:0|2:0,0:0:0:0:
192,56,166940,2,0,P|280:72|304:168,2,179.999994506836,0|0|0,0:0|1:0|0:0,0:0:0:0:
192,56,167622,1,0,0:0:0:0:
224,144,167758,2,0,P|216:184|224:232,1,89.9999972534181,0|0,0:0|2:0,0:0:0:0:
376,368,168031,6,0,P|397:280|376:192,1,179.999994506836,0|0,1:0|2:0,0:0:0:0:
304,216,168440,1,0,0:0:0:0:
328,104,168577,2,0,P|376:112|424:112,1,89.9999972534181,8|0,0:0|2:0,0:0:0:0:
480,280,168849,2,0,P|480:232|464:184,1,89.9999972534181,0|0,1:0|2:0,0:0:0:0:
360,24,169122,6,0,B|265:4|297:59|185:35,2,179.999994506836,0|0|0,0:0|1:0|0:0,0:0:0:0:
416,80,169804,1,0,3:0:0:0:
340,191,169940,2,0,P|340:143|324:95,1,89.9999972534181,0|0,0:0|3:0,0:0:0:0:
280,264,170213,6,0,P|199:279|156:379,1,179.999994506836,0|0,1:0|0:0,0:0:0:0:
156,360,170622,1,0,0:0:0:0:
256,352,170758,2,0,P|312:352|368:360,1,89.9999972534181,8|0,0:0|2:0,0:0:0:0:
88,224,171031,2,0,P|96:272|80:336,1,89.9999972534181,0|0,1:0|2:0,0:0:0:0:
12,272,171304,1,0,0:0:0:0:
104,332,171440,1,0,0:0:0:0:
180,256,171577,2,0,B|176:188|176:188|148:160|148:160|140:72,2,179.999994506836,0|0|0,1:0|0:0|0:0,0:0:0:0:
220,28,172395,6,0,B|243:65|243:65|234:112,1,89.9999972534181,0|0,1:0|0:0,0:0:0:0:
63,148,172668,2,0,B|39:110|39:110|48:63,1,89.9999972534181
140,88,172940,1,8,0:0:0:0:
220,28,173077,1,0,3:0:0:0:
140,88,173213,1,0,1:0:0:0:
47,65,173349,1,0,3:0:0:0:
276,380,173486,6,0,P|298:340|317:271,1,75,0|0,1:0|0:0,0:0:0:0:
282,91,173622,2,0,P|282:136|263:206,1,75,8|0,1:0|1:0,0:0:0:0:
381,263,173758,2,0,P|341:240|272:221,1,75,0|0,1:0|0:0,0:0:0:0:
149,312,173894,2,0,P|194:311|264:330,1,75,0|0,1:0|0:0,0:0:0:0:
444,188,174031,1,8,1:0:0:0:
444,188,174168,5,0,1:0:0:0:
68,128,174304,1,0,1:0:0:0:
68,128,174441,1,0,1:0:0:0:
444,280,174577,5,4,1:0:0:0:
446,316,174645,1,2,0:0:0:0:
425,346,174713,1,2,0:0:0:0:
389,355,174781,1,2,0:0:0:0:
356,340,174849,1,8,0:0:0:0:
300,368,174986,5,2,0:0:0:0:
312,192,175122,1,8,0:0:0:0:
348,352,175259,1,2,0:0:0:0:
236,300,175395,5,8,0:0:0:0:
199,296,175463,1,2,0:0:0:0:
162,292,175531,1,2,0:0:0:0:
125,288,175599,1,2,0:0:0:0:
87,284,175667,1,8,0:0:0:0:
96,360,175804,5,2,0:0:0:0:
80,184,175940,1,8,0:0:0:0:
32,328,176077,1,2,0:0:0:0:
164,212,176213,5,8,0:0:0:0:
0,200,176349,1,2,0:0:0:0:
172,120,176486,1,8,0:0:0:0:
0,200,176622,1,2,0:0:0:0:
264,172,176759,5,8,0:0:0:0:
277,206,176827,1,2,0:0:0:0:
307,227,176895,1,2,0:0:0:0:
345,229,176963,1,2,0:0:0:0:
377,212,177031,1,8,0:0:0:0:
288,304,177168,5,2,0:0:0:0:
240,100,177304,1,8,0:0:0:0:
208,256,177440,1,2,0:0:0:0:
240,100,177577,5,8,0:0:0:0:
202,98,177645,1,2,0:0:0:0:
165,96,177713,1,2,0:0:0:0:
127,94,177781,1,2,0:0:0:0:
90,92,177849,1,8,0:0:0:0:
36,232,177986,5,2,0:0:0:0:
56,24,178122,1,8,0:0:0:0:
92,168,178259,1,2,0:0:0:0:
20,300,178395,5,8,0:0:0:0:
156,240,178531,1,2,0:0:0:0:
20,300,178668,1,8,0:0:0:0:
184,376,178804,1,2,0:0:0:0:
224,160,178940,5,0,1:0:0:0:
224,160,179009,1,2,0:0:0:0:
224,160,179076,2,0,P|260:144|288:112,1,75,2|2,0:0|0:0,0:0:0:0:
304,20,179213,5,0,1:0:0:0:
288,244,179349,1,2,0:0:0:0:
304,20,179486,1,0,1:0:0:0:
372,188,179622,1,2,0:0:0:0:
184,84,179759,5,0,1:0:0:0:
184,84,179827,1,2,0:0:0:0:
184,84,179895,2,0,P|144:100|124:124,1,75,2|2,0:0|0:0,0:0:0:0:
96,208,180031,5,0,1:0:0:0:
268,152,180168,1,2,0:0:0:0:
96,208,180304,1,0,1:0:0:0:
320,260,180440,1,2,0:0:0:0:
208,312,180577,5,0,1:0:0:0:
436,204,180713,1,2,0:0:0:0:
208,312,180850,1,0,1:0:0:0:
324,176,180985,1,2,0:0:0:0:
412,356,181122,5,0,1:0:0:0:
412,356,181190,1,2,0:0:0:0:
412,356,181258,2,0,L|416:276,1,75,2|2,0:0|0:0,0:0:0:0:
428,72,181395,5,0,1:0:0:0:
452,216,181531,1,2,0:0:0:0:
428,72,181668,1,0,1:0:0:0:
340,280,181804,1,2,0:0:0:0:
204,160,181940,5,0,1:0:0:0:
204,160,182009,1,2,0:0:0:0:
204,160,182076,2,0,L|296:152,1,75,2|2,0:0|0:0,0:0:0:0:
512,128,182213,5,0,1:0:0:0:
304,68,182349,1,2,0:0:0:0:
512,128,182486,1,0,1:0:0:0:
376,212,182622,1,2,0:0:0:0:
400,0,182759,5,0,1:0:0:0:
272,160,182895,1,2,0:0:0:0:
352,352,183031,1,0,1:0:0:0:
480,192,183168,1,2,0:0:0:0:
288,64,183304,6,0,L|208:80,1,75,12|0,1:0|0:0,0:0:0:0:
48,192,183440,1,0,1:0:0:0:
344,128,183576,6,0,L|264:136,1,75,8|0,1:0|0:0,0:0:0:0:
48,192,183713,1,0,1:0:0:0:
384,200,183849,6,0,L|304:200,1,75,8|0,1:0|0:0,0:0:0:0:
48,192,183986,1,0,1:0:0:0:
416,272,184122,6,0,L|336:264,1,75,8|0,1:0|0:0,0:0:0:0:
48,192,184259,1,0,1:0:0:0:
256,360,184395,6,0,L|336:336,1,75,8|0,1:0|0:0,0:0:0:0:
512,224,184531,1,0,1:0:0:0:
200,288,184668,6,0,L|282:278,1,75,8|0,1:0|0:0,0:0:0:0:
512,224,184804,1,0,1:0:0:0:
152,208,184940,6,0,L|235:212,1,75,8|0,1:0|0:0,0:0:0:0:
512,224,185076,1,0,1:0:0:0:
112,120,185213,6,0,L|193:139,1,75,8|0,1:0|0:0,0:0:0:0:
512,224,185349,1,0,1:0:0:0:
288,16,185486,6,0,P|304:48|304:96,1,75,8|0,1:0|0:0,0:0:0:0:
224,328,185622,1,0,1:0:0:0:
393,77,185759,6,0,P|385:112|354:149,1,75,8|0,1:0|0:0,0:0:0:0:
144,296,185895,1,0,1:0:0:0:
434,192,186031,6,0,P|405:214|358:222,1,75,8|0,1:0|0:0,0:0:0:0:
80,240,186167,1,0,1:0:0:0:
391,306,186304,6,0,P|355:304|314:280,1,75,8|0,1:0|0:0,0:0:0:0:
40,168,186440,1,0,1:0:0:0:
320,16,186576,6,0,L|328:96,1,75,8|0,1:0|0:0,0:0:0:0:
352,368,186713,1,0,1:0:0:0:
80,128,186849,6,0,L|160:120,1,75,8|0,1:0|0:0,0:0:0:0:
432,96,186985,1,0,1:0:0:0:
192,368,187122,6,0,L|184:288,1,75,8|0,1:0|0:0,0:0:0:0:
160,16,187258,1,0,1:0:0:0:
432,256,187394,6,0,L|352:264,1,75,8|0,1:0|0:0,0:0:0:0:
80,288,187530,1,0,1:0:0:0:
484,172,187668,5,4,1:2:0:0:
488,176,187940,5,0,1:0:0:0:
492,180,188213,5,0,1:0:0:0:
496,184,188486,5,0,1:0:0:0:
383,175,188554,1,0,1:0:0:0:
271,167,188622,1,0,1:0:0:0:
159,159,188690,1,0,1:0:0:0:
47,151,188758,5,0,1:0:0:0:
40,156,189031,5,0,1:0:0:0:
36,160,189304,5,0,1:0:0:0:
32,164,189577,5,0,1:0:0:0:
145,155,189645,1,0,1:0:0:0:
257,147,189713,1,0,1:0:0:0:
369,139,189781,1,0,1:0:0:0:
481,131,189849,6,0,P|448:120|400:124,3,75,0|0|0|0,1:0|1:0|1:0|1:0,1:0:0:0:
344,328,190122,2,0,P|377:339|425:335,3,75,0|0|0|0,1:0|1:0|1:0|1:0,1:0:0:0:
356,232,190395,6,0,L|272:240,1,75,0|0,1:0|1:0,1:0:0:0:
224,352,190531,2,0,L|140:360,1,75,0|0,1:0|1:0,1:0:0:0:
336,256,190668,6,0,L|252:264,1,75,0|0,1:0|1:0,1:0:0:0:
204,376,190804,2,0,L|120:384,1,75,0|0,1:0|1:0,1:0:0:0:
24,236,190940,5,0,1:0:0:0:
96,260,191008,1,0,1:0:0:0:
152,208,191077,1,0,1:0:0:0:
224,228,191145,1,0,1:0:0:0:
273,166,191213,5,0,1:0:0:0:
346,198,191281,1,0,1:0:0:0:
398,137,191349,1,0,1:0:0:0:
471,169,191418,1,0,1:0:0:0:
512,104,191485,6,2,P|512:152|484:196,6,75,2|0|2|2|2|2|0,0:0|0:0|0:0|0:0|0:0|0:0|0:0,0:0:0:0:
376,344,192031,5,4,1:0:0:0:
151,344,192168,1,0,1:0:0:0:
376,344,192304,2,2,L|152:344,1,225,8|0,1:0|2:0,1:0:0:0:
151,344,192577,2,2,B|259:355|259:355|376:344,1,225,0|0,1:0|2:0,1:0:0:0:
374,344,192849,2,2,B|320:356|320:356|216:356|216:356|151:345,1,225,8|0,1:0|2:0,1:0:0:0:
16,216,193122,6,2,B|16:160|16:160|24:152|24:152|76:152|76:152|84:160|84:160|84:272,1,225,0|0,1:0|2:0,1:0:0:0:
152,272,193395,2,2,L|152:44,1,225,8|0,1:0|2:0,1:0:0:0:
228,20,193668,2,2,B|312:20|312:20|324:28|324:28|324:68|324:68|316:76|316:76|256:136,1,225,0|0,1:0|2:0,1:0:0:0:
328,168,193940,2,2,B|372:120|372:120|380:112|380:112|420:112|420:112|428:120|428:120|428:164|428:164|436:176|436:176|484:176,1,225,8|0,1:0|2:0,1:0:0:0:
504,244,194213,6,2,B|444:244|444:244|432:252|432:252|392:284|392:284|380:292|380:292|284:292,1,225,0|0,1:0|2:0,1:0:0:0:
248,352,194486,2,2,B|248:200|248:200|240:188|240:188|172:188,1,225,8|0,1:0|2:0,1:0:0:0:
92,256,194758,2,2,B|168:256|168:256|180:268|180:268|180:308|180:308|168:320|168:320|72:320,1,225,0|0,1:0|2:0,1:0:0:0:
16,352,195031,2,2,B|16:200|16:200|24:188|24:188|92:188,1,225,8|0,1:0|2:0,1:0:0:0:
236,108,195304,6,2,B|168:108|168:108|156:120|156:120|100:120|100:120|92:108|92:108|16:108,1,225,0|0,1:0|2:0,1:0:0:0:
24,32,195577,2,2,B|92:32|92:32|104:20|104:20|160:20|160:20|168:32|168:32|244:32,1,225,8|0,1:0|2:0,1:0:0:0:
352,72,195849,2,2,B|456:72|456:72|468:80|468:80|468:128|468:128|456:136|456:136|380:136,1,225,0|0,1:0|2:0,1:0:0:0:
352,176,196122,2,2,B|307:176|307:176|295:184|295:184|295:232|295:232|307:240|307:240|411:240,1,225,8|0,1:0|2:0,1:0:0:0:
500,240,196395,5,0,1:0:0:0:
500,240,196463,1,0,1:0:0:0:
348,360,196599,1,0,1:0:0:0:
348,360,196667,2,2,L|112:360,1,225,8|0,1:0|2:0,1:0:0:0:
24,360,196940,2,2,B|24:284|24:284|40:268|40:268|72:268|72:268|88:252|88:252|88:164,1,225,0|0,1:0|2:0,1:0:0:0:
16,156,197213,2,2,B|16:120|16:120|24:112|24:112|152:112|152:112|160:120|160:120|160:172,1,225,8|0,1:0|2:0,1:0:0:0:
200,24,197486,6,0,B|200:60|200:60|208:68|208:68|336:68|336:68|344:60|344:60|344:8,1,225,2|0,1:0|2:0,1:0:0:0:
432,60,197758,2,2,B|476:60|476:60|484:68|484:68|484:120|484:120|476:128|476:128|440:128|440:128|432:136|432:136|432:200,1,225,8|0,1:0|2:0,1:0:0:0:
508,244,198031,2,2,B|496:236|496:236|360:236|360:236|348:228|348:228|348:208|348:208|340:196|340:196|304:196,1,225,0|0,1:0|2:0,1:0:0:0:
216,196,198304,2,0,B|156:196|156:196|144:188|144:188|104:156|104:156|92:148|92:148|-4:148,1,225,10|0,1:0|2:0,1:0:0:0:
4,240,198576,6,0,B|52:240|52:240|60:248|60:248|120:320|120:320|108:332|108:332|48:332,1,225,2|0,1:0|2:0,1:0:0:0:
188,300,198849,2,2,B|216:336|216:336|228:348|228:348|296:348|296:348|308:336|308:336|308:252,1,225,8|0,1:0|2:0,1:0:0:0:
376,200,199122,2,2,B|404:200|404:200|416:208|416:208|416:336|416:336|428:348|428:348|476:348,1,225,0|0,1:0|2:0,1:0:0:0:
496,264,199395,2,0,B|496:156|496:156|484:144|484:144|484:44,1,225,10|0,1:0|2:0,1:0:0:0:
392,44,199668,6,2,B|340:44|340:44|328:56|328:56|328:88|328:88|316:100|316:100|284:100|284:100|272:112|272:112|272:184,1,225,0|0,1:0|2:0,1:0:0:0:
180,172,199940,1,8,1:0:0:0:
0,172,200077,1,2,0:1:0:0:
180,100,200213,1,2,1:0:0:0:
0,100,200350,1,0,0:1:0:0:
180,32,200486,1,10,1:0:0:0:
0,32,200623,1,2,0:1:0:0:
88,32,200758,6,0,L|88:256,1,225,4|0,1:2|2:0,1:0:0:0:
4,256,201031,2,2,B|160:256|160:256|172:268|172:268|172:344,1,225,8|0,1:0|2:0,1:0:0:0:
88,360,201304,2,2,B|244:360|244:360|256:348|256:348|256:272,1,225,0|0,1:0|2:0,1:0:0:0:
344,272,201577,2,2,B|384:272|384:272|396:284|396:284|328:364|328:364|340:376|340:376|396:376,1,225,8|0,1:0|2:0,1:0:0:0:
468,376,201849,6,0,B|496:376|496:376|504:368|504:368|504:312|504:312|496:304|496:304|476:304|476:304|468:296|468:296|468:240|468:240|476:232|476:232|504:232,1,225,2|0,1:0|2:0,1:0:0:0:
496,140,202122,2,2,B|412:140|412:140|400:152|400:152|388:140|388:140|344:140|344:140|332:128|332:128|272:128,1,225,8|0,1:0|2:0,1:0:0:0:
228,56,202395,2,2,B|360:56|360:56|372:68|372:68|456:68,1,225,0|0,1:0|2:0,1:0:0:0:
176,128,202668,2,0,B|112:128|112:128|104:120|104:120|104:44|104:44|96:36|96:36|24:36,1,225,10|0,1:0|2:0,1:0:0:0:
32,176,202940,6,2,B|32:344|32:344|44:356|44:356|84:356,1,225,0|0,1:0|2:0,1:0:0:0:
176,356,203213,2,2,B|176:188|176:188|188:176|188:176|228:176,1,225,8|0,1:0|2:0,1:0:0:0:
319,176,203486,2,2,B|328:176|328:176|336:184|336:184|336:264|336:264|324:272|324:272|324:356|324:356|332:368|332:368|344:368,1,225,0|0,1:0|2:0,1:0:0:0:
432,368,203758,2,0,B|444:368|444:368|452:356|452:356|452:272|452:272|440:264|440:264|440:184|440:184|448:176|448:176|457:176,1,225,10|0,1:0|2:0,1:0:0:0:
512,104,204031,6,0,L|288:104,1,225,2|0,1:0|2:0,1:0:0:0:
288,28,204304,2,2,B|364:28|364:28|372:36|372:36|424:36|424:36|432:28|432:28|520:28,1,225,8|0,1:0|2:0,1:0:0:0:
220,104,204577,2,2,B|145:104|145:104|137:96|137:96|85:96|85:96|77:104|77:104|1:104,1,225,0|0,1:0|2:0,1:0:0:0:
0,28,204850,2,2,L|225:28,1,225,8|0,1:0|2:0,1:0:0:0:
112,168,205122,6,0,L|112:332,2,150,4|0|0,1:2|3:0|3:0,0:0:0:0:
28,220,205531,2,0,L|28:384,2,150,0|0|0,1:0|3:0|3:0,0:0:0:0:
196,220,205940,2,0,B|240:220|240:220|252:232|252:232|252:336|252:336|264:348|264:348|320:348,1,225,0|0,1:0|3:0,0:0:0:0:
400,216,206213,6,0,L|400:52,2,150,0|0|0,1:0|3:0|3:0,0:0:0:0:
484,164,206622,2,0,L|484:0,2,150,0|0|0,1:0|3:0|3:0,0:0:0:0:
316,164,207031,2,0,B|272:164|272:164|260:152|260:152|260:48|260:48|248:36|248:36|192:36,1,225,0|0,1:0|2:0,0:0:0:0:
104,36,207304,5,0,1:0:0:0:
104,36,207440,2,0,B|48:36|48:36|32:48|32:48|32:124,1,150,0|0,3:0|3:0,0:0:0:0:
36,304,207713,1,0,1:0:0:0:
36,304,207849,2,0,B|92:304|92:304|108:292|108:292|108:216,1,150,0|0,3:0|3:0,0:0:0:0:
104,36,208122,2,0,B|48:36|48:36|32:48|32:48|32:124,1,150,0|0,1:0|3:0,0:0:0:0:
36,304,208394,6,0,B|92:304|92:304|108:292|108:292|108:216,1,150,0|2,1:0|0:0,0:0:0:0:
184,152,208599,1,2,0:0:0:0:
184,276,208668,2,0,B|184:350|184:350|200:362|200:362|256:362,1,150,2|0,0:0|1:0,0:0:0:0:
256,216,208872,1,2,0:0:0:0:
256,362,208940,2,0,B|312:362|312:362|328:350|328:350|328:276,1,150,2|2,0:0|0:0,0:0:0:0:
328,152,209145,1,2,0:0:0:0:
400,216,209213,2,0,B|400:290|400:290|416:302|416:302|472:302,1,150,0|2,1:0|0:0,0:0:0:0:
504,48,209485,6,0,B|400:80|400:80|224:40,1,225.000008583069,4|2,1:0|0:0,0:0:0:0:
8,336,209758,2,2,B|112:304|112:304|288:344,1,225.000008583069,8|2,1:0|0:0,1:0:0:0:
288,56,210031,1,0,1:0:0:0:
224,328,210168,1,2,0:0:0:0:
288,56,210304,1,8,1:0:0:0:
224,328,210441,1,0,3:0:0:0:
0,136,210576,6,0,L|144:136,2,112.500004291535,0|2|2,1:0|0:0|0:0,0:0:0:0:
512,248,210849,2,0,L|368:248,2,112.500004291535,8|2|0,1:0|0:0|0:0,0:0:0:0:
112,136,211122,1,0,1:0:0:0:
184,128,211190,1,0,3:0:0:0:
112,136,211258,1,0,3:0:0:0:
400,248,211395,1,8,1:0:0:0:
328,256,211463,1,2,0:0:0:0:
400,248,211531,1,0,3:0:0:0:
112,136,211668,6,0,B|136:80|136:80|96:8,1,112.500004291535,0|2,1:0|0:0,0:0:0:0:
48,88,211804,1,2,0:0:0:0:
400,248,211940,6,0,B|376:304|376:304|416:376,1,112.500004291535,8|2,1:0|0:0,0:0:0:0:
464,296,212076,1,2,0:0:0:0:
0,384,212213,2,0,L|328:328,1,225.000008583069,0|2,1:0|0:1,1:0:0:0:
290,37,212486,2,0,L|512:0,1,225.000008583069,8|0,1:0|3:0,1:0:0:0:
432,112,212758,6,0,P|400:240|504:368,1,300,0|0,1:0|0:0,1:0:0:0:
80,272,213031,2,2,P|112:144|8:16,1,300,8|0,1:0|3:0,1:0:0:0:
15,19,213304,1,0,1:0:0:0:
224,32,213440,1,2,0:0:0:0:
224,32,213508,1,2,0:0:0:0:
224,32,213577,1,8,1:0:0:0:
16,152,213713,1,2,0:0:0:0:
208,168,213849,6,0,B|192:232|192:232|208:288|208:288|152:360|24:328,1,300,0|2,1:0|0:0,0:0:0:0:
47,333,214258,1,0,1:0:0:0:
0,176,214395,2,0,B|16:112|16:112|0:56|0:56|56:-16|184:16,1,300,12|4,1:0|1:0,0:0:0:0:
352,72,214804,1,2,0:0:0:0:
256,48,214940,6,0,B|280:96|280:96|272:160,1,104.999996795654,0|2,0:0|0:0,0:0:0:0:
448,104,215213,2,0,B|424:56|424:56|432:-8,1,104.999996795654,4|0,1:0|0:0,0:0:0:0:
504,40,215486,2,0,P|430:79|385:192,1,209.999993591309,8|0,1:0|0:0,0:0:0:0:
312,72,215895,1,0,0:0:0:0:
288,224,216031,6,0,P|392:242|432:344,2,209.999993591309,4|2|8,1:0|0:0|1:0,0:0:0:0:
56,232,216849,1,4,1:0:0:0:
112,368,217122,6,0,P|120:328|120:272,1,75,2|0,0:0|0:0,0:0:0:0:
192,96,217395,2,0,P|193:133|201:170,1,75,4|0,1:0|0:0,0:0:0:0:
368,288,217667,2,0,P|360:328|360:384,1,75,8|0,1:0|0:0,0:0:0:0:
496,56,217940,2,0,P|504:96|504:152,1,75,2|0,0:0|0:0,0:0:0:0:
176,280,218213,6,0,B|144:296|144:296|96:288,2,75,4|2|2,1:0|0:0|0:0,0:0:0:0:
128,368,218486,2,2,P|141:294|130:219,1,150,8|0,1:0|0:0,1:0:0:0:
36,32,218758,2,0,B|144:29|75:79|205:61,1,150,0|2,1:0|0:0,0:0:0:0:
500,360,219031,2,0,B|391:362|460:312|330:330,1,150,8|0,1:0|3:0,0:0:0:0:
48,348,219304,5,0,1:0:0:0:
48,348,219372,1,0,0:0:0:0:
48,348,219440,1,2,0:0:0:0:
256,172,219577,2,0,P|280:128|260:56,1,75,8|0,1:0|0:0,0:0:0:0:
256,0,219713,1,0,3:0:0:0:
500,188,219849,2,0,P|476:232|496:304,1,75,0|0,1:0|0:0,0:0:0:0:
500,360,219985,1,2,0:0:0:0:
380,180,220122,1,8,1:0:0:0:
128,171,220258,2,0,L|166:175,1,37.5,2|0,3:2|2:0,0:0:0:0:
132,179,220327,2,0,L|170:183,1,37.5,2|0,3:2|2:0,0:0:0:0:
176,192,220395,6,0,P|184:236|164:304,2,75,0|0|2,1:0|0:0|0:0,0:0:0:0:
40,28,220667,2,2,P|108:72|264:0,1,225.000008583069,8|2,1:0|0:0,1:0:0:0:
484,212,220940,2,0,P|468:180|465:139,1,75,0|2,1:0|0:0,0:0:0:0:
292,348,221213,2,0,P|193:295|40:392,1,300,8|0,1:0|3:0,0:0:0:0:
348,272,221486,6,0,L|476:288,2,75,0|0|2,1:0|0:0|0:0,0:0:0:0:
68,40,221758,2,2,P|141:62|221:34,1,150,8|0,1:0|0:0,1:0:0:0:
396,104,222031,6,0,B|389:141|389:141|365:173|365:173|361:205|361:205|373:237|373:237|361:317,1,225,0|0,1:0|0:0,0:0:0:0:
292,380,222304,2,0,P|273:344|278:299,1,75,8|0,1:0|2:0,0:0:0:0:
272,128,222440,2,0,B|296:100|296:100|308:28,1,75,2|0,1:0|0:0,0:0:0:0:
152,180,222577,6,0,P|138:222|143:266,1,89.9999972534181,4|0,1:0|0:0,0:0:0:0:
72,336,222849,2,0,L|196:348,1,89.9999972534181
352,376,223122,2,0,P|425:353|457:244,1,179.999994506836,8|4,1:0|1:0,0:0:0:0:
384,184,223531,1,0,0:0:0:0:
240,212,223667,2,0,B|228:96|288:156|268:20,1,179.999994506836,0|4,0:0|1:0,0:0:0:0:
128,200,224077,1,0,0:0:0:0:
50,262,224213,2,0,P|78:345|160:376,1,179.999994506836,8|0,1:0|0:0,0:0:0:0:
256,300,224622,1,0,0:0:0:0:
64,56,224758,6,0,P|120:64|208:60,2,104.999996795654,4|2|0,1:0|0:0|0:0,0:0:0:0:
448,56,225168,2,0,P|392:64|304:60,2,104.999996795654,0|0|2,0:0|0:0|0:0,0:0:0:0:
256,28,225577,1,2,0:0:0:0:
256,104,225713,1,0,0:0:0:0:
344,312,225849,6,0,L|332:372,1,37.5,0|0,1:0|1:0,1:0:0:0:
440,324,225985,1,0,1:0:0:0:
440,324,226054,1,0,1:0:0:0:
440,324,226122,1,0,1:0:0:0:
168,312,226258,2,0,L|180:372,1,37.5,0|0,1:0|1:0,1:0:0:0:
72,324,226395,1,0,1:0:0:0:
72,324,226463,1,0,1:0:0:0:
72,324,226531,1,0,1:0:0:0:
256,312,226668,2,0,L|256:208,1,75,4|0,1:2|1:0,0:0:0:0:
48,64,226940,6,0,L|128:72,1,75,4|0,1:0|0:0,0:0:0:0:
456,104,227213,1,0,0:0:0:0:
472,96,227349,6,0,L|392:104,1,75,4|0,1:0|0:0,0:0:0:0:
48,144,227622,1,0,0:0:0:0:
32,136,227758,6,0,L|112:144,1,75,4|0,1:0|0:0,0:0:0:0:
472,184,228031,1,0,0:0:0:0:
488,176,228167,6,0,L|408:184,1,75,4|0,1:0|0:0,0:0:0:0:
16,216,228440,1,0,0:0:0:0:
0,208,228577,6,0,L|80:216,1,75,4|0,1:0|0:0,0:0:0:0:
504,256,228849,2,0,L|424:264,1,75,4|0,1:0|0:0,0:0:0:0:
32,32,229122,6,0,L|40:112,1,75,4|0,1:0|0:0,0:0:0:0:
64,368,229395,1,0,0:0:0:0:
80,384,229531,6,0,L|88:304,1,75,4|0,1:0|0:0,0:0:0:0:
112,64,229804,1,0,0:0:0:0:
128,48,229940,6,0,L|136:128,1,75,4|0,1:0|0:0,0:0:0:0:
160,344,230213,1,0,0:0:0:0:
176,360,230349,6,0,L|184:280,1,75,4|0,1:0|0:0,0:0:0:0:
208,88,230622,1,0,0:0:0:0:
248,384,230758,5,4,1:0:0:0:
40,208,230895,6,2,B|8:356|8:356|160:252|160:252|120:52|120:52|104:116,1,600,0|0,0:0|0:0,1:0:0:0:
456,240,231304,6,0,B|472:272|472:272|456:312,1,75,4|0,1:0|0:0,0:0:0:0:
0,228,231577,1,0,0:0:0:0:
496,168,231713,6,0,B|480:136|480:136|496:96,1,75,4|0,1:0|0:0,0:0:0:0:
0,228,231986,1,0,0:0:0:0:
458,376,232122,6,0,B|488:304|488:304|456:240,1,150,4|0,1:0|0:0,0:0:0:0:
12,216,232395,1,0,0:0:0:0:
493,31,232531,6,0,B|464:104|464:104|496:168,1,150,4|0,1:0|0:0,0:0:0:0:
12,216,232804,1,0,0:0:0:0:
512,288,232940,6,0,L|432:280,1,75,4|0,1:0|0:0,0:0:0:0:
0,96,233213,2,0,L|80:104,1,75,4|0,1:0|0:0,0:0:0:0:
480,24,233486,6,0,L|464:184,1,150,4|0,1:0|0:0,0:0:0:0:
448,368,233758,1,0,0:0:0:0:
32,24,233894,6,0,L|48:184,1,150,4|0,1:0|0:0,0:0:0:0:
64,368,234167,1,0,0:0:0:0:
512,96,234304,6,0,L|508:176,1,75,4|0,1:0|0:0,0:0:0:0:
504,360,234577,1,0,0:0:0:0:
0,96,234713,6,0,L|4:176,1,75,4|0,1:0|0:0,0:0:0:0:
8,360,234986,1,0,0:0:0:0:
512,240,235122,6,0,B|472:272|472:272|408:264,1,112.500004291535,0|0,1:0|2:0,0:0:0:0:
268,168,235258,1,0,1:0:0:0:
256,192,235327,2,0,B|216:160|216:160|152:168,1,112.500004291535,2|0,1:0|2:0,0:0:0:0:
12,284,235463,1,0,1:0:0:0:
0,260,235531,1,2,1:0:0:0:
40,112,235667,5,4,1:0:0:0:
54,127,235736,1,0,1:0:0:0:
61,146,235804,1,0,1:0:0:0:
61,167,235872,1,0,1:0:0:0:
52,186,235940,1,0,1:0:0:0:
52,96,236077,5,4,1:0:0:0:
71,116,236145,1,0,1:0:0:0:
81,142,236213,1,0,1:0:0:0:
80,170,236281,1,0,1:0:0:0:
68,195,236349,1,0,1:0:0:0:
72,68,236486,5,4,1:0:0:0:
100,98,236554,1,0,1:0:0:0:
115,137,236622,1,0,1:0:0:0:
114,179,236690,1,0,1:0:0:0:
96,216,236758,1,0,1:0:0:0:
104,36,236895,5,4,1:0:0:0:
142,76,236963,1,0,1:0:0:0:
162,128,237031,1,0,1:0:0:0:
160,184,237099,1,0,1:0:0:0:
136,234,237167,1,0,1:0:0:0:
140,8,237304,5,4,1:0:0:0:
187,58,237372,1,0,1:0:0:0:
212,123,237440,1,0,1:0:0:0:
210,193,237508,1,0,1:0:0:0:
180,255,237577,5,4,1:0:0:0:
250,257,237645,1,0,1:0:0:0:
315,232,237713,1,0,1:0:0:0:
365,185,237781,1,0,1:0:0:0:
392,120,237849,5,4,1:0:0:0:
390,183,237917,1,0,1:0:0:0:
388,246,237985,1,0,1:0:0:0:
386,309,238053,1,0,1:0:0:0:
384,373,238121,1,0,1:0:0:0:
164,320,238258,5,4,1:0:0:0:
227,322,238326,1,0,1:0:0:0:
290,324,238394,1,0,1:0:0:0:
353,326,238462,1,0,1:0:0:0:
417,328,238530,1,0,1:0:0:0:
416,60,238668,5,4,1:0:0:0:
413,135,238736,1,0,1:0:0:0:
411,211,238804,1,0,1:0:0:0:
408,286,238872,1,0,1:0:0:0:
406,363,238940,1,0,1:0:0:0:
142,300,239077,5,4,1:0:0:0:
217,302,239145,1,0,1:0:0:0:
293,304,239213,1,0,1:0:0:0:
369,307,239281,1,0,1:0:0:0:
446,309,239349,1,0,1:0:0:0:
456,36,239486,5,4,1:0:0:0:
424,140,239622,2,2,B|408:196|408:196|332:196|332:196|304:124|304:124|212:124,1,300,0|0,0:0|0:0,1:0:0:0:
40,160,240031,5,4,1:0:0:0:
42,184,240099,1,0,1:0:0:0:
44,209,240167,1,0,1:0:0:0:
47,234,240235,1,0,1:0:0:0:
120,216,240304,5,0,1:0:0:0:
122,188,240372,1,0,1:0:0:0:
125,161,240440,1,4,1:0:0:0:
128,133,240508,1,0,1:0:0:0:
200,104,240577,5,0,1:0:0:0:
216,137,240645,1,0,1:0:0:0:
223,174,240713,1,0,1:0:0:0:
222,211,240781,1,0,1:0:0:0:
288,264,240849,5,4,1:0:0:0:
307,223,240917,1,0,1:0:0:0:
316,179,240985,1,0,1:0:0:0:
314,134,241053,1,0,1:0:0:0:
392,72,241122,5,0,1:0:0:0:
392,72,241190,1,0,1:0:0:0:
480,168,241258,1,4,1:0:0:0:
480,168,241327,1,0,1:0:0:0:
392,272,241395,1,0,1:0:0:0:
392,272,241463,1,0,1:0:0:0:
304,168,241531,1,0,1:0:0:0:
304,168,241599,1,0,1:0:0:0:
432,128,241668,5,4,1:0:0:0:
424,208,241736,1,0,1:0:0:0:
344,200,241804,1,0,1:0:0:0:
352,120,241872,1,0,1:0:0:0:
440,136,241940,5,4,1:0:0:0:
424,216,242008,1,0,1:0:0:0:
344,200,242077,1,0,1:0:0:0:
360,120,242145,1,0,1:0:0:0:
440,152,242213,6,0,P|520:168|520:280,1,200,4|0,1:0|0:0,0:0:0:0:
472,352,242486,5,0,3:0:0:0:
392,376,242577,1,2,3:2:0:0:
352,304,242668,1,2,3:2:0:0:
272,288,242758,5,0,3:0:0:0:
192,264,242849,1,2,3:2:0:0:
152,336,242940,1,2,3:2:0:0:
80,368,243031,5,0,3:0:0:0:
64,288,243122,1,2,3:2:0:0:
48,208,243213,1,2,3:2:0:0:
0,128,243304,5,8,1:0:0:0:
8,96,243372,1,0,1:0:0:0:
16,64,243440,1,0,1:0:0:0:
512,256,243577,5,8,1:0:0:0:
504,288,243645,1,0,1:0:0:0:
496,320,243713,1,0,1:0:0:0:
24,256,243849,6,0,B|-80:240|-80:240|-48:368,1,225.000008583069,0|0,1:0|1:0,1:0:0:0:
488,64,244122,2,0,B|584:40|584:40|560:176,1,225.000008583069,4|0,1:0|0:0,0:0:0:0:
311,0,244395,6,0,B|210:-39|161:-30|69:63|74:165|105:282|120:364|64:415|64:415|131:384|166:378|166:378|217:384|261:416|261:416|299:384|336:379|336:379|376:379|452:420|452:420|396:354|401:257|463:52|407:-44|192:-21,1,1500,4|0,1:0|1:0,1:0:0:0:
192,136,244667,6,2,P|196:138|189:131,1,37.5,2|2,1:0|1:0,1:0:0:0:
324,152,244804,6,0,P|307:152|334:145,1,150,0|0,2:0|2:0,2:0:0:0:
180,240,244940,6,2,B|210:252|282:248|326:240|326:240|246:272|170:236,1,300,2|2,1:0|1:0,1:0:0:0:
240,268,245008,6,0,B|253:414|273:306|277:226,1,150,0|0,2:0|2:0,2:0:0:0:
421,167,245076,2,0,B|480:164|508:140|516:100|516:100|514:42|542:39|551:69|544:105|533:172|413:171,1,375,0|0,2:0|2:0,2:0:0:0:
96,168,245144,6,0,B|32:164|4:140|-4:100|-4:100|-2:42|-30:39|-39:69|-32:105|-21:172|136:174,1,375,0|0,2:0|2:0,2:0:0:0:
256,92,245213,1,2,1:0:0:0:
256,92,245349,1,2,1:0:0:0:
200,96,245486,6,0,P|208:60|204:4,1,75,4|0,1:0|2:0,2:0:0:0:
312,96,245622,2,0,P|304:132|308:188,1,75,2|0,1:1|1:0,2:0:0:0:
184,92,245758,2,0,P|192:56|188:0,1,75,2|0,1:0|2:0,2:0:0:0:
328,92,245895,2,0,P|320:128|324:184,1,75,2|0,1:0|2:0,2:0:0:0:
168,88,246031,6,0,P|176:52|172:-4,1,75,0|0,1:0|1:0,2:0:0:0:
344,88,246168,2,0,P|336:124|340:180,1,75,2|0,1:0|2:0,2:0:0:0:
12,60,246304,2,0,L|108:52,1,75,2|0,1:0|2:0,0:0:0:0:
500,60,246440,2,0,L|404:68,1,75,2|0,1:1|2:0,0:0:0:0:
328,272,246577,6,0,P|312:296|328:388,1,75,0|0,1:0|2:0,0:0:0:0:
384,324,246713,2,0,P|408:340|500:324,1,75,2|0,1:1|1:0,0:0:0:0:
440,268,246849,6,0,P|456:244|440:152,1,75,0|0,1:0|2:0,0:0:0:0:
384,216,246985,2,0,P|360:200|268:216,1,75,2|0,1:0|2:0,0:0:0:0:
148,252,247122,2,0,P|110:255|78:274,1,75,2|0,1:0|1:0,0:0:0:0:
196,84,247258,2,0,P|192:46|173:14,1,75,2|0,1:0|2:0,0:0:0:0:
364,132,247395,2,0,P|401:128|433:109,1,75,2|0,1:0|2:0,0:0:0:0:
316,300,247531,2,0,P|319:337|338:369,1,75,2|0,1:0|2:0,0:0:0:0:
230,211,247668,5,0,1:0:0:0:
264,161,247736,1,2,1:1:0:0:
266,221,247804,1,2,1:1:0:0:
229,174,247872,1,2,1:1:0:0:
287,190,247940,1,2,1:0:0:0:
68,164,248077,5,2,1:0:0:0:
72,28,248213,1,2,1:0:0:0:
128,96,248349,1,2,1:0:0:0:
432,8,248486,2,2,P|376:114|440:230,1,225,0|0,1:0|2:0,1:0:0:0:
476,272,248758,6,0,P|487:322|419:255,1,225,4|0,1:0|2:0,1:0:0:0:
360,88,249031,2,2,B|432:4|432:4|460:144,1,225,0|0,1:0|2:0,1:0:0:0:
288,304,249304,2,2,B|223:282|179:331|179:331|135:381|44:340,1,225,0|0,1:0|2:0,1:0:0:0:
8,288,249577,2,0,P|-4:244|20:184,1,75,2|0,1:0|0:0,0:0:0:0:
80,244,249713,1,0,1:0:0:0:
220,96,249848,6,2,P|109:31|18:85,1,225,0|0,1:0|1:0,1:0:0:0:
152,200,250121,2,0,P|164:244|140:304,1,75,0|0,1:0|2:0,0:0:0:0:
256,368,250258,2,2,P|336:320|436:352,1,150,2|2,1:0|1:0,1:0:0:0:
500,348,250463,2,0,L|440:356,1,37.5,0|0,0:0|2:0,0:0:0:0:
384,336,250531,1,0,0:0:0:0:
512,32,250668,2,0,P|432:80|332:48,1,150,2|0,1:0|0:0,0:0:0:0:
128,132,250940,6,2,B|140:224|140:224|120:260|120:260|132:356,1,225,0|0,1:0|1:0,1:0:0:0:
136,368,251213,1,2,1:0:0:0:
36,136,251349,2,0,P|41:96|92:56,1,75,0|0,1:0|2:0,0:0:0:0:
228,80,251486,2,2,B|320:92|320:92|356:72|356:72|446:83,1,225,0|0,1:0|0:0,1:0:0:0:
464,88,251758,1,2,1:0:0:0:
476,248,251895,2,0,P|470:287|419:327,1,75,2|0,1:0|2:0,0:0:0:0:
181,351,252031,2,0,L|256:344,1,75,0|0,1:0|0:0,0:0:0:0:
380,368,252166,1,2,1:0:0:0:
80,384,252304,2,2,B|58:319|107:275|107:275|157:231|116:140,1,225,0|0,1:0|2:0,1:0:0:0:
0,60,252577,6,0,P|44:68|112:60,1,75,0|0,1:0|2:0,0:0:0:0:
129,178,252713,2,0,P|173:170|241:178,1,75,2|0,0:0|2:0,0:0:0:0:
308,72,252849,2,0,P|352:80|420:72,1,75,2|0,0:0|2:0,0:0:0:0:
437,190,252985,2,0,P|481:182|549:190,1,75,2|0,0:0|2:0,0:0:0:0:
368,312,253122,6,0,B|348:316|320:296|332:264|372:288|372:288|416:332|484:304|468:248,1,225,4|0,1:0|0:0,0:0:0:0:
511,182,253395,6,2,B|472:180|436:188|436:188|364:184|348:96|380:40|492:40|496:124,1,337.500012874604,0|0,1:0|2:0,1:0:0:0:
360,196,253668,2,2,B|399:198|435:190|435:190|507:194|523:282|491:338|379:338|375:254,1,337.500012874604,0|0,1:0|2:0,1:0:0:0:
220,352,253940,6,0,L|220:276,1,75,2|0,1:3|2:0,0:0:0:0:
28,328,254077,2,0,L|28:248,1,75,2|0,1:3|2:0,0:0:0:0:
124,372,254213,1,0,1:0:0:0:
124,372,254349,1,2,1:3:0:0:
292,320,254486,6,0,L|292:245,1,75,0|0,1:0|2:0,0:0:0:0:
484,344,254623,2,0,L|484:269,1,75,2|0,1:3|2:0,0:0:0:0:
392,224,254758,1,0,1:0:0:0:
392,224,254895,1,2,1:3:0:0:
220,200,255031,6,0,L|220:124,1,75,0|0,1:0|2:0,0:0:0:0:
448,156,255168,2,0,L|448:76,1,75,2|0,1:3|2:0,0:0:0:0:
116,204,255304,1,0,1:0:0:0:
116,204,255440,1,2,1:3:0:0:
28,148,255577,6,0,L|28:73,1,75,2|0,1:3|2:0,0:0:0:0:
304,172,255714,2,0,L|304:97,1,75,2|0,1:3|2:0,0:0:0:0:
220,40,255849,1,0,1:0:0:0:
220,40,255986,1,2,1:3:0:0:
120,120,256122,6,0,L|120:45,1,75,2|0,1:3|2:0,0:0:0:0:
380,88,256259,2,0,L|380:13,1,75,2|0,1:3|2:0,0:0:0:0:
24,8,256395,5,0,1:0:0:0:
24,84,256463,1,2,1:3:0:0:
24,160,256531,1,2,1:3:0:0:
24,236,256599,1,2,1:3:0:0:
24,312,256666,2,0,L|24:220,1,75,0|0,1:0|2:0,0:0:0:0:
228,280,256804,2,0,L|228:188,1,75,2|0,1:3|2:0,0:0:0:0:
452,320,256940,2,0,L|452:228,1,75,0|0,1:0|2:0,0:0:0:0:
236,360,257076,2,0,L|236:268,1,75,2|0,1:3|2:0,0:0:0:0:
220,200,257213,2,2,B|220:68|220:68|212:52|212:52|212:16|212:16|216:8|216:8|232:8|232:32,1,225,4|0,1:0|0:0,1:0:0:0:
304,32,257486,6,0,L|468:32,1,150,4|0,1:0|0:0,1:0:0:0:
454,32,257895,1,8,1:0:0:0:
200,140,258031,5,0,1:0:0:0:
144,68,258168,2,2,P|144:48|152:52,1,37.5
76,140,258304,1,8,1:0:0:0:
20,68,258441,2,2,P|20:48|28:52,1,37.5
312,208,258577,5,4,1:0:0:0:
368,68,258714,2,2,P|368:48|360:52,1,37.5
436,208,258850,1,0,0:0:0:0:
492,68,258985,2,2,P|492:48|484:52,1,37.5,8|2,1:0|0:0,0:0:0:0:
200,320,259122,5,0,1:0:0:0:
132,112,259258,1,2,0:0:0:0:
132,112,259327,1,2,0:0:0:0:
132,112,259395,1,8,1:0:0:0:
4,112,259531,2,0,P|4:92|12:96,1,37.5,2|0,0:0|0:0,0:0:0:0:
76,320,259668,6,2,B|84:296|168:300|132:376|132:376|104:328|160:256|264:252|248:364,1,337.500012874604,4|0,1:0|2:0,1:0:0:0:
408,296,259939,2,2,B|400:320|316:316|352:240|352:240|380:288|324:360|220:364|236:252,1,337.500012874604,0|0,1:0|2:0,1:0:0:0:
172,224,260213,5,0,1:0:0:0:
412,56,260349,2,2,P|451:58|426:69,1,112.500004291535
340,224,260485,5,8,1:0:0:0:
80,48,260622,1,2,0:0:0:0:
80,48,260690,1,2,0:0:0:0:
12,256,260757,5,4,1:0:0:0:
100,56,260895,2,0,P|60:58|85:69,1,112.500004291535,2|2,0:0|0:0,0:0:0:0:
500,256,261031,5,0,0:0:0:0:
412,56,261168,2,2,P|451:58|426:69,1,112.500004291535,8|2,1:0|0:0,0:0:0:0:
256,368,261304,6,2,B|248:344|248:344|244:356|244:356|236:328|236:328|236:344|236:344|228:320|228:320|224:336|224:336|220:308|220:308|216:328|216:328|208:296|208:296|240:308|280:296|288:248|288:248|284:268|284:268|296:240|296:240|292:264|292:264|304:232|304:232|300:256|300:256|312:224|312:224|308:244|308:244|320:216|320:216|292:224|256:232|220:212|212:168|212:168|212:192|212:192|204:164|204:164|204:184|204:184|196:156|196:156|196:176|196:176|188:152|188:152|184:168|184:168|180:144|180:144|228:160|296:144|336:88|296:24,1,1050,4|0,1:0|0:0,1:0:0:0:
80,48,261849,5,4,1:0:0:0:
88,120,261916,1,2,3:2:0:0:
96,192,261985,1,0,1:0:0:0:
80,352,262122,5,8,1:0:0:0:
76,316,262189,1,2,3:2:0:0:
72,280,262257,1,2,3:2:0:0:
216,128,262394,6,0,B|360:136|360:136|348:144|348:144|492:152,1,300,6|0,1:0|0:0,0:0:0:0:
448,304,262666,6,0,P|416:320|368:320,1,75,8|2,1:0|0:0,0:0:0:0:
256,288,262804,2,0,P|232:264|216:224,1,75,2|2,0:0|0:0,0:0:0:0:
512,83,262940,6,0,P|506:118|479:157,1,75,0|2,1:0|0:0,0:0:0:0:
388,231,263075,2,0,P|354:236|312:227,1,75,2|2,0:0|0:0,0:0:0:0:
512,120,263212,6,0,P|500:153|466:187,1,75,8|2,1:0|0:0,0:0:0:0:
364,244,263350,2,0,P|330:243|290:227,1,75,2|2,0:0|0:0,0:0:0:0:
232,336,263485,6,0,P|196:343|150:330,1,75,0|2,1:0|0:0,0:0:0:0:
50,270,263621,2,0,P|33:240|27:197,1,75,2|2,0:0|0:0,0:0:0:0:
197,348,263758,6,0,P|161:348|117:328,1,75,8|2,1:0|0:0,0:0:0:0:
30,251,263895,2,0,P|18:219|20:176,1,75,2|2,0:0|0:0,0:0:0:0:
112,24,264031,6,0,P|94:55|91:103,1,75,0|2,1:0|0:0,0:0:0:0:
118,216,264168,2,0,P|140:241|179:259,1,75,2|2,0:0|0:0,0:0:0:0:
112,120,264304,6,0,P|117:155|144:194,1,75,8|2,1:0|0:0,0:0:0:0:
234,267,264441,2,0,P|267:272|309:263,1,75,2|2,0:0|0:0,0:0:0:0:
432,120,264576,6,0,P|449:151|452:199,1,75,0|2,1:0|0:0,0:0:0:0:
426,312,264713,2,0,P|403:337|364:355,1,75,2|2,0:0|0:0,0:0:0:0:
432,216,264849,6,0,P|426:251|399:290,1,75,8|2,1:0|0:0,0:0:0:0:
310,363,264986,2,0,P|276:368|234:359,1,75,2|2,0:0|0:0,0:0:0:0:
40,304,265121,6,0,P|73:315|121:310,1,75,0|2,1:0|0:0,0:0:0:0:
227,265,265259,2,0,P|247:238|258:196,1,75,2|2,0:0|0:0,0:0:0:0:
304,40,265394,6,0,P|303:75|323:119,1,75,8|2,1:0|0:0,0:0:0:0:
398,205,265530,2,0,P|429:216|472:214,1,75,2|2,0:0|0:0,0:0:0:0:
512,320,265667,6,0,P|481:338|433:341,1,75,0|2,1:0|0:0,0:0:0:0:
320,317,265804,2,0,P|294:294|275:255,1,75,2|2,0:0|0:0,0:0:0:0:
208,112,265939,6,0,P|218:146|211:193,1,75,8|2,1:0|0:0,0:0:0:0:
163,296,266075,2,0,P|135:315|93:325,1,75,0|2,1:0|0:0,0:0:0:0:
16,248,266213,5,4,1:0:0:0:
8,184,266303,1,2,3:2:0:0:
0,120,266394,1,2,3:2:0:0:
96,40,266485,5,0,1:0:0:0:
88,112,266575,1,2,3:2:0:0:
80,184,266666,1,2,3:2:0:0:
80,184,266758,5,6,1:0:0:0:
268,200,267031,5,8,1:0:0:0:
316,138,267099,1,2,0:0:0:0:
330,151,267167,1,2,0:0:0:0:
340,168,267235,1,2,0:0:0:0:
268,200,267304,5,0,1:0:0:0:
345,187,267372,1,0,0:0:0:0:
346,206,267441,1,0,0:0:0:0:
342,225,267509,1,0,0:0:0:0:
268,200,267575,5,8,1:0:0:0:
333,242,267644,1,0,0:0:0:0:
320,256,267712,2,0,B|377:235|377:235|465:287,1,150,2|0,1:3|0:0,0:0:0:0:
244,304,267849,5,0,1:0:0:0:
166,291,267917,1,0,0:0:0:0:
165,310,267986,1,0,0:0:0:0:
169,329,268054,1,0,0:0:0:0:
244,304,268121,5,8,1:0:0:0:
178,346,268189,1,0,0:0:0:0:
191,360,268257,2,0,B|133:339|133:339|45:391,1,150,2|0,1:3|0:0,0:0:0:0:
384,320,268394,6,0,L|416:0,1,300,4|0,1:2|0:0,0:0:0:0:
384,320,268598,6,0,L|480:64,1,262.500002503395,4|0,1:2|0:0,0:0:0:0:
384,320,268804,6,0,L|528:136,1,225.000008583069,4|0,1:2|0:0,0:0:0:0:
384,320,269008,6,0,L|552:224,1,187.5,4|0,1:0|0:0,0:0:0:0:
366,253,269213,6,0,P|338:372|452:327,1,300,4|0,1:0|0:0,1:0:0:0:
152,156,269485,6,0,L|-84:148,1,225.000008583069,4|0,1:2|0:0,0:0:0:0:
152,156,269690,6,0,L|-32:216,1,187.5,4|0,1:2|0:0,0:0:0:0:
152,156,269894,6,0,L|40:264,1,150,4|0,1:2|0:0,0:0:0:0:
152,156,270099,6,0,L|132:272,1,112.500004291535,4|0,1:0|0:0,0:0:0:0:
231,170,270304,6,0,P|170:233|113:225,1,150,4|2,1:0|0:0,0:0:0:0:
72,138,270440,2,0,P|133:75|190:83,1,150,2|2,0:0|0:0,0:0:0:0:
336,244,270576,6,0,P|236:347|143:333,1,209.999993591309,12|0,1:0|0:0,0:0:0:0:
24,376,270986,1,0,1:0:0:0:
92,312,271122,2,0,B|88:280|88:280|100:252|100:252|92:192,1,104.999996795654,8|0,1:0|2:0,0:0:0:0:
12,104,271394,2,0,P|111:0|204:14,1,209.999993591309,8|0,1:0|0:0,0:0:0:0:
288,56,271804,1,0,1:0:0:0:
412,28,271940,2,0,P|436:84|419:155,1,104.999996795654,8|0,1:0|2:0,0:0:0:0:
368,364,272213,2,0,P|411:321|483:311,1,104.999996795654,0|0,1:0|2:0,0:0:0:0:
468,304,272485,2,0,L|340:288,1,104.999996795654,8|0,1:0|2:0,0:0:0:0:
52,320,272758,6,0,L|200:334,1,150,8|0,1:0|0:0,0:0:0:0:
276,384,273167,1,0,1:0:0:0:
52,320,273304,2,0,P|40:300|44:224,1,75,8|0,1:0|2:0,0:0:0:0:
12,168,273576,2,0,P|49:168|82:185,1,75,8|0,1:0|2:0,0:0:0:0:
116,262,273849,1,0,0:0:0:0:
196,244,273985,2,0,P|196:281|179:314,1,75,0|8,1:0|1:0,0:0:0:0:
256,352,274394,6,0,B|312:324|364:356|364:356|432:396|504:344,1,225,0|0,1:0|2:0,0:0:0:0:
480,112,274666,2,0,B|464:36|464:36|368:36,1,150,8|0,1:0|2:0,0:0:0:0:
24,44,274940,6,0,L|98:34,1,75,4|0,1:2|1:0,1:0:0:0:
118,50,275076,2,0,L|44:60,1,75,0|0,1:0|1:0,1:0:0:0:
200,64,275213,1,0,1:0:0:0:
204,137,275281,1,0,1:0:0:0:
168,202,275349,1,0,1:0:0:0:
103,238,275417,1,0,1:0:0:0:
29,233,275485,6,0,L|38:307,1,75,0|0,1:0|1:0,1:0:0:0:
204,384,275621,2,0,L|194:309,1,75,0|0,1:0|1:0,1:0:0:0:
312,216,275758,2,0,L|321:290,1,75,0|0,1:0|1:0,1:0:0:0:
487,367,275894,2,0,L|477:292,1,75,0|0,1:0|1:0,1:0:0:0:
392,212,276031,6,0,P|432:159|483:168,3,75,0|0|0|0,1:0|1:0|1:0|1:0,1:0:0:0:
312,216,276304,1,0,1:0:0:0:
315,160,276372,1,0,1:0:0:0:
345,113,276440,1,0,1:0:0:0:
393,86,276508,1,0,1:0:0:0:
449,85,276576,5,0,1:0:0:0:
449,85,276644,1,0,1:0:0:0:
449,85,276713,2,0,L|324:60,1,75,0|0,1:0|1:0,1:0:0:0:
152,116,276849,5,0,1:0:0:0:
152,116,276917,1,0,1:0:0:0:
152,116,276986,2,0,L|277:141,1,75,0|0,1:0|1:0,1:0:0:0:
500,188,277122,5,0,1:0:0:0:
450,178,277190,1,0,1:0:0:0:
402,193,277258,1,0,1:0:0:0:
368,227,277326,1,0,1:0:0:0:
353,274,277395,1,0,1:0:0:0:
338,321,277463,1,0,1:0:0:0:
304,355,277531,1,0,1:0:0:0:
256,370,277599,1,0,1:0:0:0:
206,361,277667,1,0,1:0:0:0:
168,328,277735,1,0,1:0:0:0:
118,315,277803,1,0,1:0:0:0:
69,327,277871,1,0,1:0:0:0:
32,358,277940,6,0,P|44:304|36:232,1,75,0|0,1:0|1:0,1:0:0:0:
0,172,278076,2,0,P|40:209|107:238,1,75,0|0,1:0|1:0,1:0:0:0:
106,265,278213,6,0,P|139:249|244:320,1,150,4|0,1:0|0:0,0:0:0:0:
234,292,278622,1,2,0:0:0:0:
316,316,278758,2,0,P|332:336|312:408,1,75,0|2,0:0|0:0,0:0:0:0:
464,120,279031,2,0,P|448:140|468:212,1,75,0|2,0:0|0:0,0:0:0:0:
424,296,279304,5,4,1:0:0:0:
328,8,279440,1,4,1:0:0:0:
256,368,279576,2,0,B|80:344|80:344|32:368,1,225,8|0,1:0|0:0,0:0:0:0:
80,272,279849,5,0,1:0:0:0:
328,184,279985,1,2,0:0:0:0:
24,152,280122,5,8,1:0:0:0:
312,192,280258,1,2,0:0:0:0:
96,40,280394,6,0,L|112:192,1,150,0|2,1:0|0:0,0:0:0:0:
416,40,280667,2,0,L|400:192,1,150,8|2,1:0|0:0,0:0:0:0:
480,312,280940,5,0,1:0:0:0:
192,272,281076,1,2,0:0:0:0:
512,136,281213,5,8,1:0:0:0:
200,264,281349,1,2,0:0:0:0:
416,376,281485,6,0,P|448:308|440:224,1,150,0|2,1:0|0:0,0:0:0:0:
340,28,281758,2,0,P|308:96|316:180,1,150,8|2,1:0|0:0,0:0:0:0:
512,312,282031,6,0,L|360:304,1,150,0|2,1:0|0:0,0:0:0:0:
152,152,282304,2,0,L|0:144,1,150,8|2,1:0|0:0,0:0:0:0:
432,24,282576,5,0,1:0:0:0:
328,344,282713,1,2,0:0:0:0:
312,72,282849,5,8,1:0:0:0:
336,360,282985,1,2,0:0:0:0:
208,152,283122,5,0,1:0:0:0:
488,120,283258,1,2,0:0:0:0:
152,256,283394,5,8,1:0:0:0:
480,136,283530,1,2,0:0:0:0:
64,56,283667,5,0,1:0:0:0:
64,56,283735,1,0,1:0:0:0:
88,344,283872,1,0,1:0:0:0:
88,344,283940,2,0,B|104:264|104:264|160:336,1,168.750006437302,8|0,1:0|0:0,0:0:0:0:
0,288,284213,5,0,1:0:0:0:
288,256,284349,1,2,0:0:0:0:
32,208,284485,5,8,1:0:0:0:
280,256,284622,1,2,0:0:0:0:
248,40,284758,5,0,1:0:0:0:
240,352,284894,1,2,0:0:0:0:
400,112,285031,5,8,1:0:0:0:
48,184,285167,1,2,0:0:0:0:
368,304,285304,6,0,B|432:352|432:352|512:320,1,150,0|2,1:0|0:0,0:0:0:0:
256,240,285576,1,8,1:0:0:0:
202,254,285644,1,2,0:0:0:0:
155,285,285712,1,2,0:0:0:0:
103,307,285780,1,2,0:0:0:0:
47,309,285849,5,0,1:0:0:0:
91,286,285917,1,0,0:0:0:0:
113,242,285985,1,2,0:0:0:0:
104,193,286053,1,2,0:0:0:0:
56,216,286122,5,8,1:0:0:0:
107,231,286190,1,0,0:0:0:0:
158,213,286258,1,2,0:0:0:0:
190,169,286326,1,2,0:0:0:0:
144,144,286394,5,0,1:0:0:0:
171,196,286462,1,0,0:0:0:0:
224,222,286530,1,2,0:0:0:0:
282,212,286598,1,2,0:0:0:0:
336,184,286667,5,8,1:0:0:0:
336,110,286735,1,0,0:0:0:0:
381,51,286803,1,2,0:0:0:0:
451,30,286871,1,2,0:0:0:0:
512,80,286940,5,0,1:0:0:0:
437,77,287008,1,2,0:0:0:0:
362,75,287076,1,2,0:0:0:0:
287,72,287144,1,0,0:0:0:0:
224,128,287212,5,8,1:0:0:0:
154,129,287281,1,2,0:0:0:0:
84,131,287349,1,2,0:0:0:0:
14,134,287417,1,0,0:0:0:0:
40,208,287485,6,0,L|120:200,1,75,0|2,1:0|0:0,0:0:0:0:
192,56,287622,2,0,L|117:63,1,75,2|0,0:0|0:0,0:0:0:0:
256,248,287758,5,8,1:0:0:0:
320,254,287826,1,2,0:0:0:0:
381,279,287894,1,2,0:0:0:0:
444,298,287962,1,0,0:0:0:0:
508,296,288031,6,2,B|500:320|500:320|496:304|496:304|492:324|492:324|484:308|484:308|480:328|480:328|472:312|472:312|468:332|468:332|460:316|460:316|456:332|456:332|424:344|400:332|400:332|392:340|392:340|364:328|336:340|336:340|328:360|328:360|324:344|324:344|316:364|316:364|312:348|312:348|304:368|304:368|300:352|300:352|292:372|292:372|288:356|288:356|280:376|280:376|276:360|276:360|236:380,1,500,0|0,0:0|0:0,1:0:0:0:
196,328,288304,5,12,1:0:0:0:
196,336,288440,1,2,0:0:0:0:
52,256,288576,5,0,1:0:0:0:
52,264,288712,1,2,0:0:0:0:
96,360,288849,5,8,1:0:0:0:
96,368,288985,1,2,0:0:0:0:
260,196,289122,5,0,1:0:0:0:
260,204,289258,1,2,0:0:0:0:
512,116,289394,5,8,1:0:0:0:
512,124,289530,1,2,0:0:0:0:
408,248,289667,5,0,1:0:0:0:
408,256,289803,1,2,0:0:0:0:
240,20,289940,5,8,1:0:0:0:
240,28,290076,1,2,0:0:0:0:
56,180,290213,6,0,B|64:164|132:144|144:172|140:204|112:212|112:212|64:144|64:48|64:48|108:44|124:72|120:112|56:128|16:96,1,450,4|2,1:0|0:0,1:0:0:0:
184,112,290485,5,8,1:0:0:0:
172,112,290622,1,2,0:0:0:0:
52,340,290758,5,0,1:0:0:0:
40,340,290895,1,2,0:0:0:0:
184,292,291031,5,8,1:0:0:0:
172,292,291168,1,2,0:0:0:0:
408,200,291304,6,0,L|240:200,1,150,4|0,1:2|0:0,0:0:0:0:
504,128,291508,6,0,L|336:128,1,150,4|0,1:2|0:0,0:0:0:0:
320,56,291678,6,0,L|152:56,1,150,4|0,1:0|0:0,0:0:0:0:
464,308,291849,5,0,1:0:0:0:
468,296,291917,1,0,1:0:0:0:
472,284,291985,1,8,0:0:0:0:
392,376,292121,5,0,1:0:0:0:
336,200,292258,1,8,0:0:0:0:
256,360,292394,5,4,1:2:0:0:
104,376,292531,1,0,0:0:0:0:
136,284,292667,1,0,0:0:0:0:
256,360,292804,5,4,1:0:0:0:
140,188,292940,1,0,0:0:0:0:
48,280,293076,1,0,0:0:0:0:
256,360,293213,5,0,1:0:0:0:
0,204,293349,1,0,0:0:0:0:
256,360,293485,5,4,1:0:0:0:
104,168,293622,1,0,0:0:0:0:
236,136,293758,1,0,0:0:0:0:
256,360,293894,5,0,1:0:0:0:
380,116,294031,1,0,0:0:0:0:
208,64,294167,1,0,0:0:0:0:
256,360,294304,5,0,1:0:0:0:
248,0,294440,1,0,0:0:0:0:
256,360,294576,5,4,1:0:0:0:
316,100,294713,1,0,0:0:0:0:
424,208,294849,1,0,0:0:0:0:
256,360,294985,5,0,1:0:0:0:
512,348,295122,1,8,0:0:0:0:
456,116,295258,1,0,0:0:0:0:
256,360,295394,5,4,1:0:0:0:
512,40,295531,1,0,0:0:0:0:
256,360,295667,5,0,1:0:0:0:
88,256,295804,1,2,0:0:0:0:
48,192,295872,1,2,0:0:0:0:
88,128,295940,1,2,0:0:0:0:
192,40,296076,1,0,1:0:0:0:
256,0,296144,1,2,0:0:0:0:
320,40,296212,1,2,0:0:0:0:
424,128,296349,1,2,0:0:0:0:
464,192,296417,1,2,0:0:0:0:
424,256,296485,1,0,1:0:0:0:
256,360,296622,1,0,0:0:0:0:
80,260,296757,6,4,P|104:146|430:290,1,600,4|0,1:2|2:0,1:0:0:0:
256,252,297167,2,0,B|248:216|270:191|270:191|256:160|256:160|244:130|394:119|347:26|294:-116|134:23,1,450.000017166138,4|0,1:0|2:0,0:0:0:0:
256,352,297576,2,0,B|239:373|256:391|274:371|256:350,1,60,4|0,1:0|0:0,0:0:0:0:
276,192,297985,6,0,B|360:192|360:192|312:152|312:152|360:192|360:192|160:192|160:192|208:224|208:224|160:192|160:192|344:192,1,600,4|0,1:0|0:0,0:0:0:0:
512,53,298394,2,0,P|748:89|464:273,1,750,4|0,1:0|2:0,0:0:0:0:
0,331,298667,2,0,P|-236:295|48:111,1,750,4|0,1:0|2:0,0:0:0:0:
136,352,298940,6,0,B|101:222|101:222|148:252|148:252|101:222|101:222|72:272|72:272|101:222,1,300,4|0,1:0|2:0,0:0:0:0:
376,352,299349,2,0,B|410:222|410:222|363:252|363:252|410:222|410:222|439:272|439:272|410:222,1,300,4|0,1:0|2:0,0:0:0:0:
480,16,299758,6,0,B|440:136|440:136|424:56,16,187.5,4|0|0|0|0|0|0|0|0|0|0|0|0|0|0|0|0,1:0|2:0|2:0|2:0|2:0|2:0|2:0|2:0|2:0|2:0|2:0|2:0|2:0|2:0|2:0|2:0|2:0,2:0:0:0:
32,16,300167,2,0,B|72:136|72:136|88:56,16,187.5,4|0|0|0|0|0|0|0|0|0|0|0|0|0|0|0|0,1:0|2:0|2:0|2:0|2:0|2:0|2:0|2:0|2:0|2:0|2:0|2:0|2:0|2:0|2:0|2:0|2:0,2:0:0:0:
198,249,300576,6,0,P|255:356|299:231,1,300,4|0,1:0|2:0,1:0:0:0:
256,200,301122,6,0,L|256:136,16,37.5,4|0|0|0|0|0|0|0|0|0|0|0|0|0|0|0|0,1:0|2:0|2:0|2:0|2:0|2:0|2:0|2:0|2:0|2:0|2:0|2:0|2:0|2:0|2:0|2:0|2:0,2:0:0:0:
56,336,301531,2,0,L|168:328,8,75,4|0|0|0|0|0|0|0|0,1:0|2:0|2:0|2:0|2:0|2:0|2:0|2:0|2:0,2:0:0:0:
256,160,301940,6,0,L|256:96,16,37.5,4|0|0|0|0|0|0|0|0|0|0|0|0|0|0|0|0,1:0|2:0|2:0|2:0|2:0|2:0|2:0|2:0|2:0|2:0|2:0|2:0|2:0|2:0|2:0|2:0|2:0,2:0:0:0:
456,336,302349,2,0,L|344:328,8,75,4|0|0|0|0|0|0|0|0,1:0|2:0|2:0|2:0|2:0|2:0|2:0|2:0|2:0,2:0:0:0:
184,104,302758,2,0,P|195:79|230:60,12,37.5,4|0|0|0|0|0|0|0|0|0|0|0|0,1:0|2:0|2:0|2:0|2:0|2:0|2:0|2:0|2:0|2:0|2:0|2:0|2:0,2:0:0:0:
328,184,303031,2,0,P|316:208|281:227,12,37.5,4|0|0|0|0|0|0|0|0|0|0|0|0,1:0|2:0|2:0|2:0|2:0|2:0|2:0|2:0|2:0|2:0|2:0|2:0|2:0,2:0:0:0:
72,256,303304,6,0,B|64:296|64:296|71:256|71:256|60:316|60:316|104:400|104:400|96:472,16,187.5,4|0|0|0|0|0|0|0|0|0|0|0|0|0|0|0|0,1:0|2:0|2:0|2:0|2:0|2:0|2:0|2:0|2:0|2:0|2:0|2:0|2:0|2:0|2:0|2:0|2:0,2:0:0:0:
312,368,303713,2,0,B|352:376|352:376|312:369|312:369|372:380|372:380|456:336|456:336|528:344,16,187.5,4|0|0|0|0|0|0|0|0|0|0|0|0|0|0|0|0,1:0|2:0|2:0|2:0|2:0|2:0|2:0|2:0|2:0|2:0|2:0|2:0|2:0|2:0|2:0|2:0|2:0,2:0:0:0:
448,48,304122,6,0,P|448:152|505:120,16,187.5,4|0|0|0|0|0|0|0|0|0|0|0|0|0|0|0|0,1:0|2:0|2:0|2:0|2:0|2:0|2:0|2:0|2:0|2:0|2:0|2:0|2:0|2:0|2:0|2:0|2:0,2:0:0:0:
320,256,304531,6,0,P|320:360|263:328,16,187.5,4|0|0|0|0|0|0|0|0|0|0|0|0|0|0|0|0,1:0|2:0|2:0|2:0|2:0|2:0|2:0|2:0|2:0|2:0|2:0|2:0|2:0|2:0|2:0|2:0|2:0,2:0:0:0:
0,72,304940,2,0,P|64:96|196:9,1,225.000008583069,0|0,1:0|2:0,1:0:0:0:
208,136,305144,2,0,P|316:124|393:201,1,225.000008583069,2|0,1:0|2:0,1:0:0:0:
464,248,305348,2,0,P|442:295|548:385,1,112.500004291535,2|0,1:0|0:0,1:0:0:0:
512,304,305485,5,4,1:0:0:0:
400,312,305554,1,0,1:0:0:0:
288,320,305622,1,0,1:0:0:0:
176,328,305690,1,0,1:0:0:0:
64,336,305758,1,0,1:0:0:0:
16,216,305894,5,4,1:0:0:0:
128,224,305963,1,0,1:0:0:0:
240,232,306031,1,0,1:0:0:0:
352,240,306099,1,0,1:0:0:0:
464,248,306167,1,0,1:0:0:0:
512,104,306304,5,4,1:0:0:0:
400,112,306373,1,0,1:0:0:0:
288,120,306441,1,0,1:0:0:0:
176,128,306509,1,0,1:0:0:0:
64,136,306577,1,0,1:0:0:0:
16,16,306713,5,4,1:0:0:0:
128,24,306782,1,0,1:0:0:0:
240,32,306850,1,0,1:0:0:0:
352,40,306918,1,0,1:0:0:0:
464,48,306986,1,0,1:0:0:0:
376,368,307122,5,4,1:0:0:0:
384,248,307190,1,0,1:0:0:0:
264,240,307258,1,0,1:0:0:0:
256,360,307326,1,0,1:0:0:0:
256,360,307394,5,4,1:0:0:0:
248,240,307462,1,0,1:0:0:0:
128,248,307530,1,0,1:0:0:0:
136,368,307598,1,0,1:0:0:0:
136,368,307667,5,4,1:0:0:0:
224,344,307735,1,0,1:0:0:0:
312,352,307804,1,0,1:0:0:0:
400,328,307872,1,0,1:0:0:0:
488,344,307940,1,0,1:0:0:0:
352,256,308076,5,4,1:0:0:0:
264,232,308144,1,0,1:0:0:0:
176,240,308213,1,0,1:0:0:0:
88,216,308281,1,0,1:0:0:0:
0,232,308349,1,0,1:0:0:0:
144,152,308485,5,4,1:0:0:0:
232,128,308553,1,0,1:0:0:0:
320,136,308622,1,0,1:0:0:0:
408,112,308690,1,0,1:0:0:0:
496,128,308758,1,0,1:0:0:0:
360,40,308894,5,4,1:0:0:0:
272,16,308962,1,0,1:0:0:0:
184,24,309031,1,0,1:0:0:0:
96,0,309099,1,0,1:0:0:0:
8,16,309167,1,0,1:0:0:0:
48,328,309303,6,0,P|113:366|78:277,1,225,4|0,1:0|0:0,1:0:0:0:
176,232,309848,5,4,1:0:0:0:
192,136,309917,1,0,1:0:0:0:
192,136,309985,1,0,1:0:0:0:
192,136,310054,1,0,1:0:0:0:
192,136,310122,1,0,1:0:0:0:
192,136,310190,1,0,1:0:0:0:
256,248,310258,5,4,1:0:0:0:
280,120,310326,1,0,1:0:0:0:
280,120,310394,1,0,1:0:0:0:
280,120,310463,1,0,1:0:0:0:
280,120,310531,1,0,1:0:0:0:
280,120,310599,1,0,1:0:0:0:
336,264,310667,5,4,1:0:0:0:
368,104,310735,1,0,1:0:0:0:
368,104,310803,1,0,1:0:0:0:
368,104,310872,1,0,1:0:0:0:
368,104,310940,1,0,1:0:0:0:
368,104,311008,1,0,1:0:0:0:
416,280,311076,5,4,1:0:0:0:
456,88,311144,1,0,1:0:0:0:
456,88,311212,1,0,1:0:0:0:
456,88,311281,1,0,1:0:0:0:
456,88,311349,1,0,1:0:0:0:
456,88,311417,1,0,1:0:0:0:
496,296,311485,5,4,1:0:0:0:
360,344,311554,1,0,1:0:0:0:
360,344,311622,1,0,1:0:0:0:
360,344,311690,1,0,1:0:0:0:
312,280,311758,5,4,1:0:0:0:
176,328,311827,1,0,1:0:0:0:
176,328,311895,1,0,1:0:0:0:
176,328,311963,1,0,1:0:0:0:
128,272,312030,6,0,B|104:232|111:177|111:177|103:232|128:272|128:272|103:232|111:175|111:175|103:232|128:272|128:272|103:232|111:175|111:175|103:232|104:232,1,500,4|0,1:0|0:0,1:0:0:0:
128,272,312575,2,0,P|110:225|112:176,5,100,2|0|2|2|0|2,0:0|0:0|0:0|0:0|0:0|0:0,0:0:0:0:
16,64,313122,5,8,1:0:0:0:
16,64,313190,2,0,L|24:144,1,75,0|0,1:0|1:0,1:0:0:0:
192,96,313394,1,8,1:0:0:0:
192,96,313462,2,0,L|200:176,1,75,0|0,1:0|1:0,1:0:0:0:
328,32,313667,5,0,1:0:0:0:
328,32,313735,2,0,L|336:112,1,75,0|8,1:0|1:0,1:0:0:0:
504,64,313939,5,4,0:0:0:0:
504,64,314007,2,0,L|512:144,1,75
424,304,314213,6,0,B|345:326|345:326|281:294|281:294|249:350|249:350|-20:448|-119:36|201:27,1,750,4|0,1:0|2:0,0:0:0:0:
208,48,314485,6,0,P|213:85|212:122,1,75,2|0,0:0|3:0,0:0:0:0:
144,200,314758,2,0,P|62:230|35:318,2,150,0|0|0,1:0|1:0|3:0,0:0:0:0:
144,200,315440,1,0,3:0:0:0:
144,200,315576,1,0,1:0:0:0:
432,328,316122,5,0,3:0:0:0:
432,328,316258,1,0,3:0:0:0:
200,16,316394,2,0,B|149:-7|119:-7|80:0|34:27|34:27|14:64|20:107|13:143|45:193|45:193|133:180|211:181|211:181|239:232|251:320|259:381|235:422|235:422|136:444|52:427|52:427|138:444|337:419|337:419|317:332|306:-67|306:-67|325:252|325:252|410:217|494:238|494:238|524:325|505:408|505:408|416:451|336:418|336:418|313:-50,1,3000,0|0,1:0|1:0,1:0:0:0:
136,352,316666,5,2,0:0:0:0:
136,352,316802,1,2,0:0:0:0:
56,288,316938,2,0,P|40:240|56:136,1,150,0|0,1:0|1:0,0:0:0:0:
0,56,317484,5,0,0:0:0:0:
256,48,317756,2,0,B|216:128|256:192|256:192|304:264|245:345,1,300,0|0,1:0|0:0,0:0:0:0:
192,384,318165,1,0,3:0:0:0:
328,368,318302,2,0,L|402:361,1,75,0|0,0:0|3:0,0:0:0:0:
488,256,318574,6,0,P|496:168|464:96,1,150,0|0,1:0|0:0,0:0:0:0:
474,111,318984,1,0,0:0:0:0:
280,32,319120,2,0,B|329:21|329:21|369:37|369:37|425:29,1,150,0|0,1:0|1:0,0:0:0:0:
264,0,319938,2,0,B|215:32|215:32|199:95|199:95|134:149|134:149|112:219|112:219|68:278|68:278|67:323|67:323|10:360|10:360|103:346|103:346|170:375|170:375|231:349|231:349|297:379|297:379|346:351|346:351|437:387|437:387|523:363|523:363|464:318|464:318|471:275|471:275|419:230|419:230|405:181|405:181|351:147|351:147|346:103|346:103|310:79|310:79|298:37|298:37|242:-26,1,1500,0|0,1:0|0:0,0:0:0:0:
48,328,320756,5,0,1:0:0:0:
296,336,321028,1,0,0:0:0:0:
216,368,321165,1,2,0:0:0:0:
408,368,321301,2,0,P|418:332|412:295,1,75,0|0,1:0|3:0,0:0:0:0:
412,295,321574,1,0,1:0:0:0:
32,48,322119,1,0,1:0:0:0:
184,80,322528,2,0,L|88:88,2,75,2|0|2,0:0|0:0|0:0,0:0:0:0:
256,192,322937,12,2,324028,2:0:0:0:
256,192,322938,5,0,1:0:0:0:
256,192,324028,12,2,325119,2:0:0:0:
256,192,325119,12,2,326210,2:0:0:0:
256,192,326210,12,2,327301,2:0:0:0:
256,192,327301,12,2,329483,2:0:0:0:
256,192,329483,12,2,334937,2:0:0:0:
256,192,334983,12,2,334983,2:0:0:0:
256,192,335028,12,2,335028,2:0:0:0:
256,192,335074,12,2,335074,2:0:0:0:
256,192,335119,12,2,335119,2:0:0:0:
256,192,335165,12,2,335165,2:0:0:0:
256,192,335210,12,2,335210,2:0:0:0:
256,192,335301,12,2,335301,2:0:0:0:
256,192,335392,12,2,335392,2:0:0:0:
256,192,335483,12,2,335483,2:0:0:0:
256,192,335756,12,2,335756,2:0:0:0:
256,192,335870,12,2,335870,2:0:0:0:
256,192,335983,12,2,335983,2:0:0:0:
256,192,336074,12,2,336074,2:0:0:0:
256,192,336165,12,2,336165,2:0:0:0:
256,192,336278,12,2,336278,2:0:0:0:
256,192,336437,12,2,336437,2:0:0:0:
256,192,336552,12,2,336552,2:0:0:0:
256,192,336710,12,2,336710,2:0:0:0:
256,192,336915,12,2,336915,2:0:0:0:
256,192,337165,12,2,337165,2:0:0:0:
