osu file format v14

[General]
AudioFilename: audio.mp3
AudioLeadIn: 0
PreviewTime: -1
Countdown: 0
SampleSet: None
StackLeniency: 0.7
Mode: 3
LetterboxInBreaks: 0
SpecialStyle: 0
WidescreenStoryboard: 0

[Editor]
DistanceSpacing: 1
BeatDivisor: 16
GridSize: 8
TimelineZoom: 1.9

[Metadata]
Title:GHOST
TitleUnicode:GHOST
Artist:Camellia
ArtistUnicode:Camellia
Creator:Verald
Version:Super Easy
Source:
Tags:
BeatmapID:1852182
BeatmapSetID:885996

[Difficulty]
HPDrainRate:8
CircleSize:4
OverallDifficulty:7
ApproachRate:5
SliderMultiplier:1.4
SliderTickRate:1

[Events]
//Background and Video events
//Break Periods
//Storyboard Layer 0 (Background)
//Storyboard Layer 1 (Fail)
//Storyboard Layer 2 (Pass)
//Storyboard Layer 3 (Foreground)
//Storyboard Sound Samples

[TimingPoints]
49,545.454545454546,4,3,0,30,1,0
51,-99.9999999999999,4,3,0,30,0,0
192051,272.727272727273,4,3,0,30,1,0
192051,-200,4,3,0,30,0,0
214412,545.454545454546,4,3,0,30,1,0
214412,-99.9999999999999,4,3,0,30,0,0
218230,272.727272727273,4,3,0,30,1,0
218230,-200,4,3,0,30,0,0
222593,545.454545454546,4,3,0,30,1,0
222593,-99.9999999999999,4,3,0,30,0,0
226960,272.727272727273,4,3,0,30,1,0
226960,-200,4,3,0,30,0,0

[HitObjects]
448,192,25139,5,0,0:0:0:0:
320,192,25139,1,0,0:0:0:0:
192,192,25208,1,0,0:0:0:0:
64,192,25208,1,0,0:0:0:0:
320,192,25276,1,0,0:0:0:0:
448,192,25276,1,0,0:0:0:0:
64,192,25344,1,0,0:0:0:0:
192,192,25344,1,0,0:0:0:0:
320,192,25412,1,0,0:0:0:0:
448,192,25412,1,0,0:0:0:0:
192,192,25480,1,0,0:0:0:0:
64,192,25480,1,0,0:0:0:0:
448,192,25549,1,0,0:0:0:0:
320,192,25549,1,0,0:0:0:0:
64,192,25617,1,0,0:0:0:0:
192,192,25617,1,0,0:0:0:0:
448,192,25685,1,0,0:0:0:0:
320,192,25685,1,0,0:0:0:0:
64,192,25821,1,0,0:0:0:0:
448,192,25821,1,0,0:0:0:0:
192,192,25958,1,0,0:0:0:0:
320,192,25958,1,0,0:0:0:0:
64,192,26094,1,0,0:0:0:0:
320,192,26094,1,0,0:0:0:0:
448,192,26230,1,0,0:0:0:0:
192,192,26230,1,0,0:0:0:0:
64,192,26230,1,0,0:0:0:0:
320,192,26367,1,0,0:0:0:0:
192,192,26503,1,0,0:0:0:0:
448,192,26503,1,0,0:0:0:0:
64,192,26639,1,0,0:0:0:0:
192,192,26776,1,0,0:0:0:0:
448,192,26776,1,0,0:0:0:0:
320,192,26776,1,0,0:0:0:0:
64,192,26912,1,0,0:0:0:0:
192,192,27049,1,0,0:0:0:0:
448,192,27049,1,0,0:0:0:0:
320,192,27049,1,0,0:0:0:0:
64,192,27185,1,0,0:0:0:0:
192,192,27253,1,0,0:0:0:0:
448,192,27321,1,0,0:0:0:0:
320,192,27321,1,0,0:0:0:0:
320,192,27458,1,0,0:0:0:0:
192,192,27594,1,0,0:0:0:0:
64,192,27594,1,0,0:0:0:0:
448,192,27594,1,0,0:0:0:0:
320,192,27730,1,0,0:0:0:0:
192,192,27799,1,0,0:0:0:0:
448,192,27867,1,0,0:0:0:0:
64,192,27867,1,0,0:0:0:0:
320,192,27867,1,0,0:0:0:0:
192,192,28003,1,0,0:0:0:0:
448,192,28139,1,0,0:0:0:0:
64,192,28139,1,0,0:0:0:0:
320,192,28208,1,0,0:0:0:0:
192,192,28276,1,0,0:0:0:0:
64,192,28344,1,0,0:0:0:0:
320,192,28412,1,0,0:0:0:0:
448,192,28412,1,0,0:0:0:0:
192,192,28412,1,0,0:0:0:0:
64,192,28549,1,0,0:0:0:0:
320,192,28685,1,0,0:0:0:0:
448,192,28685,1,0,0:0:0:0:
192,192,28821,1,0,0:0:0:0:
64,192,28958,1,0,0:0:0:0:
448,192,28958,1,0,0:0:0:0:
320,192,28958,1,0,0:0:0:0:
192,192,29094,1,0,0:0:0:0:
320,192,29230,1,0,0:0:0:0:
448,192,29230,1,0,0:0:0:0:
64,192,29230,1,0,0:0:0:0:
192,192,29367,1,0,0:0:0:0:
320,192,29435,1,0,0:0:0:0:
64,192,29503,1,0,0:0:0:0:
448,192,29503,1,0,0:0:0:0:
192,192,29639,1,0,0:0:0:0:
320,192,29776,1,0,0:0:0:0:
448,192,29776,1,0,0:0:0:0:
64,192,29776,1,0,0:0:0:0:
192,192,29912,1,0,0:0:0:0:
320,192,29980,1,0,0:0:0:0:
64,192,30049,1,0,0:0:0:0:
448,192,30049,1,0,0:0:0:0:
192,192,30049,1,0,0:0:0:0:
320,192,30117,1,0,0:0:0:0:
192,192,30185,1,0,0:0:0:0:
64,192,30253,1,0,0:0:0:0:
320,192,30321,1,0,0:0:0:0:
448,192,30321,1,0,0:0:0:0:
192,192,30389,1,0,0:0:0:0:
64,192,30458,1,0,0:0:0:0:
448,192,30526,1,0,0:0:0:0:
64,192,30594,1,0,0:0:0:0:
320,192,30594,1,0,0:0:0:0:
192,192,30594,1,0,0:0:0:0:
448,192,30730,1,0,0:0:0:0:
320,192,30867,1,0,0:0:0:0:
192,192,30867,1,0,0:0:0:0:
64,192,31003,1,0,0:0:0:0:
192,192,31139,1,0,0:0:0:0:
320,192,31139,1,0,0:0:0:0:
448,192,31139,1,0,0:0:0:0:
64,192,31276,1,0,0:0:0:0:
448,192,31412,1,0,0:0:0:0:
320,192,31412,1,0,0:0:0:0:
192,192,31412,1,0,0:0:0:0:
64,192,31549,1,0,0:0:0:0:
192,192,31617,1,0,0:0:0:0:
320,192,31685,1,0,0:0:0:0:
448,192,31685,1,0,0:0:0:0:
64,192,31821,1,0,0:0:0:0:
320,192,31958,1,0,0:0:0:0:
192,192,31958,1,0,0:0:0:0:
64,192,31958,1,0,0:0:0:0:
448,192,32094,1,0,0:0:0:0:
320,192,32162,1,0,0:0:0:0:
64,192,32230,1,0,0:0:0:0:
192,192,32230,1,0,0:0:0:0:
448,192,32230,1,0,0:0:0:0:
448,192,32367,1,0,0:0:0:0:
320,192,32503,1,0,0:0:0:0:
64,192,32503,1,0,0:0:0:0:
448,192,32571,1,0,0:0:0:0:
192,192,32639,1,0,0:0:0:0:
320,192,32708,1,0,0:0:0:0:
448,192,32776,1,0,0:0:0:0:
64,192,32776,1,0,0:0:0:0:
192,192,32776,1,0,0:0:0:0:
192,192,32912,1,0,0:0:0:0:
320,192,33049,1,0,0:0:0:0:
448,192,33049,1,0,0:0:0:0:
192,192,33185,1,0,0:0:0:0:
64,192,33321,1,0,0:0:0:0:
320,192,33321,1,0,0:0:0:0:
448,192,33321,1,0,0:0:0:0:
192,192,33458,1,0,0:0:0:0:
64,192,33594,1,0,0:0:0:0:
320,192,33594,1,0,0:0:0:0:
448,192,33594,1,0,0:0:0:0:
192,192,33730,1,0,0:0:0:0:
320,192,33799,1,0,0:0:0:0:
448,192,33867,1,0,0:0:0:0:
64,192,33867,1,0,0:0:0:0:
320,192,34003,1,0,0:0:0:0:
448,192,34139,1,0,0:0:0:0:
64,192,34139,1,0,0:0:0:0:
192,192,34139,1,0,0:0:0:0:
320,192,34276,1,0,0:0:0:0:
192,192,34344,1,0,0:0:0:0:
64,192,34412,1,0,0:0:0:0:
448,192,34412,1,0,0:0:0:0:
320,192,34412,1,0,0:0:0:0:
192,192,34480,1,0,0:0:0:0:
320,192,34549,1,0,0:0:0:0:
448,192,34617,1,0,0:0:0:0:
192,192,34685,1,0,0:0:0:0:
64,192,34685,1,0,0:0:0:0:
320,192,34753,1,0,0:0:0:0:
448,192,34821,1,0,0:0:0:0:
64,192,34889,1,0,0:0:0:0:
320,192,34958,1,0,0:0:0:0:
448,192,34958,1,0,0:0:0:0:
192,192,34958,1,0,0:0:0:0:
192,192,35094,1,0,0:0:0:0:
320,192,35230,1,0,0:0:0:0:
64,192,35230,1,0,0:0:0:0:
448,192,35367,1,0,0:0:0:0:
320,192,35503,1,0,0:0:0:0:
192,192,35503,1,0,0:0:0:0:
64,192,35503,1,0,0:0:0:0:
448,192,35639,1,0,0:0:0:0:
320,192,35776,1,0,0:0:0:0:
192,192,35776,1,0,0:0:0:0:
64,192,35776,1,0,0:0:0:0:
448,192,35912,1,0,0:0:0:0:
192,192,35980,1,0,0:0:0:0:
320,192,36049,1,0,0:0:0:0:
64,192,36049,1,0,0:0:0:0:
192,192,36185,1,0,0:0:0:0:
320,192,36321,1,0,0:0:0:0:
448,192,36321,1,0,0:0:0:0:
64,192,36321,1,0,0:0:0:0:
192,192,36458,1,0,0:0:0:0:
320,192,36526,1,0,0:0:0:0:
448,192,36594,1,0,0:0:0:0:
64,192,36594,1,0,0:0:0:0:
192,192,36594,1,0,0:0:0:0:
320,192,36730,1,0,0:0:0:0:
448,192,36867,1,0,0:0:0:0:
64,192,36867,1,0,0:0:0:0:
192,192,36935,1,0,0:0:0:0:
320,192,37003,1,0,0:0:0:0:
448,192,37071,1,0,0:0:0:0:
192,192,37139,1,0,0:0:0:0:
64,192,37139,1,0,0:0:0:0:
320,192,37139,1,0,0:0:0:0:
320,192,37276,1,0,0:0:0:0:
64,192,37412,1,0,0:0:0:0:
448,192,37412,1,0,0:0:0:0:
320,192,37549,1,0,0:0:0:0:
192,192,37685,1,0,0:0:0:0:
64,192,37685,1,0,0:0:0:0:
448,192,37685,1,0,0:0:0:0:
320,192,37821,1,0,0:0:0:0:
192,192,37958,1,0,0:0:0:0:
64,192,37958,1,0,0:0:0:0:
448,192,37958,1,0,0:0:0:0:
320,192,38094,1,0,0:0:0:0:
448,192,38162,1,0,0:0:0:0:
192,192,38230,1,0,0:0:0:0:
64,192,38230,1,0,0:0:0:0:
448,192,38367,1,0,0:0:0:0:
192,192,38503,1,0,0:0:0:0:
64,192,38503,1,0,0:0:0:0:
320,192,38503,1,0,0:0:0:0:
192,192,38639,1,0,0:0:0:0:
320,192,38708,1,0,0:0:0:0:
192,192,38776,1,0,0:0:0:0:
64,192,38776,1,0,0:0:0:0:
448,192,38776,1,0,0:0:0:0:
320,192,38844,1,0,0:0:0:0:
448,192,38912,1,0,0:0:0:0:
64,192,38980,1,0,0:0:0:0:
320,192,39049,1,0,0:0:0:0:
192,192,39049,1,0,0:0:0:0:
448,192,39117,1,0,0:0:0:0:
64,192,39185,1,0,0:0:0:0:
192,192,39253,1,0,0:0:0:0:
320,192,39321,1,0,0:0:0:0:
448,192,39321,1,0,0:0:0:0:
64,192,39321,1,0,0:0:0:0:
192,192,39458,1,0,0:0:0:0:
448,192,39594,1,0,0:0:0:0:
64,192,39594,1,0,0:0:0:0:
192,192,39730,1,0,0:0:0:0:
448,192,39867,1,0,0:0:0:0:
320,192,39867,1,0,0:0:0:0:
64,192,39867,1,0,0:0:0:0:
192,192,40003,1,0,0:0:0:0:
320,192,40139,1,0,0:0:0:0:
448,192,40139,1,0,0:0:0:0:
64,192,40139,1,0,0:0:0:0:
192,192,40276,1,0,0:0:0:0:
64,192,40344,1,0,0:0:0:0:
448,192,40412,1,0,0:0:0:0:
320,192,40412,1,0,0:0:0:0:
192,192,40549,1,0,0:0:0:0:
64,192,40685,1,0,0:0:0:0:
320,192,40685,1,0,0:0:0:0:
448,192,40685,1,0,0:0:0:0:
192,192,40821,1,0,0:0:0:0:
320,192,40889,1,0,0:0:0:0:
64,192,40958,1,0,0:0:0:0:
448,192,40958,1,0,0:0:0:0:
192,192,40958,1,0,0:0:0:0:
192,192,41094,1,0,0:0:0:0:
320,192,41230,1,0,0:0:0:0:
448,192,41230,1,0,0:0:0:0:
64,192,41299,1,0,0:0:0:0:
192,192,41367,1,0,0:0:0:0:
320,192,41435,1,0,0:0:0:0:
64,192,41503,1,0,0:0:0:0:
448,192,41503,1,0,0:0:0:0:
192,192,41503,1,0,0:0:0:0:
192,192,41639,1,0,0:0:0:0:
320,192,41776,1,0,0:0:0:0:
448,192,41776,1,0,0:0:0:0:
192,192,41912,1,0,0:0:0:0:
64,192,42049,1,0,0:0:0:0:
320,192,42049,1,0,0:0:0:0:
192,192,42185,1,0,0:0:0:0:
320,192,42321,1,0,0:0:0:0:
448,192,42321,1,0,0:0:0:0:
192,192,42458,1,0,0:0:0:0:
448,192,42526,5,0,0:0:0:0:
64,192,42594,5,0,0:0:0:0:
320,192,42594,1,0,0:0:0:0:
448,192,42730,1,0,0:0:0:0:
320,192,42867,1,0,0:0:0:0:
192,192,42867,1,0,0:0:0:0:
64,192,43003,1,0,0:0:0:0:
320,192,43071,1,0,0:0:0:0:
192,192,43139,1,0,0:0:0:0:
448,192,43139,1,0,0:0:0:0:
64,192,43208,1,0,0:0:0:0:
320,192,43276,1,0,0:0:0:0:
448,192,43344,1,0,0:0:0:0:
192,192,43412,1,0,0:0:0:0:
64,192,43412,1,0,0:0:0:0:
448,192,43480,1,0,0:0:0:0:
320,192,43549,1,0,0:0:0:0:
192,192,43617,1,0,0:0:0:0:
448,192,43685,128,0,44230:0:0:0:0:
64,192,43685,1,0,0:0:0:0:
320,192,43685,1,0,0:0:0:0:
320,192,43821,1,0,0:0:0:0:
192,192,43889,1,0,0:0:0:0:
64,192,43958,1,0,0:0:0:0:
192,192,44094,1,0,0:0:0:0:
64,192,44230,128,0,44776:0:0:0:0:
320,192,44230,1,0,0:0:0:0:
448,192,44367,1,0,0:0:0:0:
192,192,44503,1,0,0:0:0:0:
320,192,44571,1,0,0:0:0:0:
192,192,44639,1,0,0:0:0:0:
320,192,44708,1,0,0:0:0:0:
448,192,44776,128,0,45321:0:0:0:0:
192,192,44776,1,0,0:0:0:0:
320,192,44912,1,0,0:0:0:0:
192,192,45049,1,0,0:0:0:0:
320,192,45185,1,0,0:0:0:0:
64,192,45321,128,0,45867:0:0:0:0:
192,192,45321,1,0,0:0:0:0:
320,192,45458,1,0,0:0:0:0:
448,192,45594,1,0,0:0:0:0:
192,192,45730,1,0,0:0:0:0:
448,192,45867,128,0,46276:0:0:0:0:
320,192,45867,1,0,0:0:0:0:
192,192,45935,1,0,0:0:0:0:
320,192,46003,1,0,0:0:0:0:
192,192,46071,1,0,0:0:0:0:
320,192,46139,1,0,0:0:0:0:
192,192,46276,1,0,0:0:0:0:
64,192,46412,128,0,46958:0:0:0:0:
320,192,46412,1,0,0:0:0:0:
192,192,46549,1,0,0:0:0:0:
448,192,46685,1,0,0:0:0:0:
320,192,46753,1,0,0:0:0:0:
192,192,46821,1,0,0:0:0:0:
320,192,46889,1,0,0:0:0:0:
448,192,46958,128,0,47503:0:0:0:0:
192,192,46958,1,0,0:0:0:0:
320,192,47094,1,0,0:0:0:0:
192,192,47230,1,0,0:0:0:0:
64,192,47367,1,0,0:0:0:0:
64,192,47503,128,0,48049:0:0:0:0:
192,192,47503,1,0,0:0:0:0:
448,192,47639,1,0,0:0:0:0:
320,192,47776,1,0,0:0:0:0:
192,192,47912,1,0,0:0:0:0:
448,192,48049,128,0,48594:0:0:0:0:
320,192,48049,1,0,0:0:0:0:
192,192,48117,1,0,0:0:0:0:
320,192,48185,1,0,0:0:0:0:
192,192,48253,1,0,0:0:0:0:
320,192,48321,1,0,0:0:0:0:
192,192,48458,1,0,0:0:0:0:
64,192,48594,128,0,49139:0:0:0:0:
320,192,48594,1,0,0:0:0:0:
448,192,48730,1,0,0:0:0:0:
192,192,48867,1,0,0:0:0:0:
320,192,48935,1,0,0:0:0:0:
192,192,49003,1,0,0:0:0:0:
320,192,49071,1,0,0:0:0:0:
448,192,49139,128,0,49685:0:0:0:0:
192,192,49139,1,0,0:0:0:0:
320,192,49276,1,0,0:0:0:0:
192,192,49412,1,0,0:0:0:0:
320,192,49549,1,0,0:0:0:0:
192,192,49685,1,0,0:0:0:0:
64,192,49685,128,0,50230:0:0:0:0:
320,192,49821,1,0,0:0:0:0:
192,192,49958,1,0,0:0:0:0:
448,192,50094,1,0,0:0:0:0:
448,192,50230,128,0,50776:0:0:0:0:
192,192,50230,1,0,0:0:0:0:
320,192,50299,1,0,0:0:0:0:
192,192,50367,1,0,0:0:0:0:
320,192,50435,1,0,0:0:0:0:
192,192,50503,1,0,0:0:0:0:
320,192,50639,1,0,0:0:0:0:
64,192,50776,128,0,51321:0:0:0:0:
192,192,50776,1,0,0:0:0:0:
320,192,50912,1,0,0:0:0:0:
448,192,51049,1,0,0:0:0:0:
320,192,51117,1,0,0:0:0:0:
192,192,51185,1,0,0:0:0:0:
320,192,51253,1,0,0:0:0:0:
448,192,51321,128,0,51867:0:0:0:0:
192,192,51321,1,0,0:0:0:0:
320,192,51458,1,0,0:0:0:0:
192,192,51594,1,0,0:0:0:0:
320,192,51730,1,0,0:0:0:0:
64,192,51867,128,0,52412:0:0:0:0:
192,192,51867,1,0,0:0:0:0:
320,192,52003,1,0,0:0:0:0:
448,192,52139,1,0,0:0:0:0:
192,192,52276,1,0,0:0:0:0:
448,192,52412,128,0,52685:0:0:0:0:
320,192,52412,1,0,0:0:0:0:
192,192,52549,1,0,0:0:0:0:
320,192,52617,1,0,0:0:0:0:
64,192,52685,128,0,52958:0:0:0:0:
192,192,52685,1,0,0:0:0:0:
320,192,52821,1,0,0:0:0:0:
192,192,52889,1,0,0:0:0:0:
448,192,52958,128,0,53230:0:0:0:0:
320,192,52958,1,0,0:0:0:0:
192,192,53094,1,0,0:0:0:0:
320,192,53162,1,0,0:0:0:0:
64,192,53230,128,0,53503:0:0:0:0:
192,192,53230,1,0,0:0:0:0:
320,192,53367,1,0,0:0:0:0:
192,192,53435,1,0,0:0:0:0:
448,192,53503,128,0,53776:0:0:0:0:
320,192,53503,1,0,0:0:0:0:
192,192,53639,1,0,0:0:0:0:
320,192,53708,1,0,0:0:0:0:
64,192,53776,128,0,54049:0:0:0:0:
192,192,53776,1,0,0:0:0:0:
320,192,53912,1,0,0:0:0:0:
192,192,53980,1,0,0:0:0:0:
448,192,54049,128,0,54321:0:0:0:0:
320,192,54049,1,0,0:0:0:0:
192,192,54185,1,0,0:0:0:0:
320,192,54253,1,0,0:0:0:0:
64,192,54321,128,0,54594:0:0:0:0:
192,192,54321,1,0,0:0:0:0:
320,192,54458,1,0,0:0:0:0:
192,192,54526,1,0,0:0:0:0:
448,192,54594,128,0,54867:0:0:0:0:
320,192,54594,1,0,0:0:0:0:
192,192,54730,1,0,0:0:0:0:
320,192,54799,1,0,0:0:0:0:
64,192,54867,128,0,55139:0:0:0:0:
192,192,54867,1,0,0:0:0:0:
320,192,55003,1,0,0:0:0:0:
192,192,55071,1,0,0:0:0:0:
448,192,55139,128,0,55412:0:0:0:0:
320,192,55139,1,0,0:0:0:0:
192,192,55276,1,0,0:0:0:0:
320,192,55344,1,0,0:0:0:0:
64,192,55412,128,0,55685:0:0:0:0:
192,192,55412,1,0,0:0:0:0:
320,192,55549,1,0,0:0:0:0:
192,192,55617,1,0,0:0:0:0:
448,192,55685,128,0,55958:0:0:0:0:
320,192,55685,1,0,0:0:0:0:
192,192,55821,1,0,0:0:0:0:
320,192,55889,1,0,0:0:0:0:
64,192,55958,128,0,56230:0:0:0:0:
192,192,55958,1,0,0:0:0:0:
320,192,56094,1,0,0:0:0:0:
192,192,56162,1,0,0:0:0:0:
448,192,56230,128,0,56503:0:0:0:0:
320,192,56230,1,0,0:0:0:0:
192,192,56367,1,0,0:0:0:0:
320,192,56435,1,0,0:0:0:0:
64,192,56503,128,0,56776:0:0:0:0:
192,192,56503,1,0,0:0:0:0:
320,192,56639,1,0,0:0:0:0:
192,192,56708,1,0,0:0:0:0:
448,192,56776,128,0,56912:0:0:0:0:
320,192,56776,1,0,0:0:0:0:
192,192,56844,1,0,0:0:0:0:
64,192,56912,128,0,57049:0:0:0:0:
320,192,56912,1,0,0:0:0:0:
192,192,56980,1,0,0:0:0:0:
448,192,57049,128,0,57185:0:0:0:0:
320,192,57049,1,0,0:0:0:0:
192,192,57117,1,0,0:0:0:0:
64,192,57185,128,0,57321:0:0:0:0:
320,192,57185,1,0,0:0:0:0:
192,192,57253,1,0,0:0:0:0:
448,192,57321,128,0,57458:0:0:0:0:
320,192,57321,1,0,0:0:0:0:
192,192,57389,1,0,0:0:0:0:
64,192,57458,128,0,57594:0:0:0:0:
320,192,57458,1,0,0:0:0:0:
192,192,57526,1,0,0:0:0:0:
448,192,57594,128,0,57730:0:0:0:0:
320,192,57594,1,0,0:0:0:0:
192,192,57662,1,0,0:0:0:0:
64,192,57730,128,0,57867:0:0:0:0:
320,192,57730,1,0,0:0:0:0:
192,192,57799,1,0,0:0:0:0:
320,192,57867,1,0,0:0:0:0:
448,192,57867,1,0,0:0:0:0:
192,192,57935,1,0,0:0:0:0:
64,192,57935,1,0,0:0:0:0:
448,192,58003,1,0,0:0:0:0:
320,192,58003,1,0,0:0:0:0:
192,192,58071,1,0,0:0:0:0:
64,192,58071,1,0,0:0:0:0:
320,192,58139,1,0,0:0:0:0:
448,192,58139,1,0,0:0:0:0:
192,192,58208,1,0,0:0:0:0:
64,192,58208,1,0,0:0:0:0:
320,192,58276,1,0,0:0:0:0:
448,192,58276,1,0,0:0:0:0:
192,192,58344,1,0,0:0:0:0:
64,192,58344,1,0,0:0:0:0:
320,192,58412,1,0,0:0:0:0:
448,192,58412,1,0,0:0:0:0:
192,192,58480,1,0,0:0:0:0:
64,192,58480,1,0,0:0:0:0:
320,192,58549,1,0,0:0:0:0:
448,192,58549,1,0,0:0:0:0:
192,192,58617,1,0,0:0:0:0:
64,192,58617,1,0,0:0:0:0:
320,192,58685,1,0,0:0:0:0:
448,192,58685,1,0,0:0:0:0:
192,192,58753,1,0,0:0:0:0:
64,192,58753,1,0,0:0:0:0:
320,192,58821,1,0,0:0:0:0:
448,192,58821,1,0,0:0:0:0:
192,192,58889,1,0,0:0:0:0:
64,192,58889,1,0,0:0:0:0:
448,192,58958,1,0,0:0:0:0:
320,192,58958,1,0,0:0:0:0:
64,192,58958,1,0,0:0:0:0:
448,192,59162,1,0,0:0:0:0:
320,192,59230,1,0,0:0:0:0:
192,192,59230,1,0,0:0:0:0:
64,192,59435,1,0,0:0:0:0:
320,192,59503,1,0,0:0:0:0:
192,192,59503,1,0,0:0:0:0:
448,192,59708,1,0,0:0:0:0:
320,192,59776,1,0,0:0:0:0:
192,192,59776,1,0,0:0:0:0:
64,192,59912,1,0,0:0:0:0:
448,192,59912,1,0,0:0:0:0:
448,192,60049,1,0,0:0:0:0:
320,192,60049,1,0,0:0:0:0:
320,192,60185,1,0,0:0:0:0:
192,192,60185,1,0,0:0:0:0:
192,192,60321,1,0,0:0:0:0:
64,192,60321,1,0,0:0:0:0:
320,192,60458,1,0,0:0:0:0:
192,192,60458,1,0,0:0:0:0:
320,192,60594,1,0,0:0:0:0:
448,192,60594,1,0,0:0:0:0:
64,192,60594,1,0,0:0:0:0:
448,192,61139,1,0,0:0:0:0:
64,192,61139,1,0,0:0:0:0:
192,192,61139,1,0,0:0:0:0:
320,192,61139,128,0,61412:0:0:0:0:
448,192,61412,128,0,61685:0:0:0:0:
192,192,61685,1,0,0:0:0:0:
64,192,61685,1,0,0:0:0:0:
320,192,61685,1,0,0:0:0:0:
448,192,61958,1,0,0:0:0:0:
320,192,61958,1,0,0:0:0:0:
192,192,61958,1,0,0:0:0:0:
64,192,61958,1,0,0:0:0:0:
192,192,62094,1,0,0:0:0:0:
192,192,62230,1,0,0:0:0:0:
192,192,62367,1,0,0:0:0:0:
64,192,62503,1,0,0:0:0:0:
192,192,62503,1,0,0:0:0:0:
320,192,62503,1,0,0:0:0:0:
448,192,62503,1,0,0:0:0:0:
448,192,62639,1,0,0:0:0:0:
448,192,62776,1,0,0:0:0:0:
192,192,62776,1,0,0:0:0:0:
320,192,62776,1,0,0:0:0:0:
64,192,62776,1,0,0:0:0:0:
320,192,62912,1,0,0:0:0:0:
320,192,63049,1,0,0:0:0:0:
320,192,63185,1,0,0:0:0:0:
448,192,63321,1,0,0:0:0:0:
320,192,63321,1,0,0:0:0:0:
64,192,63321,1,0,0:0:0:0:
192,192,63321,1,0,0:0:0:0:
64,192,63458,1,0,0:0:0:0:
64,192,63594,1,0,0:0:0:0:
64,192,63730,1,0,0:0:0:0:
64,192,63867,1,0,0:0:0:0:
192,192,63867,1,0,0:0:0:0:
320,192,63867,1,0,0:0:0:0:
448,192,63867,1,0,0:0:0:0:
192,192,64003,1,0,0:0:0:0:
64,192,64139,1,0,0:0:0:0:
192,192,64139,1,0,0:0:0:0:
320,192,64139,1,0,0:0:0:0:
448,192,64139,1,0,0:0:0:0:
320,192,64276,1,0,0:0:0:0:
448,192,64412,1,0,0:0:0:0:
320,192,64480,1,0,0:0:0:0:
192,192,64549,1,0,0:0:0:0:
64,192,64617,1,0,0:0:0:0:
192,192,64685,1,0,0:0:0:0:
320,192,64685,1,0,0:0:0:0:
448,192,64685,1,0,0:0:0:0:
448,192,64821,1,0,0:0:0:0:
448,192,64958,1,0,0:0:0:0:
320,192,64958,1,0,0:0:0:0:
192,192,64958,1,0,0:0:0:0:
64,192,64958,1,0,0:0:0:0:
320,192,65094,1,0,0:0:0:0:
320,192,65230,128,0,65503:0:0:0:0:
64,192,65503,128,0,65776:0:0:0:0:
192,192,65503,1,0,0:0:0:0:
448,192,65503,1,0,0:0:0:0:
448,192,65776,128,0,66321:0:0:0:0:
320,192,66049,1,0,0:0:0:0:
192,192,66049,1,0,0:0:0:0:
64,192,66049,1,0,0:0:0:0:
320,192,66321,128,0,66594:0:0:0:0:
192,192,66321,1,0,0:0:0:0:
64,192,66321,1,0,0:0:0:0:
192,192,66594,128,0,66867:0:0:0:0:
64,192,66867,128,0,67003:0:0:0:0:
320,192,66867,1,0,0:0:0:0:
448,192,66867,1,0,0:0:0:0:
448,192,67003,128,0,67139:0:0:0:0:
320,192,67139,128,0,67412:0:0:0:0:
192,192,67139,1,0,0:0:0:0:
64,192,67139,1,0,0:0:0:0:
192,192,67412,128,0,67549:0:0:0:0:
64,192,67549,128,0,67685:0:0:0:0:
448,192,67685,128,0,67958:0:0:0:0:
320,192,67685,1,0,0:0:0:0:
192,192,67685,1,0,0:0:0:0:
320,192,67958,128,0,68094:0:0:0:0:
192,192,68094,128,0,68230:0:0:0:0:
64,192,68230,128,0,68503:0:0:0:0:
320,192,68230,1,0,0:0:0:0:
448,192,68230,1,0,0:0:0:0:
192,192,68503,128,0,68639:0:0:0:0:
320,192,68503,1,0,0:0:0:0:
448,192,68503,1,0,0:0:0:0:
320,192,68639,128,0,68776:0:0:0:0:
448,192,68776,128,0,69049:0:0:0:0:
64,192,69049,128,0,69321:0:0:0:0:
192,192,69049,1,0,0:0:0:0:
320,192,69049,1,0,0:0:0:0:
192,192,69321,1,0,0:0:0:0:
320,192,69321,1,0,0:0:0:0:
448,192,69321,1,0,0:0:0:0:
448,192,69458,1,0,0:0:0:0:
320,192,69458,1,0,0:0:0:0:
320,192,69594,1,0,0:0:0:0:
448,192,69594,1,0,0:0:0:0:
448,192,69730,1,0,0:0:0:0:
320,192,69730,1,0,0:0:0:0:
320,192,69867,1,0,0:0:0:0:
192,192,69867,1,0,0:0:0:0:
64,192,69867,1,0,0:0:0:0:
448,192,69935,1,0,0:0:0:0:
320,192,70003,1,0,0:0:0:0:
192,192,70071,1,0,0:0:0:0:
64,192,70139,1,0,0:0:0:0:
448,192,70208,1,0,0:0:0:0:
320,192,70276,1,0,0:0:0:0:
192,192,70344,1,0,0:0:0:0:
64,192,70412,1,0,0:0:0:0:
448,192,70480,1,0,0:0:0:0:
320,192,70549,1,0,0:0:0:0:
192,192,70617,1,0,0:0:0:0:
64,192,70685,1,0,0:0:0:0:
320,192,70685,1,0,0:0:0:0:
448,192,70685,1,0,0:0:0:0:
448,192,70821,1,0,0:0:0:0:
448,192,70958,1,0,0:0:0:0:
448,192,71094,1,0,0:0:0:0:
448,192,71230,1,0,0:0:0:0:
320,192,71230,1,0,0:0:0:0:
64,192,71230,1,0,0:0:0:0:
192,192,71230,1,0,0:0:0:0:
192,192,71367,1,0,0:0:0:0:
64,192,71503,1,0,0:0:0:0:
192,192,71503,1,0,0:0:0:0:
320,192,71503,1,0,0:0:0:0:
448,192,71503,1,0,0:0:0:0:
320,192,71639,1,0,0:0:0:0:
320,192,71776,1,0,0:0:0:0:
320,192,71912,1,0,0:0:0:0:
448,192,72049,1,0,0:0:0:0:
320,192,72049,1,0,0:0:0:0:
192,192,72049,1,0,0:0:0:0:
64,192,72049,1,0,0:0:0:0:
64,192,72185,1,0,0:0:0:0:
64,192,72321,1,0,0:0:0:0:
64,192,72458,1,0,0:0:0:0:
64,192,72594,1,0,0:0:0:0:
192,192,72594,1,0,0:0:0:0:
320,192,72594,1,0,0:0:0:0:
448,192,72594,1,0,0:0:0:0:
448,192,72730,1,0,0:0:0:0:
448,192,72867,1,0,0:0:0:0:
320,192,72867,1,0,0:0:0:0:
192,192,72867,1,0,0:0:0:0:
64,192,72867,1,0,0:0:0:0:
192,192,73003,1,0,0:0:0:0:
64,192,73139,1,0,0:0:0:0:
192,192,73208,1,0,0:0:0:0:
320,192,73276,1,0,0:0:0:0:
448,192,73344,1,0,0:0:0:0:
320,192,73412,1,0,0:0:0:0:
192,192,73412,1,0,0:0:0:0:
64,192,73412,1,0,0:0:0:0:
320,192,73549,1,0,0:0:0:0:
448,192,73685,1,0,0:0:0:0:
320,192,73685,1,0,0:0:0:0:
192,192,73685,1,0,0:0:0:0:
64,192,73685,1,0,0:0:0:0:
192,192,73821,1,0,0:0:0:0:
192,192,73958,128,0,74230:0:0:0:0:
448,192,74230,128,0,74503:0:0:0:0:
64,192,74503,128,0,74776:0:0:0:0:
192,192,74776,1,0,0:0:0:0:
320,192,74776,1,0,0:0:0:0:
448,192,74776,1,0,0:0:0:0:
320,192,74912,1,0,0:0:0:0:
448,192,75049,1,0,0:0:0:0:
320,192,75049,1,0,0:0:0:0:
192,192,75049,1,0,0:0:0:0:
64,192,75049,1,0,0:0:0:0:
448,192,75185,1,0,0:0:0:0:
320,192,75253,1,0,0:0:0:0:
192,192,75321,1,0,0:0:0:0:
192,192,75458,1,0,0:0:0:0:
64,192,75594,1,0,0:0:0:0:
192,192,75594,1,0,0:0:0:0:
448,192,75594,1,0,0:0:0:0:
320,192,75594,1,0,0:0:0:0:
320,192,75730,1,0,0:0:0:0:
448,192,75867,1,0,0:0:0:0:
192,192,75867,1,0,0:0:0:0:
64,192,75867,1,0,0:0:0:0:
320,192,75867,1,0,0:0:0:0:
64,192,76003,1,0,0:0:0:0:
192,192,76071,1,0,0:0:0:0:
320,192,76139,1,0,0:0:0:0:
320,192,76276,1,0,0:0:0:0:
448,192,76412,1,0,0:0:0:0:
320,192,76412,1,0,0:0:0:0:
192,192,76412,1,0,0:0:0:0:
64,192,76412,128,0,76685:0:0:0:0:
448,192,76685,128,0,76958:0:0:0:0:
64,192,76958,1,0,0:0:0:0:
320,192,76958,1,0,0:0:0:0:
192,192,77026,1,0,0:0:0:0:
320,192,77094,1,0,0:0:0:0:
448,192,77230,1,0,0:0:0:0:
320,192,77230,1,0,0:0:0:0:
192,192,77230,1,0,0:0:0:0:
64,192,77230,1,0,0:0:0:0:
448,192,77367,1,0,0:0:0:0:
320,192,77435,1,0,0:0:0:0:
192,192,77503,1,0,0:0:0:0:
64,192,77639,1,0,0:0:0:0:
64,192,77776,1,0,0:0:0:0:
192,192,77776,1,0,0:0:0:0:
320,192,77776,1,0,0:0:0:0:
448,192,77776,1,0,0:0:0:0:
320,192,77912,1,0,0:0:0:0:
448,192,78049,1,0,0:0:0:0:
320,192,78049,1,0,0:0:0:0:
64,192,78049,1,0,0:0:0:0:
192,192,78049,1,0,0:0:0:0:
64,192,78594,1,0,0:0:0:0:
192,192,78594,1,0,0:0:0:0:
448,192,78594,1,0,0:0:0:0:
320,192,78662,1,0,0:0:0:0:
192,192,78730,1,0,0:0:0:0:
320,192,78799,1,0,0:0:0:0:
64,192,78867,1,0,0:0:0:0:
192,192,78867,1,0,0:0:0:0:
448,192,78867,1,0,0:0:0:0:
320,192,78935,1,0,0:0:0:0:
192,192,79003,1,0,0:0:0:0:
320,192,79071,1,0,0:0:0:0:
448,192,79139,1,0,0:0:0:0:
192,192,79139,1,0,0:0:0:0:
64,192,79139,1,0,0:0:0:0:
320,192,79208,1,0,0:0:0:0:
192,192,79276,1,0,0:0:0:0:
320,192,79344,1,0,0:0:0:0:
192,192,79412,1,0,0:0:0:0:
448,192,79412,1,0,0:0:0:0:
64,192,79412,1,0,0:0:0:0:
320,192,79480,1,0,0:0:0:0:
192,192,79549,1,0,0:0:0:0:
320,192,79617,1,0,0:0:0:0:
448,192,79685,1,0,0:0:0:0:
192,192,79685,1,0,0:0:0:0:
64,192,79685,1,0,0:0:0:0:
320,192,79753,1,0,0:0:0:0:
192,192,79821,1,0,0:0:0:0:
320,192,79889,1,0,0:0:0:0:
192,192,79958,1,0,0:0:0:0:
448,192,79958,1,0,0:0:0:0:
64,192,79958,1,0,0:0:0:0:
320,192,80026,1,0,0:0:0:0:
192,192,80094,1,0,0:0:0:0:
320,192,80162,1,0,0:0:0:0:
64,192,80230,1,0,0:0:0:0:
192,192,80230,1,0,0:0:0:0:
448,192,80230,1,0,0:0:0:0:
320,192,80299,1,0,0:0:0:0:
192,192,80367,1,0,0:0:0:0:
320,192,80435,1,0,0:0:0:0:
192,192,80503,1,0,0:0:0:0:
448,192,80503,1,0,0:0:0:0:
64,192,80503,1,0,0:0:0:0:
320,192,80571,1,0,0:0:0:0:
192,192,80639,1,0,0:0:0:0:
320,192,80708,1,0,0:0:0:0:
192,192,80776,1,0,0:0:0:0:
448,192,80776,1,0,0:0:0:0:
64,192,80776,1,0,0:0:0:0:
320,192,80844,1,0,0:0:0:0:
192,192,80912,1,0,0:0:0:0:
320,192,80980,1,0,0:0:0:0:
192,192,81049,1,0,0:0:0:0:
64,192,81049,1,0,0:0:0:0:
448,192,81049,1,0,0:0:0:0:
320,192,81117,1,0,0:0:0:0:
192,192,81185,1,0,0:0:0:0:
320,192,81253,1,0,0:0:0:0:
192,192,81321,1,0,0:0:0:0:
64,192,81321,1,0,0:0:0:0:
448,192,81321,1,0,0:0:0:0:
320,192,81389,1,0,0:0:0:0:
192,192,81458,1,0,0:0:0:0:
320,192,81526,1,0,0:0:0:0:
192,192,81594,1,0,0:0:0:0:
448,192,81594,1,0,0:0:0:0:
64,192,81594,1,0,0:0:0:0:
320,192,81662,1,0,0:0:0:0:
192,192,81730,1,0,0:0:0:0:
320,192,81799,1,0,0:0:0:0:
192,192,81867,1,0,0:0:0:0:
64,192,81867,1,0,0:0:0:0:
448,192,81867,1,0,0:0:0:0:
320,192,81935,1,0,0:0:0:0:
192,192,82003,1,0,0:0:0:0:
320,192,82071,1,0,0:0:0:0:
192,192,82139,1,0,0:0:0:0:
448,192,82139,1,0,0:0:0:0:
64,192,82139,1,0,0:0:0:0:
320,192,82208,1,0,0:0:0:0:
192,192,82276,1,0,0:0:0:0:
320,192,82344,1,0,0:0:0:0:
64,192,82412,1,0,0:0:0:0:
192,192,82412,1,0,0:0:0:0:
448,192,82412,1,0,0:0:0:0:
320,192,82480,1,0,0:0:0:0:
192,192,82549,1,0,0:0:0:0:
320,192,82617,1,0,0:0:0:0:
192,192,82685,1,0,0:0:0:0:
64,192,82685,1,0,0:0:0:0:
448,192,82685,1,0,0:0:0:0:
320,192,82753,1,0,0:0:0:0:
192,192,82821,1,0,0:0:0:0:
320,192,82889,1,0,0:0:0:0:
448,192,82958,1,0,0:0:0:0:
192,192,82958,1,0,0:0:0:0:
64,192,82958,1,0,0:0:0:0:
320,192,83026,1,0,0:0:0:0:
192,192,83094,1,0,0:0:0:0:
64,192,83094,1,0,0:0:0:0:
448,192,83094,1,0,0:0:0:0:
320,192,83162,1,0,0:0:0:0:
192,192,83230,1,0,0:0:0:0:
64,192,83230,1,0,0:0:0:0:
448,192,83230,1,0,0:0:0:0:
320,192,83299,1,0,0:0:0:0:
64,192,83367,1,0,0:0:0:0:
448,192,83367,1,0,0:0:0:0:
192,192,83367,1,0,0:0:0:0:
320,192,83435,1,0,0:0:0:0:
192,192,83503,1,0,0:0:0:0:
64,192,83503,1,0,0:0:0:0:
448,192,83503,1,0,0:0:0:0:
320,192,83571,1,0,0:0:0:0:
192,192,83639,1,0,0:0:0:0:
64,192,83639,1,0,0:0:0:0:
448,192,83639,1,0,0:0:0:0:
320,192,83708,1,0,0:0:0:0:
192,192,83776,1,0,0:0:0:0:
448,192,83776,1,0,0:0:0:0:
64,192,83776,1,0,0:0:0:0:
320,192,83844,1,0,0:0:0:0:
192,192,83912,1,0,0:0:0:0:
64,192,83912,1,0,0:0:0:0:
448,192,83912,1,0,0:0:0:0:
320,192,83980,1,0,0:0:0:0:
192,192,84049,1,0,0:0:0:0:
64,192,84049,1,0,0:0:0:0:
448,192,84117,1,0,0:0:0:0:
320,192,84117,1,0,0:0:0:0:
192,192,84185,1,0,0:0:0:0:
64,192,84185,1,0,0:0:0:0:
320,192,84253,1,0,0:0:0:0:
448,192,84253,1,0,0:0:0:0:
192,192,84321,1,0,0:0:0:0:
64,192,84321,1,0,0:0:0:0:
320,192,84389,1,0,0:0:0:0:
448,192,84389,1,0,0:0:0:0:
192,192,84458,1,0,0:0:0:0:
64,192,84458,1,0,0:0:0:0:
320,192,84526,1,0,0:0:0:0:
448,192,84526,1,0,0:0:0:0:
192,192,84594,1,0,0:0:0:0:
64,192,84594,1,0,0:0:0:0:
320,192,84662,1,0,0:0:0:0:
448,192,84662,1,0,0:0:0:0:
192,192,84730,1,0,0:0:0:0:
64,192,84730,1,0,0:0:0:0:
320,192,84799,1,0,0:0:0:0:
448,192,84799,1,0,0:0:0:0:
192,192,84867,1,0,0:0:0:0:
64,192,84867,1,0,0:0:0:0:
320,192,84935,1,0,0:0:0:0:
448,192,84935,1,0,0:0:0:0:
192,192,85003,1,0,0:0:0:0:
64,192,85003,1,0,0:0:0:0:
320,192,85071,1,0,0:0:0:0:
448,192,85071,1,0,0:0:0:0:
192,192,85139,1,0,0:0:0:0:
64,192,85139,1,0,0:0:0:0:
448,192,85344,1,0,0:0:0:0:
320,192,85412,1,0,0:0:0:0:
192,192,85412,1,0,0:0:0:0:
64,192,85617,1,0,0:0:0:0:
192,192,85685,1,0,0:0:0:0:
320,192,85685,1,0,0:0:0:0:
448,192,85889,1,0,0:0:0:0:
320,192,85958,1,0,0:0:0:0:
192,192,85958,1,0,0:0:0:0:
448,192,86026,1,0,0:0:0:0:
64,192,86094,1,0,0:0:0:0:
192,192,86094,1,0,0:0:0:0:
448,192,86162,1,0,0:0:0:0:
192,192,86230,1,0,0:0:0:0:
320,192,86230,1,0,0:0:0:0:
64,192,86299,1,0,0:0:0:0:
320,192,86367,1,0,0:0:0:0:
448,192,86367,1,0,0:0:0:0:
64,192,86435,1,0,0:0:0:0:
320,192,86503,1,0,0:0:0:0:
192,192,86503,1,0,0:0:0:0:
448,192,86571,1,0,0:0:0:0:
192,192,86639,1,0,0:0:0:0:
64,192,86639,1,0,0:0:0:0:
320,192,86708,1,0,0:0:0:0:
64,192,86776,1,0,0:0:0:0:
448,192,86776,1,0,0:0:0:0:
192,192,86776,1,0,0:0:0:0:
64,192,87321,1,0,0:0:0:0:
192,192,87321,1,0,0:0:0:0:
320,192,87321,1,0,0:0:0:0:
448,192,87321,1,0,0:0:0:0:
448,192,87412,1,0,0:0:0:0:
320,192,87412,1,0,0:0:0:0:
192,192,87503,1,0,0:0:0:0:
64,192,87503,1,0,0:0:0:0:
320,192,87594,1,0,0:0:0:0:
448,192,87594,1,0,0:0:0:0:
192,192,87685,1,0,0:0:0:0:
64,192,87685,1,0,0:0:0:0:
320,192,87776,1,0,0:0:0:0:
448,192,87776,1,0,0:0:0:0:
320,192,87867,1,0,0:0:0:0:
448,192,87867,1,0,0:0:0:0:
64,192,87867,128,0,88139:0:0:0:0:
192,192,87867,1,0,0:0:0:0:
192,192,88139,1,0,0:0:0:0:
320,192,88139,1,0,0:0:0:0:
448,192,88139,1,0,0:0:0:0:
448,192,88230,1,0,0:0:0:0:
192,192,88230,1,0,0:0:0:0:
320,192,88321,1,0,0:0:0:0:
64,192,88321,1,0,0:0:0:0:
192,192,88412,1,0,0:0:0:0:
448,192,88412,1,0,0:0:0:0:
64,192,88503,1,0,0:0:0:0:
320,192,88503,1,0,0:0:0:0:
192,192,88594,1,0,0:0:0:0:
448,192,88594,1,0,0:0:0:0:
64,192,88685,1,0,0:0:0:0:
320,192,88685,1,0,0:0:0:0:
448,192,88685,1,0,0:0:0:0:
192,192,88685,1,0,0:0:0:0:
448,192,88776,1,0,0:0:0:0:
320,192,88776,1,0,0:0:0:0:
192,192,88867,1,0,0:0:0:0:
64,192,88867,1,0,0:0:0:0:
448,192,88958,1,0,0:0:0:0:
320,192,88958,1,0,0:0:0:0:
192,192,88958,1,0,0:0:0:0:
64,192,88958,1,0,0:0:0:0:
448,192,89049,1,0,0:0:0:0:
320,192,89049,1,0,0:0:0:0:
192,192,89139,1,0,0:0:0:0:
64,192,89139,1,0,0:0:0:0:
320,192,89230,1,0,0:0:0:0:
448,192,89230,1,0,0:0:0:0:
192,192,89321,1,0,0:0:0:0:
64,192,89321,1,0,0:0:0:0:
320,192,89412,1,0,0:0:0:0:
448,192,89412,1,0,0:0:0:0:
64,192,89503,1,0,0:0:0:0:
192,192,89503,1,0,0:0:0:0:
320,192,89503,1,0,0:0:0:0:
448,192,89503,1,0,0:0:0:0:
192,192,89594,1,0,0:0:0:0:
320,192,89594,1,0,0:0:0:0:
448,192,89685,1,0,0:0:0:0:
64,192,89685,1,0,0:0:0:0:
192,192,89776,1,0,0:0:0:0:
320,192,89776,1,0,0:0:0:0:
448,192,89867,1,0,0:0:0:0:
64,192,89867,1,0,0:0:0:0:
192,192,89958,1,0,0:0:0:0:
320,192,89958,1,0,0:0:0:0:
448,192,90049,1,0,0:0:0:0:
320,192,90049,1,0,0:0:0:0:
192,192,90049,1,0,0:0:0:0:
64,192,90049,1,0,0:0:0:0:
448,192,90139,1,0,0:0:0:0:
64,192,90139,1,0,0:0:0:0:
320,192,90230,1,0,0:0:0:0:
192,192,90230,1,0,0:0:0:0:
64,192,90321,1,0,0:0:0:0:
192,192,90321,1,0,0:0:0:0:
320,192,90321,1,0,0:0:0:0:
448,192,90321,1,0,0:0:0:0:
448,192,90412,1,0,0:0:0:0:
320,192,90412,1,0,0:0:0:0:
192,192,90503,1,0,0:0:0:0:
64,192,90503,1,0,0:0:0:0:
320,192,90594,1,0,0:0:0:0:
448,192,90594,1,0,0:0:0:0:
192,192,90685,1,0,0:0:0:0:
64,192,90685,1,0,0:0:0:0:
448,192,90776,1,0,0:0:0:0:
320,192,90776,1,0,0:0:0:0:
192,192,90867,1,0,0:0:0:0:
64,192,90867,1,0,0:0:0:0:
320,192,90867,1,0,0:0:0:0:
448,192,90867,1,0,0:0:0:0:
64,192,90958,1,0,0:0:0:0:
320,192,90958,1,0,0:0:0:0:
192,192,91049,1,0,0:0:0:0:
448,192,91049,1,0,0:0:0:0:
448,192,91139,1,0,0:0:0:0:
320,192,91139,1,0,0:0:0:0:
64,192,91139,1,0,0:0:0:0:
192,192,91139,1,0,0:0:0:0:
64,192,91230,1,0,0:0:0:0:
192,192,91230,1,0,0:0:0:0:
448,192,91321,1,0,0:0:0:0:
320,192,91321,1,0,0:0:0:0:
192,192,91412,1,0,0:0:0:0:
64,192,91412,1,0,0:0:0:0:
320,192,91503,1,0,0:0:0:0:
448,192,91503,1,0,0:0:0:0:
192,192,91594,1,0,0:0:0:0:
64,192,91594,1,0,0:0:0:0:
64,192,91685,1,0,0:0:0:0:
320,192,91685,1,0,0:0:0:0:
192,192,91685,1,0,0:0:0:0:
448,192,91685,1,0,0:0:0:0:
448,192,91776,1,0,0:0:0:0:
192,192,91776,1,0,0:0:0:0:
64,192,91867,1,0,0:0:0:0:
320,192,91867,1,0,0:0:0:0:
192,192,91958,1,0,0:0:0:0:
448,192,91958,1,0,0:0:0:0:
64,192,92049,1,0,0:0:0:0:
320,192,92049,1,0,0:0:0:0:
192,192,92139,1,0,0:0:0:0:
448,192,92139,1,0,0:0:0:0:
192,192,92230,1,0,0:0:0:0:
448,192,92230,1,0,0:0:0:0:
64,192,92230,128,0,92503:0:0:0:0:
320,192,92230,1,0,0:0:0:0:
448,192,92503,1,0,0:0:0:0:
320,192,92503,1,0,0:0:0:0:
192,192,92503,1,0,0:0:0:0:
320,192,92571,1,0,0:0:0:0:
192,192,92639,1,0,0:0:0:0:
64,192,92708,1,0,0:0:0:0:
448,192,92776,1,0,0:0:0:0:
320,192,92844,1,0,0:0:0:0:
192,192,92912,1,0,0:0:0:0:
64,192,92980,1,0,0:0:0:0:
448,192,93049,1,0,0:0:0:0:
192,192,93049,1,0,0:0:0:0:
320,192,93049,1,0,0:0:0:0:
64,192,93117,1,0,0:0:0:0:
192,192,93185,1,0,0:0:0:0:
320,192,93253,1,0,0:0:0:0:
448,192,93321,1,0,0:0:0:0:
192,192,93321,1,0,0:0:0:0:
64,192,93321,1,0,0:0:0:0:
320,192,93389,1,0,0:0:0:0:
192,192,93458,1,0,0:0:0:0:
64,192,93526,1,0,0:0:0:0:
448,192,93594,1,0,0:0:0:0:
320,192,93662,1,0,0:0:0:0:
64,192,93730,1,0,0:0:0:0:
192,192,93799,1,0,0:0:0:0:
448,192,93867,1,0,0:0:0:0:
64,192,93867,1,0,0:0:0:0:
320,192,93867,1,0,0:0:0:0:
192,192,93935,1,0,0:0:0:0:
320,192,94003,1,0,0:0:0:0:
448,192,94071,1,0,0:0:0:0:
192,192,94139,1,0,0:0:0:0:
320,192,94208,1,0,0:0:0:0:
64,192,94276,1,0,0:0:0:0:
192,192,94344,1,0,0:0:0:0:
320,192,94412,1,0,0:0:0:0:
64,192,94412,1,0,0:0:0:0:
448,192,94412,1,0,0:0:0:0:
192,192,94480,1,0,0:0:0:0:
320,192,94549,1,0,0:0:0:0:
64,192,94617,1,0,0:0:0:0:
448,192,94685,1,0,0:0:0:0:
192,192,94685,1,0,0:0:0:0:
320,192,94685,1,0,0:0:0:0:
64,192,94753,1,0,0:0:0:0:
192,192,94821,1,0,0:0:0:0:
320,192,94889,1,0,0:0:0:0:
192,192,94958,1,0,0:0:0:0:
448,192,95026,1,0,0:0:0:0:
320,192,95094,1,0,0:0:0:0:
192,192,95162,1,0,0:0:0:0:
64,192,95230,1,0,0:0:0:0:
448,192,95230,1,0,0:0:0:0:
320,192,95230,1,0,0:0:0:0:
192,192,95299,1,0,0:0:0:0:
320,192,95367,1,0,0:0:0:0:
192,192,95435,1,0,0:0:0:0:
64,192,95503,1,0,0:0:0:0:
320,192,95503,1,0,0:0:0:0:
448,192,95503,1,0,0:0:0:0:
192,192,95571,1,0,0:0:0:0:
448,192,95639,128,0,95776:0:0:0:0:
320,192,95639,128,0,95776:0:0:0:0:
192,192,95776,128,0,95912:0:0:0:0:
64,192,95776,128,0,95912:0:0:0:0:
320,192,95912,128,0,96049:0:0:0:0:
448,192,95912,128,0,96049:0:0:0:0:
64,192,96049,1,0,0:0:0:0:
192,192,96049,1,0,0:0:0:0:
448,192,96139,1,0,0:0:0:0:
320,192,96139,1,0,0:0:0:0:
192,192,96230,1,0,0:0:0:0:
64,192,96230,1,0,0:0:0:0:
320,192,96321,1,0,0:0:0:0:
448,192,96321,1,0,0:0:0:0:
192,192,96412,1,0,0:0:0:0:
64,192,96412,1,0,0:0:0:0:
320,192,96503,1,0,0:0:0:0:
448,192,96503,1,0,0:0:0:0:
320,192,96594,1,0,0:0:0:0:
192,192,96594,1,0,0:0:0:0:
64,192,96594,128,0,96867:0:0:0:0:
448,192,96594,1,0,0:0:0:0:
192,192,96867,1,0,0:0:0:0:
320,192,96867,1,0,0:0:0:0:
64,192,96958,1,0,0:0:0:0:
448,192,96958,1,0,0:0:0:0:
320,192,97049,1,0,0:0:0:0:
192,192,97049,1,0,0:0:0:0:
64,192,97139,1,0,0:0:0:0:
448,192,97139,1,0,0:0:0:0:
320,192,97230,1,0,0:0:0:0:
192,192,97230,1,0,0:0:0:0:
448,192,97321,1,0,0:0:0:0:
64,192,97321,1,0,0:0:0:0:
192,192,97412,1,0,0:0:0:0:
320,192,97412,1,0,0:0:0:0:
448,192,97412,1,0,0:0:0:0:
64,192,97412,1,0,0:0:0:0:
448,192,97503,1,0,0:0:0:0:
320,192,97503,1,0,0:0:0:0:
64,192,97594,1,0,0:0:0:0:
192,192,97594,1,0,0:0:0:0:
448,192,97685,1,0,0:0:0:0:
320,192,97685,1,0,0:0:0:0:
192,192,97685,1,0,0:0:0:0:
64,192,97685,1,0,0:0:0:0:
448,192,97776,1,0,0:0:0:0:
192,192,97776,1,0,0:0:0:0:
64,192,97867,1,0,0:0:0:0:
320,192,97867,1,0,0:0:0:0:
192,192,97958,1,0,0:0:0:0:
448,192,97958,1,0,0:0:0:0:
64,192,98049,1,0,0:0:0:0:
320,192,98049,1,0,0:0:0:0:
192,192,98139,1,0,0:0:0:0:
448,192,98139,1,0,0:0:0:0:
448,192,98230,1,0,0:0:0:0:
320,192,98230,1,0,0:0:0:0:
192,192,98230,1,0,0:0:0:0:
64,192,98230,1,0,0:0:0:0:
320,192,98321,1,0,0:0:0:0:
192,192,98321,1,0,0:0:0:0:
64,192,98412,1,0,0:0:0:0:
448,192,98412,1,0,0:0:0:0:
320,192,98503,1,0,0:0:0:0:
192,192,98503,1,0,0:0:0:0:
448,192,98594,1,0,0:0:0:0:
64,192,98594,1,0,0:0:0:0:
192,192,98685,1,0,0:0:0:0:
320,192,98685,1,0,0:0:0:0:
448,192,98776,1,0,0:0:0:0:
320,192,98776,1,0,0:0:0:0:
192,192,98776,1,0,0:0:0:0:
64,192,98776,1,0,0:0:0:0:
64,192,98867,1,0,0:0:0:0:
192,192,98867,1,0,0:0:0:0:
320,192,98958,1,0,0:0:0:0:
448,192,98958,1,0,0:0:0:0:
64,192,99049,1,0,0:0:0:0:
320,192,99049,1,0,0:0:0:0:
448,192,99049,1,0,0:0:0:0:
192,192,99049,1,0,0:0:0:0:
64,192,99139,1,0,0:0:0:0:
192,192,99139,1,0,0:0:0:0:
448,192,99230,1,0,0:0:0:0:
320,192,99230,1,0,0:0:0:0:
192,192,99321,1,0,0:0:0:0:
64,192,99321,1,0,0:0:0:0:
320,192,99412,1,0,0:0:0:0:
448,192,99412,1,0,0:0:0:0:
192,192,99503,1,0,0:0:0:0:
64,192,99503,1,0,0:0:0:0:
192,192,99594,1,0,0:0:0:0:
64,192,99594,1,0,0:0:0:0:
320,192,99594,1,0,0:0:0:0:
448,192,99594,1,0,0:0:0:0:
448,192,99685,1,0,0:0:0:0:
192,192,99685,1,0,0:0:0:0:
64,192,99776,1,0,0:0:0:0:
320,192,99776,1,0,0:0:0:0:
192,192,99867,1,0,0:0:0:0:
448,192,99867,1,0,0:0:0:0:
320,192,99867,1,0,0:0:0:0:
64,192,99867,1,0,0:0:0:0:
64,192,99958,1,0,0:0:0:0:
320,192,99958,1,0,0:0:0:0:
192,192,100049,1,0,0:0:0:0:
448,192,100049,1,0,0:0:0:0:
64,192,100139,1,0,0:0:0:0:
320,192,100139,1,0,0:0:0:0:
192,192,100230,1,0,0:0:0:0:
448,192,100230,1,0,0:0:0:0:
64,192,100321,1,0,0:0:0:0:
320,192,100321,1,0,0:0:0:0:
64,192,100412,1,0,0:0:0:0:
192,192,100412,1,0,0:0:0:0:
320,192,100412,1,0,0:0:0:0:
448,192,100412,1,0,0:0:0:0:
448,192,100503,1,0,0:0:0:0:
320,192,100503,1,0,0:0:0:0:
192,192,100594,1,0,0:0:0:0:
64,192,100594,1,0,0:0:0:0:
320,192,100685,1,0,0:0:0:0:
448,192,100685,1,0,0:0:0:0:
192,192,100776,1,0,0:0:0:0:
64,192,100776,1,0,0:0:0:0:
320,192,100867,1,0,0:0:0:0:
448,192,100867,1,0,0:0:0:0:
320,192,100958,1,0,0:0:0:0:
448,192,100958,1,0,0:0:0:0:
192,192,100958,1,0,0:0:0:0:
64,192,100958,128,0,101230:0:0:0:0:
192,192,101230,1,0,0:0:0:0:
320,192,101230,1,0,0:0:0:0:
448,192,101230,1,0,0:0:0:0:
64,192,101299,1,0,0:0:0:0:
192,192,101367,1,0,0:0:0:0:
320,192,101435,1,0,0:0:0:0:
448,192,101503,1,0,0:0:0:0:
192,192,101571,1,0,0:0:0:0:
320,192,101639,1,0,0:0:0:0:
448,192,101708,1,0,0:0:0:0:
320,192,101776,1,0,0:0:0:0:
192,192,101776,1,0,0:0:0:0:
64,192,101776,1,0,0:0:0:0:
448,192,101844,1,0,0:0:0:0:
320,192,101912,1,0,0:0:0:0:
192,192,101980,1,0,0:0:0:0:
64,192,102049,1,0,0:0:0:0:
320,192,102049,1,0,0:0:0:0:
448,192,102049,1,0,0:0:0:0:
192,192,102117,1,0,0:0:0:0:
320,192,102185,1,0,0:0:0:0:
448,192,102253,1,0,0:0:0:0:
320,192,102321,1,0,0:0:0:0:
192,192,102389,1,0,0:0:0:0:
64,192,102458,1,0,0:0:0:0:
192,192,102526,1,0,0:0:0:0:
320,192,102594,1,0,0:0:0:0:
448,192,102594,1,0,0:0:0:0:
64,192,102594,1,0,0:0:0:0:
192,192,102662,1,0,0:0:0:0:
320,192,102730,1,0,0:0:0:0:
448,192,102799,1,0,0:0:0:0:
64,192,102867,1,0,0:0:0:0:
192,192,102935,1,0,0:0:0:0:
320,192,103003,1,0,0:0:0:0:
448,192,103071,1,0,0:0:0:0:
192,192,103139,1,0,0:0:0:0:
64,192,103139,1,0,0:0:0:0:
320,192,103139,1,0,0:0:0:0:
448,192,103208,1,0,0:0:0:0:
320,192,103276,1,0,0:0:0:0:
192,192,103344,1,0,0:0:0:0:
64,192,103412,1,0,0:0:0:0:
448,192,103412,1,0,0:0:0:0:
320,192,103412,1,0,0:0:0:0:
192,192,103480,1,0,0:0:0:0:
320,192,103549,1,0,0:0:0:0:
64,192,103617,5,0,0:0:0:0:
192,192,103685,1,0,0:0:0:0:
448,192,103753,1,0,0:0:0:0:
320,192,103821,1,0,0:0:0:0:
64,192,103889,1,0,0:0:0:0:
192,192,103958,1,0,0:0:0:0:
448,192,103958,1,0,0:0:0:0:
320,192,103958,1,0,0:0:0:0:
64,192,104026,1,0,0:0:0:0:
192,192,104094,1,0,0:0:0:0:
320,192,104094,1,0,0:0:0:0:
448,192,104094,1,0,0:0:0:0:
64,192,104162,1,0,0:0:0:0:
192,192,104230,1,0,0:0:0:0:
320,192,104230,1,0,0:0:0:0:
448,192,104230,1,0,0:0:0:0:
192,192,104367,1,0,0:0:0:0:
64,192,104367,1,0,0:0:0:0:
320,192,104503,1,0,0:0:0:0:
448,192,104503,1,0,0:0:0:0:
320,192,104639,1,0,0:0:0:0:
192,192,104639,1,0,0:0:0:0:
448,192,104776,128,0,105321:0:0:0:0:
64,192,104776,1,0,0:0:0:0:
192,192,104776,1,0,0:0:0:0:
320,192,104878,1,0,0:0:0:0:
192,192,104946,1,0,0:0:0:0:
64,192,105014,1,0,0:0:0:0:
192,192,105083,1,0,0:0:0:0:
320,192,105185,1,0,0:0:0:0:
192,192,105185,1,0,0:0:0:0:
64,192,105321,128,0,105867:0:0:0:0:
192,192,105321,1,0,0:0:0:0:
320,192,105321,1,0,0:0:0:0:
320,192,105594,1,0,0:0:0:0:
448,192,105594,1,0,0:0:0:0:
192,192,105662,1,0,0:0:0:0:
448,192,105730,1,0,0:0:0:0:
320,192,105799,1,0,0:0:0:0:
320,192,105867,128,0,106412:0:0:0:0:
448,192,105867,1,0,0:0:0:0:
192,192,105867,1,0,0:0:0:0:
64,192,105935,1,0,0:0:0:0:
192,192,106003,1,0,0:0:0:0:
448,192,106071,1,0,0:0:0:0:
64,192,106139,1,0,0:0:0:0:
448,192,106208,1,0,0:0:0:0:
192,192,106276,1,0,0:0:0:0:
64,192,106276,1,0,0:0:0:0:
448,192,106344,1,0,0:0:0:0:
448,192,106412,128,0,106958:0:0:0:0:
64,192,106412,1,0,0:0:0:0:
192,192,106412,1,0,0:0:0:0:
320,192,106480,1,0,0:0:0:0:
192,192,106549,1,0,0:0:0:0:
64,192,106617,1,0,0:0:0:0:
192,192,106685,1,0,0:0:0:0:
320,192,106685,1,0,0:0:0:0:
64,192,106753,1,0,0:0:0:0:
192,192,106821,1,0,0:0:0:0:
64,192,106889,1,0,0:0:0:0:
64,192,106958,128,0,107503:0:0:0:0:
192,192,106958,1,0,0:0:0:0:
320,192,106958,1,0,0:0:0:0:
448,192,107026,1,0,0:0:0:0:
320,192,107094,1,0,0:0:0:0:
192,192,107162,1,0,0:0:0:0:
448,192,107230,1,0,0:0:0:0:
320,192,107299,1,0,0:0:0:0:
448,192,107367,1,0,0:0:0:0:
192,192,107367,1,0,0:0:0:0:
320,192,107435,1,0,0:0:0:0:
320,192,107503,128,0,108049:0:0:0:0:
192,192,107503,1,0,0:0:0:0:
448,192,107503,1,0,0:0:0:0:
64,192,107571,1,0,0:0:0:0:
192,192,107639,1,0,0:0:0:0:
448,192,107708,1,0,0:0:0:0:
192,192,107776,1,0,0:0:0:0:
64,192,107776,1,0,0:0:0:0:
448,192,107844,1,0,0:0:0:0:
192,192,107912,1,0,0:0:0:0:
448,192,107980,1,0,0:0:0:0:
448,192,108049,128,0,108594:0:0:0:0:
64,192,108049,1,0,0:0:0:0:
192,192,108049,1,0,0:0:0:0:
320,192,108117,1,0,0:0:0:0:
192,192,108185,1,0,0:0:0:0:
64,192,108253,1,0,0:0:0:0:
192,192,108321,1,0,0:0:0:0:
64,192,108389,1,0,0:0:0:0:
192,192,108458,1,0,0:0:0:0:
320,192,108458,1,0,0:0:0:0:
64,192,108526,1,0,0:0:0:0:
64,192,108594,128,0,109139:0:0:0:0:
192,192,108594,1,0,0:0:0:0:
320,192,108594,1,0,0:0:0:0:
448,192,108662,1,0,0:0:0:0:
192,192,108730,1,0,0:0:0:0:
320,192,108799,1,0,0:0:0:0:
448,192,108867,1,0,0:0:0:0:
192,192,108867,1,0,0:0:0:0:
320,192,108935,1,0,0:0:0:0:
448,192,109003,1,0,0:0:0:0:
320,192,109071,1,0,0:0:0:0:
320,192,109139,128,0,109685:0:0:0:0:
192,192,109139,1,0,0:0:0:0:
448,192,109139,1,0,0:0:0:0:
64,192,109276,1,0,0:0:0:0:
192,192,109344,1,0,0:0:0:0:
448,192,109446,1,0,0:0:0:0:
192,192,109549,1,0,0:0:0:0:
64,192,109549,1,0,0:0:0:0:
448,192,109617,1,0,0:0:0:0:
448,192,109685,128,0,110230:0:0:0:0:
64,192,109685,1,0,0:0:0:0:
192,192,109685,1,0,0:0:0:0:
320,192,109958,1,0,0:0:0:0:
64,192,109958,1,0,0:0:0:0:
192,192,110026,1,0,0:0:0:0:
64,192,110094,1,0,0:0:0:0:
192,192,110162,1,0,0:0:0:0:
192,192,110230,128,0,110776:0:0:0:0:
64,192,110230,1,0,0:0:0:0:
320,192,110230,1,0,0:0:0:0:
448,192,110299,1,0,0:0:0:0:
320,192,110367,1,0,0:0:0:0:
64,192,110435,1,0,0:0:0:0:
448,192,110503,1,0,0:0:0:0:
320,192,110571,1,0,0:0:0:0:
448,192,110639,1,0,0:0:0:0:
64,192,110639,1,0,0:0:0:0:
320,192,110708,1,0,0:0:0:0:
320,192,110776,128,0,111321:0:0:0:0:
64,192,110776,1,0,0:0:0:0:
448,192,110776,1,0,0:0:0:0:
192,192,110844,1,0,0:0:0:0:
64,192,110912,1,0,0:0:0:0:
192,192,110980,1,0,0:0:0:0:
64,192,111049,1,0,0:0:0:0:
448,192,111049,1,0,0:0:0:0:
192,192,111117,1,0,0:0:0:0:
448,192,111185,1,0,0:0:0:0:
192,192,111253,1,0,0:0:0:0:
192,192,111321,128,0,111867:0:0:0:0:
448,192,111321,1,0,0:0:0:0:
64,192,111321,1,0,0:0:0:0:
320,192,111389,1,0,0:0:0:0:
448,192,111458,1,0,0:0:0:0:
320,192,111526,1,0,0:0:0:0:
64,192,111594,1,0,0:0:0:0:
448,192,111662,1,0,0:0:0:0:
320,192,111730,1,0,0:0:0:0:
64,192,111730,1,0,0:0:0:0:
448,192,111799,1,0,0:0:0:0:
448,192,111867,128,0,112412:0:0:0:0:
64,192,111867,1,0,0:0:0:0:
320,192,111867,1,0,0:0:0:0:
192,192,111935,1,0,0:0:0:0:
320,192,112003,1,0,0:0:0:0:
192,192,112071,1,0,0:0:0:0:
320,192,112139,1,0,0:0:0:0:
64,192,112139,1,0,0:0:0:0:
192,192,112208,1,0,0:0:0:0:
64,192,112276,1,0,0:0:0:0:
192,192,112344,1,0,0:0:0:0:
192,192,112412,128,0,112958:0:0:0:0:
320,192,112412,1,0,0:0:0:0:
64,192,112412,1,0,0:0:0:0:
448,192,112480,1,0,0:0:0:0:
320,192,112549,1,0,0:0:0:0:
448,192,112617,1,0,0:0:0:0:
64,192,112685,1,0,0:0:0:0:
320,192,112753,1,0,0:0:0:0:
448,192,112821,1,0,0:0:0:0:
64,192,112821,1,0,0:0:0:0:
320,192,112889,1,0,0:0:0:0:
320,192,112958,128,0,113503:0:0:0:0:
64,192,112958,1,0,0:0:0:0:
448,192,112958,1,0,0:0:0:0:
192,192,113094,1,0,0:0:0:0:
448,192,113094,1,0,0:0:0:0:
448,192,113230,1,0,0:0:0:0:
64,192,113230,1,0,0:0:0:0:
64,192,113367,1,0,0:0:0:0:
192,192,113435,1,0,0:0:0:0:
64,192,113503,128,0,113776:0:0:0:0:
448,192,113503,1,0,0:0:0:0:
192,192,113571,1,0,0:0:0:0:
448,192,113639,1,0,0:0:0:0:
192,192,113708,1,0,0:0:0:0:
448,192,113776,128,0,114049:0:0:0:0:
320,192,113776,1,0,0:0:0:0:
64,192,113844,1,0,0:0:0:0:
320,192,113912,1,0,0:0:0:0:
64,192,113980,1,0,0:0:0:0:
192,192,114049,128,0,114321:0:0:0:0:
320,192,114049,1,0,0:0:0:0:
448,192,114117,1,0,0:0:0:0:
320,192,114185,1,0,0:0:0:0:
64,192,114253,1,0,0:0:0:0:
448,192,114321,128,0,114594:0:0:0:0:
320,192,114321,1,0,0:0:0:0:
64,192,114389,1,0,0:0:0:0:
320,192,114458,1,0,0:0:0:0:
192,192,114526,1,0,0:0:0:0:
64,192,114594,128,0,114867:0:0:0:0:
320,192,114594,1,0,0:0:0:0:
192,192,114662,1,0,0:0:0:0:
320,192,114730,1,0,0:0:0:0:
448,192,114799,1,0,0:0:0:0:
320,192,114867,128,0,115139:0:0:0:0:
192,192,114867,1,0,0:0:0:0:
64,192,114935,1,0,0:0:0:0:
192,192,115003,1,0,0:0:0:0:
64,192,115071,1,0,0:0:0:0:
448,192,115139,128,0,115412:0:0:0:0:
192,192,115139,1,0,0:0:0:0:
320,192,115208,1,0,0:0:0:0:
192,192,115276,1,0,0:0:0:0:
320,192,115344,1,0,0:0:0:0:
64,192,115412,128,0,115685:0:0:0:0:
192,192,115412,1,0,0:0:0:0:
320,192,115480,1,0,0:0:0:0:
448,192,115549,1,0,0:0:0:0:
320,192,115617,1,0,0:0:0:0:
192,192,115685,128,0,115958:0:0:0:0:
448,192,115685,1,0,0:0:0:0:
320,192,115753,1,0,0:0:0:0:
64,192,115821,1,0,0:0:0:0:
320,192,115889,1,0,0:0:0:0:
448,192,115958,128,0,116230:0:0:0:0:
64,192,115958,1,0,0:0:0:0:
192,192,116026,1,0,0:0:0:0:
320,192,116094,1,0,0:0:0:0:
64,192,116162,1,0,0:0:0:0:
192,192,116230,128,0,116503:0:0:0:0:
320,192,116230,1,0,0:0:0:0:
64,192,116299,1,0,0:0:0:0:
320,192,116367,1,0,0:0:0:0:
448,192,116435,1,0,0:0:0:0:
320,192,116503,128,0,116776:0:0:0:0:
64,192,116503,1,0,0:0:0:0:
192,192,116571,1,0,0:0:0:0:
448,192,116639,1,0,0:0:0:0:
192,192,116708,1,0,0:0:0:0:
448,192,116776,128,0,117049:0:0:0:0:
64,192,116776,1,0,0:0:0:0:
192,192,116844,1,0,0:0:0:0:
320,192,116912,1,0,0:0:0:0:
192,192,116980,1,0,0:0:0:0:
64,192,117049,128,0,117321:0:0:0:0:
320,192,117049,1,0,0:0:0:0:
192,192,117117,1,0,0:0:0:0:
320,192,117185,1,0,0:0:0:0:
448,192,117253,1,0,0:0:0:0:
320,192,117321,128,0,117594:0:0:0:0:
192,192,117321,1,0,0:0:0:0:
64,192,117389,1,0,0:0:0:0:
448,192,117458,1,0,0:0:0:0:
64,192,117526,1,0,0:0:0:0:
448,192,117594,128,0,117867:0:0:0:0:
192,192,117594,1,0,0:0:0:0:
64,192,117662,1,0,0:0:0:0:
192,192,117730,1,0,0:0:0:0:
320,192,117799,1,0,0:0:0:0:
64,192,117867,128,0,118003:0:0:0:0:
192,192,117867,1,0,0:0:0:0:
320,192,117935,1,0,0:0:0:0:
192,192,118003,128,0,118139:0:0:0:0:
448,192,118003,1,0,0:0:0:0:
320,192,118071,1,0,0:0:0:0:
320,192,118139,128,0,118276:0:0:0:0:
64,192,118139,1,0,0:0:0:0:
192,192,118208,1,0,0:0:0:0:
448,192,118276,128,0,118412:0:0:0:0:
64,192,118276,1,0,0:0:0:0:
192,192,118344,1,0,0:0:0:0:
64,192,118412,128,0,118549:0:0:0:0:
320,192,118412,1,0,0:0:0:0:
448,192,118480,1,0,0:0:0:0:
192,192,118549,128,0,118685:0:0:0:0:
320,192,118549,1,0,0:0:0:0:
448,192,118617,1,0,0:0:0:0:
320,192,118685,128,0,118821:0:0:0:0:
64,192,118685,1,0,0:0:0:0:
192,192,118753,1,0,0:0:0:0:
448,192,118821,128,0,118958:0:0:0:0:
64,192,118821,1,0,0:0:0:0:
192,192,118889,1,0,0:0:0:0:
64,192,118958,128,0,119094:0:0:0:0:
320,192,118958,1,0,0:0:0:0:
448,192,119026,1,0,0:0:0:0:
192,192,119094,128,0,119230:0:0:0:0:
320,192,119094,1,0,0:0:0:0:
64,192,119162,1,0,0:0:0:0:
320,192,119230,128,0,119367:0:0:0:0:
448,192,119230,1,0,0:0:0:0:
64,192,119299,1,0,0:0:0:0:
448,192,119367,128,0,119503:0:0:0:0:
192,192,119367,1,0,0:0:0:0:
320,192,119435,1,0,0:0:0:0:
64,192,119503,128,0,119639:0:0:0:0:
192,192,119503,1,0,0:0:0:0:
320,192,119571,1,0,0:0:0:0:
192,192,119639,128,0,119776:0:0:0:0:
448,192,119639,1,0,0:0:0:0:
320,192,119708,1,0,0:0:0:0:
320,192,119776,128,0,119912:0:0:0:0:
64,192,119776,1,0,0:0:0:0:
192,192,119844,1,0,0:0:0:0:
448,192,119912,128,0,120049:0:0:0:0:
64,192,119912,1,0,0:0:0:0:
320,192,119980,1,0,0:0:0:0:
64,192,120049,1,0,0:0:0:0:
192,192,120083,1,0,0:0:0:0:
448,192,120117,1,0,0:0:0:0:
320,192,120151,1,0,0:0:0:0:
64,192,120185,1,0,0:0:0:0:
192,192,120219,1,0,0:0:0:0:
448,192,120253,1,0,0:0:0:0:
320,192,120287,1,0,0:0:0:0:
64,192,120321,1,0,0:0:0:0:
192,192,120355,1,0,0:0:0:0:
448,192,120389,1,0,0:0:0:0:
320,192,120424,1,0,0:0:0:0:
64,192,120458,1,0,0:0:0:0:
192,192,120492,1,0,0:0:0:0:
448,192,120526,1,0,0:0:0:0:
320,192,120560,1,0,0:0:0:0:
64,192,120594,1,0,0:0:0:0:
192,192,120628,1,0,0:0:0:0:
448,192,120662,1,0,0:0:0:0:
320,192,120696,1,0,0:0:0:0:
64,192,120730,1,0,0:0:0:0:
192,192,120764,1,0,0:0:0:0:
448,192,120799,1,0,0:0:0:0:
320,192,120833,1,0,0:0:0:0:
64,192,120867,1,0,0:0:0:0:
192,192,120901,1,0,0:0:0:0:
448,192,120935,1,0,0:0:0:0:
320,192,120969,1,0,0:0:0:0:
64,192,121003,1,0,0:0:0:0:
192,192,121037,1,0,0:0:0:0:
448,192,121071,1,0,0:0:0:0:
320,192,121105,1,0,0:0:0:0:
64,192,121139,1,0,0:0:0:0:
192,192,121174,1,0,0:0:0:0:
448,192,121208,1,0,0:0:0:0:
320,192,121242,1,0,0:0:0:0:
64,192,121276,1,0,0:0:0:0:
192,192,121310,1,0,0:0:0:0:
448,192,121344,1,0,0:0:0:0:
320,192,121378,1,0,0:0:0:0:
64,192,121412,1,0,0:0:0:0:
192,192,121446,1,0,0:0:0:0:
448,192,121480,1,0,0:0:0:0:
320,192,121514,1,0,0:0:0:0:
64,192,121549,1,0,0:0:0:0:
192,192,121583,1,0,0:0:0:0:
320,192,121617,1,0,0:0:0:0:
448,192,121651,1,0,0:0:0:0:
320,192,121685,1,0,0:0:0:0:
64,192,121685,128,0,122230:0:0:0:0:
192,192,121685,1,0,0:0:0:0:
448,192,121821,1,0,0:0:0:0:
320,192,121821,1,0,0:0:0:0:
192,192,121958,1,0,0:0:0:0:
320,192,121958,1,0,0:0:0:0:
448,192,122094,1,0,0:0:0:0:
320,192,122094,1,0,0:0:0:0:
320,192,122230,1,0,0:0:0:0:
448,192,122230,1,0,0:0:0:0:
192,192,122230,128,0,124549:0:0:0:0:
448,192,124549,128,0,126662:0:0:0:0:
192,192,125639,128,0,126662:0:0:0:0:
64,192,126662,128,0,127821:0:0:0:0:
320,192,127821,128,0,128844:0:0:0:0:
448,192,128844,128,0,130003:0:0:0:0:
320,192,130003,128,0,131162:0:0:0:0:
192,192,131162,128,0,132185:0:0:0:0:
448,192,132185,128,0,133276:0:0:0:0:
64,192,133276,128,0,134367:0:0:0:0:
192,192,134367,128,0,135458:0:0:0:0:
448,192,135458,128,0,137639:0:0:0:0:
64,192,137639,128,0,139821:0:0:0:0:
192,192,138730,128,0,139821:0:0:0:0:
320,192,139685,1,0,0:0:0:0:
448,192,139821,128,0,142003:0:0:0:0:
320,192,139958,1,0,0:0:0:0:
192,192,140094,1,0,0:0:0:0:
64,192,140230,1,0,0:0:0:0:
192,192,140367,1,0,0:0:0:0:
320,192,140503,1,0,0:0:0:0:
192,192,140639,1,0,0:0:0:0:
64,192,140776,1,0,0:0:0:0:
192,192,140912,1,0,0:0:0:0:
320,192,141049,1,0,0:0:0:0:
192,192,141185,1,0,0:0:0:0:
64,192,141321,1,0,0:0:0:0:
192,192,141458,1,0,0:0:0:0:
320,192,141594,1,0,0:0:0:0:
64,192,141730,1,0,0:0:0:0:
320,192,141867,1,0,0:0:0:0:
192,192,142003,128,0,144185:0:0:0:0:
320,192,142139,1,0,0:0:0:0:
448,192,142276,1,0,0:0:0:0:
320,192,142412,1,0,0:0:0:0:
64,192,142549,1,0,0:0:0:0:
448,192,142685,1,0,0:0:0:0:
320,192,142821,1,0,0:0:0:0:
64,192,142958,1,0,0:0:0:0:
320,192,143094,1,0,0:0:0:0:
64,192,143230,1,0,0:0:0:0:
448,192,143367,128,0,144185:0:0:0:0:
64,192,143503,1,0,0:0:0:0:
320,192,143639,1,0,0:0:0:0:
64,192,143776,1,0,0:0:0:0:
320,192,143912,1,0,0:0:0:0:
64,192,144049,1,0,0:0:0:0:
320,192,144185,128,0,145276:0:0:0:0:
448,192,144321,1,0,0:0:0:0:
192,192,144458,1,0,0:0:0:0:
64,192,144594,1,0,0:0:0:0:
448,192,144730,1,0,0:0:0:0:
192,192,144867,1,0,0:0:0:0:
64,192,145003,1,0,0:0:0:0:
192,192,145139,1,0,0:0:0:0:
448,192,145276,128,0,146639:0:0:0:0:
192,192,145412,1,0,0:0:0:0:
320,192,145549,1,0,0:0:0:0:
192,192,145685,1,0,0:0:0:0:
64,192,145821,1,0,0:0:0:0:
320,192,145958,1,0,0:0:0:0:
64,192,146094,1,0,0:0:0:0:
192,192,146230,1,0,0:0:0:0:
64,192,146367,1,0,0:0:0:0:
192,192,146503,1,0,0:0:0:0:
64,192,146639,128,0,148003:0:0:0:0:
320,192,146776,1,0,0:0:0:0:
448,192,146912,1,0,0:0:0:0:
192,192,147049,1,0,0:0:0:0:
320,192,147185,1,0,0:0:0:0:
448,192,147321,1,0,0:0:0:0:
192,192,147458,1,0,0:0:0:0:
320,192,147594,1,0,0:0:0:0:
448,192,147730,1,0,0:0:0:0:
192,192,147867,1,0,0:0:0:0:
320,192,148003,128,0,150185:0:0:0:0:
448,192,148139,1,0,0:0:0:0:
192,192,148276,1,0,0:0:0:0:
448,192,148412,1,0,0:0:0:0:
64,192,148549,128,0,150185:0:0:0:0:
448,192,148685,1,0,0:0:0:0:
192,192,148821,1,0,0:0:0:0:
448,192,148958,1,0,0:0:0:0:
192,192,149094,1,0,0:0:0:0:
448,192,149230,1,0,0:0:0:0:
192,192,149367,1,0,0:0:0:0:
448,192,149503,1,0,0:0:0:0:
192,192,149639,1,0,0:0:0:0:
448,192,149776,1,0,0:0:0:0:
192,192,149912,1,0,0:0:0:0:
448,192,150049,1,0,0:0:0:0:
448,192,150185,128,0,151003:0:0:0:0:
64,192,150321,1,0,0:0:0:0:
192,192,150458,1,0,0:0:0:0:
320,192,150594,1,0,0:0:0:0:
64,192,150730,1,0,0:0:0:0:
320,192,150867,1,0,0:0:0:0:
192,192,151003,128,0,152912:0:0:0:0:
448,192,151139,1,0,0:0:0:0:
320,192,151276,1,0,0:0:0:0:
448,192,151412,1,0,0:0:0:0:
64,192,151549,1,0,0:0:0:0:
320,192,151685,1,0,0:0:0:0:
448,192,151821,1,0,0:0:0:0:
320,192,151958,1,0,0:0:0:0:
64,192,152094,1,0,0:0:0:0:
320,192,152230,1,0,0:0:0:0:
448,192,152367,1,0,0:0:0:0:
320,192,152503,1,0,0:0:0:0:
64,192,152639,1,0,0:0:0:0:
320,192,152776,1,0,0:0:0:0:
448,192,152912,128,0,154958:0:0:0:0:
64,192,153049,1,0,0:0:0:0:
192,192,153185,1,0,0:0:0:0:
320,192,153321,1,0,0:0:0:0:
64,192,153458,1,0,0:0:0:0:
192,192,153594,1,0,0:0:0:0:
64,192,153730,1,0,0:0:0:0:
320,192,153867,1,0,0:0:0:0:
192,192,154003,1,0,0:0:0:0:
64,192,154139,1,0,0:0:0:0:
320,192,154276,1,0,0:0:0:0:
64,192,154412,1,0,0:0:0:0:
192,192,154549,1,0,0:0:0:0:
320,192,154685,1,0,0:0:0:0:
64,192,154821,1,0,0:0:0:0:
192,192,154958,128,0,157139:0:0:0:0:
448,192,155367,1,0,0:0:0:0:
320,192,155503,1,0,0:0:0:0:
320,192,157139,1,0,0:0:0:0:
64,192,157139,1,0,0:0:0:0:
448,192,157412,128,0,157685:0:0:0:0:
64,192,157412,1,0,0:0:0:0:
320,192,157549,1,0,0:0:0:0:
64,192,157685,128,0,157958:0:0:0:0:
192,192,157685,1,0,0:0:0:0:
320,192,157821,1,0,0:0:0:0:
320,192,157958,128,0,158230:0:0:0:0:
448,192,157958,1,0,0:0:0:0:
192,192,157958,1,0,0:0:0:0:
64,192,158094,1,0,0:0:0:0:
448,192,158230,128,0,158503:0:0:0:0:
192,192,158230,1,0,0:0:0:0:
64,192,158367,1,0,0:0:0:0:
192,192,158503,128,0,158776:0:0:0:0:
320,192,158503,1,0,0:0:0:0:
64,192,158503,1,0,0:0:0:0:
448,192,158639,1,0,0:0:0:0:
64,192,158776,128,0,159049:0:0:0:0:
320,192,158776,1,0,0:0:0:0:
448,192,158912,1,0,0:0:0:0:
320,192,159049,128,0,159321:0:0:0:0:
192,192,159049,1,0,0:0:0:0:
448,192,159185,1,0,0:0:0:0:
448,192,159321,128,0,159594:0:0:0:0:
64,192,159321,1,0,0:0:0:0:
192,192,159321,1,0,0:0:0:0:
320,192,159458,1,0,0:0:0:0:
320,192,159594,128,0,159867:0:0:0:0:
192,192,159594,1,0,0:0:0:0:
64,192,159730,1,0,0:0:0:0:
192,192,159867,128,0,160139:0:0:0:0:
448,192,159867,1,0,0:0:0:0:
320,192,160003,1,0,0:0:0:0:
64,192,160139,128,0,160412:0:0:0:0:
320,192,160139,1,0,0:0:0:0:
448,192,160139,1,0,0:0:0:0:
192,192,160276,1,0,0:0:0:0:
448,192,160412,128,0,160685:0:0:0:0:
320,192,160412,1,0,0:0:0:0:
192,192,160549,1,0,0:0:0:0:
320,192,160685,128,0,160958:0:0:0:0:
192,192,160685,1,0,0:0:0:0:
64,192,160685,1,0,0:0:0:0:
448,192,160821,1,0,0:0:0:0:
192,192,160958,128,0,161230:0:0:0:0:
448,192,160958,1,0,0:0:0:0:
320,192,161094,1,0,0:0:0:0:
64,192,161230,128,0,161503:0:0:0:0:
448,192,161230,1,0,0:0:0:0:
320,192,161367,1,0,0:0:0:0:
448,192,161503,128,0,161776:0:0:0:0:
320,192,161503,1,0,0:0:0:0:
192,192,161503,1,0,0:0:0:0:
192,192,161639,1,0,0:0:0:0:
320,192,161776,128,0,162049:0:0:0:0:
64,192,161776,1,0,0:0:0:0:
192,192,161912,1,0,0:0:0:0:
64,192,162049,128,0,162321:0:0:0:0:
448,192,162049,1,0,0:0:0:0:
192,192,162185,1,0,0:0:0:0:
448,192,162321,128,0,162594:0:0:0:0:
320,192,162321,1,0,0:0:0:0:
192,192,162321,1,0,0:0:0:0:
64,192,162458,1,0,0:0:0:0:
192,192,162594,128,0,162867:0:0:0:0:
320,192,162594,1,0,0:0:0:0:
64,192,162730,1,0,0:0:0:0:
320,192,162867,128,0,163139:0:0:0:0:
448,192,162867,1,0,0:0:0:0:
64,192,162867,1,0,0:0:0:0:
192,192,163003,1,0,0:0:0:0:
448,192,163139,128,0,163412:0:0:0:0:
64,192,163139,1,0,0:0:0:0:
192,192,163276,1,0,0:0:0:0:
64,192,163412,128,0,163685:0:0:0:0:
320,192,163412,1,0,0:0:0:0:
448,192,163549,1,0,0:0:0:0:
320,192,163685,128,0,163958:0:0:0:0:
192,192,163685,1,0,0:0:0:0:
448,192,163685,1,0,0:0:0:0:
64,192,163821,1,0,0:0:0:0:
448,192,163958,128,0,164230:0:0:0:0:
192,192,163958,1,0,0:0:0:0:
320,192,164094,1,0,0:0:0:0:
64,192,164230,128,0,164503:0:0:0:0:
192,192,164230,1,0,0:0:0:0:
320,192,164367,1,0,0:0:0:0:
192,192,164503,128,0,164776:0:0:0:0:
448,192,164503,1,0,0:0:0:0:
320,192,164503,1,0,0:0:0:0:
64,192,164639,1,0,0:0:0:0:
448,192,164776,128,0,165049:0:0:0:0:
320,192,164776,1,0,0:0:0:0:
192,192,164912,1,0,0:0:0:0:
320,192,165049,128,0,165185:0:0:0:0:
64,192,165049,1,0,0:0:0:0:
192,192,165049,1,0,0:0:0:0:
192,192,165185,128,0,165321:0:0:0:0:
448,192,165185,1,0,0:0:0:0:
64,192,165321,128,0,165458:0:0:0:0:
320,192,165321,1,0,0:0:0:0:
192,192,165458,128,0,165594:0:0:0:0:
448,192,165458,1,0,0:0:0:0:
320,192,165594,128,0,165730:0:0:0:0:
64,192,165594,1,0,0:0:0:0:
448,192,165730,128,0,165867:0:0:0:0:
192,192,165730,1,0,0:0:0:0:
64,192,165867,128,0,166139:0:0:0:0:
192,192,165867,1,0,0:0:0:0:
320,192,165867,1,0,0:0:0:0:
448,192,166003,1,0,0:0:0:0:
320,192,166139,128,0,166412:0:0:0:0:
192,192,166139,1,0,0:0:0:0:
64,192,166276,1,0,0:0:0:0:
448,192,166412,128,0,166685:0:0:0:0:
192,192,166412,1,0,0:0:0:0:
64,192,166549,1,0,0:0:0:0:
192,192,166685,128,0,166958:0:0:0:0:
320,192,166685,1,0,0:0:0:0:
64,192,166685,1,0,0:0:0:0:
320,192,166821,1,0,0:0:0:0:
64,192,166958,128,0,167230:0:0:0:0:
448,192,166958,1,0,0:0:0:0:
192,192,167094,1,0,0:0:0:0:
320,192,167230,128,0,167503:0:0:0:0:
448,192,167230,1,0,0:0:0:0:
192,192,167230,1,0,0:0:0:0:
64,192,167367,1,0,0:0:0:0:
448,192,167503,128,0,167776:0:0:0:0:
192,192,167503,1,0,0:0:0:0:
320,192,167639,1,0,0:0:0:0:
192,192,167776,128,0,168049:0:0:0:0:
64,192,167776,1,0,0:0:0:0:
320,192,167912,1,0,0:0:0:0:
64,192,168049,128,0,168321:0:0:0:0:
448,192,168049,1,0,0:0:0:0:
320,192,168049,1,0,0:0:0:0:
192,192,168185,1,0,0:0:0:0:
448,192,168321,128,0,168594:0:0:0:0:
320,192,168321,1,0,0:0:0:0:
192,192,168458,1,0,0:0:0:0:
320,192,168594,128,0,168867:0:0:0:0:
64,192,168594,1,0,0:0:0:0:
192,192,168730,1,0,0:0:0:0:
192,192,168867,128,0,169139:0:0:0:0:
448,192,168867,1,0,0:0:0:0:
64,192,168867,1,0,0:0:0:0:
320,192,169003,1,0,0:0:0:0:
64,192,169139,128,0,169412:0:0:0:0:
448,192,169139,1,0,0:0:0:0:
192,192,169276,1,0,0:0:0:0:
320,192,169412,128,0,169685:0:0:0:0:
448,192,169412,1,0,0:0:0:0:
192,192,169412,1,0,0:0:0:0:
64,192,169549,1,0,0:0:0:0:
192,192,169685,128,0,169958:0:0:0:0:
448,192,169685,1,0,0:0:0:0:
64,192,169821,1,0,0:0:0:0:
448,192,169958,128,0,170230:0:0:0:0:
320,192,169958,1,0,0:0:0:0:
192,192,170094,1,0,0:0:0:0:
64,192,170230,128,0,170503:0:0:0:0:
320,192,170230,1,0,0:0:0:0:
192,192,170230,1,0,0:0:0:0:
320,192,170367,1,0,0:0:0:0:
192,192,170503,128,0,170776:0:0:0:0:
448,192,170503,1,0,0:0:0:0:
320,192,170639,1,0,0:0:0:0:
448,192,170776,128,0,171049:0:0:0:0:
64,192,170776,1,0,0:0:0:0:
192,192,170912,1,0,0:0:0:0:
64,192,171049,128,0,171321:0:0:0:0:
320,192,171049,1,0,0:0:0:0:
192,192,171049,1,0,0:0:0:0:
448,192,171185,1,0,0:0:0:0:
320,192,171321,128,0,171594:0:0:0:0:
192,192,171321,1,0,0:0:0:0:
64,192,171458,1,0,0:0:0:0:
448,192,171594,128,0,171867:0:0:0:0:
192,192,171594,1,0,0:0:0:0:
64,192,171594,1,0,0:0:0:0:
320,192,171730,1,0,0:0:0:0:
64,192,171867,128,0,172139:0:0:0:0:
192,192,171867,1,0,0:0:0:0:
448,192,172003,1,0,0:0:0:0:
320,192,172139,128,0,172412:0:0:0:0:
192,192,172139,1,0,0:0:0:0:
64,192,172276,1,0,0:0:0:0:
448,192,172412,128,0,172685:0:0:0:0:
192,192,172412,1,0,0:0:0:0:
64,192,172412,1,0,0:0:0:0:
320,192,172549,1,0,0:0:0:0:
192,192,172685,128,0,172958:0:0:0:0:
64,192,172685,1,0,0:0:0:0:
320,192,172821,1,0,0:0:0:0:
64,192,172958,128,0,173230:0:0:0:0:
448,192,172958,1,0,0:0:0:0:
320,192,172958,1,0,0:0:0:0:
192,192,173094,1,0,0:0:0:0:
448,192,173230,128,0,173503:0:0:0:0:
320,192,173230,1,0,0:0:0:0:
192,192,173230,1,0,0:0:0:0:
64,192,173367,1,0,0:0:0:0:
64,192,173503,1,0,0:0:0:0:
192,192,173571,1,0,0:0:0:0:
320,192,173639,1,0,0:0:0:0:
448,192,173708,1,0,0:0:0:0:
64,192,173776,1,0,0:0:0:0:
192,192,173844,1,0,0:0:0:0:
448,192,173912,1,0,0:0:0:0:
320,192,173980,1,0,0:0:0:0:
192,192,174049,1,0,0:0:0:0:
64,192,174117,1,0,0:0:0:0:
448,192,174185,1,0,0:0:0:0:
320,192,174253,1,0,0:0:0:0:
64,192,174321,1,0,0:0:0:0:
192,192,174389,1,0,0:0:0:0:
448,192,174458,1,0,0:0:0:0:
320,192,174526,1,0,0:0:0:0:
64,192,174594,1,0,0:0:0:0:
192,192,174594,1,0,0:0:0:0:
448,192,174594,1,0,0:0:0:0:
320,192,174662,1,0,0:0:0:0:
192,192,174730,1,0,0:0:0:0:
64,192,174799,1,0,0:0:0:0:
192,192,174867,1,0,0:0:0:0:
448,192,174867,1,0,0:0:0:0:
320,192,174935,1,0,0:0:0:0:
448,192,175003,1,0,0:0:0:0:
320,192,175071,1,0,0:0:0:0:
192,192,175139,1,0,0:0:0:0:
448,192,175139,1,0,0:0:0:0:
64,192,175208,1,0,0:0:0:0:
192,192,175276,1,0,0:0:0:0:
320,192,175344,1,0,0:0:0:0:
448,192,175412,1,0,0:0:0:0:
64,192,175412,1,0,0:0:0:0:
320,192,175480,1,0,0:0:0:0:
192,192,175549,1,0,0:0:0:0:
64,192,175617,1,0,0:0:0:0:
192,192,175685,1,0,0:0:0:0:
320,192,175685,1,0,0:0:0:0:
448,192,175753,1,0,0:0:0:0:
320,192,175821,1,0,0:0:0:0:
192,192,175889,1,0,0:0:0:0:
64,192,175958,1,0,0:0:0:0:
320,192,175958,1,0,0:0:0:0:
448,192,176026,1,0,0:0:0:0:
320,192,176094,1,0,0:0:0:0:
192,192,176162,1,0,0:0:0:0:
64,192,176230,1,0,0:0:0:0:
448,192,176230,1,0,0:0:0:0:
192,192,176299,1,0,0:0:0:0:
320,192,176367,1,0,0:0:0:0:
448,192,176435,1,0,0:0:0:0:
64,192,176503,1,0,0:0:0:0:
192,192,176503,1,0,0:0:0:0:
320,192,176571,1,0,0:0:0:0:
448,192,176639,1,0,0:0:0:0:
320,192,176708,1,0,0:0:0:0:
192,192,176776,1,0,0:0:0:0:
64,192,176776,1,0,0:0:0:0:
448,192,176844,1,0,0:0:0:0:
320,192,176912,1,0,0:0:0:0:
192,192,176980,1,0,0:0:0:0:
64,192,177049,1,0,0:0:0:0:
448,192,177049,1,0,0:0:0:0:
320,192,177117,1,0,0:0:0:0:
192,192,177185,1,0,0:0:0:0:
320,192,177253,1,0,0:0:0:0:
448,192,177321,1,0,0:0:0:0:
64,192,177321,1,0,0:0:0:0:
192,192,177389,1,0,0:0:0:0:
320,192,177458,1,0,0:0:0:0:
448,192,177526,1,0,0:0:0:0:
320,192,177594,1,0,0:0:0:0:
64,192,177594,1,0,0:0:0:0:
192,192,177662,1,0,0:0:0:0:
448,192,177730,1,0,0:0:0:0:
320,192,177799,1,0,0:0:0:0:
192,192,177867,1,0,0:0:0:0:
64,192,177867,1,0,0:0:0:0:
448,192,177935,1,0,0:0:0:0:
320,192,178003,1,0,0:0:0:0:
192,192,178071,1,0,0:0:0:0:
64,192,178139,1,0,0:0:0:0:
448,192,178139,1,0,0:0:0:0:
320,192,178208,1,0,0:0:0:0:
192,192,178276,1,0,0:0:0:0:
320,192,178344,1,0,0:0:0:0:
448,192,178412,1,0,0:0:0:0:
64,192,178412,1,0,0:0:0:0:
192,192,178480,1,0,0:0:0:0:
320,192,178549,1,0,0:0:0:0:
448,192,178617,1,0,0:0:0:0:
320,192,178685,1,0,0:0:0:0:
64,192,178685,1,0,0:0:0:0:
192,192,178753,1,0,0:0:0:0:
320,192,178821,1,0,0:0:0:0:
448,192,178889,1,0,0:0:0:0:
192,192,178958,1,0,0:0:0:0:
320,192,178958,1,0,0:0:0:0:
64,192,178958,1,0,0:0:0:0:
448,192,179026,1,0,0:0:0:0:
192,192,179094,1,0,0:0:0:0:
320,192,179162,1,0,0:0:0:0:
448,192,179230,1,0,0:0:0:0:
64,192,179230,1,0,0:0:0:0:
192,192,179230,1,0,0:0:0:0:
320,192,179299,1,0,0:0:0:0:
64,192,179367,1,0,0:0:0:0:
192,192,179435,1,0,0:0:0:0:
448,192,179503,1,0,0:0:0:0:
320,192,179503,1,0,0:0:0:0:
64,192,179503,1,0,0:0:0:0:
192,192,179571,1,0,0:0:0:0:
320,192,179639,1,0,0:0:0:0:
448,192,179708,1,0,0:0:0:0:
64,192,179776,1,0,0:0:0:0:
192,192,179776,1,0,0:0:0:0:
320,192,179776,1,0,0:0:0:0:
448,192,179844,1,0,0:0:0:0:
320,192,179912,1,0,0:0:0:0:
64,192,179980,1,0,0:0:0:0:
448,192,180049,1,0,0:0:0:0:
320,192,180049,1,0,0:0:0:0:
192,192,180049,1,0,0:0:0:0:
64,192,180117,1,0,0:0:0:0:
320,192,180185,1,0,0:0:0:0:
448,192,180253,1,0,0:0:0:0:
64,192,180321,1,0,0:0:0:0:
192,192,180321,1,0,0:0:0:0:
320,192,180321,1,0,0:0:0:0:
448,192,180389,1,0,0:0:0:0:
64,192,180458,1,0,0:0:0:0:
192,192,180526,1,0,0:0:0:0:
448,192,180594,1,0,0:0:0:0:
320,192,180594,1,0,0:0:0:0:
64,192,180594,1,0,0:0:0:0:
192,192,180662,1,0,0:0:0:0:
448,192,180730,1,0,0:0:0:0:
64,192,180799,1,0,0:0:0:0:
192,192,180867,1,0,0:0:0:0:
320,192,180867,1,0,0:0:0:0:
448,192,180867,1,0,0:0:0:0:
64,192,180935,1,0,0:0:0:0:
320,192,181003,1,0,0:0:0:0:
448,192,181071,1,0,0:0:0:0:
192,192,181139,1,0,0:0:0:0:
64,192,181139,1,0,0:0:0:0:
320,192,181139,1,0,0:0:0:0:
448,192,181208,1,0,0:0:0:0:
320,192,181276,1,0,0:0:0:0:
64,192,181344,1,0,0:0:0:0:
192,192,181412,1,0,0:0:0:0:
448,192,181412,1,0,0:0:0:0:
320,192,181412,1,0,0:0:0:0:
64,192,181480,1,0,0:0:0:0:
448,192,181549,1,0,0:0:0:0:
320,192,181617,1,0,0:0:0:0:
448,192,181685,1,0,0:0:0:0:
192,192,181685,1,0,0:0:0:0:
64,192,181685,1,0,0:0:0:0:
320,192,181753,1,0,0:0:0:0:
64,192,181821,1,0,0:0:0:0:
320,192,181889,1,0,0:0:0:0:
64,192,181958,1,0,0:0:0:0:
448,192,181958,1,0,0:0:0:0:
192,192,181958,1,0,0:0:0:0:
320,192,182026,1,0,0:0:0:0:
448,192,182094,1,0,0:0:0:0:
192,192,182162,1,0,0:0:0:0:
448,192,182230,1,0,0:0:0:0:
320,192,182230,1,0,0:0:0:0:
64,192,182230,1,0,0:0:0:0:
192,192,182299,1,0,0:0:0:0:
320,192,182367,1,0,0:0:0:0:
448,192,182435,1,0,0:0:0:0:
64,192,182503,1,0,0:0:0:0:
192,192,182503,1,0,0:0:0:0:
320,192,182503,1,0,0:0:0:0:
448,192,182571,1,0,0:0:0:0:
64,192,182639,1,0,0:0:0:0:
192,192,182639,1,0,0:0:0:0:
320,192,182708,1,0,0:0:0:0:
448,192,182776,1,0,0:0:0:0:
64,192,182776,1,0,0:0:0:0:
192,192,182776,1,0,0:0:0:0:
320,192,182844,1,0,0:0:0:0:
64,192,182912,1,0,0:0:0:0:
448,192,182912,1,0,0:0:0:0:
320,192,182980,1,0,0:0:0:0:
64,192,183049,1,0,0:0:0:0:
192,192,183049,1,0,0:0:0:0:
448,192,183049,1,0,0:0:0:0:
320,192,183117,1,0,0:0:0:0:
64,192,183185,1,0,0:0:0:0:
448,192,183185,1,0,0:0:0:0:
320,192,183253,1,0,0:0:0:0:
448,192,183321,1,0,0:0:0:0:
192,192,183321,1,0,0:0:0:0:
64,192,183321,1,0,0:0:0:0:
448,192,183458,1,0,0:0:0:0:
192,192,183458,1,0,0:0:0:0:
320,192,183458,1,0,0:0:0:0:
64,192,183594,1,0,0:0:0:0:
192,192,183594,1,0,0:0:0:0:
448,192,183594,1,0,0:0:0:0:
192,192,183730,1,0,0:0:0:0:
64,192,183730,1,0,0:0:0:0:
448,192,183730,1,0,0:0:0:0:
448,192,183867,1,0,0:0:0:0:
192,192,183867,1,0,0:0:0:0:
320,192,183867,1,0,0:0:0:0:
64,192,184003,1,0,0:0:0:0:
192,192,184003,1,0,0:0:0:0:
448,192,184003,1,0,0:0:0:0:
320,192,184139,1,0,0:0:0:0:
192,192,184139,1,0,0:0:0:0:
64,192,184139,1,0,0:0:0:0:
448,192,184276,1,0,0:0:0:0:
320,192,184276,1,0,0:0:0:0:
64,192,184276,1,0,0:0:0:0:
192,192,184412,1,0,0:0:0:0:
320,192,184412,1,0,0:0:0:0:
448,192,184412,1,0,0:0:0:0:
64,192,184549,1,0,0:0:0:0:
192,192,184549,1,0,0:0:0:0:
448,192,184549,1,0,0:0:0:0:
320,192,184685,1,0,0:0:0:0:
192,192,184685,1,0,0:0:0:0:
64,192,184685,1,0,0:0:0:0:
448,192,184821,1,0,0:0:0:0:
320,192,184821,1,0,0:0:0:0:
64,192,184821,1,0,0:0:0:0:
192,192,184958,1,0,0:0:0:0:
320,192,184958,1,0,0:0:0:0:
448,192,184958,1,0,0:0:0:0:
64,192,185094,1,0,0:0:0:0:
192,192,185094,1,0,0:0:0:0:
320,192,185094,1,0,0:0:0:0:
448,192,185230,1,0,0:0:0:0:
192,192,185230,1,0,0:0:0:0:
64,192,185230,1,0,0:0:0:0:
64,192,185367,1,0,0:0:0:0:
448,192,185367,1,0,0:0:0:0:
320,192,185367,1,0,0:0:0:0:
192,192,185503,1,0,0:0:0:0:
64,192,185503,1,0,0:0:0:0:
320,192,185503,1,0,0:0:0:0:
448,192,185639,1,0,0:0:0:0:
320,192,185639,1,0,0:0:0:0:
192,192,185639,1,0,0:0:0:0:
64,192,185776,1,0,0:0:0:0:
192,192,185776,1,0,0:0:0:0:
448,192,185776,1,0,0:0:0:0:
320,192,185912,1,0,0:0:0:0:
192,192,185912,1,0,0:0:0:0:
448,192,185912,1,0,0:0:0:0:
64,192,186049,1,0,0:0:0:0:
192,192,186049,1,0,0:0:0:0:
320,192,186049,1,0,0:0:0:0:
448,192,186185,1,0,0:0:0:0:
320,192,186185,1,0,0:0:0:0:
192,192,186185,1,0,0:0:0:0:
64,192,186321,1,0,0:0:0:0:
192,192,186321,1,0,0:0:0:0:
320,192,186321,1,0,0:0:0:0:
448,192,186458,1,0,0:0:0:0:
320,192,186458,1,0,0:0:0:0:
64,192,186458,1,0,0:0:0:0:
192,192,186594,1,0,0:0:0:0:
320,192,186594,1,0,0:0:0:0:
448,192,186594,1,0,0:0:0:0:
192,192,186730,1,0,0:0:0:0:
64,192,186730,1,0,0:0:0:0:
448,192,186730,1,0,0:0:0:0:
448,192,186867,1,0,0:0:0:0:
320,192,186867,1,0,0:0:0:0:
192,192,186867,1,0,0:0:0:0:
64,192,187003,1,0,0:0:0:0:
192,192,187003,1,0,0:0:0:0:
320,192,187003,1,0,0:0:0:0:
448,192,187139,1,0,0:0:0:0:
320,192,187139,1,0,0:0:0:0:
64,192,187139,1,0,0:0:0:0:
64,192,187276,1,0,0:0:0:0:
192,192,187276,1,0,0:0:0:0:
320,192,187276,1,0,0:0:0:0:
448,192,187412,1,0,0:0:0:0:
320,192,187412,1,0,0:0:0:0:
64,192,187412,1,0,0:0:0:0:
192,192,187549,1,0,0:0:0:0:
320,192,187549,1,0,0:0:0:0:
448,192,187549,1,0,0:0:0:0:
64,192,187685,1,0,0:0:0:0:
192,192,187685,1,0,0:0:0:0:
448,192,187753,1,0,0:0:0:0:
320,192,187753,1,0,0:0:0:0:
192,192,187821,1,0,0:0:0:0:
64,192,187821,1,0,0:0:0:0:
320,192,187889,1,0,0:0:0:0:
448,192,187889,1,0,0:0:0:0:
192,192,187958,1,0,0:0:0:0:
64,192,187958,1,0,0:0:0:0:
320,192,188026,1,0,0:0:0:0:
448,192,188026,1,0,0:0:0:0:
192,192,188094,1,0,0:0:0:0:
64,192,188094,1,0,0:0:0:0:
320,192,188162,1,0,0:0:0:0:
448,192,188162,1,0,0:0:0:0:
192,192,188230,1,0,0:0:0:0:
64,192,188230,1,0,0:0:0:0:
320,192,188299,1,0,0:0:0:0:
448,192,188299,1,0,0:0:0:0:
64,192,188367,1,0,0:0:0:0:
192,192,188367,1,0,0:0:0:0:
320,192,188435,1,0,0:0:0:0:
448,192,188435,1,0,0:0:0:0:
192,192,188503,1,0,0:0:0:0:
64,192,188503,1,0,0:0:0:0:
320,192,188571,1,0,0:0:0:0:
448,192,188571,1,0,0:0:0:0:
192,192,188639,1,0,0:0:0:0:
64,192,188639,1,0,0:0:0:0:
320,192,188708,1,0,0:0:0:0:
448,192,188708,1,0,0:0:0:0:
192,192,188776,1,0,0:0:0:0:
64,192,188776,1,0,0:0:0:0:
320,192,188844,1,0,0:0:0:0:
448,192,188844,1,0,0:0:0:0:
192,192,188912,1,0,0:0:0:0:
64,192,188912,1,0,0:0:0:0:
320,192,188980,1,0,0:0:0:0:
448,192,188980,1,0,0:0:0:0:
192,192,189049,1,0,0:0:0:0:
64,192,189049,1,0,0:0:0:0:
320,192,189117,1,0,0:0:0:0:
448,192,189117,1,0,0:0:0:0:
192,192,189185,1,0,0:0:0:0:
64,192,189185,1,0,0:0:0:0:
320,192,189253,1,0,0:0:0:0:
448,192,189253,1,0,0:0:0:0:
192,192,189321,1,0,0:0:0:0:
64,192,189321,1,0,0:0:0:0:
320,192,189389,1,0,0:0:0:0:
448,192,189389,1,0,0:0:0:0:
192,192,189458,1,0,0:0:0:0:
64,192,189458,1,0,0:0:0:0:
320,192,189526,1,0,0:0:0:0:
448,192,189526,1,0,0:0:0:0:
192,192,189594,1,0,0:0:0:0:
64,192,189594,1,0,0:0:0:0:
320,192,189662,1,0,0:0:0:0:
448,192,189662,1,0,0:0:0:0:
192,192,189730,1,0,0:0:0:0:
64,192,189730,1,0,0:0:0:0:
320,192,189799,1,0,0:0:0:0:
448,192,189799,1,0,0:0:0:0:
448,192,189867,1,0,0:0:0:0:
320,192,189901,1,0,0:0:0:0:
192,192,189935,1,0,0:0:0:0:
64,192,189969,1,0,0:0:0:0:
448,192,190003,1,0,0:0:0:0:
320,192,190003,1,0,0:0:0:0:
192,192,190071,1,0,0:0:0:0:
64,192,190071,1,0,0:0:0:0:
64,192,190139,1,0,0:0:0:0:
192,192,190174,1,0,0:0:0:0:
320,192,190208,1,0,0:0:0:0:
448,192,190242,1,0,0:0:0:0:
192,192,190276,1,0,0:0:0:0:
64,192,190276,1,0,0:0:0:0:
448,192,190344,1,0,0:0:0:0:
320,192,190344,1,0,0:0:0:0:
448,192,190412,1,0,0:0:0:0:
320,192,190446,1,0,0:0:0:0:
192,192,190480,1,0,0:0:0:0:
64,192,190514,1,0,0:0:0:0:
448,192,190549,1,0,0:0:0:0:
320,192,190549,1,0,0:0:0:0:
192,192,190617,1,0,0:0:0:0:
64,192,190617,1,0,0:0:0:0:
64,192,190685,1,0,0:0:0:0:
192,192,190719,1,0,0:0:0:0:
320,192,190753,1,0,0:0:0:0:
448,192,190787,1,0,0:0:0:0:
64,192,190821,1,0,0:0:0:0:
192,192,190821,1,0,0:0:0:0:
320,192,190889,1,0,0:0:0:0:
448,192,190889,1,0,0:0:0:0:
448,192,190958,1,0,0:0:0:0:
320,192,190992,1,0,0:0:0:0:
192,192,191026,1,0,0:0:0:0:
64,192,191060,1,0,0:0:0:0:
448,192,191094,1,0,0:0:0:0:
320,192,191128,1,0,0:0:0:0:
192,192,191162,1,0,0:0:0:0:
64,192,191196,1,0,0:0:0:0:
448,192,191230,1,0,0:0:0:0:
320,192,191264,1,0,0:0:0:0:
192,192,191299,1,0,0:0:0:0:
64,192,191333,1,0,0:0:0:0:
448,192,191367,1,0,0:0:0:0:
320,192,191401,1,0,0:0:0:0:
192,192,191435,1,0,0:0:0:0:
64,192,191469,1,0,0:0:0:0:
448,192,191503,1,0,0:0:0:0:
320,192,191503,1,0,0:0:0:0:
192,192,191503,1,0,0:0:0:0:
64,192,191639,1,0,0:0:0:0:
320,192,191639,1,0,0:0:0:0:
448,192,191776,1,0,0:0:0:0:
192,192,191776,1,0,0:0:0:0:
320,192,191912,1,0,0:0:0:0:
64,192,191912,1,0,0:0:0:0:
192,192,192049,1,0,0:0:0:0:
320,192,192049,1,0,0:0:0:0:
448,192,192049,1,0,0:0:0:0:
64,192,192049,1,0,0:0:0:0:
448,192,192119,1,0,0:0:0:0:
320,192,192187,1,0,0:0:0:0:
192,192,192187,1,0,0:0:0:0:
64,192,192255,1,0,0:0:0:0:
448,192,192323,1,0,0:0:0:0:
320,192,192323,1,0,0:0:0:0:
192,192,192323,1,0,0:0:0:0:
64,192,192323,1,0,0:0:0:0:
192,192,192391,1,0,0:0:0:0:
448,192,192460,1,0,0:0:0:0:
320,192,192460,1,0,0:0:0:0:
64,192,192528,1,0,0:0:0:0:
192,192,192596,1,0,0:0:0:0:
64,192,192596,1,0,0:0:0:0:
320,192,192596,1,0,0:0:0:0:
448,192,192596,1,0,0:0:0:0:
320,192,192664,1,0,0:0:0:0:
64,192,192732,1,0,0:0:0:0:
192,192,192732,1,0,0:0:0:0:
448,192,192801,1,0,0:0:0:0:
64,192,192869,1,0,0:0:0:0:
192,192,192869,1,0,0:0:0:0:
320,192,192869,1,0,0:0:0:0:
448,192,192869,1,0,0:0:0:0:
320,192,192937,1,0,0:0:0:0:
448,192,193005,1,0,0:0:0:0:
192,192,193005,1,0,0:0:0:0:
64,192,193073,1,0,0:0:0:0:
64,192,193141,1,0,0:0:0:0:
192,192,193141,1,0,0:0:0:0:
320,192,193141,1,0,0:0:0:0:
448,192,193141,1,0,0:0:0:0:
192,192,193210,1,0,0:0:0:0:
448,192,193278,1,0,0:0:0:0:
320,192,193278,1,0,0:0:0:0:
64,192,193346,1,0,0:0:0:0:
64,192,193414,1,0,0:0:0:0:
192,192,193414,1,0,0:0:0:0:
448,192,193414,1,0,0:0:0:0:
320,192,193414,1,0,0:0:0:0:
320,192,193482,1,0,0:0:0:0:
64,192,193551,1,0,0:0:0:0:
448,192,193551,1,0,0:0:0:0:
192,192,193619,1,0,0:0:0:0:
320,192,193687,1,0,0:0:0:0:
192,192,193687,1,0,0:0:0:0:
448,192,193687,1,0,0:0:0:0:
64,192,193687,1,0,0:0:0:0:
320,192,193755,1,0,0:0:0:0:
192,192,193823,1,0,0:0:0:0:
64,192,193823,1,0,0:0:0:0:
448,192,193891,1,0,0:0:0:0:
192,192,193960,1,0,0:0:0:0:
320,192,193960,1,0,0:0:0:0:
448,192,193960,1,0,0:0:0:0:
64,192,193960,1,0,0:0:0:0:
192,192,194028,1,0,0:0:0:0:
448,192,194096,1,0,0:0:0:0:
320,192,194096,1,0,0:0:0:0:
192,192,194164,1,0,0:0:0:0:
64,192,194232,1,0,0:0:0:0:
448,192,194232,1,0,0:0:0:0:
320,192,194232,1,0,0:0:0:0:
192,192,194232,1,0,0:0:0:0:
64,192,194301,1,0,0:0:0:0:
320,192,194369,1,0,0:0:0:0:
192,192,194369,1,0,0:0:0:0:
448,192,194437,1,0,0:0:0:0:
320,192,194505,1,0,0:0:0:0:
448,192,194505,1,0,0:0:0:0:
64,192,194505,1,0,0:0:0:0:
192,192,194505,1,0,0:0:0:0:
320,192,194573,1,0,0:0:0:0:
192,192,194643,1,0,0:0:0:0:
64,192,194643,1,0,0:0:0:0:
448,192,194710,1,0,0:0:0:0:
192,192,194778,1,0,0:0:0:0:
64,192,194778,1,0,0:0:0:0:
320,192,194778,1,0,0:0:0:0:
448,192,194778,1,0,0:0:0:0:
192,192,194846,1,0,0:0:0:0:
320,192,194914,1,0,0:0:0:0:
448,192,194914,1,0,0:0:0:0:
64,192,194984,1,0,0:0:0:0:
192,192,195051,1,0,0:0:0:0:
64,192,195051,1,0,0:0:0:0:
448,192,195051,1,0,0:0:0:0:
320,192,195051,1,0,0:0:0:0:
192,192,195119,1,0,0:0:0:0:
320,192,195187,1,0,0:0:0:0:
64,192,195187,1,0,0:0:0:0:
448,192,195255,1,0,0:0:0:0:
192,192,195323,1,0,0:0:0:0:
64,192,195323,1,0,0:0:0:0:
448,192,195323,1,0,0:0:0:0:
320,192,195323,1,0,0:0:0:0:
320,192,195393,1,0,0:0:0:0:
192,192,195460,1,0,0:0:0:0:
64,192,195460,1,0,0:0:0:0:
448,192,195528,1,0,0:0:0:0:
64,192,195596,1,0,0:0:0:0:
192,192,195596,1,0,0:0:0:0:
448,192,195596,1,0,0:0:0:0:
320,192,195596,1,0,0:0:0:0:
192,192,195664,1,0,0:0:0:0:
64,192,195734,1,0,0:0:0:0:
448,192,195734,1,0,0:0:0:0:
320,192,195801,1,0,0:0:0:0:
64,192,195869,1,0,0:0:0:0:
448,192,195869,1,0,0:0:0:0:
192,192,195869,1,0,0:0:0:0:
320,192,195869,1,0,0:0:0:0:
192,192,195937,1,0,0:0:0:0:
448,192,196005,1,0,0:0:0:0:
320,192,196005,1,0,0:0:0:0:
64,192,196073,1,0,0:0:0:0:
64,192,196143,1,0,0:0:0:0:
448,192,196143,1,0,0:0:0:0:
320,192,196143,1,0,0:0:0:0:
192,192,196143,1,0,0:0:0:0:
320,192,196210,1,0,0:0:0:0:
192,192,196278,1,0,0:0:0:0:
64,192,196278,1,0,0:0:0:0:
448,192,196346,1,0,0:0:0:0:
448,192,196414,1,0,0:0:0:0:
64,192,196414,1,0,0:0:0:0:
192,192,196414,1,0,0:0:0:0:
320,192,196414,1,0,0:0:0:0:
320,192,196482,1,0,0:0:0:0:
192,192,196482,1,0,0:0:0:0:
64,192,196551,1,0,0:0:0:0:
448,192,196551,1,0,0:0:0:0:
320,192,196617,1,0,0:0:0:0:
192,192,196619,1,0,0:0:0:0:
320,192,196685,1,0,0:0:0:0:
192,192,196685,1,0,0:0:0:0:
64,192,196685,1,0,0:0:0:0:
448,192,196685,1,0,0:0:0:0:
64,192,196755,1,0,0:0:0:0:
320,192,196823,1,0,0:0:0:0:
448,192,196823,1,0,0:0:0:0:
192,192,196891,1,0,0:0:0:0:
192,192,196960,1,0,0:0:0:0:
320,192,196960,1,0,0:0:0:0:
64,192,196960,1,0,0:0:0:0:
448,192,196960,1,0,0:0:0:0:
320,192,197026,1,0,0:0:0:0:
448,192,197094,1,0,0:0:0:0:
64,192,197094,1,0,0:0:0:0:
192,192,197164,1,0,0:0:0:0:
448,192,197232,1,0,0:0:0:0:
320,192,197232,1,0,0:0:0:0:
64,192,197232,1,0,0:0:0:0:
192,192,197232,1,0,0:0:0:0:
448,192,197301,1,0,0:0:0:0:
64,192,197367,1,0,0:0:0:0:
192,192,197367,1,0,0:0:0:0:
320,192,197435,1,0,0:0:0:0:
448,192,197505,1,0,0:0:0:0:
320,192,197505,1,0,0:0:0:0:
192,192,197505,1,0,0:0:0:0:
64,192,197505,1,0,0:0:0:0:
448,192,197573,1,0,0:0:0:0:
64,192,197641,1,0,0:0:0:0:
320,192,197641,1,0,0:0:0:0:
192,192,197710,1,0,0:0:0:0:
448,192,197776,1,0,0:0:0:0:
320,192,197776,1,0,0:0:0:0:
192,192,197776,1,0,0:0:0:0:
64,192,197776,1,0,0:0:0:0:
64,192,197844,1,0,0:0:0:0:
448,192,197914,1,0,0:0:0:0:
320,192,197914,1,0,0:0:0:0:
192,192,197982,1,0,0:0:0:0:
320,192,198051,1,0,0:0:0:0:
448,192,198051,1,0,0:0:0:0:
192,192,198051,1,0,0:0:0:0:
64,192,198051,1,0,0:0:0:0:
448,192,198117,1,0,0:0:0:0:
64,192,198185,1,0,0:0:0:0:
192,192,198185,1,0,0:0:0:0:
320,192,198255,1,0,0:0:0:0:
64,192,198323,1,0,0:0:0:0:
192,192,198323,1,0,0:0:0:0:
320,192,198323,1,0,0:0:0:0:
448,192,198323,1,0,0:0:0:0:
448,192,198391,1,0,0:0:0:0:
192,192,198460,1,0,0:0:0:0:
320,192,198460,1,0,0:0:0:0:
64,192,198526,1,0,0:0:0:0:
320,192,198596,1,0,0:0:0:0:
192,192,198596,1,0,0:0:0:0:
64,192,198596,1,0,0:0:0:0:
448,192,198596,1,0,0:0:0:0:
448,192,198664,1,0,0:0:0:0:
320,192,198732,1,0,0:0:0:0:
192,192,198732,1,0,0:0:0:0:
64,192,198801,1,0,0:0:0:0:
64,192,198869,1,0,0:0:0:0:
192,192,198869,1,0,0:0:0:0:
320,192,198869,1,0,0:0:0:0:
448,192,198869,1,0,0:0:0:0:
320,192,198937,1,0,0:0:0:0:
192,192,199005,1,0,0:0:0:0:
448,192,199005,1,0,0:0:0:0:
64,192,199073,1,0,0:0:0:0:
448,192,199141,1,0,0:0:0:0:
192,192,199141,1,0,0:0:0:0:
64,192,199141,1,0,0:0:0:0:
320,192,199141,1,0,0:0:0:0:
320,192,199210,1,0,0:0:0:0:
64,192,199278,1,0,0:0:0:0:
448,192,199278,1,0,0:0:0:0:
192,192,199346,1,0,0:0:0:0:
64,192,199414,1,0,0:0:0:0:
192,192,199414,1,0,0:0:0:0:
320,192,199414,1,0,0:0:0:0:
448,192,199414,1,0,0:0:0:0:
448,192,199482,1,0,0:0:0:0:
64,192,199551,1,0,0:0:0:0:
192,192,199551,1,0,0:0:0:0:
320,192,199619,1,0,0:0:0:0:
448,192,199687,1,0,0:0:0:0:
320,192,199687,1,0,0:0:0:0:
192,192,199687,1,0,0:0:0:0:
64,192,199687,1,0,0:0:0:0:
448,192,199755,1,0,0:0:0:0:
64,192,199823,1,0,0:0:0:0:
320,192,199823,1,0,0:0:0:0:
192,192,199891,1,0,0:0:0:0:
64,192,199960,1,0,0:0:0:0:
320,192,199960,1,0,0:0:0:0:
448,192,199960,1,0,0:0:0:0:
192,192,199960,1,0,0:0:0:0:
64,192,200028,1,0,0:0:0:0:
192,192,200096,1,0,0:0:0:0:
320,192,200164,1,0,0:0:0:0:
448,192,200232,1,0,0:0:0:0:
64,192,200232,1,0,0:0:0:0:
192,192,200232,1,0,0:0:0:0:
320,192,200232,1,0,0:0:0:0:
448,192,200301,1,0,0:0:0:0:
320,192,200369,1,0,0:0:0:0:
64,192,200437,1,0,0:0:0:0:
192,192,200505,1,0,0:0:0:0:
448,192,200505,1,0,0:0:0:0:
320,192,200505,1,0,0:0:0:0:
64,192,200505,1,0,0:0:0:0:
320,192,200573,1,0,0:0:0:0:
64,192,200641,1,0,0:0:0:0:
448,192,200710,1,0,0:0:0:0:
320,192,200778,1,0,0:0:0:0:
192,192,200778,1,0,0:0:0:0:
64,192,200778,1,0,0:0:0:0:
448,192,200778,1,0,0:0:0:0:
192,192,200846,1,0,0:0:0:0:
64,192,200914,1,0,0:0:0:0:
448,192,200914,1,0,0:0:0:0:
320,192,200982,1,0,0:0:0:0:
448,192,201051,1,0,0:0:0:0:
192,192,201051,1,0,0:0:0:0:
320,192,201051,1,0,0:0:0:0:
64,192,201051,1,0,0:0:0:0:
448,192,201119,1,0,0:0:0:0:
320,192,201187,1,0,0:0:0:0:
192,192,201187,1,0,0:0:0:0:
64,192,201255,1,0,0:0:0:0:
64,192,201323,1,0,0:0:0:0:
192,192,201323,1,0,0:0:0:0:
448,192,201323,1,0,0:0:0:0:
320,192,201323,1,0,0:0:0:0:
320,192,201391,1,0,0:0:0:0:
448,192,201460,1,0,0:0:0:0:
192,192,201460,1,0,0:0:0:0:
64,192,201528,1,0,0:0:0:0:
192,192,201596,1,0,0:0:0:0:
320,192,201596,1,0,0:0:0:0:
448,192,201596,1,0,0:0:0:0:
64,192,201596,1,0,0:0:0:0:
320,192,201664,1,0,0:0:0:0:
192,192,201732,1,0,0:0:0:0:
64,192,201732,1,0,0:0:0:0:
448,192,201801,1,0,0:0:0:0:
448,192,201869,1,0,0:0:0:0:
320,192,201869,1,0,0:0:0:0:
192,192,201869,1,0,0:0:0:0:
64,192,201869,1,0,0:0:0:0:
64,192,201937,1,0,0:0:0:0:
192,192,202005,1,0,0:0:0:0:
448,192,202005,1,0,0:0:0:0:
320,192,202073,1,0,0:0:0:0:
64,192,202141,1,0,0:0:0:0:
192,192,202141,1,0,0:0:0:0:
320,192,202141,1,0,0:0:0:0:
448,192,202141,1,0,0:0:0:0:
64,192,202210,1,0,0:0:0:0:
448,192,202278,1,0,0:0:0:0:
320,192,202278,1,0,0:0:0:0:
64,192,202346,1,0,0:0:0:0:
448,192,202414,1,0,0:0:0:0:
320,192,202414,1,0,0:0:0:0:
192,192,202414,1,0,0:0:0:0:
64,192,202414,1,0,0:0:0:0:
320,192,202482,1,0,0:0:0:0:
64,192,202551,1,0,0:0:0:0:
448,192,202551,1,0,0:0:0:0:
192,192,202619,1,0,0:0:0:0:
448,192,202687,1,0,0:0:0:0:
320,192,202687,1,0,0:0:0:0:
192,192,202687,1,0,0:0:0:0:
64,192,202687,1,0,0:0:0:0:
320,192,202755,1,0,0:0:0:0:
448,192,202823,1,0,0:0:0:0:
192,192,202823,1,0,0:0:0:0:
64,192,202891,1,0,0:0:0:0:
64,192,202960,1,0,0:0:0:0:
192,192,202960,1,0,0:0:0:0:
320,192,202960,1,0,0:0:0:0:
448,192,202960,1,0,0:0:0:0:
320,192,203028,1,0,0:0:0:0:
192,192,203096,1,0,0:0:0:0:
64,192,203096,1,0,0:0:0:0:
448,192,203164,1,0,0:0:0:0:
448,192,203232,1,0,0:0:0:0:
320,192,203232,1,0,0:0:0:0:
192,192,203232,1,0,0:0:0:0:
64,192,203232,1,0,0:0:0:0:
320,192,203301,1,0,0:0:0:0:
64,192,203369,1,0,0:0:0:0:
448,192,203369,1,0,0:0:0:0:
320,192,203437,1,0,0:0:0:0:
64,192,203505,1,0,0:0:0:0:
192,192,203505,1,0,0:0:0:0:
320,192,203505,1,0,0:0:0:0:
448,192,203505,1,0,0:0:0:0:
448,192,203573,1,0,0:0:0:0:
64,192,203641,1,0,0:0:0:0:
320,192,203641,1,0,0:0:0:0:
192,192,203710,1,0,0:0:0:0:
448,192,203778,1,0,0:0:0:0:
320,192,203778,1,0,0:0:0:0:
192,192,203778,1,0,0:0:0:0:
64,192,203778,1,0,0:0:0:0:
320,192,203846,1,0,0:0:0:0:
448,192,203914,1,0,0:0:0:0:
192,192,203914,1,0,0:0:0:0:
64,192,203982,1,0,0:0:0:0:
64,192,204051,1,0,0:0:0:0:
192,192,204051,1,0,0:0:0:0:
320,192,204051,1,0,0:0:0:0:
448,192,204051,1,0,0:0:0:0:
320,192,204119,1,0,0:0:0:0:
448,192,204187,1,0,0:0:0:0:
64,192,204187,1,0,0:0:0:0:
192,192,204255,1,0,0:0:0:0:
448,192,204323,1,0,0:0:0:0:
320,192,204323,1,0,0:0:0:0:
192,192,204323,1,0,0:0:0:0:
64,192,204323,1,0,0:0:0:0:
320,192,204391,1,0,0:0:0:0:
192,192,204460,1,0,0:0:0:0:
64,192,204460,1,0,0:0:0:0:
448,192,204528,1,0,0:0:0:0:
64,192,204596,1,0,0:0:0:0:
192,192,204596,1,0,0:0:0:0:
320,192,204596,1,0,0:0:0:0:
448,192,204596,1,0,0:0:0:0:
192,192,204664,1,0,0:0:0:0:
320,192,204732,1,0,0:0:0:0:
448,192,204732,1,0,0:0:0:0:
64,192,204801,1,0,0:0:0:0:
448,192,204869,1,0,0:0:0:0:
320,192,204869,1,0,0:0:0:0:
192,192,204869,1,0,0:0:0:0:
64,192,204869,1,0,0:0:0:0:
192,192,204937,1,0,0:0:0:0:
64,192,205005,1,0,0:0:0:0:
448,192,205005,1,0,0:0:0:0:
192,192,205073,1,0,0:0:0:0:
320,192,205141,1,0,0:0:0:0:
192,192,205141,1,0,0:0:0:0:
448,192,205141,1,0,0:0:0:0:
64,192,205141,128,0,207323:0:0:0:0:
448,192,205210,1,0,0:0:0:0:
320,192,205278,1,0,0:0:0:0:
192,192,205278,1,0,0:0:0:0:
448,192,205346,1,0,0:0:0:0:
320,192,205414,1,0,0:0:0:0:
192,192,205414,1,0,0:0:0:0:
448,192,205482,1,0,0:0:0:0:
320,192,205551,1,0,0:0:0:0:
192,192,205551,1,0,0:0:0:0:
448,192,205551,1,0,0:0:0:0:
320,192,205619,1,0,0:0:0:0:
192,192,205687,1,0,0:0:0:0:
448,192,205687,1,0,0:0:0:0:
320,192,205755,1,0,0:0:0:0:
448,192,205823,1,0,0:0:0:0:
192,192,205823,1,0,0:0:0:0:
320,192,205891,1,0,0:0:0:0:
192,192,205960,1,0,0:0:0:0:
320,192,205960,1,0,0:0:0:0:
448,192,205960,1,0,0:0:0:0:
192,192,206028,1,0,0:0:0:0:
320,192,206096,1,0,0:0:0:0:
448,192,206096,1,0,0:0:0:0:
192,192,206164,1,0,0:0:0:0:
448,192,206232,1,0,0:0:0:0:
320,192,206232,1,0,0:0:0:0:
192,192,206232,1,0,0:0:0:0:
448,192,206301,1,0,0:0:0:0:
320,192,206369,1,0,0:0:0:0:
192,192,206369,1,0,0:0:0:0:
448,192,206437,1,0,0:0:0:0:
320,192,206505,1,0,0:0:0:0:
192,192,206505,1,0,0:0:0:0:
448,192,206573,1,0,0:0:0:0:
320,192,206641,1,0,0:0:0:0:
192,192,206641,1,0,0:0:0:0:
448,192,206641,1,0,0:0:0:0:
192,192,206710,1,0,0:0:0:0:
320,192,206778,1,0,0:0:0:0:
448,192,206778,1,0,0:0:0:0:
192,192,206846,1,0,0:0:0:0:
320,192,206914,1,0,0:0:0:0:
448,192,206914,1,0,0:0:0:0:
192,192,206982,1,0,0:0:0:0:
320,192,207051,1,0,0:0:0:0:
448,192,207051,1,0,0:0:0:0:
192,192,207051,1,0,0:0:0:0:
320,192,207119,1,0,0:0:0:0:
448,192,207187,1,0,0:0:0:0:
192,192,207187,1,0,0:0:0:0:
320,192,207255,1,0,0:0:0:0:
448,192,207323,128,0,208414:0:0:0:0:
320,192,207323,1,0,0:0:0:0:
192,192,207323,1,0,0:0:0:0:
64,192,207391,1,0,0:0:0:0:
192,192,207460,1,0,0:0:0:0:
320,192,207460,1,0,0:0:0:0:
64,192,207528,1,0,0:0:0:0:
192,192,207596,1,0,0:0:0:0:
320,192,207596,1,0,0:0:0:0:
64,192,207664,1,0,0:0:0:0:
192,192,207732,1,0,0:0:0:0:
320,192,207732,1,0,0:0:0:0:
64,192,207732,1,0,0:0:0:0:
320,192,207801,1,0,0:0:0:0:
192,192,207869,1,0,0:0:0:0:
64,192,207869,1,0,0:0:0:0:
320,192,207937,1,0,0:0:0:0:
192,192,208005,1,0,0:0:0:0:
64,192,208005,1,0,0:0:0:0:
320,192,208073,1,0,0:0:0:0:
192,192,208141,1,0,0:0:0:0:
64,192,208141,1,0,0:0:0:0:
320,192,208141,1,0,0:0:0:0:
192,192,208210,1,0,0:0:0:0:
64,192,208278,1,0,0:0:0:0:
320,192,208278,1,0,0:0:0:0:
192,192,208346,1,0,0:0:0:0:
192,192,208414,1,0,0:0:0:0:
64,192,208414,128,0,208551:0:0:0:0:
320,192,208414,1,0,0:0:0:0:
192,192,208551,1,0,0:0:0:0:
448,192,208551,1,0,0:0:0:0:
320,192,208619,1,0,0:0:0:0:
64,192,208619,1,0,0:0:0:0:
448,192,208687,128,0,208823:0:0:0:0:
192,192,208687,1,0,0:0:0:0:
320,192,208823,1,0,0:0:0:0:
64,192,208823,1,0,0:0:0:0:
192,192,208891,1,0,0:0:0:0:
448,192,208891,1,0,0:0:0:0:
64,192,208960,128,0,209096:0:0:0:0:
320,192,208960,1,0,0:0:0:0:
192,192,209096,1,0,0:0:0:0:
448,192,209096,1,0,0:0:0:0:
320,192,209164,1,0,0:0:0:0:
64,192,209164,1,0,0:0:0:0:
448,192,209232,1,0,0:0:0:0:
320,192,209266,1,0,0:0:0:0:
64,192,209301,1,0,0:0:0:0:
192,192,209335,1,0,0:0:0:0:
448,192,209369,1,0,0:0:0:0:
320,192,209403,1,0,0:0:0:0:
64,192,209437,1,0,0:0:0:0:
192,192,209471,1,0,0:0:0:0:
448,192,209505,1,0,0:0:0:0:
320,192,209505,1,0,0:0:0:0:
64,192,209505,1,0,0:0:0:0:
320,192,209641,1,0,0:0:0:0:
448,192,209778,1,0,0:0:0:0:
320,192,209778,1,0,0:0:0:0:
192,192,209778,1,0,0:0:0:0:
64,192,209778,1,0,0:0:0:0:
64,192,209914,1,0,0:0:0:0:
64,192,210051,1,0,0:0:0:0:
192,192,210051,1,0,0:0:0:0:
320,192,210051,1,0,0:0:0:0:
448,192,210051,1,0,0:0:0:0:
448,192,210187,1,0,0:0:0:0:
448,192,210323,1,0,0:0:0:0:
320,192,210323,1,0,0:0:0:0:
192,192,210323,1,0,0:0:0:0:
64,192,210323,1,0,0:0:0:0:
64,192,210460,1,0,0:0:0:0:
64,192,210596,1,0,0:0:0:0:
192,192,210596,1,0,0:0:0:0:
320,192,210596,1,0,0:0:0:0:
448,192,210596,1,0,0:0:0:0:
192,192,210732,1,0,0:0:0:0:
320,192,210869,1,0,0:0:0:0:
448,192,210869,1,0,0:0:0:0:
192,192,210869,1,0,0:0:0:0:
64,192,210869,1,0,0:0:0:0:
448,192,211005,1,0,0:0:0:0:
64,192,211141,1,0,0:0:0:0:
192,192,211141,1,0,0:0:0:0:
320,192,211141,1,0,0:0:0:0:
448,192,211141,1,0,0:0:0:0:
320,192,211278,1,0,0:0:0:0:
448,192,211414,1,0,0:0:0:0:
320,192,211414,1,0,0:0:0:0:
192,192,211414,1,0,0:0:0:0:
64,192,211414,1,0,0:0:0:0:
192,192,211551,1,0,0:0:0:0:
64,192,211619,1,0,0:0:0:0:
64,192,211687,1,0,0:0:0:0:
192,192,211687,1,0,0:0:0:0:
320,192,211687,1,0,0:0:0:0:
448,192,211687,1,0,0:0:0:0:
448,192,211823,1,0,0:0:0:0:
448,192,211960,1,0,0:0:0:0:
320,192,211960,1,0,0:0:0:0:
192,192,211960,1,0,0:0:0:0:
64,192,211960,1,0,0:0:0:0:
192,192,212096,1,0,0:0:0:0:
64,192,212232,1,0,0:0:0:0:
192,192,212232,1,0,0:0:0:0:
320,192,212232,1,0,0:0:0:0:
448,192,212232,1,0,0:0:0:0:
448,192,212369,1,0,0:0:0:0:
448,192,212505,1,0,0:0:0:0:
320,192,212505,1,0,0:0:0:0:
192,192,212505,1,0,0:0:0:0:
64,192,212505,1,0,0:0:0:0:
320,192,212641,1,0,0:0:0:0:
64,192,212778,1,0,0:0:0:0:
192,192,212778,1,0,0:0:0:0:
320,192,212778,1,0,0:0:0:0:
448,192,212778,1,0,0:0:0:0:
448,192,212914,1,0,0:0:0:0:
320,192,213051,1,0,0:0:0:0:
192,192,213051,1,0,0:0:0:0:
64,192,213051,1,0,0:0:0:0:
448,192,213051,1,0,0:0:0:0:
64,192,213187,1,0,0:0:0:0:
64,192,213323,1,0,0:0:0:0:
192,192,213323,1,0,0:0:0:0:
320,192,213323,1,0,0:0:0:0:
448,192,213323,1,0,0:0:0:0:
320,192,213460,1,0,0:0:0:0:
448,192,213596,1,0,0:0:0:0:
320,192,213596,1,0,0:0:0:0:
192,192,213596,1,0,0:0:0:0:
64,192,213596,1,0,0:0:0:0:
448,192,213732,1,0,0:0:0:0:
192,192,213869,1,0,0:0:0:0:
64,192,213869,1,0,0:0:0:0:
320,192,213869,1,0,0:0:0:0:
448,192,213869,1,0,0:0:0:0:
192,192,213937,1,0,0:0:0:0:
320,192,214005,1,0,0:0:0:0:
64,192,214005,1,0,0:0:0:0:
448,192,214073,1,0,0:0:0:0:
192,192,214141,1,0,0:0:0:0:
320,192,214141,1,0,0:0:0:0:
448,192,214141,1,0,0:0:0:0:
64,192,214141,1,0,0:0:0:0:
320,192,214210,1,0,0:0:0:0:
192,192,214278,1,0,0:0:0:0:
64,192,214278,1,0,0:0:0:0:
320,192,214346,1,0,0:0:0:0:
320,192,214412,1,0,0:0:0:0:
64,192,214412,128,0,214548:0:0:0:0:
192,192,214412,1,0,0:0:0:0:
448,192,214414,1,0,0:0:0:0:
192,192,214548,1,0,0:0:0:0:
320,192,214548,1,0,0:0:0:0:
448,192,214684,1,0,0:0:0:0:
320,192,214684,1,0,0:0:0:0:
192,192,214684,1,0,0:0:0:0:
64,192,214684,1,0,0:0:0:0:
192,192,214821,1,0,0:0:0:0:
320,192,214889,1,0,0:0:0:0:
448,192,214957,1,0,0:0:0:0:
320,192,215093,1,0,0:0:0:0:
448,192,215230,1,0,0:0:0:0:
320,192,215230,1,0,0:0:0:0:
192,192,215230,1,0,0:0:0:0:
64,192,215230,1,0,0:0:0:0:
64,192,215366,1,0,0:0:0:0:
448,192,215502,128,0,215639:0:0:0:0:
320,192,215502,1,0,0:0:0:0:
192,192,215502,1,0,0:0:0:0:
64,192,215502,1,0,0:0:0:0:
320,192,215639,1,0,0:0:0:0:
64,192,215775,1,0,0:0:0:0:
320,192,215912,1,0,0:0:0:0:
64,192,216048,128,0,216184:0:0:0:0:
320,192,216048,1,0,0:0:0:0:
192,192,216048,1,0,0:0:0:0:
448,192,216048,1,0,0:0:0:0:
320,192,216184,1,0,0:0:0:0:
448,192,216321,128,0,216457:0:0:0:0:
192,192,216321,1,0,0:0:0:0:
64,192,216457,1,0,0:0:0:0:
192,192,216593,128,0,216730:0:0:0:0:
320,192,216593,1,0,0:0:0:0:
448,192,216593,1,0,0:0:0:0:
64,192,216593,1,0,0:0:0:0:
448,192,216730,1,0,0:0:0:0:
448,192,216866,128,0,217002:0:0:0:0:
320,192,216866,1,0,0:0:0:0:
192,192,216866,1,0,0:0:0:0:
64,192,216866,1,0,0:0:0:0:
320,192,217002,1,0,0:0:0:0:
64,192,217139,128,0,217275:0:0:0:0:
192,192,217139,1,0,0:0:0:0:
320,192,217275,1,0,0:0:0:0:
320,192,217412,128,0,217548:0:0:0:0:
192,192,217412,1,0,0:0:0:0:
64,192,217412,1,0,0:0:0:0:
448,192,217412,1,0,0:0:0:0:
64,192,217548,1,0,0:0:0:0:
448,192,217684,128,0,217821:0:0:0:0:
320,192,217684,1,0,0:0:0:0:
192,192,217684,1,0,0:0:0:0:
64,192,217684,1,0,0:0:0:0:
192,192,217821,1,0,0:0:0:0:
64,192,217957,128,0,218093:0:0:0:0:
320,192,217957,1,0,0:0:0:0:
448,192,218093,1,0,0:0:0:0:
448,192,218230,1,0,0:0:0:0:
320,192,218230,1,0,0:0:0:0:
192,192,218230,1,0,0:0:0:0:
64,192,218230,1,0,0:0:0:0:
192,192,218366,1,0,0:0:0:0:
448,192,218502,1,0,0:0:0:0:
320,192,218502,1,0,0:0:0:0:
192,192,218502,1,0,0:0:0:0:
64,192,218502,1,0,0:0:0:0:
448,192,218639,1,0,0:0:0:0:
64,192,218775,1,0,0:0:0:0:
192,192,218775,1,0,0:0:0:0:
320,192,218775,1,0,0:0:0:0:
448,192,218775,1,0,0:0:0:0:
64,192,218911,1,0,0:0:0:0:
448,192,219048,1,0,0:0:0:0:
320,192,219048,1,0,0:0:0:0:
192,192,219048,1,0,0:0:0:0:
64,192,219048,1,0,0:0:0:0:
320,192,219184,1,0,0:0:0:0:
64,192,219320,1,0,0:0:0:0:
192,192,219320,1,0,0:0:0:0:
320,192,219320,1,0,0:0:0:0:
448,192,219320,1,0,0:0:0:0:
192,192,219457,1,0,0:0:0:0:
448,192,219593,1,0,0:0:0:0:
320,192,219593,1,0,0:0:0:0:
192,192,219593,1,0,0:0:0:0:
64,192,219593,1,0,0:0:0:0:
448,192,219730,1,0,0:0:0:0:
64,192,219866,1,0,0:0:0:0:
192,192,219866,1,0,0:0:0:0:
320,192,219866,1,0,0:0:0:0:
448,192,219866,1,0,0:0:0:0:
64,192,220002,1,0,0:0:0:0:
448,192,220139,1,0,0:0:0:0:
320,192,220139,1,0,0:0:0:0:
192,192,220139,1,0,0:0:0:0:
64,192,220139,1,0,0:0:0:0:
448,192,220275,1,0,0:0:0:0:
320,192,220343,1,0,0:0:0:0:
64,192,220411,1,0,0:0:0:0:
192,192,220411,1,0,0:0:0:0:
448,192,220411,1,0,0:0:0:0:
320,192,220411,1,0,0:0:0:0:
192,192,220548,1,0,0:0:0:0:
448,192,220684,1,0,0:0:0:0:
320,192,220684,1,0,0:0:0:0:
192,192,220684,1,0,0:0:0:0:
64,192,220684,1,0,0:0:0:0:
64,192,220820,1,0,0:0:0:0:
64,192,220957,1,0,0:0:0:0:
192,192,220957,1,0,0:0:0:0:
320,192,220957,1,0,0:0:0:0:
448,192,220957,1,0,0:0:0:0:
448,192,221093,1,0,0:0:0:0:
448,192,221230,1,0,0:0:0:0:
320,192,221230,1,0,0:0:0:0:
192,192,221230,1,0,0:0:0:0:
64,192,221230,1,0,0:0:0:0:
320,192,221366,1,0,0:0:0:0:
64,192,221502,1,0,0:0:0:0:
192,192,221502,1,0,0:0:0:0:
320,192,221502,1,0,0:0:0:0:
448,192,221502,1,0,0:0:0:0:
64,192,221639,1,0,0:0:0:0:
448,192,221775,1,0,0:0:0:0:
320,192,221775,1,0,0:0:0:0:
192,192,221775,1,0,0:0:0:0:
64,192,221775,1,0,0:0:0:0:
448,192,221911,1,0,0:0:0:0:
64,192,222048,1,0,0:0:0:0:
192,192,222048,1,0,0:0:0:0:
320,192,222048,1,0,0:0:0:0:
448,192,222048,1,0,0:0:0:0:
320,192,222184,1,0,0:0:0:0:
448,192,222320,1,0,0:0:0:0:
320,192,222320,1,0,0:0:0:0:
192,192,222320,1,0,0:0:0:0:
64,192,222320,1,0,0:0:0:0:
64,192,222457,1,0,0:0:0:0:
64,192,222593,1,0,0:0:0:0:
192,192,222593,1,0,0:0:0:0:
320,192,222593,1,0,0:0:0:0:
448,192,222593,1,0,0:0:0:0:
448,192,222729,1,0,0:0:0:0:
320,192,222865,1,0,0:0:0:0:
192,192,222865,1,0,0:0:0:0:
64,192,223002,1,0,0:0:0:0:
320,192,223138,1,0,0:0:0:0:
192,192,223138,1,0,0:0:0:0:
64,192,223138,128,0,223274:0:0:0:0:
448,192,223140,1,0,0:0:0:0:
192,192,223274,1,0,0:0:0:0:
320,192,223274,1,0,0:0:0:0:
192,192,223411,1,0,0:0:0:0:
448,192,223411,1,0,0:0:0:0:
64,192,223411,1,0,0:0:0:0:
320,192,223411,1,0,0:0:0:0:
192,192,223547,1,0,0:0:0:0:
320,192,223615,1,0,0:0:0:0:
448,192,223683,1,0,0:0:0:0:
320,192,223820,1,0,0:0:0:0:
192,192,223956,1,0,0:0:0:0:
64,192,223956,1,0,0:0:0:0:
320,192,223956,1,0,0:0:0:0:
448,192,223956,1,0,0:0:0:0:
448,192,224093,128,0,224229:0:0:0:0:
320,192,224093,1,0,0:0:0:0:
64,192,224229,128,0,224365:0:0:0:0:
192,192,224229,1,0,0:0:0:0:
320,192,224365,1,0,0:0:0:0:
448,192,224502,1,0,0:0:0:0:
192,192,224638,128,0,224774:0:0:0:0:
320,192,224638,1,0,0:0:0:0:
448,192,224774,128,0,225183:0:0:0:0:
64,192,224774,128,0,225183:0:0:0:0:
192,192,225183,128,0,225252:0:0:0:0:
320,192,225183,128,0,225252:0:0:0:0:
192,192,225320,128,0,225388:0:0:0:0:
320,192,225320,128,0,225388:0:0:0:0:
64,192,225456,128,0,225865:0:0:0:0:
448,192,225456,128,0,225865:0:0:0:0:
192,192,225865,1,0,0:0:0:0:
320,192,225933,1,0,0:0:0:0:
448,192,226002,1,0,0:0:0:0:
64,192,226070,1,0,0:0:0:0:
192,192,226138,1,0,0:0:0:0:
448,192,226206,1,0,0:0:0:0:
320,192,226274,1,0,0:0:0:0:
64,192,226343,1,0,0:0:0:0:
192,192,226411,1,0,0:0:0:0:
448,192,226479,1,0,0:0:0:0:
320,192,226547,1,0,0:0:0:0:
64,192,226615,1,0,0:0:0:0:
192,192,226683,1,0,0:0:0:0:
320,192,226752,1,0,0:0:0:0:
448,192,226820,1,0,0:0:0:0:
320,192,226888,1,0,0:0:0:0:
192,192,226956,1,0,0:0:0:0:
448,192,226956,1,0,0:0:0:0:
320,192,226956,1,0,0:0:0:0:
64,192,226960,1,0,0:0:0:0:
320,192,227232,1,0,0:0:0:0:
192,192,227369,1,0,0:0:0:0:
64,192,227369,1,0,0:0:0:0:
320,192,227369,1,0,0:0:0:0:
448,192,227369,1,0,0:0:0:0:
448,192,227778,1,0,0:0:0:0:
320,192,227778,1,0,0:0:0:0:
192,192,227778,1,0,0:0:0:0:
64,192,227778,1,0,0:0:0:0:
192,192,228187,1,0,0:0:0:0:
64,192,228187,1,0,0:0:0:0:
320,192,228187,1,0,0:0:0:0:
448,192,228187,1,0,0:0:0:0:
64,192,228596,1,0,0:0:0:0:
192,192,228596,1,0,0:0:0:0:
320,192,228596,1,0,0:0:0:0:
448,192,228596,1,0,0:0:0:0:
320,192,228732,1,0,0:0:0:0:
448,192,228869,1,0,0:0:0:0:
320,192,228869,1,0,0:0:0:0:
192,192,228869,1,0,0:0:0:0:
64,192,228869,1,0,0:0:0:0:
192,192,229141,1,0,0:0:0:0:
320,192,229141,1,0,0:0:0:0:
448,192,229141,1,0,0:0:0:0:
64,192,229141,1,0,0:0:0:0:
64,192,229550,1,0,0:0:0:0:
192,192,229550,1,0,0:0:0:0:
320,192,229550,1,0,0:0:0:0:
448,192,229550,1,0,0:0:0:0:
320,192,229960,1,0,0:0:0:0:
192,192,229960,1,0,0:0:0:0:
64,192,229960,1,0,0:0:0:0:
448,192,229960,1,0,0:0:0:0:
64,192,230369,1,0,0:0:0:0:
192,192,230369,1,0,0:0:0:0:
320,192,230369,1,0,0:0:0:0:
448,192,230369,1,0,0:0:0:0:
448,192,230778,1,0,0:0:0:0:
64,192,230778,1,0,0:0:0:0:
192,192,230778,1,0,0:0:0:0:
320,192,230812,1,0,0:0:0:0:
64,192,230846,1,0,0:0:0:0:
192,192,230880,1,0,0:0:0:0:
448,192,230914,1,0,0:0:0:0:
320,192,230948,1,0,0:0:0:0:
64,192,230982,1,0,0:0:0:0:
192,192,231016,1,0,0:0:0:0:
448,192,231050,1,0,0:0:0:0:
320,192,231085,1,0,0:0:0:0:
64,192,231119,1,0,0:0:0:0:
192,192,231153,1,0,0:0:0:0:
448,192,231187,1,0,0:0:0:0:
320,192,231221,1,0,0:0:0:0:
64,192,231255,1,0,0:0:0:0:
192,192,231289,1,0,0:0:0:0:
448,192,231323,1,0,0:0:0:0:
320,192,231323,1,0,0:0:0:0:
64,192,231323,1,0,0:0:0:0:
448,192,231596,1,0,0:0:0:0:
448,192,231732,1,0,0:0:0:0:
320,192,231732,1,0,0:0:0:0:
192,192,231732,1,0,0:0:0:0:
64,192,231732,1,0,0:0:0:0:
192,192,232141,1,0,0:0:0:0:
64,192,232141,1,0,0:0:0:0:
320,192,232141,1,0,0:0:0:0:
448,192,232141,1,0,0:0:0:0:
448,192,232550,1,0,0:0:0:0:
320,192,232550,1,0,0:0:0:0:
192,192,232550,1,0,0:0:0:0:
64,192,232550,1,0,0:0:0:0:
64,192,232960,1,0,0:0:0:0:
192,192,232960,1,0,0:0:0:0:
320,192,232960,1,0,0:0:0:0:
448,192,232960,1,0,0:0:0:0:
320,192,233096,1,0,0:0:0:0:
64,192,233232,1,0,0:0:0:0:
320,192,233232,1,0,0:0:0:0:
192,192,233232,1,0,0:0:0:0:
448,192,233232,1,0,0:0:0:0:
320,192,233505,1,0,0:0:0:0:
448,192,233505,1,0,0:0:0:0:
192,192,233505,1,0,0:0:0:0:
64,192,233505,1,0,0:0:0:0:
64,192,233914,1,0,0:0:0:0:
192,192,233914,1,0,0:0:0:0:
320,192,233914,1,0,0:0:0:0:
448,192,233914,1,0,0:0:0:0:
64,192,234323,1,0,0:0:0:0:
192,192,234323,1,0,0:0:0:0:
320,192,234323,1,0,0:0:0:0:
448,192,234323,1,0,0:0:0:0:
64,192,234732,1,0,0:0:0:0:
192,192,234732,1,0,0:0:0:0:
320,192,234732,1,0,0:0:0:0:
448,192,234732,1,0,0:0:0:0:
448,192,235141,1,0,0:0:0:0:
320,192,235141,1,0,0:0:0:0:
192,192,235141,1,0,0:0:0:0:
64,192,235141,1,0,0:0:0:0:
192,192,235278,1,0,0:0:0:0:
448,192,235346,1,0,0:0:0:0:
320,192,235346,1,0,0:0:0:0:
64,192,235346,1,0,0:0:0:0:
64,192,235550,1,0,0:0:0:0:
192,192,235550,1,0,0:0:0:0:
448,192,235550,1,0,0:0:0:0:
192,192,235687,1,0,0:0:0:0:
320,192,235687,1,0,0:0:0:0:
448,192,235687,1,0,0:0:0:0:
64,192,235687,1,0,0:0:0:0:
64,192,235755,1,0,0:0:0:0:
192,192,235823,1,0,0:0:0:0:
320,192,235891,1,0,0:0:0:0:
448,192,235960,1,0,0:0:0:0:
192,192,235960,1,0,0:0:0:0:
64,192,235960,1,0,0:0:0:0:
192,192,236096,1,0,0:0:0:0:
320,192,236096,1,0,0:0:0:0:
448,192,236096,1,0,0:0:0:0:
64,192,236096,1,0,0:0:0:0:
448,192,236164,1,0,0:0:0:0:
320,192,236232,1,0,0:0:0:0:
192,192,236300,1,0,0:0:0:0:
64,192,236369,1,0,0:0:0:0:
448,192,236369,1,0,0:0:0:0:
320,192,236369,1,0,0:0:0:0:
64,192,236505,1,0,0:0:0:0:
192,192,236505,1,0,0:0:0:0:
320,192,236505,1,0,0:0:0:0:
448,192,236505,1,0,0:0:0:0:
64,192,236573,1,0,0:0:0:0:
192,192,236641,1,0,0:0:0:0:
320,192,236710,1,0,0:0:0:0:
448,192,236778,1,0,0:0:0:0:
64,192,236778,1,0,0:0:0:0:
192,192,236778,1,0,0:0:0:0:
64,192,236914,1,0,0:0:0:0:
320,192,236914,1,0,0:0:0:0:
448,192,236914,1,0,0:0:0:0:
192,192,236914,1,0,0:0:0:0:
448,192,236982,1,0,0:0:0:0:
320,192,237050,1,0,0:0:0:0:
64,192,237119,1,0,0:0:0:0:
192,192,237187,1,0,0:0:0:0:
448,192,237187,1,0,0:0:0:0:
320,192,237187,1,0,0:0:0:0:
64,192,237323,1,0,0:0:0:0:
192,192,237323,1,0,0:0:0:0:
320,192,237323,1,0,0:0:0:0:
448,192,237323,1,0,0:0:0:0:
64,192,237391,1,0,0:0:0:0:
192,192,237460,1,0,0:0:0:0:
320,192,237528,1,0,0:0:0:0:
448,192,237596,1,0,0:0:0:0:
320,192,237596,1,0,0:0:0:0:
192,192,237596,1,0,0:0:0:0:
64,192,237596,1,0,0:0:0:0:
448,192,237664,1,0,0:0:0:0:
320,192,237732,1,0,0:0:0:0:
192,192,237800,1,0,0:0:0:0:
64,192,237869,1,0,0:0:0:0:
192,192,237869,1,0,0:0:0:0:
320,192,237869,1,0,0:0:0:0:
448,192,237869,1,0,0:0:0:0:
64,192,237937,1,0,0:0:0:0:
448,192,238005,1,0,0:0:0:0:
320,192,238073,1,0,0:0:0:0:
192,192,238141,1,0,0:0:0:0:
64,192,238141,1,0,0:0:0:0:
448,192,238141,1,0,0:0:0:0:
64,192,238278,1,0,0:0:0:0:
192,192,238278,1,0,0:0:0:0:
448,192,238278,1,0,0:0:0:0:
320,192,238278,1,0,0:0:0:0:
448,192,238346,1,0,0:0:0:0:
320,192,238414,1,0,0:0:0:0:
192,192,238482,1,0,0:0:0:0:
64,192,238550,1,0,0:0:0:0:
448,192,238550,1,0,0:0:0:0:
320,192,238550,1,0,0:0:0:0:
64,192,238687,1,0,0:0:0:0:
192,192,238687,1,0,0:0:0:0:
320,192,238687,1,0,0:0:0:0:
448,192,238687,1,0,0:0:0:0:
64,192,238755,1,0,0:0:0:0:
192,192,238823,1,0,0:0:0:0:
448,192,238891,1,0,0:0:0:0:
320,192,238960,1,0,0:0:0:0:
192,192,238960,1,0,0:0:0:0:
64,192,238960,1,0,0:0:0:0:
64,192,239096,1,0,0:0:0:0:
192,192,239096,1,0,0:0:0:0:
320,192,239096,1,0,0:0:0:0:
448,192,239096,1,0,0:0:0:0:
448,192,239164,1,0,0:0:0:0:
320,192,239232,1,0,0:0:0:0:
192,192,239300,1,0,0:0:0:0:
64,192,239369,1,0,0:0:0:0:
320,192,239369,1,0,0:0:0:0:
448,192,239369,1,0,0:0:0:0:
448,192,239505,1,0,0:0:0:0:
64,192,239505,1,0,0:0:0:0:
192,192,239505,1,0,0:0:0:0:
320,192,239539,1,0,0:0:0:0:
64,192,239573,1,0,0:0:0:0:
192,192,239607,1,0,0:0:0:0:
448,192,239641,1,0,0:0:0:0:
320,192,239675,1,0,0:0:0:0:
64,192,239710,1,0,0:0:0:0:
192,192,239744,1,0,0:0:0:0:
448,192,239778,1,0,0:0:0:0:
320,192,239812,1,0,0:0:0:0:
64,192,239846,1,0,0:0:0:0:
192,192,239880,1,0,0:0:0:0:
448,192,239914,1,0,0:0:0:0:
320,192,239948,1,0,0:0:0:0:
64,192,239982,1,0,0:0:0:0:
192,192,240016,1,0,0:0:0:0:
320,192,240050,1,0,0:0:0:0:
448,192,240050,1,0,0:0:0:0:
64,192,240050,1,0,0:0:0:0:
192,192,240119,1,0,0:0:0:0:
320,192,240187,1,0,0:0:0:0:
448,192,240255,1,0,0:0:0:0:
320,192,240323,1,0,0:0:0:0:
192,192,240323,1,0,0:0:0:0:
64,192,240323,1,0,0:0:0:0:
448,192,240391,1,0,0:0:0:0:
320,192,240460,1,0,0:0:0:0:
192,192,240460,1,0,0:0:0:0:
64,192,240460,1,0,0:0:0:0:
448,192,240460,1,0,0:0:0:0:
192,192,240528,1,0,0:0:0:0:
448,192,240596,1,0,0:0:0:0:
192,192,240664,1,0,0:0:0:0:
320,192,240732,1,0,0:0:0:0:
448,192,240732,1,0,0:0:0:0:
64,192,240732,1,0,0:0:0:0:
192,192,240800,1,0,0:0:0:0:
64,192,240869,1,0,0:0:0:0:
192,192,240869,1,0,0:0:0:0:
320,192,240869,1,0,0:0:0:0:
448,192,240869,1,0,0:0:0:0:
448,192,240937,1,0,0:0:0:0:
320,192,241005,1,0,0:0:0:0:
192,192,241073,1,0,0:0:0:0:
64,192,241141,1,0,0:0:0:0:
320,192,241141,1,0,0:0:0:0:
448,192,241141,1,0,0:0:0:0:
192,192,241210,1,0,0:0:0:0:
320,192,241278,1,0,0:0:0:0:
448,192,241278,1,0,0:0:0:0:
64,192,241278,1,0,0:0:0:0:
192,192,241278,1,0,0:0:0:0:
448,192,241346,1,0,0:0:0:0:
320,192,241414,1,0,0:0:0:0:
192,192,241482,1,0,0:0:0:0:
64,192,241550,1,0,0:0:0:0:
320,192,241550,1,0,0:0:0:0:
448,192,241550,1,0,0:0:0:0:
192,192,241619,1,0,0:0:0:0:
320,192,241687,1,0,0:0:0:0:
448,192,241687,1,0,0:0:0:0:
192,192,241687,1,0,0:0:0:0:
64,192,241687,1,0,0:0:0:0:
448,192,241755,1,0,0:0:0:0:
64,192,241823,1,0,0:0:0:0:
192,192,241891,1,0,0:0:0:0:
320,192,241960,1,0,0:0:0:0:
448,192,241960,1,0,0:0:0:0:
64,192,241960,1,0,0:0:0:0:
192,192,241960,1,0,0:0:0:0:
448,192,242028,1,0,0:0:0:0:
320,192,242096,1,0,0:0:0:0:
192,192,242164,1,0,0:0:0:0:
192,192,242232,1,0,0:0:0:0:
320,192,242232,1,0,0:0:0:0:
448,192,242232,1,0,0:0:0:0:
64,192,242232,1,0,0:0:0:0:
64,192,242687,1,0,0:0:0:0:
192,192,242778,1,0,0:0:0:0:
320,192,242869,1,0,0:0:0:0:
448,192,242960,1,0,0:0:0:0:
320,192,243050,1,0,0:0:0:0:
192,192,243141,1,0,0:0:0:0:
64,192,243232,1,0,0:0:0:0:
192,192,243323,1,0,0:0:0:0:
320,192,243414,1,0,0:0:0:0:
448,192,243505,1,0,0:0:0:0:
320,192,243596,1,0,0:0:0:0:
192,192,243687,1,0,0:0:0:0:
64,192,243778,1,0,0:0:0:0:
448,192,243869,1,0,0:0:0:0:
320,192,243960,1,0,0:0:0:0:
192,192,244050,1,0,0:0:0:0:
64,192,244141,1,0,0:0:0:0:
192,192,244232,1,0,0:0:0:0:
320,192,244323,1,0,0:0:0:0:
448,192,244414,1,0,0:0:0:0:
64,192,244414,128,0,244960:0:0:0:0:
192,192,244414,128,0,245232:0:0:0:0:
448,192,244687,128,0,244960:0:0:0:0:
320,192,244960,128,0,245232:0:0:0:0:
448,192,245232,1,0,0:0:0:0:
64,192,245232,128,0,245300:0:0:0:0:
192,192,245369,128,0,245437:0:0:0:0:
320,192,245369,1,0,0:0:0:0:
448,192,245369,1,0,0:0:0:0:
320,192,245505,128,0,245573:0:0:0:0:
64,192,245505,1,0,0:0:0:0:
448,192,245505,1,0,0:0:0:0:
448,192,245641,128,0,245710:0:0:0:0:
64,192,245641,1,0,0:0:0:0:
320,192,245710,1,0,0:0:0:0:
192,192,245710,1,0,0:0:0:0:
64,192,245778,128,0,245846:0:0:0:0:
448,192,245778,1,0,0:0:0:0:
192,192,245778,1,0,0:0:0:0:
192,192,245914,128,0,245982:0:0:0:0:
320,192,245914,1,0,0:0:0:0:
448,192,245914,1,0,0:0:0:0:
320,192,246050,128,0,246119:0:0:0:0:
448,192,246050,1,0,0:0:0:0:
192,192,246119,1,0,0:0:0:0:
64,192,246119,1,0,0:0:0:0:
448,192,246187,128,0,246255:0:0:0:0:
320,192,246187,1,0,0:0:0:0:
64,192,246187,1,0,0:0:0:0:
64,192,246323,128,0,246391:0:0:0:0:
192,192,246323,1,0,0:0:0:0:
320,192,246323,1,0,0:0:0:0:
192,192,246460,128,0,246528:0:0:0:0:
320,192,246460,1,0,0:0:0:0:
320,192,246596,128,0,246664:0:0:0:0:
448,192,246596,1,0,0:0:0:0:
64,192,246596,1,0,0:0:0:0:
448,192,246732,128,0,246800:0:0:0:0:
64,192,246732,1,0,0:0:0:0:
192,192,246800,1,0,0:0:0:0:
320,192,246800,1,0,0:0:0:0:
64,192,246869,128,0,246937:0:0:0:0:
448,192,246869,1,0,0:0:0:0:
192,192,246869,1,0,0:0:0:0:
192,192,247005,128,0,247073:0:0:0:0:
320,192,247005,1,0,0:0:0:0:
448,192,247005,1,0,0:0:0:0:
320,192,247141,128,0,247210:0:0:0:0:
448,192,247141,1,0,0:0:0:0:
64,192,247210,1,0,0:0:0:0:
192,192,247210,1,0,0:0:0:0:
448,192,247278,128,0,247346:0:0:0:0:
320,192,247278,1,0,0:0:0:0:
64,192,247278,1,0,0:0:0:0:
64,192,247414,128,0,247482:0:0:0:0:
192,192,247414,1,0,0:0:0:0:
320,192,247414,1,0,0:0:0:0:
192,192,247550,128,0,247619:0:0:0:0:
320,192,247550,1,0,0:0:0:0:
448,192,247550,1,0,0:0:0:0:
448,192,247687,1,0,0:0:0:0:
64,192,247687,1,0,0:0:0:0:
192,192,247687,1,0,0:0:0:0:
320,192,247755,1,0,0:0:0:0:
192,192,247823,1,0,0:0:0:0:
64,192,247891,1,0,0:0:0:0:
320,192,247891,1,0,0:0:0:0:
448,192,247960,128,0,248028:0:0:0:0:
192,192,247960,1,0,0:0:0:0:
64,192,247960,1,0,0:0:0:0:
320,192,248096,128,0,248164:0:0:0:0:
192,192,248096,1,0,0:0:0:0:
64,192,248096,1,0,0:0:0:0:
192,192,248232,128,0,248300:0:0:0:0:
64,192,248232,1,0,0:0:0:0:
448,192,248300,1,0,0:0:0:0:
320,192,248300,1,0,0:0:0:0:
64,192,248369,128,0,248437:0:0:0:0:
192,192,248369,1,0,0:0:0:0:
448,192,248369,1,0,0:0:0:0:
448,192,248505,128,0,248778:0:0:0:0:
192,192,248505,1,0,0:0:0:0:
320,192,248505,1,0,0:0:0:0:
192,192,248641,1,0,0:0:0:0:
320,192,248778,128,0,249050:0:0:0:0:
192,192,248778,1,0,0:0:0:0:
64,192,248778,1,0,0:0:0:0:
448,192,248914,1,0,0:0:0:0:
192,192,248982,1,0,0:0:0:0:
64,192,248982,1,0,0:0:0:0:
448,192,249050,128,0,249323:0:0:0:0:
192,192,249050,1,0,0:0:0:0:
64,192,249050,1,0,0:0:0:0:
320,192,249187,1,0,0:0:0:0:
64,192,249187,1,0,0:0:0:0:
192,192,249187,1,0,0:0:0:0:
320,192,249323,128,0,249596:0:0:0:0:
192,192,249323,1,0,0:0:0:0:
64,192,249391,1,0,0:0:0:0:
192,192,249391,1,0,0:0:0:0:
448,192,249460,1,0,0:0:0:0:
64,192,249460,1,0,0:0:0:0:
448,192,249596,128,0,249800:0:0:0:0:
192,192,249596,1,0,0:0:0:0:
64,192,249596,1,0,0:0:0:0:
320,192,249732,1,0,0:0:0:0:
192,192,249732,1,0,0:0:0:0:
64,192,249732,1,0,0:0:0:0:
64,192,249869,128,0,250073:0:0:0:0:
192,192,249869,1,0,0:0:0:0:
320,192,249869,1,0,0:0:0:0:
192,192,250005,1,0,0:0:0:0:
192,192,250073,1,0,0:0:0:0:
320,192,250073,1,0,0:0:0:0:
448,192,250141,128,0,250346:0:0:0:0:
320,192,250141,1,0,0:0:0:0:
64,192,250141,1,0,0:0:0:0:
192,192,250278,1,0,0:0:0:0:
320,192,250278,1,0,0:0:0:0:
64,192,250278,1,0,0:0:0:0:
64,192,250414,128,0,250619:0:0:0:0:
192,192,250414,1,0,0:0:0:0:
448,192,250482,1,0,0:0:0:0:
320,192,250482,1,0,0:0:0:0:
192,192,250550,1,0,0:0:0:0:
320,192,250550,1,0,0:0:0:0:
448,192,250687,128,0,250891:0:0:0:0:
320,192,250687,1,0,0:0:0:0:
192,192,250687,1,0,0:0:0:0:
192,192,250823,1,0,0:0:0:0:
64,192,250960,128,0,251164:0:0:0:0:
320,192,250960,1,0,0:0:0:0:
448,192,250960,1,0,0:0:0:0:
192,192,251096,1,0,0:0:0:0:
448,192,251164,1,0,0:0:0:0:
320,192,251164,1,0,0:0:0:0:
448,192,251232,128,0,251437:0:0:0:0:
192,192,251232,1,0,0:0:0:0:
64,192,251232,1,0,0:0:0:0:
320,192,251369,1,0,0:0:0:0:
192,192,251369,1,0,0:0:0:0:
64,192,251369,1,0,0:0:0:0:
64,192,251505,128,0,251710:0:0:0:0:
192,192,251505,1,0,0:0:0:0:
448,192,251573,1,0,0:0:0:0:
320,192,251573,1,0,0:0:0:0:
320,192,251641,1,0,0:0:0:0:
192,192,251641,1,0,0:0:0:0:
448,192,251778,128,0,251982:0:0:0:0:
320,192,251778,1,0,0:0:0:0:
192,192,251778,1,0,0:0:0:0:
64,192,251914,1,0,0:0:0:0:
320,192,251914,1,0,0:0:0:0:
192,192,251914,1,0,0:0:0:0:
192,192,252050,128,0,252255:0:0:0:0:
320,192,252050,1,0,0:0:0:0:
64,192,252050,1,0,0:0:0:0:
320,192,252187,1,0,0:0:0:0:
64,192,252255,1,0,0:0:0:0:
448,192,252255,1,0,0:0:0:0:
320,192,252323,128,0,252528:0:0:0:0:
192,192,252323,1,0,0:0:0:0:
448,192,252460,1,0,0:0:0:0:
192,192,252460,1,0,0:0:0:0:
64,192,252460,1,0,0:0:0:0:
448,192,252664,1,0,0:0:0:0:
320,192,252664,1,0,0:0:0:0:
64,192,252664,1,0,0:0:0:0:
64,192,252732,1,0,0:0:0:0:
192,192,252732,1,0,0:0:0:0:
320,192,252732,1,0,0:0:0:0:
448,192,252869,1,0,0:0:0:0:
320,192,252869,1,0,0:0:0:0:
192,192,252869,1,0,0:0:0:0:
64,192,253005,1,0,0:0:0:0:
192,192,253005,1,0,0:0:0:0:
320,192,253005,1,0,0:0:0:0:
448,192,253141,1,0,0:0:0:0:
320,192,253141,1,0,0:0:0:0:
192,192,253141,1,0,0:0:0:0:
448,192,253414,1,0,0:0:0:0:
64,192,253414,1,0,0:0:0:0:
192,192,253414,1,0,0:0:0:0:
448,192,253550,1,0,0:0:0:0:
320,192,253550,1,0,0:0:0:0:
64,192,253550,1,0,0:0:0:0:
448,192,253755,1,0,0:0:0:0:
320,192,253755,1,0,0:0:0:0:
64,192,253823,1,0,0:0:0:0:
192,192,253823,1,0,0:0:0:0:
448,192,253960,1,0,0:0:0:0:
320,192,253960,128,0,254096:0:0:0:0:
64,192,253960,1,0,0:0:0:0:
192,192,254096,1,0,0:0:0:0:
448,192,254096,1,0,0:0:0:0:
64,192,254096,128,0,254232:0:0:0:0:
320,192,254232,1,0,0:0:0:0:
192,192,254232,1,0,0:0:0:0:
448,192,254232,128,0,254369:0:0:0:0:
192,192,254369,128,0,254505:0:0:0:0:
64,192,254437,1,0,0:0:0:0:
320,192,254437,1,0,0:0:0:0:
320,192,254505,1,0,0:0:0:0:
448,192,254505,128,0,254641:0:0:0:0:
64,192,254505,1,0,0:0:0:0:
64,192,254641,1,0,0:0:0:0:
192,192,254641,1,0,0:0:0:0:
320,192,254641,128,0,254778:0:0:0:0:
64,192,254778,128,0,254914:0:0:0:0:
448,192,254846,1,0,0:0:0:0:
192,192,254846,1,0,0:0:0:0:
320,192,254914,1,0,0:0:0:0:
192,192,254914,1,0,0:0:0:0:
448,192,254914,128,0,255050:0:0:0:0:
320,192,255050,1,0,0:0:0:0:
64,192,255050,1,0,0:0:0:0:
192,192,255050,128,0,255187:0:0:0:0:
448,192,255187,128,0,255323:0:0:0:0:
320,192,255187,1,0,0:0:0:0:
64,192,255187,1,0,0:0:0:0:
64,192,255323,128,0,255460:0:0:0:0:
320,192,255323,1,0,0:0:0:0:
192,192,255323,1,0,0:0:0:0:
320,192,255460,128,0,255596:0:0:0:0:
64,192,255528,1,0,0:0:0:0:
192,192,255528,1,0,0:0:0:0:
448,192,255596,128,0,255732:0:0:0:0:
192,192,255596,1,0,0:0:0:0:
64,192,255596,1,0,0:0:0:0:
64,192,255732,128,0,255869:0:0:0:0:
192,192,255732,1,0,0:0:0:0:
320,192,255732,1,0,0:0:0:0:
320,192,255869,128,0,256005:0:0:0:0:
448,192,255937,1,0,0:0:0:0:
192,192,255937,1,0,0:0:0:0:
448,192,256005,128,0,256141:0:0:0:0:
192,192,256005,1,0,0:0:0:0:
64,192,256005,1,0,0:0:0:0:
192,192,256141,128,0,256278:0:0:0:0:
320,192,256141,1,0,0:0:0:0:
64,192,256141,1,0,0:0:0:0:
64,192,256278,128,0,256414:0:0:0:0:
320,192,256278,1,0,0:0:0:0:
448,192,256278,1,0,0:0:0:0:
448,192,256414,1,0,0:0:0:0:
192,192,256414,1,0,0:0:0:0:
320,192,256414,1,0,0:0:0:0:
448,192,256482,1,0,0:0:0:0:
320,192,256550,1,0,0:0:0:0:
192,192,256619,1,0,0:0:0:0:
448,192,256619,1,0,0:0:0:0:
448,192,256687,128,0,256823:0:0:0:0:
64,192,256687,1,0,0:0:0:0:
320,192,256687,1,0,0:0:0:0:
64,192,256823,128,0,256960:0:0:0:0:
192,192,256823,1,0,0:0:0:0:
320,192,256823,1,0,0:0:0:0:
192,192,256960,128,0,257096:0:0:0:0:
448,192,257028,1,0,0:0:0:0:
320,192,257028,1,0,0:0:0:0:
448,192,257096,128,0,257232:0:0:0:0:
64,192,257096,1,0,0:0:0:0:
320,192,257096,1,0,0:0:0:0:
320,192,257232,128,0,257505:0:0:0:0:
192,192,257232,1,0,0:0:0:0:
64,192,257232,1,0,0:0:0:0:
448,192,257369,1,0,0:0:0:0:
64,192,257369,1,0,0:0:0:0:
448,192,257505,1,0,0:0:0:0:
192,192,257505,1,0,0:0:0:0:
64,192,257505,128,0,258050:0:0:0:0:
320,192,257641,1,0,0:0:0:0:
448,192,257778,1,0,0:0:0:0:
320,192,257914,1,0,0:0:0:0:
192,192,257914,1,0,0:0:0:0:
448,192,258050,1,0,0:0:0:0:
320,192,258050,1,0,0:0:0:0:
192,192,258050,1,0,0:0:0:0:
64,192,258187,1,0,0:0:0:0:
448,192,258187,1,0,0:0:0:0:
192,192,258323,1,0,0:0:0:0:
320,192,258323,1,0,0:0:0:0:
448,192,258323,1,0,0:0:0:0:
64,192,258460,1,0,0:0:0:0:
192,192,258460,1,0,0:0:0:0:
320,192,258528,1,0,0:0:0:0:
448,192,258528,1,0,0:0:0:0:
192,192,258596,1,0,0:0:0:0:
64,192,258596,1,0,0:0:0:0:
448,192,258596,1,0,0:0:0:0:
320,192,258732,1,0,0:0:0:0:
192,192,258732,1,0,0:0:0:0:
448,192,258869,1,0,0:0:0:0:
64,192,258937,1,0,0:0:0:0:
192,192,258937,1,0,0:0:0:0:
448,192,259005,1,0,0:0:0:0:
320,192,259005,1,0,0:0:0:0:
64,192,259005,1,0,0:0:0:0:
448,192,259141,1,0,0:0:0:0:
320,192,259141,1,0,0:0:0:0:
192,192,259141,1,0,0:0:0:0:
64,192,259278,1,0,0:0:0:0:
192,192,259278,1,0,0:0:0:0:
320,192,259346,1,0,0:0:0:0:
448,192,259346,1,0,0:0:0:0:
64,192,259414,1,0,0:0:0:0:
192,192,259414,1,0,0:0:0:0:
448,192,259414,1,0,0:0:0:0:
448,192,259550,1,0,0:0:0:0:
64,192,259550,1,0,0:0:0:0:
192,192,259687,1,0,0:0:0:0:
320,192,259687,1,0,0:0:0:0:
448,192,259687,1,0,0:0:0:0:
64,192,259687,128,0,259960:0:0:0:0:
192,192,259960,128,0,260232:0:0:0:0:
448,192,260096,1,0,0:0:0:0:
320,192,260096,1,0,0:0:0:0:
64,192,260232,1,0,0:0:0:0:
448,192,260232,1,0,0:0:0:0:
320,192,260232,1,0,0:0:0:0:
320,192,260369,1,0,0:0:0:0:
192,192,260369,1,0,0:0:0:0:
448,192,260505,1,0,0:0:0:0:
192,192,260505,1,0,0:0:0:0:
64,192,260505,1,0,0:0:0:0:
448,192,260641,1,0,0:0:0:0:
320,192,260641,1,0,0:0:0:0:
192,192,260710,5,0,0:0:0:0:
64,192,260710,1,0,0:0:0:0:
320,192,260778,1,0,0:0:0:0:
448,192,260778,1,0,0:0:0:0:
64,192,260778,1,0,0:0:0:0:
448,192,260914,1,0,0:0:0:0:
192,192,260914,1,0,0:0:0:0:
64,192,261050,1,0,0:0:0:0:
448,192,261119,1,0,0:0:0:0:
320,192,261119,1,0,0:0:0:0:
192,192,261187,1,0,0:0:0:0:
64,192,261187,1,0,0:0:0:0:
448,192,261187,1,0,0:0:0:0:
64,192,261323,1,0,0:0:0:0:
320,192,261323,1,0,0:0:0:0:
448,192,261323,1,0,0:0:0:0:
192,192,261357,1,0,0:0:0:0:
320,192,261391,1,0,0:0:0:0:
448,192,261425,1,0,0:0:0:0:
64,192,261460,1,0,0:0:0:0:
192,192,261494,1,0,0:0:0:0:
320,192,261528,1,0,0:0:0:0:
448,192,261562,1,0,0:0:0:0:
64,192,261596,1,0,0:0:0:0:
192,192,261630,1,0,0:0:0:0:
320,192,261664,1,0,0:0:0:0:
448,192,261698,1,0,0:0:0:0:
64,192,261732,1,0,0:0:0:0:
192,192,261766,1,0,0:0:0:0:
320,192,261800,1,0,0:0:0:0:
448,192,261835,1,0,0:0:0:0:
448,192,261869,5,0,0:0:0:0:
320,192,261869,1,0,0:0:0:0:
64,192,261869,1,0,0:0:0:0:
192,192,261869,1,0,0:0:0:0:
64,192,261937,1,0,0:0:0:0:
192,192,262005,1,0,0:0:0:0:
448,192,262005,1,0,0:0:0:0:
320,192,262005,1,0,0:0:0:0:
64,192,262073,1,0,0:0:0:0:
320,192,262141,1,0,0:0:0:0:
448,192,262141,1,0,0:0:0:0:
192,192,262141,1,0,0:0:0:0:
64,192,262141,1,0,0:0:0:0:
448,192,262210,1,0,0:0:0:0:
320,192,262278,1,0,0:0:0:0:
192,192,262278,1,0,0:0:0:0:
64,192,262278,1,0,0:0:0:0:
448,192,262346,1,0,0:0:0:0:
64,192,262414,1,0,0:0:0:0:
192,192,262414,1,0,0:0:0:0:
320,192,262414,1,0,0:0:0:0:
448,192,262414,1,0,0:0:0:0:
320,192,262482,1,0,0:0:0:0:
192,192,262550,1,0,0:0:0:0:
64,192,262550,1,0,0:0:0:0:
448,192,262550,1,0,0:0:0:0:
320,192,262619,1,0,0:0:0:0:
192,192,262687,1,0,0:0:0:0:
320,192,262687,1,0,0:0:0:0:
448,192,262687,1,0,0:0:0:0:
64,192,262687,1,0,0:0:0:0:
192,192,262755,1,0,0:0:0:0:
320,192,262823,1,0,0:0:0:0:
64,192,262823,1,0,0:0:0:0:
448,192,262823,1,0,0:0:0:0:
192,192,262891,1,0,0:0:0:0:
64,192,262960,1,0,0:0:0:0:
320,192,262960,1,0,0:0:0:0:
448,192,262960,1,0,0:0:0:0:
192,192,262960,1,0,0:0:0:0:
64,192,263028,1,0,0:0:0:0:
448,192,263096,1,0,0:0:0:0:
320,192,263096,1,0,0:0:0:0:
192,192,263096,1,0,0:0:0:0:
64,192,263164,1,0,0:0:0:0:
64,192,263232,1,0,0:0:0:0:
192,192,263232,1,0,0:0:0:0:
320,192,263232,1,0,0:0:0:0:
448,192,263232,1,0,0:0:0:0:
192,192,263300,1,0,0:0:0:0:
320,192,263369,1,0,0:0:0:0:
448,192,263369,1,0,0:0:0:0:
64,192,263369,1,0,0:0:0:0:
192,192,263437,1,0,0:0:0:0:
448,192,263505,1,0,0:0:0:0:
64,192,263505,1,0,0:0:0:0:
192,192,263505,1,0,0:0:0:0:
320,192,263505,1,0,0:0:0:0:
64,192,263573,1,0,0:0:0:0:
192,192,263641,1,0,0:0:0:0:
448,192,263641,1,0,0:0:0:0:
320,192,263641,1,0,0:0:0:0:
64,192,263710,1,0,0:0:0:0:
64,192,263778,1,0,0:0:0:0:
192,192,263778,1,0,0:0:0:0:
320,192,263778,1,0,0:0:0:0:
448,192,263778,1,0,0:0:0:0:
448,192,263846,1,0,0:0:0:0:
192,192,263914,1,0,0:0:0:0:
320,192,263914,1,0,0:0:0:0:
64,192,263914,1,0,0:0:0:0:
448,192,263982,1,0,0:0:0:0:
448,192,264050,1,0,0:0:0:0:
192,192,264050,1,0,0:0:0:0:
320,192,264050,1,0,0:0:0:0:
64,192,264050,1,0,0:0:0:0:
320,192,264119,1,0,0:0:0:0:
64,192,264187,1,0,0:0:0:0:
192,192,264187,1,0,0:0:0:0:
448,192,264187,1,0,0:0:0:0:
320,192,264255,1,0,0:0:0:0:
448,192,264323,1,0,0:0:0:0:
320,192,264323,1,0,0:0:0:0:
192,192,264323,1,0,0:0:0:0:
64,192,264323,1,0,0:0:0:0:
64,192,264391,1,0,0:0:0:0:
320,192,264460,1,0,0:0:0:0:
448,192,264460,1,0,0:0:0:0:
192,192,264460,1,0,0:0:0:0:
64,192,264528,1,0,0:0:0:0:
448,192,264596,1,0,0:0:0:0:
320,192,264596,1,0,0:0:0:0:
64,192,264596,1,0,0:0:0:0:
192,192,264596,1,0,0:0:0:0:
192,192,264664,1,0,0:0:0:0:
320,192,264732,1,0,0:0:0:0:
448,192,264732,1,0,0:0:0:0:
64,192,264732,1,0,0:0:0:0:
192,192,264800,1,0,0:0:0:0:
64,192,264869,1,0,0:0:0:0:
320,192,264869,1,0,0:0:0:0:
448,192,264869,1,0,0:0:0:0:
192,192,264869,1,0,0:0:0:0:
320,192,264937,1,0,0:0:0:0:
448,192,265005,1,0,0:0:0:0:
192,192,265005,1,0,0:0:0:0:
64,192,265005,1,0,0:0:0:0:
320,192,265073,1,0,0:0:0:0:
192,192,265141,1,0,0:0:0:0:
64,192,265141,1,0,0:0:0:0:
448,192,265141,1,0,0:0:0:0:
320,192,265141,1,0,0:0:0:0:
448,192,265210,1,0,0:0:0:0:
64,192,265278,1,0,0:0:0:0:
192,192,265278,1,0,0:0:0:0:
320,192,265278,1,0,0:0:0:0:
448,192,265346,1,0,0:0:0:0:
192,192,265414,1,0,0:0:0:0:
64,192,265414,1,0,0:0:0:0:
448,192,265414,1,0,0:0:0:0:
320,192,265414,1,0,0:0:0:0:
192,192,265482,1,0,0:0:0:0:
320,192,265550,1,0,0:0:0:0:
448,192,265550,1,0,0:0:0:0:
64,192,265550,1,0,0:0:0:0:
192,192,265619,1,0,0:0:0:0:
64,192,265687,1,0,0:0:0:0:
320,192,265687,1,0,0:0:0:0:
192,192,265687,1,0,0:0:0:0:
448,192,265687,1,0,0:0:0:0:
448,192,265755,1,0,0:0:0:0:
320,192,265823,1,0,0:0:0:0:
192,192,265823,1,0,0:0:0:0:
64,192,265823,1,0,0:0:0:0:
448,192,265891,1,0,0:0:0:0:
448,192,265960,1,0,0:0:0:0:
320,192,265960,1,0,0:0:0:0:
192,192,265960,1,0,0:0:0:0:
64,192,265960,1,0,0:0:0:0:
192,192,266028,1,0,0:0:0:0:
320,192,266096,1,0,0:0:0:0:
448,192,266096,1,0,0:0:0:0:
64,192,266096,1,0,0:0:0:0:
192,192,266164,1,0,0:0:0:0:
64,192,266232,1,0,0:0:0:0:
192,192,266232,1,0,0:0:0:0:
320,192,266232,1,0,0:0:0:0:
448,192,266232,1,0,0:0:0:0:
64,192,266300,1,0,0:0:0:0:
192,192,266369,1,0,0:0:0:0:
320,192,266369,1,0,0:0:0:0:
448,192,266369,1,0,0:0:0:0:
64,192,266437,1,0,0:0:0:0:
448,192,266505,1,0,0:0:0:0:
320,192,266505,1,0,0:0:0:0:
192,192,266505,1,0,0:0:0:0:
64,192,266505,1,0,0:0:0:0:
320,192,266573,1,0,0:0:0:0:
192,192,266641,1,0,0:0:0:0:
64,192,266641,1,0,0:0:0:0:
448,192,266641,1,0,0:0:0:0:
320,192,266710,1,0,0:0:0:0:
448,192,266778,1,0,0:0:0:0:
192,192,266778,1,0,0:0:0:0:
320,192,266778,1,0,0:0:0:0:
64,192,266778,128,0,267050:0:0:0:0:
448,192,266914,1,0,0:0:0:0:
320,192,266914,1,0,0:0:0:0:
448,192,267050,1,0,0:0:0:0:
320,192,267050,1,0,0:0:0:0:
192,192,267050,1,0,0:0:0:0:
448,192,267119,1,0,0:0:0:0:
320,192,267119,1,0,0:0:0:0:
64,192,267187,1,0,0:0:0:0:
192,192,267187,1,0,0:0:0:0:
320,192,267255,1,0,0:0:0:0:
448,192,267255,1,0,0:0:0:0:
448,192,267323,1,0,0:0:0:0:
64,192,267323,1,0,0:0:0:0:
320,192,267323,1,0,0:0:0:0:
192,192,267323,1,0,0:0:0:0:
64,192,267391,1,0,0:0:0:0:
192,192,267391,1,0,0:0:0:0:
320,192,267460,1,0,0:0:0:0:
448,192,267460,1,0,0:0:0:0:
192,192,267528,1,0,0:0:0:0:
64,192,267528,1,0,0:0:0:0:
64,192,267596,1,0,0:0:0:0:
192,192,267596,1,0,0:0:0:0:
320,192,267596,1,0,0:0:0:0:
448,192,267596,1,0,0:0:0:0:
448,192,267664,1,0,0:0:0:0:
320,192,267664,1,0,0:0:0:0:
64,192,267732,1,0,0:0:0:0:
192,192,267749,1,0,0:0:0:0:
320,192,267766,1,0,0:0:0:0:
448,192,267783,1,0,0:0:0:0:
64,192,267800,1,0,0:0:0:0:
192,192,267817,1,0,0:0:0:0:
320,192,267835,1,0,0:0:0:0:
448,192,267852,1,0,0:0:0:0:
64,192,267869,1,0,0:0:0:0:
192,192,267869,1,0,0:0:0:0:
192,192,267937,1,0,0:0:0:0:
64,192,267937,1,0,0:0:0:0:
320,192,268005,1,0,0:0:0:0:
448,192,268005,1,0,0:0:0:0:
192,192,268073,1,0,0:0:0:0:
64,192,268073,1,0,0:0:0:0:
64,192,268141,1,0,0:0:0:0:
192,192,268141,1,0,0:0:0:0:
320,192,268141,1,0,0:0:0:0:
448,192,268141,1,0,0:0:0:0:
448,192,268210,1,0,0:0:0:0:
320,192,268210,1,0,0:0:0:0:
64,192,268278,1,0,0:0:0:0:
192,192,268295,1,0,0:0:0:0:
320,192,268312,1,0,0:0:0:0:
448,192,268329,1,0,0:0:0:0:
64,192,268346,1,0,0:0:0:0:
192,192,268363,1,0,0:0:0:0:
320,192,268380,1,0,0:0:0:0:
448,192,268397,1,0,0:0:0:0:
192,192,268414,1,0,0:0:0:0:
64,192,268414,1,0,0:0:0:0:
448,192,268482,1,0,0:0:0:0:
320,192,268482,1,0,0:0:0:0:
192,192,268550,1,0,0:0:0:0:
64,192,268550,1,0,0:0:0:0:
320,192,268619,1,0,0:0:0:0:
448,192,268619,1,0,0:0:0:0:
192,192,268619,1,0,0:0:0:0:
64,192,268687,1,0,0:0:0:0:
192,192,268687,1,0,0:0:0:0:
320,192,268687,1,0,0:0:0:0:
448,192,268687,1,0,0:0:0:0:
64,192,268755,1,0,0:0:0:0:
192,192,268755,1,0,0:0:0:0:
64,192,268823,1,0,0:0:0:0:
192,192,268823,1,0,0:0:0:0:
448,192,268823,1,0,0:0:0:0:
320,192,268840,1,0,0:0:0:0:
192,192,268857,1,0,0:0:0:0:
64,192,268874,1,0,0:0:0:0:
448,192,268891,1,0,0:0:0:0:
320,192,268908,1,0,0:0:0:0:
192,192,268925,1,0,0:0:0:0:
64,192,268942,1,0,0:0:0:0:
320,192,268960,1,0,0:0:0:0:
448,192,268960,1,0,0:0:0:0:
448,192,269028,1,0,0:0:0:0:
320,192,269028,1,0,0:0:0:0:
192,192,269028,1,0,0:0:0:0:
192,192,269096,1,0,0:0:0:0:
64,192,269096,1,0,0:0:0:0:
320,192,269164,1,0,0:0:0:0:
448,192,269164,1,0,0:0:0:0:
64,192,269232,1,0,0:0:0:0:
192,192,269232,1,0,0:0:0:0:
320,192,269232,1,0,0:0:0:0:
448,192,269232,1,0,0:0:0:0:
64,192,269369,128,0,269505:0:0:0:0:
448,192,269369,128,0,269505:0:0:0:0:
192,192,269505,1,0,0:0:0:0:
320,192,269505,1,0,0:0:0:0:
192,192,269573,1,0,0:0:0:0:
64,192,269573,1,0,0:0:0:0:
320,192,269641,1,0,0:0:0:0:
448,192,269641,1,0,0:0:0:0:
192,192,269710,1,0,0:0:0:0:
64,192,269710,1,0,0:0:0:0:
320,192,269710,1,0,0:0:0:0:
448,192,269778,1,0,0:0:0:0:
320,192,269778,1,0,0:0:0:0:
192,192,269778,1,0,0:0:0:0:
64,192,269778,1,0,0:0:0:0:
448,192,269846,1,0,0:0:0:0:
320,192,269846,1,0,0:0:0:0:
192,192,269914,1,0,0:0:0:0:
64,192,269914,1,0,0:0:0:0:
320,192,269914,1,0,0:0:0:0:
192,192,269982,1,0,0:0:0:0:
64,192,269982,1,0,0:0:0:0:
320,192,270050,1,0,0:0:0:0:
448,192,270050,1,0,0:0:0:0:
192,192,270119,1,0,0:0:0:0:
64,192,270119,1,0,0:0:0:0:
320,192,270119,1,0,0:0:0:0:
448,192,270187,1,0,0:0:0:0:
320,192,270187,1,0,0:0:0:0:
448,192,270323,1,0,0:0:0:0:
320,192,270323,1,0,0:0:0:0:
192,192,270323,1,0,0:0:0:0:
64,192,270323,1,0,0:0:0:0:
64,192,270460,128,0,270596:0:0:0:0:
448,192,270460,128,0,270596:0:0:0:0:
192,192,270596,1,0,0:0:0:0:
320,192,270596,1,0,0:0:0:0:
448,192,270732,1,0,0:0:0:0:
320,192,270800,1,0,0:0:0:0:
192,192,270869,1,0,0:0:0:0:
64,192,270869,1,0,0:0:0:0:
64,192,271005,1,0,0:0:0:0:
192,192,271005,1,0,0:0:0:0:
448,192,271141,1,0,0:0:0:0:
320,192,271141,1,0,0:0:0:0:
64,192,271278,1,0,0:0:0:0:
192,192,271414,1,0,0:0:0:0:
448,192,271414,1,0,0:0:0:0:
320,192,271482,1,0,0:0:0:0:
192,192,271550,1,0,0:0:0:0:
64,192,271619,1,0,0:0:0:0:
192,192,271687,1,0,0:0:0:0:
320,192,271687,1,0,0:0:0:0:
448,192,271823,1,0,0:0:0:0:
192,192,271823,1,0,0:0:0:0:
64,192,271960,1,0,0:0:0:0:
320,192,271960,1,0,0:0:0:0:
448,192,272096,1,0,0:0:0:0:
320,192,272232,1,0,0:0:0:0:
192,192,272232,1,0,0:0:0:0:
64,192,272369,1,0,0:0:0:0:
192,192,272505,1,0,0:0:0:0:
448,192,272505,1,0,0:0:0:0:
320,192,272641,1,0,0:0:0:0:
192,192,272778,1,0,0:0:0:0:
64,192,272778,1,0,0:0:0:0:
448,192,272846,1,0,0:0:0:0:
320,192,272914,1,0,0:0:0:0:
192,192,272982,1,0,0:0:0:0:
64,192,273050,1,0,0:0:0:0:
320,192,273050,1,0,0:0:0:0:
448,192,273187,1,0,0:0:0:0:
192,192,273187,1,0,0:0:0:0:
320,192,273323,1,0,0:0:0:0:
64,192,273323,1,0,0:0:0:0:
448,192,273460,1,0,0:0:0:0:
320,192,273596,1,0,0:0:0:0:
192,192,273596,1,0,0:0:0:0:
64,192,273664,1,0,0:0:0:0:
192,192,273732,1,0,0:0:0:0:
320,192,273800,5,0,0:0:0:0:
448,192,273869,1,0,0:0:0:0:
192,192,273869,1,0,0:0:0:0:
64,192,274005,1,0,0:0:0:0:
320,192,274005,1,0,0:0:0:0:
192,192,274141,1,0,0:0:0:0:
448,192,274141,1,0,0:0:0:0:
320,192,274278,1,0,0:0:0:0:
192,192,274414,1,0,0:0:0:0:
64,192,274414,1,0,0:0:0:0:
320,192,274550,1,0,0:0:0:0:
448,192,274687,1,0,0:0:0:0:
64,192,274687,1,0,0:0:0:0:
320,192,274823,1,0,0:0:0:0:
64,192,274960,5,0,0:0:0:0:
192,192,274960,1,0,0:0:0:0:
448,192,275028,1,0,0:0:0:0:
320,192,275028,1,0,0:0:0:0:
192,192,275096,1,0,0:0:0:0:
64,192,275096,1,0,0:0:0:0:
320,192,275164,1,0,0:0:0:0:
448,192,275164,1,0,0:0:0:0:
192,192,275232,1,0,0:0:0:0:
64,192,275232,1,0,0:0:0:0:
320,192,275300,1,0,0:0:0:0:
448,192,275300,1,0,0:0:0:0:
192,192,275369,1,0,0:0:0:0:
64,192,275369,1,0,0:0:0:0:
320,192,275437,1,0,0:0:0:0:
448,192,275437,1,0,0:0:0:0:
192,192,275505,1,0,0:0:0:0:
64,192,275505,1,0,0:0:0:0:
320,192,275573,1,0,0:0:0:0:
448,192,275573,1,0,0:0:0:0:
192,192,275641,1,0,0:0:0:0:
64,192,275641,1,0,0:0:0:0:
320,192,275710,1,0,0:0:0:0:
448,192,275710,1,0,0:0:0:0:
192,192,275778,1,0,0:0:0:0:
64,192,275778,1,0,0:0:0:0:
320,192,275846,1,0,0:0:0:0:
448,192,275846,1,0,0:0:0:0:
64,192,275914,1,0,0:0:0:0:
192,192,275914,1,0,0:0:0:0:
448,192,275982,1,0,0:0:0:0:
320,192,275982,1,0,0:0:0:0:
192,192,276050,1,0,0:0:0:0:
64,192,276050,128,0,276119:0:0:0:0:
320,192,276119,1,0,0:0:0:0:
448,192,276119,128,0,276187:0:0:0:0:
192,192,276187,1,0,0:0:0:0:
64,192,276187,128,0,276255:0:0:0:0:
320,192,276255,1,0,0:0:0:0:
448,192,276255,128,0,276323:0:0:0:0:
192,192,276323,1,0,0:0:0:0:
64,192,276323,128,0,276391:0:0:0:0:
320,192,276391,1,0,0:0:0:0:
448,192,276391,128,0,276460:0:0:0:0:
192,192,276460,1,0,0:0:0:0:
64,192,276460,128,0,276528:0:0:0:0:
448,192,276528,128,0,276596:0:0:0:0:
320,192,276528,1,0,0:0:0:0:
192,192,276596,1,0,0:0:0:0:
64,192,276596,128,0,276664:0:0:0:0:
448,192,276664,128,0,276732:0:0:0:0:
320,192,276664,1,0,0:0:0:0:
64,192,276732,128,0,276800:0:0:0:0:
192,192,276732,1,0,0:0:0:0:
448,192,276800,128,0,276869:0:0:0:0:
320,192,276800,1,0,0:0:0:0:
64,192,276869,128,0,276937:0:0:0:0:
192,192,276869,1,0,0:0:0:0:
448,192,276937,128,0,277005:0:0:0:0:
320,192,276937,1,0,0:0:0:0:
64,192,277005,128,0,277073:0:0:0:0:
192,192,277005,1,0,0:0:0:0:
320,192,277073,1,0,0:0:0:0:
448,192,277073,128,0,277141:0:0:0:0:
64,192,277141,1,0,0:0:0:0:
192,192,277164,1,0,0:0:0:0:
320,192,277187,1,0,0:0:0:0:
448,192,277210,1,0,0:0:0:0:
64,192,277232,1,0,0:0:0:0:
192,192,277255,1,0,0:0:0:0:
320,192,277278,1,0,0:0:0:0:
448,192,277300,1,0,0:0:0:0:
64,192,277323,1,0,0:0:0:0:
192,192,277346,1,0,0:0:0:0:
320,192,277369,1,0,0:0:0:0:
448,192,277391,1,0,0:0:0:0:
64,192,277414,1,0,0:0:0:0:
192,192,277437,1,0,0:0:0:0:
320,192,277460,1,0,0:0:0:0:
448,192,277482,1,0,0:0:0:0:
64,192,277505,1,0,0:0:0:0:
192,192,277528,1,0,0:0:0:0:
320,192,277550,1,0,0:0:0:0:
448,192,277573,1,0,0:0:0:0:
64,192,277596,1,0,0:0:0:0:
192,192,277619,1,0,0:0:0:0:
320,192,277641,1,0,0:0:0:0:
448,192,277664,1,0,0:0:0:0:
64,192,277687,1,0,0:0:0:0:
192,192,277710,1,0,0:0:0:0:
320,192,277732,1,0,0:0:0:0:
448,192,277755,1,0,0:0:0:0:
64,192,277778,1,0,0:0:0:0:
192,192,277800,1,0,0:0:0:0:
320,192,277823,1,0,0:0:0:0:
448,192,277846,1,0,0:0:0:0:
64,192,277869,1,0,0:0:0:0:
192,192,277891,1,0,0:0:0:0:
320,192,277914,1,0,0:0:0:0:
448,192,277937,1,0,0:0:0:0:
64,192,277960,1,0,0:0:0:0:
192,192,277982,1,0,0:0:0:0:
320,192,278005,1,0,0:0:0:0:
448,192,278028,1,0,0:0:0:0:
64,192,278050,1,0,0:0:0:0:
192,192,278073,1,0,0:0:0:0:
320,192,278096,1,0,0:0:0:0:
448,192,278119,1,0,0:0:0:0:
64,192,278141,1,0,0:0:0:0:
192,192,278164,1,0,0:0:0:0:
320,192,278187,1,0,0:0:0:0:
448,192,278210,1,0,0:0:0:0:
64,192,278232,1,0,0:0:0:0:
320,192,278232,1,0,0:0:0:0:
192,192,278232,128,0,278505:0:0:0:0:
448,192,278505,128,0,278641:0:0:0:0:
320,192,278505,1,0,0:0:0:0:
64,192,278505,1,0,0:0:0:0:
64,192,278641,128,0,278778:0:0:0:0:
192,192,278641,1,0,0:0:0:0:
320,192,278641,1,0,0:0:0:0:
320,192,278778,128,0,278914:0:0:0:0:
192,192,278778,1,0,0:0:0:0:
448,192,278778,1,0,0:0:0:0:
448,192,278914,128,0,279050:0:0:0:0:
192,192,278914,1,0,0:0:0:0:
64,192,278914,1,0,0:0:0:0:
64,192,279050,128,0,279187:0:0:0:0:
192,192,279050,1,0,0:0:0:0:
320,192,279050,1,0,0:0:0:0:
320,192,279187,128,0,279323:0:0:0:0:
448,192,279187,1,0,0:0:0:0:
192,192,279187,1,0,0:0:0:0:
192,192,279323,1,0,0:0:0:0:
64,192,279323,1,0,0:0:0:0:
448,192,279323,1,0,0:0:0:0:
320,192,279460,1,0,0:0:0:0:
448,192,279460,1,0,0:0:0:0:
192,192,279460,1,0,0:0:0:0:
64,192,279460,1,0,0:0:0:0:
320,192,279596,1,0,0:0:0:0:
192,192,279596,1,0,0:0:0:0:
64,192,279596,1,0,0:0:0:0:
448,192,279596,128,0,279732:0:0:0:0:
320,192,279732,1,0,0:0:0:0:
64,192,279732,1,0,0:0:0:0:
64,192,279869,128,0,280005:0:0:0:0:
192,192,279869,1,0,0:0:0:0:
320,192,279869,1,0,0:0:0:0:
448,192,279869,1,0,0:0:0:0:
192,192,280005,1,0,0:0:0:0:
320,192,280005,1,0,0:0:0:0:
448,192,280141,128,0,280278:0:0:0:0:
320,192,280141,1,0,0:0:0:0:
192,192,280141,1,0,0:0:0:0:
64,192,280141,1,0,0:0:0:0:
320,192,280278,1,0,0:0:0:0:
64,192,280278,1,0,0:0:0:0:
192,192,280414,128,0,280550:0:0:0:0:
64,192,280414,1,0,0:0:0:0:
320,192,280414,1,0,0:0:0:0:
448,192,280414,1,0,0:0:0:0:
320,192,280550,1,0,0:0:0:0:
448,192,280550,1,0,0:0:0:0:
448,192,280687,128,0,280823:0:0:0:0:
320,192,280687,1,0,0:0:0:0:
192,192,280687,1,0,0:0:0:0:
64,192,280687,1,0,0:0:0:0:
64,192,280823,1,0,0:0:0:0:
192,192,280823,1,0,0:0:0:0:
64,192,280960,128,0,281096:0:0:0:0:
192,192,280960,1,0,0:0:0:0:
320,192,280960,1,0,0:0:0:0:
448,192,280960,1,0,0:0:0:0:
192,192,281096,1,0,0:0:0:0:
320,192,281096,1,0,0:0:0:0:
320,192,281232,128,0,281369:0:0:0:0:
448,192,281232,1,0,0:0:0:0:
192,192,281232,1,0,0:0:0:0:
64,192,281232,1,0,0:0:0:0:
192,192,281369,1,0,0:0:0:0:
448,192,281369,1,0,0:0:0:0:
448,192,281505,128,0,281641:0:0:0:0:
64,192,281505,1,0,0:0:0:0:
192,192,281505,1,0,0:0:0:0:
320,192,281505,1,0,0:0:0:0:
320,192,281641,1,0,0:0:0:0:
64,192,281641,1,0,0:0:0:0:
64,192,281778,128,0,281914:0:0:0:0:
192,192,281778,1,0,0:0:0:0:
320,192,281778,1,0,0:0:0:0:
448,192,281778,1,0,0:0:0:0:
192,192,281914,1,0,0:0:0:0:
320,192,281914,1,0,0:0:0:0:
320,192,282050,128,0,282187:0:0:0:0:
448,192,282050,1,0,0:0:0:0:
192,192,282050,1,0,0:0:0:0:
64,192,282050,1,0,0:0:0:0:
192,192,282187,1,0,0:0:0:0:
64,192,282187,1,0,0:0:0:0:
192,192,282323,128,0,282460:0:0:0:0:
64,192,282323,1,0,0:0:0:0:
320,192,282323,1,0,0:0:0:0:
448,192,282323,1,0,0:0:0:0:
64,192,282460,1,0,0:0:0:0:
448,192,282460,1,0,0:0:0:0:
64,192,282596,128,0,282732:0:0:0:0:
192,192,282596,1,0,0:0:0:0:
320,192,282596,1,0,0:0:0:0:
448,192,282596,1,0,0:0:0:0:
448,192,282732,1,0,0:0:0:0:
320,192,282732,1,0,0:0:0:0:
448,192,282869,128,0,283005:0:0:0:0:
320,192,282869,1,0,0:0:0:0:
192,192,282869,1,0,0:0:0:0:
64,192,282869,1,0,0:0:0:0:
64,192,283005,1,0,0:0:0:0:
320,192,283005,1,0,0:0:0:0:
192,192,283141,128,0,283278:0:0:0:0:
64,192,283141,1,0,0:0:0:0:
320,192,283141,1,0,0:0:0:0:
448,192,283141,1,0,0:0:0:0:
448,192,283278,1,0,0:0:0:0:
320,192,283278,1,0,0:0:0:0:
448,192,283414,128,0,283550:0:0:0:0:
320,192,283414,1,0,0:0:0:0:
192,192,283414,1,0,0:0:0:0:
64,192,283414,1,0,0:0:0:0:
64,192,283550,1,0,0:0:0:0:
320,192,283550,1,0,0:0:0:0:
64,192,283687,128,0,283823:0:0:0:0:
192,192,283687,1,0,0:0:0:0:
320,192,283687,1,0,0:0:0:0:
448,192,283687,1,0,0:0:0:0:
448,192,283755,1,0,0:0:0:0:
320,192,283755,1,0,0:0:0:0:
320,192,283891,1,0,0:0:0:0:
192,192,283891,1,0,0:0:0:0:
448,192,283960,128,0,284096:0:0:0:0:
64,192,283960,1,0,0:0:0:0:
192,192,283960,1,0,0:0:0:0:
320,192,283960,1,0,0:0:0:0:
320,192,284096,1,0,0:0:0:0:
64,192,284096,1,0,0:0:0:0:
192,192,284232,128,0,284369:0:0:0:0:
448,192,284232,1,0,0:0:0:0:
320,192,284232,1,0,0:0:0:0:
64,192,284232,1,0,0:0:0:0:
64,192,284369,1,0,0:0:0:0:
448,192,284369,1,0,0:0:0:0:
448,192,284505,128,0,284641:0:0:0:0:
320,192,284505,1,0,0:0:0:0:
192,192,284505,1,0,0:0:0:0:
64,192,284505,1,0,0:0:0:0:
192,192,284641,1,0,0:0:0:0:
320,192,284641,1,0,0:0:0:0:
64,192,284778,128,0,284914:0:0:0:0:
192,192,284778,1,0,0:0:0:0:
320,192,284778,1,0,0:0:0:0:
448,192,284778,1,0,0:0:0:0:
448,192,284914,1,0,0:0:0:0:
320,192,284914,1,0,0:0:0:0:
320,192,285050,128,0,285187:0:0:0:0:
192,192,285050,1,0,0:0:0:0:
64,192,285050,1,0,0:0:0:0:
448,192,285050,1,0,0:0:0:0:
192,192,285187,1,0,0:0:0:0:
64,192,285187,1,0,0:0:0:0:
448,192,285323,128,0,285460:0:0:0:0:
64,192,285323,1,0,0:0:0:0:
192,192,285323,1,0,0:0:0:0:
320,192,285323,1,0,0:0:0:0:
320,192,285460,1,0,0:0:0:0:
192,192,285460,1,0,0:0:0:0:
192,192,285596,1,0,0:0:0:0:
320,192,285596,1,0,0:0:0:0:
448,192,285596,1,0,0:0:0:0:
64,192,285596,1,0,0:0:0:0:
448,192,285664,1,0,0:0:0:0:
192,192,285732,1,0,0:0:0:0:
320,192,285732,1,0,0:0:0:0:
64,192,285800,1,0,0:0:0:0:
448,192,285869,1,0,0:0:0:0:
192,192,285869,1,0,0:0:0:0:
320,192,285869,1,0,0:0:0:0:
64,192,285869,1,0,0:0:0:0:
448,192,285937,1,0,0:0:0:0:
320,192,286005,1,0,0:0:0:0:
192,192,286005,1,0,0:0:0:0:
64,192,286073,1,0,0:0:0:0:
448,192,286141,1,0,0:0:0:0:
320,192,286141,1,0,0:0:0:0:
192,192,286141,1,0,0:0:0:0:
64,192,286141,1,0,0:0:0:0:
320,192,286210,1,0,0:0:0:0:
192,192,286278,1,0,0:0:0:0:
448,192,286278,1,0,0:0:0:0:
64,192,286346,1,0,0:0:0:0:
192,192,286414,1,0,0:0:0:0:
320,192,286414,1,0,0:0:0:0:
448,192,286414,1,0,0:0:0:0:
64,192,286414,1,0,0:0:0:0:
320,192,286482,1,0,0:0:0:0:
192,192,286550,1,0,0:0:0:0:
448,192,286550,1,0,0:0:0:0:
64,192,286619,1,0,0:0:0:0:
64,192,286687,1,0,0:0:0:0:
192,192,286687,1,0,0:0:0:0:
320,192,286687,1,0,0:0:0:0:
448,192,286687,1,0,0:0:0:0:
192,192,286755,1,0,0:0:0:0:
448,192,286823,1,0,0:0:0:0:
64,192,286823,1,0,0:0:0:0:
320,192,286891,1,0,0:0:0:0:
64,192,286960,1,0,0:0:0:0:
192,192,286960,1,0,0:0:0:0:
320,192,286960,1,0,0:0:0:0:
448,192,286960,1,0,0:0:0:0:
192,192,287028,1,0,0:0:0:0:
448,192,287096,1,0,0:0:0:0:
64,192,287096,1,0,0:0:0:0:
192,192,287164,1,0,0:0:0:0:
64,192,287232,1,0,0:0:0:0:
192,192,287232,1,0,0:0:0:0:
320,192,287232,1,0,0:0:0:0:
448,192,287232,1,0,0:0:0:0:
64,192,287300,1,0,0:0:0:0:
192,192,287369,1,0,0:0:0:0:
320,192,287369,1,0,0:0:0:0:
448,192,287437,1,0,0:0:0:0:
64,192,287505,1,0,0:0:0:0:
192,192,287505,1,0,0:0:0:0:
320,192,287505,1,0,0:0:0:0:
448,192,287505,1,0,0:0:0:0:
64,192,287573,1,0,0:0:0:0:
192,192,287641,1,0,0:0:0:0:
320,192,287641,1,0,0:0:0:0:
448,192,287710,1,0,0:0:0:0:
64,192,287778,1,0,0:0:0:0:
192,192,287778,1,0,0:0:0:0:
320,192,287778,1,0,0:0:0:0:
448,192,287778,1,0,0:0:0:0:
320,192,287846,1,0,0:0:0:0:
192,192,287914,1,0,0:0:0:0:
64,192,287914,1,0,0:0:0:0:
320,192,287982,1,0,0:0:0:0:
448,192,288050,1,0,0:0:0:0:
320,192,288050,1,0,0:0:0:0:
192,192,288050,1,0,0:0:0:0:
64,192,288050,1,0,0:0:0:0:
448,192,288323,128,0,288460:0:0:0:0:
320,192,288323,1,0,0:0:0:0:
192,192,288323,1,0,0:0:0:0:
64,192,288323,1,0,0:0:0:0:
192,192,288460,1,0,0:0:0:0:
320,192,288460,1,0,0:0:0:0:
64,192,288596,128,0,288732:0:0:0:0:
192,192,288596,1,0,0:0:0:0:
320,192,288596,1,0,0:0:0:0:
448,192,288596,1,0,0:0:0:0:
448,192,288732,1,0,0:0:0:0:
192,192,288732,1,0,0:0:0:0:
320,192,288869,128,0,289005:0:0:0:0:
192,192,288869,1,0,0:0:0:0:
64,192,288869,1,0,0:0:0:0:
448,192,288869,1,0,0:0:0:0:
192,192,289005,1,0,0:0:0:0:
448,192,289005,1,0,0:0:0:0:
192,192,289141,128,0,289278:0:0:0:0:
448,192,289141,1,0,0:0:0:0:
320,192,289141,1,0,0:0:0:0:
64,192,289141,1,0,0:0:0:0:
320,192,289278,1,0,0:0:0:0:
64,192,289278,1,0,0:0:0:0:
448,192,289414,128,0,289550:0:0:0:0:
320,192,289414,1,0,0:0:0:0:
192,192,289414,1,0,0:0:0:0:
64,192,289414,1,0,0:0:0:0:
192,192,289550,1,0,0:0:0:0:
320,192,289550,1,0,0:0:0:0:
64,192,289687,128,0,289823:0:0:0:0:
192,192,289687,1,0,0:0:0:0:
320,192,289687,1,0,0:0:0:0:
448,192,289687,1,0,0:0:0:0:
320,192,289823,1,0,0:0:0:0:
192,192,289823,1,0,0:0:0:0:
320,192,289960,128,0,290096:0:0:0:0:
192,192,289960,1,0,0:0:0:0:
448,192,289960,1,0,0:0:0:0:
64,192,289960,1,0,0:0:0:0:
448,192,290096,1,0,0:0:0:0:
64,192,290096,1,0,0:0:0:0:
192,192,290232,1,0,0:0:0:0:
320,192,290232,1,0,0:0:0:0:
448,192,290232,1,0,0:0:0:0:
64,192,290232,1,0,0:0:0:0:
448,192,290505,128,0,290641:0:0:0:0:
320,192,290505,1,0,0:0:0:0:
192,192,290505,1,0,0:0:0:0:
64,192,290505,1,0,0:0:0:0:
192,192,290641,1,0,0:0:0:0:
320,192,290641,1,0,0:0:0:0:
64,192,290778,128,0,290914:0:0:0:0:
192,192,290778,1,0,0:0:0:0:
320,192,290778,1,0,0:0:0:0:
448,192,290778,1,0,0:0:0:0:
448,192,290914,1,0,0:0:0:0:
192,192,290914,1,0,0:0:0:0:
320,192,291050,128,0,291187:0:0:0:0:
192,192,291050,1,0,0:0:0:0:
64,192,291050,1,0,0:0:0:0:
448,192,291050,1,0,0:0:0:0:
192,192,291187,1,0,0:0:0:0:
64,192,291187,1,0,0:0:0:0:
448,192,291323,128,0,291460:0:0:0:0:
64,192,291323,1,0,0:0:0:0:
192,192,291323,1,0,0:0:0:0:
320,192,291323,1,0,0:0:0:0:
64,192,291460,1,0,0:0:0:0:
192,192,291460,1,0,0:0:0:0:
320,192,291511,1,0,0:0:0:0:
448,192,291511,1,0,0:0:0:0:
192,192,291596,128,0,291732:0:0:0:0:
64,192,291596,1,0,0:0:0:0:
320,192,291698,1,0,0:0:0:0:
448,192,291698,1,0,0:0:0:0:
64,192,291869,1,0,0:0:0:0:
192,192,291869,1,0,0:0:0:0:
320,192,291869,1,0,0:0:0:0:
448,192,291869,1,0,0:0:0:0:
448,192,292414,128,0,292550:0:0:0:0:
320,192,292414,1,0,0:0:0:0:
192,192,292414,1,0,0:0:0:0:
64,192,292414,1,0,0:0:0:0:
192,192,292550,1,0,0:0:0:0:
320,192,292550,1,0,0:0:0:0:
64,192,292687,128,0,292823:0:0:0:0:
192,192,292687,1,0,0:0:0:0:
320,192,292687,1,0,0:0:0:0:
448,192,292687,1,0,0:0:0:0:
448,192,292823,1,0,0:0:0:0:
192,192,292823,1,0,0:0:0:0:
320,192,292960,128,0,293096:0:0:0:0:
192,192,292960,1,0,0:0:0:0:
64,192,292960,1,0,0:0:0:0:
448,192,292960,1,0,0:0:0:0:
192,192,293096,1,0,0:0:0:0:
64,192,293096,1,0,0:0:0:0:
448,192,293232,128,0,293369:0:0:0:0:
320,192,293232,1,0,0:0:0:0:
192,192,293232,1,0,0:0:0:0:
64,192,293369,1,0,0:0:0:0:
320,192,293369,1,0,0:0:0:0:
64,192,293505,128,0,293641:0:0:0:0:
192,192,293505,1,0,0:0:0:0:
448,192,293505,1,0,0:0:0:0:
320,192,293505,1,0,0:0:0:0:
448,192,293641,1,0,0:0:0:0:
192,192,293641,1,0,0:0:0:0:
320,192,293778,128,0,293914:0:0:0:0:
192,192,293778,1,0,0:0:0:0:
64,192,293778,1,0,0:0:0:0:
448,192,293914,1,0,0:0:0:0:
192,192,293914,1,0,0:0:0:0:
64,192,293914,1,0,0:0:0:0:
448,192,294050,128,0,294187:0:0:0:0:
64,192,294050,1,0,0:0:0:0:
320,192,294050,1,0,0:0:0:0:
320,192,294187,1,0,0:0:0:0:
192,192,294187,1,0,0:0:0:0:
192,192,294323,128,0,294460:0:0:0:0:
320,192,294323,1,0,0:0:0:0:
448,192,294323,1,0,0:0:0:0:
64,192,294323,1,0,0:0:0:0:
448,192,294460,1,0,0:0:0:0:
320,192,294460,1,0,0:0:0:0:
64,192,294596,128,0,294732:0:0:0:0:
192,192,294596,1,0,0:0:0:0:
320,192,294596,1,0,0:0:0:0:
448,192,294596,1,0,0:0:0:0:
448,192,294732,1,0,0:0:0:0:
192,192,294732,1,0,0:0:0:0:
320,192,294869,128,0,295005:0:0:0:0:
192,192,294869,1,0,0:0:0:0:
64,192,294869,1,0,0:0:0:0:
448,192,295005,1,0,0:0:0:0:
192,192,295005,1,0,0:0:0:0:
64,192,295005,1,0,0:0:0:0:
448,192,295141,128,0,295278:0:0:0:0:
192,192,295141,1,0,0:0:0:0:
320,192,295141,1,0,0:0:0:0:
64,192,295278,1,0,0:0:0:0:
320,192,295278,1,0,0:0:0:0:
192,192,295414,128,0,295550:0:0:0:0:
448,192,295414,1,0,0:0:0:0:
320,192,295414,1,0,0:0:0:0:
64,192,295414,1,0,0:0:0:0:
448,192,295550,1,0,0:0:0:0:
320,192,295550,1,0,0:0:0:0:
64,192,295687,1,0,0:0:0:0:
192,192,295687,1,0,0:0:0:0:
320,192,295687,1,0,0:0:0:0:
448,192,295687,128,0,295823:0:0:0:0:
320,192,295823,1,0,0:0:0:0:
64,192,295823,1,0,0:0:0:0:
192,192,295891,1,0,0:0:0:0:
64,192,295960,128,0,296096:0:0:0:0:
320,192,295960,1,0,0:0:0:0:
192,192,296096,1,0,0:0:0:0:
448,192,296096,1,0,0:0:0:0:
320,192,296096,1,0,0:0:0:0:
320,192,296164,1,0,0:0:0:0:
448,192,296232,128,0,296369:0:0:0:0:
192,192,296232,1,0,0:0:0:0:
320,192,296369,1,0,0:0:0:0:
64,192,296369,1,0,0:0:0:0:
192,192,296437,1,0,0:0:0:0:
64,192,296505,128,0,296778:0:0:0:0:
320,192,296505,1,0,0:0:0:0:
448,192,296505,1,0,0:0:0:0:
448,192,296641,1,0,0:0:0:0:
320,192,296710,1,0,0:0:0:0:
448,192,296778,1,0,0:0:0:0:
192,192,296778,1,0,0:0:0:0:
320,192,296778,1,0,0:0:0:0:
448,192,296914,1,0,0:0:0:0:
320,192,296914,1,0,0:0:0:0:
64,192,297050,1,0,0:0:0:0:
320,192,297050,1,0,0:0:0:0:
448,192,297187,1,0,0:0:0:0:
64,192,297187,1,0,0:0:0:0:
320,192,297187,1,0,0:0:0:0:
192,192,297187,1,0,0:0:0:0:
192,192,297323,1,0,0:0:0:0:
320,192,297323,1,0,0:0:0:0:
448,192,297460,1,0,0:0:0:0:
64,192,297460,1,0,0:0:0:0:
192,192,297596,1,0,0:0:0:0:
320,192,297596,1,0,0:0:0:0:
448,192,297596,1,0,0:0:0:0:
64,192,297596,1,0,0:0:0:0:
448,192,297732,1,0,0:0:0:0:
320,192,297732,1,0,0:0:0:0:
192,192,297869,1,0,0:0:0:0:
64,192,297869,1,0,0:0:0:0:
448,192,298005,1,0,0:0:0:0:
320,192,298005,1,0,0:0:0:0:
64,192,298005,1,0,0:0:0:0:
192,192,298005,1,0,0:0:0:0:
64,192,298141,1,0,0:0:0:0:
448,192,298141,1,0,0:0:0:0:
448,192,298278,1,0,0:0:0:0:
320,192,298278,1,0,0:0:0:0:
320,192,298414,1,0,0:0:0:0:
192,192,298414,1,0,0:0:0:0:
64,192,298414,1,0,0:0:0:0:
448,192,298414,1,0,0:0:0:0:
192,192,298550,1,0,0:0:0:0:
320,192,298550,1,0,0:0:0:0:
448,192,298687,1,0,0:0:0:0:
64,192,298687,1,0,0:0:0:0:
192,192,298687,1,0,0:0:0:0:
320,192,298687,1,0,0:0:0:0:
64,192,298823,1,0,0:0:0:0:
320,192,298823,1,0,0:0:0:0:
448,192,298960,1,0,0:0:0:0:
320,192,298960,1,0,0:0:0:0:
64,192,298960,1,0,0:0:0:0:
192,192,298960,1,0,0:0:0:0:
448,192,299096,1,0,0:0:0:0:
320,192,299096,1,0,0:0:0:0:
64,192,299232,1,0,0:0:0:0:
320,192,299232,1,0,0:0:0:0:
192,192,299369,1,0,0:0:0:0:
320,192,299369,1,0,0:0:0:0:
448,192,299369,1,0,0:0:0:0:
64,192,299369,1,0,0:0:0:0:
64,192,299505,1,0,0:0:0:0:
192,192,299505,1,0,0:0:0:0:
448,192,299641,1,0,0:0:0:0:
320,192,299641,1,0,0:0:0:0:
192,192,299778,1,0,0:0:0:0:
64,192,299778,1,0,0:0:0:0:
320,192,299778,1,0,0:0:0:0:
448,192,299778,1,0,0:0:0:0:
320,192,299914,1,0,0:0:0:0:
64,192,299914,1,0,0:0:0:0:
192,192,300050,1,0,0:0:0:0:
448,192,300050,1,0,0:0:0:0:
448,192,300187,1,0,0:0:0:0:
320,192,300187,1,0,0:0:0:0:
192,192,300187,1,0,0:0:0:0:
64,192,300187,1,0,0:0:0:0:
448,192,300323,1,0,0:0:0:0:
192,192,300323,1,0,0:0:0:0:
64,192,300460,1,0,0:0:0:0:
448,192,300460,1,0,0:0:0:0:
320,192,300596,1,0,0:0:0:0:
448,192,300596,1,0,0:0:0:0:
64,192,300596,1,0,0:0:0:0:
192,192,300630,1,0,0:0:0:0:
448,192,300664,1,0,0:0:0:0:
320,192,300698,1,0,0:0:0:0:
64,192,300732,1,0,0:0:0:0:
192,192,300766,1,0,0:0:0:0:
448,192,300800,1,0,0:0:0:0:
320,192,300835,1,0,0:0:0:0:
64,192,300869,1,0,0:0:0:0:
192,192,300903,1,0,0:0:0:0:
448,192,300937,1,0,0:0:0:0:
320,192,300971,1,0,0:0:0:0:
64,192,301005,1,0,0:0:0:0:
192,192,301039,1,0,0:0:0:0:
448,192,301073,1,0,0:0:0:0:
320,192,301107,1,0,0:0:0:0:
448,192,301141,1,0,0:0:0:0:
64,192,301141,1,0,0:0:0:0:
192,192,301141,1,0,0:0:0:0:
448,192,301278,1,0,0:0:0:0:
320,192,301278,1,0,0:0:0:0:
64,192,301414,1,0,0:0:0:0:
320,192,301414,1,0,0:0:0:0:
448,192,301550,1,0,0:0:0:0:
320,192,301550,1,0,0:0:0:0:
192,192,301550,1,0,0:0:0:0:
64,192,301550,1,0,0:0:0:0:
448,192,301687,1,0,0:0:0:0:
320,192,301687,1,0,0:0:0:0:
192,192,301823,1,0,0:0:0:0:
64,192,301823,1,0,0:0:0:0:
320,192,301960,1,0,0:0:0:0:
448,192,301960,1,0,0:0:0:0:
192,192,301960,1,0,0:0:0:0:
64,192,301960,1,0,0:0:0:0:
448,192,302096,1,0,0:0:0:0:
320,192,302096,1,0,0:0:0:0:
320,192,302232,1,0,0:0:0:0:
64,192,302232,1,0,0:0:0:0:
448,192,302369,1,0,0:0:0:0:
320,192,302369,1,0,0:0:0:0:
192,192,302369,1,0,0:0:0:0:
64,192,302369,1,0,0:0:0:0:
448,192,302505,1,0,0:0:0:0:
192,192,302505,1,0,0:0:0:0:
64,192,302641,1,0,0:0:0:0:
192,192,302641,1,0,0:0:0:0:
448,192,302778,1,0,0:0:0:0:
320,192,302778,1,0,0:0:0:0:
192,192,302778,1,0,0:0:0:0:
64,192,302778,1,0,0:0:0:0:
192,192,302914,1,0,0:0:0:0:
320,192,302914,1,0,0:0:0:0:
448,192,303050,1,0,0:0:0:0:
320,192,303050,1,0,0:0:0:0:
192,192,303050,1,0,0:0:0:0:
64,192,303050,1,0,0:0:0:0:
448,192,303187,1,0,0:0:0:0:
320,192,303187,1,0,0:0:0:0:
64,192,303323,1,0,0:0:0:0:
320,192,303323,1,0,0:0:0:0:
448,192,303323,1,0,0:0:0:0:
192,192,303323,1,0,0:0:0:0:
64,192,303460,1,0,0:0:0:0:
320,192,303460,1,0,0:0:0:0:
448,192,303596,1,0,0:0:0:0:
192,192,303596,1,0,0:0:0:0:
64,192,303732,1,0,0:0:0:0:
192,192,303732,1,0,0:0:0:0:
320,192,303732,1,0,0:0:0:0:
448,192,303732,1,0,0:0:0:0:
64,192,303869,1,0,0:0:0:0:
448,192,303869,1,0,0:0:0:0:
320,192,304005,1,0,0:0:0:0:
192,192,304005,1,0,0:0:0:0:
448,192,304141,1,0,0:0:0:0:
320,192,304141,1,0,0:0:0:0:
192,192,304141,1,0,0:0:0:0:
64,192,304141,1,0,0:0:0:0:
448,192,304278,1,0,0:0:0:0:
320,192,304278,1,0,0:0:0:0:
64,192,304414,5,0,0:0:0:0:
192,192,304414,1,0,0:0:0:0:
320,192,304550,1,0,0:0:0:0:
448,192,304550,1,0,0:0:0:0:
192,192,304550,1,0,0:0:0:0:
64,192,304550,1,0,0:0:0:0:
448,192,304687,1,0,0:0:0:0:
192,192,304687,1,0,0:0:0:0:
320,192,304823,1,0,0:0:0:0:
64,192,304823,1,0,0:0:0:0:
448,192,304960,1,0,0:0:0:0:
320,192,304960,1,0,0:0:0:0:
192,192,304960,1,0,0:0:0:0:
64,192,304960,1,0,0:0:0:0:
448,192,305505,5,0,0:0:0:0:
320,192,305505,1,0,0:0:0:0:
64,192,305505,1,0,0:0:0:0:
192,192,305573,1,0,0:0:0:0:
64,192,305573,1,0,0:0:0:0:
320,192,305641,1,0,0:0:0:0:
448,192,305641,1,0,0:0:0:0:
192,192,305710,1,0,0:0:0:0:
64,192,305710,1,0,0:0:0:0:
320,192,305778,1,0,0:0:0:0:
448,192,305778,1,0,0:0:0:0:
64,192,305914,1,0,0:0:0:0:
192,192,305914,1,0,0:0:0:0:
448,192,305914,1,0,0:0:0:0:
448,192,305982,1,0,0:0:0:0:
320,192,305982,1,0,0:0:0:0:
192,192,306050,1,0,0:0:0:0:
64,192,306050,1,0,0:0:0:0:
320,192,306119,1,0,0:0:0:0:
448,192,306119,1,0,0:0:0:0:
192,192,306187,1,0,0:0:0:0:
64,192,306187,1,0,0:0:0:0:
448,192,306323,1,0,0:0:0:0:
320,192,306323,1,0,0:0:0:0:
64,192,306323,1,0,0:0:0:0:
64,192,306391,1,0,0:0:0:0:
192,192,306391,1,0,0:0:0:0:
448,192,306460,1,0,0:0:0:0:
320,192,306460,1,0,0:0:0:0:
192,192,306528,1,0,0:0:0:0:
64,192,306528,1,0,0:0:0:0:
320,192,306596,1,0,0:0:0:0:
448,192,306596,1,0,0:0:0:0:
64,192,306732,1,0,0:0:0:0:
192,192,306732,1,0,0:0:0:0:
448,192,306732,1,0,0:0:0:0:
448,192,306800,1,0,0:0:0:0:
320,192,306800,1,0,0:0:0:0:
192,192,306869,1,0,0:0:0:0:
64,192,306869,1,0,0:0:0:0:
320,192,306937,1,0,0:0:0:0:
448,192,306937,1,0,0:0:0:0:
192,192,307005,1,0,0:0:0:0:
64,192,307005,1,0,0:0:0:0:
448,192,307141,1,0,0:0:0:0:
320,192,307141,1,0,0:0:0:0:
64,192,307141,1,0,0:0:0:0:
64,192,307210,1,0,0:0:0:0:
192,192,307210,1,0,0:0:0:0:
448,192,307278,1,0,0:0:0:0:
320,192,307278,1,0,0:0:0:0:
192,192,307346,1,0,0:0:0:0:
64,192,307346,1,0,0:0:0:0:
448,192,307414,1,0,0:0:0:0:
320,192,307414,1,0,0:0:0:0:
192,192,307414,1,0,0:0:0:0:
64,192,307482,1,0,0:0:0:0:
192,192,307482,1,0,0:0:0:0:
448,192,307550,1,0,0:0:0:0:
320,192,307550,1,0,0:0:0:0:
192,192,307619,1,0,0:0:0:0:
64,192,307619,1,0,0:0:0:0:
320,192,307687,1,0,0:0:0:0:
448,192,307687,1,0,0:0:0:0:
192,192,307687,1,0,0:0:0:0:
64,192,307755,1,0,0:0:0:0:
192,192,307755,1,0,0:0:0:0:
448,192,307823,1,0,0:0:0:0:
320,192,307823,1,0,0:0:0:0:
192,192,307891,1,0,0:0:0:0:
64,192,307891,1,0,0:0:0:0:
448,192,307960,1,0,0:0:0:0:
320,192,307960,1,0,0:0:0:0:
64,192,308096,1,0,0:0:0:0:
192,192,308096,1,0,0:0:0:0:
448,192,308096,1,0,0:0:0:0:
448,192,308164,1,0,0:0:0:0:
320,192,308164,1,0,0:0:0:0:
192,192,308232,1,0,0:0:0:0:
64,192,308232,1,0,0:0:0:0:
448,192,308300,1,0,0:0:0:0:
320,192,308300,1,0,0:0:0:0:
192,192,308369,1,0,0:0:0:0:
64,192,308369,1,0,0:0:0:0:
448,192,308505,1,0,0:0:0:0:
320,192,308505,1,0,0:0:0:0:
64,192,308505,1,0,0:0:0:0:
64,192,308573,1,0,0:0:0:0:
192,192,308573,1,0,0:0:0:0:
448,192,308641,1,0,0:0:0:0:
320,192,308641,1,0,0:0:0:0:
192,192,308710,1,0,0:0:0:0:
64,192,308710,1,0,0:0:0:0:
320,192,308778,1,0,0:0:0:0:
448,192,308778,1,0,0:0:0:0:
64,192,308914,1,0,0:0:0:0:
192,192,308914,1,0,0:0:0:0:
448,192,308914,1,0,0:0:0:0:
320,192,308982,1,0,0:0:0:0:
448,192,308982,1,0,0:0:0:0:
192,192,309050,1,0,0:0:0:0:
64,192,309050,1,0,0:0:0:0:
320,192,309119,1,0,0:0:0:0:
448,192,309119,1,0,0:0:0:0:
192,192,309187,1,0,0:0:0:0:
64,192,309187,1,0,0:0:0:0:
448,192,309323,1,0,0:0:0:0:
320,192,309323,1,0,0:0:0:0:
64,192,309323,1,0,0:0:0:0:
192,192,309323,1,0,0:0:0:0:
448,192,309460,128,0,309869:0:0:0:0:
64,192,309460,128,0,309869:0:0:0:0:
192,192,309869,1,0,0:0:0:0:
320,192,309869,1,0,0:0:0:0:
448,192,309937,1,0,0:0:0:0:
320,192,309937,1,0,0:0:0:0:
192,192,310005,1,0,0:0:0:0:
64,192,310005,1,0,0:0:0:0:
448,192,310073,1,0,0:0:0:0:
320,192,310073,1,0,0:0:0:0:
192,192,310141,1,0,0:0:0:0:
64,192,310141,1,0,0:0:0:0:
448,192,310210,1,0,0:0:0:0:
320,192,310210,1,0,0:0:0:0:
64,192,310278,1,0,0:0:0:0:
192,192,310278,1,0,0:0:0:0:
320,192,310278,1,0,0:0:0:0:
448,192,310346,1,0,0:0:0:0:
320,192,310346,1,0,0:0:0:0:
192,192,310414,1,0,0:0:0:0:
64,192,310414,1,0,0:0:0:0:
320,192,310482,1,0,0:0:0:0:
448,192,310482,1,0,0:0:0:0:
192,192,310550,1,0,0:0:0:0:
64,192,310550,1,0,0:0:0:0:
448,192,310619,1,0,0:0:0:0:
320,192,310619,1,0,0:0:0:0:
64,192,310687,1,0,0:0:0:0:
192,192,310687,1,0,0:0:0:0:
320,192,310687,1,0,0:0:0:0:
448,192,310755,1,0,0:0:0:0:
320,192,310755,1,0,0:0:0:0:
192,192,310823,1,0,0:0:0:0:
64,192,310823,1,0,0:0:0:0:
320,192,310891,1,0,0:0:0:0:
448,192,310891,1,0,0:0:0:0:
192,192,310960,1,0,0:0:0:0:
64,192,310960,1,0,0:0:0:0:
320,192,311028,1,0,0:0:0:0:
448,192,311028,1,0,0:0:0:0:
192,192,311096,1,0,0:0:0:0:
64,192,311096,1,0,0:0:0:0:
320,192,311096,1,0,0:0:0:0:
448,192,311164,1,0,0:0:0:0:
320,192,311164,1,0,0:0:0:0:
192,192,311232,1,0,0:0:0:0:
64,192,311232,1,0,0:0:0:0:
320,192,311300,1,0,0:0:0:0:
448,192,311300,1,0,0:0:0:0:
192,192,311369,1,0,0:0:0:0:
64,192,311369,1,0,0:0:0:0:
448,192,311437,1,0,0:0:0:0:
320,192,311437,1,0,0:0:0:0:
192,192,311505,1,0,0:0:0:0:
64,192,311505,1,0,0:0:0:0:
320,192,311505,1,0,0:0:0:0:
448,192,311573,1,0,0:0:0:0:
320,192,311573,1,0,0:0:0:0:
192,192,311641,1,0,0:0:0:0:
64,192,311641,1,0,0:0:0:0:
320,192,311710,1,0,0:0:0:0:
448,192,311710,1,0,0:0:0:0:
64,192,311778,1,0,0:0:0:0:
192,192,311778,1,0,0:0:0:0:
320,192,311778,1,0,0:0:0:0:
448,192,311846,1,0,0:0:0:0:
320,192,311846,1,0,0:0:0:0:
192,192,311914,1,0,0:0:0:0:
64,192,311914,1,0,0:0:0:0:
320,192,311982,1,0,0:0:0:0:
448,192,311982,1,0,0:0:0:0:
192,192,312050,1,0,0:0:0:0:
64,192,312050,1,0,0:0:0:0:
320,192,312050,1,0,0:0:0:0:
448,192,312050,1,0,0:0:0:0:
448,192,312323,1,0,0:0:0:0:
320,192,312414,1,0,0:0:0:0:
192,192,312505,1,0,0:0:0:0:
64,192,312596,1,0,0:0:0:0:
192,192,312687,1,0,0:0:0:0:
320,192,312778,1,0,0:0:0:0:
448,192,312869,1,0,0:0:0:0:
320,192,312960,1,0,0:0:0:0:
192,192,313050,1,0,0:0:0:0:
64,192,313141,1,0,0:0:0:0:
192,192,313232,1,0,0:0:0:0:
320,192,313323,1,0,0:0:0:0:
448,192,313414,1,0,0:0:0:0:
320,192,313505,1,0,0:0:0:0:
192,192,313596,1,0,0:0:0:0:
64,192,313687,1,0,0:0:0:0:
192,192,313778,1,0,0:0:0:0:
320,192,313869,1,0,0:0:0:0:
448,192,313960,1,0,0:0:0:0:
320,192,314050,1,0,0:0:0:0:
192,192,314141,1,0,0:0:0:0:
64,192,314232,1,0,0:0:0:0:
448,192,314232,1,0,0:0:0:0:
320,192,314232,1,0,0:0:0:0:
192,192,314232,1,0,0:0:0:0:
