osu file format v14

[General]
AudioFilename: audio.mp3
AudioLeadIn: 0
PreviewTime: 192035
Countdown: 0
SampleSet: Soft
StackLeniency: 0.3
Mode: 0
LetterboxInBreaks: 0
WidescreenStoryboard: 0

[Editor]
Bookmarks: 34946,52400,61128,87309,126581,174580,209489,226944,244398,261853,270580,279307,296762,314216
DistanceSpacing: 0.8
BeatDivisor: 3
GridSize: 32
TimelineZoom: 4.399999

[Metadata]
Title:GHOST
TitleUnicode:GHOST
Artist:Camellia
ArtistUnicode:かめりあ
Creator:Kloyd
Version:Haunted
Source:osu!
Tags:Cyphisonia EP E.P. pump core pumpcore trap cametek kamelcamellia dance electronic dubstep drumstep drum bass dnb CTCD-014 かめるかめりあ
BeatmapID:2195728
BeatmapSetID:1050556

[Difficulty]
HPDrainRate:4
CircleSize:5
OverallDifficulty:9
ApproachRate:9.8
SliderMultiplier:1.94
SliderTickRate:1

[Events]
//Background and Video events
0,0,"bg.png",0,0
//Break Periods
2,126578,139123
//Storyboard Layer 0 (Background)
//Storyboard Layer 1 (Fail)
//Storyboard Layer 2 (Pass)
//Storyboard Layer 3 (Foreground)
//Storyboard Layer 4 (Overlay)
//Storyboard Sound Samples

[TimingPoints]
8765,272.727272727273,4,2,2,50,1,0
25128,-100,4,2,2,85,0,0
25946,-66.6666666666667,4,2,2,85,0,0
26219,-200,4,2,1,70,0,0
26765,-100,4,2,1,70,0,0
27037,-200,4,2,1,70,0,0
27855,-100,4,2,1,70,0,0
28128,-200,4,2,1,70,0,0
28946,-100,4,2,1,70,0,0
29219,-200,4,2,1,70,0,0
31128,-100,4,2,1,70,0,0
31401,-200,4,2,1,70,0,0
32219,-100,4,2,1,70,0,0
32492,-200,4,2,1,70,0,0
33310,-100,4,2,1,70,0,0
33583,-200,4,2,1,70,0,0
34946,-133.333333333333,4,2,1,70,0,0
35492,-83.3333333333333,4,2,1,70,0,0
35765,-133.333333333333,4,2,1,70,0,0
36583,-83.3333333333333,4,2,1,70,0,0
36855,-133.333333333333,4,2,1,70,0,0
37674,-83.3333333333333,4,2,1,70,0,0
37946,-133.333333333333,4,2,1,70,0,0
39855,-83.3333333333333,4,2,1,70,0,0
40128,-133.333333333333,4,2,1,70,0,0
43674,-166.666666666667,4,2,1,60,0,0
52401,-100,4,2,1,70,0,0
56765,-100,4,2,1,80,0,0
57855,-100,4,2,1,85,0,0
58946,-200,4,2,1,55,0,0
59492,-133.333333333333,4,2,1,65,0,0
59765,-100,4,2,1,75,0,0
60037,-100,4,2,1,80,0,0
60583,-500,4,2,1,80,0,0
61128,-66.6666666666667,4,2,1,90,0,0
61401,-100,4,2,1,90,0,0
61674,-133.333333333333,4,2,1,90,0,0
61946,-100,4,2,1,90,0,0
65219,-303.030303030303,4,2,1,90,0,0
65492,-66.6666666666667,4,2,1,90,0,0
65765,-100,4,2,1,90,0,0
66037,-133.333333333333,4,2,1,90,0,0
66310,-100,4,2,1,90,0,0
69855,-66.6666666666667,4,2,1,90,0,0
70128,-100,4,2,1,90,0,0
70401,-133.333333333333,4,2,1,90,0,0
70810,-100,4,2,1,90,0,0
73946,-303.030303030303,4,2,1,90,0,0
74219,-66.6666666666667,4,2,1,90,0,0
74492,-133.333333333333,4,2,1,90,0,0
74765,-100,4,2,1,90,0,0
75037,-66.6666666666667,4,2,1,90,0,0
75174,-100,4,2,1,90,0,0
75310,-66.6666666666667,4,2,1,90,0,0
75446,-200,4,2,1,90,0,0
75719,-66.6666666666667,4,2,1,90,0,0
75992,-100,4,2,1,90,0,0
76128,-66.6666666666667,4,2,1,90,0,0
76674,-133.333333333333,4,2,1,90,0,0
76946,-100,4,2,1,90,0,0
77492,-66.6666666666667,4,2,1,90,0,0
77628,-200,4,2,1,90,0,0
77901,-66.6666666666667,4,2,1,90,0,0
78037,-133.333333333333,4,2,1,90,0,0
78583,-100,4,2,1,80,0,0
82946,-100,4,2,1,85,0,0
84037,-100,4,2,1,90,0,0
85128,-100,4,2,1,60,0,0
85401,-133.333333333333,4,2,1,60,0,0
85946,-133.333333333333,4,2,1,65,0,0
86219,-100,4,2,1,70,0,0
86492,-100,4,2,1,80,0,0
86765,-500,4,2,1,60,0,0
87310,-100,4,2,1,85,0,0
87855,-66.6666666666667,4,2,1,85,0,0
88128,-100,4,2,1,85,0,0
92219,-66.6666666666667,4,2,1,85,0,0
92492,-100,4,2,1,85,0,0
96583,-66.6666666666667,4,2,1,85,0,0
96855,-100,4,2,1,85,0,0
100946,-66.6666666666667,4,2,1,85,0,0
101219,-100,4,2,1,85,0,0
104765,-133.333333333333,4,2,1,85,0,0
105310,-50,4,2,1,85,0,0
105583,-66.6666666666667,4,2,1,85,0,0
108037,-80,4,2,1,85,0,0
108310,-100,4,2,1,85,0,0
108583,-125,4,2,1,85,0,0
108855,-166.666666666667,4,2,1,85,0,0
109128,-50,4,2,1,85,0,0
109946,-66.6666666666667,4,2,1,85,0,0
112401,-80,4,2,1,85,0,0
112674,-100,4,2,1,85,0,0
112946,-66.6666666666667,4,2,1,85,0,0
113492,-100,4,2,1,85,0,0
114037,-50,4,2,1,85,0,0
114310,-66.6666666666667,4,2,1,85,0,0
116765,-80,4,2,1,85,0,0
117037,-100,4,2,1,85,0,0
117310,-133.333333333333,4,2,1,85,0,0
117583,-100,4,2,1,85,0,0
118401,-50,4,2,1,85,0,0
118674,-66.6666666666667,4,2,1,85,0,0
121674,-100,4,2,1,60,0,0
139674,-133.333333333333,4,2,0,70,0,0
155492,-400,4,2,0,70,0,0
157128,-166.666666666667,4,2,1,80,0,0
173492,-166.666666666667,4,2,2,90,0,0
174583,-100,4,2,1,85,0,0
187674,-100,4,2,1,75,0,0
189855,-100,4,2,1,80,0,0
190944,-100,4,2,1,85,0,0
191492,-66.6666666666667,4,2,1,85,0,0
191765,-303.030303030303,4,2,1,85,0,0
192037,-83.3333333333333,4,2,2,90,0,1
205128,-83.3333333333333,4,2,2,70,0,1
207037,-133.333333333333,4,2,2,70,0,1
208128,-100,4,2,2,70,0,1
208401,-66.6666666666667,4,2,2,80,0,1
209219,-50,4,2,2,90,0,1
209424,-50,4,2,2,90,0,0
209492,-66.6666666666667,4,2,2,95,0,1
211674,-200,4,2,2,95,0,0
211946,-50,4,2,2,95,0,0
212219,-66.6666666666667,4,2,2,95,0,0
213037,-50,4,2,2,95,0,0
213310,-66.6666666666667,4,2,2,95,0,0
213855,-100,4,2,1,75,0,0
218219,-66.6666666666667,4,2,2,95,0,1
218287,-66.6666666666667,4,2,2,95,0,0
220401,-200,4,2,2,95,0,0
220674,-50,4,2,2,95,0,0
220946,-66.6666666666667,4,2,2,95,0,0
221765,-50,4,2,2,95,0,0
222037,-66.6666666666667,4,2,2,95,0,0
222583,-100,4,2,1,75,0,0
224765,-200,4,2,1,60,0,0
225446,-1000,4,2,1,60,0,0
225855,-50,4,2,2,85,0,0
226946,-200,4,2,2,80,0,0
227765,-125,4,2,2,80,0,0
228583,-100,4,2,2,80,0,0
229128,-125,4,2,2,80,0,0
229946,-200,4,2,2,80,0,0
230765,-303.030303030303,4,2,2,80,0,0
231310,-200,4,2,2,80,0,0
232128,-125,4,2,2,80,0,0
232946,-100,4,2,2,80,0,0
233492,-125,4,2,2,80,0,0
234310,-200,4,2,2,80,0,0
235128,-100,4,2,2,80,0,0
235674,-100,4,2,2,80,0,1
239492,-400,4,2,2,80,0,0
240037,-100,4,2,2,80,0,1
241674,-100,4,2,2,85,0,1
242219,-200,4,2,1,60,0,0
243310,-100,4,2,2,70,0,0
244128,-40,4,2,2,80,0,1
244401,-55.5555555555556,4,2,1,90,0,0
244674,-83.3333333333333,4,2,1,90,0,0
244946,-125,4,2,1,90,0,0
245219,-83.3333333333333,4,2,2,90,0,1
248492,-250,4,2,2,90,0,1
248765,-55.5555555555556,4,2,1,90,0,1
249037,-83.3333333333333,4,2,1,90,0,1
249310,-125,4,2,1,90,0,1
249583,-83.3333333333333,4,2,2,90,0,1
253128,-66.6666666666667,4,2,2,90,0,0
253401,-55.5555555555556,4,2,1,90,0,1
253674,-125,4,2,1,90,0,1
253946,-83.3333333333333,4,2,2,90,0,1
257219,-66.6666666666667,4,2,2,90,0,1
257492,-55.5555555555556,4,2,1,80,0,1
257765,-125,4,2,1,80,0,1
258174,-200,4,2,2,80,0,1
258446,-66.6666666666667,4,2,2,80,0,1
258651,-200,4,2,2,80,0,1
258992,-66.6666666666667,4,2,2,80,0,1
259674,-55.5555555555556,4,2,1,80,0,1
259946,-125,4,2,1,80,0,1
260219,-83.3333333333333,4,2,2,80,0,1
260355,-200,4,2,2,80,0,1
260765,-66.6666666666667,4,2,2,80,0,1
260901,-200,4,2,2,80,0,1
261174,-50,4,2,2,80,0,1
261310,-50,4,2,2,90,0,1
261855,-83.3333333333333,4,2,2,98,0,1
262401,-55.5555555555556,4,2,2,98,0,1
262674,-66.6666666666667,4,2,2,98,0,1
266219,-83.3333333333333,4,2,2,98,0,1
266765,-55.5555555555556,4,2,2,98,0,1
267037,-83.3333333333333,4,2,2,98,0,1
268401,-50,4,2,2,98,0,1
268605,-66.6666666666667,4,2,2,98,0,1
268810,-100,4,2,2,98,0,1
269015,-133.333333333333,4,2,2,98,0,1
269219,-200,4,2,2,65,0,0
269492,-50,4,2,2,90,0,1
269696,-66.6666666666667,4,2,2,90,0,1
269901,-100,4,2,2,90,0,1
270105,-133.333333333333,4,2,2,90,0,1
270583,-133.333333333333,4,2,1,80,0,0
274946,-133.333333333333,4,2,1,90,0,1
276583,-133.333333333333,4,2,1,95,0,1
277128,-66.6666666666667,4,2,1,98,0,1
278219,-133.333333333333,4,2,1,75,0,0
279310,-83.3333333333333,4,2,2,95,0,1
288037,-250,4,2,2,70,0,1
288310,-83.3333333333333,4,2,2,95,0,1
290219,-250,4,2,2,70,0,1
290492,-83.3333333333333,4,2,2,95,0,1
291310,-66.6666666666667,4,2,2,95,0,1
292401,-100,4,2,2,80,0,1
292810,-250,4,2,2,80,0,1
293219,-100,4,2,2,80,0,1
293901,-250,4,2,2,80,0,1
294583,-100,4,2,2,80,0,1
294992,-250,4,2,2,80,0,1
295401,-100,4,2,2,80,0,1
295674,-66.6666666666667,4,2,2,90,0,1
296424,-50,4,2,2,90,0,1
296765,-200,4,2,2,75,0,0
297037,-100,4,2,2,75,0,0
297174,-200,4,2,2,75,0,0
297446,-100,4,2,2,75,0,0
297583,-333.333333333333,4,2,2,75,0,0
298401,-133.333333333333,4,2,2,75,0,0
298946,-200,4,2,2,75,0,0
299765,-333.333333333333,4,2,2,75,0,0
300583,-66.6666666666667,4,2,2,90,0,0
301128,-200,4,2,2,75,0,0
301946,-333.333333333333,4,2,2,75,0,0
302765,-133.333333333333,4,2,2,75,0,0
303310,-200,4,2,2,75,0,0
304128,-333.333333333333,4,2,2,75,0,0
304946,-66.6666666666667,4,2,2,90,0,0
305492,-66.6666666666667,4,2,2,95,0,1
309310,-333.333333333333,4,2,2,70,0,0
309855,-83.3333333333333,4,2,2,95,0,1
311492,-83.3333333333333,4,2,2,97,0,1
311765,-83.3333333333333,4,2,2,100,0,1
312037,-133.333333333333,4,2,2,70,0,0
313401,-100,4,2,2,70,0,0
313946,-40,4,2,2,90,0,0
314219,-200,4,2,1,90,0,0
314628,-200,4,2,1,60,0,0
322946,-400,4,2,1,60,0,0
335083,-400,4,2,1,50,0,0
338219,-400,4,2,1,35,0,0
339310,-400,4,2,1,20,0,0
340674,-400,4,2,1,10,0,0

[Colours]
Combo1 : 196,136,255
Combo2 : 224,193,255
Combo3 : 240,240,255
Combo4 : 175,175,175

[HitObjects]
256,192,21855,12,0,24855,0:0:0:0:
92,66,25128,5,10,1:2:0:0:
92,66,25196,1,2,1:2:0:0:
92,66,25265,1,10,1:2:0:0:
92,66,25333,1,0,1:0:0:0:
92,66,25401,1,0,1:0:0:0:
38,292,25537,2,0,B|26:271|26:271|28:246,1,48.5,0|0,1:0|0:0,0:0:0:0:
21,100,25674,5,10,0:0:0:0:
102,253,25810,1,2,1:2:0:0:
7,179,25946,2,0,B|89:186|89:186|124:223|124:223|207:234,1,218.250008325577,10|0,0:0|0:0,0:0:0:0:
218,240,26219,6,0,P|242:173|220:84,1,145.5,4|0,1:0|0:0,0:0:0:0:
270,52,26765,6,0,P|223:63|174:63,1,97,8|0,1:0|0:0,0:0:0:0:
52,35,27037,6,0,B|93:19|93:19|50:121,1,145.5,0|0,1:0|0:0,0:0:0:0:
24,174,27583,2,0,P|20:199|26:222,1,48.5,0|0,1:0|0:0,0:0:0:0:
30,229,27787,1,0,0:0:0:0:
36,235,27855,6,0,P|77:211|125:211,1,97,8|0,0:0|0:0,0:0:0:0:
256,281,28128,2,0,L|248:304,3,24.25
193,352,28401,6,0,P|139:306|68:295,1,145.5,0|0,1:0|0:0,0:0:0:0:
21,254,28946,6,0,P|31:301|34:349,1,97,8|0,0:0|0:0,0:0:0:0:
203,367,29219,6,0,P|205:294|220:223,1,145.5,0|0,1:0|0:0,0:0:0:0:
272,179,29765,2,0,L|325:194,1,48.5,0|0,1:0|0:0,0:0:0:0:
386,195,29969,1,0,0:0:0:0:
386,195,30037,6,0,L|383:173,6,12.125,8|0|0|0|0|0|0,0:0|0:0|0:0|0:0|0:0|0:0|0:0,0:0:0:0:
455,180,30310,1,0,0:0:0:0:
428,242,30446,1,0,1:0:0:0:
426,308,30583,6,0,P|372:261|300:249,1,145.5,0|0,1:0|0:0,0:0:0:0:
232,216,31128,6,0,L|244:320,1,97,8|0,0:0|0:0,0:0:0:0:
440,344,31401,6,0,L|462:198,1,145.5,0|0,1:0|0:0,0:0:0:0:
466,132,31946,2,0,L|476:79,1,48.5,0|0,1:0|0:0,0:0:0:0:
477,74,32151,1,0,0:0:0:0:
478,64,32219,6,0,P|433:79|384:78,1,97,8|0,0:0|0:0,0:0:0:0:
277,16,32492,6,0,L|280:45,3,24.25,0|0|0|0,1:0|0:0|0:0|0:0,0:0:0:0:
245,96,32765,6,0,L|228:240,1,145.5,0|0,1:0|0:0,0:0:0:0:
224,332,33310,6,0,L|236:234,1,97,8|0,0:0|0:0,0:0:0:0:
53,215,33583,6,0,L|69:359,1,145.5,0|0,1:0|0:0,0:0:0:0:
70,369,34128,5,0,1:0:0:0:
153,319,34265,1,0,0:0:0:0:
191,230,34401,1,8,0:0:0:0:
218,323,34537,1,0,0:0:0:0:
296,378,34674,1,0,0:0:0:0:
490,178,34810,1,0,1:0:0:0:
490,178,34878,1,0,0:0:0:0:
490,178,34946,6,0,L|410:190,1,72.7500027751924,0|0,1:0|0:0,0:0:0:0:
346,260,35219,1,0,0:0:0:0:
251,221,35355,1,0,0:0:0:0:
251,221,35424,1,0,0:0:0:0:
252,221,35492,6,0,P|218:185|210:110,1,116.399996447754,8|0,0:0|0:0,0:0:0:0:
256,48,35765,2,0,L|340:62,1,72.7500027751924,0|0,1:0|0:3,0:0:0:0:
327,59,35969,1,0,0:3:0:0:
327,59,36037,1,0,0:3:0:0:
360,183,36310,2,0,L|482:199,1,109.125004162789,0|0,1:0|0:0,0:0:0:0:
470,121,36583,6,0,B|444:105|444:105|468:194,1,116.399996447754,8|0,0:0|0:0,0:0:0:0:
506,282,36855,2,0,L|503:321,3,36.3750013875962
469,207,37128,6,0,P|370:244|322:339,1,218.250008325577,0|0,1:0|0:0,0:0:0:0:
268,377,37674,6,0,L|383:361,1,116.399996447754,8|0,0:0|0:0,0:0:0:0:
383,361,37946,6,0,B|416:314|416:314|259:380,1,218.250008325577,0|0,1:0|0:0,0:0:0:0:
186,348,38492,2,0,P|184:311|197:278,1,72.7500027751924,0|0,1:0|0:0,0:0:0:0:
245,187,38696,1,0,0:0:0:0:
245,187,38765,2,0,L|277:178,5,18.1875006937981,8|0|0|0|0|0,0:0|0:0|0:0|0:0|0:0|0:0,0:0:0:0:
142,207,39037,1,0,0:0:0:0:
54,154,39174,1,0,1:0:0:0:
9,80,39310,6,0,B|51:62|51:62|11:239,1,218.250008325577,0|0,1:0|0:0,0:0:0:0:
0,360,39855,6,0,P|40:319|97:309,1,116.399996447754,8|0,0:0|0:0,0:0:0:0:
96,309,40128,6,0,P|61:304|29:286,1,72.7500027751924,0|0,1:0|0:0,0:0:0:0:
29,286,40333,1,0,0:0:0:0:
29,286,40401,2,0,L|11:204,1,72.7500027751924
0,129,40674,2,0,L|80:154,1,72.7500027751924,0|0,1:0|0:0,0:0:0:0:
150,181,40946,2,0,L|87:237,1,72.7500027751924,8|0,0:0|0:0,0:0:0:0:
28,285,41219,2,0,L|16:230,3,36.3750013875962,0|0|0|0,1:0|0:0|0:0|0:0,0:0:0:0:
13,214,41492,5,0,1:0:0:0:
111,160,41628,2,0,P|111:196|95:229,1,72.7500027751924
95,228,41901,1,0,1:0:0:0:
95,228,42037,2,0,P|82:157|106:89,2,145.500005550385,0|0|0,1:0|1:0|0:0,0:0:0:0:
95,228,42855,5,0,1:0:0:0:
239,209,42992,1,0,0:0:0:0:
382,189,43128,1,0,0:0:0:0:
252,175,43265,1,0,0:0:0:0:
122,161,43401,1,0,0:0:0:0:
274,60,43537,1,0,0:0:0:0:
378,213,43674,5,6,1:2:0:0:
377,217,43742,1,0,0:0:0:0:
376,221,43810,1,0,0:0:0:0:
375,225,43878,1,0,0:0:0:0:
374,229,43946,1,0,0:0:0:0:
277,293,44083,1,0,0:0:0:0:
393,296,44219,2,0,P|403:326|403:356,1,58.199998223877,0|0,1:0|0:0,0:0:0:0:
277,293,44492,5,2,1:2:0:0:
278,289,44560,1,0,0:0:0:0:
279,285,44628,1,0,0:0:0:0:
280,281,44696,1,0,0:0:0:0:
281,277,44765,2,0,L|300:185,1,87.2999973358155
300,183,45037,2,0,L|237:194,1,58.199998223877,2|0,1:2|0:0,0:0:0:0:
232,114,45310,2,0,L|169:125,1,58.199998223877
201,259,45583,2,0,L|138:270,1,58.199998223877
0,197,45855,5,2,1:2:0:0:
1,193,45924,1,0,0:0:0:0:
2,189,45992,1,0,0:0:0:0:
3,185,46060,1,0,0:0:0:0:
4,181,46128,1,0,0:0:0:0:
86,98,46265,1,0,0:0:0:0:
202,101,46401,2,0,P|212:131|212:161,1,58.199998223877,0|0,1:0|0:0,0:0:0:0:
83,110,46674,5,2,1:2:0:0:
84,106,46742,1,0,0:0:0:0:
85,102,46810,1,0,0:0:0:0:
86,98,46878,1,0,0:0:0:0:
87,94,46946,2,0,L|102:37,1,58.199998223877
153,151,47219,2,0,L|221:79,1,87.2999973358155,2|0,1:2|0:0,0:0:0:0:
220,78,47492,2,0,L|270:29,1,58.199998223877
280,154,47765,2,0,L|332:119,1,58.199998223877
402,44,48037,5,2,1:2:0:0:
406,45,48105,1,0,0:0:0:0:
410,46,48174,1,0,0:0:0:0:
414,47,48242,1,0,0:0:0:0:
418,48,48310,1,0,0:0:0:0:
484,143,48446,1,0,0:0:0:0:
422,241,48583,2,0,P|392:251|362:251,1,58.199998223877,0|0,1:2|0:0,0:0:0:0:
229,210,48855,5,2,1:2:0:0:
230,214,48924,1,0,0:0:0:0:
231,218,48992,1,0,0:0:0:0:
232,222,49060,1,0,0:0:0:0:
233,226,49128,2,0,L|252:318,1,87.2999973358155
252,322,49401,2,0,P|258:294|275:271,1,58.199998223877,2|0,1:2|0:0,0:0:0:0:
283,189,49674,2,0,P|311:194|334:211,1,58.199998223877
416,215,49946,2,0,P|410:243|393:266,1,58.199998223877
352,334,50219,5,2,1:2:0:0:
348,333,50287,1,0,0:0:0:0:
344,332,50355,1,0,0:0:0:0:
340,331,50424,1,0,0:0:0:0:
336,330,50492,1,0,0:0:0:0:
334,211,50628,1,0,0:0:0:0:
398,114,50765,2,0,P|429:112|458:119,1,58.199998223877,0|0,1:0|0:0,0:0:0:0:
490,356,51037,5,2,1:2:0:0:
489,352,51105,1,0,0:0:0:0:
488,348,51174,1,0,0:0:0:0:
487,344,51242,1,0,0:0:0:0:
486,340,51310,2,0,L|471:283,1,58.199998223877
334,211,51583,2,0,P|298:236|274:272,1,87.2999973358155,2|0,1:2|0:0,0:0:0:0:
271,286,51855,2,0,L|280:344,1,58.199998223877
469,293,52128,2,0,L|460:235,1,58.199998223877
404,53,52401,6,0,P|392:74|388:97,3,48.5,6|0|0|0,1:2|0:0|0:0|0:0,0:0:0:0:
287,73,52674,2,0,P|291:96|304:117,3,48.5,2|0|0|0,1:2|0:0|0:0|0:0,0:0:0:0:
209,162,52946,2,0,P|226:178|249:186,3,48.5,2|0|0|0,1:2|0:0|0:0|0:0,0:0:0:0:
196,279,53219,2,0,P|219:281|243:275,3,48.5,2|0|0|0,1:2|0:0|0:0|0:0,0:0:0:0:
343,358,53492,6,0,P|335:335|320:316,3,48.5,2|0|0|0,1:2|0:0|0:0|0:0,0:0:0:0:
366,230,53765,2,0,P|346:215|323:208,3,48.5,2|0|0|0,1:2|0:0|0:0|0:0,0:3:0:0:
311,111,54037,2,0,P|286:110|264:118,3,48.5,2|0|0|0,1:2|0:0|0:0|0:0,0:0:0:0:
197,45,54310,2,0,P|176:58|162:77,3,48.5,2|0|0|0,1:2|0:0|0:0|0:0,0:3:0:0:
63,6,54583,6,0,L|75:69,3,48.5,2|0|0|0,1:2|0:0|0:0|0:0,0:3:0:0:
220,108,54855,2,0,L|210:155,3,48.5,2|0|0|0,1:2|0:0|0:0|0:0,0:0:0:0:
62,209,55128,2,0,L|71:256,3,48.5,2|0|0|0,1:2|0:0|0:0|0:0,0:0:0:0:
221,311,55401,2,0,L|211:358,3,48.5,2|0|0|0,1:2|0:0|0:0|0:0,0:0:0:0:
24,361,55674,6,0,L|14:313,3,48.5,2|0|0|0,1:2|0:0|0:0|0:0,0:0:0:0:
0,115,55946,2,0,L|47:124,3,48.5,2|0|0|0,1:2|0:0|0:0|0:0,0:0:0:0:
97,309,56219,2,0,L|144:299,3,48.5,2|0|0|0,1:2|0:0|0:0|0:0,0:0:0:0:
191,107,56492,2,0,L|238:116,3,48.5,2|0|0|0,1:2|0:0|0:0|0:0,0:0:0:0:
274,326,56765,5,2,1:2:0:0:
222,130,56901,1,2,0:0:0:0:
418,79,57037,1,2,1:2:0:0:
469,274,57174,1,2,0:0:0:0:
215,273,57310,5,2,1:2:0:0:
268,77,57446,1,2,0:0:0:0:
462,131,57583,1,2,1:2:0:0:
410,326,57719,1,2,0:0:0:0:
250,200,57855,5,2,1:2:0:0:
292,151,57924,1,2,0:0:0:0:
339,110,57992,1,2,0:0:0:0:
390,150,58060,1,2,0:0:0:0:
427,200,58128,1,2,1:2:0:0:
384,246,58196,1,2,0:0:0:0:
338,288,58265,1,2,0:0:0:0:
292,249,58333,1,2,0:0:0:0:
317,195,58401,5,2,1:2:0:0:
327,182,58469,1,2,0:0:0:0:
339,172,58537,1,2,0:0:0:0:
352,182,58605,1,2,0:0:0:0:
361,195,58674,1,2,1:2:0:0:
350,206,58742,1,2,0:0:0:0:
339,217,58810,1,2,1:2:0:0:
327,207,58878,1,2,0:0:0:0:
317,195,58946,6,0,P|315:159|323:129,1,64.6666666666667,0|0,1:3|0:0,0:0:0:0:
361,195,59219,6,0,P|362:227|354:258,1,64.6666666666667,0|0,3:0|0:0,0:0:0:0:
280,81,59492,6,0,B|313:70|313:70|326:94|320:142,1,97.0000037002565,10|0,0:2|0:0,0:0:0:0:
267,233,59765,6,0,B|230:216|230:216|214:171|236:129,1,129.333333333333,2|0,3:0|0:0,0:0:0:0:
394,47,60037,5,0,3:0:0:0:
340,134,60174,1,0,0:0:0:0:
260,62,60310,1,0,3:0:0:0:
318,0,60446,1,0,0:0:0:0:
512,88,60583,6,0,P|513:121|506:155,1,67.9,8|0,3:2|0:0,0:0:0:0:
505,155,61128,6,2,B|342:129|342:129|383:160,1,218.250008325577,6|0,1:0|0:0,0:0:0:0:
501,218,61401,6,2,B|532:251|532:251|503:148,1,145.5,2|0,2:1|0:0,0:0:0:0:
434,63,61674,6,2,B|410:38|410:38|431:110,1,109.125004162789,10|0,2:1|0:0,0:0:0:0:
491,354,61946,5,4,1:0:0:0:
398,234,62083,2,0,P|383:254|375:277,1,48.5,2|0,0:1|0:0,0:0:0:0:
294,201,62219,2,0,P|291:225|296:248,1,48.5,2|0,0:1|0:0,0:0:0:0:
186,223,62355,2,0,P|195:245|211:263,1,48.5,2|0,0:1|0:0,0:0:0:0:
295,350,62492,6,0,B|323:363|323:363|310:344,1,48.5,2|0,1:2|0:0,0:0:0:0:
392,355,62628,2,0,B|420:368|420:368|407:349,1,48.5,2|0,0:1|0:0,0:0:0:0:
395,222,62765,6,0,P|380:242|372:265,1,48.5,10|0,0:1|0:0,0:0:0:0:
291,189,62901,2,0,P|288:213|293:236,1,48.5,2|0,0:1|0:0,0:0:0:0:
183,211,63037,2,0,P|192:233|208:251,1,48.5,2|0,0:1|0:0,0:0:0:0:
100,284,63174,2,0,P|118:298|141:306,1,48.5,2|0,0:1|0:0,0:0:0:0:
491,354,63310,5,2,1:2:0:0:
378,278,63446,6,0,P|393:258|401:235,1,48.5,2|0,0:1|0:0,0:0:0:0:
305,243,63583,2,0,P|307:218|303:194,1,48.5,2|0,0:1|0:0,0:0:0:0:
224,249,63719,2,0,P|214:226|198:207,1,48.5,2|0,0:1|0:0,0:0:0:0:
91,355,63855,6,0,B|82:370|82:370|110:357,1,48.5,10|0,0:1|0:0,0:0:0:0:
185,350,63992,2,0,B|175:364|175:364|203:351,1,48.5,2|0,0:1|0:0,0:0:0:0:
295,350,64128,5,2,1:2:0:0:
4,339,64265,1,2,0:1:0:0:
158,113,64401,6,0,P|154:124|150:140,1,24.25,2|0,0:1|0:0,0:0:0:0:
187,125,64469,2,0,P|177:132|167:144,1,24.25,2|0,0:1|0:0,0:0:0:0:
207,149,64537,2,0,P|195:151|179:156,1,24.25,0|0,0:1|0:0,0:0:0:0:
211,180,64605,2,0,P|199:176|183:172,1,24.25,0|0,0:1|0:0,0:0:0:0:
199,208,64674,2,0,P|191:198|179:188,1,24.25,0|0,1:1|0:0,0:0:0:0:
51,331,64810,6,0,P|28:338|4:339,1,48.5,2|0,0:1|0:0,0:0:0:0:
163,362,64946,6,0,P|162:337|154:315,1,48.5,10|0,0:1|0:0,0:0:0:0:
52,186,65083,2,0,P|30:178|6:178,1,48.5,2|0,0:1|0:0,0:0:0:0:
3,338,65219,6,0,P|25:333|47:320,1,48.5,2|0,0:1|0:0,0:0:0:0:
56,319,65492,6,2,B|35:242|35:242|53:189|53:189|40:107,1,218.250008325577,2|0,1:0|0:0,0:0:0:0:
84,25,65765,6,2,B|135:7|135:7|103:106,1,145.5,2|0,2:1|0:0,0:0:0:0:
22,220,66037,6,2,B|-17:233|-17:233|7:159,1,109.125004162789,10|0,2:1|0:0,0:0:0:0:
0,162,66310,6,0,L|99:154,1,97,2|0,1:1|0:0,0:0:0:0:
211,99,66583,6,0,B|171:61|171:61|202:144,1,145.500005550385,2|0,2:1|2:0,0:0:0:0:
365,145,66855,2,0,L|317:139,1,48.5,2|0,1:1|2:0,0:0:0:0:
196,157,66992,2,2,L|244:163,1,48.5,2|0,0:1|2:0,0:0:0:0:
433,89,67128,6,0,B|482:63|482:63|430:136,1,145.500005550385,10|0,0:1|2:0,0:0:0:0:
422,140,67401,2,0,L|374:134,1,48.5,2|0,0:1|2:0,0:0:0:0:
263,91,67537,2,2,L|311:97,1,48.5,2|0,0:1|2:0,0:0:0:0:
489,184,67674,6,0,P|517:249|505:320,1,145.5,2|0,1:1|2:0,0:0:0:0:
496,331,67946,2,0,P|477:315|454:307,1,48.5,2|0,0:1|2:0,0:0:0:0:
348,174,68083,2,2,P|344:197|348:221,1,48.5,2|0,0:1|2:0,0:0:0:0:
332,357,68219,6,0,P|360:291|348:220,1,145.5,10|0,0:1|2:0,0:0:0:0:
352,213,68492,2,0,P|333:197|310:189,1,48.5,2|0,1:1|2:0,0:0:0:0:
190,257,68628,2,2,P|189:281|198:303,1,48.5,2|0,0:1|2:0,0:0:0:0:
332,357,68765,6,0,L|313:212,1,145.5,0|0,0:0|2:0,0:0:0:0:
310,189,69037,1,2,1:1:0:0:
236,372,69174,1,0,0:1:0:0:
444,353,69310,5,10,0:1:0:0:
334,114,69446,6,2,L|310:109,1,24.25,2|0,0:1|0:0,0:0:0:0:
238,212,69583,2,2,L|245:235,1,24.25,2|0,0:1|0:0,0:0:0:0:
371,247,69719,2,2,L|387:228,1,24.25,2|0,0:1|0:0,0:0:0:0:
310,189,69855,6,2,L|92:203,1,218.250008325577,2|0,1:0|0:0,0:0:0:0:
83,143,70128,6,2,B|114:107|114:107|90:211,1,145.5,2|0,2:1|0:0,0:0:0:0:
6,273,70401,6,2,B|-17:300|-17:300|0:222,1,109.125004162789,14|0,2:1|0:0,0:0:0:0:
40,15,70674,1,2,1:0:0:0:
133,135,70810,2,0,P|148:115|156:92,1,48.5,2|0,0:1|2:0,0:0:0:0:
237,168,70946,2,0,P|240:144|235:121,1,48.5,2|0,0:1|2:0,0:0:0:0:
345,146,71083,2,0,P|336:124|320:106,1,48.5,2|0,0:1|2:0,0:0:0:0:
155,18,71219,6,0,B|127:5|127:5|140:24,1,48.5,0|0,1:1|0:0,0:0:0:0:
58,13,71355,2,0,B|30:0|30:0|43:19,1,48.5,2|0,0:1|2:0,0:0:0:0:
136,147,71492,6,0,P|151:127|159:104,1,48.5,10|0,0:1|2:0,0:0:0:0:
240,180,71628,2,0,P|243:156|238:133,1,48.5,2|0,0:1|2:0,0:0:0:0:
348,158,71765,2,0,P|339:136|323:118,1,48.5,2|0,0:1|2:0,0:0:0:0:
431,85,71901,2,0,P|413:71|390:63,1,48.5,2|0,0:1|2:0,0:0:0:0:
58,13,72037,5,2,1:0:0:0:
156,93,72174,6,0,P|141:113|133:136,1,48.5,2|0,0:1|2:0,0:0:0:0:
229,128,72310,2,0,P|227:153|231:177,1,48.5,2|0,0:1|2:0,0:0:0:0:
310,122,72446,2,0,P|320:145|336:164,1,48.5,2|0,0:1|2:0,0:0:0:0:
440,14,72583,6,0,B|449:-1|449:-1|421:12,1,48.5,10|0,0:1|2:0,0:0:0:0:
346,19,72719,2,0,B|356:5|356:5|328:18,1,48.5,2|0,0:1|2:0,0:0:0:0:
161,75,72855,1,2,1:0:0:0:
241,182,72992,1,2,0:1:0:0:
425,179,73128,6,0,P|417:173|403:169,1,24.25,2|0,0:1|0:0,0:0:0:0:
434,152,73196,2,0,P|425:150|411:154,1,24.25,2|0,0:1|0:0,0:0:0:0:
430,126,73265,2,0,P|421:129|410:140,1,24.25,2|0,0:1|0:0,0:0:0:0:
414,104,73333,2,0,P|408:111|402:125,1,24.25,0|0,0:1|0:0,0:0:0:0:
390,92,73401,2,0,P|388:100|389:116,1,24.25,0|0,1:1|0:0,0:0:0:0:
240,19,73537,5,2,0:1:0:0:
147,130,73674,2,0,L|155:177,1,48.5,10|0,0:1|0:0,0:0:0:0:
284,170,73810,2,0,L|273:219,1,48.5,2|0,0:1|0:0,0:0:0:0:
144,269,73946,6,0,L|153:316,1,48.0149998534698,2|0,0:1|0:0,0:0:0:0:
153,316,74219,6,0,L|373:325,1,218.250008325577,2|0,1:0|0:0,0:0:0:0:
364,332,74492,6,0,L|254:328,1,109.125004162789,2|0,2:1|0:0,0:0:0:0:
55,324,74765,6,0,P|45:331|39:341,1,24.25,10|0,0:1|0:0,0:0:0:0:
55,324,74833,2,0,P|50:335|50:347,1,24.25
55,324,74901,2,0,P|56:335|62:346,1,24.25,2|0,0:1|0:0,0:0:0:0:
254,328,75037,6,0,P|254:291|246:256,1,72.7500027751924,2|0,1:0|0:0,0:0:0:0:
188,38,75174,2,0,P|183:28|173:20,1,24.25,2|0,0:1|0:0,0:0:0:0:
188,38,75242,2,0,P|200:38|211:33,1,24.25
188,39,75310,6,0,P|184:74|199:115,1,72.7500027751924,2|0,0:1|2:0,0:0:0:0:
315,109,75446,6,0,P|327:74|323:39,1,72.75,2|0,0:1|0:0,0:0:0:0:
320,36,75719,6,0,P|348:57|390:65,1,72.7500027751924,2|0,0:1|0:0,0:0:0:0:
496,91,75855,6,0,P|462:105|435:137,1,72.7500027751924,10|0,1:1|0:0,0:0:0:0:
362,213,75992,2,0,P|351:219|339:221,1,24.25,2|0,0:1|0:0,0:0:0:0:
361,212,76060,2,0,P|371:217|379:227,1,24.25
362,213,76128,6,0,P|366:177|351:137,1,72.7500027751924,2|0,0:1|2:0,0:0:0:0:
242,116,76265,6,0,P|215:140|201:173,1,72.7500027751924,0|0,0:0|2:0,0:0:0:0:
248,279,76401,6,0,B|330:286|330:286|362:314|362:314|455:322,1,218.250008325577,2|0,1:0|0:0,0:0:0:0:
406,284,76674,6,0,L|287:320,1,109.125004162789,2|0,1:0|0:0,0:0:0:0:
239,341,76946,6,0,P|249:348|255:358,1,24.25,10|0,0:1|0:0,0:0:0:0:
239,341,77015,2,0,P|244:352|244:364,1,24.25
239,341,77083,2,0,P|238:352|232:363,1,24.25,2|0,0:1|0:0,0:0:0:0:
300,179,77219,1,2,1:0:0:0:
450,340,77355,2,0,P|459:346|471:348,1,24.25,2|0,0:1|2:0,2:0:0:0:
450,340,77424,2,0,P|439:346|432:355,1,24.25,0|0,0:0|2:0,2:0:0:0:
449,339,77492,6,0,P|434:306|401:278,1,72.7500027751924,2|0,0:1|2:0,0:0:0:0:
260,299,77628,6,0,P|239:327|231:370,1,72.7500027751924,2|0,0:1|2:0,0:0:0:0:
237,368,77901,6,0,P|269:353|297:320,1,72.7500027751924,2|0,0:1|2:0,0:0:0:0:
490,66,78037,6,0,B|395:22|329:120|329:120|362:135|365:171,1,254.625009713173,8|0,0:0|0:0,0:0:0:0:
409,236,78583,6,0,P|429:215|438:190,3,48.5,6|0|0|0,1:2|0:0|0:0|0:0,0:0:0:0:
422,127,78855,2,0,P|401:107|376:98,3,48.5,2|0|0|0,1:2|0:0|0:0|0:0,0:0:0:0:
313,114,79128,2,0,P|293:135|284:160,3,48.5,2|0|0|0,1:2|0:0|0:0|0:0,0:0:0:0:
300,223,79401,2,0,P|321:243|346:252,3,48.5,2|0|0|0,1:2|0:0|0:0|0:0,0:0:0:0:
409,236,79674,6,0,P|429:215|438:190,3,48.5,2|0|0|0,1:2|0:0|0:0|0:0,0:0:0:0:
283,201,79946,2,0,P|289:172|285:146,3,48.5,2|0|0|0,1:2|0:0|0:0|0:0,0:0:0:0:
156,233,80219,2,0,P|147:205|130:184,3,48.5,2|0|0|0,1:2|0:0|0:0|0:0,0:0:0:0:
62,324,80492,2,0,P|41:304|16:295,3,48.5,2|0|0|0,1:2|0:0|0:0|0:0,0:0:0:0:
140,341,80765,6,0,P|160:329|175:310,3,48.5,2|0|0|0,1:2|0:0|0:0|0:0,0:0:0:0:
212,241,81037,2,0,P|217:217|215:193,3,48.5,2|0|0|0,1:2|0:0|0:0|0:0,0:0:0:0:
191,118,81310,2,0,P|178:97|159:82,3,48.5,2|0|0|0,1:2|0:0|0:0|0:0,0:0:0:0:
89,45,81583,2,0,P|65:39|41:41,3,48.5,2|0|0|0,2:2|2:0|2:0|2:0,2:0:0:0:
0,142,81855,6,0,L|47:136,3,48.5,2|0|0|0,1:2|0:0|0:0|0:0,0:0:0:0:
114,234,82128,2,0,L|161:241,3,48.5,2|0|0|0,1:2|0:0|0:0|0:0,0:0:0:0:
238,115,82401,6,0,L|285:109,3,48.5,2|0|0|0,1:2|0:0|0:0|0:0,0:0:0:0:
352,254,82674,2,0,L|399:261,3,48.5,2|0|0|0,1:2|0:0|0:0|0:0,0:0:0:0:
470,147,82946,6,0,L|423:154,1,48.5,2|0,1:2|2:0,0:0:0:0:
352,254,83083,2,0,L|399:261,1,48.5,2|0,0:0|2:0,0:0:0:0:
479,136,83219,6,0,L|423:144,1,48.5,2|0,1:2|2:0,0:0:0:0:
341,262,83355,2,0,L|396:270,1,48.5,2|0,0:0|2:0,0:0:0:0:
488,125,83492,6,0,L|432:133,1,48.5,2|0,1:2|2:0,0:0:0:0:
330,270,83628,2,0,L|385:278,1,48.5,2|0,0:0|2:0,0:0:0:0:
497,114,83765,6,0,L|441:122,1,48.5,2|0,1:2|2:0,0:0:0:0:
319,278,83901,2,0,L|374:286,1,48.5,2|0,0:0|2:0,0:0:0:0:
504,103,84037,5,2,1:2:0:0:
442,131,84105,1,2,0:0:0:0:
414,192,84174,1,2,0:0:0:0:
411,259,84242,1,2,0:0:0:0:
429,324,84310,1,2,1:2:0:0:
486,361,84378,1,2,0:0:0:0:
470,295,84446,1,2,0:0:0:0:
421,247,84515,1,2,0:0:0:0:
356,225,84583,5,2,1:2:0:0:
294,253,84651,1,2,0:0:0:0:
259,311,84719,1,2,0:0:0:0:
245,378,84787,1,2,0:0:0:0:
312,378,84855,5,2,1:2:0:0:
313,368,84924,1,2,0:0:0:0:
313,363,84992,1,2,1:2:0:0:
312,358,85060,1,2,1:2:0:0:
310,352,85128,2,0,P|238:350|171:376,1,145.5,0|0,3:0|0:0,3:0:0:0:
92,375,85401,6,0,P|60:369|33:352,2,48.5,0|0|0,3:0|3:0|3:0,3:0:0:0:
151,306,85674,2,0,P|139:275|141:243,2,48.5,0|0|0,3:0|3:0|3:0,3:0:0:0:
240,321,85946,2,0,P|254:302|273:288,2,48.5000018501283,0|0|0,3:0|3:0|3:0,3:0:0:0:
61,285,86219,6,0,P|58:252|67:221,1,64.6666666666667,0|0,3:0|3:0,3:0:0:0:
191,129,86401,1,0,3:0:0:0:
191,129,86492,6,0,P|191:96|181:66,1,64.6666666666667,0|0,3:0|3:0,3:0:0:0:
181,66,86674,1,0,3:0:0:0:
65,12,86765,6,0,P|36:27|15:51,1,64.6666666666667,8|0,1:2|0:0,0:0:0:0:
38,325,87310,5,0,1:1:0:0:
110,295,87401,1,0,3:1:0:0:
129,220,87492,1,0,3:1:0:0:
129,220,87583,5,0,3:1:0:0:
92,205,87674,1,0,3:0:0:0:
54,214,87765,1,0,3:0:0:0:
38,325,87855,6,2,B|52:380|119:378|119:378|110:326|110:326|97:312|97:312|86:248,1,242.500009250641,10|0,3:1|0:0,0:0:0:0:
47,146,88128,2,0,L|38:73,1,64.6666666666667,6|0,1:0|0:0,0:0:0:0:
32,16,88310,1,0,0:1:0:0:
32,16,88401,6,0,P|63:20|89:39,1,64.6666666666667
191,16,88583,1,0,0:1:0:0:
191,16,88674,2,0,P|216:35|229:65,1,64.6666666666667,2|0,1:1|0:0,1:0:0:0:
332,80,88855,1,0,0:0:0:0:
332,80,88946,2,0,P|344:108|340:141,1,64.6666666666667,8|0,0:0|0:0,0:0:0:0:
422,205,89128,1,0,0:0:0:0:
422,205,89219,2,2,P|418:235|398:261,2,64.6666666666667
484,121,89492,5,2,1:1:0:0:
407,133,89583,1,0,0:0:0:0:
350,186,89674,1,0,0:0:0:0:
350,186,89765,5,0,0:0:0:0:
386,117,89855,1,0,0:0:0:0:
396,43,89946,1,0,0:0:0:0:
296,24,90037,5,8,0:0:0:0:
255,90,90128,1,0,0:0:0:0:
257,166,90219,1,0,0:0:0:0:
257,166,90310,5,2,1:1:0:0:
317,124,90401,1,0,0:0:0:0:
255,90,90492,1,0,0:0:0:0:
255,90,90583,6,0,L|177:102,1,64.6666666666667
50,158,90765,1,0,0:0:0:0:
50,158,90855,2,0,L|30:96,1,64.6666666666667,2|0,1:0|0:0,0:0:0:0:
191,99,91037,1,0,0:0:0:0:
191,99,91128,6,0,L|171:161,1,64.6666666666667,8|0,1:0|0:0,0:0:0:0:
98,298,91310,1,0,0:0:0:0:
98,298,91401,2,0,P|66:303|39:321,2,64.6666666666667
98,298,91674,5,0,1:0:0:0:
173,280,91765,1,0,3:0:0:0:
241,316,91855,1,0,3:0:0:0:
241,316,91946,5,0,3:0:0:0:
275,334,92037,1,0,3:0:0:0:
313,324,92128,1,0,3:0:0:0:
331,158,92219,6,2,B|255:124|255:124|284:273,1,218.250008325577,10|0,3:1|0:0,0:0:0:0:
283,268,92492,6,0,P|306:261|330:261,1,48.5,2|0,1:1|0:0,0:0:0:0:
477,296,92628,1,0,0:0:0:0:
477,296,92696,1,0,0:0:0:0:
477,296,92765,5,2,0:1:0:0:
469,289,92833,1,0,0:0:0:0:
462,281,92901,1,0,0:0:0:0:
457,272,92969,1,0,0:0:0:0:
453,261,93037,2,0,P|454:237|463:215,1,48.5,0|0,1:1|0:0,0:0:0:0:
495,144,93174,2,0,P|505:122|508:98,1,48.5,2|0,0:1|0:0,0:0:0:0:
397,22,93310,5,10,0:1:0:0:
354,45,93378,1,0,0:0:0:0:
319,78,93446,1,0,0:0:0:0:
292,118,93515,1,0,0:0:0:0:
275,164,93583,1,0,0:1:0:0:
269,212,93651,1,0,0:0:0:0:
274,260,93719,2,0,B|285:281|285:281|292:256,1,48.5,2|0,0:1|0:0,0:0:0:0:
151,164,93855,5,2,1:1:0:0:
131,166,93924,1,0,0:0:0:0:
112,168,93992,1,0,0:0:0:0:
93,170,94060,1,0,0:0:0:0:
73,172,94128,1,0,0:0:0:0:
54,174,94196,1,0,0:0:0:0:
35,176,94265,2,0,B|11:179|11:179|34:187,1,48.5,2|0,0:1|0:0,0:0:0:0:
169,343,94401,5,10,0:1:0:0:
174,334,94469,1,0,0:0:0:0:
179,325,94537,1,0,0:0:0:0:
184,316,94605,1,0,0:0:0:0:
187,307,94674,2,0,P|166:318|143:325,1,48.5,2|0,1:0|0:0,0:0:0:0:
172,238,94810,2,0,P|148:244|127:256,1,48.5,0|0,0:1|0:0,0:0:0:0:
7,298,94946,5,2,0:1:0:0:
7,302,95015,1,0,0:0:0:0:
8,306,95083,1,0,0:0:0:0:
9,311,95151,1,0,0:0:0:0:
10,315,95219,1,2,1:0:0:0:
11,319,95287,1,0,0:0:0:0:
12,324,95355,1,0,0:0:0:0:
13,328,95424,1,0,0:0:0:0:
14,333,95492,5,10,0:1:0:0:
68,145,95628,1,2,0:1:0:0:
248,75,95765,1,2,0:1:0:0:
410,179,95901,1,2,0:1:0:0:
407,379,96037,5,4,1:0:0:0:
357,319,96128,1,0,0:0:0:0:
364,241,96219,1,0,0:1:0:0:
364,241,96310,5,0,0:0:0:0:
399,230,96401,1,0,0:1:0:0:
433,248,96492,1,0,0:0:0:0:
497,344,96583,6,2,B|319:275|319:275|372:284,1,242.500009250641,10|0,3:1|0:0,0:0:0:0:
442,185,96855,2,0,P|444:217|433:247,1,64.6666666666667,2|0,1:0|0:0,0:0:0:0:
259,300,97037,1,0,0:0:0:0:
259,300,97128,6,0,P|256:267|267:237,1,64.6666666666667
250,135,97310,1,0,0:0:0:0:
250,135,97401,2,0,P|277:115|308:110,1,64.6666666666667,2|0,1:0|0:0,0:0:0:0:
389,45,97583,1,0,0:0:0:0:
389,45,97674,2,0,P|419:58|439:83,1,64.6666666666667,8|0,0:0|0:0,0:0:0:0:
485,176,97855,1,0,0:0:0:0:
485,176,97946,2,0,B|493:206|493:206|465:188,2,64.6666666666667
389,45,98219,5,2,1:0:0:0:
313,28,98310,1,0,0:0:0:0:
253,77,98401,1,0,0:0:0:0:
240,153,98492,2,0,L|231:226,2,64.6666666666667
253,77,98765,5,8,0:0:0:0:
193,28,98855,1,0,0:0:0:0:
117,45,98946,1,0,0:0:0:0:
104,121,99037,5,2,1:0:0:0:
164,170,99128,1,0,0:0:0:0:
240,153,99219,1,0,0:0:0:0:
116,45,99310,6,0,P|96:70|88:101,1,64.6666666666667
79,189,99492,1,0,0:0:0:0:
79,189,99583,2,0,P|46:190|18:204,2,64.6666666666667,2|0|0,1:0|0:0|0:0,0:0:0:0:
209,267,99855,6,0,P|199:297|178:322,1,64.6666666666667,8|0,0:0|0:0,0:0:0:0:
39,340,100037,1,0,0:0:0:0:
17,173,100128,6,0,P|49:174|78:188,1,64.6666666666667
177,323,100310,1,0,0:0:0:0:
177,323,100401,5,0,1:0:0:0:
175,244,100492,1,0,3:0:0:0:
227,186,100583,1,0,3:0:0:0:
227,186,100674,5,0,3:0:0:0:
237,148,100765,1,0,3:0:0:0:
219,114,100855,1,0,3:0:0:0:
219,114,100946,6,2,L|242:330,1,218.250008325577,10|0,3:1|0:0,0:0:0:0:
245,345,101219,6,0,L|250:295,1,48.5,0|0,1:1|0:0,0:0:0:0:
322,184,101355,1,0,0:0:0:0:
330,188,101424,1,0,0:0:0:0:
338,193,101492,1,2,0:1:0:0:
344,199,101560,1,0,0:0:0:0:
350,206,101628,1,0,0:0:0:0:
355,214,101696,1,0,0:0:0:0:
359,222,101765,6,0,L|354:270,1,48.5,0|0,1:1|0:0,0:0:0:0:
267,368,101901,2,0,L|272:318,1,48.5,2|0,0:1|0:0,0:0:0:0:
322,184,102037,5,10,0:1:0:0:
337,172,102105,1,0,0:0:0:0:
354,164,102174,1,0,0:0:0:0:
372,159,102242,1,0,0:0:0:0:
391,156,102310,1,0,0:0:0:0:
410,156,102378,1,0,0:0:0:0:
428,161,102446,2,0,L|423:209,1,48.5,2|0,0:1|0:0,0:0:0:0:
257,221,102583,5,2,1:1:0:0:
268,194,102651,1,0,0:0:0:0:
282,168,102719,1,0,0:0:0:0:
300,144,102787,1,0,0:0:0:0:
323,127,102855,1,0,0:0:0:0:
349,114,102924,1,0,0:0:0:0:
377,110,102992,2,0,L|372:158,1,48.5,2|0,0:1|0:0,0:0:0:0:
355,354,103128,5,10,1:1:0:0:
321,350,103196,1,0,0:0:0:0:
287,345,103265,1,0,0:0:0:0:
253,341,103333,1,0,0:0:0:0:
219,337,103401,2,0,L|224:289,1,48.5,2|0,1:0|0:0,0:0:0:0:
214,130,103537,2,0,L|262:135,1,48.5,2|0,0:1|0:0,0:0:0:0:
383,50,103674,5,2,0:1:0:0:
426,31,103742,1,0,0:0:0:0:
471,45,103810,1,0,0:0:0:0:
496,86,103878,1,0,0:0:0:0:
487,132,103946,6,0,L|439:127,1,48.5,2|0,1:0|0:0,0:0:0:0:
383,50,104083,2,2,L|335:45,1,48.5,2|2,0:1|0:0,0:0:0:0:
309,199,104219,5,0,1:1:0:0:
220,124,104355,1,2,1:0:0:0:
161,225,104492,1,2,1:0:0:0:
73,149,104628,1,2,0:0:0:0:
15,315,104765,6,0,B|57:362|122:343|122:343|116:301|144:272,1,194.000007400513,6|0,1:0|0:0,0:0:0:0:
228,96,105174,1,8,0:0:0:0:
228,96,105242,1,0,0:0:0:0:
228,96,105310,6,2,B|268:95|295:68|295:68|278:173|278:173|255:198|255:198|242:276,1,291,6|0,1:0|0:0,0:0:0:0:
248,286,105583,6,0,L|237:359,3,72.7500027751924,10|0|0|0,0:1|0:0|0:0|0:0,0:0:0:0:
177,378,105855,5,2,1:1:0:0:
170,380,105924,1,0,0:0:0:0:
163,382,105992,2,0,L|163:307,1,72.7500027751924,0|0,0:1|0:0,0:0:0:0:
308,345,106128,1,0,0:1:0:0:
315,347,106196,1,0,0:0:0:0:
322,349,106265,2,0,L|322:274,1,72.7500027751924,8|0,0:1|0:0,0:0:0:0:
161,237,106401,5,2,1:1:0:0:
154,239,106469,1,0,0:0:0:0:
147,241,106537,2,0,L|147:166,1,72.7500027751924
322,207,106674,1,8,0:0:0:0:
329,209,106742,1,0,0:0:0:0:
336,211,106810,2,0,L|336:136,1,72.7500027751924
90,26,106946,5,2,1:1:0:0:
85,32,107015,1,0,0:0:0:0:
81,38,107083,2,0,P|66:73|59:105,1,72.7500027751924
195,57,107219,1,0,0:0:0:0:
191,63,107287,1,0,0:0:0:0:
189,70,107355,2,0,P|183:107|185:141,1,72.7500027751924,8|0,0:0|0:0,0:0:0:0:
304,59,107492,5,2,1:1:0:0:
301,65,107560,1,0,0:0:0:0:
301,73,107628,2,0,P|305:110|315:142,1,72.7500027751924
409,32,107765,1,8,0:0:0:0:
408,39,107833,1,0,0:0:0:0:
410,47,107901,2,0,P|424:82|442:110,1,72.7500027751924
500,195,108037,5,2,1:1:0:0:
494,193,108105,1,0,0:0:0:0:
488,192,108174,2,0,P|457:193|432:208,1,60.625
386,274,108310,5,0,0:0:0:0:
382,277,108378,1,0,0:0:0:0:
378,281,108446,2,0,P|370:307|371:337,1,48.5,8|0,0:0|0:0,0:0:0:0:
478,326,108583,6,0,P|475:306|469:288,3,38.8,2|0|0|0,1:1|0:0|0:0|0:0,0:0:0:0:
458,274,108855,6,0,P|444:268|430:267,3,29.0999991119385,8|0|0|0,0:0|0:0|0:0|0:0,0:0:0:0:
328,226,109128,5,2,1:1:0:0:
295,295,109219,1,0,3:0:0:0:
298,372,109310,1,0,3:0:0:0:
298,372,109401,5,0,3:0:0:0:
279,337,109492,1,0,3:0:0:0:
243,321,109583,1,0,3:0:0:0:
130,302,109674,6,2,B|65:289|25:345|25:345|48:264|48:264|39:229|39:229|53:174,1,291,6|0,3:1|0:0,0:0:0:0:
53,167,109946,6,0,L|72:93,3,72.7500027751924,8|0|0|0,0:0|0:0|0:0|0:0,0:0:0:0:
175,21,110219,5,2,1:1:0:0:
177,27,110287,1,0,0:0:0:0:
178,33,110355,2,0,L|257:46,1,72.7500027751924
200,116,110492,1,0,0:0:0:0:
202,122,110560,1,0,0:0:0:0:
203,128,110628,2,0,L|282:141,1,72.7500027751924,8|0,0:0|0:0,0:0:0:0:
220,225,110765,5,2,1:1:0:0:
222,231,110833,1,0,0:0:0:0:
223,237,110901,2,0,L|302:250,1,72.7500027751924
231,346,111037,1,8,0:0:0:0:
233,352,111105,1,0,0:0:0:0:
234,358,111174,2,0,L|313:371,1,72.7500027751924
452,168,111310,5,2,1:1:0:0:
445,169,111378,1,0,0:0:0:0:
437,173,111446,2,0,P|410:197|395:230,1,72.7500027751924
262,259,111583,1,0,0:0:0:0:
266,265,111651,1,0,0:0:0:0:
273,270,111719,2,0,P|307:280|343:277,1,72.7500027751924,8|0,0:0|0:0,0:0:0:0:
437,384,111855,1,2,1:1:0:0:
440,376,111924,1,0,0:0:0:0:
441,368,111992,2,0,P|432:332|412:302,1,72.7500027751924
350,136,112128,5,8,0:0:0:0:
342,138,112196,1,0,0:0:0:0:
335,141,112265,2,0,P|308:165|293:198,1,72.7500027751924
181,335,112401,5,2,1:1:0:0:
186,341,112469,1,0,0:0:0:0:
191,346,112537,2,0,P|219:355|249:354,1,60.625
312,280,112674,5,0,0:0:0:0:
313,275,112742,1,0,0:0:0:0:
314,267,112810,2,0,P|310:244|300:222,1,48.5,8|0,0:0|0:0,0:0:0:0:
219,208,112946,6,0,L|225:295,1,72.7500027751924,2|0,1:1|2:0,0:0:0:0:
396,273,113083,2,2,L|390:200,1,72.7500027751924,2|2,0:1|0:0,0:0:0:0:
303,177,113219,6,2,L|309:264,1,72.7500027751924,10|0,0:1|0:0,0:0:0:0:
483,250,113355,2,2,L|480:213,1,36.3750013875962,2|2,0:1|0:0,0:0:0:0:
488,231,113424,2,0,L|485:194,1,36.3750013875962
481,180,113492,5,6,1:1:0:0:
445,112,113583,1,0,3:0:0:0:
367,112,113674,1,0,3:0:0:0:
367,112,113765,5,2,3:1:0:0:
370,150,113855,1,0,3:0:0:0:
344,180,113946,1,0,3:0:0:0:
288,234,114037,6,2,B|228:254|193:217|193:217|136:200|95:228|95:228|128:259|118:306,1,291,6|0,3:1|0:0,0:0:0:0:
121,315,114310,5,10,0:1:0:0:
123,324,114378,1,0,0:0:0:0:
124,333,114446,1,0,0:0:0:0:
123,342,114515,1,0,0:0:0:0:
121,349,114583,6,0,L|47:336,1,72.7500027751924,2|0,1:1|0:0,0:0:0:0:
15,224,114719,5,0,0:0:0:0:
43,192,114787,1,0,0:0:0:0:
82,171,114855,1,2,0:1:0:0:
124,164,114924,1,0,0:0:0:0:
167,172,114992,2,0,L|177:244,1,72.7500027751924,8|0,0:0|0:0,0:0:0:0:
240,306,115128,6,0,L|312:316,3,72.7500027751924,2|0|0|0,1:1|0:0|0:0|0:0,0:0:0:0:
508,228,115401,5,10,0:1:0:0:
466,239,115469,1,0,0:0:0:0:
429,263,115537,1,0,0:0:0:0:
412,303,115605,1,0,0:0:0:0:
404,345,115674,6,0,L|476:355,1,72.7500027751924,2|0,1:1|0:0,0:0:0:0:
429,263,115810,1,0,0:0:0:0:
388,245,115878,1,0,0:0:0:0:
344,242,115946,1,2,0:1:0:0:
304,259,116015,1,0,0:0:0:0:
276,293,116083,2,0,L|288:214,1,72.7500027751924,8|0,0:0|0:0,0:0:0:0:
297,134,116219,6,0,L|286:62,3,72.7500027751924,2|0|0|0,1:1|0:0|0:0|0:0,0:0:0:0:
206,23,116492,5,10,0:1:0:0:
162,26,116560,1,0,0:0:0:0:
119,38,116628,1,0,0:0:0:0:
87,67,116696,1,0,0:0:0:0:
70,107,116765,6,0,L|1:94,3,60.625,2|0|0|0,1:1|0:0|0:0|0:0,0:0:0:0:
11,185,117037,6,0,L|70:179,3,48.5,2|0|8|0,0:1|0:0|0:0|0:0,0:0:0:0:
50,264,117310,6,0,L|9:260,3,36.3750013875962,2|0|0|0,1:1|0:0|0:0|0:0,0:0:0:0:
24,335,117583,5,10,0:1:0:0:
23,339,117651,1,0,0:0:0:0:
22,343,117719,1,0,0:0:0:0:
21,347,117787,1,0,0:0:0:0:
20,351,117855,5,2,1:1:0:0:
120,327,117946,1,0,3:0:0:0:
212,372,118037,1,0,3:0:0:0:
305,330,118128,5,0,3:1:0:0:
355,342,118219,1,0,3:0:0:0:
401,319,118310,1,0,3:0:0:0:
455,298,118401,6,2,B|236:307|236:307|304:329,1,291,6|0,3:2|0:0,0:0:0:0:
455,298,118674,6,0,P|448:263|427:234,3,72.7500027751924,10|0|0|0,0:1|0:0|0:0|0:0,0:0:0:0:
316,236,118946,5,2,1:1:0:0:
278,258,119015,1,0,0:0:0:0:
250,291,119083,1,0,0:0:0:0:
232,330,119151,1,0,0:0:0:0:
227,373,119219,1,2,0:1:0:0:
214,330,119287,1,0,0:0:0:0:
188,294,119355,1,8,0:0:0:0:
155,264,119424,1,0,0:0:0:0:
115,245,119492,6,0,P|81:249|42:275,3,72.7500027751924,2|0|0|0,1:1|0:0|0:0|0:0,0:0:0:0:
31,339,119765,2,0,P|51:366|93:387,3,72.7500027751924,10|0|0|0,0:1|0:0|0:0|0:0,0:0:0:0:
155,367,120037,6,0,P|157:346|153:330,1,36.3750013875962,2|0,1:1|0:0,0:0:0:0:
188,358,120105,2,0,P|184:337|176:322,1,36.3750013875962
217,340,120174,2,0,P|208:320|196:308,1,36.3750013875962,2|0,0:1|0:0,0:0:0:0:
241,314,120242,2,0,P|227:297|213:289,1,36.3750013875962
257,284,120310,2,0,P|239:271|223:267,1,36.3750013875962,2|0,0:1|0:0,0:0:0:0:
256,249,120378,2,0,P|235:247|219:251,1,36.3750013875962
246,217,120446,2,0,P|225:220|210:228,1,36.3750013875962,10|0,0:1|0:0,0:0:0:0:
228,187,120515,2,0,P|208:195|196:207,1,36.3750013875962
171,204,120583,6,0,P|179:184|190:172,1,36.3750013875962,2|0,1:1|0:0,0:0:0:0:
146,178,120651,2,0,P|158:160|173:152,1,36.3750013875962
130,148,120719,2,0,P|146:134|162:130,1,36.3750013875962,2|0,0:1|0:0,0:0:0:0:
123,114,120787,2,0,P|142:105|159:106,1,36.3750013875962
124,80,120855,2,0,P|144:77|160:81,1,36.3750013875962,10|0,0:1|0:0,0:0:0:0:
142,50,120924,2,0,P|160:58|172:69,1,36.3750013875962
167,28,120992,2,0,P|183:40|191:55,1,36.3750013875962,2|0,0:1|0:0,0:0:0:0:
197,11,121060,2,0,P|209:27|213:43,1,36.3750013875962
238,33,121128,6,0,L|280:26,14,36.3750013875962,2|0|0|0|2|0|0|0|2|0|0|0|10|0|0,1:1|0:0|0:0|0:0|0:1|0:0|0:0|0:0|0:1|0:0|0:0|0:0|0:1|0:0|0:0,0:0:0:0:
291,24,121674,6,0,L|279:76,1,48.5,6|0,3:0|0:0,0:0:0:0:
220,102,121810,2,0,L|232:154,1,48.5,4|0,1:3|0:0,0:0:0:0:
290,188,121946,2,0,L|278:240,1,48.5,4|0,1:3|0:0,0:0:0:0:
219,266,122083,2,0,L|231:318,1,48.5,4|0,1:3|0:0,0:0:0:0:
256,376,122219,5,4,1:0:0:0:
0,72,139674,6,0,L|79:64,1,72.7500027751924,2|0,0:0|0:0,0:0:0:0:
149,23,139946,1,2,0:0:0:0:
209,86,140083,1,0,0:0:0:0:
295,93,140219,2,0,L|444:84,1,145.500005550385,2|2,0:0|0:0,0:0:0:0:
461,17,140628,1,0,0:0:0:0:
461,17,140696,1,0,0:0:0:0:
461,17,140765,6,0,P|443:48|440:84,1,72.7500027751924,2|0,0:0|0:0,0:0:0:0:
511,227,141037,2,0,P|493:196|464:176,1,72.7500027751924
378,155,141310,1,2,0:0:0:0:
308,207,141446,1,0,0:0:0:0:
286,292,141583,1,0,0:0:0:0:
241,216,141719,1,0,0:0:0:0:
159,186,141855,5,2,0:0:0:0:
159,186,142128,5,2,0:0:0:0:
80,223,142265,1,0,0:0:0:0:
13,174,142401,2,0,L|158:185,1,145.500005550385,2|2,0:0|0:0,0:0:0:0:
168,112,142810,1,0,0:0:0:0:
168,112,142878,1,0,0:0:0:0:
168,112,142946,6,0,L|157:189,1,72.7500027751924,2|0,0:0|0:0,0:0:0:0:
80,223,143219,2,0,L|91:299,1,72.7500027751924
43,368,143492,1,2,0:0:0:0:
169,319,143628,1,0,0:0:0:0:
248,354,143765,1,0,0:0:0:0:
318,302,143901,1,0,0:0:0:0:
396,339,144037,5,2,0:0:0:0:
396,339,144310,5,2,0:0:0:0:
447,268,144446,1,0,0:0:0:0:
378,213,144583,2,0,B|266:201|266:201|292:223,1,145.500005550385,2|2,0:0|0:0,0:0:0:0:
292,223,144992,1,0,0:0:0:0:
442,245,145128,2,0,P|447:209|438:174,1,72.7500027751924,2|0,0:0|0:0,0:0:0:0:
358,136,145401,2,0,P|359:99|374:66,1,72.7500027751924,2|0,0:0|0:0,0:0:0:0:
446,17,145674,1,2,0:0:0:0:
375,67,145810,1,0,0:0:0:0:
295,30,145946,1,2,0:0:0:0:
227,86,146083,1,0,0:0:0:0:
65,28,146219,5,2,0:0:0:0:
151,33,146355,1,0,0:0:0:0:
59,171,146492,5,0,0:0:0:0:
20,94,146628,1,0,0:0:0:0:
186,105,146765,5,2,0:0:0:0:
138,176,146901,1,0,0:0:0:0:
59,171,147037,1,0,0:0:0:0:
136,100,147174,1,0,0:0:0:0:
136,100,147242,1,0,0:0:0:0:
136,100,147310,2,0,B|171:77|171:77|135:182,1,145.500005550385,2|2,0:0|0:0,0:0:0:0:
138,176,147719,1,0,0:0:0:0:
96,252,147855,2,0,L|20:264,2,72.7500027751924,2|0|2,0:0|0:0|0:0,0:0:0:0:
182,268,148265,1,0,0:0:0:0:
223,343,148401,6,0,P|224:271|248:203,1,145.500005550385,2|2,0:0|0:0,0:0:0:0:
248,203,148810,1,0,0:0:0:0:
317,150,148946,2,0,P|329:183|330:220,1,72.7500027751924,2|0,0:0|0:0,0:0:0:0:
293,379,149219,1,2,0:0:0:0:
272,294,149355,1,0,0:0:0:0:
356,318,149492,5,2,0:0:0:0:
293,379,149628,1,0,0:0:0:0:
272,294,149765,2,0,L|419:313,2,145.500005550385,2|2|2,0:0|0:0|0:0,0:0:0:0:
272,294,150583,5,2,0:0:0:0:
249,210,150719,1,0,0:0:0:0:
290,133,150855,1,2,0:0:0:0:
267,49,150992,1,0,0:0:0:0:
379,15,151128,5,2,0:0:0:0:
379,15,151401,5,2,0:0:0:0:
465,27,151537,1,0,0:0:0:0:
453,113,151674,1,2,0:0:0:0:
367,101,151810,1,0,0:0:0:0:
379,15,151946,5,2,0:0:0:0:
453,113,152083,1,0,0:0:0:0:
357,189,152219,2,0,P|317:185|279:182,1,72.7500027751924,2|0,0:0|0:0,0:0:0:0:
211,90,152492,2,0,P|184:70|166:35,1,72.7500027751924,2|0,0:0|0:0,0:0:0:0:
93,149,152765,6,0,P|30:183|1:249,1,145.500005550385,2|0,0:0|0:0,0:0:0:0:
1,249,153174,1,0,0:0:0:0:
1,249,153242,1,0,0:0:0:0:
1,249,153310,1,2,0:0:0:0:
87,235,153446,1,0,0:0:0:0:
124,355,153583,1,0,0:0:0:0:
210,341,153719,1,0,0:0:0:0:
183,192,153855,5,2,0:0:0:0:
269,206,153992,1,0,0:0:0:0:
296,355,154128,1,0,0:0:0:0:
210,341,154265,1,0,0:0:0:0:
269,206,154401,5,2,0:0:0:0:
296,355,154537,1,0,0:0:0:0:
210,341,154674,1,0,0:0:0:0:
262,283,154810,1,0,0:0:0:0:
262,283,154946,1,2,0:0:0:0:
210,341,155355,1,2,0:0:0:0:
210,341,155492,6,0,B|259:301|257:222|257:222|251:301|305:341,1,266.75,2|0,0:0|0:0,0:0:0:0:
304,340,157128,6,0,L|123:356,1,174.599994671631,4|0,3:0|0:0,0:0:0:0:
194,258,157674,1,0,0:0:0:0:
247,362,157810,1,0,0:0:0:0:
130,355,157946,6,0,L|304:340,1,174.599994671631,4|0,3:0|0:0,0:0:0:0:
353,290,158492,2,0,B|403:260|403:260|365:370,1,174.599994671631,4|0,3:0|0:0,0:0:0:0:
365,370,159310,6,0,L|390:197,1,174.599994671631,4|0,3:0|0:0,0:0:0:0:
440,148,159855,2,0,P|458:170|461:198,1,58.199998223877
350,258,160128,2,0,P|265:267|210:332,1,174.599994671631,4|0,3:0|0:0,0:0:0:0:
271,366,160674,2,0,L|88:348,1,174.599994671631,4|0,3:0|3:0,0:0:0:0:
28,358,161219,1,0,0:0:0:0:
53,292,161355,1,0,3:0:0:0:
0,189,161492,6,0,L|22:13,1,174.599994671631,4|0,3:0|0:0,0:0:0:0:
90,3,162037,2,0,P|105:28|110:58,1,58.199998223877
76,167,162310,2,0,B|205:151|205:151|157:134,1,174.599994671631,4|0,3:0|0:0,0:0:0:0:
90,2,162855,2,0,P|58:82|76:167,1,174.599994671631,4|0,3:0|0:0,0:0:0:0:
76,167,163674,6,0,L|250:178,1,174.599994671631,4|0,3:0|0:0,0:0:0:0:
315,154,164219,2,0,P|331:129|338:101,1,58.199998223877
307,37,164492,2,0,P|378:87|463:85,1,174.599994671631,4|0,3:0|0:0,0:0:0:0:
471,77,165037,6,0,L|452:138,1,58.199998223877,4|0,3:0|0:0,0:0:0:0:
503,239,165310,2,0,L|463:196,1,58.199998223877,0|0,0:0|3:0,0:0:0:0:
346,185,165583,2,0,L|402:172,1,58.199998223877,0|0,0:0|3:0,0:0:0:0:
440,170,165855,6,0,L|457:353,1,174.599994671631,4|0,3:0|0:0,0:0:0:0:
368,268,166401,1,0,0:0:0:0:
339,381,166537,1,0,0:0:0:0:
254,301,166674,2,0,L|270:127,1,174.599994671631,4|0,3:0|0:0,0:0:0:0:
292,60,167219,2,0,P|350:61|403:36,2,116.399996447754,4|0|0,3:0|0:0|0:0,0:0:0:0:
292,60,168037,6,0,P|206:48|124:76,1,174.599994671631,4|0,3:0|0:0,0:0:0:0:
56,60,168583,2,0,L|65:128,1,58.199998223877
5,217,168855,2,0,P|83:182|168:197,1,174.599994671631,4|0,3:0|0:0,0:0:0:0:
217,246,169401,2,0,L|208:314,1,58.199998223877,4|0,3:0|0:0,0:0:0:0:
120,370,169674,2,0,P|126:341|140:316,1,58.199998223877,0|0,0:0|3:0,0:0:0:0:
277,328,169946,2,0,P|287:355|288:384,1,58.199998223877,0|0,0:0|3:0,0:0:0:0:
115,253,170219,6,0,L|296:232,1,174.599994671631,4|0,3:0|0:0,0:0:0:0:
348,198,170765,2,0,P|367:175|374:147,1,58.199998223877
302,77,171037,2,0,B|256:49|256:49|286:165,1,174.599994671631,4|0,3:0|0:0,0:0:0:0:
348,198,171583,6,0,L|409:205,1,58.199998223877,4|0,3:0|0:0,0:0:0:0:
469,175,171855,2,0,P|473:149|465:115,1,58.199998223877
292,248,172128,2,0,P|288:274|296:308,1,58.199998223877
469,175,172401,6,0,P|441:165|412:163,1,58.199998223877,4|0,3:0|0:0,0:0:0:0:
349,251,172674,2,0,P|320:253|291:247,1,58.199998223877
287,108,172946,6,0,P|258:113|232:126,1,58.199998223877
162,284,173219,2,0,P|135:271|113:252,1,58.199998223877,4|0,3:0|0:0,0:0:0:0:
25,36,173492,5,10,1:2:0:0:
25,36,173560,1,2,1:2:0:0:
25,36,173628,1,10,1:2:0:0:
25,36,173696,1,0,1:0:0:0:
25,36,173765,1,0,1:0:0:0:
287,108,173901,1,0,1:0:0:0:
287,108,173969,1,0,0:0:0:0:
287,108,174037,5,10,1:2:0:0:
53,102,174174,1,2,0:0:0:0:
249,48,174310,2,0,L|256:23,6,14.5499995559693,10|0|0|0|0|0|0,0:0|0:0|0:0|0:0|0:0|0:0|0:0,0:0:0:0:
249,48,174583,5,6,1:2:0:0:
286,40,174651,1,0,0:0:0:0:
322,51,174719,1,0,0:0:0:0:
348,79,174787,1,0,0:0:0:0:
355,116,174855,1,0,0:0:0:0:
246,166,174992,1,0,0:0:0:0:
249,48,175128,1,0,1:0:0:0:
355,116,175265,1,0,0:0:0:0:
246,166,175401,1,2,1:2:0:0:
207,172,175469,1,0,0:0:0:0:
168,179,175537,1,0,0:0:0:0:
129,186,175605,1,0,0:0:0:0:
90,193,175674,5,0,0:0:0:0:
145,81,175810,1,0,0:0:0:0:
90,256,175946,1,2,1:2:0:0:
47,148,176083,1,0,0:0:0:0:
220,30,176219,5,0,0:0:0:0:
206,145,176355,1,0,0:0:0:0:
85,159,176492,1,0,0:0:0:0:
41,51,176628,1,0,0:0:0:0:
137,91,176765,5,2,1:2:0:0:
133,129,176833,1,0,0:0:0:0:
130,167,176901,1,0,0:0:0:0:
127,205,176969,1,0,0:0:0:0:
124,244,177037,1,0,0:0:0:0:
108,361,177174,1,0,0:0:0:0:
201,237,177310,1,0,1:0:0:0:
48,218,177446,1,0,0:0:0:0:
121,275,177583,5,2,1:2:0:0:
158,283,177651,1,0,0:0:0:0:
195,290,177719,1,0,0:0:0:0:
233,298,177787,1,0,0:0:0:0:
270,306,177855,1,0,0:0:0:0:
357,228,177992,1,0,0:0:0:0:
415,379,178128,1,2,1:2:0:0:
502,301,178265,1,0,0:0:0:0:
270,306,178401,5,0,0:0:0:0:
357,228,178537,1,0,0:0:0:0:
415,379,178674,1,0,0:0:0:0:
502,301,178810,1,0,0:0:0:0:
389,300,178946,5,2,1:2:0:0:
396,262,179015,1,0,0:0:0:0:
404,225,179083,1,0,0:0:0:0:
412,188,179151,1,0,0:0:0:0:
420,151,179219,1,2,1:2:0:0:
364,48,179355,1,0,0:0:0:0:
353,163,179492,1,2,1:2:0:0:
459,116,179628,1,0,0:0:0:0:
364,48,179765,5,2,1:2:0:0:
337,76,179833,1,0,0:0:0:0:
303,94,179901,1,0,0:0:0:0:
265,101,179969,1,0,0:0:0:0:
226,99,180037,1,2,1:2:0:0:
277,237,180174,5,0,0:0:0:0:
415,186,180310,1,2,1:2:0:0:
364,48,180446,1,0,0:0:0:0:
226,99,180583,1,2,1:2:0:0:
314,137,180719,1,0,0:0:0:0:
408,112,180855,1,2,1:2:0:0:
464,33,180992,1,0,0:0:0:0:
332,8,181128,5,2,1:2:0:0:
327,57,181196,1,0,0:0:0:0:
332,105,181265,1,0,0:0:0:0:
344,152,181333,1,0,0:0:0:0:
366,195,181401,1,2,1:2:0:0:
501,177,181537,1,0,0:0:0:0:
366,195,181674,1,2,1:2:0:0:
449,302,181810,1,0,0:0:0:0:
366,195,181946,5,2,1:2:0:0:
325,222,182015,1,0,0:0:0:0:
292,258,182083,1,0,0:0:0:0:
275,303,182151,1,0,0:0:0:0:
272,351,182219,6,0,L|120:365,1,145.5,2|0,1:2|0:0,0:0:0:0:
107,367,182492,1,2,1:2:0:0:
11,348,182628,1,0,0:0:0:0:
176,162,182765,1,2,1:2:0:0:
158,257,182901,1,0,0:0:0:0:
140,352,183037,1,2,1:2:0:0:
35,182,183174,1,0,0:0:0:0:
35,182,183242,1,0,0:0:0:0:
35,182,183310,6,0,L|45:134,1,48.5,6|0,1:2|0:0,0:0:0:0:
77,21,183446,1,2,1:2:0:0:
173,210,183583,6,0,L|175:161,1,48.5,2|0,1:2|0:0,0:0:0:0:
185,43,183719,1,2,1:2:0:0:
339,210,183855,6,0,L|336:161,1,48.5,2|0,1:2|0:0,0:0:0:0:
327,43,183992,1,2,1:2:0:0:
477,182,184128,6,0,L|466:134,1,48.5,2|0,1:2|0:0,0:0:0:0:
435,21,184265,1,2,1:2:0:0:
383,167,184401,6,0,P|358:168|336:160,1,48.5,2|0,1:2|0:0,0:0:0:0:
224,124,184537,1,2,1:2:0:0:
379,1,184674,6,0,P|380:25|372:47,1,48.5,2|0,1:2|0:0,0:0:0:0:
336,160,184810,1,0,1:2:0:0:
213,4,184946,6,0,P|237:2|259:10,1,48.5,2|0,1:2|0:0,0:0:0:0:
372,47,185083,1,2,1:2:0:0:
217,170,185219,6,0,P|215:145|223:123,1,48.5,2|0,1:2|0:0,0:0:0:0:
260,11,185355,1,2,1:2:0:0:
342,107,185492,6,0,P|343:131|335:153,1,48.5,2|0,1:2|0:0,0:0:0:0:
299,266,185628,1,2,1:2:0:0:
170,107,185765,6,0,P|168:131|176:153,1,48.5,2|0,1:2|0:0,0:0:0:0:
213,266,185901,1,2,1:2:0:0:
382,124,186037,6,0,P|377:147|364:167,1,48.5,2|0,1:2|0:0,0:0:0:0:
299,266,186174,1,2,1:2:0:0:
130,124,186310,6,0,P|134:147|147:167,1,48.5,2|0,1:2|0:0,0:0:0:0:
213,266,186446,1,2,1:2:0:0:
416,225,186583,6,0,P|391:223|369:231,1,48.5,2|0,1:2|0:0,0:0:0:0:
256,267,186719,1,2,1:2:0:0:
96,309,186855,6,0,P|120:310|142:302,1,48.5,2|0,1:2|0:0,0:0:0:0:
256,267,186992,1,2,1:2:0:0:
373,150,187128,6,0,P|362:171|344:187,1,48.5,2|0,1:2|0:0,0:0:0:0:
256,267,187265,1,2,1:2:0:0:
139,384,187401,6,0,P|149:362|167:346,1,48.5,2|0,1:2|0:0,0:0:0:0:
256,267,187537,1,2,1:2:0:0:
256,267,187605,1,0,0:0:0:0:
256,267,187674,5,6,1:2:0:0:
332,254,187946,1,2,1:2:0:0:
408,242,188219,1,2,1:2:0:0:
408,242,188492,5,2,1:2:0:0:
331,230,188560,1,2,1:2:0:0:
253,218,188628,1,2,1:2:0:0:
176,207,188696,1,2,1:2:0:0:
99,196,188765,5,2,1:2:0:0:
63,265,189037,1,2,1:2:0:0:
27,333,189310,1,2,1:2:0:0:
27,333,189583,5,2,1:2:0:0:
102,316,189651,1,2,1:2:0:0:
177,299,189719,1,2,1:2:0:0:
253,283,189787,1,2,1:2:0:0:
328,267,189855,6,0,L|336:240,4,24.25,2|0|0|0|0,1:2|0:0|0:0|0:0|0:0,0:0:0:0:
387,199,190060,1,0,0:0:0:0:
387,199,190128,2,0,L|395:172,4,24.25,2|0|0|0|0,1:2|0:0|0:0|0:0|0:0,0:0:0:0:
446,131,190333,1,0,0:0:0:0:
446,131,190401,2,0,L|454:104,4,24.25,2|0|2|0|2,1:2|0:0|0:0|0:0|0:0,0:0:0:0:
408,50,190605,1,2,0:0:0:0:
408,50,190674,2,0,L|380:56,4,24.25,2|0|2|0|2,1:2|0:0|0:0|0:0|1:2,0:0:0:0:
320,31,190878,1,2,0:0:0:0:
320,31,190946,6,0,L|292:24,14,24.25,2|0|2|0|2|0|2|0|2|0|2|0|2|0|2,1:2|0:0|0:0|0:0|0:0|0:0|0:0|0:0|0:0|0:0|0:0|0:0|0:0|0:0|0:0,0:0:0:0:
229,25,191492,6,0,L|240:115,1,72.7500027751924,2|0,0:1|0:0,0:0:0:0:
198,192,191628,2,0,P|166:209|130:211,1,72.7500027751924,2|0,0:1|0:0,0:0:0:0:
12,247,191765,6,2,L|0:200,1,48.0149998534698,2|0,0:1|0:0,0:0:0:0:
6,186,192037,6,0,L|72:196,1,58.199998223877,6|0,1:0|0:0,0:0:0:0:
140,183,192174,2,0,L|206:193,1,58.199998223877,2|0,0:0|0:0,0:0:0:0:
270,156,192310,6,0,B|317:165|317:165|297:291,1,174.599994671631,10|0,0:1|0:0,0:0:0:0:
224,325,192583,2,0,B|177:316|177:316|197:190,1,174.599994671631,2|0,1:1|0:0,0:0:0:0:
229,24,192855,2,0,P|159:75|73:73,1,174.599994671631,10|0,0:1|0:0,0:0:0:0:
1,28,193128,6,0,P|41:78|-17:51,1,174.599994671631,2|0,1:1|0:0,0:0:0:0:
45,156,193401,2,0,P|54:219|17:166,1,174.599994671631,10|0,0:1|0:0,0:0:0:0:
31,294,193674,2,0,P|7:353|1:288,1,174.599994671631,2|0,1:1|0:0,0:0:0:0:
44,157,193946,2,0,L|218:176,1,174.599994671631,10|0,0:1|0:0,0:0:0:0:
292,107,194219,6,0,B|375:86|375:86|316:157,1,174.599994671631,2|0,1:1|0:0,0:0:0:0:
209,275,194492,2,0,B|154:340|154:340|160:248,1,174.599994671631,10|0,0:1|0:0,0:0:0:0:
177,87,194765,2,0,B|182:1|182:1|231:79,1,174.599994671631,2|0,1:1|0:0,0:0:0:0:
312,221,195037,2,0,B|357:293|357:293|271:259,1,174.599994671631,10|0,0:1|0:0,0:0:0:0:
125,193,195310,6,0,B|45:161|45:161|134:138,1,174.599994671631,2|0,1:1|0:0,0:0:0:0:
251,0,195583,2,0,P|253:86|228:170,1,174.599994671631,10|0,0:1|0:0,0:0:0:0:
185,350,195855,2,0,P|182:263|207:179,1,174.599994671631,2|0,1:1|0:0,0:0:0:0:
218,176,196128,6,0,L|392:195,1,174.599994671631,10|0,0:1|0:0,0:0:0:0:
472,204,196401,5,2,1:0:0:0:
472,204,196469,1,2,1:2:0:0:
397,36,196605,1,0,1:2:0:0:
397,36,196674,6,0,B|379:9|351:9|351:9|380:130,1,174.599994671631,10|0,1:1|0:0,0:0:0:0:
453,292,196946,2,0,B|471:319|499:319|499:319|470:198,1,174.599994671631,2|0,1:1|0:0,0:0:0:0:
392,195,197219,2,0,B|329:199|329:199|307:224|307:224|229:233,1,174.599994671631,10|0,0:1|0:0,0:0:0:0:
179,183,197492,6,0,B|94:175|94:175|17:220,1,174.599994671631,2|0,1:1|0:0,0:0:0:0:
215,342,197765,2,0,B|223:257|223:257|177:181,1,174.599994671631,10|0,0:1|0:0,0:0:0:0:
54,381,198037,2,0,B|139:389|139:389|215:343,1,174.599994671631,2|0,1:1|0:0,0:0:0:0:
17,220,198310,2,0,B|9:305|9:305|54:381,1,174.599994671631,10|0,0:1|0:0,0:0:0:0:
177,181,198583,6,0,B|223:257|223:257|215:342,1,174.599994671631,2|0,1:1|0:0,0:0:0:0:
297,342,198855,2,0,B|289:257|289:257|335:181,1,174.599994671631,10|0,0:1|0:0,0:0:0:0:
302,15,199128,6,0,B|310:100|310:100|264:176,1,174.599994671631,2|0,1:1|0:0,0:0:0:0:
248,176,199401,2,0,B|202:100|202:100|210:15,1,174.599994671631,10|0,0:1|0:0,0:0:0:0:
343,64,199674,6,0,P|258:83|173:67,1,174.599994671631,2|0,1:1|0:0,0:0:0:0:
155,52,199946,1,10,0:1:0:0:
357,52,200083,1,2,0:1:0:0:
256,226,200219,5,2,1:1:0:0:
256,63,200355,1,2,0:1:0:0:
307,150,200492,1,10,0:1:0:0:
206,150,200628,1,0,0:0:0:0:
167,37,200765,6,0,L|342:53,1,174.599994671631,6|0,1:1|0:0,0:0:0:0:
405,23,201037,2,0,P|361:99|351:185,1,174.599994671631,10|0,0:1|0:0,0:0:0:0:
416,329,201310,2,0,P|393:245|339:176,1,174.599994671631,2|0,1:1|0:0,0:0:0:0:
181,155,201583,2,0,L|356:170,1,174.599994671631,10|0,0:1|0:0,0:0:0:0:
511,28,201855,6,0,P|471:78|529:51,1,174.599994671631,2|0,1:1|0:0,0:0:0:0:
467,156,202128,2,0,P|458:219|495:166,1,174.599994671631,10|0,0:1|0:0,0:0:0:0:
481,294,202401,2,0,P|505:353|511:288,1,174.599994671631,2|0,1:1|0:0,0:0:0:0:
467,156,202674,2,0,P|387:120|301:112,1,174.599994671631,10|0,0:1|0:0,0:0:0:0:
258,55,202946,6,0,B|275:193|275:193|249:168,1,174.599994671631,2|0,1:1|0:0,0:0:0:0:
136,159,203219,2,0,B|274:142|274:142|249:167,1,174.599994671631,10|0,0:1|0:0,0:0:0:0:
240,280,203492,2,0,B|223:142|223:142|248:166,1,174.599994671631,2|0,1:1|0:0,0:0:0:0:
361,175,203765,2,0,B|223:192|223:192|247:166,1,174.599994671631,10|0,0:1|0:0,0:0:0:0:
352,61,204037,6,0,B|377:36|377:36|360:174,1,174.599994671631,2|0,1:1|0:0,0:0:0:0:
256,279,204310,2,0,B|230:303|230:303|247:165,1,174.599994671631,10|0,0:1|0:0,0:0:0:0:
293,111,204583,2,0,P|331:190|338:276,1,174.599994671631,2|0,1:1|0:0,0:0:0:0:
143,257,204855,2,0,P|165:173|216:103,1,174.599994671631,10|0,0:1|0:0,0:0:0:0:
256,91,205128,5,6,1:2:0:0:
344,119,205265,1,0,0:0:0:0:
419,64,205401,1,0,0:0:0:0:
256,91,205537,5,2,1:2:0:0:
344,119,205674,1,8,0:0:0:0:
364,209,205810,1,0,0:0:0:0:
256,91,205946,5,2,1:2:0:0:
469,134,206083,1,0,0:0:0:0:
471,139,206151,1,0,0:0:0:0:
473,144,206219,5,2,1:2:0:0:
441,206,206355,1,0,0:0:0:0:
364,209,206492,1,0,0:0:0:0:
419,64,206628,1,2,1:2:0:0:
424,63,206696,1,0,0:0:0:0:
429,62,206765,5,8,0:0:0:0:
469,134,206901,1,0,0:0:0:0:
441,206,207037,1,2,1:2:0:0:
437,210,207105,1,0,0:0:0:0:
433,214,207174,1,0,0:0:0:0:
429,218,207242,1,0,0:0:0:0:
425,222,207310,6,0,L|311:203,1,109.125004162789,2|0,1:2|0:0,0:0:0:0:
318,202,207583,1,0,0:0:0:0:
248,252,207719,2,0,P|240:303|265:367,1,109.125004162789,2|0,1:2|0:0,0:0:0:0:
257,356,207992,1,0,0:0:0:0:
450,354,208128,6,0,P|474:313|473:265,1,97,2|0,1:2|0:0,0:0:0:0:
461,176,208401,6,0,L|318:202,1,145.500005550385,2|0,1:2|0:0,0:0:0:0:
256,161,208605,1,0,0:0:0:0:
189,189,208674,2,0,P|177:259|203:326,1,145.500005550385,0|2,0:0|1:2,0:0:0:0:
256,377,208878,1,0,0:0:0:0:
308,326,208946,2,0,P|334:259|323:189,1,145.500005550385
256,161,209151,1,0,0:0:0:0:
256,161,209219,6,0,B|302:69|240:11|240:11|182:16|168:65|196:103,1,291,2|0,1:2|0:0,0:0:0:0:
189,189,209492,6,0,P|117:175|41:172,1,145.500005550385,4|0,1:1|0:1,0:1:0:0:
58,0,209765,2,0,P|130:14|206:17,1,145.500005550385,8|2,0:0|0:2,0:0:0:0:
201,17,209969,1,0,0:0:0:0:
201,17,210037,5,0,1:0:0:0:
482,7,210174,2,0,B|430:8|430:8|406:30|406:30|346:33,2,145.500005550385,2|8|2,0:0|1:0|0:0,0:0:0:0:
201,17,210583,5,0,1:0:0:0:
320,98,210719,2,0,P|319:134|309:168,1,72.7500027751924,2|0,0:0|0:0,0:0:0:0:
201,17,210855,5,8,0:0:0:0:
64,64,210992,2,0,P|54:99|56:135,1,72.7500027751924,2|0,0:0|0:0,0:0:0:0:
309,168,211128,5,0,1:0:0:0:
185,80,211265,2,0,P|114:93|55:134,1,145.500005550385,2|8,0:0|0:0,0:0:0:0:
11,343,211537,1,2,0:0:0:0:
80,363,211605,1,0,0:0:0:0:
134,313,211674,6,2,P|135:278|119:246,1,72.75,2|0,1:2|0:0,0:0:0:0:
9,263,211946,6,0,B|184:241|92:353|294:298,1,291,8|0,0:0|0:0,0:0:0:0:
433,353,212219,6,0,P|433:316|441:281,1,72.7500027751924,2|0,1:2|0:0,0:0:0:0:
349,343,212355,2,0,P|357:307|357:271,1,72.7500027751924
500,235,212492,1,8,0:0:0:0:
318,212,212628,1,2,0:0:0:0:
459,159,212765,5,0,1:2:0:0:
285,300,212901,1,2,0:0:0:0:
500,235,213037,6,0,B|401:218|401:218|356:268|391:328|391:328|428:318|440:280,1,291,8|0,0:0|0:0,0:0:0:0:
439,281,213310,5,2,1:2:0:0:
394,192,213446,1,2,0:0:0:0:
394,192,213515,1,0,0:0:0:0:
394,192,213583,1,8,0:0:0:0:
296,163,213719,1,2,0:0:0:0:
181,368,213855,6,0,L|378:347,1,194,6|0,1:2|0:0,0:0:0:0:
373,347,214265,1,2,0:0:0:0:
488,331,214401,2,0,P|505:289|500:237,1,97,8|0,0:0|0:0,0:0:0:0:
471,50,214674,6,0,B|426:4|359:24|359:24|394:195,1,291,2|0,1:2|0:0,0:0:0:0:
475,227,215219,2,0,P|439:196|392:189,1,97,2|0,1:2|0:0,0:0:0:0:
392,189,215424,1,0,0:0:0:0:
392,189,215492,1,8,0:0:0:0:
313,276,215628,1,0,0:0:0:0:
215,213,215765,1,0,0:0:0:0:
210,211,215833,1,0,0:0:0:0:
205,209,215901,1,0,0:0:0:0:
200,208,215969,1,0,0:0:0:0:
195,206,216037,6,0,L|99:220,1,97,2|0,1:2|0:0,0:0:0:0:
239,365,216310,2,0,P|257:321|256:273,1,97
45,95,216583,2,0,P|26:139|28:187,1,97,8|0,0:0|0:0,0:0:0:0:
99,220,216855,2,0,L|195:206,1,97,2|0,1:2|0:0,0:0:0:0:
194,206,217060,1,0,0:0:0:0:
194,206,217128,5,0,0:0:0:0:
239,142,217265,1,0,0:0:0:0:
299,194,217401,5,2,1:2:0:0:
398,100,217537,1,0,0:0:0:0:
398,100,217605,1,0,0:0:0:0:
398,100,217674,2,0,L|426:92,6,24.25,8|0|0|0|0|0|0,0:0|0:0|0:0|0:0|0:0|0:0|0:0,0:0:0:0:
476,54,217946,6,0,P|486:74|489:100,1,48.5,0|0,1:2|0:0,0:0:0:0:
342,139,218083,2,0,P|332:119|329:93,1,48.5,0|0,1:2|0:0,0:0:0:0:
265,7,218219,6,0,P|336:17|409:16,1,145.500005550385,4|0,1:2|0:0,0:0:0:0:
402,192,218492,2,0,P|330:181|257:182,1,145.500005550385,8|2,0:0|0:0,0:0:0:0:
257,182,218696,1,0,0:0:0:0:
257,182,218765,1,2,1:2:0:0:
6,60,218901,6,0,B|58:61|58:61|82:83|82:83|142:86,2,145.500005550385,2|8|2,0:0|0:0|0:0,0:0:0:0:
265,7,219310,5,2,1:2:0:0:
188,131,219446,2,0,L|198:209,1,72.7500027751924,2|0,0:0|0:0,0:0:0:0:
265,7,219583,5,8,0:0:0:0:
305,147,219719,2,0,L|274:219,1,72.7500027751924
265,7,219855,5,2,1:2:0:0:
245,150,219992,2,0,L|227:296,1,145.500005550385,2|8,0:0|0:0,0:0:0:0:
458,343,220265,1,2,0:0:0:0:
423,279,220333,1,0,0:0:0:0:
350,289,220401,6,2,P|348:324|364:357,1,72.75,2|0,1:2|0:0,0:0:0:0:
423,279,220674,6,0,B|280:245|280:245|295:316|367:359,1,291,8|0,0:0|0:0,0:0:0:0:
363,357,220946,5,2,1:2:0:0:
495,308,221083,2,0,P|498:272|490:236,1,72.7500027751924
363,357,221219,5,8,0:0:0:0:
421,229,221355,2,0,P|398:200|367:182,1,72.7500027751924
363,357,221492,5,2,1:2:0:0:
297,211,221628,1,0,0:0:0:0:
78,290,221765,6,0,B|57:346|102:382|102:382|203:355|225:254,1,291,8|0,0:0|0:0,0:0:0:0:
216,121,222037,5,2,1:2:0:0:
148,187,222174,2,2,L|158:223,1,36.3750013875962,2|0,0:0|0:0,0:0:0:0:
137,198,222242,2,0,L|147:234,1,36.3750013875962
126,209,222310,2,0,L|136:245,1,36.3750013875962,8|0,0:0|0:0,0:0:0:0:
78,291,222446,1,0,0:0:0:0:
23,94,222583,6,0,L|215:120,1,194,6|0,1:2|0:0,0:0:0:0:
215,120,222992,1,2,0:0:0:0:
51,173,223128,6,0,L|147:186,1,97,8|0,0:0|0:0,0:0:0:0:
404,128,223401,6,0,B|377:79|412:32|466:23|529:60|498:143|438:196,1,291,2|0,1:2|0:0,0:0:0:0:
436,189,223946,6,0,P|422:235|437:280,1,97,2|0,1:2|0:0,0:0:0:0:
480,344,224151,1,0,0:0:0:0:
480,344,224219,5,8,0:0:0:0:
370,289,224355,1,0,0:0:0:0:
230,339,224492,1,0,1:2:0:0:
225,339,224560,1,0,0:0:0:0:
220,339,224628,1,0,1:2:0:0:
215,339,224696,1,0,0:0:0:0:
213,339,224765,6,0,L|223:290,2,48.5,2|0|0,1:2|0:0|2:0,0:0:0:0:
148,306,225174,6,0,P|136:307|126:314,1,24.25
66,297,225310,6,0,P|61:307|62:319,1,24.25
17,363,225446,6,0,P|23:372|34:377,1,24.25
34,377,225855,5,10,1:2:0:0:
91,325,225924,1,2,1:2:0:0:
165,303,225992,1,10,1:2:0:0:
239,324,226060,1,0,1:2:0:0:
301,371,226128,2,0,L|286:270,1,97,0|0,1:2|0:0,0:0:0:0:
110,240,226265,1,0,1:2:0:0:
110,240,226333,1,0,1:2:0:0:
110,240,226401,6,0,P|112:191|135:149,1,97,10|0,0:0|0:0,0:0:0:0:
323,160,226537,2,0,P|346:202|348:250,1,97,2|0,1:2|0:0,0:0:0:0:
189,69,226674,6,0,B|258:27|258:27|219:233,1,291,10|0,0:0|0:0,0:0:0:0:
210,341,226946,6,0,L|134:330,1,72.75,14|0,1:2|0:0,0:0:0:0:
145,337,227219,1,0,0:0:0:0:
302,259,227355,2,0,L|378:248,1,72.75,2|0,1:2|0:0,0:2:0:0:
367,255,227628,1,0,0:0:0:0:
177,190,227765,6,0,L|60:173,1,116.4,10|0,1:2|0:0,0:0:0:0:
70,182,228037,1,0,0:0:0:0:
335,130,228174,2,0,L|453:113,1,116.4,2|0,1:2|0:0,0:0:0:0:
443,122,228446,1,0,0:0:0:0:
147,111,228583,6,0,B|137:62|137:62|149:16,1,97,10|0,1:2|0:0,0:0:0:0:
362,16,228855,2,0,B|375:62|375:62|365:111,1,97,2|0,1:2|0:0,0:0:0:0:
177,81,229128,6,0,L|59:64,1,116.4,10|0,1:2|0:0,0:0:0:0:
69,73,229401,1,0,0:0:0:0:
335,141,229537,2,0,L|450:124,1,116.4,2|0,1:2|0:0,0:0:0:0:
442,133,229810,1,0,0:0:0:0:
210,210,229946,6,0,L|138:199,1,72.75,10|0,0:0|0:0,0:0:0:0:
145,206,230219,1,0,0:0:0:0:
302,292,230355,2,0,L|373:281,1,72.75,2|0,1:2|0:0,0:0:0:0:
367,288,230628,1,0,0:0:0:0:
256,384,230765,6,2,P|238:346|272:369,1,112.034999658096,10|0,0:0|0:0,0:0:0:0:
154,376,231310,6,0,P|155:341|174:299,1,72.75,10|0,1:2|0:0,0:0:0:0:
173,314,231583,1,0,0:0:0:0:
357,327,231719,2,0,P|356:292|337:250,1,72.75,2|0,1:2|0:0,0:0:0:0:
338,265,231992,1,0,0:0:0:0:
117,242,232128,6,0,P|118:189|147:126,1,116.4,10|0,1:2|0:0,0:0:0:0:
149,145,232401,1,0,0:0:0:0:
382,191,232537,2,0,P|380:138|352:75,1,116.4,2|0,1:2|0:0,0:0:0:0:
350,94,232810,1,0,0:0:0:0:
176,4,232946,6,0,P|175:52|196:95,1,97,10|0,1:2|0:0,0:0:0:0:
315,95,233219,2,0,P|336:52|336:4,1,97,2|0,1:2|0:0,0:0:0:0:
116,76,233492,6,0,P|117:129|146:192,1,116.4,10|0,1:2|0:0,0:0:0:0:
148,173,233765,1,0,0:0:0:0:
381,127,233901,2,0,P|379:180|351:243,1,116.4,2|0,1:2|0:0,0:0:0:0:
349,224,234174,1,0,0:0:0:0:
146,257,234310,6,0,P|147:292|166:334,1,72.75,10|0,1:2|0:0,0:0:0:0:
165,319,234583,1,0,0:0:0:0:
349,306,234719,2,0,P|348:341|329:383,1,72.75,2|0,1:2|0:0,0:0:0:0:
330,368,234992,1,0,0:0:0:0:
214,192,235128,6,0,L|329:205,1,97,10|0,1:2|0:0,0:0:0:0:
304,192,235333,2,0,L|419:205,1,97,2|0,1:2|0:0,0:0:0:0:
394,192,235537,2,0,L|451:198,1,48.5,2|0,1:2|0:0,0:0:0:0:
495,50,235674,5,14,1:2:0:0:
495,50,235742,1,2,1:2:0:0:
495,50,235810,2,0,L|510:3,2,48.5,2|2|2,1:2|1:2|1:2,0:2:0:0:
342,82,236083,1,10,1:2:0:0:
324,116,236151,1,2,1:2:0:0:
315,153,236219,1,2,1:2:0:0:
320,191,236287,1,2,1:2:0:0:
335,226,236355,1,2,1:2:0:0:
414,336,236492,5,10,1:2:0:0:
414,336,236560,1,2,1:2:0:0:
414,336,236628,2,0,L|429:383,2,48.5,2|2|2,1:2|1:2|1:2,0:2:0:0:
228,259,236901,1,10,1:2:0:0:
219,221,236969,1,2,1:2:0:0:
220,183,237037,1,2,1:2:0:0:
234,148,237105,1,2,1:2:0:0:
258,118,237174,1,2,1:2:0:0:
491,127,237310,6,0,L|442:137,3,48.5,10|2|2|0,1:2|1:2|1:2|1:2,0:2:0:0:
400,203,237583,2,0,L|351:213,3,48.5,10|2|2|0,1:2|1:2|1:2|1:2,0:2:0:0:
235,223,237855,5,14,1:2:0:0:
171,198,237924,1,2,1:2:0:0:
128,145,237992,1,0,1:2:0:0:
115,78,238060,1,2,1:2:0:0:
131,11,238128,2,0,L|188:18,1,48.5,2|0,1:2|1:2,0:2:0:0:
253,39,238265,2,0,L|244:94,5,48.5,10|2|2|2|2|0,1:2|1:2|1:2|1:2|1:2|1:2,0:2:0:0:
269,194,238674,5,10,1:2:0:0:
206,165,238742,1,2,1:2:0:0:
137,173,238810,1,2,1:2:0:0:
81,210,238878,1,2,1:2:0:0:
44,269,238946,2,0,L|52:319,1,48.5,2|0,1:2|1:2,0:2:0:0:
132,349,239083,2,0,L|124:301,5,48.5,10|2|2|2|2|0,1:2|1:2|1:2|1:2|1:2|1:2,0:2:0:0:
136,172,239492,6,2,P|175:188|223:189,1,84.875,10|0,0:0|0:0,0:0:0:0:
289,123,240037,5,14,1:2:0:0:
302,109,240105,1,2,1:2:0:0:
313,93,240174,1,2,1:2:0:0:
321,76,240242,1,2,1:2:0:0:
327,57,240310,1,2,1:2:0:0:
330,38,240378,1,2,1:2:0:0:
327,18,240446,5,14,1:2:0:0:
302,32,240515,1,2,1:2:0:0:
282,52,240583,1,2,1:2:0:0:
269,79,240651,1,2,1:2:0:0:
265,107,240719,1,2,1:2:0:0:
270,136,240787,1,2,1:2:0:0:
285,161,240855,5,14,1:2:0:0:
294,198,240924,1,2,1:2:0:0:
297,237,240992,1,2,1:2:0:0:
292,275,241060,1,2,1:2:0:0:
281,312,241128,1,2,1:2:0:0:
262,346,241196,1,2,1:2:0:0:
235,375,241265,5,14,1:2:0:0:
219,329,241333,1,2,1:2:0:0:
193,288,241401,1,2,1:2:0:0:
157,256,241469,1,2,1:2:0:0:
113,234,241537,1,2,1:2:0:0:
66,224,241605,1,2,1:2:0:0:
18,227,241674,5,14,1:2:0:0:
56,184,241742,1,2,1:2:0:0:
70,128,241810,1,2,1:2:0:0:
58,72,241878,1,2,1:2:0:0:
22,27,241946,5,14,1:2:0:0:
88,67,242015,1,2,1:2:0:0:
163,86,242083,1,2,1:2:0:0:
240,83,242151,1,2,1:2:0:0:
314,54,242219,6,0,B|340:8|305:-38|230:-48|188:-10|167:92|288:184,1,363.75
328,248,243310,5,2,1:2:0:0:
328,248,243401,2,0,P|350:225|360:195,1,64.6666666666667
429,279,243583,5,2,1:2:0:0:
429,279,243674,2,0,P|437:248|431:216,1,64.6666666666667
440,134,243855,5,2,0:2:0:0:
458,67,243946,1,2,1:2:0:0:
501,116,244037,1,2,1:2:0:0:
463,109,244128,6,0,B|391:107|391:107|369:68|334:62|334:62|211:54|211:54|250:89|244:137,1,363.75,10|0,0:0|0:0,0:0:0:0:
256,208,244401,6,2,B|208:370|208:370|196:274,1,261.899992007447,2|0,0:1|0:0,0:0:0:0:
342,211,244674,6,2,B|380:238|380:238|256:208,1,174.599994671631,2|0,0:1|0:0,0:0:0:0:
153,159,244946,6,2,B|123:136|123:136|202:155,1,116.4,2|0,0:1|0:0,0:0:0:0:
420,306,245219,6,0,P|429:332|444:357,1,58.199998223877,6|0,1:1|0:3,0:3:0:0:
492,280,245355,2,0,P|502:307|507:335,1,58.199998223877,2|0,1:1|0:0,0:0:0:0:
239,204,245492,6,0,P|244:232|254:259,1,58.199998223877,2|0,1:1|0:0,0:0:0:0:
342,194,245628,2,0,P|342:223|337:251,1,58.199998223877,2|2,0:1|1:2,0:3:0:0:
50,278,245765,6,0,P|49:307|54:335,1,58.199998223877,2|0,1:1|0:2,0:3:0:0:
153,288,245901,2,0,P|147:316|137:343,1,58.199998223877,2|0,1:1|0:0,0:0:0:0:
64,155,246037,6,0,P|63:184|68:212,1,58.199998223877,2|2,1:1|1:2,0:3:0:0:
167,165,246174,2,0,P|161:193|151:220,1,58.199998223877,2|0,0:1|0:0,0:0:0:0:
35,281,246310,6,0,P|42:309|54:335,1,58.199998223877,2|0,1:1|0:3,0:3:0:0:
166,293,246446,2,0,P|154:320|137:343,1,58.199998223877,2|0,0:1|0:0,0:0:0:0:
171,222,246583,6,0,P|171:192|166:164,1,58.199998223877,2|0,1:1|0:3,0:0:0:0:
48,210,246719,2,0,P|53:181|63:154,1,58.199998223877,2|2,0:1|1:2,0:0:0:0:
177,99,246855,6,2,P|177:69|172:41,1,58.199998223877,2|0,1:1|0:3,0:1:0:0:
74,89,246992,2,0,P|79:60|89:33,1,58.199998223877,2|0,0:1|0:0,0:0:0:0:
342,194,247128,6,0,P|337:165|327:138,1,58.199998223877,2|2,1:1|1:2,0:3:0:0:
239,202,247265,2,0,P|238:172|244:144,1,58.199998223877,2|0,0:1|0:3,0:3:0:0:
475,82,247401,6,0,P|473:53|465:25,1,58.199998223877,2|0,1:1|0:3,0:3:0:0:
371,81,247537,2,0,P|373:52|381:24,1,58.199998223877,2|0,1:1|0:0,0:0:0:0:
506,154,247674,6,0,L|467:165,1,29.0999991119385,2|0,1:1|3:0,0:0:0:0:
512,185,247742,2,0,L|471:185,1,29.0999991119385,2|0,0:1|3:0,3:0:0:0:
511,219,247810,2,0,L|472:209,1,29.0999991119385,2|0,0:1|3:0,0:0:0:0:
501,251,247878,2,0,L|465:231,1,29.0999991119385,2|0,1:0|3:0,3:0:0:0:
483,280,247946,2,0,L|454:252,1,29.0999991119385,2|0,1:0|3:0,3:0:0:0:
333,117,248083,1,2,1:1:0:0:
333,117,248151,1,0,0:0:0:0:
333,116,248219,6,0,P|361:117|388:129,1,58.199998223877,2|2,1:1|0:0,0:0:0:0:
363,250,248355,2,0,P|334:248|307:236,1,58.199998223877,2|0,1:1|0:0,0:0:0:0:
208,75,248492,6,0,P|226:53|253:43,1,58.2,2|0,1:1|0:0,0:0:0:0:
271,48,248765,6,2,B|315:106|274:193|274:193|219:189|184:137,1,261.899992007447,2|0,1:1|0:0,0:0:0:0:
61,64,249037,6,0,B|81:15|146:15|146:15|162:43|144:83,1,174.599994671631,2|0,1:1|0:0,0:0:0:0:
136,203,249310,6,0,B|96:207|79:176|79:176|87:150|110:140,1,116.4,2|0,1:1|0:0,0:0:0:0:
102,130,249583,6,0,L|217:141,1,116.399996447754,2|0,1:1|0:0,0:0:0:0:
338,51,249855,2,0,B|385:32|385:32|341:147,1,174.599994671631,2|0,1:1|1:2,0:0:0:0:
367,212,250128,2,0,L|310:220,1,58.199998223877,2|0,1:1|2:0,0:0:0:0:
217,141,250265,2,0,L|274:133,1,58.199998223877,2|0,0:1|2:0,0:0:0:0:
462,137,250401,6,0,B|482:220|482:220|462:307,1,174.599994671631,2|0,1:1|0:0,0:0:0:0:
367,212,250674,2,0,L|309:219,1,58.199998223877,2|0,1:1|2:0,0:0:0:0:
310,311,250810,2,2,L|252:318,1,58.199998223877,2|0,1:1|2:0,0:0:0:0:
217,141,250946,6,0,B|87:152|87:152|124:174,1,174.599994671631,2|0,1:1|1:2,0:0:0:0:
190,261,251219,2,0,P|200:239|198:204,1,58.199998223877,2|0,1:1|2:0,0:0:0:0:
133,119,251355,2,2,P|123:141|125:176,1,58.199998223877,2|0,1:1|2:0,0:0:0:0:
294,217,251492,6,0,B|310:129|310:129|282:42,1,174.599994671631,0|0,1:0|0:0,0:0:0:0:
218,21,251765,2,0,L|157:28,1,58.199998223877,2|0,1:1|2:0,0:0:0:0:
44,41,251901,2,2,L|51:102,1,58.199998223877,2|0,1:1|2:0,0:0:0:0:
0,218,252037,6,0,P|82:240|122:315,1,174.599994671631,2|0,1:1|1:2,0:0:0:0:
115,329,252310,2,0,L|58:321,1,58.199998223877,2|0,1:1|2:0,0:0:0:0:
0,204,252446,5,2,1:1:0:0:
0,204,252515,1,0,0:0:0:0:
0,204,252583,2,0,L|57:212,1,58.199998223877,2|0,1:1|1:2,0:0:0:0:
174,129,252719,2,2,P|200:141|221:161,1,58.199998223877,2|0,1:1|0:0,0:0:0:0:
266,289,252855,2,2,L|323:281,1,58.199998223877,2|0,1:1|0:0,0:0:0:0:
449,212,252992,1,2,1:1:0:0:
449,212,253060,1,0,0:0:0:0:
449,212,253128,6,0,B|448:167|489:144|489:144|470:169|477:203,1,145.500005550385,2|0,1:0|0:0,0:0:0:0:
497,325,253401,6,2,B|449:341|435:382|435:382|473:296|449:212,1,261.899992007447,6|0,1:1|0:0,0:0:0:0:
447,89,253674,2,0,B|428:64|428:64|400:96|411:147,1,116.4,2|0,1:1|0:0,0:0:0:0:
411,145,253946,6,0,P|414:174|426:200,1,58.199998223877,10|0,1:1|2:0,0:0:0:0:
476,127,254083,2,0,P|487:154|490:183,1,58.199998223877,2|0,1:1|2:0,0:0:0:0:
255,31,254219,6,0,P|252:59|255:88,1,58.199998223877,2|0,0:1|2:0,0:0:0:0:
357,47,254355,2,0,P|349:75|337:100,1,58.199998223877,2|0,0:1|1:2,0:0:0:0:
60,134,254492,6,0,P|57:162|60:191,1,58.199998223877,10|0,1:1|2:0,0:0:0:0:
162,150,254628,2,0,P|154:178|142:203,1,58.199998223877,2|0,1:1|2:0,0:0:0:0:
82,10,254765,6,0,P|79:38|82:67,1,58.199998223877,2|0,0:1|1:0,0:0:0:0:
184,26,254901,2,0,P|176:54|164:79,1,58.199998223877,2|0,1:1|2:0,0:0:0:0:
45,136,255037,6,0,P|50:164|60:191,1,58.199998223877,10|0,1:1|2:0,0:0:0:0:
175,157,255174,2,0,P|160:182|142:204,1,58.199998223877,2|0,1:1|2:3,0:1:0:0:
71,75,255310,6,0,P|77:47|89:21,1,58.199998223877,2|0,1:1|2:0,0:0:0:0:
170,90,255446,2,0,P|172:61|168:32,1,58.199998223877,2|0,0:1|1:0,0:0:0:0:
50,195,255583,6,0,P|56:167|68:141,1,58.199998223877,10|0,1:1|2:0,0:0:0:0:
149,210,255719,2,0,P|151:181|147:152,1,58.199998223877,2|0,1:1|2:0,0:0:0:0:
230,338,255855,6,0,P|231:309|238:281,1,58.199998223877,2|0,0:1|1:0,0:0:0:0:
328,334,255992,2,0,P|324:305|315:277,1,58.199998223877,2|0,1:1|2:0,0:0:0:0:
226,208,256128,6,0,P|227:179|234:151,1,58.199998223877,10|0,1:1|2:0,0:0:0:0:
322,202,256265,2,0,P|318:173|309:145,1,58.199998223877,2|0,1:1|2:0,0:0:0:0:
219,340,256401,6,0,L|201:376,1,29.0999991119385,2|0,1:1|0:0,0:0:0:0:
249,349,256469,2,0,L|241:388,1,29.0999991119385,2|0,0:1|0:0,0:0:0:0:
281,351,256537,2,0,L|283:391,1,29.0999991119385,2|0,0:1|0:0,0:0:0:0:
313,344,256605,2,0,L|326:382,1,29.0999991119385,2|0,1:0|0:0,0:0:0:0:
341,329,256674,2,0,L|363:362,1,29.0999991119385,8|0,1:0|0:0,0:0:0:0:
427,211,256810,1,2,1:1:0:0:
427,211,256878,1,0,0:0:0:0:
427,211,256946,2,0,P|414:180|418:146,1,58.199998223877,2|0,0:1|1:0,0:0:0:0:
446,37,257083,2,0,P|458:67|454:101,1,58.199998223877,2|0,1:1|2:0,0:0:0:0:
512,125,257219,6,0,B|357:112|357:112|312:155,1,218.250008325577,10|0,1:1|1:0,0:0:0:0:
382,186,257492,6,2,B|506:196|506:196|472:263|472:263|405:258,1,261.899992007447,6|0,1:1|0:0,0:0:0:0:
407,247,257765,6,2,B|345:242|345:242|382:187,1,116.4,2|0,0:1|0:0,0:0:0:0:
492,77,258037,5,2,1:1:0:0:
492,77,258105,1,0,0:0:0:0:
492,77,258174,2,0,P|492:113|476:145,1,72.75,2|0,0:1|0:0,0:0:0:0:
403,153,258446,6,0,P|377:127|364:93,1,72.75,10|0,0:1|0:0,0:0:0:0:
418,25,258583,5,2,0:1:0:0:
402,152,258719,6,0,P|376:128|341:119,1,72.75,2|0,0:1|0:0,0:0:0:0:
275,153,258992,6,0,P|266:188|276:222,1,72.75,10|0,0:1|0:0,0:0:0:0:
381,364,259128,5,2,1:1:0:0:
398,226,259265,2,0,P|394:206|397:188,1,36.3750013875962,2|0,0:1|0:0,0:0:0:0:
398,226,259333,2,0,P|418:232|432:244,1,36.3750013875962,0|0,0:0|2:0,2:0:0:0:
398,226,259401,6,0,P|373:252|339:263,1,72.75,10|0,0:1|0:0,0:0:0:0:
277,353,259537,2,0,P|253:326|243:291,1,72.75
134,267,259674,6,2,B|21:223|21:223|1:265|23:307|23:307|72:330,1,261.899992007447,2|0,1:1|0:0,0:0:0:0:
144,380,259946,6,2,P|150:322|134:267,1,116.4,2|0,0:1|0:0,0:0:0:0:
134,267,260219,1,2,1:1:0:0:
91,179,260355,6,0,P|57:186|9:190,1,72.75,2|0,0:1|0:0,0:0:0:0:
10,342,260628,2,0,L|-5:329,1,12.125,10|0,0:1|0:0,0:0:0:0:
10,342,260696,2,0,L|6:361,1,12.125
10,342,260765,6,0,P|45:333|92:328,1,72.7500027751924,2|0,1:1|0:0,0:0:0:0:
223,351,260901,6,0,P|220:316|212:268,1,72.75,2|0,0:1|0:0,0:0:0:0:
19,189,261174,1,10,0:1:0:0:
19,189,261242,1,0,0:0:0:0:
19,189,261310,6,2,L|24:140,14,48.5,2|0|0|0|0|0|0|0|0|0|0|0|0|0|0,1:0|0:0|0:0|0:0|0:0|0:0|0:0|0:0|0:0|0:0|0:0|0:0|0:0|0:0|0:0,0:0:0:0:
36,25,261855,5,6,1:2:0:0:
127,42,261946,1,0,1:2:0:0:
169,125,262037,1,0,1:2:0:0:
247,176,262128,5,2,1:2:0:0:
290,191,262219,1,0,1:2:0:0:
328,165,262310,1,0,1:2:0:0:
398,64,262401,6,2,B|468:24|468:24|495:109|430:194,1,261.899992007447,10|0,0:1|0:0,0:0:0:0:
371,337,262674,5,2,1:2:0:0:
364,339,262742,1,0,0:0:0:0:
355,340,262810,2,0,P|319:339|284:331,1,72.7500027751924
296,186,262946,1,2,1:2:0:0:
290,191,263015,1,0,0:0:0:0:
285,197,263083,2,0,P|267:228|256:263,1,72.7500027751924
157,160,263219,1,8,0:0:0:0:
154,167,263287,1,0,0:0:0:0:
152,175,263355,2,0,P|151:210|159:246,1,72.7500027751924
23,206,263492,5,2,1:1:0:0:
24,214,263560,1,0,0:0:0:0:
26,222,263628,2,0,P|43:253|68:280,1,72.7500027751924
214,340,263765,1,8,0:0:0:0:
220,335,263833,1,0,0:0:0:0:
226,329,263901,2,0,P|243:298|255:262,1,72.7500027751924
235,108,264037,5,2,1:1:0:0:
227,104,264105,1,0,0:0:0:0:
219,103,264174,2,0,P|183:102|147:110,1,72.7500027751924
20,11,264310,1,8,0:0:0:0:
20,19,264378,1,0,0:0:0:0:
23,27,264446,2,0,P|40:58|65:85,1,72.7500027751924
44,246,264583,5,2,1:1:0:0:
51,241,264651,1,0,0:0:0:0:
56,234,264719,2,0,P|73:203|85:168,1,72.7500027751924
238,196,264855,1,8,0:0:0:0:
241,188,264924,1,0,0:0:0:0:
242,179,264992,2,0,P|242:143|234:107,1,72.7500027751924
94,19,265128,6,0,P|76:50|64:85,3,72.7500027751924,2|0|0|0,1:1|0:0|0:0|0:0,0:0:0:0:
211,88,265401,2,0,P|211:124|218:160,3,72.7500027751924,8|0|0|0,0:0|0:0|0:0|0:0,0:0:0:0:
346,89,265674,2,0,P|364:120|388:147,3,72.7500027751924,2|0|0|0,1:1|0:0|0:0|0:0,0:0:0:0:
442,8,265946,2,0,P|473:26|508:37,3,72.7500027751924,8|0|0|0,0:0|0:0|0:0|0:0,0:0:0:0:
369,19,266219,5,2,1:1:0:0:
285,60,266310,1,0,1:1:0:0:
291,152,266401,1,0,1:1:0:0:
355,219,266492,5,8,1:1:0:0:
400,226,266583,1,0,1:1:0:0:
436,197,266674,1,0,1:1:0:0:
494,162,266765,6,2,B|401:170|401:170|354:218|354:218|252:228,1,261.899992007447,2|0,1:1|0:0,0:0:0:0:
171,205,267037,5,8,0:0:0:0:
171,205,267105,1,0,0:0:0:0:
171,205,267174,2,0,P|170:234|178:262,1,58.199998223877
251,364,267310,1,2,1:1:0:0:
210,342,267378,1,0,0:0:0:0:
164,334,267446,1,0,0:0:0:0:
118,342,267515,1,0,0:0:0:0:
79,368,267583,5,8,0:0:0:0:
171,205,267719,1,0,0:0:0:0:
251,364,267855,1,2,1:1:0:0:
205,374,267924,1,0,0:0:0:0:
159,370,267992,1,0,0:0:0:0:
116,350,268060,1,0,0:0:0:0:
85,315,268128,5,8,0:0:0:0:
84,309,268196,1,0,0:0:0:0:
82,302,268265,2,2,P|85:274|96:247,1,58.199998223877
244,35,268401,6,2,L|226:228,1,194,6|0,1:1|2:0,0:0:0:0:
114,193,268605,6,0,L|127:48,1,145.500005550385,2|0,0:1|0:0,0:0:0:0:
355,90,268810,6,0,L|346:186,1,97,6|0,0:1|2:1,0:0:0:0:
226,228,269015,6,0,L|232:155,1,72.75,10|0,1:1|0:0,0:0:0:0:
237,35,269219,6,2,B|232:52|240:71|240:71|248:55|251:37,1,72.75
363,379,269492,6,0,L|345:186,1,194,6|0,0:1|2:0,0:0:0:0:
465,204,269696,6,0,L|479:349,1,145.500005550385,2|0,0:1|0:0,0:0:0:0:
246,342,269901,6,0,L|237:246,1,97,6|0,0:1|2:1,0:0:0:0:
344,185,270105,6,0,L|350:258,1,72.75,10|0,0:1|0:0,0:0:0:0:
435,384,270310,1,2,0:1:0:0:
443,371,270378,1,0,0:0:0:0:
454,362,270446,1,2,0:1:0:0:
466,354,270515,1,0,0:0:0:0:
478,348,270583,6,0,L|319:373,1,145.500005550385,6|0,1:1|0:0,0:0:0:0:
334,370,270992,1,0,1:0:0:0:
219,339,271128,2,0,P|187:325|151:327,1,72.7500027751924,0|0,1:0|0:0,0:0:0:0:
40,363,271401,6,0,P|57:247|1:151,1,218.250008325577,0|0,1:0|1:0,0:0:0:0:
11,160,271946,6,0,P|44:174|81:175,1,72.7500027751924,0|0,1:0|0:0,0:0:0:0:
47,42,272219,2,0,P|18:63|0:94,1,72.7500027751924,0|0,1:0|0:0,0:0:0:0:
132,132,272492,2,0,P|127:96|109:64,1,72.7500027751924
47,42,272765,6,0,L|194:33,1,145.500005550385,0|0,1:0|0:0,0:0:0:0:
192,33,273174,1,0,1:0:0:0:
298,80,273310,2,0,P|298:116|285:149,1,72.7500027751924,0|0,1:0|0:0,0:0:0:0:
173,184,273583,6,0,B|192:28|192:28|217:7|250:15,1,218.250008325577,0|0,1:0|1:0,0:0:0:0:
250,15,274128,6,0,P|283:27|307:55,1,72.7500027751924,0|0,1:0|0:0,0:0:0:0:
278,192,274401,2,0,P|271:157|284:121,1,72.7500027751924,0|0,1:0|0:0,0:0:0:0:
418,80,274674,2,0,P|391:102|354:109,1,72.7500027751924
0,0,274946,5,2,1:2:0:0:
9,0,275015,1,2,1:2:0:0:
19,2,275083,1,2,1:2:0:0:
28,5,275151,1,2,1:2:0:0:
37,9,275219,1,2,1:2:0:0:
45,14,275287,1,2,1:2:0:0:
53,19,275355,1,2,1:2:0:0:
61,26,275424,1,2,1:2:0:0:
67,33,275492,1,2,1:2:0:0:
73,40,275560,1,2,1:2:0:0:
78,49,275628,1,2,1:2:0:0:
82,58,275696,1,2,1:2:0:0:
85,67,275765,1,2,1:2:0:0:
88,76,275833,1,2,1:2:0:0:
89,86,275901,1,2,1:2:0:0:
89,95,275969,1,2,1:2:0:0:
89,103,276037,5,2,1:2:0:0:
129,79,276105,1,2,1:2:0:0:
174,69,276174,1,2,1:2:0:0:
221,74,276242,1,2,1:2:0:0:
263,94,276310,1,2,1:2:0:0:
297,125,276378,1,2,1:2:0:0:
320,166,276446,1,2,1:2:0:0:
328,212,276515,1,2,1:2:0:0:
318,254,276583,5,2,1:2:0:0:
282,203,276651,1,2,1:2:0:0:
273,142,276719,1,2,1:2:0:0:
292,83,276787,1,2,1:2:0:0:
334,38,276855,1,2,1:2:0:0:
392,16,276924,1,2,1:2:0:0:
454,22,276992,1,2,1:2:0:0:
506,55,277060,1,2,1:2:0:0:
508,122,277128,6,0,L|465:112,12,36.3750013875962,2|0|0|0|0|0|0|0|0|0|0|0|2,1:0|1:0|1:0|1:0|1:0|1:0|1:0|1:0|1:0|1:0|1:0|1:0|1:0,0:0:0:0:
308,150,277605,1,2,1:2:0:0:
308,150,277674,6,0,L|265:140,14,36.3750013875962,2|0|0|0|0|0|0|0|0|0|0|0|0|0|0,1:0|1:0|1:0|1:0|1:0|1:0|1:0|1:0|1:0|1:0|1:0|1:0|1:0|1:0|1:0,1:0:0:0:
159,220,278219,6,0,P|146:290|178:354,1,145.500005550385,0|0,1:1|0:0,0:0:0:0:
178,354,278628,1,0,0:0:0:0:
267,227,278765,2,0,P|238:249|222:281,1,72.7500027751924,2|0,0:0|0:0,0:0:0:0:
178,354,279037,2,0,P|211:367|247:365,1,72.7500027751924,2|0,0:0|0:0,0:0:0:0:
410,360,279310,6,0,P|419:331|417:302,1,58.199998223877,6|0,1:1|0:0,0:0:0:0:
327,204,279446,2,0,P|324:175|333:147,1,58.199998223877,2|0,1:0|0:0,0:0:0:0:
468,56,279583,2,0,B|505:10|505:10|479:123,1,174.599994671631,10|0,1:1|0:0,0:0:0:0:
497,221,279855,2,0,P|413:197|326:205,1,174.599994671631,2|0,1:1|0:0,0:0:0:0:
219,243,280128,2,0,B|161:272|150:335|150:335|162:308|195:299,1,174.599994671631,10|0,0:1|0:0,0:0:0:0:
327,204,280401,6,0,B|330:139|281:98|281:98|299:122|290:155,1,174.599994671631,2|0,1:1|0:0,0:0:0:0:
300,312,280674,2,0,B|354:347|414:325|414:325|384:328|360:304,1,174.599994671631,10|0,0:1|0:0,0:0:0:0:
220,168,280946,2,0,B|199:147|202:117|202:117|180:177|216:231,1,174.599994671631,2|0,1:1|0:0,0:0:0:0:
300,312,281219,2,0,B|320:332|317:362|317:362|339:302|303:248,1,174.599994671631,10|0,0:1|0:0,0:0:0:0:
217,231,281492,6,0,P|132:243|69:303,1,174.599994671631,2|0,1:1|0:0,0:0:0:0:
2,360,281765,2,0,L|174:327,1,174.599994671631,10|0,0:1|0:0,0:0:0:0:
184,330,282037,1,2,1:1:0:0:
256,214,282174,1,0,0:0:0:0:
338,327,282310,2,0,L|510:360,1,174.599994671631,10|0,0:1|0:0,0:0:0:0:
503,251,282583,6,0,P|445:244|393:268,1,116.399996447754,2|0,1:1|0:0,0:0:0:0:
169,384,282855,1,10,0:1:0:0:
263,371,282992,1,0,0:0:0:0:
349,205,283128,1,2,1:1:0:0:
255,218,283265,1,0,0:0:0:0:
263,371,283401,1,10,0:1:0:0:
169,384,283537,1,0,0:0:0:0:
63,176,283674,5,0,1:0:0:0:
63,176,283742,1,0,1:0:0:0:
0,384,283878,1,0,1:0:0:0:
0,384,283946,2,0,B|57:368|57:368|83:255,1,174.599994671631,14|0,1:1|0:0,0:0:0:0:
63,176,284219,2,0,B|41:130|41:130|9:258,1,174.599994671631,2|0,1:1|0:0,0:0:0:0:
81,255,284492,2,0,P|130:185|104:105,1,174.599994671631,10|0,0:1|0:0,0:0:0:0:
30,28,284765,6,0,P|108:68|194:70,1,174.599994671631,2|0,1:1|0:0,0:0:0:0:
296,128,285037,2,0,B|294:170|256:203|256:203|219:174|217:128,1,174.599994671631,10|0,0:1|0:0,0:0:0:0:
318,70,285310,2,0,P|405:67|482:28,1,174.599994671631,2|0,1:1|0:0,0:0:0:0:
489,17,285583,1,10,0:1:0:0:
462,51,285651,1,0,0:0:0:0:
451,93,285719,1,0,0:0:0:0:
457,136,285787,1,0,0:0:0:0:
481,173,285855,5,2,1:1:0:0:
460,182,285924,1,0,0:0:0:0:
443,198,285992,1,0,0:0:0:0:
433,219,286060,1,0,0:0:0:0:
401,183,286128,5,10,1:1:0:0:
387,201,286196,1,0,0:0:0:0:
381,224,286265,1,0,0:0:0:0:
382,247,286333,1,0,0:0:0:0:
345,218,286401,5,2,1:1:0:0:
341,252,286469,1,0,0:0:0:0:
350,286,286537,1,0,0:0:0:0:
369,316,286605,1,0,0:0:0:0:
314,303,286674,5,10,1:0:0:0:
336,330,286742,1,0,0:0:0:0:
365,347,286810,1,0,0:0:0:0:
400,356,286878,1,0,0:0:0:0:
429,350,286946,5,2,1:1:0:0:
379,298,287015,1,0,0:0:0:0:
318,263,287083,1,0,0:0:0:0:
248,260,287151,1,0,0:0:0:0:
184,288,287219,5,10,1:0:0:0:
153,318,287287,1,0,0:0:0:0:
142,363,287355,1,0,0:0:0:0:
129,318,287424,1,0,0:0:0:0:
95,285,287492,5,2,1:0:0:0:
73,277,287560,1,0,0:0:0:0:
52,289,287628,1,0,0:0:0:0:
30,279,287696,1,0,0:0:0:0:
12,293,287765,5,10,1:0:0:0:
81,285,287833,1,0,0:0:0:0:
150,277,287901,1,0,0:1:0:0:
219,269,287969,1,0,0:0:0:0:
288,259,288037,6,0,B|294:239|288:224|288:224|303:241,1,58.2,2|0,1:2|0:0,0:0:0:0:
319,241,288310,6,0,L|203:250,1,116.399996447754,14|0,0:1|0:0,0:0:0:0:
16,256,288583,1,2,1:1:0:0:
16,256,288719,1,0,0:0:0:0:
204,163,288855,1,10,0:1:0:0:
307,344,288992,5,0,0:0:0:0:
496,256,289128,1,2,1:1:0:0:
496,256,289265,1,0,0:0:0:0:
308,163,289401,1,10,0:1:0:0:
205,344,289537,1,0,0:0:0:0:
204,163,289674,5,2,1:1:0:0:
307,344,289810,1,0,0:0:0:0:
256,96,289946,1,10,0:1:0:0:
150,275,290083,1,0,0:0:0:0:
319,175,290219,6,0,B|320:211|320:211|305:191,1,58.2,2|2,1:2|0:0,0:0:0:0:
298,182,290492,6,0,L|488:172,1,174.599994671631,6|0,0:1|0:0,0:0:0:0:
484,171,290765,1,2,1:1:0:0:
484,171,290901,1,0,0:0:0:0:
315,44,291037,1,10,0:1:0:0:
254,243,291174,1,0,0:0:0:0:
78,97,291310,6,0,B|71:37|110:6|110:6|107:30|128:50,1,145.500005550385,14|0,1:0|0:0,0:0:0:0:
78,97,291515,2,0,B|133:120|140:170|140:170|121:155|93:163,1,145.500005550385,14|0,0:0|0:0,0:0:0:0:
10,114,291719,2,0,P|41:98|78:97,1,72.7500027751924,14|0,0:0|0:0,0:0:0:0:
256,192,291855,5,0,1:0:0:0:
256,192,291924,1,0,1:0:0:0:
256,192,291992,1,0,1:0:0:0:
217,269,292128,1,0,3:3:0:0:
296,306,292265,1,0,3:0:0:0:
257,383,292401,6,0,L|252:281,1,97,4|0,1:1|0:0,0:0:0:0:
252,286,292674,1,0,0:1:0:0:
303,225,292810,6,0,P|350:235|384:267,1,97,2|0,1:2|0:0,0:0:0:0:
416,340,293219,6,0,L|516:353,1,97,0|0,1:2|0:0,0:0:0:0:
512,352,293424,1,0,0:0:0:0:
512,352,293492,1,2,1:2:0:0:
444,198,293628,1,0,0:0:0:0:
347,372,293765,1,0,0:0:0:0:
269,165,293901,6,0,P|319:164|360:187,1,97,2|0,1:2|0:0,0:0:0:0:
416,340,294310,1,2,1:2:0:0:
416,340,294378,1,0,0:0:0:0:
416,340,294446,1,0,0:0:0:0:
416,340,294515,1,0,0:0:0:0:
416,340,294583,6,0,L|432:235,1,97,2|0,1:2|0:0,0:0:0:0:
210,341,294855,1,0,1:2:0:0:
274,94,294992,6,0,P|318:118|341:159,1,97,2|0,0:0|0:0,0:0:0:0:
430,244,295401,6,0,L|325:228,1,97,2|0,1:2|0:0,0:0:0:0:
160,200,295605,1,0,0:0:0:0:
160,200,295674,6,0,B|203:178|203:178|175:271,1,145.500005550385,2|0,1:1|0:0,0:0:0:0:
117,338,295878,1,0,0:0:0:0:
38,298,295946,2,0,P|18:230|41:162,1,145.500005550385,2|0,1:1|1:0,0:0:0:0:
108,106,296151,1,0,0:0:0:0:
194,98,296219,6,0,P|256:132|289:196,1,145.500005550385,2|0,0:1|0:0,0:0:0:0:
250,370,296424,1,0,0:0:0:0:
250,370,296492,6,0,B|212:314|243:243|243:243|264:266|300:264,1,194,2|0,1:1|0:0,0:0:0:0:
493,360,296696,1,0,0:0:0:0:
493,360,296765,6,0,P|465:336|446:305,1,72.75,14|0,1:2|0:0,0:0:0:0:
469,221,297037,1,0,0:0:0:0:
360,307,297174,6,0,P|366:271|383:239,1,72.75,2|0,1:2|0:0,0:0:0:0:
469,221,297446,1,0,0:0:0:0:
339,165,297583,6,0,P|372:152|409:152,1,72.75,10|0,1:2|0:0,0:0:0:0:
334,379,297992,2,0,P|306:355|287:324,1,72.75,2|0,1:2|0:0,0:0:0:0:
292,110,298401,6,0,P|319:133|338:164,1,72.75,10|0,1:2|0:0,0:0:0:0:
287,324,298674,2,0,P|253:336|216:336,1,72.75,2|0,1:2|0:0,0:0:0:0:
103,212,298946,6,0,P|110:176|127:144,1,72.75,10|0,1:2|0:0,0:0:0:0:
255,51,299219,1,0,0:0:0:0:
251,191,299355,6,0,P|217:203|180:203,1,72.75,2|0,1:2|0:0,0:0:0:0:
36,140,299628,1,0,0:0:0:0:
160,75,299765,6,0,P|187:98|206:129,1,72.75,10|0,1:2|0:0,0:0:0:0:
153,275,300174,2,0,P|119:287|82:287,1,72.75,2|0,1:2|0:0,0:0:0:0:
16,32,300583,6,10,B|150:23|150:23|159:66|133:109|133:109|46:116|46:116|13:158|7:207|7:207|107:198,1,509.250019426347,10|0,1:2|0:0,0:0:0:0:
168,254,301128,6,0,P|179:219|176:183,1,72.75,10|0,1:2|0:0,0:0:0:0:
130,132,301401,1,0,0:0:0:0:
48,156,301537,6,0,P|72:182|104:198,1,72.75,2|0,1:2|0:0,0:0:0:0:
176,183,301810,1,0,0:0:0:0:
238,279,301946,6,0,P|249:244|246:208,1,72.75,10|0,1:2|2:0,0:0:0:0:
250,53,302355,2,0,P|214:60|184:80,1,72.75,2|0,1:2|0:0,0:0:0:0:
104,198,302765,6,0,P|92:232|95:268,1,72.75,10|0,1:2|2:0,0:0:0:0:
224,354,303037,2,0,P|260:347|290:328,1,72.75,2|0,1:2|0:0,0:0:0:0:
483,383,303310,6,0,P|459:355|427:339,1,72.75,10|0,1:2|0:0,0:0:0:0:
378,384,303583,1,0,0:0:0:0:
375,133,303719,2,0,P|363:167|365:203,1,72.75,2|0,1:2|0:0,0:0:0:0:
424,253,303992,1,0,0:0:0:0:
504,150,304128,6,0,P|480:122|448:106,1,72.75,10|0,1:2|0:0,0:0:0:0:
424,253,304537,2,0,P|459:246|489:226,1,72.75,2|0,1:2|0:0,0:0:0:0:
435,181,304946,6,0,L|288:198,1,145.500005550385,10|0,1:2|0:0,0:0:0:0:
217,198,305151,6,0,L|234:51,1,145.500005550385,2|0,1:2|0:0,0:0:0:0:
306,48,305355,6,0,L|378:39,1,72.7500027751924,2|0,1:2|0:0,0:0:0:0:
512,10,305492,5,14,1:2:0:0:
512,10,305560,1,2,1:2:0:0:
512,10,305628,1,2,1:2:0:0:
512,10,305696,1,2,1:2:0:0:
512,10,305765,1,2,1:2:0:0:
454,266,305901,5,10,1:2:0:0:
433,304,305969,1,2,1:2:0:0:
399,330,306037,1,2,1:2:0:0:
357,341,306105,1,2,1:2:0:0:
314,335,306174,1,2,1:2:0:0:
41,234,306310,5,10,1:2:0:0:
41,234,306378,1,2,1:2:0:0:
41,234,306446,1,2,1:2:0:0:
41,234,306515,1,2,1:2:0:0:
41,234,306583,1,2,1:2:0:0:
222,37,306719,5,10,1:2:0:0:
259,58,306787,1,2,1:2:0:0:
286,92,306855,1,2,1:2:0:0:
297,134,306924,1,2,1:2:0:0:
291,177,306992,1,2,1:2:0:0:
58,358,307128,5,10,1:2:0:0:
58,358,307196,1,2,1:2:0:0:
58,358,307265,2,0,L|79:276,1,72.7500027751924,2|0,1:2|1:2,0:0:0:0:
35,211,307401,5,10,1:2:0:0:
35,211,307469,1,2,1:2:0:0:
35,211,307537,2,0,L|56:129,1,72.7500027751924,2|0,1:2|1:2,0:0:0:0:
75,24,307674,5,14,1:2:0:0:
132,67,307742,1,2,1:2:0:0:
203,76,307810,1,2,1:2:0:0:
270,47,307878,1,2,1:2:0:0:
330,6,307946,2,0,L|404:17,1,72.7500027751924,2|0,1:2|1:2,0:0:0:0:
483,142,308083,5,10,1:2:0:0:
426,99,308151,1,2,1:2:0:0:
355,90,308219,1,2,1:2:0:0:
288,119,308287,1,2,1:2:0:0:
228,160,308355,2,0,L|154:149,1,72.7500027751924,2|0,1:2|1:2,0:0:0:0:
27,88,308492,5,10,1:2:0:0:
46,18,308560,1,2,1:2:0:0:
119,14,308628,1,2,1:2:0:0:
145,82,308696,1,2,1:2:0:0:
89,128,308765,1,2,1:2:0:0:
51,268,308901,5,10,1:2:0:0:
0,319,308969,1,2,1:2:0:0:
33,384,309037,1,2,1:2:0:0:
105,372,309105,1,2,1:2:0:0:
116,300,309174,1,2,1:2:0:0:
17,193,309310,6,2,L|118:204,1,101.849996891785,10|0,1:2|0:0,0:0:0:0:
132,206,309855,5,14,1:2:0:0:
157,191,309924,1,2,1:2:0:0:
180,174,309992,1,2,1:2:0:0:
200,153,310060,1,2,1:2:0:0:
217,129,310128,1,2,1:2:0:0:
231,104,310196,1,2,1:2:0:0:
241,76,310265,5,14,1:2:0:0:
226,112,310333,1,2,1:2:0:0:
217,150,310401,1,2,1:2:0:0:
213,189,310469,1,2,1:2:0:0:
215,227,310537,1,2,1:2:0:0:
222,265,310605,1,2,1:2:0:0:
234,302,310674,5,14,1:2:0:0:
196,292,310742,1,2,1:2:0:0:
158,294,310810,1,2,1:2:0:0:
123,311,310878,1,2,1:2:0:0:
86,322,310946,1,2,1:2:0:0:
49,314,311015,1,2,1:2:0:0:
13,299,311083,5,14,1:2:0:0:
54,286,311151,1,2,1:2:0:0:
98,285,311219,1,2,1:2:0:0:
140,297,311287,1,2,1:2:0:0:
176,321,311355,1,2,1:2:0:0:
204,354,311424,1,2,1:2:0:0:
222,384,311492,5,14,1:2:0:0:
252,334,311560,1,2,1:2:0:0:
282,284,311628,1,2,1:2:0:0:
312,234,311696,1,2,1:2:0:0:
343,184,311765,5,14,1:2:0:0:
385,261,311833,1,2,1:2:0:0:
427,338,311901,1,2,1:2:0:0:
339,336,311969,1,2,1:2:0:0:
252,334,312037,6,0,B|343:184|343:184|427:336|427:336|266:335,1,509.250019426347
190,368,313128,5,2,1:2:0:0:
190,368,313219,2,0,L|181:320,1,48.5000018501283
235,245,313401,5,2,1:2:0:0:
235,245,313492,2,0,L|223:173,1,64.6666666666667
293,133,313674,5,2,1:2:0:0:
293,133,313765,2,0,L|280:61,1,64.6666666666667
245,17,313946,6,0,L|258:383,1,363.75,10|0,0:0|0:0,0:0:0:0:
257,380,314219,5,6,1:2:0:0:
168,271,314628,1,2,1:2:0:0:
157,291,314765,1,2,1:2:0:0:
157,267,314901,1,0,0:0:0:0:
133,364,315037,6,0,P|79:317|9:302,1,145.5,2|0,1:2|0:0,0:0:0:0:
9,302,315583,1,2,1:2:0:0:
17,40,316401,6,0,P|65:47|113:48,1,97,2|0,1:2|0:0,0:0:0:0:
199,41,316810,1,2,1:2:0:0:
188,61,316946,1,2,1:2:0:0:
188,37,317083,1,0,0:0:0:0:
277,31,317219,6,0,P|261:101|269:173,1,145.5,2|0,1:2|0:0,0:0:0:0:
343,147,317765,2,0,P|350:111|346:75,1,72.75,2|0,1:2|0:0,0:0:0:0:
346,75,318037,5,0,0:0:0:0:
435,160,318174,1,2,0:0:0:0:
463,41,318310,1,2,0:0:0:0:
416,94,318446,1,2,0:0:0:0:
434,160,318583,6,2,L|450:312,1,145.5,2|0,1:2|1:0,0:0:0:0:
469,383,319128,2,0,P|448:369|425:364,1,48.5,2|0,1:2|0:0,0:0:0:0:
359,325,319401,2,0,L|210:341,1,145.5,2|0,1:2|0:0,0:0:0:0:
214,340,319946,1,2,1:2:0:0:
214,340,320765,5,2,1:2:0:0:
214,340,321037,1,0,1:2:0:0:
247,243,321174,1,2,1:2:0:0:
247,267,321310,1,2,1:2:0:0:
236,263,321446,1,0,0:0:0:0:
193,158,321583,6,0,P|261:181|333:179,1,145.5,2|0,1:2|0:0,0:0:0:0:
333,179,322128,1,2,1:2:0:0:
333,179,322401,1,0,1:2:0:0:
365,87,322537,1,2,1:2:0:0:
314,4,322674,1,0,0:2:0:0:
348,94,322810,1,2,1:2:0:0:
512,73,322946,6,0,B|479:15|383:5|383:5|455:142|439:226|439:226|441:263|429:298|429:298|461:319|493:366|493:366|487:312|498:268|498:268|466:257|441:231|441:231|265:181|131:331|131:331|145:378|145:378|190:382|190:382|282:295|366:298|366:298|320:104|259:29|259:29|143:16|48:116|48:116|56:178|56:178|26:234|26:234|45:327|45:327|73:285,1,2158.25,2|0,0:0|0:0,0:0:0:0:
256,192,335219,12,0,340674,0:0:0:0:
