osu file format v14

[General]
AudioFilename: audio.mp3
AudioLeadIn: 0
PreviewTime: 193456
Countdown: 0
SampleSet: Soft
StackLeniency: 0.7
Mode: 0
LetterboxInBreaks: 0
WidescreenStoryboard: 1

[Editor]
Bookmarks: 45637
DistanceSpacing: 0.8
BeatDivisor: 4
GridSize: 16
TimelineZoom: 1.3

[Metadata]
Title:GHOST
TitleUnicode:GHOST
Artist:Camellia
ArtistUnicode:かめりあ
Creator:Fallen Blossom
Version:Soul
Source:
Tags:cyphisonia ep fa featured artist electronic
BeatmapID:1934907
BeatmapSetID:926321

[Difficulty]
HPDrainRate:6
CircleSize:7
OverallDifficulty:6
ApproachRate:9
SliderMultiplier:1.1
SliderTickRate:1

[Events]
//Background and Video events
0,0,"pod gost.jpg",0,0
//Break Periods
//Storyboard Layer 0 (Background)
//Storyboard Layer 1 (Fail)
//Storyboard Layer 2 (Pass)
//Storyboard Layer 3 (Foreground)
//Storyboard Sound Samples

[TimingPoints]
8547,272.727272727273,4,2,0,100,1,0

[HitObjects]
256,192,8547,12,0,10456,0:0:0:0:
85,90,10728,5,0,0:0:0:0:
203,248,11274,5,0,0:0:0:0:
291,235,11547,1,0,0:0:0:0:
348,76,12365,5,0,0:0:0:0:
70,215,12910,5,0,0:0:0:0:
381,180,13456,5,0,0:0:0:0:
356,271,13728,1,0,0:0:0:0:
201,68,14547,5,0,0:0:0:0:
206,348,15092,5,0,0:0:0:0:
338,148,15637,5,0,0:0:0:0:
283,76,15910,1,0,0:0:0:0:
332,316,16728,5,0,0:0:0:0:
61,168,17274,5,0,0:0:0:0:
227,264,17819,5,0,0:0:0:0:
234,354,18092,1,0,0:0:0:0:
291,102,18910,5,0,0:0:0:0:
42,124,19456,6,0,L|51:188,3,55
78,157,20001,6,0,L|87:221,3,55
113,191,20547,6,0,L|122:255,3,55
147,226,21092,6,0,L|156:290,3,55
186,268,21637,6,0,L|237:306,3,55
234,265,22182,6,0,L|285:303,3,55
283,265,22728,6,0,L|334:303,3,55
332,265,23273,6,0,L|383:303,3,55
380,273,23819,6,0,L|424:225,3,55
382,224,24364,6,0,L|426:176,3,55
387,175,24910,6,0,L|431:127,3,55
393,127,25455,6,0,L|437:79,3,55
397,84,26001,6,0,L|369:31,3,55
350,55,26547,2,0,L|286:88,3,55
243,51,27092,6,0,L|226:22,4,27.5
207,93,27501,1,0,0:0:0:0:
147,99,27637,6,0,L|142:158,1,55
84,129,27910,2,0,L|79:188,1,55
50,231,28183,5,0,0:0:0:0:
22,285,28319,1,0,0:0:0:0:
55,335,28456,1,0,0:0:0:0:
118,315,28592,1,0,0:0:0:0:
183,338,28728,2,0,L|241:342,1,55
296,320,29001,5,0,0:0:0:0:
353,334,29137,1,0,0:0:0:0:
407,318,29274,1,0,0:0:0:0:
432,267,29410,1,0,0:0:0:0:
428,209,29547,1,0,0:0:0:0:
397,162,29683,1,0,0:0:0:0:
350,131,29819,2,0,L|283:140,1,55
232,154,30092,5,0,0:0:0:0:
233,163,30160,1,0,0:0:0:0:
234,173,30228,1,0,0:0:0:0:
236,182,30296,1,0,0:0:0:0:
237,192,30364,1,0,0:0:0:0:
206,243,30501,5,0,0:0:0:0:
146,259,30637,1,0,0:0:0:0:
87,233,30774,1,0,0:0:0:0:
60,180,30910,2,0,L|53:117,1,55
91,73,31183,5,0,0:0:0:0:
148,52,31319,1,0,0:0:0:0:
206,44,31456,1,0,0:0:0:0:
255,67,31592,1,0,0:0:0:0:
285,115,31728,1,0,0:0:0:0:
292,177,31865,1,0,0:0:0:0:
256,235,32001,2,0,L|289:254,4,27.5
242,244,32342,1,0,0:0:0:0:
241,244,32410,1,0,0:0:0:0:
240,244,32478,1,0,0:0:0:0:
242,244,32547,1,0,0:0:0:0:
208,303,32683,5,0,0:0:0:0:
145,315,32819,1,0,0:0:0:0:
85,289,32956,1,0,0:0:0:0:
17,260,33092,2,0,L|30:331,1,55
71,360,33365,5,0,0:0:0:0:
128,331,33501,1,0,0:0:0:0:
128,331,33569,1,0,0:0:0:0:
128,331,33637,1,0,0:0:0:0:
152,269,33774,1,0,0:0:0:0:
148,208,33910,1,0,0:0:0:0:
121,153,34047,1,0,0:0:0:0:
79,109,34183,2,0,L|135:84,1,55
180,58,34456,5,0,0:0:0:0:
185,66,34524,1,0,0:0:0:0:
190,74,34592,1,0,0:0:0:0:
195,82,34660,1,0,0:0:0:0:
200,90,34728,1,0,0:0:0:0:
179,138,34865,5,0,0:0:0:0:
166,204,35001,1,0,0:0:0:0:
213,251,35137,1,0,0:0:0:0:
286,268,35274,2,0,L|352:252,1,55
392,215,35547,5,0,0:0:0:0:
409,157,35683,1,0,0:0:0:0:
387,102,35819,1,0,0:0:0:0:
341,69,35956,1,0,0:0:0:0:
276,51,36092,1,0,0:0:0:0:
223,77,36228,1,0,0:0:0:0:
197,130,36365,2,0,L|201:164,3,27.5
188,173,36637,5,0,0:0:0:0:
188,173,36706,1,0,0:0:0:0:
188,173,36774,1,0,0:0:0:0:
188,173,36842,1,0,0:0:0:0:
188,173,36910,1,0,0:0:0:0:
206,226,37047,5,0,0:0:0:0:
266,257,37183,1,0,0:0:0:0:
330,269,37319,1,0,0:0:0:0:
395,249,37456,2,0,L|391:314,1,55
336,346,37728,5,0,0:0:0:0:
274,353,37865,1,0,0:0:0:0:
274,353,37933,1,0,0:0:0:0:
274,353,38001,1,0,0:0:0:0:
217,315,38137,1,0,0:0:0:0:
208,253,38274,1,0,0:0:0:0:
194,188,38410,1,0,0:0:0:0:
174,125,38547,2,0,L|150:64,1,55
100,33,38819,5,0,0:0:0:0:
99,40,38887,1,0,0:0:0:0:
99,48,38955,1,0,0:0:0:0:
98,56,39023,1,0,0:0:0:0:
98,64,39091,1,0,0:0:0:0:
103,116,39228,5,0,0:0:0:0:
150,151,39365,1,0,0:0:0:0:
215,142,39501,1,0,0:0:0:0:
274,120,39637,2,0,L|343:137,1,55
387,160,39910,5,0,0:0:0:0:
424,207,40047,1,0,0:0:0:0:
424,207,40115,1,0,0:0:0:0:
424,207,40183,1,0,0:0:0:0:
427,263,40319,1,0,0:0:0:0:
386,302,40456,1,0,0:0:0:0:
337,320,40592,1,0,0:0:0:0:
275,314,40728,2,0,L|280:352,4,27.5
255,304,41069,5,0,0:0:0:0:
255,304,41137,1,0,0:0:0:0:
255,304,41206,1,0,0:0:0:0:
255,304,41274,1,0,0:0:0:0:
193,287,41410,5,0,0:0:0:0:
132,302,41547,1,0,0:0:0:0:
77,282,41683,1,0,0:0:0:0:
36,238,41819,2,0,L|33:178,1,55
83,144,42092,5,0,0:0:0:0:
140,163,42228,1,0,0:0:0:0:
140,163,42297,1,0,0:0:0:0:
140,163,42365,1,0,0:0:0:0:
188,201,42501,1,0,0:0:0:0:
250,214,42637,1,0,0:0:0:0:
315,204,42774,1,0,0:0:0:0:
361,162,42910,2,0,L|345:100,1,55
297,70,43183,5,0,0:0:0:0:
295,77,43251,1,0,0:0:0:0:
293,85,43319,1,0,0:0:0:0:
291,93,43387,1,0,0:0:0:0:
289,101,43455,1,0,0:0:0:0:
258,161,43592,5,0,0:0:0:0:
210,145,43728,1,0,0:0:0:0:
202,98,43865,1,0,0:0:0:0:
166,66,44001,1,0,0:0:0:0:
121,65,44137,1,0,0:0:0:0:
84,88,44274,1,0,0:0:0:0:
68,128,44410,5,0,0:0:0:0:
68,128,44478,1,0,0:0:0:0:
68,128,44547,1,0,0:0:0:0:
66,170,44683,5,0,0:0:0:0:
76,211,44819,1,0,0:0:0:0:
110,236,44956,1,0,0:0:0:0:
155,238,45092,5,0,0:0:0:0:
156,245,45160,1,0,0:0:0:0:
157,253,45228,1,0,0:0:0:0:
159,261,45296,1,0,0:0:0:0:
160,269,45364,1,0,0:0:0:0:
162,277,45432,1,0,0:0:0:0:
163,285,45501,1,0,0:0:0:0:
165,292,45569,1,0,0:0:0:0:
166,300,45637,1,0,0:0:0:0:
183,342,45774,5,0,0:0:0:0:
238,354,45910,1,0,0:0:0:0:
288,333,46047,1,0,0:0:0:0:
328,291,46183,1,0,0:0:0:0:
377,262,46319,1,0,0:0:0:0:
433,272,46456,1,0,0:0:0:0:
431,260,46524,1,0,0:0:0:0:
430,249,46592,1,0,0:0:0:0:
429,237,46660,1,0,0:0:0:0:
427,226,46728,1,0,0:0:0:0:
391,193,46865,5,0,0:0:0:0:
361,151,47001,1,0,0:0:0:0:
378,101,47137,1,0,0:0:0:0:
420,71,47274,1,0,0:0:0:0:
462,42,47410,1,0,0:0:0:0:
421,13,47547,1,0,0:0:0:0:
365,8,47683,1,0,0:0:0:0:
313,25,47819,1,0,0:0:0:0:
305,26,47887,1,0,0:0:0:0:
297,28,47955,1,0,0:0:0:0:
289,30,48023,1,0,0:0:0:0:
281,32,48091,1,0,0:0:0:0:
238,57,48228,5,0,0:0:0:0:
203,95,48365,1,0,0:0:0:0:
191,150,48501,1,0,0:0:0:0:
196,211,48637,5,0,0:0:0:0:
201,218,48705,1,0,0:0:0:0:
206,226,48773,1,0,0:0:0:0:
212,234,48841,1,0,0:0:0:0:
217,242,48909,1,0,0:0:0:0:
