osu file format v14

[General]
AudioFilename: audio.mp3
AudioLeadIn: 0
PreviewTime: 278522
Countdown: 0
SampleSet: Normal
StackLeniency: 0.7
Mode: 3
LetterboxInBreaks: 0
SpecialStyle: 0
WidescreenStoryboard: 0

[Editor]
DistanceSpacing: 1.2
BeatDivisor: 4
GridSize: 8
TimelineZoom: 2.5

[Metadata]
Title:GHOST
TitleUnicode:GHOST
Artist:Camellia
ArtistUnicode:かめりあ
Creator:BloowXv2
Version:Spectral
Source:
Tags:Cyphisonia E.P. CTCD-014 Tano*c Pumpcore Trap
BeatmapID:1221706
BeatmapSetID:577187

[Difficulty]
HPDrainRate:9
CircleSize:4
OverallDifficulty:8.8
ApproachRate:5
SliderMultiplier:1.4
SliderTickRate:1

[Events]
//Background and Video events
0,0,"GhostBG.png",0,0
//Break Periods
//Storyboard Layer 0 (Background)
//Storyboard Layer 1 (Fail)
//Storyboard Layer 2 (Pass)
//Storyboard Layer 3 (Foreground)
//Storyboard Sound Samples

[TimingPoints]
8795,272.727272727273,4,1,1,10,1,0
8795,-125,4,1,1,10,0,0
15340,-117.647058823529,4,1,1,10,0,0
20522,-111.111111111111,4,1,1,10,0,0
22704,-105.263157894737,4,1,1,10,0,0
24885,-100,4,1,1,10,0,0
30067,-55.5555555555556,4,1,1,15,0,0
30084,-500,4,1,1,15,0,0
30101,-55.5555555555556,4,1,1,15,0,0
30118,-500,4,1,1,15,0,0
30135,-55.5555555555556,4,1,1,15,0,0
30152,-500,4,1,1,15,0,0
30170,-55.5555555555556,4,1,1,15,0,0
30187,-500,4,1,1,15,0,0
30204,-55.5555555555556,4,1,1,15,0,0
30221,-500,4,1,1,15,0,0
30238,-55.5555555555556,4,1,1,15,0,0
30255,-500,4,1,1,15,0,0
30272,-55.5555555555556,4,1,1,15,0,0
30289,-500,4,1,1,15,0,0
30306,-55.5555555555556,4,1,1,15,0,0
30323,-500,4,1,1,15,0,0
30340,-62.5,4,1,1,15,0,0
30374,-250,4,1,1,15,0,0
30408,-62.5,4,1,1,15,0,0
30442,-250,4,1,1,15,0,0
30476,-62.5,4,1,1,15,0,0
30510,-250,4,1,1,15,0,0
30545,-62.5,4,1,1,15,0,0
30579,-250,4,1,1,15,0,0
30613,-100,4,1,1,15,0,0
34431,-55.5555555555556,4,1,1,15,0,0
34448,-500,4,1,1,15,0,0
34465,-55.5555555555556,4,1,1,15,0,0
34482,-500,4,1,1,15,0,0
34499,-55.5555555555556,4,1,1,15,0,0
34516,-500,4,1,1,15,0,0
34533,-55.5555555555556,4,1,1,15,0,0
34550,-500,4,1,1,15,0,0
34567,-55.5555555555556,4,1,1,15,0,0
34584,-500,4,1,1,15,0,0
34601,-55.5555555555556,4,1,1,15,0,0
34618,-500,4,1,1,15,0,0
34635,-55.5555555555556,4,1,1,15,0,0
34652,-500,4,1,1,15,0,0
34670,-55.5555555555556,4,1,1,15,0,0
34687,-500,4,1,1,15,0,0
34704,-62.5,4,1,1,15,0,0
34738,-250,4,1,1,15,0,0
34772,-62.5,4,1,1,15,0,0
34806,-250,4,1,1,15,0,0
34840,-62.5,4,1,1,15,0,0
34874,-250,4,1,1,15,0,0
34908,-62.5,4,1,1,15,0,0
34942,-250,4,1,1,15,0,0
34976,-100,4,1,1,15,0,0
38795,-55.5555555555556,4,1,1,15,0,0
38812,-500,4,1,1,15,0,0
38829,-55.5555555555556,4,1,1,15,0,0
38846,-500,4,1,1,15,0,0
38863,-55.5555555555556,4,1,1,15,0,0
38880,-500,4,1,1,15,0,0
38897,-55.5555555555556,4,1,1,15,0,0
38914,-500,4,1,1,15,0,0
38931,-55.5555555555556,4,1,1,15,0,0
38948,-500,4,1,1,15,0,0
38965,-55.5555555555556,4,1,1,15,0,0
38982,-500,4,1,1,15,0,0
38999,-55.5555555555556,4,1,1,15,0,0
39016,-500,4,1,1,15,0,0
39033,-55.5555555555556,4,1,1,15,0,0
39050,-500,4,1,1,15,0,0
39067,-62.5,4,1,1,15,0,0
39101,-250,4,1,1,15,0,0
39135,-62.5,4,1,1,15,0,0
39170,-250,4,1,1,15,0,0
39204,-62.5,4,1,1,15,0,0
39238,-250,4,1,1,15,0,0
39272,-62.5,4,1,1,15,0,0
39306,-250,4,1,1,15,0,0
39340,-100,4,1,1,15,0,0
43158,-55.5555555555556,4,1,1,15,0,0
43175,-500,4,1,1,15,0,0
43192,-55.5555555555556,4,1,1,15,0,0
43209,-500,4,1,1,15,0,0
43226,-55.5555555555556,4,1,1,15,0,0
43243,-500,4,1,1,15,0,0
43260,-55.5555555555556,4,1,1,15,0,0
43277,-500,4,1,1,15,0,0
43295,-55.5555555555556,4,1,1,15,0,0
43312,-500,4,1,1,15,0,0
43329,-55.5555555555556,4,1,1,15,0,0
43346,-500,4,1,1,15,0,0
43363,-55.5555555555556,4,1,1,15,0,0
43380,-500,4,1,1,15,0,0
43397,-55.5555555555556,4,1,1,15,0,0
43414,-500,4,1,1,15,0,0
43431,-62.5,4,1,1,15,0,0
43465,-250,4,1,1,15,0,0
43499,-62.5,4,1,1,15,0,0
43533,-250,4,1,1,15,0,0
43567,-62.5,4,1,1,15,0,0
43601,-250,4,1,1,15,0,0
43635,-62.5,4,1,1,15,0,0
43670,-250,4,1,1,15,0,0
43704,-100,4,1,1,15,0,0
44522,-55.5555555555556,4,1,1,15,0,0
44539,-500,4,1,1,15,0,0
44556,-55.5555555555556,4,1,1,15,0,0
44573,-500,4,1,1,15,0,0
44590,-55.5555555555556,4,1,1,15,0,0
44607,-500,4,1,1,15,0,0
44624,-55.5555555555556,4,1,1,15,0,0
44641,-500,4,1,1,15,0,0
44658,-62.5,4,1,1,15,0,0
44692,-250,4,1,1,15,0,0
44726,-62.5,4,1,1,15,0,0
44760,-250,4,1,1,15,0,0
44795,-100,4,1,1,15,0,0
45885,-55.5555555555556,4,1,1,15,0,0
45902,-500,4,1,1,15,0,0
45920,-55.5555555555556,4,1,1,15,0,0
45937,-500,4,1,1,15,0,0
45954,-55.5555555555556,4,1,1,15,0,0
45971,-500,4,1,1,15,0,0
45988,-55.5555555555556,4,1,1,15,0,0
46005,-500,4,1,1,15,0,0
46022,-62.5,4,1,1,15,0,0
46056,-250,4,1,1,15,0,0
46090,-62.5,4,1,1,15,0,0
46124,-250,4,1,1,15,0,0
46158,-100,4,1,1,15,0,0
46704,-55.5555555555556,4,1,1,15,0,0
46721,-500,4,1,1,15,0,0
46738,-55.5555555555556,4,1,1,15,0,0
46755,-500,4,1,1,15,0,0
46772,-55.5555555555556,4,1,1,15,0,0
46789,-500,4,1,1,15,0,0
46806,-55.5555555555556,4,1,1,15,0,0
46823,-500,4,1,1,15,0,0
46840,-62.5,4,1,1,15,0,0
46874,-250,4,1,1,15,0,0
46908,-62.5,4,1,1,15,0,0
46942,-250,4,1,1,15,0,0
46976,-100,4,1,1,15,0,0
48067,-55.5555555555556,4,1,1,15,0,0
48084,-500,4,1,1,15,0,0
48101,-55.5555555555556,4,1,1,15,0,0
48118,-500,4,1,1,15,0,0
48135,-55.5555555555556,4,1,1,15,0,0
48152,-500,4,1,1,15,0,0
48170,-55.5555555555556,4,1,1,15,0,0
48187,-500,4,1,1,15,0,0
48204,-62.5,4,1,1,15,0,0
48238,-250,4,1,1,15,0,0
48272,-62.5,4,1,1,15,0,0
48306,-250,4,1,1,15,0,0
48340,-100,4,1,1,15,0,0
48885,-55.5555555555556,4,1,1,15,0,0
48902,-500,4,1,1,15,0,0
48920,-55.5555555555556,4,1,1,15,0,0
48937,-500,4,1,1,15,0,0
48954,-55.5555555555556,4,1,1,15,0,0
48971,-500,4,1,1,15,0,0
48988,-55.5555555555556,4,1,1,15,0,0
49005,-500,4,1,1,15,0,0
49022,-62.5,4,1,1,15,0,0
49056,-250,4,1,1,15,0,0
49090,-62.5,4,1,1,15,0,0
49124,-250,4,1,1,15,0,0
49158,-100,4,1,1,15,0,0
50249,-55.5555555555556,4,1,1,15,0,0
50266,-500,4,1,1,15,0,0
50283,-55.5555555555556,4,1,1,15,0,0
50300,-500,4,1,1,15,0,0
50317,-55.5555555555556,4,1,1,15,0,0
50334,-500,4,1,1,15,0,0
50351,-55.5555555555556,4,1,1,15,0,0
50368,-500,4,1,1,15,0,0
50385,-62.5,4,1,1,15,0,0
50420,-250,4,1,1,15,0,0
50454,-62.5,4,1,1,15,0,0
50488,-250,4,1,1,15,0,0
50522,-100,4,1,1,15,0,0
51067,-55.5555555555556,4,1,1,15,0,0
51084,-500,4,1,1,15,0,0
51101,-55.5555555555556,4,1,1,15,0,0
51118,-500,4,1,1,15,0,0
51135,-55.5555555555556,4,1,1,15,0,0
51152,-500,4,1,1,15,0,0
51170,-55.5555555555556,4,1,1,15,0,0
51187,-500,4,1,1,15,0,0
51204,-62.5,4,1,1,15,0,0
51238,-250,4,1,1,15,0,0
51272,-62.5,4,1,1,15,0,0
51306,-250,4,1,1,15,0,0
51340,-100,4,1,1,15,0,0
60613,-40,4,1,1,15,0,0
60885,-200,4,1,1,15,0,0
61158,-100,4,1,1,15,0,0
62113,-100,4,1,1,15,0,0
62181,-66.6666666666667,4,1,1,15,0,0
62215,-200,4,1,1,15,0,0
62249,-100,4,1,1,15,0,0
62317,-66.6666666666667,4,1,1,15,0,0
62351,-200,4,1,1,15,0,0
62385,-100,4,1,1,15,0,0
62454,-66.6666666666667,4,1,1,15,0,0
62488,-200,4,1,1,15,0,0
62522,-100,4,1,1,15,0,0
62658,-100,4,1,1,15,0,0
62726,-66.6666666666667,4,1,1,15,0,0
62760,-200,4,1,1,15,0,0
62795,-100,4,1,1,15,0,0
62863,-66.6666666666667,4,1,1,15,0,0
62897,-200,4,1,1,15,0,0
62931,-100,4,1,1,15,0,0
62999,-66.6666666666667,4,1,1,15,0,0
63033,-200,4,1,1,15,0,0
63067,-100,4,1,1,15,0,0
63135,-66.6666666666667,4,1,1,15,0,0
63170,-200,4,1,1,15,0,0
63204,-100,4,1,1,15,0,0
63275,-66.6666666666667,4,1,1,15,0,0
63306,-200,4,1,1,15,0,0
63340,-100,4,1,1,15,0,0
63476,-100,4,1,1,15,0,0
63545,-66.6666666666667,4,1,1,15,0,0
63579,-200,4,1,1,15,0,0
63613,-100,4,1,1,15,0,0
63681,-66.6666666666667,4,1,1,15,0,0
63715,-200,4,1,1,15,0,0
63749,-100,4,1,1,15,0,0
63817,-66.6666666666667,4,1,1,15,0,0
63851,-200,4,1,1,15,0,0
63885,-100,4,1,1,15,0,0
63954,-66.6666666666667,4,1,1,15,0,0
63988,-200,4,1,1,15,0,0
64022,-100,4,1,1,15,0,0
64090,-66.6666666666667,4,1,1,15,0,0
64124,-200,4,1,1,15,0,0
64158,-100,4,1,1,15,0,0
64295,-100,4,1,1,15,0,0
64363,-66.6666666666667,4,1,1,15,0,0
64397,-200,4,1,1,15,0,0
64431,-100,4,1,1,15,0,0
64908,-66.6666666666667,4,1,1,15,0,0
64942,-200,4,1,1,15,0,0
64976,-100,4,1,1,15,0,0
65045,-66.6666666666667,4,1,1,15,0,0
65079,-200,4,1,1,15,0,0
65113,-100,4,1,1,15,0,0
65181,-66.6666666666667,4,1,1,15,0,0
65215,-200,4,1,1,15,0,0
65249,-100,4,1,1,15,0,0
66613,-76.9230769230769,4,1,1,15,0,0
66749,-142.857142857143,4,1,1,15,0,0
66783,-100,4,1,1,15,0,0
67158,-76.9230769230769,4,1,1,15,0,0
67295,-142.857142857143,4,1,1,15,0,0
67329,-100,4,1,1,15,0,0
67704,-76.9230769230769,4,1,1,15,0,0
67840,-142.857142857143,4,1,1,15,0,0
67874,-100,4,1,1,15,0,0
68249,-76.9230769230769,4,1,1,15,0,0
68385,-142.857142857143,4,1,1,15,0,0
68420,-100,4,1,1,15,0,0
68795,-76.9230769230769,4,1,1,15,0,0
68931,-142.857142857143,4,1,1,15,0,0
68965,-100,4,1,1,15,0,0
69340,-100,4,1,1,15,0,0
69408,-66.6666666666667,4,1,1,15,0,0
69442,-200,4,1,1,15,0,0
69476,-100,4,1,1,15,0,0
69545,-66.6666666666667,4,1,1,15,0,0
69579,-200,4,1,1,15,0,0
69613,-100,4,1,1,15,0,0
69681,-66.6666666666667,4,1,1,15,0,0
69715,-200,4,1,1,15,0,0
69749,-100,4,1,1,15,0,0
69817,-66.6666666666667,4,1,1,15,0,0
69851,-200,4,1,1,15,0,0
69885,-100,4,1,1,15,0,0
70840,-100,4,1,1,15,0,0
70908,-66.6666666666667,4,1,1,15,0,0
70942,-200,4,1,1,15,0,0
70976,-100,4,1,1,15,0,0
71045,-66.6666666666667,4,1,1,15,0,0
71079,-200,4,1,1,15,0,0
71113,-100,4,1,1,15,0,0
71181,-66.6666666666667,4,1,1,15,0,0
71215,-200,4,1,1,15,0,0
71249,-100,4,1,1,15,0,0
71385,-100,4,1,1,15,0,0
71454,-66.6666666666667,4,1,1,15,0,0
71488,-200,4,1,1,15,0,0
71522,-100,4,1,1,15,0,0
71590,-66.6666666666667,4,1,1,15,0,0
71624,-200,4,1,1,15,0,0
71658,-100,4,1,1,15,0,0
71726,-66.6666666666667,4,1,1,15,0,0
71760,-200,4,1,1,15,0,0
71795,-100,4,1,1,15,0,0
71863,-66.6666666666667,4,1,1,15,0,0
71897,-200,4,1,1,15,0,0
71931,-100,4,1,1,15,0,0
71999,-66.6666666666667,4,1,1,15,0,0
72033,-200,4,1,1,15,0,0
72067,-100,4,1,1,15,0,0
72204,-100,4,1,1,15,0,0
72272,-66.6666666666667,4,1,1,15,0,0
72306,-200,4,1,1,15,0,0
72340,-100,4,1,1,15,0,0
72408,-66.6666666666667,4,1,1,15,0,0
72442,-200,4,1,1,15,0,0
72476,-100,4,1,1,15,0,0
72545,-66.6666666666667,4,1,1,15,0,0
72579,-200,4,1,1,15,0,0
72613,-100,4,1,1,15,0,0
72681,-66.6666666666667,4,1,1,15,0,0
72715,-200,4,1,1,15,0,0
72749,-100,4,1,1,15,0,0
72817,-66.6666666666667,4,1,1,15,0,0
72851,-200,4,1,1,15,0,0
72885,-100,4,1,1,15,0,0
73022,-100,4,1,1,15,0,0
73090,-66.6666666666667,4,1,1,15,0,0
73124,-200,4,1,1,15,0,0
73158,-100,4,1,1,15,0,0
73635,-66.6666666666667,4,1,1,15,0,0
73670,-200,4,1,1,15,0,0
73704,-100,4,1,1,15,0,0
73772,-66.6666666666667,4,1,1,15,0,0
73806,-200,4,1,1,15,0,0
73840,-100,4,1,1,15,0,0
73908,-66.6666666666667,4,1,1,15,0,0
73942,-200,4,1,1,15,0,0
73976,-100,4,1,1,15,0,0
74249,-166.666666666667,4,1,1,15,0,0
74385,-71.4285714285714,4,1,1,15,0,0
74522,-166.666666666667,4,1,1,15,0,0
74658,-71.4285714285714,4,1,1,15,0,0
74795,-100,4,1,1,15,0,0
76431,-166.666666666667,4,1,1,15,0,0
76567,-71.4285714285714,4,1,1,15,0,0
76704,-166.666666666667,4,1,1,15,0,0
76840,-71.4285714285714,4,1,1,15,0,0
76976,-100,4,1,1,15,0,0
78067,-40,4,1,1,15,0,0
78340,-200,4,1,1,15,0,0
78613,-100,4,1,1,15,0,0
86795,-55.5555555555556,4,1,1,15,0,0
87067,-111.111111111111,4,1,1,15,0,0
87340,-100,4,1,1,15,0,0
87885,-1000,4,1,1,15,0,0
87920,-52.6315789473684,4,1,1,15,0,0
87954,-1000,4,1,1,15,0,0
87988,-52.6315789473684,4,1,1,15,0,0
88022,-1000,4,1,1,15,0,0
88056,-52.6315789473684,4,1,1,15,0,0
88090,-1000,4,1,1,15,0,0
88124,-52.6315789473684,4,1,1,15,0,0
88158,-100,4,1,1,15,0,0
92249,-52.6315789473684,4,1,1,15,0,0
92283,-1000,4,1,1,15,0,0
92317,-52.6315789473684,4,1,1,15,0,0
92351,-1000,4,1,1,15,0,0
92385,-52.6315789473684,4,1,1,15,0,0
92420,-1000,4,1,1,15,0,0
92454,-52.6315789473684,4,1,1,15,0,0
92488,-1000,4,1,1,15,0,0
92522,-100,4,1,1,15,0,0
95522,-100,4,1,1,15,0,0
95590,-66.6666666666667,4,1,1,15,0,0
95624,-200,4,1,1,15,0,0
95658,-100,4,1,1,15,0,0
95726,-66.6666666666667,4,1,1,15,0,0
95760,-200,4,1,1,15,0,0
95795,-100,4,1,1,15,0,0
95863,-66.6666666666667,4,1,1,15,0,0
95897,-200,4,1,1,15,0,0
95931,-100,4,1,1,15,0,0
95999,-66.6666666666667,4,1,1,15,0,0
96033,-200,4,1,1,15,0,0
96067,-100,4,1,1,15,0,0
96613,-52.6315789473684,4,1,1,15,0,0
96647,-1000,4,1,1,15,0,0
96681,-52.6315789473684,4,1,1,15,0,0
96715,-1000,4,1,1,15,0,0
96749,-52.6315789473684,4,1,1,15,0,0
96783,-1000,4,1,1,15,0,0
96817,-52.6315789473684,4,1,1,15,0,0
96851,-1000,4,1,1,15,0,0
96885,-100,4,1,1,15,0,0
100976,-52.6315789473684,4,1,1,15,0,0
101010,-1000,4,1,1,15,0,0
101045,-52.6315789473684,4,1,1,15,0,0
101079,-1000,4,1,1,15,0,0
101113,-52.6315789473684,4,1,1,15,0,0
101147,-1000,4,1,1,15,0,0
101181,-52.6315789473684,4,1,1,15,0,0
101215,-1000,4,1,1,15,0,0
101249,-100,4,1,1,15,0,0
105340,-52.6315789473684,4,1,1,15,0,0
105374,-1000,4,1,1,15,0,0
105408,-52.6315789473684,4,1,1,15,0,0
105442,-1000,4,1,1,15,0,0
105476,-52.6315789473684,4,1,1,15,0,0
105510,-1000,4,1,1,15,0,0
105545,-52.6315789473684,4,1,1,15,0,0
105579,-1000,4,1,1,15,0,0
105613,-100,4,1,1,15,0,0
109704,-52.6315789473684,4,1,1,15,0,0
109738,-1000,4,1,1,15,0,0
109772,-52.6315789473684,4,1,1,15,0,0
109806,-1000,4,1,1,15,0,0
109840,-52.6315789473684,4,1,1,15,0,0
109874,-1000,4,1,1,15,0,0
109908,-52.6315789473684,4,1,1,15,0,0
109942,-1000,4,1,1,15,0,0
109976,-100,4,1,1,15,0,0
114067,-52.6315789473684,4,1,1,15,0,0
114101,-1000,4,1,1,15,0,0
114135,-52.6315789473684,4,1,1,15,0,0
114170,-1000,4,1,1,15,0,0
114204,-52.6315789473684,4,1,1,15,0,0
114238,-1000,4,1,1,15,0,0
114272,-52.6315789473684,4,1,1,15,0,0
114306,-1000,4,1,1,15,0,0
114340,-100,4,1,1,15,0,0
120067,-98.0392156862745,4,1,1,15,0,0
120613,-96.1538461538461,4,1,1,15,0,0
121158,-94.3396226415094,4,1,1,15,0,0
121704,-100,4,1,1,15,0,0
122249,-117.647058823529,4,1,1,15,0,0
139704,-111.111111111111,4,1,1,15,0,0
155522,-105.263157894737,4,1,1,15,0,0
173522,-100,4,1,1,15,0,0
175431,-55.5555555555556,4,1,1,15,0,0
175448,-500,4,1,1,15,0,0
175465,-55.5555555555556,4,1,1,15,0,0
175482,-500,4,1,1,15,0,0
175499,-55.5555555555556,4,1,1,15,0,0
175516,-500,4,1,1,15,0,0
175533,-55.5555555555556,4,1,1,15,0,0
175550,-500,4,1,1,15,0,0
175567,-62.5,4,1,1,15,0,0
175601,-250,4,1,1,15,0,0
175635,-62.5,4,1,1,15,0,0
175670,-250,4,1,1,15,0,0
175704,-100,4,1,1,15,0,0
176795,-55.5555555555556,4,1,1,15,0,0
176812,-500,4,1,1,15,0,0
176829,-55.5555555555556,4,1,1,15,0,0
176846,-500,4,1,1,15,0,0
176863,-55.5555555555556,4,1,1,15,0,0
176880,-500,4,1,1,15,0,0
176897,-55.5555555555556,4,1,1,15,0,0
176914,-500,4,1,1,15,0,0
176931,-62.5,4,1,1,15,0,0
176965,-250,4,1,1,15,0,0
176999,-62.5,4,1,1,15,0,0
177033,-250,4,1,1,15,0,0
177067,-100,4,1,1,15,0,0
177613,-55.5555555555556,4,1,1,15,0,0
177630,-500,4,1,1,15,0,0
177647,-55.5555555555556,4,1,1,15,0,0
177664,-500,4,1,1,15,0,0
177681,-55.5555555555556,4,1,1,15,0,0
177698,-500,4,1,1,15,0,0
177715,-55.5555555555556,4,1,1,15,0,0
177732,-500,4,1,1,15,0,0
177749,-62.5,4,1,1,15,0,0
177783,-250,4,1,1,15,0,0
177817,-62.5,4,1,1,15,0,0
177851,-250,4,1,1,15,0,0
177885,-100,4,1,1,15,0,0
178976,-55.5555555555556,4,1,1,15,0,0
178993,-500,4,1,1,15,0,0
179010,-55.5555555555556,4,1,1,15,0,0
179027,-500,4,1,1,15,0,0
179045,-55.5555555555556,4,1,1,15,0,0
179062,-500,4,1,1,15,0,0
179079,-55.5555555555556,4,1,1,15,0,0
179096,-500,4,1,1,15,0,0
179113,-62.5,4,1,1,15,0,0
179147,-250,4,1,1,15,0,0
179181,-62.5,4,1,1,15,0,0
179215,-250,4,1,1,15,0,0
179249,-100,4,1,1,15,0,0
179795,-55.5555555555556,4,1,1,15,0,0
179812,-500,4,1,1,15,0,0
179829,-55.5555555555556,4,1,1,15,0,0
179846,-500,4,1,1,15,0,0
179863,-55.5555555555556,4,1,1,15,0,0
179880,-500,4,1,1,15,0,0
179897,-55.5555555555556,4,1,1,15,0,0
179914,-500,4,1,1,15,0,0
179931,-62.5,4,1,1,15,0,0
179965,-250,4,1,1,15,0,0
179999,-62.5,4,1,1,15,0,0
180033,-250,4,1,1,15,0,0
180067,-100,4,1,1,15,0,0
181158,-55.5555555555556,4,1,1,15,0,0
181175,-500,4,1,1,15,0,0
181192,-55.5555555555556,4,1,1,15,0,0
181209,-500,4,1,1,15,0,0
181226,-55.5555555555556,4,1,1,15,0,0
181243,-500,4,1,1,15,0,0
181260,-55.5555555555556,4,1,1,15,0,0
181277,-500,4,1,1,15,0,0
181295,-62.5,4,1,1,15,0,0
181329,-250,4,1,1,15,0,0
181363,-62.5,4,1,1,15,0,0
181397,-250,4,1,1,15,0,0
181431,-100,4,1,1,15,0,0
181976,-55.5555555555556,4,1,1,15,0,0
181993,-500,4,1,1,15,0,0
182010,-55.5555555555556,4,1,1,15,0,0
182027,-500,4,1,1,15,0,0
182045,-55.5555555555556,4,1,1,15,0,0
182062,-500,4,1,1,15,0,0
182079,-55.5555555555556,4,1,1,15,0,0
182096,-500,4,1,1,15,0,0
182113,-62.5,4,1,1,15,0,0
182147,-250,4,1,1,15,0,0
182181,-62.5,4,1,1,15,0,0
182215,-250,4,1,1,15,0,0
182249,-100,4,1,1,15,0,0
183340,-66.6666666666667,4,1,1,15,0,0
183408,-200,4,1,1,15,0,0
183476,-66.6666666666667,4,1,1,15,0,0
183545,-200,4,1,1,15,0,0
183613,-66.6666666666667,4,1,1,15,0,0
183681,-200,4,1,1,15,0,0
183749,-66.6666666666667,4,1,1,15,0,0
183817,-200,4,1,1,15,0,0
183885,-66.6666666666667,4,1,1,15,0,0
183954,-200,4,1,1,15,0,0
184022,-66.6666666666667,4,1,1,15,0,0
184090,-200,4,1,1,15,0,0
184158,-66.6666666666667,4,1,1,15,0,0
184226,-200,4,1,1,15,0,0
184295,-66.6666666666667,4,1,1,15,0,0
184363,-200,4,1,1,15,0,0
184431,-66.6666666666667,4,1,1,15,0,0
184499,-200,4,1,1,15,0,0
184567,-66.6666666666667,4,1,1,15,0,0
184635,-200,4,1,1,15,0,0
184704,-66.6666666666667,4,1,1,15,0,0
184772,-200,4,1,1,15,0,0
184840,-66.6666666666667,4,1,1,15,0,0
184908,-200,4,1,1,15,0,0
184976,-66.6666666666667,4,1,1,15,0,0
185045,-200,4,1,1,15,0,0
185113,-66.6666666666667,4,1,1,15,0,0
185181,-200,4,1,1,15,0,0
185249,-66.6666666666667,4,1,1,15,0,0
185317,-200,4,1,1,15,0,0
185385,-66.6666666666667,4,1,1,15,0,0
185454,-200,4,1,1,15,0,0
185522,-66.6666666666667,4,1,1,15,0,0
185590,-200,4,1,1,15,0,0
185658,-66.6666666666667,4,1,1,15,0,0
185726,-200,4,1,1,15,0,0
185795,-66.6666666666667,4,1,1,15,0,0
185863,-200,4,1,1,15,0,0
185931,-66.6666666666667,4,1,1,15,0,0
185999,-200,4,1,1,15,0,0
186067,-66.6666666666667,4,1,1,15,0,0
186135,-200,4,1,1,15,0,0
186204,-66.6666666666667,4,1,1,15,0,0
186272,-200,4,1,1,15,0,0
186340,-66.6666666666667,4,1,1,15,0,0
186408,-200,4,1,1,15,0,0
186476,-66.6666666666667,4,1,1,15,0,0
186545,-200,4,1,1,15,0,0
186613,-66.6666666666667,4,1,1,15,0,0
186681,-200,4,1,1,15,0,0
186749,-66.6666666666667,4,1,1,15,0,0
186817,-200,4,1,1,15,0,0
186885,-66.6666666666667,4,1,1,15,0,0
186954,-200,4,1,1,15,0,0
187022,-66.6666666666667,4,1,1,15,0,0
187090,-200,4,1,1,15,0,0
187158,-66.6666666666667,4,1,1,15,0,0
187226,-200,4,1,1,15,0,0
187295,-66.6666666666667,4,1,1,15,0,0
187363,-200,4,1,1,15,0,0
187431,-66.6666666666667,4,1,1,15,0,0
187499,-200,4,1,1,15,0,0
187567,-66.6666666666667,4,1,1,15,0,0
187635,-200,4,1,1,15,0,0
187704,-100,4,1,1,15,0,0
192067,-66.6666666666667,4,1,1,15,0,0
192135,-200,4,1,1,15,0,0
192204,-66.6666666666667,4,1,1,15,0,0
192272,-200,4,1,1,15,0,0
192340,-76.9230769230769,4,1,1,15,0,1
192476,-142.857142857143,4,1,1,15,0,1
192613,-76.9230769230769,4,1,1,15,0,1
192749,-142.857142857143,4,1,1,15,0,1
192885,-76.9230769230769,4,1,1,15,0,1
193022,-142.857142857143,4,1,1,15,0,1
193158,-76.9230769230769,4,1,1,15,0,1
193295,-142.857142857143,4,1,1,15,0,1
193431,-76.9230769230769,4,1,1,15,0,1
193567,-142.857142857143,4,1,1,15,0,1
193704,-76.9230769230769,4,1,1,15,0,1
193840,-142.857142857143,4,1,1,15,0,1
193976,-76.9230769230769,4,1,1,15,0,1
194113,-142.857142857143,4,1,1,15,0,1
194249,-76.9230769230769,4,1,1,15,0,1
194385,-142.857142857143,4,1,1,15,0,1
194522,-76.9230769230769,4,1,1,15,0,1
194658,-142.857142857143,4,1,1,15,0,1
194795,-76.9230769230769,4,1,1,15,0,1
194931,-142.857142857143,4,1,1,15,0,1
195067,-76.9230769230769,4,1,1,15,0,1
195204,-142.857142857143,4,1,1,15,0,1
195340,-76.9230769230769,4,1,1,15,0,1
195476,-142.857142857143,4,1,1,15,0,1
195613,-76.9230769230769,4,1,1,15,0,1
195749,-142.857142857143,4,1,1,15,0,1
195885,-76.9230769230769,4,1,1,15,0,1
196022,-142.857142857143,4,1,1,15,0,1
196158,-76.9230769230769,4,1,1,15,0,1
196295,-142.857142857143,4,1,1,15,0,1
196431,-100,4,1,1,15,0,1
196704,-76.9230769230769,4,1,1,15,0,1
196840,-142.857142857143,4,1,1,15,0,1
196976,-76.9230769230769,4,1,1,15,0,1
197113,-142.857142857143,4,1,1,15,0,1
197249,-76.9230769230769,4,1,1,15,0,1
197385,-142.857142857143,4,1,1,15,0,1
197522,-76.9230769230769,4,1,1,15,0,1
197658,-142.857142857143,4,1,1,15,0,1
197795,-76.9230769230769,4,1,1,15,0,1
197931,-142.857142857143,4,1,1,15,0,1
198067,-76.9230769230769,4,1,1,15,0,1
198204,-142.857142857143,4,1,1,15,0,1
198340,-76.9230769230769,4,1,1,15,0,1
198476,-142.857142857143,4,1,1,15,0,1
198613,-76.9230769230769,4,1,1,15,0,1
198749,-142.857142857143,4,1,1,15,0,1
198885,-76.9230769230769,4,1,1,15,0,1
199022,-142.857142857143,4,1,1,15,0,1
199158,-76.9230769230769,4,1,1,15,0,1
199295,-142.857142857143,4,1,1,15,0,1
199431,-76.9230769230769,4,1,1,15,0,1
199567,-142.857142857143,4,1,1,15,0,1
199704,-76.9230769230769,4,1,1,15,0,1
199840,-142.857142857143,4,1,1,15,0,1
199976,-100,4,1,1,15,0,1
200795,-76.9230769230769,4,1,1,15,0,0
200863,-142.857142857143,4,1,1,15,0,0
200931,-76.9230769230769,4,1,1,15,0,0
200999,-142.857142857143,4,1,1,15,0,0
201067,-76.9230769230769,4,1,1,15,0,1
201204,-142.857142857143,4,1,1,15,0,1
201340,-76.923076923077,4,1,1,15,0,1
201476,-142.857142857143,4,1,1,15,0,1
201613,-76.923076923077,4,1,1,15,0,1
201749,-142.857142857143,4,1,1,15,0,1
201885,-76.923076923077,4,1,1,15,0,1
202022,-142.857142857143,4,1,1,15,0,1
202158,-76.923076923077,4,1,1,15,0,1
202295,-142.857142857143,4,1,1,15,0,1
202431,-76.923076923077,4,1,1,15,0,1
202567,-142.857142857143,4,1,1,15,0,1
202704,-76.923076923077,4,1,1,15,0,1
202840,-142.857142857143,4,1,1,15,0,1
202976,-76.923076923077,4,1,1,15,0,1
203113,-142.857142857143,4,1,1,15,0,1
203249,-76.923076923077,4,1,1,15,0,1
203385,-142.857142857143,4,1,1,15,0,1
203522,-76.923076923077,4,1,1,15,0,1
203658,-142.857142857143,4,1,1,15,0,1
203795,-76.923076923077,4,1,1,15,0,1
203931,-142.857142857143,4,1,1,15,0,1
204067,-76.923076923077,4,1,1,15,0,1
204204,-142.857142857143,4,1,1,15,0,1
204340,-76.923076923077,4,1,1,15,0,1
204476,-142.857142857143,4,1,1,15,0,1
204613,-76.923076923077,4,1,1,15,0,1
204749,-142.857142857143,4,1,1,15,0,1
204885,-76.923076923077,4,1,1,15,0,1
205022,-142.857142857143,4,1,1,15,0,1
205158,-100,4,1,1,15,0,1
209522,-100,4,1,1,15,0,0
224795,-117.647058823529,4,1,1,15,0,0
225749,-111.111111111111,4,1,1,15,0,0
225817,-105.263157894737,4,1,1,15,0,0
225885,-100,4,1,1,15,0,0
226976,-62.5,4,1,1,15,0,0
227181,-250,4,1,1,15,0,0
227385,-62.5,4,1,1,15,0,0
227590,-250,4,1,1,15,0,0
227795,-62.5,4,1,1,15,0,0
227999,-250,4,1,1,15,0,0
228204,-62.5,4,1,1,15,0,0
228408,-250,4,1,1,15,0,0
228613,-62.5,4,1,1,15,0,0
228749,-250,4,1,1,15,0,0
228885,-62.5,4,1,1,15,0,0
229022,-250,4,1,1,15,0,0
229158,-62.5,4,1,1,15,0,0
229363,-250,4,1,1,15,0,0
229567,-62.5,4,1,1,15,0,0
229772,-250,4,1,1,15,0,0
229976,-62.5,4,1,1,15,0,0
230181,-250,4,1,1,15,0,0
230385,-62.5,4,1,1,15,0,0
230590,-250,4,1,1,15,0,0
230795,-100,4,1,1,15,0,0
231340,-62.5,4,1,1,15,0,0
231545,-250,4,1,1,15,0,0
231749,-62.5,4,1,1,15,0,0
231954,-250,4,1,1,15,0,0
232158,-62.5,4,1,1,15,0,0
232363,-250,4,1,1,15,0,0
232567,-62.5,4,1,1,15,0,0
232772,-250,4,1,1,15,0,0
232976,-62.5,4,1,1,15,0,0
233113,-250,4,1,1,15,0,0
233249,-62.5,4,1,1,15,0,0
233385,-250,4,1,1,15,0,0
233522,-62.5,4,1,1,15,0,0
233726,-250,4,1,1,15,0,0
233931,-62.5,4,1,1,15,0,0
234135,-250,4,1,1,15,0,0
234340,-62.5,4,1,1,15,0,0
234545,-250,4,1,1,15,0,0
234749,-62.5,4,1,1,15,0,0
234954,-250,4,1,1,15,0,0
235158,-100,4,1,1,15,0,0
242249,-111.111111111111,4,1,1,15,0,0
243340,-105.263157894737,4,1,1,15,0,0
244431,-100,4,1,1,15,0,0
257522,-52.6315789473684,4,1,1,15,0,0
257539,-1000,4,1,1,15,0,0
257556,-52.6315789473684,4,1,1,15,0,0
257573,-1000,4,1,1,15,0,0
257590,-52.6315789473684,4,1,1,15,0,0
257607,-1000,4,1,1,15,0,0
257624,-52.6315789473684,4,1,1,15,0,0
257641,-1000,4,1,1,15,0,0
257658,-52.6315789473684,4,1,1,15,0,0
257675,-1000,4,1,1,15,0,0
257692,-52.6315789473684,4,1,1,15,0,0
257709,-1000,4,1,1,15,0,0
257726,-52.6315789473684,4,1,1,15,0,0
257743,-1000,4,1,1,15,0,0
257760,-52.6315789473684,4,1,1,15,0,0
257777,-1000,4,1,1,15,0,0
257795,-52.6315789473684,4,1,1,15,0,0
257812,-1000,4,1,1,15,0,0
257829,-52.6315789473684,4,1,1,15,0,0
257846,-1000,4,1,1,15,0,0
257863,-52.6315789473684,4,1,1,15,0,0
257880,-1000,4,1,1,15,0,0
257897,-52.6315789473684,4,1,1,15,0,0
257914,-1000,4,1,1,15,0,0
257931,-52.6315789473684,4,1,1,15,0,0
257948,-1000,4,1,1,15,0,0
257965,-52.6315789473684,4,1,1,15,0,0
257982,-1000,4,1,1,15,0,0
257999,-52.6315789473684,4,1,1,15,0,0
258016,-1000,4,1,1,15,0,0
258033,-52.6315789473684,4,1,1,15,0,0
258050,-1000,4,1,1,15,0,0
258067,-52.6315789473684,4,1,1,15,0,0
258084,-1000,4,1,1,15,0,0
258101,-52.6315789473684,4,1,1,15,0,0
258118,-1000,4,1,1,15,0,0
258135,-52.6315789473684,4,1,1,15,0,0
258152,-1000,4,1,1,15,0,0
258170,-52.6315789473684,4,1,1,15,0,0
258187,-1000,4,1,1,15,0,0
258204,-52.6315789473684,4,1,1,15,0,0
258221,-1000,4,1,1,15,0,0
258238,-52.6315789473684,4,1,1,15,0,0
258255,-1000,4,1,1,15,0,0
258272,-52.6315789473684,4,1,1,15,0,0
258289,-1000,4,1,1,15,0,0
258306,-52.6315789473684,4,1,1,15,0,0
258323,-1000,4,1,1,15,0,0
258340,-52.6315789473684,4,1,1,15,0,0
258357,-1000,4,1,1,15,0,0
258374,-52.6315789473684,4,1,1,15,0,0
258391,-1000,4,1,1,15,0,0
258408,-52.6315789473684,4,1,1,15,0,0
258425,-1000,4,1,1,15,0,0
258442,-52.6315789473684,4,1,1,15,0,0
258459,-1000,4,1,1,15,0,0
258476,-52.6315789473684,4,1,1,15,0,0
258493,-1000,4,1,1,15,0,0
258510,-52.6315789473684,4,1,1,15,0,0
258527,-1000,4,1,1,15,0,0
258545,-52.6315789473684,4,1,1,15,0,0
258562,-1000,4,1,1,15,0,0
258579,-52.6315789473684,4,1,1,15,0,0
258596,-1000,4,1,1,15,0,0
258613,-52.6315789473684,4,1,1,15,0,0
258630,-1000,4,1,1,15,0,0
258647,-52.6315789473684,4,1,1,15,0,0
258664,-1000,4,1,1,15,0,0
258681,-52.6315789473684,4,1,1,15,0,0
258698,-1000,4,1,1,15,0,0
258715,-52.6315789473684,4,1,1,15,0,0
258732,-1000,4,1,1,15,0,0
258749,-52.6315789473684,4,1,1,15,0,0
258766,-1000,4,1,1,15,0,0
258783,-52.6315789473684,4,1,1,15,0,0
258800,-1000,4,1,1,15,0,0
258817,-52.6315789473684,4,1,1,15,0,0
258834,-1000,4,1,1,15,0,0
258851,-52.6315789473684,4,1,1,15,0,0
258868,-1000,4,1,1,15,0,0
258885,-52.6315789473684,4,1,1,15,0,0
258902,-1000,4,1,1,15,0,0
258920,-52.6315789473684,4,1,1,15,0,0
258937,-1000,4,1,1,15,0,0
258954,-52.6315789473684,4,1,1,15,0,0
258971,-1000,4,1,1,15,0,0
258988,-52.6315789473684,4,1,1,15,0,0
259005,-1000,4,1,1,15,0,0
259022,-52.6315789473684,4,1,1,15,0,0
259039,-1000,4,1,1,15,0,0
259056,-52.6315789473684,4,1,1,15,0,0
259073,-1000,4,1,1,15,0,0
259090,-52.6315789473684,4,1,1,15,0,0
259107,-1000,4,1,1,15,0,0
259124,-52.6315789473684,4,1,1,15,0,0
259141,-1000,4,1,1,15,0,0
259158,-52.6315789473684,4,1,1,15,0,0
259175,-1000,4,1,1,15,0,0
259192,-52.6315789473684,4,1,1,15,0,0
259209,-1000,4,1,1,15,0,0
259226,-52.6315789473684,4,1,1,15,0,0
259243,-1000,4,1,1,15,0,0
259260,-52.6315789473684,4,1,1,15,0,0
259277,-1000,4,1,1,15,0,0
259295,-52.6315789473684,4,1,1,15,0,0
259312,-1000,4,1,1,15,0,0
259329,-52.6315789473684,4,1,1,15,0,0
259346,-1000,4,1,1,15,0,0
259363,-52.6315789473684,4,1,1,15,0,0
259380,-1000,4,1,1,15,0,0
259397,-52.6315789473684,4,1,1,15,0,0
259414,-1000,4,1,1,15,0,0
259431,-52.6315789473684,4,1,1,15,0,0
259448,-1000,4,1,1,15,0,0
259465,-52.6315789473684,4,1,1,15,0,0
259482,-1000,4,1,1,15,0,0
259499,-52.6315789473684,4,1,1,15,0,0
259516,-1000,4,1,1,15,0,0
259533,-52.6315789473684,4,1,1,15,0,0
259550,-1000,4,1,1,15,0,0
259567,-52.6315789473684,4,1,1,15,0,0
259584,-1000,4,1,1,15,0,0
259601,-52.6315789473684,4,1,1,15,0,0
259618,-1000,4,1,1,15,0,0
259635,-52.6315789473684,4,1,1,15,0,0
259652,-1000,4,1,1,15,0,0
259670,-52.6315789473684,4,1,1,15,0,0
259687,-1000,4,1,1,15,0,0
259704,-100,4,1,1,15,0,0
262431,-52.6315789473684,4,1,1,15,0,0
262465,-1000,4,1,1,15,0,0
262499,-52.6315789473684,4,1,1,15,0,0
262533,-1000,4,1,1,15,0,0
262567,-52.6315789473684,4,1,1,15,0,0
262601,-1000,4,1,1,15,0,0
262635,-52.6315789473684,4,1,1,15,0,0
262670,-1000,4,1,1,15,0,0
262704,-100,4,1,1,15,0,0
266795,-52.6315789473684,4,1,1,15,0,0
266829,-1000,4,1,1,15,0,0
266863,-52.6315789473684,4,1,1,15,0,0
266897,-1000,4,1,1,15,0,0
266931,-52.6315789473684,4,1,1,15,0,0
266965,-1000,4,1,1,15,0,0
266999,-52.6315789473684,4,1,1,15,0,0
267033,-1000,4,1,1,15,0,0
267067,-100,4,1,1,15,0,0
274976,-100,4,1,1,15,0,0
275522,-95.2380952380952,4,1,1,15,0,0
276067,-90.9090909090909,4,1,1,15,0,0
276613,-86.9565217391304,4,1,1,15,0,0
277158,-83.3333333333333,4,1,1,15,0,0
277704,-80,4,1,1,15,0,0
278249,-125,4,1,1,15,0,0
278522,-117.647058823529,4,1,1,15,0,0
278795,-111.111111111111,4,1,1,15,0,0
279067,-105.263157894737,4,1,1,15,0,0
279340,-66.6666666666667,4,1,1,15,0,0
279408,-200,4,1,1,15,0,0
279476,-66.6666666666667,4,1,1,15,0,0
279545,-200,4,1,1,15,0,0
279613,-76.9230769230769,4,1,1,15,0,1
279749,-142.857142857143,4,1,1,15,0,1
279885,-76.923076923077,4,1,1,15,0,1
280022,-142.857142857143,4,1,1,15,0,1
280158,-76.923076923077,4,1,1,15,0,1
280295,-142.857142857143,4,1,1,15,0,1
280431,-76.923076923077,4,1,1,15,0,1
280567,-142.857142857143,4,1,1,15,0,1
280704,-76.923076923077,4,1,1,15,0,1
280840,-142.857142857143,4,1,1,15,0,1
280976,-76.923076923077,4,1,1,15,0,1
281113,-142.857142857143,4,1,1,15,0,1
281249,-76.923076923077,4,1,1,15,0,1
281385,-142.857142857143,4,1,1,15,0,1
281522,-76.923076923077,4,1,1,15,0,1
281658,-142.857142857143,4,1,1,15,0,1
281795,-76.923076923077,4,1,1,15,0,1
281931,-142.857142857143,4,1,1,15,0,1
282067,-76.923076923077,4,1,1,15,0,1
282204,-142.857142857143,4,1,1,15,0,1
282340,-76.923076923077,4,1,1,15,0,1
282476,-142.857142857143,4,1,1,15,0,1
282613,-76.923076923077,4,1,1,15,0,1
282749,-142.857142857143,4,1,1,15,0,1
282885,-76.923076923077,4,1,1,15,0,1
283022,-142.857142857143,4,1,1,15,0,1
283158,-76.923076923077,4,1,1,15,0,1
283295,-142.857142857143,4,1,1,15,0,1
283431,-76.923076923077,4,1,1,15,0,1
283567,-142.857142857143,4,1,1,15,0,1
283704,-100,4,1,1,15,0,1
283976,-76.9230769230769,4,1,1,15,0,1
284113,-142.857142857143,4,1,1,15,0,1
284249,-76.9230769230769,4,1,1,15,0,1
284385,-142.857142857143,4,1,1,15,0,1
284522,-76.9230769230769,4,1,1,15,0,1
284658,-142.857142857143,4,1,1,15,0,1
284795,-76.9230769230769,4,1,1,15,0,1
284931,-142.857142857143,4,1,1,15,0,1
285067,-76.9230769230769,4,1,1,15,0,1
285204,-142.857142857143,4,1,1,15,0,1
285340,-76.9230769230769,4,1,1,15,0,1
285476,-142.857142857143,4,1,1,15,0,1
285613,-100,4,1,1,15,0,0
288340,-76.9230769230769,4,1,1,15,0,1
288476,-142.857142857143,4,1,1,15,0,1
288613,-76.9230769230769,4,1,1,15,0,1
288749,-142.857142857143,4,1,1,15,0,1
288885,-76.9230769230769,4,1,1,15,0,1
289022,-142.857142857143,4,1,1,15,0,1
289158,-76.9230769230769,4,1,1,15,0,1
289295,-142.857142857143,4,1,1,15,0,1
289431,-76.9230769230769,4,1,1,15,0,1
289567,-142.857142857143,4,1,1,15,0,1
289704,-76.9230769230769,4,1,1,15,0,1
289840,-142.857142857143,4,1,1,15,0,1
289976,-76.9230769230769,4,1,1,15,0,1
290113,-142.857142857143,4,1,1,15,0,1
290249,-100,4,1,1,15,0,0
290522,-76.923076923077,4,1,1,15,0,1
290658,-142.857142857143,4,1,1,15,0,1
290795,-76.923076923077,4,1,1,15,0,1
290931,-142.857142857143,4,1,1,15,0,1
291067,-76.923076923077,4,1,1,15,0,1
291204,-142.857142857143,4,1,1,15,0,1
291340,-100,4,1,1,15,0,0
296795,-62.5,4,1,1,15,0,0
296999,-250,4,1,1,15,0,0
297204,-62.5,4,1,1,15,0,0
297408,-250,4,1,1,15,0,0
297613,-62.5,4,1,1,15,0,0
297817,-250,4,1,1,15,0,0
298022,-62.5,4,1,1,15,0,0
298226,-250,4,1,1,15,0,0
298431,-62.5,4,1,1,15,0,0
298567,-250,4,1,1,15,0,0
298704,-62.5,4,1,1,15,0,0
298840,-250,4,1,1,15,0,0
298976,-62.5,4,1,1,15,0,0
299181,-250,4,1,1,15,0,0
299385,-62.5,4,1,1,15,0,0
299590,-250,4,1,1,15,0,0
299795,-62.5,4,1,1,15,0,0
299999,-250,4,1,1,15,0,0
300204,-62.5,4,1,1,15,0,0
300408,-250,4,1,1,15,0,0
300613,-100,4,1,1,15,0,0
301158,-62.5,4,1,1,15,0,0
301363,-250,4,1,1,15,0,0
301567,-62.5,4,1,1,15,0,0
301772,-250,4,1,1,15,0,0
301976,-62.5,4,1,1,15,0,0
302181,-250,4,1,1,15,0,0
302385,-62.5,4,1,1,15,0,0
302590,-250,4,1,1,15,0,0
302795,-62.5,4,1,1,15,0,0
302931,-250,4,1,1,15,0,0
303067,-62.5,4,1,1,15,0,0
303204,-250,4,1,1,15,0,0
303340,-62.5,4,1,1,15,0,0
303545,-250,4,1,1,15,0,0
303749,-62.5,4,1,1,15,0,0
303954,-250,4,1,1,15,0,0
304158,-62.5,4,1,1,15,0,0
304363,-250,4,1,1,15,0,0
304567,-62.5,4,1,1,15,0,0
304772,-250,4,1,1,15,0,0
304976,-100,4,1,1,15,0,0
312067,-111.111111111111,4,1,1,15,0,0
313158,-105.263157894737,4,1,1,15,0,0
314249,-100,4,1,1,10,0,0
322976,-105.263157894737,4,1,1,10,0,0
326522,-111.111111111111,4,1,1,10,0,0
329522,-117.647058823529,4,1,1,10,0,0
331704,-125,4,1,1,10,0,0

[HitObjects]
448,192,613,128,0,2249:0:0:0:0:
64,192,1158,128,0,1976:0:0:0:0:
192,192,2067,1,0,0:0:0:0:
320,192,2158,1,0,0:0:0:0:
64,192,2249,1,0,0:0:0:0:
192,192,2340,1,0,0:0:0:0:
320,192,2522,1,0,0:0:0:0:
448,192,2613,1,0,0:0:0:0:
320,192,3204,128,0,3476:0:0:0:0:
320,192,3567,128,0,4567:0:0:0:0:
64,192,4567,128,0,6340:0:0:0:0:
192,192,4635,1,0,0:0:0:0:
320,192,4704,1,0,0:0:0:0:
448,192,4772,1,0,0:0:0:0:
192,192,4840,1,0,0:0:0:0:
320,192,4908,1,0,0:0:0:0:
448,192,4976,1,0,0:0:0:0:
192,192,5044,1,0,0:0:0:0:
320,192,5113,1,0,0:0:0:0:
448,192,5181,128,0,8795:0:0:0:0:
320,192,6340,1,0,0:0:0:0:
192,192,6408,1,0,0:0:0:0:
64,192,6476,1,0,0:0:0:0:
320,192,6567,1,0,0:0:0:0:
192,192,6658,1,0,0:0:0:0:
64,192,6749,1,0,0:0:0:0:
320,192,6817,1,0,0:0:0:0:
192,192,6885,1,0,0:0:0:0:
64,192,6954,128,0,8795:0:0:0:0:
192,192,8795,5,0,0:0:0:10:Bass.wav
320,192,8795,1,0,0:0:0:0:
64,192,9340,1,0,0:0:0:0:
320,192,9613,1,0,0:0:0:10:Bass.wav
448,192,9613,1,0,0:0:0:0:
448,192,10431,1,0,0:0:0:0:
192,192,10976,1,0,0:0:0:10:Bass.wav
64,192,10976,1,0,0:0:0:0:
64,192,11522,1,0,0:0:0:0:
320,192,11795,1,0,0:0:0:10:Bass.wav
448,192,11795,1,0,0:0:0:0:
448,192,12613,1,0,0:0:0:0:
192,192,13158,1,0,0:0:0:10:Bass.wav
64,192,13158,1,0,0:0:0:0:
64,192,13704,1,0,0:0:0:0:
320,192,13976,1,0,0:0:0:10:Bass.wav
448,192,13976,1,0,0:0:0:0:
448,192,14795,1,0,0:0:0:0:
448,192,15340,1,0,0:0:0:0:
64,192,15340,1,0,0:0:0:10:Bass.wav
320,192,15476,1,0,0:0:0:0:
192,192,15613,1,0,0:0:0:0:
64,192,15749,1,0,0:0:0:0:
320,192,15885,1,0,0:0:0:10:DrumC1.wav
448,192,15885,1,0,0:0:0:0:
192,192,16022,1,0,0:0:0:0:
64,192,16158,1,0,0:0:0:10:Bass.wav
448,192,16158,1,0,0:0:0:0:
320,192,16295,1,0,0:0:0:0:
192,192,16431,1,0,0:0:0:0:
64,192,16567,1,0,0:0:0:0:
448,192,16704,1,0,0:0:0:0:
320,192,16840,1,0,0:0:0:0:
64,192,16976,1,0,0:0:0:10:DrumC1.wav
192,192,16976,1,0,0:0:0:0:
320,192,17113,1,0,0:0:0:0:
448,192,17249,1,0,0:0:0:0:
192,192,17385,1,0,0:0:0:0:
64,192,17522,1,0,0:0:0:0:
320,192,17522,1,0,0:0:0:10:Bass.wav
448,192,17658,1,0,0:0:0:0:
320,192,17795,1,0,0:0:0:0:
192,192,17931,1,0,0:0:0:0:
448,192,18067,1,0,0:0:0:10:DrumC1.wav
64,192,18067,1,0,0:0:0:0:
320,192,18204,1,0,0:0:0:0:
64,192,18340,1,0,0:0:0:0:
192,192,18340,1,0,0:0:0:10:Bass.wav
320,192,18476,1,0,0:0:0:0:
448,192,18613,1,0,0:0:0:0:
64,192,18749,1,0,0:0:0:0:
192,192,18885,1,0,0:0:0:0:
320,192,19022,1,0,0:0:0:0:
64,192,19158,1,0,0:0:0:0:
448,192,19158,1,0,0:0:0:10:DrumC1.wav
192,192,19295,1,0,0:0:0:0:
320,192,19431,1,0,0:0:0:0:
448,192,19567,1,0,0:0:0:0:
192,192,19704,1,0,0:0:0:10:Bass.wav
64,192,19704,1,0,0:0:0:0:
320,192,19840,1,0,0:0:0:0:
448,192,19976,1,0,0:0:0:0:
192,192,20113,1,0,0:0:0:0:
64,192,20249,1,0,0:0:0:10:DrumC1.wav
320,192,20249,1,0,0:0:0:0:
448,192,20385,1,0,0:0:0:0:
320,192,20522,1,0,0:0:0:10:Bass.wav
192,192,20522,1,0,0:0:0:0:
64,192,20658,1,0,0:0:0:0:
192,192,20726,1,0,0:0:0:0:
320,192,20795,1,0,0:0:0:0:
448,192,20863,1,0,0:0:0:0:
64,192,20931,1,0,0:0:0:0:
192,192,20999,1,0,0:0:0:0:
320,192,21067,1,0,0:0:0:0:
448,192,21135,1,0,0:0:0:0:
64,192,21204,1,0,0:0:0:0:
192,192,21272,1,0,0:0:0:0:
320,192,21340,1,0,0:0:0:0:
448,192,21340,1,0,0:0:0:10:DrumC1.wav
64,192,21476,1,0,0:0:0:0:
192,192,21613,1,0,0:0:0:0:
320,192,21749,1,0,0:0:0:0:
448,192,21885,1,0,0:0:0:0:
64,192,21885,1,0,0:0:0:10:Bass.wav
192,192,22022,1,0,0:0:0:0:
320,192,22158,1,0,0:0:0:0:
192,192,22295,1,0,0:0:0:0:
448,192,22431,1,0,0:0:0:10:DrumC1.wav
64,192,22431,1,0,0:0:0:0:
320,192,22567,1,0,0:0:0:0:
192,192,22704,1,0,0:0:0:10:Bass.wav
64,192,22704,1,0,0:0:0:0:
448,192,22840,1,0,0:0:0:0:
320,192,22976,1,0,0:0:0:0:
192,192,23113,1,0,0:0:0:0:
64,192,23249,1,0,0:0:0:0:
448,192,23385,1,0,0:0:0:0:
320,192,23522,1,0,0:0:0:10:DrumC1.wav
64,192,23522,1,0,0:0:0:0:
192,192,23658,1,0,0:0:0:0:
448,192,23795,1,0,0:0:0:0:
320,192,23931,1,0,0:0:0:0:
448,192,24067,5,0,0:0:0:10:Bass.wav
192,192,24067,1,0,0:0:0:0:
64,192,24204,1,0,0:0:0:0:
320,192,24340,1,0,0:0:0:0:
192,192,24476,1,0,0:0:0:0:
448,192,24613,1,0,0:0:0:0:
64,192,24613,1,0,0:0:0:10:DrumC1.wav
320,192,24749,1,0,0:0:0:0:
448,192,24885,1,0,0:0:0:10:Bass.wav
64,192,24885,1,0,0:0:0:0:
192,192,25022,1,0,0:0:0:0:
320,192,25158,5,2,0:0:0:0:
448,192,25158,5,0,0:0:0:0:
64,192,25204,1,0,0:0:0:0:
192,192,25204,1,2,0:0:0:0:
320,192,25295,1,0,0:0:0:0:
64,192,25295,1,0,0:0:0:0:
448,192,25295,1,2,0:0:0:0:
448,192,25431,1,2,0:0:0:0:
320,192,25431,1,0,0:0:0:0:
64,192,25431,1,0,0:0:0:0:
64,192,25567,1,0,0:0:0:0:
192,192,25567,1,2,0:0:0:0:
320,192,25613,1,2,0:0:0:0:
448,192,25613,1,0,0:0:0:0:
448,192,25704,1,0,0:0:0:0:
64,192,25704,1,2,0:0:0:0:
192,192,25704,1,0,0:0:0:0:
64,192,25840,1,2,0:0:0:0:
192,192,25840,1,0,0:0:0:0:
448,192,25840,1,0,0:0:0:0:
64,192,25976,1,2,0:0:0:0:
192,192,25976,1,0,0:0:0:70:Bass.wav
320,192,25976,1,0,0:0:0:0:
192,192,26113,1,0,0:0:0:0:
320,192,26113,1,0,0:0:0:70:Bass.wav
448,192,26113,1,2,0:0:0:0:
320,192,26249,1,0,0:0:0:70:LR3_Snare FCSRL.wav
64,192,26249,1,0,0:0:0:70:finish.wav
448,192,26249,1,0,0:0:0:0:
192,192,26249,1,0,0:0:0:70:Bass.wav
64,192,26385,1,0,0:0:0:0:
192,192,26522,1,0,0:0:0:0:
320,192,26658,1,0,0:0:0:0:
448,192,26795,1,0,0:0:0:0:
64,192,26795,1,0,0:0:0:0:
192,192,26795,1,0,0:0:0:70:DrumC1.wav
320,192,26931,1,0,0:0:0:0:
64,192,27067,1,0,0:0:0:70:Bass.wav
448,192,27067,1,0,0:0:0:0:
192,192,27204,1,0,0:0:0:0:
448,192,27272,1,0,0:0:0:0:
192,192,27340,1,0,0:0:0:0:
448,192,27476,1,0,0:0:0:0:
192,192,27613,1,0,0:0:0:0:
64,192,27613,1,0,0:0:0:70:Bass.wav
320,192,27749,1,0,0:0:0:0:
192,192,27817,1,0,0:0:0:0:
448,192,27885,1,0,0:0:0:0:
64,192,27885,1,0,0:0:0:0:
320,192,27885,1,0,0:0:0:70:DrumC1.wav
192,192,28022,1,0,0:0:0:0:
320,192,28158,1,0,0:0:0:0:
64,192,28226,1,0,0:0:0:0:
320,192,28295,1,0,0:0:0:0:
64,192,28363,1,0,0:0:0:0:
320,192,28431,1,0,0:0:0:0:
448,192,28431,1,0,0:0:0:70:Bass.wav
192,192,28567,1,0,0:0:0:0:
448,192,28704,1,0,0:0:0:0:
320,192,28840,1,0,0:0:0:0:
192,192,28976,1,0,0:0:0:70:DrumC1.wav
64,192,28976,1,0,0:0:0:0:
448,192,28976,1,0,0:0:0:0:
320,192,29045,1,0,0:0:0:0:
192,192,29113,1,0,0:0:0:0:
320,192,29249,1,0,0:0:0:0:
448,192,29249,1,0,0:0:0:70:Bass.wav
64,192,29385,1,0,0:0:0:0:
320,192,29454,1,0,0:0:0:0:
64,192,29522,1,0,0:0:0:0:
448,192,29658,1,0,0:0:0:0:
192,192,29795,1,0,0:0:0:70:Bass.wav
64,192,29795,1,0,0:0:0:0:
320,192,29931,1,0,0:0:0:0:
192,192,29999,1,0,0:0:0:0:
64,192,30067,1,0,0:0:0:70:DrumC1.wav
448,192,30067,1,0,0:0:0:0:
320,192,30101,1,0,0:0:0:0:
192,192,30135,1,0,0:0:0:0:
64,192,30170,1,0,0:0:0:0:
448,192,30204,1,0,0:0:0:0:
320,192,30238,1,0,0:0:0:0:
192,192,30272,1,0,0:0:0:0:
64,192,30306,1,0,0:0:0:0:
448,192,30340,1,0,0:0:0:0:
320,192,30408,1,0,0:0:0:0:
192,192,30476,1,0,0:0:0:0:
448,192,30545,1,0,0:0:0:0:
64,192,30613,1,0,0:0:0:70:Bass.wav
320,192,30613,1,0,0:0:0:0:
192,192,30749,1,0,0:0:0:0:
448,192,30885,1,0,0:0:0:0:
320,192,31022,1,0,0:0:0:0:
192,192,31158,1,0,0:0:0:70:DrumC1.wav
64,192,31158,1,0,0:0:0:0:
448,192,31158,1,0,0:0:0:0:
320,192,31226,1,0,0:0:0:0:
192,192,31295,1,0,0:0:0:0:
320,192,31431,1,0,0:0:0:70:Bass.wav
448,192,31431,1,0,0:0:0:0:
64,192,31567,1,0,0:0:0:0:
448,192,31635,1,0,0:0:0:0:
64,192,31704,1,0,0:0:0:0:
192,192,31840,1,0,0:0:0:0:
448,192,31976,1,0,0:0:0:70:Bass.wav
320,192,31976,1,0,0:0:0:0:
192,192,32113,1,0,0:0:0:0:
320,192,32181,1,0,0:0:0:0:
192,192,32249,1,0,0:0:0:70:DrumC1.wav
64,192,32249,1,0,0:0:0:0:
448,192,32249,1,0,0:0:0:0:
320,192,32385,1,0,0:0:0:0:
64,192,32522,1,0,0:0:0:0:
448,192,32590,1,0,0:0:0:0:
64,192,32658,1,0,0:0:0:0:
448,192,32726,1,0,0:0:0:0:
192,192,32795,1,0,0:0:0:70:Bass.wav
64,192,32795,1,0,0:0:0:0:
320,192,32931,1,0,0:0:0:0:
192,192,33067,1,0,0:0:0:0:
320,192,33204,1,0,0:0:0:0:
192,192,33340,1,0,0:0:0:70:DrumC1.wav
64,192,33340,1,0,0:0:0:0:
448,192,33340,1,0,0:0:0:0:
320,192,33408,1,0,0:0:0:0:
192,192,33476,1,0,0:0:0:0:
320,192,33613,1,0,0:0:0:70:Bass.wav
448,192,33613,1,0,0:0:0:0:
192,192,33749,1,0,0:0:0:0:
448,192,33817,1,0,0:0:0:0:
192,192,33885,1,0,0:0:0:0:
64,192,34022,1,0,0:0:0:0:
448,192,34158,1,0,0:0:0:70:Bass.wav
320,192,34158,1,0,0:0:0:0:
192,192,34295,1,0,0:0:0:0:
320,192,34363,1,0,0:0:0:0:
64,192,34431,1,0,0:0:0:0:
448,192,34431,1,0,0:0:0:70:DrumC1.wav
192,192,34465,1,0,0:0:0:0:
320,192,34499,1,0,0:0:0:0:
448,192,34533,1,0,0:0:0:0:
64,192,34567,1,0,0:0:0:0:
192,192,34601,1,0,0:0:0:0:
320,192,34635,1,0,0:0:0:0:
448,192,34670,1,0,0:0:0:0:
64,192,34704,1,0,0:0:0:0:
192,192,34772,1,0,0:0:0:0:
320,192,34840,1,0,0:0:0:0:
64,192,34908,1,0,0:0:0:0:
448,192,34976,1,0,0:0:0:70:Bass.wav
192,192,34976,1,0,0:0:0:0:
320,192,35113,1,0,0:0:0:0:
64,192,35249,1,0,0:0:0:0:
192,192,35385,1,0,0:0:0:0:
448,192,35522,1,0,0:0:0:0:
64,192,35522,1,0,0:0:0:0:
320,192,35522,1,0,0:0:0:70:DrumC1.wav
192,192,35590,1,0,0:0:0:0:
320,192,35658,1,0,0:0:0:0:
64,192,35795,1,0,0:0:0:70:Bass.wav
448,192,35795,1,0,0:0:0:0:
320,192,35931,1,0,0:0:0:0:
64,192,35999,1,0,0:0:0:0:
320,192,36067,1,0,0:0:0:0:
448,192,36204,1,0,0:0:0:0:
192,192,36340,1,0,0:0:0:0:
64,192,36340,1,0,0:0:0:70:Bass.wav
320,192,36476,1,0,0:0:0:0:
192,192,36545,1,0,0:0:0:0:
448,192,36613,1,0,0:0:0:0:
64,192,36613,1,0,0:0:0:0:
320,192,36613,1,0,0:0:0:70:DrumC1.wav
192,192,36749,1,0,0:0:0:0:
320,192,36885,1,0,0:0:0:0:
64,192,36954,1,0,0:0:0:0:
320,192,37022,1,0,0:0:0:0:
64,192,37090,1,0,0:0:0:0:
320,192,37158,1,0,0:0:0:0:
448,192,37158,1,0,0:0:0:70:Bass.wav
64,192,37295,1,0,0:0:0:0:
192,192,37431,1,0,0:0:0:0:
320,192,37567,1,0,0:0:0:0:
192,192,37704,1,0,0:0:0:70:DrumC1.wav
64,192,37704,1,0,0:0:0:0:
448,192,37704,1,0,0:0:0:0:
320,192,37772,1,0,0:0:0:0:
192,192,37840,1,0,0:0:0:0:
448,192,37976,1,0,0:0:0:70:Bass.wav
320,192,37976,1,0,0:0:0:0:
64,192,38113,1,0,0:0:0:0:
320,192,38181,1,0,0:0:0:0:
64,192,38249,1,0,0:0:0:0:
448,192,38385,1,0,0:0:0:0:
192,192,38522,1,0,0:0:0:0:
64,192,38522,1,0,0:0:0:70:Bass.wav
320,192,38658,1,0,0:0:0:0:
192,192,38726,1,0,0:0:0:0:
448,192,38795,1,0,0:0:0:0:
64,192,38795,1,0,0:0:0:70:DrumC1.wav
320,192,38829,1,0,0:0:0:0:
192,192,38863,1,0,0:0:0:0:
448,192,38897,1,0,0:0:0:0:
64,192,38931,1,0,0:0:0:0:
320,192,38965,1,0,0:0:0:0:
192,192,38999,1,0,0:0:0:0:
448,192,39033,1,0,0:0:0:0:
64,192,39067,1,0,0:0:0:0:
320,192,39135,1,0,0:0:0:0:
192,192,39204,1,0,0:0:0:0:
448,192,39272,1,0,0:0:0:0:
64,192,39340,1,0,0:0:0:70:Bass.wav
320,192,39340,1,0,0:0:0:0:
192,192,39476,1,0,0:0:0:0:
448,192,39613,1,0,0:0:0:0:
320,192,39749,1,0,0:0:0:0:
192,192,39885,1,0,0:0:0:70:DrumC1.wav
64,192,39885,1,0,0:0:0:0:
448,192,39885,1,0,0:0:0:0:
320,192,39954,1,0,0:0:0:0:
192,192,40022,1,0,0:0:0:0:
320,192,40158,1,0,0:0:0:0:
448,192,40158,1,0,0:0:0:70:Bass.wav
64,192,40295,1,0,0:0:0:0:
320,192,40363,1,0,0:0:0:0:
64,192,40431,1,0,0:0:0:0:
192,192,40567,1,0,0:0:0:0:
448,192,40704,1,0,0:0:0:70:Bass.wav
320,192,40704,1,0,0:0:0:0:
192,192,40840,1,0,0:0:0:0:
320,192,40908,1,0,0:0:0:0:
192,192,40976,1,0,0:0:0:70:DrumC1.wav
64,192,40976,1,0,0:0:0:0:
448,192,40976,1,0,0:0:0:0:
320,192,41113,1,0,0:0:0:0:
64,192,41249,1,0,0:0:0:0:
448,192,41317,1,0,0:0:0:0:
64,192,41385,1,0,0:0:0:0:
448,192,41454,1,0,0:0:0:0:
192,192,41522,1,0,0:0:0:0:
64,192,41522,1,0,0:0:0:70:Bass.wav
320,192,41658,1,0,0:0:0:0:
64,192,41795,1,0,0:0:0:0:
448,192,41795,1,0,0:0:0:0:
192,192,41931,1,0,0:0:0:0:
64,192,42067,1,0,0:0:0:0:
448,192,42067,1,0,0:0:0:0:
320,192,42204,1,0,0:0:0:0:
64,192,42340,1,0,0:0:0:0:
448,192,42340,1,0,0:0:0:0:
192,192,42476,1,0,0:0:0:0:
448,192,42545,1,0,0:0:0:0:
192,192,42613,1,0,0:0:0:0:
320,192,42749,1,0,0:0:0:0:
448,192,42885,1,0,0:0:0:0:
64,192,42885,1,0,0:0:0:0:
192,192,43022,1,0,0:0:0:0:
320,192,43090,1,0,0:0:0:0:
448,192,43158,1,0,0:0:0:0:
192,192,43192,1,0,0:0:0:0:
320,192,43226,1,0,0:0:0:0:
64,192,43260,1,0,0:0:0:0:
448,192,43295,1,0,0:0:0:0:
192,192,43329,1,0,0:0:0:0:
320,192,43363,1,0,0:0:0:0:
64,192,43397,1,0,0:0:0:0:
448,192,43431,1,0,0:0:0:0:
192,192,43499,1,0,0:0:0:0:
320,192,43567,1,0,0:0:0:0:
64,192,43635,1,0,0:0:0:0:
448,192,43704,1,0,0:0:0:70:finish.wav
192,192,43704,1,0,0:0:0:70:Bass.wav
320,192,43704,1,0,0:0:0:0:
64,192,43840,1,0,0:0:0:0:
192,192,43908,1,0,0:0:0:0:
448,192,43976,1,0,0:0:0:0:
64,192,43976,1,0,0:0:0:0:
192,192,44113,1,0,0:0:0:0:
448,192,44249,1,0,0:0:0:0:
64,192,44249,1,0,0:0:0:0:
320,192,44385,1,0,0:0:0:0:
448,192,44522,1,0,0:0:0:0:
64,192,44522,1,0,0:0:0:0:
320,192,44556,1,0,0:0:0:0:
192,192,44590,1,0,0:0:0:0:
64,192,44624,1,0,0:0:0:0:
448,192,44658,1,0,0:0:0:0:
320,192,44726,1,0,0:0:0:0:
448,192,44795,1,0,0:0:0:0:
64,192,44795,1,0,0:0:0:0:
192,192,44931,1,0,0:0:0:0:
448,192,45067,1,0,0:0:0:0:
64,192,45067,1,0,0:0:0:0:
320,192,45204,1,0,0:0:0:0:
448,192,45340,1,0,0:0:0:0:
64,192,45340,1,0,0:0:0:0:
192,192,45476,1,0,0:0:0:0:
64,192,45613,1,0,0:0:0:0:
448,192,45613,1,0,0:0:0:0:
320,192,45749,1,0,0:0:0:0:
448,192,45885,1,0,0:0:0:0:
64,192,45885,1,0,0:0:0:0:
192,192,45920,1,0,0:0:0:0:
320,192,45954,1,0,0:0:0:0:
448,192,45988,1,0,0:0:0:0:
64,192,46022,1,0,0:0:0:0:
192,192,46090,1,0,0:0:0:0:
64,192,46158,1,0,0:0:0:0:
448,192,46158,1,0,0:0:0:0:
192,192,46295,1,0,0:0:0:0:
64,192,46431,1,0,0:0:0:0:
448,192,46431,1,0,0:0:0:0:
320,192,46567,1,0,0:0:0:0:
448,192,46704,1,0,0:0:0:0:
64,192,46704,1,0,0:0:0:0:
192,192,46738,1,0,0:0:0:0:
320,192,46772,1,0,0:0:0:0:
448,192,46806,1,0,0:0:0:0:
64,192,46840,1,0,0:0:0:0:
192,192,46908,1,0,0:0:0:0:
64,192,46976,1,0,0:0:0:0:
448,192,46976,1,0,0:0:0:0:
192,192,47113,1,0,0:0:0:0:
448,192,47249,1,0,0:0:0:0:
64,192,47249,1,0,0:0:0:0:
320,192,47385,1,0,0:0:0:0:
64,192,47522,1,0,0:0:0:0:
448,192,47522,1,0,0:0:0:0:
192,192,47658,1,0,0:0:0:0:
64,192,47795,1,0,0:0:0:0:
448,192,47795,1,0,0:0:0:0:
320,192,47931,1,0,0:0:0:0:
448,192,48067,1,0,0:0:0:0:
64,192,48067,1,0,0:0:0:0:
320,192,48101,1,0,0:0:0:0:
192,192,48135,1,0,0:0:0:0:
64,192,48170,1,0,0:0:0:0:
448,192,48204,1,0,0:0:0:0:
320,192,48272,1,0,0:0:0:0:
448,192,48340,1,0,0:0:0:0:
64,192,48340,1,0,0:0:0:0:
320,192,48476,1,0,0:0:0:0:
448,192,48613,1,0,0:0:0:0:
64,192,48613,1,0,0:0:0:0:
192,192,48749,1,0,0:0:0:0:
64,192,48885,1,0,0:0:0:0:
448,192,48885,1,0,0:0:0:0:
320,192,48920,1,0,0:0:0:0:
192,192,48954,1,0,0:0:0:0:
64,192,48988,1,0,0:0:0:0:
448,192,49022,1,0,0:0:0:0:
320,192,49090,1,0,0:0:0:0:
448,192,49158,1,0,0:0:0:0:
64,192,49158,1,0,0:0:0:0:
192,192,49295,1,0,0:0:0:0:
64,192,49431,1,0,0:0:0:0:
448,192,49431,1,0,0:0:0:0:
320,192,49567,1,0,0:0:0:0:
448,192,49704,1,0,0:0:0:0:
64,192,49704,1,0,0:0:0:0:
192,192,49840,1,0,0:0:0:0:
448,192,49976,1,0,0:0:0:0:
64,192,49976,1,0,0:0:0:0:
320,192,50113,1,0,0:0:0:0:
64,192,50249,1,0,0:0:0:0:
448,192,50249,1,0,0:0:0:0:
192,192,50283,1,0,0:0:0:0:
320,192,50317,1,0,0:0:0:0:
448,192,50351,1,0,0:0:0:0:
64,192,50385,1,0,0:0:0:0:
192,192,50454,1,0,0:0:0:0:
64,192,50522,1,0,0:0:0:0:
448,192,50522,1,0,0:0:0:0:
320,192,50658,1,0,0:0:0:0:
448,192,50795,1,0,0:0:0:0:
64,192,50795,1,0,0:0:0:0:
192,192,50931,1,0,0:0:0:0:
448,192,51067,1,0,0:0:0:0:
64,192,51067,1,0,0:0:0:0:
192,192,51101,1,0,0:0:0:0:
320,192,51135,1,0,0:0:0:0:
448,192,51170,1,0,0:0:0:0:
64,192,51204,1,0,0:0:0:0:
192,192,51272,5,0,0:0:0:0:
64,192,51340,1,0,0:0:0:0:
448,192,51340,1,0,0:0:0:0:
320,192,51476,1,0,0:0:0:0:
64,192,51613,1,0,0:0:0:0:
448,192,51613,1,0,0:0:0:0:
192,192,51749,1,0,0:0:0:0:
448,192,51885,1,0,0:0:0:0:
64,192,51885,1,0,0:0:0:0:
320,192,52022,1,0,0:0:0:0:
192,192,52158,1,0,0:0:0:0:
448,192,52158,1,0,0:0:0:0:
64,192,52295,1,0,0:0:0:0:
192,192,52431,5,2,0:0:0:0:
448,192,52431,128,0,52567:0:0:0:0:
320,192,52431,1,0,0:0:0:70:finish.wav
64,192,52499,1,0,0:0:0:0:
192,192,52567,1,0,0:0:0:0:
320,192,52635,1,0,0:0:0:0:
448,192,52704,128,0,52840:0:0:0:0:
64,192,52704,1,2,0:0:0:0:
192,192,52772,1,0,0:0:0:0:
64,192,52840,1,0,0:0:0:0:
320,192,52908,1,0,0:0:0:0:
192,192,52976,1,2,0:0:0:0:
448,192,52976,128,0,53113:0:0:0:0:
64,192,53045,1,0,0:0:0:0:
192,192,53113,1,0,0:0:0:0:
320,192,53181,1,0,0:0:0:0:
448,192,53249,128,0,53385:0:0:0:0:
64,192,53249,1,2,0:0:0:0:
192,192,53317,1,0,0:0:0:0:
64,192,53385,1,0,0:0:0:0:
320,192,53454,1,0,0:0:0:0:
192,192,53522,1,2,0:0:0:0:
448,192,53522,128,0,53658:0:0:0:0:
64,192,53590,1,0,0:0:0:0:
192,192,53658,1,0,0:0:0:0:
320,192,53726,1,0,0:0:0:0:
448,192,53795,128,0,53931:0:0:0:0:
64,192,53795,1,2,0:0:0:0:
192,192,53863,1,0,0:0:0:0:
64,192,53931,1,0,0:0:0:0:
320,192,53999,1,0,0:0:0:0:
192,192,54067,1,2,0:0:0:0:
448,192,54067,128,0,54204:0:0:0:0:
64,192,54135,1,0,0:0:0:0:
192,192,54204,1,0,0:0:0:0:
320,192,54272,1,0,0:0:0:0:
448,192,54340,128,0,54476:0:0:0:0:
64,192,54340,1,2,0:0:0:0:
192,192,54408,1,0,0:0:0:0:
64,192,54476,1,0,0:0:0:0:
320,192,54545,1,0,0:0:0:0:
192,192,54613,1,2,0:0:0:0:
448,192,54613,128,0,54749:0:0:0:0:
64,192,54681,1,0,0:0:0:0:
192,192,54749,1,0,0:0:0:0:
320,192,54817,1,0,0:0:0:0:
448,192,54885,128,0,55022:0:0:0:0:
64,192,54885,1,2,0:0:0:0:
192,192,54954,1,0,0:0:0:0:
64,192,55022,1,0,0:0:0:0:
320,192,55090,1,0,0:0:0:0:
192,192,55158,1,2,0:0:0:0:
448,192,55158,128,0,55295:0:0:0:0:
64,192,55226,1,0,0:0:0:0:
192,192,55295,1,0,0:0:0:0:
320,192,55363,1,0,0:0:0:0:
448,192,55431,128,0,55567:0:0:0:0:
64,192,55431,1,2,0:0:0:0:
192,192,55499,1,0,0:0:0:0:
64,192,55567,1,0,0:0:0:0:
320,192,55635,1,0,0:0:0:0:
192,192,55704,1,2,0:0:0:0:
448,192,55704,128,0,55840:0:0:0:0:
64,192,55772,1,0,0:0:0:0:
192,192,55840,1,0,0:0:0:0:
320,192,55908,1,0,0:0:0:0:
448,192,55976,128,0,56113:0:0:0:0:
64,192,55976,1,2,0:0:0:0:
192,192,56045,1,0,0:0:0:0:
64,192,56113,1,0,0:0:0:0:
320,192,56181,1,0,0:0:0:0:
192,192,56249,1,2,0:0:0:0:
448,192,56249,128,0,56385:0:0:0:0:
64,192,56317,1,0,0:0:0:0:
192,192,56385,1,0,0:0:0:0:
320,192,56454,1,0,0:0:0:0:
448,192,56522,128,0,56658:0:0:0:0:
64,192,56522,1,2,0:0:0:0:
192,192,56590,1,0,0:0:0:0:
64,192,56658,1,0,0:0:0:0:
320,192,56726,1,0,0:0:0:0:
64,192,56795,1,2,0:0:0:0:
192,192,56795,1,0,0:0:0:0:
448,192,56795,1,0,0:0:0:0:
320,192,56863,1,0,0:0:0:0:
448,192,56931,1,2,0:0:0:0:
192,192,56931,1,0,0:0:0:0:
64,192,56999,1,0,0:0:0:0:
448,192,57067,1,0,0:0:0:0:
320,192,57067,1,2,0:0:0:0:
192,192,57067,1,0,0:0:0:0:
64,192,57135,1,0,0:0:0:0:
192,192,57204,1,0,0:0:0:0:
448,192,57204,1,2,0:0:0:0:
320,192,57272,1,0,0:0:0:0:
448,192,57340,1,0,0:0:0:0:
64,192,57340,1,2,0:0:0:0:
192,192,57340,1,0,0:0:0:0:
320,192,57408,1,0,0:0:0:0:
448,192,57476,1,0,0:0:0:0:
192,192,57476,1,2,0:0:0:0:
64,192,57545,1,0,0:0:0:0:
192,192,57613,1,0,0:0:0:0:
320,192,57613,1,2,0:0:0:0:
448,192,57613,1,0,0:0:0:0:
64,192,57681,1,0,0:0:0:0:
192,192,57749,1,0,0:0:0:0:
448,192,57749,1,2,0:0:0:0:
320,192,57817,1,0,0:0:0:0:
64,192,57885,128,0,57954:0:0:0:0:
192,192,57885,1,2,0:0:0:0:
448,192,57954,128,0,58022:0:0:0:0:
320,192,57954,1,2,0:0:0:0:
64,192,58022,128,0,58090:0:0:0:0:
192,192,58022,1,2,0:0:0:0:
448,192,58090,128,0,58158:0:0:0:0:
320,192,58090,1,2,0:0:0:0:
64,192,58158,128,0,58226:0:0:0:0:
192,192,58158,1,2,0:0:0:0:
448,192,58226,128,0,58295:0:0:0:0:
320,192,58226,1,2,0:0:0:0:
64,192,58295,128,0,58363:0:0:0:0:
192,192,58295,1,2,0:0:0:0:
448,192,58363,128,0,58431:0:0:0:0:
320,192,58363,1,2,0:0:0:0:
64,192,58431,128,0,58499:0:0:0:0:
192,192,58431,1,2,0:0:0:0:
448,192,58499,128,0,58567:0:0:0:0:
320,192,58499,1,2,0:0:0:0:
64,192,58567,128,0,58635:0:0:0:0:
192,192,58567,1,2,0:0:0:0:
448,192,58635,128,0,58704:0:0:0:0:
320,192,58635,1,2,0:0:0:0:
64,192,58704,128,0,58772:0:0:0:0:
192,192,58704,1,2,0:0:0:0:
448,192,58772,128,0,58840:0:0:0:0:
320,192,58772,1,2,0:0:0:0:
64,192,58840,128,0,58908:0:0:0:0:
192,192,58840,1,2,0:0:0:0:
448,192,58908,128,0,58976:0:0:0:0:
320,192,58908,1,2,0:0:0:0:
64,192,58976,1,0,0:0:0:0:
192,192,58976,1,2,0:0:0:0:
320,192,59158,1,0,0:0:0:0:
448,192,59249,1,0,0:0:0:0:
192,192,59249,1,2,0:0:0:0:
320,192,59431,1,0,0:0:0:0:
448,192,59522,1,2,0:0:0:0:
64,192,59522,1,0,0:0:0:0:
192,192,59522,1,0,0:0:0:0:
64,192,59704,1,0,0:0:0:0:
320,192,59795,128,0,59931:0:0:0:0:
192,192,59795,128,2,59931:0:0:0:0:
64,192,59931,1,2,0:0:0:0:
448,192,59931,1,0,0:0:0:0:
320,192,60067,128,2,60204:0:0:0:0:
192,192,60067,128,0,60204:0:0:0:0:
448,192,60204,1,0,0:0:0:0:
64,192,60204,1,2,0:0:0:0:
64,192,60340,128,0,60476:0:0:0:0:
448,192,60340,128,2,60476:0:0:0:0:
320,192,60476,1,2,0:0:0:0:
192,192,60476,1,0,0:0:0:0:
64,192,60613,1,0,0:0:0:70:finish.wav
192,192,60613,1,2,0:0:0:0:
320,192,60613,1,0,0:0:0:0:
448,192,60613,1,0,0:0:0:0:
192,192,61158,128,0,61363:0:0:0:0:
64,192,61158,128,0,61363:0:0:0:0:
320,192,61158,1,0,0:0:0:0:
448,192,61158,1,0,0:0:0:70:Bass.wav
64,192,61431,128,0,61635:0:0:0:0:
448,192,61431,128,0,61635:0:0:0:0:
320,192,61704,128,0,61908:0:0:0:0:
448,192,61704,128,0,61908:0:0:0:0:
192,192,61704,1,0,0:0:0:0:
64,192,61704,1,0,0:0:0:70:DrumC1.wav
64,192,61976,1,0,0:0:0:0:
192,192,61976,1,0,0:0:0:70:Bass.wav
320,192,61976,1,0,0:0:0:0:
64,192,62113,128,0,62181:0:0:0:0:
192,192,62113,128,0,62181:0:0:0:0:
64,192,62249,128,0,62317:0:0:0:0:
320,192,62249,128,0,62317:0:0:0:0:
64,192,62385,128,0,62454:0:0:0:0:
448,192,62385,128,0,62454:0:0:0:0:
192,192,62522,1,0,0:0:0:0:
320,192,62522,1,0,0:0:0:70:Bass.wav
448,192,62522,1,0,0:0:0:0:
448,192,62658,128,0,62726:0:0:0:0:
320,192,62658,128,0,62726:0:0:0:0:
192,192,62795,128,0,62863:0:0:0:70:DrumC1.wav
448,192,62795,128,0,62863:0:0:0:0:
448,192,62931,128,0,62999:0:0:0:0:
64,192,62931,128,0,62999:0:0:0:0:
64,192,63067,128,0,63135:0:0:0:0:
320,192,63067,128,0,63135:0:0:0:0:
192,192,63204,128,0,63272:0:0:0:0:
64,192,63204,128,0,63272:0:0:0:0:
64,192,63340,1,0,0:0:0:0:
192,192,63340,1,0,0:0:0:0:
320,192,63340,1,0,0:0:0:70:Bass.wav
64,192,63476,128,0,63545:0:0:0:0:
192,192,63476,128,0,63545:0:0:0:0:
64,192,63613,128,0,63681:0:0:0:0:
320,192,63613,128,0,63681:0:0:0:0:
64,192,63749,128,0,63817:0:0:0:0:
448,192,63749,128,0,63817:0:0:0:0:
448,192,63885,128,0,63954:0:0:0:0:
192,192,63885,128,0,63954:0:0:0:70:DrumC1.wav
448,192,64022,128,0,64090:0:0:0:0:
320,192,64022,128,0,64090:0:0:0:0:
448,192,64158,1,0,0:0:0:0:
192,192,64158,1,0,0:0:0:70:Bass.wav
320,192,64158,1,0,0:0:0:0:
192,192,64295,128,0,64363:0:0:0:0:
64,192,64295,128,0,64363:0:0:0:0:
448,192,64431,128,0,64499:0:0:0:0:
320,192,64431,128,0,64499:0:0:0:0:
192,192,64499,128,0,64567:0:0:0:0:
64,192,64499,128,0,64567:0:0:0:0:
320,192,64567,128,0,64635:0:0:0:0:
448,192,64567,128,0,64635:0:0:0:0:
64,192,64635,128,0,64704:0:0:0:0:
192,192,64635,128,0,64704:0:0:0:0:
320,192,64704,1,0,0:0:0:70:Bass.wav
448,192,64704,1,0,0:0:0:0:
320,192,64840,128,0,64908:0:0:0:0:
64,192,64840,128,0,64908:0:0:0:0:
448,192,64976,128,0,65045:0:0:0:0:
192,192,64976,128,0,65045:0:0:0:70:DrumC1.wav
64,192,65113,128,0,65181:0:0:0:0:
320,192,65113,128,0,65181:0:0:0:0:
448,192,65249,128,0,65454:0:0:0:0:
64,192,65249,128,0,65454:0:0:0:0:
448,192,65522,128,0,65726:0:0:0:0:
320,192,65522,128,0,65726:0:0:0:0:
192,192,65522,1,0,0:0:0:70:Bass.wav
64,192,65522,1,0,0:0:0:0:
64,192,65795,128,0,65999:0:0:0:0:
448,192,65795,128,0,65999:0:0:0:0:
64,192,66067,128,0,66272:0:0:0:0:
192,192,66067,128,0,66272:0:0:0:0:
448,192,66067,1,0,0:0:0:0:
320,192,66067,1,0,0:0:0:70:DrumC1.wav
192,192,66340,1,0,0:0:0:70:Bass.wav
64,192,66340,1,0,0:0:0:0:
448,192,66340,128,0,66476:0:0:0:0:
320,192,66476,1,0,0:0:0:0:
192,192,66545,1,0,0:0:0:0:
64,192,66613,128,0,66749:0:0:0:0:
448,192,66613,128,0,66749:0:0:0:0:
192,192,66885,1,0,0:0:0:0:
64,192,66885,1,0,0:0:0:70:Bass.wav
320,192,66885,128,0,67022:0:0:0:0:
448,192,67022,128,0,67158:0:0:0:0:
192,192,67022,128,0,67090:0:0:0:0:
320,192,67090,128,0,67158:0:0:0:0:
64,192,67158,128,0,67295:0:0:0:70:DrumC1.wav
64,192,67431,128,0,67567:0:0:0:0:
320,192,67431,128,0,67567:0:0:0:0:
448,192,67567,128,0,67704:0:0:0:0:
192,192,67567,128,0,67635:0:0:0:0:
320,192,67635,128,0,67704:0:0:0:0:
64,192,67704,128,0,67840:0:0:0:70:Bass.wav
64,192,67976,128,0,68113:0:0:0:0:
192,192,67976,128,0,68113:0:0:0:0:
448,192,68113,128,0,68249:0:0:0:0:
320,192,68113,128,0,68181:0:0:0:0:
192,192,68181,128,0,68249:0:0:0:0:
64,192,68249,128,0,68385:0:0:0:70:DrumC1.wav
192,192,68522,1,0,0:0:0:70:Bass.wav
64,192,68522,1,0,0:0:0:0:
320,192,68522,128,0,68658:0:0:0:0:
192,192,68658,128,0,68726:0:0:0:0:
448,192,68658,128,0,68795:0:0:0:0:
320,192,68726,128,0,68795:0:0:0:0:
64,192,68795,128,0,68931:0:0:0:0:
64,192,69067,1,0,0:0:0:70:Bass.wav
192,192,69067,128,0,69204:0:0:0:0:
320,192,69067,128,0,69135:0:0:0:0:
448,192,69135,128,0,69204:0:0:0:0:
64,192,69204,128,0,69340:0:0:0:0:
320,192,69204,128,0,69340:0:0:0:0:
192,192,69340,128,0,69408:0:0:0:70:DrumC1.wav
448,192,69340,128,0,69408:0:0:0:0:
448,192,69476,128,0,69545:0:0:0:0:
192,192,69476,128,0,69545:0:0:0:0:
320,192,69613,128,0,69681:0:0:0:0:
64,192,69613,128,0,69681:0:0:0:0:
320,192,69749,128,0,69817:0:0:0:0:
64,192,69749,128,0,69817:0:0:0:0:
448,192,69885,128,0,70090:0:0:0:70:Bass.wav
192,192,69885,128,0,70090:0:0:0:0:
320,192,69885,128,0,70090:0:0:0:0:
320,192,70158,128,0,70363:0:0:0:0:
192,192,70158,128,0,70363:0:0:0:0:
64,192,70158,128,0,70363:0:0:0:0:
320,192,70431,128,0,70635:0:0:0:0:
448,192,70431,128,0,70635:0:0:0:0:
192,192,70431,128,0,70635:0:0:0:0:
64,192,70431,128,0,70635:0:0:0:70:DrumC1.wav
64,192,70704,1,0,0:0:0:0:
192,192,70704,1,0,0:0:0:0:
320,192,70704,1,0,0:0:0:70:Bass.wav
64,192,70840,128,0,70908:0:0:0:0:
320,192,70840,128,0,70908:0:0:0:0:
320,192,70976,128,0,71045:0:0:0:0:
64,192,70976,128,0,71045:0:0:0:0:
64,192,71113,128,0,71181:0:0:0:0:
320,192,71113,128,0,71181:0:0:0:0:
320,192,71249,1,0,0:0:0:0:
448,192,71249,1,0,0:0:0:0:
192,192,71249,1,0,0:0:0:70:Bass.wav
320,192,71385,128,0,71454:0:0:0:0:
64,192,71385,128,0,71454:0:0:0:0:
64,192,71522,128,0,71590:0:0:0:0:
320,192,71522,128,0,71590:0:0:0:70:DrumC1.wav
448,192,71658,128,0,71726:0:0:0:0:
64,192,71658,128,0,71726:0:0:0:0:
448,192,71795,128,0,71863:0:0:0:0:
192,192,71795,128,0,71863:0:0:0:0:
448,192,71931,128,0,71999:0:0:0:0:
192,192,71931,128,0,71999:0:0:0:0:
64,192,72067,1,0,0:0:0:0:
192,192,72067,1,0,0:0:0:70:Bass.wav
320,192,72067,1,0,0:0:0:0:
192,192,72204,128,0,72272:0:0:0:0:
448,192,72204,128,0,72272:0:0:0:0:
192,192,72340,128,0,72408:0:0:0:0:
448,192,72340,128,0,72408:0:0:0:0:
192,192,72476,128,0,72545:0:0:0:0:
448,192,72476,128,0,72545:0:0:0:0:
192,192,72613,128,0,72681:0:0:0:0:
320,192,72613,128,0,72681:0:0:0:70:DrumC1.wav
320,192,72749,128,0,72817:0:0:0:0:
192,192,72749,128,0,72817:0:0:0:0:
320,192,72885,1,0,0:0:0:0:
64,192,72885,1,0,0:0:0:70:Bass.wav
192,192,72885,1,0,0:0:0:0:
320,192,73022,128,0,73090:0:0:0:0:
192,192,73022,128,0,73090:0:0:0:0:
320,192,73158,128,0,73226:0:0:0:0:
192,192,73158,128,0,73226:0:0:0:0:
64,192,73226,128,0,73295:0:0:0:0:
448,192,73226,128,0,73295:0:0:0:0:
192,192,73295,128,0,73363:0:0:0:0:
320,192,73295,128,0,73363:0:0:0:0:
448,192,73363,128,0,73431:0:0:0:0:
64,192,73363,128,0,73431:0:0:0:0:
192,192,73431,1,0,0:0:0:70:Bass.wav
320,192,73431,1,0,0:0:0:0:
448,192,73567,128,0,73635:0:0:0:0:
192,192,73567,128,0,73635:0:0:0:0:
448,192,73704,128,0,73772:0:0:0:70:DrumC1.wav
64,192,73704,128,0,73772:0:0:0:0:
320,192,73840,128,0,73908:0:0:0:0:
64,192,73840,128,0,73908:0:0:0:0:
448,192,73976,128,0,74181:0:0:0:0:
320,192,73976,128,0,74181:0:0:0:0:
192,192,73976,128,0,74181:0:0:0:0:
64,192,73976,128,0,74181:0:0:0:0:
64,192,74249,128,0,74522:0:0:0:0:
448,192,74249,128,0,74522:0:0:0:0:
192,192,74249,1,0,0:0:0:70:Bass.wav
320,192,74249,1,0,0:0:0:0:
320,192,74522,128,0,74795:0:0:0:0:
192,192,74522,128,0,74795:0:0:0:0:
448,192,74795,1,0,0:0:0:70:DrumC1.wav
64,192,74795,1,0,0:0:0:0:
192,192,74863,1,0,0:0:0:0:
320,192,74863,1,0,0:0:0:0:
64,192,74931,1,0,0:0:0:0:
448,192,74931,1,0,0:0:0:0:
192,192,75067,1,0,0:0:0:70:Bass.wav
320,192,75067,1,0,0:0:0:0:
448,192,75067,1,0,0:0:0:0:
64,192,75204,1,0,0:0:0:0:
320,192,75204,1,0,0:0:0:0:
192,192,75272,1,0,0:0:0:0:
448,192,75272,1,0,0:0:0:0:
64,192,75340,1,0,0:0:0:0:
320,192,75340,1,0,0:0:0:0:
448,192,75476,1,0,0:0:0:0:
192,192,75476,1,0,0:0:0:0:
192,192,75613,1,0,0:0:0:0:
64,192,75613,1,0,0:0:0:0:
320,192,75613,1,0,0:0:0:70:Bass.wav
64,192,75749,1,0,0:0:0:0:
448,192,75749,1,0,0:0:0:0:
320,192,75885,1,0,0:0:0:0:
448,192,75885,1,0,0:0:0:0:
192,192,75885,1,0,0:0:0:70:DrumC1.wav
64,192,75885,1,0,0:0:0:0:
448,192,76022,1,0,0:0:0:0:
192,192,76022,1,0,0:0:0:0:
320,192,76090,1,0,0:0:0:0:
64,192,76090,1,0,0:0:0:0:
448,192,76158,1,0,0:0:0:0:
192,192,76158,1,0,0:0:0:0:
64,192,76295,1,0,0:0:0:0:
320,192,76295,1,0,0:0:0:0:
320,192,76431,1,0,0:0:0:70:Bass.wav
64,192,76431,1,0,0:0:0:0:
192,192,76431,128,0,76704:0:0:0:0:
448,192,76431,128,0,76704:0:0:0:0:
64,192,76704,128,0,76976:0:0:0:0:
320,192,76704,128,0,76976:0:0:0:0:
448,192,76976,1,0,0:0:0:0:
192,192,76976,1,0,0:0:0:70:DrumC1.wav
320,192,77045,1,0,0:0:0:0:
64,192,77045,1,0,0:0:0:0:
192,192,77113,1,0,0:0:0:0:
448,192,77113,1,0,0:0:0:0:
64,192,77249,1,0,0:0:0:0:
192,192,77249,1,0,0:0:0:0:
320,192,77249,1,0,0:0:0:70:Bass.wav
448,192,77385,1,0,0:0:0:0:
64,192,77385,1,0,0:0:0:0:
192,192,77454,1,0,0:0:0:0:
320,192,77454,1,0,0:0:0:0:
448,192,77522,1,0,0:0:0:0:
64,192,77522,1,0,0:0:0:0:
320,192,77658,1,0,0:0:0:0:
192,192,77658,1,0,0:0:0:0:
192,192,77795,1,0,0:0:0:70:Bass.wav
320,192,77795,1,0,0:0:0:0:
448,192,77795,1,0,0:0:0:0:
64,192,77931,1,0,0:0:0:0:
448,192,77931,1,0,0:0:0:0:
64,192,78067,1,0,0:0:0:0:
320,192,78067,1,0,0:0:0:70:DrumC1.wav
448,192,78067,1,0,0:0:0:0:
192,192,78067,1,0,0:0:0:70:finish.wav
192,192,78613,5,2,0:0:0:0:
64,192,78613,128,0,78749:0:0:0:0:
320,192,78613,1,0,0:0:0:0:
448,192,78681,1,0,0:0:0:0:
320,192,78749,1,0,0:0:0:0:
192,192,78817,1,0,0:0:0:0:
448,192,78885,1,2,0:0:0:0:
64,192,78885,128,0,79022:0:0:0:0:
320,192,78954,1,0,0:0:0:0:
448,192,79022,1,0,0:0:0:0:
192,192,79090,1,0,0:0:0:0:
64,192,79158,128,0,79295:0:0:0:0:
320,192,79158,1,2,0:0:0:0:
448,192,79226,1,0,0:0:0:0:
320,192,79295,1,0,0:0:0:0:
192,192,79363,1,0,0:0:0:0:
448,192,79431,1,2,0:0:0:0:
64,192,79431,128,0,79567:0:0:0:0:
320,192,79499,1,0,0:0:0:0:
448,192,79567,1,0,0:0:0:0:
192,192,79635,1,0,0:0:0:0:
64,192,79704,128,0,79840:0:0:0:0:
320,192,79704,1,2,0:0:0:0:
448,192,79772,1,0,0:0:0:0:
320,192,79840,1,0,0:0:0:0:
192,192,79908,1,0,0:0:0:0:
448,192,79976,1,2,0:0:0:0:
64,192,79976,128,0,80113:0:0:0:0:
320,192,80045,1,0,0:0:0:0:
448,192,80113,1,0,0:0:0:0:
192,192,80181,1,0,0:0:0:0:
64,192,80249,128,0,80385:0:0:0:0:
320,192,80249,1,2,0:0:0:0:
448,192,80317,1,0,0:0:0:0:
320,192,80385,1,0,0:0:0:0:
192,192,80454,1,0,0:0:0:0:
448,192,80522,1,2,0:0:0:0:
64,192,80522,128,0,80658:0:0:0:0:
320,192,80590,1,0,0:0:0:0:
448,192,80658,1,0,0:0:0:0:
192,192,80726,1,0,0:0:0:0:
320,192,80795,1,2,0:0:0:0:
64,192,80795,128,0,80931:0:0:0:0:
448,192,80863,1,0,0:0:0:0:
320,192,80931,1,0,0:0:0:0:
192,192,80999,1,0,0:0:0:0:
448,192,81067,1,2,0:0:0:0:
64,192,81067,128,0,81204:0:0:0:0:
320,192,81135,1,0,0:0:0:0:
448,192,81204,1,0,0:0:0:0:
192,192,81272,1,0,0:0:0:0:
320,192,81340,1,2,0:0:0:0:
64,192,81340,128,0,81476:0:0:0:0:
448,192,81408,1,0,0:0:0:0:
320,192,81476,1,0,0:0:0:0:
192,192,81545,1,0,0:0:0:0:
448,192,81613,1,2,0:0:0:0:
64,192,81613,128,0,81749:0:0:0:0:
320,192,81681,1,0,0:0:0:0:
448,192,81749,1,0,0:0:0:0:
192,192,81817,1,0,0:0:0:0:
320,192,81885,1,2,0:0:0:0:
64,192,81885,128,0,82022:0:0:0:0:
448,192,81954,1,0,0:0:0:0:
320,192,82022,1,0,0:0:0:0:
192,192,82090,1,0,0:0:0:0:
448,192,82158,1,2,0:0:0:0:
64,192,82158,128,0,82295:0:0:0:0:
320,192,82226,1,0,0:0:0:0:
448,192,82295,1,0,0:0:0:0:
192,192,82363,1,0,0:0:0:0:
320,192,82431,1,2,0:0:0:0:
64,192,82431,128,0,82567:0:0:0:0:
448,192,82499,1,0,0:0:0:0:
320,192,82567,1,0,0:0:0:0:
192,192,82635,1,0,0:0:0:0:
448,192,82704,1,2,0:0:0:0:
64,192,82704,128,0,82840:0:0:0:0:
320,192,82772,1,0,0:0:0:0:
192,192,82840,1,0,0:0:0:0:
320,192,82908,1,0,0:0:0:0:
192,192,82976,1,2,0:0:0:0:
448,192,82976,1,0,0:0:0:0:
64,192,82976,1,0,0:0:0:0:
320,192,83045,1,0,0:0:0:0:
192,192,83113,1,0,0:0:0:0:
448,192,83113,1,2,0:0:0:0:
64,192,83181,1,0,0:0:0:0:
192,192,83249,1,0,0:0:0:0:
320,192,83249,1,2,0:0:0:0:
448,192,83249,1,0,0:0:0:0:
64,192,83317,1,0,0:0:0:0:
192,192,83385,1,0,0:0:0:0:
448,192,83385,1,2,0:0:0:0:
320,192,83454,1,0,0:0:0:0:
448,192,83522,1,0,0:0:0:0:
192,192,83522,1,0,0:0:0:0:
64,192,83522,1,2,0:0:0:0:
320,192,83590,1,0,0:0:0:0:
192,192,83658,1,0,0:0:0:0:
448,192,83658,1,2,0:0:0:0:
64,192,83726,1,0,0:0:0:0:
192,192,83795,1,0,0:0:0:0:
448,192,83795,1,0,0:0:0:0:
320,192,83795,1,2,0:0:0:0:
64,192,83863,1,0,0:0:0:0:
192,192,83931,1,0,0:0:0:0:
448,192,83931,1,2,0:0:0:0:
320,192,83999,1,0,0:0:0:0:
192,192,84067,1,2,0:0:0:0:
64,192,84067,128,0,84135:0:0:0:0:
320,192,84135,1,2,0:0:0:0:
448,192,84135,128,0,84204:0:0:0:0:
192,192,84204,1,2,0:0:0:0:
64,192,84204,128,0,84272:0:0:0:0:
320,192,84272,1,2,0:0:0:0:
448,192,84272,128,0,84340:0:0:0:0:
192,192,84340,1,2,0:0:0:0:
64,192,84340,128,0,84408:0:0:0:0:
320,192,84408,1,2,0:0:0:0:
448,192,84408,128,0,84476:0:0:0:0:
192,192,84476,1,2,0:0:0:0:
64,192,84476,128,0,84545:0:0:0:0:
320,192,84545,1,2,0:0:0:0:
448,192,84545,128,0,84613:0:0:0:0:
192,192,84613,1,2,0:0:0:0:
64,192,84613,128,0,84681:0:0:0:0:
320,192,84681,1,2,0:0:0:0:
448,192,84681,128,0,84749:0:0:0:0:
192,192,84749,1,2,0:0:0:0:
64,192,84749,128,0,84817:0:0:0:0:
320,192,84817,1,2,0:0:0:0:
448,192,84817,128,0,84885:0:0:0:0:
192,192,84885,1,2,0:0:0:0:
64,192,84885,128,0,84954:0:0:0:0:
320,192,84954,1,2,0:0:0:0:
448,192,84954,128,0,85022:0:0:0:0:
192,192,85022,1,2,0:0:0:0:
64,192,85022,128,0,85090:0:0:0:0:
320,192,85090,1,2,0:0:0:0:
448,192,85090,128,0,85158:0:0:0:0:
192,192,85158,1,2,0:0:0:0:
64,192,85158,1,0,0:0:0:0:
320,192,85340,1,0,0:0:0:0:
192,192,85431,1,0,0:0:0:0:
448,192,85431,1,2,0:0:0:0:
64,192,85499,1,0,0:0:0:0:
320,192,85567,1,0,0:0:0:0:
448,192,85613,1,0,0:0:0:0:
64,192,85658,1,0,0:0:0:0:
192,192,85704,1,2,0:0:0:0:
320,192,85704,1,0,0:0:0:0:
448,192,85749,1,0,0:0:0:0:
64,192,85795,1,0,0:0:0:0:
192,192,85840,1,0,0:0:0:0:
320,192,85885,1,0,0:0:0:0:
448,192,85931,1,0,0:0:0:0:
64,192,85976,1,2,0:0:0:0:
192,192,86022,1,0,0:0:0:0:
64,192,86113,1,0,0:0:0:0:
320,192,86113,1,2,0:0:0:0:
448,192,86158,1,0,0:0:0:0:
192,192,86204,1,0,0:0:0:0:
64,192,86249,1,2,0:0:0:0:
320,192,86249,1,0,0:0:0:0:
448,192,86295,1,0,0:0:0:0:
192,192,86385,1,2,0:0:0:0:
64,192,86385,1,0,0:0:0:0:
320,192,86476,1,0,0:0:0:0:
448,192,86522,1,2,0:0:0:0:
192,192,86522,1,0,0:0:0:0:
320,192,86658,1,0,0:0:0:0:
64,192,86658,1,2,0:0:0:0:
192,192,86749,1,0,0:0:0:0:
320,192,86795,1,2,0:0:0:0:
448,192,86795,1,0,0:0:0:70:LR3_Snare FCSRL.wav
64,192,86795,1,0,0:0:0:0:
320,192,87340,1,0,0:0:0:0:
192,192,87340,1,0,0:0:0:0:
448,192,87340,1,0,0:0:0:70:Bass.wav
320,192,87431,1,0,0:0:0:0:
64,192,87431,1,0,0:0:0:0:
192,192,87522,1,0,0:0:0:0:
64,192,87522,1,0,0:0:0:0:
320,192,87613,1,0,0:0:0:0:
448,192,87613,1,0,0:0:0:0:
448,192,87704,1,0,0:0:0:0:
192,192,87704,1,0,0:0:0:0:
192,192,87795,1,0,0:0:0:0:
64,192,87795,1,0,0:0:0:0:
448,192,87885,128,0,88158:0:0:0:0:
320,192,87885,1,0,0:0:0:70:DrumC1.wav
64,192,87885,1,0,0:0:0:0:
64,192,88158,1,0,0:0:0:70:Bass.wav
192,192,88158,1,0,0:0:0:0:
320,192,88204,1,0,0:0:0:0:
448,192,88249,1,0,0:0:0:0:
64,192,88295,1,0,0:0:0:0:
192,192,88340,1,0,0:0:0:0:
320,192,88385,1,0,0:0:0:0:
448,192,88431,1,0,0:0:0:0:
64,192,88476,1,0,0:0:0:0:
192,192,88522,1,0,0:0:0:0:
320,192,88567,1,0,0:0:0:0:
448,192,88613,1,0,0:0:0:0:
192,192,88658,1,0,0:0:0:0:
64,192,88704,1,0,0:0:0:70:Bass.wav
320,192,88704,1,0,0:0:0:0:
448,192,88749,1,0,0:0:0:0:
192,192,88795,1,0,0:0:0:0:
64,192,88840,1,0,0:0:0:0:
448,192,88885,1,0,0:0:0:0:
320,192,88931,1,0,0:0:0:0:
192,192,88976,1,0,0:0:0:70:DrumC1.wav
64,192,88976,1,0,0:0:0:0:
448,192,89022,1,0,0:0:0:0:
320,192,89067,1,0,0:0:0:0:
192,192,89113,1,0,0:0:0:0:
64,192,89158,1,0,0:0:0:0:
448,192,89204,1,0,0:0:0:0:
320,192,89249,1,0,0:0:0:0:
192,192,89295,1,0,0:0:0:0:
64,192,89340,1,0,0:0:0:0:
448,192,89385,1,0,0:0:0:0:
320,192,89431,1,0,0:0:0:0:
64,192,89476,1,0,0:0:0:0:
192,192,89522,1,0,0:0:0:0:
448,192,89522,1,0,0:0:0:70:Bass.wav
320,192,89567,1,0,0:0:0:0:
64,192,89613,1,0,0:0:0:0:
192,192,89658,1,0,0:0:0:0:
320,192,89704,1,0,0:0:0:0:
448,192,89749,1,0,0:0:0:0:
64,192,89795,1,0,0:0:0:0:
192,192,89840,1,0,0:0:0:0:
320,192,89885,1,0,0:0:0:0:
448,192,89931,1,0,0:0:0:0:
64,192,89976,1,0,0:0:0:0:
192,192,90022,1,0,0:0:0:0:
448,192,90067,1,0,0:0:0:70:DrumC1.wav
320,192,90067,1,0,0:0:0:0:
64,192,90113,1,0,0:0:0:0:
192,192,90158,1,0,0:0:0:0:
448,192,90204,1,0,0:0:0:0:
320,192,90249,1,0,0:0:0:0:
64,192,90295,1,0,0:0:0:0:
192,192,90340,1,0,0:0:0:0:
448,192,90340,1,0,0:0:0:70:Bass.wav
320,192,90385,1,0,0:0:0:0:
64,192,90431,1,0,0:0:0:0:
192,192,90476,1,0,0:0:0:0:
448,192,90522,1,0,0:0:0:0:
320,192,90567,1,0,0:0:0:0:
192,192,90613,1,0,0:0:0:0:
64,192,90658,1,0,0:0:0:0:
448,192,90704,1,0,0:0:0:0:
320,192,90749,1,0,0:0:0:0:
192,192,90795,1,0,0:0:0:0:
64,192,90840,1,0,0:0:0:0:
448,192,90885,1,0,0:0:0:70:Bass.wav
320,192,90885,1,0,0:0:0:0:
192,192,90931,1,0,0:0:0:0:
64,192,90976,1,0,0:0:0:0:
448,192,91022,1,0,0:0:0:0:
320,192,91067,1,0,0:0:0:0:
64,192,91113,1,0,0:0:0:0:
192,192,91158,1,0,0:0:0:70:DrumC1.wav
448,192,91158,1,0,0:0:0:0:
320,192,91204,1,0,0:0:0:0:
64,192,91249,1,0,0:0:0:0:
192,192,91295,1,0,0:0:0:0:
448,192,91340,1,0,0:0:0:0:
320,192,91385,1,0,0:0:0:0:
192,192,91431,1,0,0:0:0:0:
64,192,91476,1,0,0:0:0:0:
448,192,91522,1,0,0:0:0:0:
320,192,91567,1,0,0:0:0:0:
192,192,91613,1,0,0:0:0:0:
64,192,91658,1,0,0:0:0:0:
320,192,91704,1,0,0:0:0:70:Bass.wav
192,192,91704,1,0,0:0:0:0:
448,192,91704,1,0,0:0:0:0:
64,192,91795,1,0,0:0:0:0:
448,192,91795,1,0,0:0:0:0:
192,192,91885,1,0,0:0:0:0:
320,192,91885,1,0,0:0:0:0:
64,192,91976,1,0,0:0:0:0:
448,192,91976,1,0,0:0:0:0:
192,192,92067,1,0,0:0:0:0:
320,192,92067,1,0,0:0:0:0:
64,192,92158,1,0,0:0:0:0:
448,192,92158,1,0,0:0:0:0:
64,192,92249,128,0,92522:0:0:0:0:
320,192,92249,1,0,0:0:0:0:
192,192,92249,1,0,0:0:0:70:DrumC1.wav
448,192,92522,1,0,0:0:0:0:
320,192,92522,1,0,0:0:0:70:Bass.wav
192,192,92590,1,0,0:0:0:0:
64,192,92658,1,0,0:0:0:0:
192,192,92726,1,0,0:0:0:0:
64,192,92795,1,0,0:0:0:0:
192,192,92863,1,0,0:0:0:0:
64,192,92931,1,0,0:0:0:0:
192,192,92999,1,0,0:0:0:0:
64,192,93067,1,0,0:0:0:0:
320,192,93067,1,0,0:0:0:0:
448,192,93067,1,0,0:0:0:70:Bass.wav
192,192,93135,1,0,0:0:0:0:
448,192,93204,1,0,0:0:0:0:
320,192,93249,1,0,0:0:0:0:
192,192,93295,1,0,0:0:0:0:
448,192,93340,1,0,0:0:0:70:DrumC1.wav
64,192,93340,1,0,0:0:0:0:
320,192,93408,1,0,0:0:0:0:
448,192,93476,1,0,0:0:0:0:
320,192,93545,1,0,0:0:0:0:
448,192,93613,1,0,0:0:0:0:
320,192,93681,1,0,0:0:0:0:
64,192,93749,1,0,0:0:0:0:
192,192,93795,1,0,0:0:0:0:
320,192,93840,1,0,0:0:0:0:
448,192,93885,1,0,0:0:0:0:
64,192,93885,1,0,0:0:0:70:Bass.wav
192,192,93954,1,0,0:0:0:0:
64,192,94022,1,0,0:0:0:0:
192,192,94090,1,0,0:0:0:0:
64,192,94158,1,0,0:0:0:0:
192,192,94226,1,0,0:0:0:0:
448,192,94295,1,0,0:0:0:0:
320,192,94340,1,0,0:0:0:0:
192,192,94385,1,0,0:0:0:0:
448,192,94431,1,0,0:0:0:70:DrumC1.wav
64,192,94431,1,0,0:0:0:0:
320,192,94499,1,0,0:0:0:0:
448,192,94567,1,0,0:0:0:0:
320,192,94635,1,0,0:0:0:0:
64,192,94704,1,0,0:0:0:70:Bass.wav
448,192,94704,1,0,0:0:0:0:
192,192,94704,1,0,0:0:0:0:
320,192,94772,1,0,0:0:0:0:
64,192,94840,1,0,0:0:0:0:
192,192,94885,1,0,0:0:0:0:
320,192,94931,1,0,0:0:0:0:
448,192,94976,1,0,0:0:0:0:
64,192,94976,1,0,0:0:0:0:
192,192,95045,1,0,0:0:0:0:
64,192,95113,1,0,0:0:0:0:
192,192,95181,1,0,0:0:0:0:
320,192,95249,1,0,0:0:0:0:
64,192,95249,1,0,0:0:0:0:
448,192,95249,1,0,0:0:0:70:Bass.wav
192,192,95317,1,0,0:0:0:0:
448,192,95385,1,0,0:0:0:0:
320,192,95431,1,0,0:0:0:0:
192,192,95476,1,0,0:0:0:0:
448,192,95522,128,0,95590:0:0:0:70:DrumC1.wav
64,192,95522,128,0,95590:0:0:0:0:
320,192,95658,128,0,95726:0:0:0:0:
64,192,95658,128,0,95726:0:0:0:0:
64,192,95795,128,0,95863:0:0:0:0:
448,192,95795,128,0,95863:0:0:0:0:
64,192,95931,128,0,95999:0:0:0:0:
320,192,95931,128,0,95999:0:0:0:0:
448,192,96067,1,0,0:0:0:0:
320,192,96067,1,0,0:0:0:70:Bass.wav
192,192,96067,1,0,0:0:0:0:
64,192,96158,1,0,0:0:0:0:
448,192,96158,1,0,0:0:0:0:
192,192,96249,1,0,0:0:0:0:
320,192,96249,1,0,0:0:0:0:
64,192,96340,1,0,0:0:0:0:
448,192,96340,1,0,0:0:0:0:
320,192,96431,1,0,0:0:0:0:
192,192,96431,1,0,0:0:0:0:
448,192,96522,1,0,0:0:0:0:
64,192,96522,1,0,0:0:0:0:
448,192,96613,128,0,96885:0:0:0:0:
192,192,96613,1,0,0:0:0:0:
320,192,96613,1,0,0:0:0:70:DrumC1.wav
64,192,96885,1,0,0:0:0:70:Bass.wav
192,192,96885,1,0,0:0:0:0:
320,192,96931,1,0,0:0:0:0:
448,192,96976,1,0,0:0:0:0:
64,192,97022,1,0,0:0:0:0:
192,192,97067,1,0,0:0:0:0:
320,192,97113,1,0,0:0:0:0:
448,192,97158,1,0,0:0:0:0:
64,192,97204,1,0,0:0:0:0:
192,192,97249,1,0,0:0:0:0:
320,192,97295,1,0,0:0:0:0:
448,192,97340,1,0,0:0:0:0:
192,192,97385,1,0,0:0:0:0:
64,192,97431,1,0,0:0:0:70:Bass.wav
320,192,97431,1,0,0:0:0:0:
448,192,97476,1,0,0:0:0:0:
192,192,97522,1,0,0:0:0:0:
320,192,97567,1,0,0:0:0:0:
64,192,97613,1,0,0:0:0:0:
192,192,97658,1,0,0:0:0:0:
320,192,97704,1,0,0:0:0:0:
448,192,97704,1,0,0:0:0:70:DrumC1.wav
64,192,97749,1,0,0:0:0:0:
192,192,97795,1,0,0:0:0:0:
448,192,97840,1,0,0:0:0:0:
320,192,97885,1,0,0:0:0:0:
64,192,97931,1,0,0:0:0:0:
192,192,97976,1,0,0:0:0:0:
448,192,98022,1,0,0:0:0:0:
320,192,98067,1,0,0:0:0:0:
64,192,98113,1,0,0:0:0:0:
192,192,98158,1,0,0:0:0:0:
448,192,98204,1,0,0:0:0:0:
320,192,98249,1,0,0:0:0:0:
64,192,98249,1,0,0:0:0:70:Bass.wav
192,192,98295,1,0,0:0:0:0:
448,192,98340,1,0,0:0:0:0:
320,192,98385,1,0,0:0:0:0:
192,192,98431,1,0,0:0:0:0:
64,192,98476,1,0,0:0:0:0:
448,192,98522,1,0,0:0:0:0:
320,192,98567,1,0,0:0:0:0:
192,192,98613,1,0,0:0:0:0:
64,192,98658,1,0,0:0:0:0:
448,192,98704,1,0,0:0:0:0:
320,192,98749,1,0,0:0:0:0:
64,192,98795,1,0,0:0:0:70:DrumC1.wav
192,192,98795,1,0,0:0:0:0:
448,192,98840,1,0,0:0:0:0:
320,192,98885,1,0,0:0:0:0:
64,192,98931,1,0,0:0:0:0:
192,192,98976,1,0,0:0:0:0:
448,192,99022,1,0,0:0:0:0:
64,192,99067,1,0,0:0:0:70:Bass.wav
320,192,99067,1,0,0:0:0:0:
192,192,99113,1,0,0:0:0:0:
448,192,99158,1,0,0:0:0:0:
320,192,99204,1,0,0:0:0:0:
64,192,99249,1,0,0:0:0:0:
192,192,99295,1,0,0:0:0:0:
320,192,99340,1,0,0:0:0:0:
448,192,99385,1,0,0:0:0:0:
64,192,99431,1,0,0:0:0:0:
192,192,99476,1,0,0:0:0:0:
320,192,99522,1,0,0:0:0:0:
448,192,99567,1,0,0:0:0:0:
192,192,99613,1,0,0:0:0:0:
64,192,99613,1,0,0:0:0:70:Bass.wav
320,192,99658,1,0,0:0:0:0:
448,192,99704,1,0,0:0:0:0:
192,192,99749,1,0,0:0:0:0:
320,192,99795,1,0,0:0:0:0:
64,192,99840,1,0,0:0:0:0:
192,192,99885,1,0,0:0:0:0:
448,192,99885,1,0,0:0:0:70:DrumC1.wav
320,192,99931,1,0,0:0:0:0:
64,192,99976,1,0,0:0:0:0:
192,192,100022,1,0,0:0:0:0:
448,192,100067,1,0,0:0:0:0:
320,192,100113,1,0,0:0:0:0:
192,192,100158,1,0,0:0:0:0:
64,192,100204,1,0,0:0:0:0:
448,192,100249,1,0,0:0:0:0:
320,192,100295,1,0,0:0:0:0:
192,192,100340,1,0,0:0:0:0:
64,192,100385,1,0,0:0:0:0:
320,192,100431,1,0,0:0:0:70:Bass.wav
448,192,100431,1,0,0:0:0:0:
192,192,100431,1,0,0:0:0:0:
64,192,100499,1,0,0:0:0:0:
192,192,100567,1,0,0:0:0:0:
448,192,100567,1,0,0:0:0:0:
64,192,100658,1,0,0:0:0:0:
320,192,100658,1,0,0:0:0:0:
192,192,100749,1,0,0:0:0:0:
448,192,100749,1,0,0:0:0:0:
64,192,100840,1,0,0:0:0:0:
320,192,100840,1,0,0:0:0:0:
448,192,100908,1,0,0:0:0:0:
64,192,100976,128,0,101249:0:0:0:0:
320,192,100976,1,0,0:0:0:0:
192,192,100976,1,0,0:0:0:70:DrumC1.wav
320,192,101249,1,0,0:0:0:70:Bass.wav
448,192,101249,1,0,0:0:0:0:
192,192,101317,1,0,0:0:0:0:
320,192,101385,1,0,0:0:0:0:
192,192,101454,1,0,0:0:0:0:
320,192,101522,1,0,0:0:0:0:
192,192,101590,1,0,0:0:0:0:
320,192,101658,1,0,0:0:0:0:
192,192,101726,1,0,0:0:0:0:
64,192,101795,1,0,0:0:0:0:
320,192,101795,1,0,0:0:0:70:Bass.wav
448,192,101795,1,0,0:0:0:0:
192,192,101863,1,0,0:0:0:0:
448,192,101931,1,0,0:0:0:0:
320,192,101976,1,0,0:0:0:0:
192,192,102022,1,0,0:0:0:0:
448,192,102067,1,0,0:0:0:70:DrumC1.wav
64,192,102067,1,0,0:0:0:0:
320,192,102135,1,0,0:0:0:0:
448,192,102204,1,0,0:0:0:0:
320,192,102272,1,0,0:0:0:0:
448,192,102340,1,0,0:0:0:0:
320,192,102408,1,0,0:0:0:0:
64,192,102476,1,0,0:0:0:0:
192,192,102522,1,0,0:0:0:0:
320,192,102567,1,0,0:0:0:0:
64,192,102613,1,0,0:0:0:70:Bass.wav
448,192,102613,1,0,0:0:0:0:
192,192,102681,1,0,0:0:0:0:
64,192,102749,1,0,0:0:0:0:
192,192,102817,1,0,0:0:0:0:
64,192,102885,1,0,0:0:0:0:
192,192,102954,1,0,0:0:0:0:
448,192,103022,1,0,0:0:0:0:
320,192,103067,1,0,0:0:0:0:
192,192,103113,1,0,0:0:0:0:
64,192,103158,1,0,0:0:0:0:
448,192,103158,1,0,0:0:0:70:DrumC1.wav
320,192,103226,1,0,0:0:0:0:
448,192,103295,1,0,0:0:0:0:
320,192,103363,1,0,0:0:0:0:
448,192,103431,1,0,0:0:0:0:
192,192,103431,1,0,0:0:0:70:Bass.wav
64,192,103431,1,0,0:0:0:0:
320,192,103499,1,0,0:0:0:0:
64,192,103567,1,0,0:0:0:0:
192,192,103613,1,0,0:0:0:0:
320,192,103658,1,0,0:0:0:0:
64,192,103704,1,0,0:0:0:0:
448,192,103704,1,0,0:0:0:0:
192,192,103772,1,0,0:0:0:0:
64,192,103840,1,0,0:0:0:0:
192,192,103908,1,0,0:0:0:0:
64,192,103976,1,0,0:0:0:0:
320,192,103976,1,0,0:0:0:70:Bass.wav
448,192,103976,1,0,0:0:0:0:
192,192,104045,1,0,0:0:0:0:
448,192,104113,1,0,0:0:0:0:
320,192,104158,1,0,0:0:0:0:
192,192,104204,1,0,0:0:0:0:
64,192,104249,1,0,0:0:0:70:DrumC1.wav
320,192,104249,1,0,0:0:0:0:
448,192,104249,128,0,104385:0:0:0:0:
192,192,104385,1,0,0:0:0:0:
64,192,104385,128,0,104522:0:0:0:0:
320,192,104522,1,0,0:0:0:0:
448,192,104522,128,0,104658:0:0:0:0:
192,192,104658,1,0,0:0:0:0:
64,192,104658,128,0,104795:0:0:0:0:
320,192,104795,1,0,0:0:0:70:Bass.wav
448,192,104795,1,0,0:0:0:70:finish.wav
192,192,104863,1,0,0:0:0:0:
448,192,104931,1,0,0:0:0:0:
64,192,104931,1,0,0:0:0:0:
320,192,104999,1,0,0:0:0:0:
64,192,105067,1,0,0:0:0:0:
448,192,105067,1,0,0:0:0:0:
192,192,105135,1,0,0:0:0:0:
320,192,105204,1,0,0:0:0:70:DrumC1.wav
448,192,105204,1,0,0:0:0:0:
64,192,105204,1,0,0:0:0:0:
64,192,105340,128,0,105613:0:0:0:0:
192,192,105340,1,0,0:0:0:70:Bass.wav
320,192,105340,1,0,0:0:0:0:
320,192,105613,1,0,0:0:0:70:DrumC1.wav
448,192,105613,1,0,0:0:0:0:
192,192,105613,1,0,0:0:0:0:
64,192,105681,1,0,0:0:0:0:
192,192,105749,1,0,0:0:0:0:
320,192,105817,1,0,0:0:0:0:
64,192,105885,1,0,0:0:0:70:Bass.wav
448,192,105885,1,0,0:0:0:0:
192,192,105954,1,0,0:0:0:0:
320,192,106022,1,0,0:0:0:0:
448,192,106090,1,0,0:0:0:0:
192,192,106158,1,0,0:0:0:0:
320,192,106226,1,0,0:0:0:0:
64,192,106295,1,0,0:0:0:70:DrumC1.wav
448,192,106295,1,0,0:0:0:0:
192,192,106295,1,0,0:0:0:0:
320,192,106363,1,0,0:0:0:0:
448,192,106431,1,0,0:0:0:70:Bass.wav
64,192,106431,1,0,0:0:0:0:
192,192,106499,1,0,0:0:0:0:
320,192,106567,1,0,0:0:0:0:
448,192,106635,1,0,0:0:0:0:
64,192,106704,1,0,0:0:0:70:DrumC1.wav
320,192,106704,1,0,0:0:0:0:
192,192,106704,1,0,0:0:0:0:
448,192,106772,1,0,0:0:0:0:
192,192,106840,1,0,0:0:0:0:
320,192,106908,1,0,0:0:0:0:
448,192,106976,1,0,0:0:0:0:
64,192,106976,1,0,0:0:0:70:Bass.wav
192,192,107045,1,0,0:0:0:0:
320,192,107113,1,0,0:0:0:0:
448,192,107181,1,0,0:0:0:0:
192,192,107249,1,0,0:0:0:0:
320,192,107317,1,0,0:0:0:0:
192,192,107385,1,0,0:0:0:70:DrumC1.wav
448,192,107385,1,0,0:0:0:0:
64,192,107385,1,0,0:0:0:0:
320,192,107454,1,0,0:0:0:0:
64,192,107522,1,0,0:0:0:70:Bass.wav
448,192,107522,1,0,0:0:0:0:
192,192,107590,1,0,0:0:0:0:
320,192,107658,1,0,0:0:0:0:
448,192,107726,1,0,0:0:0:0:
64,192,107795,1,0,0:0:0:0:
320,192,107795,1,0,0:0:0:70:DrumC1.wav
192,192,107795,1,0,0:0:0:0:
448,192,107863,1,0,0:0:0:0:
192,192,107931,1,0,0:0:0:0:
320,192,107999,1,0,0:0:0:0:
64,192,108067,1,0,0:0:0:0:
448,192,108067,1,0,0:0:0:70:Bass.wav
192,192,108135,1,0,0:0:0:0:
320,192,108204,1,0,0:0:0:0:
448,192,108272,1,0,0:0:0:0:
192,192,108340,1,0,0:0:0:0:
320,192,108408,1,0,0:0:0:0:
64,192,108476,1,0,0:0:0:70:DrumC1.wav
448,192,108476,1,0,0:0:0:0:
192,192,108476,1,0,0:0:0:0:
320,192,108545,1,0,0:0:0:0:
64,192,108613,1,0,0:0:0:0:
448,192,108613,1,0,0:0:0:70:Bass.wav
192,192,108681,1,0,0:0:0:0:
448,192,108749,1,0,0:0:0:0:
320,192,108817,1,0,0:0:0:0:
192,192,108885,1,0,0:0:0:70:DrumC1.wav
64,192,108885,1,0,0:0:0:0:
448,192,108885,1,0,0:0:0:0:
320,192,108954,1,0,0:0:0:0:
448,192,109022,1,0,0:0:0:0:
64,192,109090,1,0,0:0:0:0:
192,192,109158,1,0,0:0:0:70:Bass.wav
448,192,109158,1,0,0:0:0:0:
320,192,109226,1,0,0:0:0:0:
448,192,109295,1,0,0:0:0:0:
64,192,109295,1,0,0:0:0:0:
192,192,109363,1,0,0:0:0:0:
64,192,109431,1,0,0:0:0:0:
448,192,109431,1,0,0:0:0:0:
320,192,109499,1,0,0:0:0:0:
448,192,109567,1,0,0:0:0:0:
64,192,109567,1,0,0:0:0:0:
192,192,109567,1,0,0:0:0:70:DrumC1.wav
320,192,109635,1,0,0:0:0:0:
64,192,109704,128,0,109976:0:0:0:0:
448,192,109704,1,0,0:0:0:70:Bass.wav
192,192,109704,1,0,0:0:0:0:
448,192,109976,1,0,0:0:0:70:DrumC1.wav
320,192,109976,1,0,0:0:0:0:
192,192,109976,1,0,0:0:0:0:
64,192,110045,1,0,0:0:0:0:
192,192,110113,1,0,0:0:0:0:
448,192,110181,1,0,0:0:0:0:
64,192,110249,1,0,0:0:0:70:Bass.wav
320,192,110249,1,0,0:0:0:0:
192,192,110317,1,0,0:0:0:0:
64,192,110385,1,0,0:0:0:0:
448,192,110454,1,0,0:0:0:0:
320,192,110522,1,0,0:0:0:0:
192,192,110590,1,0,0:0:0:0:
448,192,110658,1,0,0:0:0:70:DrumC1.wav
320,192,110658,1,0,0:0:0:0:
64,192,110658,1,0,0:0:0:0:
192,192,110726,1,0,0:0:0:0:
64,192,110795,1,0,0:0:0:0:
448,192,110795,1,0,0:0:0:70:Bass.wav
320,192,110863,1,0,0:0:0:0:
192,192,110931,1,0,0:0:0:0:
64,192,110999,1,0,0:0:0:0:
448,192,111067,1,0,0:0:0:70:DrumC1.wav
320,192,111067,1,0,0:0:0:0:
192,192,111067,1,0,0:0:0:0:
64,192,111135,1,0,0:0:0:0:
320,192,111204,1,0,0:0:0:0:
192,192,111272,1,0,0:0:0:0:
64,192,111340,1,0,0:0:0:70:Bass.wav
448,192,111340,1,0,0:0:0:0:
320,192,111408,1,0,0:0:0:0:
192,192,111476,1,0,0:0:0:0:
64,192,111545,1,0,0:0:0:0:
320,192,111613,1,0,0:0:0:0:
192,192,111681,1,0,0:0:0:0:
320,192,111749,1,0,0:0:0:0:
448,192,111749,1,0,0:0:0:70:DrumC1.wav
64,192,111749,1,0,0:0:0:0:
192,192,111817,1,0,0:0:0:0:
64,192,111885,1,0,0:0:0:0:
448,192,111885,1,0,0:0:0:70:Bass.wav
320,192,111954,1,0,0:0:0:0:
192,192,112022,1,0,0:0:0:0:
64,192,112090,1,0,0:0:0:0:
448,192,112158,1,0,0:0:0:0:
192,192,112158,1,0,0:0:0:0:
320,192,112158,1,0,0:0:0:70:DrumC1.wav
64,192,112226,1,0,0:0:0:0:
320,192,112295,1,0,0:0:0:0:
192,192,112363,1,0,0:0:0:0:
448,192,112431,1,0,0:0:0:0:
64,192,112431,1,0,0:0:0:70:Bass.wav
320,192,112499,1,0,0:0:0:0:
192,192,112567,1,0,0:0:0:0:
64,192,112635,1,0,0:0:0:0:
320,192,112704,1,0,0:0:0:0:
192,192,112772,1,0,0:0:0:0:
320,192,112840,1,0,0:0:0:70:DrumC1.wav
448,192,112840,1,0,0:0:0:0:
64,192,112840,1,0,0:0:0:0:
192,192,112908,1,0,0:0:0:0:
64,192,112976,1,0,0:0:0:70:Bass.wav
448,192,112976,1,0,0:0:0:0:
448,192,113113,1,0,0:0:0:0:
192,192,113113,1,0,0:0:0:0:
320,192,113249,1,0,0:0:0:0:
192,192,113249,1,0,0:0:0:70:DrumC1.wav
64,192,113249,1,0,0:0:0:0:
448,192,113385,1,0,0:0:0:0:
64,192,113385,1,0,0:0:0:0:
320,192,113454,1,0,0:0:0:0:
192,192,113454,1,0,0:0:0:0:
448,192,113522,1,0,0:0:0:70:Bass.wav
64,192,113522,1,0,0:0:0:70:finish.wav
320,192,113590,1,0,0:0:0:0:
448,192,113658,1,0,0:0:0:0:
64,192,113658,1,0,0:0:0:0:
192,192,113726,1,0,0:0:0:0:
64,192,113795,1,0,0:0:0:0:
448,192,113795,1,0,0:0:0:0:
320,192,113863,1,0,0:0:0:0:
64,192,113931,1,0,0:0:0:70:DrumC1.wav
448,192,113931,1,0,0:0:0:0:
192,192,113931,1,0,0:0:0:0:
320,192,113999,1,0,0:0:0:0:
64,192,114067,128,0,114340:0:0:0:0:
192,192,114067,1,0,0:0:0:0:
448,192,114067,1,0,0:0:0:70:Bass.wav
320,192,114340,1,0,0:0:0:70:DrumC1.wav
192,192,114340,1,0,0:0:0:0:
448,192,114340,1,0,0:0:0:0:
64,192,114408,1,0,0:0:0:0:
192,192,114476,1,0,0:0:0:0:
320,192,114545,1,0,0:0:0:0:
64,192,114613,1,0,0:0:0:70:Bass.wav
448,192,114613,1,0,0:0:0:0:
192,192,114681,1,0,0:0:0:0:
320,192,114749,1,0,0:0:0:0:
448,192,114817,1,0,0:0:0:0:
64,192,114885,1,0,0:0:0:0:
192,192,114954,1,0,0:0:0:0:
448,192,115022,1,0,0:0:0:0:
320,192,115022,1,0,0:0:0:70:DrumC1.wav
64,192,115022,1,0,0:0:0:0:
192,192,115090,1,0,0:0:0:0:
320,192,115158,1,0,0:0:0:0:
64,192,115158,1,0,0:0:0:70:Bass.wav
448,192,115226,1,0,0:0:0:0:
192,192,115295,1,0,0:0:0:0:
320,192,115363,1,0,0:0:0:0:
448,192,115431,1,0,0:0:0:0:
192,192,115431,1,0,0:0:0:70:DrumC1.wav
64,192,115431,1,0,0:0:0:0:
320,192,115499,1,0,0:0:0:0:
448,192,115567,1,0,0:0:0:0:
192,192,115635,1,0,0:0:0:0:
64,192,115704,1,0,0:0:0:0:
320,192,115704,1,0,0:0:0:70:Bass.wav
448,192,115772,1,0,0:0:0:0:
192,192,115840,1,0,0:0:0:0:
320,192,115908,1,0,0:0:0:0:
448,192,115976,1,0,0:0:0:0:
192,192,116045,1,0,0:0:0:0:
320,192,116113,1,0,0:0:0:70:DrumC1.wav
448,192,116113,1,0,0:0:0:0:
64,192,116113,1,0,0:0:0:0:
192,192,116181,1,0,0:0:0:0:
64,192,116249,1,0,0:0:0:0:
320,192,116249,1,0,0:0:0:70:Bass.wav
448,192,116317,1,0,0:0:0:0:
192,192,116385,1,0,0:0:0:0:
320,192,116454,1,0,0:0:0:0:
192,192,116522,1,0,0:0:0:0:
448,192,116522,1,0,0:0:0:70:DrumC1.wav
64,192,116522,1,0,0:0:0:0:
320,192,116590,1,0,0:0:0:0:
448,192,116658,1,0,0:0:0:0:
192,192,116726,1,0,0:0:0:0:
64,192,116795,1,0,0:0:0:0:
320,192,116795,1,0,0:0:0:70:Bass.wav
448,192,116863,1,0,0:0:0:0:
192,192,116931,1,0,0:0:0:0:
320,192,116999,1,0,0:0:0:0:
448,192,117067,1,0,0:0:0:0:
192,192,117135,1,0,0:0:0:0:
320,192,117204,1,0,0:0:0:0:
448,192,117204,1,0,0:0:0:0:
64,192,117204,1,0,0:0:0:70:DrumC1.wav
192,192,117272,1,0,0:0:0:0:
64,192,117340,1,0,0:0:0:0:
448,192,117340,1,0,0:0:0:70:Bass.wav
320,192,117385,1,0,0:0:0:0:
192,192,117431,1,0,0:0:0:0:
64,192,117476,1,0,0:0:0:0:
448,192,117522,1,0,0:0:0:0:
320,192,117567,1,0,0:0:0:0:
64,192,117613,1,0,0:0:0:0:
192,192,117613,1,0,0:0:0:70:DrumC1.wav
320,192,117681,1,0,0:0:0:0:
192,192,117749,1,0,0:0:0:0:
64,192,117817,1,0,0:0:0:0:
448,192,117885,1,0,0:0:0:70:Bass.wav
320,192,117885,1,0,0:0:0:0:
192,192,117931,1,0,0:0:0:0:
64,192,117976,1,0,0:0:0:0:
448,192,118022,1,0,0:0:0:0:
320,192,118090,1,0,0:0:0:0:
64,192,118158,1,0,0:0:0:0:
192,192,118204,1,0,0:0:0:0:
320,192,118249,1,0,0:0:0:0:
192,192,118295,1,0,0:0:0:70:DrumC1.wav
64,192,118295,1,0,0:0:0:0:
448,192,118363,1,0,0:0:0:0:
320,192,118431,1,0,0:0:0:0:
64,192,118431,1,0,0:0:0:70:Bass.wav
192,192,118476,1,0,0:0:0:0:
448,192,118522,1,0,0:0:0:0:
64,192,118567,1,0,0:0:0:0:
192,192,118635,1,0,0:0:0:0:
448,192,118704,1,0,0:0:0:70:DrumC1.wav
320,192,118704,1,0,0:0:0:0:
192,192,118749,1,0,0:0:0:0:
64,192,118795,1,0,0:0:0:0:
320,192,118840,1,0,0:0:0:0:
192,192,118908,1,0,0:0:0:0:
320,192,118976,1,0,0:0:0:0:
64,192,118976,1,0,0:0:0:70:Bass.wav
448,192,119022,1,0,0:0:0:0:
192,192,119067,1,0,0:0:0:0:
320,192,119113,1,0,0:0:0:0:
64,192,119181,1,0,0:0:0:0:
448,192,119249,1,0,0:0:0:0:
320,192,119295,1,0,0:0:0:0:
192,192,119340,1,0,0:0:0:0:
448,192,119385,1,0,0:0:0:70:DrumC1.wav
320,192,119385,1,0,0:0:0:0:
64,192,119454,1,0,0:0:0:0:
448,192,119522,1,0,0:0:0:70:Bass.wav
192,192,119522,1,0,0:0:0:0:
320,192,119567,1,0,0:0:0:0:
64,192,119613,1,0,0:0:0:0:
192,192,119658,1,0,0:0:0:0:
448,192,119726,1,0,0:0:0:0:
192,192,119795,1,0,0:0:0:70:DrumC1.wav
320,192,119795,1,0,0:0:0:0:
64,192,119863,1,0,0:0:0:0:
448,192,119931,1,0,0:0:0:0:
320,192,119999,1,0,0:0:0:0:
64,192,120067,1,0,0:0:0:70:Bass.wav
192,192,120067,1,0,0:0:0:0:
448,192,120113,1,0,0:0:0:0:
320,192,120158,1,0,0:0:0:0:
64,192,120204,1,0,0:0:0:0:
192,192,120249,1,0,0:0:0:0:
448,192,120295,1,0,0:0:0:0:
320,192,120340,1,0,0:0:0:0:
64,192,120385,1,0,0:0:0:0:
192,192,120431,1,0,0:0:0:0:
448,192,120476,1,0,0:0:0:70:DrumC1.wav
320,192,120476,1,0,0:0:0:0:
64,192,120522,1,0,0:0:0:0:
192,192,120567,1,0,0:0:0:0:
448,192,120613,1,0,0:0:0:70:Bass.wav
320,192,120613,1,0,0:0:0:0:
64,192,120658,1,0,0:0:0:0:
192,192,120704,1,0,0:0:0:0:
448,192,120749,1,0,0:0:0:0:
320,192,120795,1,0,0:0:0:0:
64,192,120840,1,0,0:0:0:0:
192,192,120885,1,0,0:0:0:70:DrumC1.wav
448,192,120885,1,0,0:0:0:0:
320,192,120931,1,0,0:0:0:0:
64,192,120976,1,0,0:0:0:0:
192,192,121022,1,0,0:0:0:0:
448,192,121067,1,0,0:0:0:0:
320,192,121113,1,0,0:0:0:0:
192,192,121158,1,0,0:0:0:70:Bass.wav
64,192,121158,1,0,0:0:0:0:
448,192,121204,1,0,0:0:0:0:
320,192,121249,1,0,0:0:0:0:
64,192,121295,1,0,0:0:0:0:
192,192,121340,1,0,0:0:0:0:
448,192,121385,1,0,0:0:0:0:
320,192,121431,1,0,0:0:0:0:
64,192,121476,1,0,0:0:0:0:
192,192,121522,1,0,0:0:0:0:
448,192,121567,1,0,0:0:0:70:DrumC1.wav
320,192,121567,1,0,0:0:0:0:
64,192,121613,1,0,0:0:0:0:
192,192,121658,1,0,0:0:0:0:
448,192,121704,128,0,121840:0:0:0:0:
320,192,121704,1,0,0:0:0:30:Bass.wav
192,192,121840,1,0,0:0:0:30:Bass.wav
64,192,121840,128,0,121976:0:0:0:0:
320,192,121976,1,0,0:0:0:30:Bass.wav
448,192,121976,128,0,122113:0:0:0:0:
192,192,122113,1,0,0:0:0:30:Bass.wav
64,192,122113,128,0,122249:0:0:0:0:
448,192,122249,128,0,126613:0:0:0:0:
192,192,122249,1,0,0:0:0:70:Bass.wav
320,192,122249,1,0,0:0:0:70:finish.wav
64,192,124022,128,0,126613:0:0:0:0:
320,192,124567,128,0,125658:0:0:0:0:
192,192,125658,128,0,127704:0:0:0:0:
320,192,126613,128,0,128931:0:0:0:0:
64,192,127704,128,0,132067:0:0:0:0:
448,192,128931,128,0,134249:0:0:0:0:
192,192,129885,128,0,131113:0:0:0:0:
320,192,131113,128,0,133158:0:0:0:0:
192,192,132067,128,0,135340:0:0:0:0:
64,192,133158,128,0,137522:0:0:0:0:
320,192,134249,128,0,137522:0:0:0:0:
448,192,135340,128,0,139704:0:0:0:0:
192,192,137522,128,0,139704:0:0:0:0:
320,192,138067,128,0,138613:0:0:0:0:
64,192,138613,128,0,139158:0:0:0:0:
320,192,139158,128,0,139704:0:0:0:0:
64,192,139704,5,0,0:0:0:0:
192,192,139840,1,0,0:0:0:0:
320,192,139976,1,0,0:0:0:0:
64,192,140113,1,0,0:0:0:0:
448,192,140249,1,0,0:0:0:0:
320,192,140385,1,0,0:0:0:0:
192,192,140522,1,0,0:0:0:0:
64,192,140658,1,0,0:0:0:0:
320,192,140795,1,0,0:0:0:0:
192,192,140931,1,0,0:0:0:0:
448,192,141067,1,0,0:0:0:0:
320,192,141204,1,0,0:0:0:0:
192,192,141340,1,0,0:0:0:0:
64,192,141476,1,0,0:0:0:0:
320,192,141613,1,0,0:0:0:0:
448,192,141749,1,0,0:0:0:0:
64,192,141885,1,0,0:0:0:0:
192,192,142022,1,0,0:0:0:0:
320,192,142158,1,0,0:0:0:0:
448,192,142295,1,0,0:0:0:0:
192,192,142431,1,0,0:0:0:0:
320,192,142567,1,0,0:0:0:0:
448,192,142704,1,0,0:0:0:0:
320,192,142840,1,0,0:0:0:0:
64,192,142976,1,0,0:0:0:0:
192,192,143113,1,0,0:0:0:0:
320,192,143249,1,0,0:0:0:0:
192,192,143385,1,0,0:0:0:0:
64,192,143522,1,0,0:0:0:0:
448,192,143658,1,0,0:0:0:0:
320,192,143795,1,0,0:0:0:0:
192,192,143931,1,0,0:0:0:0:
64,192,144067,1,0,0:0:0:0:
320,192,144204,1,0,0:0:0:0:
192,192,144340,1,0,0:0:0:0:
64,192,144476,1,0,0:0:0:0:
448,192,144613,1,0,0:0:0:0:
320,192,144749,1,0,0:0:0:0:
192,192,144885,1,0,0:0:0:0:
64,192,145022,1,0,0:0:0:0:
320,192,145158,1,0,0:0:0:0:
448,192,145295,1,0,0:0:0:0:
192,192,145431,1,0,0:0:0:0:
320,192,145567,1,0,0:0:0:0:
448,192,145704,1,0,0:0:0:0:
192,192,145840,1,0,0:0:0:0:
64,192,145976,1,0,0:0:0:0:
448,192,146113,1,0,0:0:0:0:
320,192,146249,1,0,0:0:0:0:
64,192,146249,1,0,0:0:0:0:
192,192,146385,1,0,0:0:0:0:
448,192,146522,1,0,0:0:0:0:
320,192,146658,1,0,0:0:0:0:
448,192,146795,1,0,0:0:0:0:
64,192,146795,1,0,0:0:0:0:
192,192,146931,1,0,0:0:0:0:
320,192,147067,1,0,0:0:0:0:
448,192,147204,1,0,0:0:0:0:
64,192,147340,1,0,0:0:0:0:
192,192,147476,1,0,0:0:0:0:
320,192,147613,1,0,0:0:0:0:
448,192,147749,1,0,0:0:0:0:
192,192,147885,1,0,0:0:0:0:
64,192,148022,1,0,0:0:0:0:
448,192,148158,1,0,0:0:0:0:
320,192,148295,1,0,0:0:0:0:
192,192,148431,1,0,0:0:0:0:
64,192,148567,1,0,0:0:0:0:
448,192,148704,1,0,0:0:0:0:
320,192,148840,1,0,0:0:0:0:
192,192,148976,1,0,0:0:0:0:
320,192,149113,1,0,0:0:0:0:
448,192,149249,1,0,0:0:0:0:
64,192,149385,1,0,0:0:0:0:
192,192,149522,1,0,0:0:0:0:
320,192,149658,1,0,0:0:0:0:
64,192,149795,1,0,0:0:0:0:
192,192,149931,1,0,0:0:0:0:
64,192,150067,1,0,0:0:0:0:
448,192,150067,1,0,0:0:0:0:
320,192,150204,1,0,0:0:0:0:
192,192,150340,1,0,0:0:0:0:
64,192,150476,1,0,0:0:0:0:
448,192,150613,1,0,0:0:0:0:
320,192,150749,1,0,0:0:0:0:
192,192,150885,1,0,0:0:0:0:
320,192,151022,1,0,0:0:0:0:
448,192,151158,1,0,0:0:0:0:
64,192,151158,1,0,0:0:0:0:
192,192,151295,1,0,0:0:0:0:
320,192,151431,1,0,0:0:0:0:
448,192,151567,1,0,0:0:0:0:
64,192,151704,1,0,0:0:0:0:
192,192,151840,1,0,0:0:0:0:
320,192,151976,1,0,0:0:0:0:
192,192,152113,1,0,0:0:0:0:
448,192,152249,1,0,0:0:0:0:
64,192,152249,1,0,0:0:0:0:
320,192,152385,1,0,0:0:0:0:
192,192,152522,1,0,0:0:0:0:
320,192,152658,1,0,0:0:0:0:
64,192,152795,1,0,0:0:0:0:
448,192,152795,1,0,0:0:0:0:
192,192,152931,1,0,0:0:0:0:
448,192,153067,1,0,0:0:0:0:
320,192,153204,1,0,0:0:0:0:
192,192,153340,1,0,0:0:0:0:
320,192,153476,1,0,0:0:0:0:
448,192,153613,1,0,0:0:0:0:
64,192,153749,1,0,0:0:0:0:
192,192,153885,1,0,0:0:0:0:
320,192,154022,1,0,0:0:0:0:
448,192,154158,1,0,0:0:0:0:
192,192,154295,1,0,0:0:0:0:
64,192,154431,1,0,0:0:0:0:
448,192,154567,1,0,0:0:0:0:
320,192,154704,1,0,0:0:0:0:
192,192,154840,1,0,0:0:0:0:
64,192,154976,1,0,0:0:0:0:
320,192,155385,1,0,0:0:0:0:
448,192,155522,1,0,0:0:0:0:
448,192,157158,5,0,0:0:0:0:
320,192,157158,1,2,0:0:0:0:
192,192,157158,1,0,0:0:0:70:LR3_Snare FCSRL.wav
448,192,157431,1,0,0:0:0:0:
320,192,157567,1,0,0:0:0:0:
192,192,157635,1,0,0:0:0:0:
64,192,157704,1,0,0:0:0:0:
192,192,157976,1,0,0:0:0:0:
64,192,157976,1,2,0:0:0:0:
448,192,158249,1,0,0:0:0:0:
64,192,158522,1,2,0:0:0:0:
320,192,158522,1,0,0:0:0:0:
192,192,158795,1,0,0:0:0:0:
320,192,159067,1,0,0:0:0:0:
192,192,159340,1,0,0:0:0:0:
64,192,159340,1,2,0:0:0:0:
320,192,159613,1,0,0:0:0:0:
448,192,159885,1,0,0:0:0:0:
192,192,160158,1,2,0:0:0:0:
320,192,160158,1,0,0:0:0:0:
448,192,160431,1,0,0:0:0:0:
64,192,160704,1,2,0:0:0:0:
320,192,160704,1,0,0:0:0:0:
192,192,160976,1,0,0:0:0:0:
64,192,161113,1,2,0:0:0:0:
320,192,161113,1,0,0:0:0:0:
448,192,161249,1,0,0:0:0:0:
192,192,161249,1,0,0:0:0:0:
320,192,161385,1,2,0:0:0:0:
64,192,161522,1,2,0:0:0:0:
448,192,161522,1,0,0:0:0:0:
320,192,161795,1,0,0:0:0:0:
64,192,161931,1,0,0:0:0:0:
192,192,161999,1,0,0:0:0:0:
320,192,162067,1,0,0:0:0:0:
192,192,162340,1,2,0:0:0:0:
448,192,162340,1,0,0:0:0:0:
64,192,162613,1,0,0:0:0:0:
320,192,162885,1,0,0:0:0:0:
448,192,162885,1,2,0:0:0:0:
192,192,163158,1,0,0:0:0:0:
448,192,163431,1,0,0:0:0:0:
64,192,163704,1,2,0:0:0:0:
192,192,163704,1,0,0:0:0:0:
320,192,163976,1,0,0:0:0:0:
64,192,164249,1,0,0:0:0:0:
192,192,164522,1,0,0:0:0:0:
448,192,164522,1,2,0:0:0:0:
320,192,164795,1,0,0:0:0:0:
64,192,165067,1,2,0:0:0:0:
192,192,165067,1,0,0:0:0:0:
320,192,165204,1,0,0:0:0:0:
448,192,165340,1,0,0:0:0:0:
320,192,165476,1,0,0:0:0:0:
64,192,165476,1,0,0:0:0:0:
192,192,165613,1,2,0:0:0:0:
448,192,165613,1,0,0:0:0:0:
64,192,165749,1,2,0:0:0:0:
320,192,165885,1,2,0:0:0:0:
192,192,165885,1,0,0:0:0:0:
448,192,166158,1,0,0:0:0:0:
64,192,166295,1,0,0:0:0:0:
192,192,166363,1,0,0:0:0:0:
320,192,166431,1,0,0:0:0:0:
64,192,166704,1,0,0:0:0:0:
192,192,166704,1,2,0:0:0:0:
448,192,166976,1,0,0:0:0:0:
320,192,167249,1,0,0:0:0:0:
64,192,167249,1,2,0:0:0:0:
192,192,167522,1,0,0:0:0:0:
320,192,167795,1,0,0:0:0:0:
192,192,168067,1,2,0:0:0:0:
64,192,168067,1,0,0:0:0:0:
448,192,168340,1,0,0:0:0:0:
320,192,168613,1,0,0:0:0:0:
192,192,168885,1,0,0:0:0:0:
64,192,168885,1,2,0:0:0:0:
448,192,169158,1,0,0:0:0:0:
320,192,169431,1,0,0:0:0:0:
192,192,169431,1,2,0:0:0:0:
64,192,169704,1,0,0:0:0:0:
448,192,169840,1,2,0:0:0:0:
192,192,169840,1,0,0:0:0:0:
64,192,169976,1,0,0:0:0:0:
320,192,169976,1,0,0:0:0:0:
192,192,170113,1,2,0:0:0:0:
448,192,170249,1,0,0:0:0:0:
320,192,170249,1,2,0:0:0:0:
64,192,170522,1,0,0:0:0:0:
448,192,170658,1,0,0:0:0:0:
320,192,170726,1,0,0:0:0:0:
192,192,170795,1,0,0:0:0:0:
320,192,171067,1,0,0:0:0:0:
64,192,171067,1,2,0:0:0:0:
192,192,171340,1,0,0:0:0:0:
64,192,171613,1,0,0:0:0:0:
448,192,171613,1,2,0:0:0:0:
320,192,171885,1,0,0:0:0:0:
192,192,172158,1,0,0:0:0:0:
320,192,172431,1,0,0:0:0:0:
448,192,172431,1,2,0:0:0:0:
192,192,172704,1,0,0:0:0:0:
64,192,172976,1,0,0:0:0:0:
192,192,173249,1,0,0:0:0:0:
320,192,173522,5,2,0:0:0:0:
448,192,173522,5,0,0:0:0:0:
64,192,173567,1,0,0:0:0:0:
192,192,173567,1,2,0:0:0:0:
320,192,173658,1,0,0:0:0:0:
64,192,173658,1,0,0:0:0:0:
448,192,173658,1,2,0:0:0:0:
64,192,173795,1,2,0:0:0:0:
192,192,173795,1,0,0:0:0:0:
448,192,173795,1,0,0:0:0:0:
192,192,173931,1,2,0:0:0:0:
64,192,173931,1,0,0:0:0:0:
448,192,173976,1,0,0:0:0:0:
320,192,173976,1,2,0:0:0:0:
448,192,174067,1,0,0:0:0:0:
64,192,174067,1,2,0:0:0:0:
192,192,174067,1,0,0:0:0:0:
448,192,174204,1,2,0:0:0:0:
64,192,174204,1,0,0:0:0:0:
320,192,174204,1,0,0:0:0:0:
64,192,174340,1,2,0:0:0:0:
192,192,174340,1,0,0:0:0:70:Bass.wav
320,192,174340,1,0,0:0:0:0:
192,192,174476,1,0,0:0:0:0:
320,192,174476,1,0,0:0:0:70:Bass.wav
448,192,174476,1,2,0:0:0:0:
192,192,174613,1,0,0:0:0:70:Bass.wav
320,192,174613,1,0,0:0:0:0:
64,192,174613,1,0,0:0:0:70:finish.wav
448,192,174613,1,0,0:0:0:70:finish.wav
320,192,174749,1,0,0:0:0:0:
192,192,174817,1,0,0:0:0:0:
448,192,174885,1,0,0:0:0:0:
64,192,174885,1,0,0:0:0:0:
320,192,175022,1,0,0:0:0:0:
192,192,175158,1,0,0:0:0:0:
448,192,175158,1,0,0:0:0:0:
320,192,175295,1,0,0:0:0:0:
448,192,175431,1,0,0:0:0:0:
64,192,175431,1,0,0:0:0:0:
192,192,175465,1,0,0:0:0:0:
320,192,175499,1,0,0:0:0:0:
448,192,175533,1,0,0:0:0:0:
192,192,175567,1,0,0:0:0:0:
64,192,175635,1,0,0:0:0:0:
192,192,175704,1,0,0:0:0:0:
448,192,175704,1,0,0:0:0:0:
320,192,175840,1,0,0:0:0:0:
448,192,175976,1,0,0:0:0:0:
64,192,175976,1,0,0:0:0:0:
192,192,176113,1,0,0:0:0:0:
64,192,176249,1,0,0:0:0:0:
448,192,176249,1,0,0:0:0:0:
320,192,176385,1,0,0:0:0:0:
448,192,176522,1,0,0:0:0:0:
64,192,176522,1,0,0:0:0:0:
192,192,176658,1,0,0:0:0:0:
64,192,176795,1,0,0:0:0:0:
448,192,176795,1,0,0:0:0:0:
320,192,176829,1,0,0:0:0:0:
192,192,176863,1,0,0:0:0:0:
64,192,176897,1,0,0:0:0:0:
320,192,176931,1,0,0:0:0:0:
448,192,176999,1,0,0:0:0:0:
320,192,177067,1,0,0:0:0:0:
64,192,177067,1,0,0:0:0:0:
192,192,177204,1,0,0:0:0:0:
64,192,177340,1,0,0:0:0:0:
448,192,177340,1,0,0:0:0:0:
320,192,177476,1,0,0:0:0:0:
448,192,177613,1,0,0:0:0:0:
64,192,177613,1,0,0:0:0:0:
192,192,177647,1,0,0:0:0:0:
320,192,177681,1,0,0:0:0:0:
448,192,177715,1,0,0:0:0:0:
192,192,177749,1,0,0:0:0:0:
64,192,177817,1,0,0:0:0:0:
192,192,177885,1,0,0:0:0:0:
448,192,177885,1,0,0:0:0:0:
320,192,178022,1,0,0:0:0:0:
448,192,178158,1,0,0:0:0:0:
64,192,178158,1,0,0:0:0:0:
192,192,178295,1,0,0:0:0:0:
64,192,178431,1,0,0:0:0:0:
448,192,178431,1,0,0:0:0:0:
192,192,178567,1,0,0:0:0:0:
320,192,178704,1,0,0:0:0:0:
64,192,178704,1,0,0:0:0:0:
192,192,178840,1,0,0:0:0:0:
64,192,178976,1,0,0:0:0:0:
448,192,178976,1,0,0:0:0:0:
320,192,179010,1,0,0:0:0:0:
192,192,179045,1,0,0:0:0:0:
64,192,179079,1,0,0:0:0:0:
320,192,179113,1,0,0:0:0:0:
448,192,179181,1,0,0:0:0:0:
320,192,179249,1,0,0:0:0:0:
64,192,179249,1,0,0:0:0:35:Bass.wav
192,192,179385,1,0,0:0:0:0:
64,192,179522,1,0,0:0:0:35:Bass.wav
448,192,179522,1,0,0:0:0:0:
320,192,179658,1,0,0:0:0:0:
448,192,179795,1,0,0:0:0:40:Bass.wav
64,192,179795,1,0,0:0:0:0:
192,192,179829,1,0,0:0:0:0:
320,192,179863,1,0,0:0:0:0:
448,192,179897,1,0,0:0:0:0:
64,192,179931,1,0,0:0:0:0:
192,192,179999,1,0,0:0:0:0:
448,192,180067,1,0,0:0:0:40:Bass.wav
320,192,180067,1,0,0:0:0:0:
192,192,180204,1,0,0:0:0:0:
448,192,180340,1,0,0:0:0:45:Bass.wav
64,192,180340,1,0,0:0:0:0:
320,192,180476,1,0,0:0:0:0:
64,192,180613,1,0,0:0:0:45:Bass.wav
448,192,180613,1,0,0:0:0:0:
192,192,180749,1,0,0:0:0:0:
448,192,180885,1,0,0:0:0:50:Bass.wav
64,192,180885,1,0,0:0:0:0:
320,192,181022,1,0,0:0:0:0:
64,192,181158,1,0,0:0:0:50:Bass.wav
448,192,181158,1,0,0:0:0:0:
320,192,181192,1,0,0:0:0:0:
192,192,181226,1,0,0:0:0:0:
64,192,181260,1,0,0:0:0:0:
448,192,181295,1,0,0:0:0:0:
320,192,181363,1,0,0:0:0:0:
192,192,181431,1,0,0:0:0:55:Bass.wav
64,192,181431,1,0,0:0:0:0:
448,192,181567,1,0,0:0:0:0:
64,192,181704,1,0,0:0:0:55:Bass.wav
320,192,181704,1,0,0:0:0:0:
192,192,181840,1,0,0:0:0:0:
448,192,181976,1,0,0:0:0:60:Bass.wav
64,192,181976,1,0,0:0:0:0:
192,192,182010,1,0,0:0:0:0:
320,192,182045,1,0,0:0:0:0:
448,192,182079,1,0,0:0:0:0:
64,192,182113,1,0,0:0:0:0:
192,192,182181,1,0,0:0:0:0:
320,192,182249,1,0,0:0:0:60:Bass.wav
448,192,182249,1,0,0:0:0:0:
192,192,182385,1,0,0:0:0:0:
64,192,182522,1,0,0:0:0:65:Bass.wav
448,192,182522,128,0,182658:0:0:0:0:
320,192,182658,128,0,182795:0:0:0:0:
192,192,182795,128,0,182931:0:0:0:0:
64,192,182795,1,0,0:0:0:0:
448,192,182795,1,0,0:0:0:65:Bass.wav
320,192,182931,128,0,183067:0:0:0:0:
448,192,183067,128,0,183204:0:0:0:0:
192,192,183067,1,0,0:0:0:70:Bass.wav
64,192,183067,1,0,0:0:0:0:
64,192,183204,1,0,0:0:0:0:
64,192,183340,1,0,0:0:0:70:Bass.wav
320,192,183340,1,0,0:0:0:70:finish.wav
448,192,183340,1,2,0:0:0:0:
192,192,183340,1,0,0:0:0:0:
320,192,183476,1,2,0:0:0:0:
448,192,183476,1,0,0:0:0:0:
192,192,183476,1,0,0:0:0:0:
192,192,183613,1,2,0:0:0:0:
448,192,183613,1,0,0:0:0:0:
64,192,183613,1,0,0:0:0:70:Bass.wav
320,192,183613,1,0,0:0:0:0:
64,192,183749,1,0,0:0:0:0:
320,192,183749,1,0,0:0:0:0:
448,192,183749,1,2,0:0:0:0:
192,192,183885,1,0,0:0:0:0:
64,192,183885,1,0,0:0:0:0:
448,192,183885,1,0,0:0:0:70:Bass.wav
320,192,183885,1,2,0:0:0:0:
448,192,184022,1,0,0:0:0:0:
192,192,184022,1,2,0:0:0:0:
64,192,184022,1,0,0:0:0:0:
64,192,184158,1,2,0:0:0:0:
192,192,184158,1,0,0:0:0:70:Bass.wav
448,192,184158,1,0,0:0:0:0:
320,192,184158,1,0,0:0:0:0:
320,192,184295,1,0,0:0:0:0:
192,192,184295,1,2,0:0:0:0:
64,192,184295,1,0,0:0:0:0:
448,192,184431,1,0,0:0:0:70:Bass.wav
192,192,184431,1,0,0:0:0:0:
64,192,184431,1,0,0:0:0:0:
320,192,184431,1,2,0:0:0:0:
192,192,184567,1,0,0:0:0:0:
448,192,184567,1,2,0:0:0:0:
320,192,184567,1,0,0:0:0:0:
448,192,184704,1,0,0:0:0:0:
320,192,184704,1,2,0:0:0:0:
64,192,184704,1,0,0:0:0:70:Bass.wav
192,192,184704,1,0,0:0:0:0:
320,192,184840,1,0,0:0:0:0:
64,192,184840,1,0,0:0:0:0:
448,192,184840,1,2,0:0:0:0:
320,192,184976,1,2,0:0:0:0:
64,192,184976,1,0,0:0:0:0:
448,192,184976,1,0,0:0:0:70:Bass.wav
192,192,184976,1,0,0:0:0:0:
64,192,185113,1,0,0:0:0:0:
192,192,185113,1,2,0:0:0:0:
448,192,185113,1,0,0:0:0:0:
320,192,185249,1,0,0:0:0:0:
448,192,185249,1,0,0:0:0:0:
64,192,185249,1,2,0:0:0:0:
192,192,185249,1,0,0:0:0:70:Bass.wav
64,192,185385,1,0,0:0:0:0:
320,192,185385,1,0,0:0:0:0:
192,192,185385,1,2,0:0:0:0:
448,192,185522,1,0,0:0:0:70:Bass.wav
320,192,185522,1,2,0:0:0:0:
64,192,185522,1,0,0:0:0:0:
192,192,185522,1,0,0:0:0:0:
192,192,185658,1,0,0:0:0:0:
448,192,185658,1,2,0:0:0:0:
320,192,185658,1,0,0:0:0:0:
64,192,185795,1,0,0:0:0:70:Bass.wav
320,192,185795,1,2,0:0:0:0:
448,192,185795,1,0,0:0:0:0:
192,192,185795,1,0,0:0:0:0:
320,192,185931,1,0,0:0:0:0:
448,192,185931,1,2,0:0:0:0:
64,192,185931,1,0,0:0:0:0:
192,192,186067,1,0,0:0:0:70:Bass.wav
64,192,186067,1,0,0:0:0:0:
448,192,186067,1,0,0:0:0:0:
320,192,186067,1,2,0:0:0:0:
448,192,186204,1,0,0:0:0:0:
192,192,186204,1,2,0:0:0:0:
64,192,186204,1,0,0:0:0:0:
64,192,186340,1,2,0:0:0:0:
192,192,186340,1,0,0:0:0:0:
448,192,186340,1,0,0:0:0:0:
320,192,186340,1,0,0:0:0:70:Bass.wav
320,192,186476,1,0,0:0:0:0:
192,192,186476,1,2,0:0:0:0:
64,192,186476,1,0,0:0:0:0:
448,192,186613,1,0,0:0:0:70:Bass.wav
192,192,186613,1,0,0:0:0:0:
64,192,186613,1,0,0:0:0:0:
320,192,186613,1,2,0:0:0:0:
64,192,186749,1,0,0:0:0:0:
448,192,186749,1,2,0:0:0:0:
320,192,186749,1,0,0:0:0:0:
448,192,186885,1,0,0:0:0:0:
320,192,186885,1,2,0:0:0:0:
64,192,186885,1,0,0:0:0:0:
192,192,186885,1,0,0:0:0:70:Bass.wav
320,192,187022,1,0,0:0:0:0:
192,192,187022,1,2,0:0:0:0:
448,192,187022,1,0,0:0:0:0:
320,192,187158,1,0,0:0:0:0:
64,192,187158,1,2,0:0:0:0:
448,192,187158,1,0,0:0:0:0:
192,192,187158,1,0,0:0:0:70:Bass.wav
64,192,187295,1,0,0:0:0:0:
192,192,187295,1,2,0:0:0:0:
448,192,187295,1,0,0:0:0:0:
320,192,187431,1,2,0:0:0:0:
448,192,187431,1,0,0:0:0:70:Bass.wav
64,192,187431,1,0,0:0:0:0:
192,192,187431,1,0,0:0:0:0:
64,192,187567,1,0,0:0:0:0:
192,192,187567,1,2,0:0:0:0:
448,192,187567,1,0,0:0:0:0:
320,192,187704,1,2,0:0:0:0:
448,192,187704,1,0,0:0:0:70:Bass.wav
64,192,187704,1,0,0:0:0:0:
192,192,187749,1,0,0:0:0:0:
320,192,187795,1,0,0:0:0:0:
448,192,187840,1,0,0:0:0:0:
64,192,187885,1,0,0:0:0:0:
192,192,187931,1,0,0:0:0:0:
448,192,187976,1,0,0:0:0:30:Bass.wav
320,192,187976,1,0,0:0:0:0:
64,192,188022,1,0,0:0:0:0:
192,192,188067,1,0,0:0:0:0:
320,192,188113,1,0,0:0:0:0:
448,192,188158,1,0,0:0:0:0:
64,192,188204,1,0,0:0:0:0:
192,192,188249,1,0,0:0:0:30:Bass.wav
320,192,188249,1,0,0:0:0:0:
448,192,188295,1,0,0:0:0:0:
64,192,188340,1,0,0:0:0:0:
192,192,188385,1,0,0:0:0:0:
320,192,188431,1,0,0:0:0:0:
448,192,188476,1,0,0:0:0:0:
192,192,188522,1,0,0:0:0:30:Bass.wav
64,192,188522,1,0,0:0:0:0:
448,192,188590,1,0,0:0:0:30:Bass.wav
320,192,188590,1,0,0:0:0:0:
64,192,188658,1,0,0:0:0:0:
192,192,188658,1,0,0:0:0:30:Bass.wav
448,192,188726,1,0,0:0:0:30:Bass.wav
320,192,188726,1,0,0:0:0:0:
192,192,188795,1,0,0:0:0:30:Bass.wav
64,192,188795,1,0,0:0:0:0:
448,192,188840,1,0,0:0:0:0:
320,192,188885,1,0,0:0:0:0:
192,192,188931,1,0,0:0:0:0:
64,192,188976,1,0,0:0:0:0:
448,192,189022,1,0,0:0:0:0:
192,192,189067,1,0,0:0:0:30:Bass.wav
320,192,189067,1,0,0:0:0:0:
64,192,189113,1,0,0:0:0:0:
448,192,189158,1,0,0:0:0:0:
320,192,189204,1,0,0:0:0:0:
192,192,189249,1,0,0:0:0:0:
64,192,189295,1,0,0:0:0:0:
448,192,189340,1,0,0:0:0:30:Bass.wav
320,192,189340,1,0,0:0:0:0:
192,192,189408,1,0,0:0:0:30:Bass.wav
64,192,189408,1,0,0:0:0:0:
448,192,189476,1,0,0:0:0:0:
320,192,189476,1,0,0:0:0:30:Bass.wav
64,192,189545,1,0,0:0:0:30:Bass.wav
192,192,189545,1,0,0:0:0:0:
320,192,189613,1,0,0:0:0:0:
448,192,189613,1,0,0:0:0:30:Bass.wav
64,192,189681,1,0,0:0:0:30:Bass.wav
192,192,189681,1,0,0:0:0:0:
448,192,189749,1,0,0:0:0:30:Bass.wav
320,192,189749,1,0,0:0:0:0:
64,192,189817,1,0,0:0:0:30:Bass.wav
192,192,189817,1,0,0:0:0:0:
448,192,189885,1,0,0:0:0:30:Bass.wav
320,192,189885,1,0,0:0:0:0:
192,192,189954,1,0,0:0:0:0:
64,192,189954,1,0,0:0:0:30:Bass.wav
448,192,190022,1,0,0:0:0:30:Bass.wav
320,192,190022,1,0,0:0:0:0:
192,192,190090,1,0,0:0:0:0:
64,192,190090,1,0,0:0:0:30:Bass.wav
448,192,190158,1,0,0:0:0:30:Bass.wav
320,192,190158,1,0,0:0:0:0:
192,192,190226,1,0,0:0:0:0:
64,192,190226,1,0,0:0:0:30:Bass.wav
320,192,190295,1,0,0:0:0:0:
448,192,190295,1,0,0:0:0:30:Bass.wav
64,192,190363,1,0,0:0:0:30:Bass.wav
192,192,190363,1,0,0:0:0:0:
448,192,190431,1,0,0:0:0:30:Bass.wav
320,192,190431,1,0,0:0:0:0:
192,192,190499,1,0,0:0:0:0:
64,192,190499,1,0,0:0:0:30:Bass.wav
448,192,190567,1,0,0:0:0:30:Bass.wav
320,192,190567,1,0,0:0:0:0:
64,192,190635,1,0,0:0:0:30:Bass.wav
192,192,190635,1,0,0:0:0:0:
448,192,190704,1,0,0:0:0:30:Bass.wav
320,192,190704,1,0,0:0:0:0:
64,192,190749,1,0,0:0:0:30:Bass.wav
192,192,190749,1,0,0:0:0:0:
320,192,190795,1,0,0:0:0:0:
448,192,190795,1,0,0:0:0:30:Bass.wav
64,192,190840,1,0,0:0:0:30:Bass.wav
192,192,190840,1,0,0:0:0:0:
320,192,190885,1,0,0:0:0:0:
448,192,190885,1,0,0:0:0:30:Bass.wav
64,192,190931,1,0,0:0:0:30:Bass.wav
192,192,190931,1,0,0:0:0:0:
448,192,190976,1,0,0:0:0:30:Bass.wav
320,192,190976,1,0,0:0:0:0:
192,192,191022,1,0,0:0:0:0:
64,192,191022,1,0,0:0:0:30:Bass.wav
320,192,191067,1,0,0:0:0:0:
448,192,191067,1,0,0:0:0:30:Bass.wav
192,192,191113,1,0,0:0:0:0:
64,192,191113,1,0,0:0:0:30:Bass.wav
320,192,191158,1,0,0:0:0:0:
448,192,191158,1,0,0:0:0:30:Bass.wav
192,192,191204,1,0,0:0:0:0:
64,192,191204,1,0,0:0:0:30:Bass.wav
448,192,191249,1,0,0:0:0:30:Bass.wav
320,192,191249,1,0,0:0:0:0:
192,192,191295,1,0,0:0:0:0:
64,192,191295,1,0,0:0:0:30:Bass.wav
448,192,191340,1,0,0:0:0:30:Bass.wav
320,192,191340,1,0,0:0:0:0:
192,192,191385,1,0,0:0:0:0:
64,192,191385,1,0,0:0:0:30:Bass.wav
320,192,191431,1,0,0:0:0:0:
448,192,191431,1,0,0:0:0:30:Bass.wav
64,192,191476,1,0,0:0:0:30:Bass.wav
192,192,191476,1,0,0:0:0:0:
320,192,191522,1,0,0:0:0:0:
448,192,191522,1,0,0:0:0:30:Bass.wav
448,192,192067,1,0,0:0:0:0:
192,192,192067,1,0,0:0:0:0:
64,192,192067,1,0,0:0:0:70:Bass.wav
448,192,192204,1,0,0:0:0:70:Bass.wav
320,192,192204,1,0,0:0:0:0:
64,192,192204,1,0,0:0:0:0:
448,192,192340,1,0,0:0:0:0:
320,192,192340,128,0,192613:0:0:0:0:
64,192,192340,1,0,0:0:0:70:Bass.wav
192,192,192340,1,0,0:0:0:0:
64,192,192613,1,0,0:0:0:0:
192,192,192613,128,0,192885:0:0:0:0:
448,192,192613,1,0,0:0:0:70:Bass.wav
320,192,192885,1,0,0:0:0:70:Bass.wav
448,192,192885,1,0,0:0:0:0:
64,192,192885,128,0,193158:0:0:0:0:
448,192,193158,128,0,193431:0:0:0:0:
320,192,193158,1,0,0:0:0:0:
192,192,193158,1,0,0:0:0:70:Bass.wav
320,192,193431,128,0,193704:0:0:0:0:
192,192,193431,1,0,0:0:0:0:
64,192,193431,1,0,0:0:0:70:Bass.wav
192,192,193704,128,0,193976:0:0:0:0:
448,192,193704,1,0,0:0:0:70:Bass.wav
64,192,193704,1,0,0:0:0:0:
64,192,193976,128,0,194249:0:0:0:0:
320,192,193976,1,0,0:0:0:70:Bass.wav
448,192,193976,1,0,0:0:0:0:
192,192,194249,128,0,194522:0:0:0:0:
320,192,194249,1,0,0:0:0:0:
448,192,194249,1,0,0:0:0:70:Bass.wav
64,192,194522,128,0,194795:0:0:0:0:
320,192,194522,1,0,0:0:0:70:Bass.wav
448,192,194522,1,0,0:0:0:0:
320,192,194795,128,0,195067:0:0:0:0:
448,192,194795,1,0,0:0:0:0:
192,192,194795,1,0,0:0:0:70:Bass.wav
192,192,195067,128,0,195340:0:0:0:0:
448,192,195067,1,0,0:0:0:0:
64,192,195067,1,0,0:0:0:70:Bass.wav
64,192,195340,128,0,195613:0:0:0:0:
320,192,195340,1,0,0:0:0:70:Bass.wav
448,192,195340,128,0,195613:0:0:0:0:
320,192,195613,128,0,195885:0:0:0:0:
192,192,195613,1,0,0:0:0:70:Bass.wav
448,192,195885,128,0,196158:0:0:0:0:
64,192,195885,1,0,0:0:0:70:Bass.wav
192,192,195885,128,0,196158:0:0:0:0:
320,192,196158,128,0,196431:0:0:0:0:
64,192,196158,1,0,0:0:0:70:Bass.wav
192,192,196431,1,0,0:0:0:0:
64,192,196431,1,0,0:0:0:70:Bass.wav
448,192,196431,1,0,0:0:0:0:
192,192,196499,1,0,0:0:0:0:
64,192,196499,1,0,0:0:0:70:Bass.wav
448,192,196635,1,0,0:0:0:70:Bass.wav
320,192,196635,1,0,0:0:0:0:
64,192,196704,1,0,0:0:0:0:
192,192,196704,128,0,196976:0:0:0:0:
448,192,196704,1,0,0:0:0:70:Bass.wav
320,192,196704,1,0,0:0:0:0:
448,192,196976,1,0,0:0:0:0:
320,192,196976,128,0,197249:0:0:0:0:
64,192,196976,1,0,0:0:0:70:Bass.wav
192,192,197249,1,0,0:0:0:70:Bass.wav
64,192,197249,1,0,0:0:0:0:
448,192,197249,128,0,197522:0:0:0:0:
64,192,197522,128,0,197795:0:0:0:0:
192,192,197522,1,0,0:0:0:0:
320,192,197522,1,0,0:0:0:70:Bass.wav
192,192,197795,128,0,198067:0:0:0:0:
320,192,197795,1,0,0:0:0:0:
448,192,197795,1,0,0:0:0:70:Bass.wav
320,192,198067,128,0,198340:0:0:0:0:
64,192,198067,1,0,0:0:0:70:Bass.wav
448,192,198067,1,0,0:0:0:0:
448,192,198340,128,0,198613:0:0:0:0:
192,192,198340,1,0,0:0:0:70:Bass.wav
64,192,198340,1,0,0:0:0:0:
320,192,198613,128,0,198885:0:0:0:0:
192,192,198613,1,0,0:0:0:0:
64,192,198613,1,0,0:0:0:70:Bass.wav
448,192,198885,128,0,199158:0:0:0:0:
192,192,198885,1,0,0:0:0:70:Bass.wav
64,192,198885,1,0,0:0:0:0:
192,192,199158,128,0,199431:0:0:0:0:
64,192,199158,1,0,0:0:0:0:
320,192,199158,1,0,0:0:0:70:Bass.wav
320,192,199431,128,0,199704:0:0:0:0:
64,192,199431,1,0,0:0:0:0:
448,192,199431,1,0,0:0:0:70:Bass.wav
448,192,199704,128,0,199976:0:0:0:0:
192,192,199704,1,0,0:0:0:70:Bass.wav
64,192,199704,1,0,0:0:0:0:
192,192,199976,128,0,200113:0:0:0:0:
64,192,199976,1,0,0:0:0:70:Bass.wav
320,192,199976,1,0,0:0:0:0:
320,192,200113,128,0,200249:0:0:0:0:
64,192,200249,128,0,200385:0:0:0:0:
448,192,200249,1,0,0:0:0:70:Bass.wav
192,192,200249,1,0,0:0:0:0:
192,192,200385,128,0,200522:0:0:0:0:
448,192,200522,1,0,0:0:0:70:Bass.wav
64,192,200522,1,0,0:0:0:0:
320,192,200522,128,0,200795:0:0:0:0:
192,192,200795,1,0,0:0:0:70:Bass.wav
448,192,200795,1,0,0:0:0:0:
64,192,200795,1,0,0:0:0:70:finish.wav
192,192,200931,1,0,0:0:0:0:
320,192,200931,1,0,0:0:0:0:
64,192,201067,128,0,201340:0:0:0:0:
320,192,201067,1,0,0:0:0:0:
192,192,201067,1,0,0:0:0:0:
448,192,201067,1,0,0:0:0:70:Bass.wav
192,192,201340,128,0,201613:0:0:0:0:
320,192,201340,1,0,0:0:0:70:Bass.wav
448,192,201340,1,0,0:0:0:0:
320,192,201613,128,0,201885:0:0:0:0:
64,192,201613,1,0,0:0:0:0:
448,192,201613,1,0,0:0:0:70:Bass.wav
448,192,201885,128,0,202158:0:0:0:0:
192,192,201885,1,0,0:0:0:0:
64,192,201885,1,0,0:0:0:70:Bass.wav
192,192,202158,128,0,202431:0:0:0:0:
64,192,202158,1,0,0:0:0:70:Bass.wav
320,192,202158,1,0,0:0:0:0:
320,192,202431,128,0,202704:0:0:0:0:
448,192,202431,1,0,0:0:0:70:Bass.wav
64,192,202431,1,0,0:0:0:0:
192,192,202704,128,0,202976:0:0:0:0:
64,192,202704,1,0,0:0:0:70:Bass.wav
448,192,202704,1,0,0:0:0:0:
320,192,202976,128,0,203249:0:0:0:0:
64,192,202976,1,0,0:0:0:0:
448,192,202976,1,0,0:0:0:70:Bass.wav
448,192,203249,128,0,203522:0:0:0:0:
192,192,203249,1,0,0:0:0:0:
64,192,203249,1,0,0:0:0:70:Bass.wav
64,192,203522,128,0,203795:0:0:0:0:
192,192,203522,1,0,0:0:0:70:Bass.wav
320,192,203522,1,0,0:0:0:0:
192,192,203795,128,0,204067:0:0:0:0:
320,192,203795,1,0,0:0:0:0:
448,192,203795,1,0,0:0:0:70:Bass.wav
64,192,204067,128,0,204340:0:0:0:0:
320,192,204067,1,0,0:0:0:70:Bass.wav
448,192,204067,128,0,204340:0:0:0:0:
192,192,204340,128,0,204613:0:0:0:0:
320,192,204340,1,0,0:0:0:70:Bass.wav
320,192,204613,128,0,204885:0:0:0:0:
448,192,204613,1,0,0:0:0:70:Bass.wav
64,192,204613,128,0,204885:0:0:0:0:
448,192,204885,128,0,205158:0:0:0:0:
192,192,204885,1,0,0:0:0:70:Bass.wav
64,192,205158,1,0,0:0:0:70:Bass.wav
192,192,205158,1,0,0:0:0:70:finish.wav
320,192,205158,1,0,0:0:0:0:
192,192,205431,128,0,205704:0:0:0:0:
320,192,205431,1,2,0:0:0:0:
64,192,205567,1,0,0:0:0:70:Bass.wav
448,192,205567,1,0,0:0:0:0:
320,192,205704,128,0,205976:0:0:0:0:
448,192,205704,1,2,0:0:0:0:
64,192,205840,1,0,0:0:0:0:
448,192,205976,128,0,206249:0:0:0:0:
192,192,205976,1,0,0:0:0:70:Bass.wav
64,192,206113,1,0,0:0:0:0:
192,192,206181,1,0,0:0:0:0:
320,192,206249,128,0,206522:0:0:0:0:
64,192,206249,1,0,0:0:0:70:Bass.wav
448,192,206385,1,2,0:0:0:0:
192,192,206385,1,0,0:0:0:0:
64,192,206522,128,0,206795:0:0:0:0:
192,192,206522,1,2,0:0:0:0:
192,192,206658,1,0,0:0:0:0:
448,192,206658,1,0,0:0:0:70:Bass.wav
320,192,206726,1,0,0:0:0:0:
448,192,206795,128,0,207067:0:0:0:0:
192,192,206795,1,2,0:0:0:0:
64,192,206931,1,0,0:0:0:0:
320,192,206931,1,0,0:0:0:0:
320,192,207067,128,0,207340:0:0:0:0:
192,192,207067,1,0,0:0:0:70:Bass.wav
64,192,207135,1,0,0:0:0:0:
192,192,207204,1,0,0:0:0:0:
448,192,207272,1,0,0:0:0:0:
192,192,207340,128,0,207476:0:0:0:0:
64,192,207340,128,0,207613:0:0:0:70:Bass.wav
320,192,207476,128,0,207613:0:0:0:0:
448,192,207613,128,0,207885:0:0:0:0:
192,192,207613,1,0,0:0:0:0:
192,192,207749,1,2,0:0:0:0:
320,192,207749,1,0,0:0:0:70:Bass.wav
64,192,207749,128,0,208022:0:0:0:0:
320,192,207885,128,0,208158:0:0:0:0:
192,192,207885,128,2,208022:0:0:0:0:
448,192,208022,128,0,208295:0:0:0:0:
64,192,208158,128,0,208431:0:0:0:0:
192,192,208158,128,0,208295:0:0:0:70:Bass.wav
320,192,208295,128,0,208567:0:0:0:0:
192,192,208431,128,0,208635:0:0:0:0:
448,192,208431,1,0,0:0:0:70:Bass.wav
448,192,208567,128,2,208635:0:0:0:0:
320,192,208635,128,0,208704:0:0:0:0:
64,192,208704,128,2,208840:0:0:0:0:
448,192,208840,1,0,0:0:0:70:Bass.wav
320,192,208840,128,0,208908:0:0:0:0:
192,192,208908,128,0,208976:0:0:0:0:
64,192,208976,128,2,209113:0:0:0:0:
320,192,209113,128,0,209181:0:0:0:0:
192,192,209181,128,0,209249:0:0:0:0:
448,192,209249,1,0,0:0:0:70:Bass.wav
64,192,209249,128,0,209385:0:0:0:0:
320,192,209317,1,0,0:0:0:0:
192,192,209385,1,0,0:0:0:0:
64,192,209454,1,0,0:0:0:0:
192,192,209522,1,0,0:0:0:0:
320,192,209522,1,0,0:0:0:70:Bass.wav
448,192,209522,1,0,0:0:0:70:finish.wav
192,192,209795,1,0,0:0:0:70:Bass.wav
320,192,209795,1,0,0:0:0:0:
64,192,209795,1,0,0:0:0:0:
448,192,209795,128,0,209931:0:0:0:0:
64,192,209931,128,0,210067:0:0:0:0:
192,192,210067,1,0,0:0:0:0:
320,192,210067,1,0,0:0:0:70:Bass.wav
448,192,210067,1,0,0:0:0:0:
448,192,210204,128,0,210340:0:0:0:0:
64,192,210340,1,0,0:0:0:0:
320,192,210340,1,0,0:0:0:0:
192,192,210340,1,0,0:0:0:70:Bass.wav
192,192,210476,1,0,0:0:0:0:
320,192,210522,1,0,0:0:0:0:
448,192,210567,1,0,0:0:0:0:
192,192,210613,1,0,0:0:0:0:
320,192,210613,1,0,0:0:0:0:
64,192,210613,1,0,0:0:0:70:Bass.wav
448,192,210749,1,0,0:0:0:0:
320,192,210795,1,0,0:0:0:0:
192,192,210840,1,0,0:0:0:0:
320,192,210885,1,0,0:0:0:0:
448,192,210885,1,0,0:0:0:70:Bass.wav
64,192,210885,128,0,211022:0:0:0:0:
448,192,211022,128,0,211158:0:0:0:0:
192,192,211158,1,0,0:0:0:70:Bass.wav
320,192,211158,1,0,0:0:0:0:
64,192,211158,1,0,0:0:0:0:
64,192,211295,128,0,211431:0:0:0:0:
320,192,211431,1,0,0:0:0:70:Bass.wav
448,192,211431,1,0,0:0:0:0:
192,192,211431,1,0,0:0:0:0:
64,192,211567,1,0,0:0:0:0:
320,192,211567,1,0,0:0:0:0:
192,192,211635,1,0,0:0:0:0:
448,192,211635,1,0,0:0:0:0:
320,192,211704,128,0,211840:0:0:0:0:
64,192,211704,128,0,211840:0:0:0:70:Bass.wav
192,192,211840,128,0,211976:0:0:0:0:
320,192,211976,1,0,0:0:0:70:Bass.wav
64,192,211976,1,0,0:0:0:0:
448,192,211976,128,0,212113:0:0:0:0:
64,192,212113,128,0,212249:0:0:0:0:
320,192,212249,1,0,0:0:0:0:
192,192,212249,1,0,0:0:0:70:Bass.wav
448,192,212249,1,0,0:0:0:0:
320,192,212385,128,0,212522:0:0:0:0:
448,192,212522,1,0,0:0:0:0:
192,192,212522,1,0,0:0:0:0:
64,192,212522,1,0,0:0:0:70:Bass.wav
320,192,212658,1,0,0:0:0:0:
192,192,212704,1,0,0:0:0:0:
64,192,212749,1,0,0:0:0:0:
320,192,212795,1,0,0:0:0:0:
448,192,212795,1,0,0:0:0:70:Bass.wav
192,192,212795,1,0,0:0:0:0:
64,192,212931,1,0,0:0:0:0:
192,192,212976,1,0,0:0:0:0:
320,192,213022,1,0,0:0:0:0:
192,192,213067,1,0,0:0:0:0:
64,192,213067,1,0,0:0:0:70:Bass.wav
448,192,213067,128,0,213204:0:0:0:0:
64,192,213204,128,0,213340:0:0:0:0:
192,192,213340,1,0,0:0:0:0:
448,192,213340,1,0,0:0:0:70:Bass.wav
320,192,213408,1,0,0:0:0:0:
192,192,213476,1,0,0:0:0:0:
320,192,213545,1,0,0:0:0:0:
64,192,213613,1,0,0:0:0:70:Bass.wav
192,192,213613,1,0,0:0:0:0:
320,192,213681,1,0,0:0:0:0:
448,192,213749,1,0,0:0:0:0:
320,192,213817,1,0,0:0:0:0:
64,192,213885,128,0,213954:0:0:0:0:
192,192,213885,128,0,213954:0:0:0:70:Bass.wav
448,192,213954,128,0,214022:0:0:0:0:
320,192,214022,128,0,214158:0:0:0:0:
64,192,214022,128,0,214158:0:0:0:0:
448,192,214158,1,0,0:0:0:0:
192,192,214158,128,0,214295:0:0:0:0:
448,192,214295,1,0,0:0:0:0:
64,192,214295,128,0,214431:0:0:0:0:
448,192,214431,128,0,214567:0:0:0:0:
320,192,214431,1,0,0:0:0:70:DrumC1.wav
192,192,214567,1,0,0:0:0:0:
192,192,214704,1,0,0:0:0:70:Bass.wav
320,192,214704,1,0,0:0:0:0:
64,192,214704,1,0,0:0:0:70:finish.wav
64,192,214840,1,0,0:0:0:0:
320,192,214840,128,0,214908:0:0:0:0:
192,192,214908,128,0,214976:0:0:0:0:
448,192,214976,1,0,0:0:0:0:
64,192,214976,128,0,215113:0:0:0:0:
320,192,215113,1,0,0:0:0:0:
448,192,215249,1,0,0:0:0:0:
192,192,215249,1,0,0:0:0:70:Bass.wav
64,192,215249,1,0,0:0:0:0:
64,192,215385,1,0,0:0:0:0:
320,192,215385,128,0,215454:0:0:0:0:
448,192,215454,1,0,0:0:0:0:
192,192,215454,128,0,215522:0:0:0:0:
320,192,215522,1,0,0:0:0:70:DrumC1.wav
64,192,215522,128,0,215658:0:0:0:0:
192,192,215658,1,0,0:0:0:0:
448,192,215795,1,0,0:0:0:0:
320,192,215863,1,0,0:0:0:0:
192,192,215931,128,0,216067:0:0:0:0:
64,192,215931,1,0,0:0:0:0:
320,192,215999,1,0,0:0:0:0:
64,192,216067,128,0,216204:0:0:0:0:
448,192,216067,1,0,0:0:0:70:Bass.wav
320,192,216204,1,0,0:0:0:0:
448,192,216340,128,0,216476:0:0:0:0:
192,192,216340,128,0,216476:0:0:0:0:
64,192,216476,1,0,0:0:0:0:
320,192,216613,128,0,216749:0:0:0:0:
64,192,216613,128,0,216749:0:0:0:0:
448,192,216613,1,0,0:0:0:70:DrumC1.wav
192,192,216749,1,0,0:0:0:0:
192,192,216885,128,0,217022:0:0:0:0:
64,192,216885,1,0,0:0:0:70:Bass.wav
448,192,216885,128,0,217022:0:0:0:0:
320,192,217022,1,0,0:0:0:0:
192,192,217090,1,0,0:0:0:0:
320,192,217158,128,0,217295:0:0:0:0:
64,192,217158,128,0,217295:0:0:0:0:
192,192,217295,1,0,0:0:0:0:
448,192,217431,128,0,217567:0:0:0:0:
192,192,217431,128,0,217567:0:0:0:0:
64,192,217431,1,0,0:0:0:70:Bass.wav
320,192,217567,1,0,0:0:0:0:
192,192,217635,1,0,0:0:0:0:
320,192,217704,128,0,217840:0:0:0:0:
64,192,217704,128,0,217840:0:0:0:0:
448,192,217704,1,0,0:0:0:70:DrumC1.wav
192,192,217772,1,0,0:0:0:0:
448,192,217840,1,0,0:0:0:0:
192,192,217908,1,0,0:0:0:0:
448,192,217976,128,0,218113:0:0:0:0:
64,192,217976,128,0,218113:0:0:0:0:
320,192,218045,1,0,0:0:0:0:
192,192,218113,1,0,0:0:0:0:
64,192,218181,1,0,0:0:0:0:
192,192,218249,1,0,0:0:0:0:
320,192,218249,1,0,0:0:0:70:Bass.wav
448,192,218249,1,0,0:0:0:70:finish.wav
192,192,218522,1,0,0:0:0:0:
320,192,218522,1,0,0:0:0:0:
64,192,218522,1,0,0:0:0:70:Bass.wav
448,192,218522,128,0,218658:0:0:0:0:
64,192,218658,128,0,218795:0:0:0:0:
192,192,218795,1,0,0:0:0:0:
320,192,218795,1,0,0:0:0:70:Bass.wav
448,192,218795,1,0,0:0:0:0:
448,192,218931,128,0,219067:0:0:0:0:
192,192,219067,1,0,0:0:0:70:Bass.wav
320,192,219067,1,0,0:0:0:0:
64,192,219067,1,0,0:0:0:0:
192,192,219204,1,0,0:0:0:0:
320,192,219249,1,0,0:0:0:0:
448,192,219295,1,0,0:0:0:0:
192,192,219340,1,0,0:0:0:0:
320,192,219340,1,0,0:0:0:0:
64,192,219340,1,0,0:0:0:70:Bass.wav
448,192,219476,1,0,0:0:0:0:
320,192,219522,1,0,0:0:0:0:
192,192,219567,1,0,0:0:0:0:
320,192,219613,1,0,0:0:0:0:
448,192,219613,1,0,0:0:0:70:Bass.wav
64,192,219613,128,0,219749:0:0:0:0:
448,192,219749,128,0,219885:0:0:0:0:
192,192,219885,1,0,0:0:0:70:Bass.wav
320,192,219885,1,0,0:0:0:0:
64,192,219885,1,0,0:0:0:0:
64,192,220022,128,0,220158:0:0:0:0:
320,192,220158,1,0,0:0:0:70:Bass.wav
448,192,220158,1,0,0:0:0:0:
192,192,220158,1,0,0:0:0:0:
448,192,220295,1,0,0:0:0:0:
192,192,220295,1,0,0:0:0:0:
64,192,220363,1,0,0:0:0:0:
320,192,220363,1,0,0:0:0:0:
448,192,220431,128,0,220567:0:0:0:70:Bass.wav
192,192,220431,128,0,220567:0:0:0:0:
320,192,220567,128,0,220704:0:0:0:0:
192,192,220704,1,0,0:0:0:70:Bass.wav
448,192,220704,1,0,0:0:0:0:
64,192,220704,128,0,220840:0:0:0:0:
448,192,220840,128,0,220976:0:0:0:0:
320,192,220976,1,0,0:0:0:0:
192,192,220976,1,0,0:0:0:0:
64,192,220976,1,0,0:0:0:70:Bass.wav
64,192,221113,128,0,221249:0:0:0:0:
448,192,221249,1,0,0:0:0:0:
320,192,221249,1,0,0:0:0:70:Bass.wav
192,192,221249,1,0,0:0:0:0:
320,192,221385,1,0,0:0:0:0:
192,192,221431,1,0,0:0:0:0:
64,192,221476,1,0,0:0:0:0:
320,192,221522,1,0,0:0:0:0:
448,192,221522,1,0,0:0:0:70:Bass.wav
192,192,221522,1,0,0:0:0:0:
64,192,221658,1,0,0:0:0:0:
192,192,221704,1,0,0:0:0:0:
320,192,221749,1,0,0:0:0:0:
192,192,221795,1,0,0:0:0:0:
64,192,221795,1,0,0:0:0:70:Bass.wav
448,192,221795,128,0,221931:0:0:0:0:
64,192,221931,128,0,222067:0:0:0:0:
448,192,222067,1,0,0:0:0:0:
192,192,222067,1,0,0:0:0:0:
320,192,222067,1,0,0:0:0:70:Bass.wav
448,192,222204,1,0,0:0:0:0:
320,192,222204,1,0,0:0:0:0:
192,192,222272,128,0,222340:0:0:0:0:
64,192,222272,128,0,222340:0:0:0:0:
320,192,222340,1,0,0:0:0:70:Bass.wav
448,192,222340,1,0,0:0:0:0:
320,192,222476,128,0,222545:0:0:0:0:
448,192,222476,128,0,222545:0:0:0:0:
64,192,222613,1,0,0:0:0:0:
192,192,222613,1,0,0:0:0:70:Bass.wav
320,192,222613,1,0,0:0:0:0:
448,192,222681,128,0,222749:0:0:0:0:
320,192,222749,128,0,222885:0:0:0:0:
64,192,222749,128,0,222885:0:0:0:0:
192,192,222885,1,0,0:0:0:0:
448,192,222885,1,0,0:0:0:0:
448,192,223022,1,0,0:0:0:0:
64,192,223022,128,0,223158:0:0:0:0:
448,192,223158,128,0,223295:0:0:0:0:
320,192,223158,1,0,0:0:0:70:DrumC1.wav
192,192,223295,1,0,0:0:0:0:
192,192,223431,1,0,0:0:0:70:finish.wav
320,192,223431,1,0,0:0:0:0:
64,192,223431,1,0,0:0:0:70:Bass.wav
64,192,223567,128,0,223635:0:0:0:0:
448,192,223567,1,0,0:0:0:0:
192,192,223635,128,0,223704:0:0:0:0:
320,192,223635,1,0,0:0:0:0:
448,192,223704,128,0,223840:0:0:0:0:
320,192,223840,1,0,0:0:0:0:
448,192,223976,1,0,0:0:0:0:
64,192,223976,1,0,0:0:0:0:
192,192,223976,1,0,0:0:0:70:Bass.wav
320,192,224113,128,0,224181:0:0:0:0:
64,192,224113,1,0,0:0:0:0:
192,192,224181,128,0,224249:0:0:0:0:
448,192,224249,1,0,0:0:0:70:DrumC1.wav
64,192,224249,128,0,224385:0:0:0:0:
320,192,224385,1,0,0:0:0:0:
448,192,224522,1,0,0:0:0:0:
320,192,224590,1,0,0:0:0:0:
64,192,224658,128,0,224726:0:0:0:0:
448,192,224658,1,0,0:0:0:0:
192,192,224795,1,0,0:0:0:70:Bass.wav
448,192,224795,128,0,225067:0:0:0:0:
320,192,224795,1,0,0:0:0:0:
448,192,225204,128,0,225272:0:0:0:0:
448,192,225340,128,0,225408:0:0:0:0:
448,192,225476,128,0,225817:0:0:0:0:
192,192,225885,5,2,0:0:0:0:
64,192,225885,5,0,0:0:0:0:
448,192,225931,1,0,0:0:0:0:
320,192,225931,1,2,0:0:0:0:
192,192,226022,1,0,0:0:0:0:
448,192,226022,1,0,0:0:0:0:
64,192,226022,1,2,0:0:0:0:
64,192,226158,1,2,0:0:0:0:
192,192,226158,1,0,0:0:0:0:
448,192,226158,1,0,0:0:0:0:
320,192,226295,1,2,0:0:0:0:
448,192,226295,1,0,0:0:0:0:
192,192,226340,1,2,0:0:0:0:
64,192,226340,1,0,0:0:0:0:
64,192,226431,1,0,0:0:0:0:
448,192,226431,1,2,0:0:0:0:
320,192,226431,1,0,0:0:0:0:
448,192,226567,1,2,0:0:0:0:
320,192,226567,1,0,0:0:0:0:
64,192,226567,1,0,0:0:0:0:
448,192,226704,1,2,0:0:0:0:
320,192,226704,1,0,0:0:0:70:Bass.wav
192,192,226704,1,0,0:0:0:0:
320,192,226840,1,0,0:0:0:0:
192,192,226840,1,0,0:0:0:70:Bass.wav
64,192,226840,1,2,0:0:0:0:
320,192,226976,1,0,0:0:0:70:finish.wav
448,192,226976,1,2,0:0:0:0:
64,192,226976,1,0,0:0:0:70:Bass.wav
192,192,226976,1,0,0:0:0:0:
192,192,227385,1,0,0:0:0:70:finish.wav
448,192,227385,1,0,0:0:0:0:
64,192,227385,1,0,0:0:0:70:Bass.wav
64,192,227795,1,0,0:0:0:0:
320,192,227795,1,0,0:0:0:70:Bass.wav
448,192,227795,1,0,0:0:0:70:finish.wav
320,192,228204,1,0,0:0:0:0:
192,192,228204,1,0,0:0:0:70:Bass.wav
64,192,228204,1,0,0:0:0:70:finish.wav
320,192,228613,1,0,0:0:0:70:finish.wav
64,192,228613,1,0,0:0:0:0:
448,192,228613,1,0,0:0:0:70:Bass.wav
192,192,228885,1,0,0:0:0:70:Bass.wav
320,192,228885,1,0,0:0:0:0:
64,192,228885,1,0,0:0:0:70:finish.wav
64,192,229158,1,0,0:0:0:0:
320,192,229158,1,0,0:0:0:70:finish.wav
448,192,229158,1,0,0:0:0:70:Bass.wav
448,192,229567,1,0,0:0:0:0:
320,192,229567,1,0,0:0:0:70:finish.wav
192,192,229567,1,0,0:0:0:70:Bass.wav
192,192,229976,1,0,0:0:0:70:Bass.wav
320,192,229976,1,0,0:0:0:70:finish.wav
64,192,229976,1,0,0:0:0:0:
192,192,230385,1,0,0:0:0:70:finish.wav
320,192,230385,1,0,0:0:0:70:Bass.wav
448,192,230385,1,0,0:0:0:0:
320,192,230795,1,0,0:0:0:70:finish.wav
192,192,230795,1,0,0:0:0:70:Bass.wav
64,192,230795,1,0,0:0:0:0:
448,192,230897,1,0,0:0:0:0:
320,192,230931,1,0,0:0:0:0:
64,192,230965,1,0,0:0:0:0:
192,192,230999,1,0,0:0:0:0:
448,192,231033,1,0,0:0:0:0:
320,192,231067,1,0,0:0:0:0:
64,192,231101,1,0,0:0:0:0:
192,192,231135,1,0,0:0:0:0:
448,192,231170,1,0,0:0:0:0:
320,192,231204,1,0,0:0:0:0:
64,192,231238,1,0,0:0:0:0:
192,192,231272,1,0,0:0:0:0:
448,192,231306,1,0,0:0:0:0:
192,192,231340,1,0,0:0:0:70:finish.wav
64,192,231340,1,0,0:0:0:70:Bass.wav
320,192,231340,1,0,0:0:0:0:
192,192,231749,1,0,0:0:0:0:
320,192,231749,1,0,0:0:0:70:finish.wav
448,192,231749,1,0,0:0:0:70:Bass.wav
64,192,232158,1,0,0:0:0:70:Bass.wav
192,192,232158,1,0,0:0:0:70:finish.wav
448,192,232158,1,0,0:0:0:0:
320,192,232567,1,0,0:0:0:70:finish.wav
448,192,232567,1,0,0:0:0:70:Bass.wav
64,192,232567,1,0,0:0:0:0:
192,192,232976,1,0,0:0:0:70:finish.wav
64,192,232976,1,0,0:0:0:70:Bass.wav
448,192,232976,1,0,0:0:0:0:
192,192,233249,1,0,0:0:0:0:
320,192,233249,1,0,0:0:0:70:finish.wav
448,192,233249,1,0,0:0:0:70:Bass.wav
64,192,233522,1,0,0:0:0:70:Bass.wav
192,192,233522,1,0,0:0:0:70:finish.wav
448,192,233522,1,0,0:0:0:0:
320,192,233931,1,0,0:0:0:70:finish.wav
448,192,233931,1,0,0:0:0:70:Bass.wav
192,192,233931,1,0,0:0:0:0:
192,192,234340,1,0,0:0:0:70:finish.wav
64,192,234340,1,0,0:0:0:70:Bass.wav
320,192,234340,1,0,0:0:0:0:
320,192,234749,5,0,0:0:0:70:finish.wav
448,192,234749,1,0,0:0:0:70:Bass.wav
64,192,234749,1,0,0:0:0:0:
64,192,235158,1,0,0:0:0:70:finish.wav
192,192,235158,1,0,0:0:0:70:Bass.wav
448,192,235158,1,0,0:0:0:0:
320,192,235295,1,0,0:0:0:0:
64,192,235363,128,0,235431:0:0:0:0:
448,192,235431,128,0,235499:0:0:0:0:
192,192,235567,128,0,235635:0:0:0:0:
64,192,235704,5,0,0:0:0:70:Bass.wav
448,192,235704,1,2,0:0:0:0:
320,192,235704,1,0,0:0:0:70:finish.wav
192,192,235772,1,2,0:0:0:0:
448,192,235840,1,2,0:0:0:0:
64,192,235840,1,0,0:0:0:0:
192,192,235908,1,2,0:0:0:0:
320,192,235908,1,0,0:0:0:0:
448,192,235976,1,2,0:0:0:0:
64,192,235976,1,0,0:0:0:0:
192,192,236113,1,2,0:0:0:0:
64,192,236113,1,0,0:0:0:70:finish.wav
448,192,236113,1,0,0:0:0:70:Bass.wav
320,192,236181,1,2,0:0:0:0:
64,192,236249,1,2,0:0:0:0:
448,192,236249,1,0,0:0:0:0:
192,192,236317,1,0,0:0:0:0:
320,192,236317,1,2,0:0:0:0:
64,192,236385,1,2,0:0:0:0:
448,192,236385,1,0,0:0:0:0:
320,192,236522,1,2,0:0:0:0:
448,192,236522,1,0,0:0:0:70:finish.wav
64,192,236522,1,0,0:0:0:70:Bass.wav
192,192,236590,1,2,0:0:0:0:
320,192,236658,1,2,0:0:0:0:
448,192,236658,1,0,0:0:0:0:
64,192,236726,1,0,0:0:0:0:
192,192,236726,1,2,0:0:0:0:
448,192,236795,1,0,0:0:0:0:
320,192,236795,1,2,0:0:0:0:
64,192,236931,1,0,0:0:0:70:finish.wav
192,192,236931,1,2,0:0:0:0:
448,192,236931,1,0,0:0:0:70:Bass.wav
320,192,236999,1,2,0:0:0:0:
64,192,237067,1,2,0:0:0:0:
192,192,237067,1,0,0:0:0:0:
448,192,237135,1,0,0:0:0:0:
320,192,237135,1,2,0:0:0:0:
64,192,237204,1,2,0:0:0:0:
192,192,237204,1,0,0:0:0:0:
448,192,237340,1,0,0:0:0:70:finish.wav
64,192,237340,1,0,0:0:0:70:Bass.wav
320,192,237340,1,2,0:0:0:0:
192,192,237408,1,2,0:0:0:0:
448,192,237476,1,2,0:0:0:0:
64,192,237476,1,0,0:0:0:0:
320,192,237545,1,2,0:0:0:0:
64,192,237613,1,0,0:0:0:70:finish.wav
448,192,237613,1,0,0:0:0:70:Bass.wav
192,192,237613,1,2,0:0:0:0:
320,192,237681,1,2,0:0:0:0:
64,192,237749,1,0,0:0:0:0:
448,192,237749,1,2,0:0:0:0:
192,192,237817,1,2,0:0:0:0:
64,192,237885,1,0,0:0:0:70:Bass.wav
448,192,237885,1,0,0:0:0:70:finish.wav
320,192,237885,1,2,0:0:0:0:
192,192,237954,1,2,0:0:0:0:
320,192,238022,1,2,0:0:0:0:
64,192,238022,1,0,0:0:0:0:
192,192,238090,1,2,0:0:0:0:
448,192,238090,1,0,0:0:0:0:
320,192,238158,1,2,0:0:0:0:
64,192,238158,1,0,0:0:0:0:
192,192,238295,1,2,0:0:0:0:
64,192,238295,1,0,0:0:0:70:finish.wav
448,192,238295,1,0,0:0:0:70:Bass.wav
320,192,238363,1,2,0:0:0:0:
192,192,238431,1,2,0:0:0:0:
448,192,238431,1,0,0:0:0:0:
320,192,238499,1,2,0:0:0:0:
64,192,238499,1,0,0:0:0:0:
192,192,238567,1,2,0:0:0:0:
448,192,238567,1,0,0:0:0:0:
64,192,238704,1,0,0:0:0:70:Bass.wav
448,192,238704,1,0,0:0:0:70:finish.wav
320,192,238704,1,2,0:0:0:0:
192,192,238772,1,2,0:0:0:0:
448,192,238840,1,0,0:0:0:0:
320,192,238840,1,2,0:0:0:0:
64,192,238908,1,0,0:0:0:0:
192,192,238908,1,2,0:0:0:0:
448,192,238976,1,0,0:0:0:0:
320,192,238976,1,2,0:0:0:0:
448,192,239113,1,0,0:0:0:70:Bass.wav
192,192,239113,1,2,0:0:0:0:
64,192,239113,1,0,0:0:0:70:finish.wav
320,192,239181,1,2,0:0:0:0:
192,192,239249,1,2,0:0:0:0:
64,192,239249,1,0,0:0:0:0:
448,192,239317,1,0,0:0:0:0:
320,192,239317,1,2,0:0:0:0:
192,192,239385,1,2,0:0:0:0:
64,192,239385,1,0,0:0:0:0:
192,192,239522,128,0,239590:0:0:0:0:
448,192,239522,128,0,240067:0:0:0:70:finish.wav
320,192,239522,128,0,240067:0:0:0:70:Bass.wav
192,192,239658,128,0,239726:0:0:0:0:
192,192,239795,128,0,239999:0:0:0:0:
64,192,240067,1,0,0:0:0:70:finish.wav
192,192,240067,1,0,0:0:0:70:Bass.wav
320,192,240135,1,2,0:0:0:0:
448,192,240135,1,0,0:0:0:0:
64,192,240204,1,0,0:0:0:0:
192,192,240204,1,2,0:0:0:0:
320,192,240272,1,2,0:0:0:0:
448,192,240272,1,0,0:0:0:0:
64,192,240340,1,0,0:0:0:0:
192,192,240340,1,2,0:0:0:0:
320,192,240408,1,2,0:0:0:0:
64,192,240476,1,0,0:0:0:70:finish.wav
192,192,240476,1,2,0:0:0:0:
448,192,240476,1,0,0:0:0:70:Bass.wav
320,192,240545,1,2,0:0:0:0:
448,192,240613,1,2,0:0:0:0:
64,192,240613,1,0,0:0:0:0:
192,192,240681,1,2,0:0:0:0:
320,192,240681,1,0,0:0:0:0:
448,192,240749,1,2,0:0:0:0:
64,192,240749,1,0,0:0:0:0:
320,192,240817,1,0,0:0:0:0:
192,192,240885,1,2,0:0:0:0:
64,192,240885,1,0,0:0:0:70:finish.wav
448,192,240885,1,0,0:0:0:70:Bass.wav
320,192,240954,1,2,0:0:0:0:
192,192,241022,1,2,0:0:0:0:
64,192,241022,1,0,0:0:0:0:
320,192,241090,1,2,0:0:0:0:
448,192,241090,1,0,0:0:0:0:
64,192,241158,1,0,0:0:0:0:
192,192,241158,1,2,0:0:0:0:
320,192,241226,1,2,0:0:0:0:
448,192,241295,1,0,0:0:0:70:Bass.wav
64,192,241295,1,0,0:0:0:70:finish.wav
192,192,241295,1,2,0:0:0:0:
320,192,241363,1,2,0:0:0:0:
192,192,241431,1,2,0:0:0:0:
448,192,241431,1,0,0:0:0:0:
320,192,241499,1,2,0:0:0:0:
64,192,241499,1,0,0:0:0:0:
448,192,241567,1,0,0:0:0:0:
192,192,241567,1,2,0:0:0:0:
64,192,241635,1,2,0:0:0:0:
192,192,241704,1,0,0:0:0:70:Bass.wav
320,192,241704,1,2,0:0:0:0:
448,192,241704,1,0,0:0:0:70:finish.wav
64,192,241772,1,2,0:0:0:0:
192,192,241840,1,2,0:0:0:0:
448,192,241840,1,0,0:0:0:0:
320,192,241908,1,2,0:0:0:0:
448,192,241976,1,0,0:0:0:70:Bass.wav
64,192,241976,1,2,0:0:0:0:
192,192,241976,1,0,0:0:0:70:finish.wav
320,192,242045,1,2,0:0:0:0:
448,192,242113,1,0,0:0:0:0:
192,192,242113,1,2,0:0:0:0:
64,192,242181,1,2,0:0:0:0:
320,192,242249,1,2,0:0:0:0:
448,192,242249,1,0,0:0:0:70:finish.wav
192,192,242249,1,0,0:0:0:70:Bass.wav
64,192,242522,1,0,0:0:0:0:
448,192,242613,1,0,0:0:0:0:
192,192,242704,1,0,0:0:0:0:
320,192,242795,1,0,0:0:0:0:
64,192,242885,1,0,0:0:0:0:
448,192,242976,1,0,0:0:0:0:
192,192,243067,1,0,0:0:0:0:
320,192,243158,1,0,0:0:0:0:
64,192,243249,1,0,0:0:0:0:
320,192,243340,1,2,0:0:0:0:
448,192,243340,1,0,0:0:0:0:
192,192,243408,1,2,0:0:0:0:
64,192,243408,1,0,0:0:0:0:
448,192,243476,1,0,0:0:0:0:
64,192,243545,1,0,0:0:0:0:
320,192,243613,1,2,0:0:0:0:
448,192,243613,1,0,0:0:0:0:
64,192,243681,1,0,0:0:0:0:
192,192,243681,1,2,0:0:0:0:
448,192,243749,1,0,0:0:0:0:
192,192,243817,1,0,0:0:0:0:
448,192,243885,1,0,0:0:0:0:
320,192,243885,1,2,0:0:0:0:
64,192,243954,1,0,0:0:0:0:
192,192,243954,1,2,0:0:0:0:
448,192,244022,1,0,0:0:0:0:
320,192,244090,1,0,0:0:0:0:
192,192,244158,1,0,0:0:0:0:
64,192,244158,1,0,0:0:0:70:LR3_Snare FCSRL.wav
448,192,244158,1,0,0:0:0:0:
320,192,244249,1,0,0:0:0:0:
192,192,244340,1,0,0:0:0:0:
64,192,244431,128,0,244976:0:0:0:0:
448,192,244431,1,0,0:0:0:70:Bass.wav
320,192,244431,128,0,244704:0:0:0:0:
448,192,244704,128,0,245181:0:0:0:0:
192,192,244704,128,0,245181:0:0:0:0:
320,192,244976,128,0,245181:0:0:0:0:
64,192,245249,1,0,0:0:0:70:finish.wav
192,192,245249,1,0,0:0:0:70:LR3_Snare FCSRL.wav
320,192,245249,1,0,0:0:0:70:Bass.wav
448,192,245249,1,0,0:0:0:0:
192,192,245385,1,0,0:0:0:0:
320,192,245385,1,0,0:0:0:70:Bass.wav
448,192,245385,1,0,0:0:0:0:
192,192,245522,1,0,0:0:0:0:
64,192,245522,1,0,0:0:0:0:
320,192,245522,1,0,0:0:0:70:Bass.wav
448,192,245522,1,0,0:0:0:0:
448,192,245658,1,0,0:0:0:0:
64,192,245658,1,0,0:0:0:0:
320,192,245726,1,0,0:0:0:0:
192,192,245726,1,0,0:0:0:70:Bass.wav
448,192,245795,1,0,0:0:0:70:Bass.wav
64,192,245795,1,0,0:0:0:0:
64,192,245931,1,0,0:0:0:0:
192,192,245931,1,0,0:0:0:0:
320,192,245931,1,0,0:0:0:0:
448,192,245931,1,0,0:0:0:70:Bass.wav
320,192,246067,1,0,0:0:0:0:
192,192,246067,1,0,0:0:0:0:
448,192,246135,1,0,0:0:0:0:
64,192,246135,1,0,0:0:0:70:Bass.wav
320,192,246204,1,0,0:0:0:0:
192,192,246204,1,0,0:0:0:70:Bass.wav
448,192,246340,1,0,0:0:0:70:Bass.wav
320,192,246340,1,0,0:0:0:0:
192,192,246340,1,0,0:0:0:0:
64,192,246340,1,0,0:0:0:0:
192,192,246476,1,0,0:0:0:0:
320,192,246476,1,0,0:0:0:0:
448,192,246613,1,0,0:0:0:0:
320,192,246613,1,0,0:0:0:0:
64,192,246613,1,0,0:0:0:0:
192,192,246613,1,0,0:0:0:70:Bass.wav
64,192,246749,1,0,0:0:0:0:
448,192,246749,1,0,0:0:0:0:
320,192,246817,1,0,0:0:0:0:
192,192,246817,1,0,0:0:0:70:Bass.wav
448,192,246885,1,0,0:0:0:0:
64,192,246885,1,0,0:0:0:70:Bass.wav
320,192,247022,1,0,0:0:0:0:
448,192,247022,1,0,0:0:0:0:
64,192,247022,1,0,0:0:0:70:Bass.wav
192,192,247022,1,0,0:0:0:0:
320,192,247158,1,0,0:0:0:0:
192,192,247158,1,0,0:0:0:0:
64,192,247226,1,0,0:0:0:70:Bass.wav
448,192,247226,1,0,0:0:0:0:
192,192,247295,1,0,0:0:0:70:Bass.wav
320,192,247295,1,0,0:0:0:0:
320,192,247431,1,0,0:0:0:0:
448,192,247431,1,0,0:0:0:0:
192,192,247431,1,0,0:0:0:0:
64,192,247431,1,0,0:0:0:70:Bass.wav
64,192,247567,1,0,0:0:0:0:
448,192,247567,1,0,0:0:0:70:Bass.wav
320,192,247704,1,0,0:0:0:70:Bass.wav
192,192,247704,1,0,0:0:0:0:
448,192,247772,1,0,0:0:0:0:
64,192,247772,1,0,0:0:0:0:
320,192,247840,1,0,0:0:0:0:
192,192,247840,1,0,0:0:0:0:
448,192,247908,1,0,0:0:0:0:
64,192,247908,1,0,0:0:0:70:Bass.wav
192,192,247976,1,0,0:0:0:70:Bass.wav
320,192,247976,1,0,0:0:0:0:
192,192,248113,1,0,0:0:0:0:
64,192,248113,1,0,0:0:0:70:Bass.wav
320,192,248113,1,0,0:0:0:0:
448,192,248113,1,0,0:0:0:0:
448,192,248249,1,0,0:0:0:0:
64,192,248249,1,0,0:0:0:0:
320,192,248317,1,0,0:0:0:70:Bass.wav
192,192,248317,1,0,0:0:0:0:
448,192,248385,1,0,0:0:0:0:
64,192,248385,1,0,0:0:0:70:Bass.wav
320,192,248522,128,0,248658:0:0:0:0:
64,192,248522,1,0,0:0:0:0:
192,192,248522,1,0,0:0:0:70:Bass.wav
448,192,248522,128,0,248658:0:0:0:0:
192,192,248795,1,0,0:0:0:0:
320,192,248795,1,0,0:0:0:70:Bass.wav
448,192,248795,128,0,249067:0:0:0:0:
192,192,248999,1,0,0:0:0:0:
64,192,248999,1,0,0:0:0:70:Bass.wav
192,192,249067,1,0,0:0:0:70:Bass.wav
320,192,249067,128,0,249408:0:0:0:0:
448,192,249204,1,0,0:0:0:70:Bass.wav
64,192,249204,1,0,0:0:0:0:
192,192,249408,128,0,249613:0:0:0:0:
64,192,249408,1,0,0:0:0:70:Bass.wav
320,192,249476,1,0,0:0:0:0:
448,192,249476,1,0,0:0:0:70:Bass.wav
448,192,249613,128,0,249749:0:0:0:0:
64,192,249613,1,0,0:0:0:0:
320,192,249613,1,0,0:0:0:70:Bass.wav
192,192,249749,1,0,0:0:0:0:
64,192,249749,1,0,0:0:0:70:Bass.wav
192,192,249885,1,0,0:0:0:70:Bass.wav
448,192,249885,128,0,250022:0:0:0:0:
64,192,249885,128,0,250022:0:0:0:0:
448,192,250090,1,0,0:0:0:0:
320,192,250090,1,0,0:0:0:70:Bass.wav
320,192,250158,128,0,250295:0:0:0:0:
64,192,250158,1,0,0:0:0:0:
192,192,250158,1,0,0:0:0:70:Bass.wav
448,192,250295,128,0,250431:0:0:0:70:Bass.wav
192,192,250295,1,0,0:0:0:0:
320,192,250363,1,0,0:0:0:0:
64,192,250431,128,0,250567:0:0:0:0:
192,192,250499,1,0,0:0:0:70:Bass.wav
320,192,250567,1,0,0:0:0:70:Bass.wav
448,192,250567,1,0,0:0:0:0:
320,192,250704,1,0,0:0:0:0:
192,192,250704,1,0,0:0:0:70:Bass.wav
64,192,250704,128,0,250840:0:0:0:0:
192,192,250840,128,0,250976:0:0:0:0:
448,192,250840,1,0,0:0:0:0:
320,192,250908,1,0,0:0:0:0:
64,192,250976,128,0,251113:0:0:0:70:Bass.wav
320,192,251181,1,0,0:0:0:0:
448,192,251181,1,0,0:0:0:70:Bass.wav
64,192,251249,128,0,251385:0:0:0:70:Bass.wav
192,192,251249,1,0,0:0:0:0:
448,192,251385,128,0,251522:0:0:0:70:Bass.wav
320,192,251385,1,0,0:0:0:0:
192,192,251454,1,0,0:0:0:0:
64,192,251522,128,0,251658:0:0:0:0:
320,192,251590,1,0,0:0:0:70:Bass.wav
448,192,251658,1,0,0:0:0:0:
192,192,251658,1,0,0:0:0:70:Bass.wav
320,192,251795,128,0,251931:0:0:0:0:
192,192,251795,1,0,0:0:0:0:
448,192,251795,1,0,0:0:0:70:Bass.wav
64,192,251795,1,0,0:0:0:0:
448,192,251931,128,0,252067:0:0:0:70:Bass.wav
192,192,251931,1,0,0:0:0:0:
64,192,251999,1,0,0:0:0:0:
192,192,252067,1,0,0:0:0:0:
320,192,252067,128,0,252204:0:0:0:70:Bass.wav
448,192,252204,1,0,0:0:0:0:
192,192,252272,1,0,0:0:0:70:Bass.wav
448,192,252340,128,0,252476:0:0:0:0:
64,192,252340,1,0,0:0:0:70:Bass.wav
320,192,252340,1,0,0:0:0:0:
192,192,252408,1,0,0:0:0:0:
64,192,252476,128,0,252613:0:0:0:70:Bass.wav
192,192,252613,1,0,0:0:0:0:
448,192,252681,1,0,0:0:0:0:
320,192,252681,1,0,0:0:0:70:Bass.wav
192,192,252749,1,0,0:0:0:70:Bass.wav
64,192,252749,128,0,252885:0:0:0:0:
320,192,252885,128,0,253022:0:0:0:0:
448,192,252885,1,0,0:0:0:70:Bass.wav
192,192,252954,128,0,253022:0:0:0:0:
64,192,253022,128,0,253158:0:0:0:0:
192,192,253158,1,0,0:0:0:0:
320,192,253158,1,0,0:0:0:70:Bass.wav
448,192,253158,1,0,0:0:0:0:
448,192,253249,1,0,0:0:0:0:
320,192,253295,1,0,0:0:0:0:
192,192,253340,1,0,0:0:0:0:
64,192,253385,1,0,0:0:0:0:
192,192,253431,1,0,0:0:0:70:Bass.wav
448,192,253431,128,0,253567:0:0:0:70:LR3_Snare FCSRL.wav
320,192,253431,1,0,0:0:0:70:finish.wav
320,192,253567,1,0,0:0:0:70:Bass.wav
64,192,253567,128,0,253704:0:0:0:0:
192,192,253567,1,0,0:0:0:0:
192,192,253704,1,0,0:0:0:0:
448,192,253704,128,0,253840:0:0:0:0:
320,192,253772,1,0,0:0:0:70:Bass.wav
192,192,253840,1,0,0:0:0:70:Bass.wav
64,192,253840,1,0,0:0:0:0:
320,192,253976,1,0,0:0:0:0:
448,192,253976,1,0,0:0:0:0:
64,192,253976,1,0,0:0:0:0:
192,192,253976,1,0,0:0:0:70:Bass.wav
448,192,254113,1,0,0:0:0:0:
192,192,254113,1,0,0:0:0:70:Bass.wav
320,192,254113,1,0,0:0:0:0:
448,192,254249,1,0,0:0:0:0:
320,192,254249,1,0,0:0:0:0:
64,192,254249,1,0,0:0:0:0:
192,192,254249,1,0,0:0:0:70:Bass.wav
192,192,254385,1,0,0:0:0:0:
448,192,254385,1,0,0:0:0:0:
64,192,254454,1,0,0:0:0:70:Bass.wav
320,192,254454,1,0,0:0:0:0:
448,192,254522,1,0,0:0:0:70:Bass.wav
192,192,254522,1,0,0:0:0:0:
192,192,254658,1,0,0:0:0:0:
64,192,254658,1,0,0:0:0:70:Bass.wav
320,192,254658,1,0,0:0:0:0:
448,192,254658,1,0,0:0:0:0:
64,192,254795,1,0,0:0:0:0:
320,192,254795,1,0,0:0:0:0:
192,192,254863,1,0,0:0:0:70:Bass.wav
448,192,254863,1,0,0:0:0:0:
320,192,254931,1,0,0:0:0:70:Bass.wav
64,192,254931,1,0,0:0:0:0:
192,192,255067,1,0,0:0:0:70:Bass.wav
64,192,255067,1,0,0:0:0:0:
320,192,255067,1,0,0:0:0:0:
448,192,255067,1,0,0:0:0:0:
320,192,255204,1,0,0:0:0:0:
192,192,255204,1,0,0:0:0:70:Bass.wav
448,192,255340,1,0,0:0:0:0:
320,192,255340,1,0,0:0:0:0:
64,192,255340,1,0,0:0:0:0:
192,192,255340,1,0,0:0:0:70:Bass.wav
64,192,255476,1,0,0:0:0:0:
320,192,255476,1,0,0:0:0:0:
448,192,255545,1,0,0:0:0:0:
192,192,255545,1,0,0:0:0:70:Bass.wav
320,192,255613,1,0,0:0:0:70:Bass.wav
64,192,255613,1,0,0:0:0:0:
320,192,255749,1,0,0:0:0:70:Bass.wav
448,192,255749,1,0,0:0:0:0:
192,192,255749,1,0,0:0:0:0:
64,192,255749,1,0,0:0:0:0:
448,192,255885,1,0,0:0:0:0:
192,192,255885,1,0,0:0:0:0:
64,192,255954,1,0,0:0:0:0:
320,192,255954,1,0,0:0:0:70:Bass.wav
448,192,256022,1,0,0:0:0:0:
192,192,256022,1,0,0:0:0:70:Bass.wav
320,192,256158,1,0,0:0:0:0:
448,192,256158,1,0,0:0:0:0:
64,192,256158,1,0,0:0:0:0:
192,192,256158,1,0,0:0:0:70:Bass.wav
448,192,256295,1,0,0:0:0:70:Bass.wav
64,192,256295,1,0,0:0:0:0:
192,192,256431,1,0,0:0:0:70:Bass.wav
320,192,256431,1,0,0:0:0:0:
64,192,256499,1,0,0:0:0:0:
448,192,256499,1,0,0:0:0:0:
320,192,256567,1,0,0:0:0:0:
192,192,256567,1,0,0:0:0:0:
448,192,256635,1,0,0:0:0:70:Bass.wav
64,192,256635,1,0,0:0:0:0:
320,192,256704,1,0,0:0:0:0:
192,192,256704,1,0,0:0:0:70:Bass.wav
64,192,256840,1,0,0:0:0:0:
448,192,256840,1,0,0:0:0:70:Bass.wav
192,192,256840,1,0,0:0:0:0:
320,192,256840,1,0,0:0:0:0:
320,192,256976,1,0,0:0:0:0:
64,192,256976,1,0,0:0:0:0:
192,192,257045,1,0,0:0:0:70:Bass.wav
448,192,257045,1,0,0:0:0:0:
320,192,257113,1,0,0:0:0:70:Bass.wav
64,192,257113,1,0,0:0:0:0:
192,192,257249,128,0,257385:0:0:0:0:
64,192,257249,128,0,257385:0:0:0:0:
320,192,257249,1,0,0:0:0:70:Bass.wav
448,192,257249,1,0,0:0:0:0:
448,192,257522,128,0,258067:0:0:0:0:
192,192,257522,1,0,0:0:0:70:finish.wav
320,192,257522,1,0,0:0:0:70:Bass.wav
64,192,257522,128,0,257658:0:0:0:0:
320,192,257658,128,0,257795:0:0:0:0:
64,192,257795,128,0,257931:0:0:0:0:
192,192,257931,1,0,0:0:0:70:DrumC1.wav
320,192,257931,1,0,0:0:0:0:
192,192,258067,1,0,0:0:0:70:Bass.wav
64,192,258067,128,0,258613:0:0:0:0:
320,192,258204,1,0,0:0:0:0:
448,192,258340,1,0,0:0:0:70:DrumC1.wav
192,192,258340,1,0,0:0:0:0:
448,192,258476,1,0,0:0:0:0:
320,192,258522,1,0,0:0:0:0:
192,192,258567,1,0,0:0:0:0:
448,192,258613,128,0,259158:0:0:0:0:
320,192,258613,1,0,0:0:0:70:Bass.wav
192,192,258749,1,0,0:0:0:0:
64,192,258885,1,0,0:0:0:0:
320,192,258885,1,0,0:0:0:0:
192,192,258954,1,0,0:0:0:0:
64,192,259022,1,0,0:0:0:70:DrumC1.wav
320,192,259022,1,0,0:0:0:0:
320,192,259158,1,0,0:0:0:0:
192,192,259158,1,0,0:0:0:70:Bass.wav
64,192,259158,128,0,259704:0:0:0:0:
448,192,259295,1,0,0:0:0:0:
192,192,259295,1,0,0:0:0:0:
320,192,259363,1,0,0:0:0:0:
448,192,259431,1,0,0:0:0:70:DrumC1.wav
192,192,259431,1,0,0:0:0:0:
320,192,259567,1,0,0:0:0:0:
448,192,259704,128,0,259840:0:0:0:0:
192,192,259704,1,0,0:0:0:70:Bass.wav
64,192,259840,128,0,259976:0:0:0:0:
448,192,259976,128,0,260113:0:0:0:0:
64,192,260113,1,0,0:0:0:0:
192,192,260113,1,0,0:0:0:70:DrumC1.wav
320,192,260113,1,0,0:0:0:0:
64,192,260249,1,0,0:0:0:70:Bass.wav
320,192,260249,1,0,0:0:0:0:
192,192,260385,1,0,0:0:0:0:
64,192,260522,1,0,0:0:0:0:
448,192,260522,1,0,0:0:0:0:
320,192,260522,1,0,0:0:0:70:DrumC1.wav
192,192,260658,1,0,0:0:0:0:
448,192,260658,1,0,0:0:0:0:
320,192,260726,1,0,0:0:0:0:
448,192,260795,1,0,0:0:0:70:Bass.wav
192,192,260795,1,0,0:0:0:0:
64,192,260931,1,0,0:0:0:0:
320,192,261067,1,0,0:0:0:0:
192,192,261067,1,0,0:0:0:0:
448,192,261135,1,0,0:0:0:0:
192,192,261204,1,0,0:0:0:70:DrumC1.wav
320,192,261204,1,0,0:0:0:0:
64,192,261204,1,0,0:0:0:0:
448,192,261340,5,0,0:0:0:0:
320,192,261374,1,0,0:0:0:0:
192,192,261408,1,0,0:0:0:0:
64,192,261442,1,0,0:0:0:0:
448,192,261476,1,0,0:0:0:0:
320,192,261510,1,0,0:0:0:0:
192,192,261545,1,0,0:0:0:0:
64,192,261579,1,0,0:0:0:0:
448,192,261613,1,0,0:0:0:0:
320,192,261647,1,0,0:0:0:0:
192,192,261681,1,0,0:0:0:0:
64,192,261715,1,0,0:0:0:0:
448,192,261749,1,0,0:0:0:0:
320,192,261783,1,0,0:0:0:0:
192,192,261817,1,0,0:0:0:0:
64,192,261851,1,0,0:0:0:0:
320,192,261885,1,0,0:0:0:70:finish.wav
448,192,261885,1,0,0:0:0:70:Bass.wav
192,192,262022,1,0,0:0:0:70:Bass.wav
64,192,262022,1,0,0:0:0:0:
448,192,262158,1,0,0:0:0:0:
64,192,262158,1,0,0:0:0:0:
320,192,262158,1,0,0:0:0:70:Bass.wav
192,192,262226,1,0,0:0:0:0:
64,192,262295,1,0,0:0:0:0:
448,192,262295,1,0,0:0:0:0:
320,192,262363,1,0,0:0:0:0:
64,192,262431,1,0,0:0:0:0:
192,192,262431,1,0,0:0:0:70:Bass.wav
448,192,262431,128,0,262704:0:0:0:0:
192,192,262704,1,0,0:0:0:0:
64,192,262704,1,0,0:0:0:70:Bass.wav
320,192,262772,1,0,0:0:0:0:
448,192,262840,1,0,0:0:0:0:
64,192,262840,1,0,0:0:0:0:
192,192,262908,1,0,0:0:0:0:
64,192,262976,1,0,0:0:0:0:
448,192,262976,1,0,0:0:0:70:Bass.wav
320,192,262976,1,0,0:0:0:0:
192,192,263045,1,0,0:0:0:0:
64,192,263113,1,0,0:0:0:0:
448,192,263113,1,0,0:0:0:0:
320,192,263181,1,0,0:0:0:0:
64,192,263249,1,0,0:0:0:0:
192,192,263249,1,0,0:0:0:70:Bass.wav
448,192,263249,1,0,0:0:0:0:
320,192,263317,1,0,0:0:0:0:
64,192,263385,1,0,0:0:0:0:
448,192,263385,1,0,0:0:0:0:
192,192,263454,1,0,0:0:0:0:
448,192,263522,1,0,0:0:0:0:
64,192,263522,1,0,0:0:0:0:
320,192,263522,1,0,0:0:0:70:Bass.wav
192,192,263590,1,0,0:0:0:0:
448,192,263658,1,0,0:0:0:0:
64,192,263658,1,0,0:0:0:0:
320,192,263726,1,0,0:0:0:0:
448,192,263795,1,0,0:0:0:0:
192,192,263795,1,0,0:0:0:70:Bass.wav
64,192,263795,1,0,0:0:0:0:
320,192,263863,1,0,0:0:0:0:
448,192,263931,1,0,0:0:0:0:
64,192,263931,1,0,0:0:0:0:
192,192,263999,1,0,0:0:0:0:
64,192,264067,1,0,0:0:0:0:
320,192,264067,1,0,0:0:0:70:Bass.wav
448,192,264067,1,0,0:0:0:0:
192,192,264135,1,0,0:0:0:0:
64,192,264204,1,0,0:0:0:0:
448,192,264204,1,0,0:0:0:0:
320,192,264272,1,0,0:0:0:0:
448,192,264340,1,0,0:0:0:0:
64,192,264340,1,0,0:0:0:0:
192,192,264340,1,0,0:0:0:70:Bass.wav
320,192,264408,1,0,0:0:0:0:
448,192,264476,1,0,0:0:0:0:
64,192,264476,1,0,0:0:0:0:
192,192,264545,1,0,0:0:0:0:
64,192,264613,1,0,0:0:0:0:
320,192,264613,1,0,0:0:0:70:Bass.wav
448,192,264613,1,0,0:0:0:0:
192,192,264681,1,0,0:0:0:0:
448,192,264749,1,0,0:0:0:0:
64,192,264749,1,0,0:0:0:0:
320,192,264817,1,0,0:0:0:0:
192,192,264885,1,0,0:0:0:70:Bass.wav
448,192,264885,1,0,0:0:0:0:
64,192,264885,1,0,0:0:0:0:
320,192,264954,1,0,0:0:0:0:
64,192,265022,1,0,0:0:0:0:
448,192,265022,1,0,0:0:0:0:
192,192,265090,1,0,0:0:0:0:
64,192,265158,1,0,0:0:0:0:
320,192,265158,1,0,0:0:0:70:Bass.wav
448,192,265158,1,0,0:0:0:0:
192,192,265226,1,0,0:0:0:0:
64,192,265295,1,0,0:0:0:0:
448,192,265295,1,0,0:0:0:0:
320,192,265363,1,0,0:0:0:0:
448,192,265431,1,0,0:0:0:0:
64,192,265431,1,0,0:0:0:0:
192,192,265431,1,0,0:0:0:70:Bass.wav
320,192,265499,1,0,0:0:0:0:
448,192,265567,1,0,0:0:0:0:
64,192,265567,1,0,0:0:0:0:
192,192,265635,1,0,0:0:0:0:
64,192,265704,1,0,0:0:0:0:
448,192,265704,1,0,0:0:0:0:
320,192,265704,1,0,0:0:0:70:Bass.wav
192,192,265772,1,0,0:0:0:0:
64,192,265840,1,0,0:0:0:0:
448,192,265840,1,0,0:0:0:0:
320,192,265908,1,0,0:0:0:0:
64,192,265976,1,0,0:0:0:0:
448,192,265976,1,0,0:0:0:0:
192,192,265976,1,0,0:0:0:70:Bass.wav
320,192,266045,1,0,0:0:0:0:
64,192,266113,1,0,0:0:0:0:
448,192,266113,1,0,0:0:0:0:
192,192,266181,1,0,0:0:0:0:
64,192,266249,1,0,0:0:0:0:
320,192,266249,1,0,0:0:0:70:Bass.wav
448,192,266249,1,0,0:0:0:0:
192,192,266317,1,0,0:0:0:0:
320,192,266385,1,0,0:0:0:0:
448,192,266454,1,0,0:0:0:0:
64,192,266522,1,0,0:0:0:0:
192,192,266522,1,0,0:0:0:70:Bass.wav
320,192,266522,1,0,0:0:0:0:
448,192,266590,1,0,0:0:0:0:
64,192,266658,1,0,0:0:0:0:
320,192,266658,1,0,0:0:0:0:
192,192,266726,1,0,0:0:0:0:
448,192,266795,1,0,0:0:0:0:
320,192,266795,1,0,0:0:0:70:Bass.wav
64,192,266795,128,0,267067:0:0:0:0:
448,192,267067,1,0,0:0:0:70:Bass.wav
320,192,267067,1,0,0:0:0:0:
192,192,267135,1,0,0:0:0:0:
320,192,267204,1,0,0:0:0:0:
64,192,267204,1,0,0:0:0:0:
192,192,267272,1,0,0:0:0:0:
64,192,267340,1,0,0:0:0:0:
448,192,267340,1,0,0:0:0:70:Bass.wav
320,192,267340,1,0,0:0:0:0:
192,192,267408,1,0,0:0:0:0:
64,192,267476,1,0,0:0:0:0:
320,192,267476,1,0,0:0:0:0:
192,192,267545,1,0,0:0:0:0:
320,192,267613,1,0,0:0:0:0:
448,192,267613,1,0,0:0:0:0:
64,192,267613,1,0,0:0:0:70:Bass.wav
192,192,267681,1,0,0:0:0:0:
64,192,267749,1,0,0:0:0:0:
448,192,267749,128,0,267885:0:0:0:0:
320,192,267817,1,0,0:0:0:0:
64,192,267885,1,0,0:0:0:70:Bass.wav
192,192,267885,1,0,0:0:0:0:
320,192,267954,1,0,0:0:0:0:
448,192,268022,1,0,0:0:0:0:
192,192,268022,1,0,0:0:0:0:
320,192,268090,1,0,0:0:0:0:
64,192,268158,1,0,0:0:0:0:
448,192,268158,1,0,0:0:0:70:Bass.wav
192,192,268158,1,0,0:0:0:0:
320,192,268226,1,0,0:0:0:0:
192,192,268295,128,0,268431:0:0:0:0:
448,192,268295,1,0,0:0:0:0:
64,192,268363,1,0,0:0:0:0:
448,192,268431,1,0,0:0:0:70:Bass.wav
320,192,268431,1,0,0:0:0:0:
64,192,268499,1,0,0:0:0:0:
192,192,268567,1,0,0:0:0:0:
320,192,268635,1,0,0:0:0:70:Bass.wav
64,192,268635,1,0,0:0:0:0:
448,192,268704,1,0,0:0:0:70:Bass.wav
192,192,268704,1,0,0:0:0:0:
320,192,268772,1,0,0:0:0:0:
64,192,268840,1,0,0:0:0:0:
448,192,268840,128,0,268976:0:0:0:0:
192,192,268840,1,0,0:0:0:70:Bass.wav
320,192,268908,1,0,0:0:0:0:
192,192,268976,1,0,0:0:0:0:
64,192,268976,1,0,0:0:0:70:Bass.wav
448,192,269045,1,0,0:0:0:70:Bass.wav
320,192,269045,1,0,0:0:0:0:
64,192,269113,1,0,0:0:0:0:
192,192,269113,1,0,0:0:0:70:Bass.wav
448,192,269181,1,0,0:0:0:0:
320,192,269181,1,0,0:0:0:70:Bass.wav
320,192,269249,1,0,0:0:0:0:
64,192,269249,1,0,0:0:0:70:Bass.wav
192,192,269249,128,0,269385:0:0:0:0:
64,192,269385,128,0,269522:0:0:0:0:
448,192,269522,1,0,0:0:0:70:Bass.wav
320,192,269522,1,0,0:0:0:0:
192,192,269590,1,0,0:0:0:0:
64,192,269658,1,0,0:0:0:0:
320,192,269726,1,0,0:0:0:70:Bass.wav
448,192,269726,1,0,0:0:0:0:
64,192,269795,1,0,0:0:0:0:
192,192,269795,1,0,0:0:0:70:Bass.wav
448,192,269795,1,0,0:0:0:0:
320,192,269863,1,0,0:0:0:0:
192,192,269931,1,0,0:0:0:0:
448,192,269931,1,0,0:0:0:70:Bass.wav
64,192,269931,128,0,270067:0:0:0:0:
320,192,270067,128,0,270204:0:0:0:0:
192,192,270135,1,0,0:0:0:70:Bass.wav
448,192,270135,1,0,0:0:0:0:
64,192,270204,1,0,0:0:0:0:
192,192,270340,1,0,0:0:0:0:
320,192,270340,1,0,0:0:0:70:Bass.wav
448,192,270340,128,0,270476:0:0:0:0:
64,192,270476,128,0,270613:0:0:0:0:
192,192,270476,1,0,0:0:0:0:
448,192,270613,1,0,0:0:0:70:Bass.wav
320,192,270613,1,0,0:0:0:70:finish.wav
192,192,270681,1,0,0:0:0:0:
64,192,270749,1,0,0:0:0:0:
192,192,270817,1,0,0:0:0:0:
448,192,270885,128,0,271158:0:0:0:0:
64,192,270885,1,0,0:0:0:0:
320,192,271022,1,0,0:0:0:0:
192,192,271022,1,0,0:0:0:70:Bass.wav
320,192,271158,128,0,271431:0:0:0:0:
64,192,271158,1,0,0:0:0:70:Bass.wav
192,192,271295,1,0,0:0:0:0:
192,192,271431,128,0,271704:0:0:0:0:
448,192,271431,1,0,0:0:0:70:Bass.wav
320,192,271499,1,0,0:0:0:0:
448,192,271567,1,0,0:0:0:0:
320,192,271635,1,0,0:0:0:0:
64,192,271704,128,0,271976:0:0:0:0:
448,192,271704,1,0,0:0:0:0:
192,192,271840,1,0,0:0:0:0:
320,192,271840,1,0,0:0:0:70:Bass.wav
320,192,271976,128,0,272249:0:0:0:0:
448,192,271976,1,0,0:0:0:70:Bass.wav
64,192,272113,1,0,0:0:0:0:
192,192,272249,128,0,272522:0:0:0:0:
448,192,272249,1,0,0:0:0:70:Bass.wav
64,192,272385,1,0,0:0:0:0:
448,192,272522,128,0,272795:0:0:0:0:
320,192,272522,1,0,0:0:0:70:Bass.wav
64,192,272658,1,0,0:0:0:0:
320,192,272795,128,0,273067:0:0:0:0:
192,192,272795,1,0,0:0:0:70:Bass.wav
64,192,272863,1,0,0:0:0:0:
192,192,272931,1,0,0:0:0:0:
448,192,272931,1,0,0:0:0:0:
64,192,272999,1,0,0:0:0:0:
192,192,273067,128,0,273340:0:0:0:0:
448,192,273067,1,0,0:0:0:0:
320,192,273204,1,0,0:0:0:0:
448,192,273204,1,0,0:0:0:70:Bass.wav
320,192,273340,128,0,273613:0:0:0:0:
64,192,273340,1,0,0:0:0:70:Bass.wav
192,192,273476,1,0,0:0:0:0:
192,192,273613,128,0,273885:0:0:0:0:
448,192,273613,1,0,0:0:0:70:Bass.wav
320,192,273681,1,0,0:0:0:0:
448,192,273749,1,0,0:0:0:0:
64,192,273817,1,0,0:0:0:0:
320,192,273885,128,0,274158:0:0:0:0:
448,192,273885,1,0,0:0:0:0:
64,192,274022,1,0,0:0:0:70:Bass.wav
192,192,274022,1,0,0:0:0:0:
448,192,274158,128,0,274431:0:0:0:0:
192,192,274158,1,0,0:0:0:70:Bass.wav
64,192,274295,1,0,0:0:0:0:
192,192,274431,128,0,274704:0:0:0:0:
320,192,274431,1,0,0:0:0:70:Bass.wav
448,192,274567,1,0,0:0:0:0:
64,192,274704,128,0,274976:0:0:0:0:
320,192,274704,1,0,0:0:0:0:
192,192,274840,1,0,0:0:0:0:
320,192,274976,1,2,0:0:0:0:
448,192,274976,1,0,0:0:0:70:Bass.wav
64,192,275045,1,0,0:0:0:70:Bass.wav
192,192,275045,1,2,0:0:0:0:
320,192,275113,1,2,0:0:0:0:
448,192,275113,1,0,0:0:0:70:Bass.wav
64,192,275181,1,0,0:0:0:70:Bass.wav
192,192,275181,1,2,0:0:0:0:
320,192,275249,1,2,0:0:0:0:
448,192,275249,1,0,0:0:0:70:Bass.wav
64,192,275317,1,0,0:0:0:70:Bass.wav
192,192,275317,1,2,0:0:0:0:
320,192,275385,1,2,0:0:0:0:
448,192,275385,1,0,0:0:0:70:Bass.wav
64,192,275454,1,2,0:0:0:70:Bass.wav
192,192,275454,1,2,0:0:0:0:
320,192,275522,1,2,0:0:0:0:
448,192,275522,1,0,0:0:0:70:Bass.wav
64,192,275590,1,2,0:0:0:70:Bass.wav
192,192,275590,1,2,0:0:0:0:
320,192,275658,1,2,0:0:0:0:
448,192,275658,1,0,0:0:0:70:Bass.wav
192,192,275726,1,2,0:0:0:0:
64,192,275726,1,0,0:0:0:70:Bass.wav
320,192,275795,1,2,0:0:0:0:
448,192,275795,1,0,0:0:0:70:Bass.wav
192,192,275863,1,2,0:0:0:0:
64,192,275863,1,0,0:0:0:70:Bass.wav
320,192,275931,1,2,0:0:0:0:
448,192,275931,1,0,0:0:0:70:Bass.wav
192,192,275999,1,2,0:0:0:0:
64,192,275999,1,0,0:0:0:70:Bass.wav
320,192,276067,1,2,0:0:0:0:
448,192,276067,1,0,0:0:0:70:Bass.wav
64,192,276135,1,0,0:0:0:70:Bass.wav
192,192,276135,1,2,0:0:0:0:
320,192,276204,1,2,0:0:0:0:
448,192,276204,1,0,0:0:0:70:Bass.wav
192,192,276272,1,2,0:0:0:0:
64,192,276272,1,0,0:0:0:70:Bass.wav
320,192,276340,1,2,0:0:0:0:
448,192,276340,1,0,0:0:0:70:Bass.wav
192,192,276408,1,2,0:0:0:0:
64,192,276408,1,0,0:0:0:70:Bass.wav
320,192,276476,1,2,0:0:0:0:
448,192,276476,128,0,276545:0:0:0:70:Bass.wav
192,192,276545,1,2,0:0:0:0:
64,192,276545,1,0,0:0:0:70:Bass.wav
448,192,276613,1,0,0:0:0:70:Bass.wav
320,192,276613,128,2,276681:0:0:0:0:
192,192,276681,1,2,0:0:0:0:
64,192,276681,1,0,0:0:0:70:Bass.wav
320,192,276749,1,2,0:0:0:0:
448,192,276749,1,0,0:0:0:70:Bass.wav
192,192,276817,1,2,0:0:0:0:
64,192,276817,1,0,0:0:0:70:Bass.wav
448,192,276885,1,0,0:0:0:70:Bass.wav
320,192,276885,1,2,0:0:0:0:
192,192,276954,1,2,0:0:0:0:
64,192,276954,1,0,0:0:0:70:Bass.wav
320,192,277022,1,2,0:0:0:0:
448,192,277022,128,0,277090:0:0:0:70:Bass.wav
192,192,277090,1,2,0:0:0:0:
64,192,277090,1,0,0:0:0:70:Bass.wav
448,192,277158,1,0,0:0:0:70:Bass.wav
320,192,277158,128,2,277226:0:0:0:0:
192,192,277226,1,2,0:0:0:0:
64,192,277226,1,0,0:0:0:70:Bass.wav
320,192,277295,1,2,0:0:0:0:
448,192,277295,1,0,0:0:0:70:Bass.wav
192,192,277363,1,2,0:0:0:0:
64,192,277363,1,0,0:0:0:70:Bass.wav
320,192,277431,1,2,0:0:0:0:
448,192,277431,1,0,0:0:0:70:Bass.wav
192,192,277499,1,2,0:0:0:0:
64,192,277499,1,0,0:0:0:70:Bass.wav
448,192,277567,1,0,0:0:0:70:Bass.wav
320,192,277567,128,2,277635:0:0:0:0:
192,192,277635,1,2,0:0:0:0:
64,192,277635,1,0,0:0:0:70:Bass.wav
320,192,277704,1,2,0:0:0:0:
448,192,277704,128,0,277772:0:0:0:70:Bass.wav
192,192,277772,1,2,0:0:0:0:
64,192,277772,1,0,0:0:0:70:Bass.wav
320,192,277840,1,2,0:0:0:0:
448,192,277840,1,0,0:0:0:70:Bass.wav
192,192,277908,1,2,0:0:0:0:
64,192,277908,1,0,0:0:0:70:Bass.wav
320,192,277976,1,2,0:0:0:0:
448,192,277976,1,0,0:0:0:70:Bass.wav
192,192,278045,1,2,0:0:0:0:
64,192,278045,1,0,0:0:0:70:Bass.wav
320,192,278113,128,2,278181:0:0:0:0:
448,192,278113,1,0,0:0:0:70:Bass.wav
192,192,278181,1,2,0:0:0:0:
64,192,278181,1,0,0:0:0:70:Bass.wav
320,192,278249,1,0,0:0:0:70:Bass.wav
448,192,278249,128,0,278522:0:0:0:0:
192,192,278385,128,0,278522:0:0:0:0:
320,192,278522,128,0,278658:0:0:0:0:
64,192,278522,128,0,278795:0:0:0:0:
192,192,278658,128,0,278795:0:0:0:0:
448,192,278795,128,0,278931:0:0:0:0:
320,192,278931,128,0,279067:0:0:0:0:
64,192,278931,128,0,279067:0:0:0:0:
192,192,279067,128,0,279340:0:0:0:0:
448,192,279067,128,0,279204:0:0:0:0:
64,192,279340,1,0,0:0:0:70:LR3_Snare FCSRL.wav
448,192,279340,1,0,0:0:0:70:finish.wav
320,192,279340,1,0,0:0:0:70:Bass.wav
448,192,279476,1,0,0:0:0:0:
320,192,279476,1,0,0:0:0:0:
64,192,279476,1,0,0:0:0:0:
192,192,279476,1,0,0:0:0:70:Bass.wav
64,192,279613,1,0,0:0:0:0:
192,192,279613,1,0,0:0:0:70:Bass.wav
448,192,279613,1,0,0:0:0:0:
320,192,279613,128,0,279885:0:0:0:0:
64,192,279885,1,0,0:0:0:0:
192,192,279885,128,0,280158:0:0:0:0:
448,192,279885,1,0,0:0:0:70:Bass.wav
320,192,280158,1,0,0:0:0:70:Bass.wav
448,192,280158,1,0,0:0:0:0:
64,192,280158,128,0,280431:0:0:0:0:
448,192,280431,128,0,280704:0:0:0:0:
320,192,280431,1,0,0:0:0:0:
192,192,280431,1,0,0:0:0:70:Bass.wav
320,192,280704,128,0,280976:0:0:0:0:
192,192,280704,1,0,0:0:0:0:
64,192,280704,1,0,0:0:0:70:Bass.wav
192,192,280976,128,0,281249:0:0:0:0:
448,192,280976,1,0,0:0:0:0:
64,192,280976,1,0,0:0:0:70:Bass.wav
64,192,281249,128,0,281522:0:0:0:0:
320,192,281249,1,0,0:0:0:0:
448,192,281249,1,0,0:0:0:70:Bass.wav
192,192,281522,128,0,281795:0:0:0:0:
320,192,281522,1,0,0:0:0:70:Bass.wav
448,192,281522,1,0,0:0:0:0:
64,192,281795,128,0,282067:0:0:0:0:
320,192,281795,1,0,0:0:0:0:
448,192,281795,1,0,0:0:0:70:Bass.wav
320,192,282067,128,0,282340:0:0:0:0:
448,192,282067,1,0,0:0:0:70:Bass.wav
192,192,282067,1,0,0:0:0:0:
192,192,282340,128,0,282613:0:0:0:0:
448,192,282340,1,0,0:0:0:0:
64,192,282340,1,0,0:0:0:70:Bass.wav
64,192,282613,128,0,282885:0:0:0:0:
320,192,282613,1,0,0:0:0:70:Bass.wav
448,192,282613,128,0,282885:0:0:0:0:
320,192,282885,128,0,283158:0:0:0:0:
192,192,282885,1,0,0:0:0:70:Bass.wav
448,192,283158,128,0,283431:0:0:0:0:
64,192,283158,1,0,0:0:0:70:Bass.wav
192,192,283158,128,0,283431:0:0:0:0:
320,192,283431,128,0,283704:0:0:0:0:
64,192,283431,1,0,0:0:0:70:Bass.wav
192,192,283704,1,0,0:0:0:0:
64,192,283704,1,0,0:0:0:70:Bass.wav
448,192,283704,1,0,0:0:0:0:
64,192,283772,1,0,0:0:0:70:Bass.wav
192,192,283772,1,0,0:0:0:0:
448,192,283908,1,0,0:0:0:70:Bass.wav
320,192,283908,1,0,0:0:0:0:
64,192,283976,1,0,0:0:0:0:
192,192,283976,128,0,284249:0:0:0:0:
448,192,283976,1,0,0:0:0:70:Bass.wav
320,192,283976,1,0,0:0:0:0:
448,192,284249,1,0,0:0:0:0:
320,192,284249,128,0,284522:0:0:0:0:
64,192,284249,1,0,0:0:0:70:Bass.wav
192,192,284522,1,0,0:0:0:70:Bass.wav
64,192,284522,1,0,0:0:0:0:
448,192,284522,128,0,284795:0:0:0:0:
64,192,284795,128,0,285067:0:0:0:0:
192,192,284795,1,0,0:0:0:70:Bass.wav
320,192,284795,1,0,0:0:0:0:
192,192,285067,128,0,285340:0:0:0:0:
320,192,285067,1,0,0:0:0:70:Bass.wav
448,192,285067,1,0,0:0:0:0:
320,192,285340,128,0,285613:0:0:0:0:
64,192,285340,1,0,0:0:0:0:
448,192,285340,1,0,0:0:0:70:Bass.wav
64,192,285613,1,0,0:0:0:70:Bass.wav
448,192,285613,1,0,0:0:0:0:
192,192,285613,128,0,285681:0:0:0:0:
320,192,285681,128,0,285749:0:0:0:0:
192,192,285749,128,0,285817:0:0:0:0:
320,192,285817,128,0,285885:0:0:0:0:
448,192,285885,128,0,285954:0:0:0:0:
64,192,285885,128,0,285954:0:0:0:70:Bass.wav
192,192,285954,128,0,286022:0:0:0:0:
320,192,286022,128,0,286090:0:0:0:0:
448,192,286090,128,0,286158:0:0:0:0:
64,192,286158,128,0,286226:0:0:0:0:
192,192,286158,128,0,286226:0:0:0:70:Bass.wav
320,192,286226,128,0,286295:0:0:0:0:
448,192,286295,128,0,286363:0:0:0:0:
192,192,286363,128,0,286431:0:0:0:0:
320,192,286431,128,0,286499:0:0:0:0:
64,192,286431,128,0,286499:0:0:0:70:Bass.wav
448,192,286499,128,0,286567:0:0:0:0:
192,192,286567,128,0,286635:0:0:0:0:
320,192,286635,128,0,286704:0:0:0:0:
64,192,286704,128,0,286772:0:0:0:70:Bass.wav
448,192,286704,128,0,286772:0:0:0:0:
192,192,286772,128,0,286840:0:0:0:0:
320,192,286840,128,0,286908:0:0:0:0:
448,192,286908,128,0,286976:0:0:0:0:
192,192,286908,128,0,286976:0:0:0:0:
320,192,286976,128,0,287045:0:0:0:0:
64,192,286976,128,0,287045:0:0:0:70:Bass.wav
448,192,287045,128,0,287113:0:0:0:0:
192,192,287045,128,0,287113:0:0:0:0:
320,192,287113,128,0,287181:0:0:0:0:
64,192,287113,128,0,287181:0:0:0:0:
448,192,287181,128,0,287249:0:0:0:0:
192,192,287181,128,0,287249:0:0:0:0:
320,192,287249,128,0,287317:0:0:0:70:Bass.wav
64,192,287249,128,0,287317:0:0:0:0:
448,192,287317,128,0,287385:0:0:0:0:
192,192,287317,128,0,287385:0:0:0:0:
320,192,287385,128,0,287454:0:0:0:0:
192,192,287454,128,0,287522:0:0:0:0:
448,192,287522,128,0,287590:0:0:0:70:Bass.wav
64,192,287522,128,0,287590:0:0:0:0:
192,192,287590,128,0,287658:0:0:0:0:
448,192,287658,128,0,287726:0:0:0:0:
64,192,287658,128,0,287726:0:0:0:0:
320,192,287726,128,0,287795:0:0:0:0:
448,192,287795,128,0,287863:0:0:0:0:
64,192,287795,128,0,287863:0:0:0:70:Bass.wav
192,192,287863,128,0,287931:0:0:0:0:
448,192,287931,128,0,287999:0:0:0:0:
64,192,287931,128,0,287999:0:0:0:0:
320,192,287999,128,0,288067:0:0:0:0:
192,192,288067,1,0,0:0:0:70:Bass.wav
64,192,288067,1,0,0:0:0:0:
448,192,288158,128,0,288249:0:0:0:0:
64,192,288249,128,0,288340:0:0:0:0:
448,192,288340,128,0,288613:0:0:0:0:
192,192,288340,1,0,0:0:0:70:Bass.wav
320,192,288340,1,0,0:0:0:70:finish.wav
320,192,288613,128,0,288885:0:0:0:0:
192,192,288613,1,0,0:0:0:70:Bass.wav
64,192,288613,1,0,0:0:0:0:
192,192,288885,128,0,289158:0:0:0:0:
64,192,288885,1,0,0:0:0:70:Bass.wav
448,192,288885,1,0,0:0:0:0:
64,192,289158,128,0,289431:0:0:0:0:
320,192,289158,1,0,0:0:0:70:Bass.wav
448,192,289158,1,0,0:0:0:0:
448,192,289431,128,0,289704:0:0:0:0:
320,192,289431,1,0,0:0:0:0:
192,192,289431,1,0,0:0:0:70:Bass.wav
320,192,289704,128,0,289976:0:0:0:0:
192,192,289704,1,0,0:0:0:0:
64,192,289704,1,0,0:0:0:70:Bass.wav
192,192,289976,128,0,290249:0:0:0:0:
64,192,289976,1,0,0:0:0:70:Bass.wav
448,192,289976,1,0,0:0:0:0:
320,192,290249,1,0,0:0:0:70:Bass.wav
448,192,290249,1,0,0:0:0:0:
64,192,290249,1,0,0:0:0:0:
64,192,290385,1,0,0:0:0:0:
192,192,290431,1,0,0:0:0:0:
320,192,290476,1,0,0:0:0:0:
192,192,290522,1,0,0:0:0:0:
448,192,290522,128,0,290795:0:0:0:0:
64,192,290522,1,0,0:0:0:70:Bass.wav
320,192,290795,128,0,291067:0:0:0:0:
192,192,290795,1,0,0:0:0:70:Bass.wav
64,192,290795,1,0,0:0:0:0:
448,192,291067,1,0,0:0:0:0:
192,192,291067,128,0,291340:0:0:0:0:
64,192,291067,1,0,0:0:0:70:Bass.wav
448,192,291340,1,0,0:0:0:70:finish.wav
320,192,291340,1,0,0:0:0:70:Bass.wav
64,192,291340,1,0,0:0:0:0:
320,192,291476,1,0,0:0:0:0:
192,192,291522,1,0,0:0:0:70:finish.wav
64,192,291522,1,0,0:0:0:70:Bass.wav
448,192,291522,1,0,0:0:0:0:
192,192,291658,1,0,0:0:0:0:
320,192,291704,1,0,0:0:0:70:finish.wav
448,192,291704,1,0,0:0:0:70:Bass.wav
64,192,291704,1,0,0:0:0:0:
64,192,291885,1,0,0:0:0:70:Bass.wav
192,192,291885,1,0,0:0:0:70:finish.wav
448,192,291885,1,0,0:0:0:0:
320,192,291954,1,0,0:0:0:0:
64,192,292022,1,0,0:0:0:0:
448,192,292022,1,0,0:0:0:0:
192,192,292090,1,0,0:0:0:0:
320,192,292158,1,0,0:0:0:0:
64,192,292158,1,0,0:0:0:0:
192,192,292226,1,0,0:0:0:0:
448,192,292295,1,0,0:0:0:0:
64,192,292295,1,0,0:0:0:0:
320,192,292363,1,0,0:0:0:0:
192,192,292431,1,0,0:0:0:0:
448,192,292431,1,0,0:0:0:0:
64,192,292431,1,0,0:0:0:70:Bass.wav
320,192,292567,1,0,0:0:0:0:
448,192,292704,128,0,292976:0:0:0:0:
192,192,292840,1,0,0:0:0:70:Bass.wav
64,192,292840,1,0,0:0:0:0:
320,192,292976,128,0,293249:0:0:0:0:
64,192,293113,1,0,0:0:0:0:
192,192,293249,1,0,0:0:0:70:Bass.wav
448,192,293249,1,0,0:0:0:0:
64,192,293249,128,0,293522:0:0:0:0:
320,192,293385,1,0,0:0:0:0:
448,192,293454,1,0,0:0:0:0:
192,192,293522,128,0,293795:0:0:0:0:
320,192,293522,1,0,0:0:0:70:Bass.wav
448,192,293658,1,0,0:0:0:0:
320,192,293795,128,0,294067:0:0:0:0:
64,192,293795,1,0,0:0:0:0:
448,192,293931,1,0,0:0:0:70:Bass.wav
192,192,293931,1,0,0:0:0:0:
64,192,293999,1,0,0:0:0:0:
192,192,294067,1,0,0:0:0:0:
448,192,294067,128,0,294340:0:0:0:0:
64,192,294204,1,0,0:0:0:0:
192,192,294340,1,0,0:0:0:70:Bass.wav
320,192,294340,128,0,294613:0:0:0:0:
64,192,294408,1,0,0:0:0:0:
192,192,294476,1,0,0:0:0:0:
64,192,294545,1,0,0:0:0:0:
192,192,294613,1,0,0:0:0:70:Bass.wav
448,192,294613,128,0,294885:0:0:0:0:
64,192,294749,1,0,0:0:0:0:
320,192,294885,128,0,295022:0:0:0:0:
192,192,295022,1,0,0:0:0:70:Bass.wav
64,192,295022,128,0,295158:0:0:0:0:
448,192,295022,1,0,0:0:0:0:
320,192,295158,128,0,295295:0:0:0:0:
448,192,295295,1,0,0:0:0:0:
192,192,295295,128,0,295431:0:0:0:0:
448,192,295431,128,0,295567:0:0:0:0:
64,192,295431,1,0,0:0:0:70:Bass.wav
320,192,295567,1,0,0:0:0:0:
192,192,295635,1,0,0:0:0:0:
64,192,295704,1,0,0:0:0:70:Bass.wav
448,192,295704,1,0,0:0:0:0:
320,192,295704,128,0,295840:0:0:0:0:
448,192,295840,128,0,295908:0:0:0:0:
192,192,295840,1,0,0:0:0:0:
320,192,295908,128,0,295976:0:0:0:0:
64,192,295976,1,0,0:0:0:0:
448,192,295976,128,0,296113:0:0:0:0:
320,192,296113,1,0,0:0:0:70:Bass.wav
64,192,296113,128,0,296181:0:0:0:0:
192,192,296181,128,0,296249:0:0:0:0:
64,192,296249,128,0,296317:0:0:0:0:
448,192,296249,128,0,296317:0:0:0:0:
320,192,296317,128,0,296385:0:0:0:0:
192,192,296385,128,0,296454:0:0:0:0:
64,192,296454,128,0,296522:0:0:0:0:
192,192,296522,128,0,296590:0:0:0:0:
320,192,296522,1,0,0:0:0:70:Bass.wav
448,192,296522,128,0,296658:0:0:0:0:
64,192,296590,128,0,296795:0:0:0:0:
320,192,296658,1,0,0:0:0:0:
192,192,296726,1,0,0:0:0:0:
320,192,296795,1,0,0:0:0:70:finish.wav
448,192,296795,1,0,0:0:0:70:Bass.wav
192,192,297204,1,0,0:0:0:0:
320,192,297204,1,0,0:0:0:70:finish.wav
448,192,297204,1,0,0:0:0:70:Bass.wav
64,192,297613,1,0,0:0:0:70:Bass.wav
192,192,297613,1,0,0:0:0:70:finish.wav
448,192,297613,1,0,0:0:0:0:
320,192,298022,1,0,0:0:0:70:finish.wav
448,192,298022,1,0,0:0:0:70:Bass.wav
64,192,298022,1,0,0:0:0:0:
320,192,298431,1,0,0:0:0:0:
192,192,298431,1,0,0:0:0:70:finish.wav
64,192,298431,1,0,0:0:0:70:Bass.wav
64,192,298704,1,0,0:0:0:0:
320,192,298704,1,0,0:0:0:70:finish.wav
448,192,298704,1,0,0:0:0:70:Bass.wav
192,192,298976,1,0,0:0:0:70:finish.wav
64,192,298976,1,0,0:0:0:70:Bass.wav
320,192,298976,1,0,0:0:0:0:
448,192,299385,1,0,0:0:0:70:Bass.wav
320,192,299385,1,0,0:0:0:70:finish.wav
64,192,299385,1,0,0:0:0:0:
192,192,299795,1,0,0:0:0:70:finish.wav
64,192,299795,1,0,0:0:0:70:Bass.wav
448,192,299795,1,0,0:0:0:0:
192,192,300204,1,0,0:0:0:0:
320,192,300204,1,0,0:0:0:70:finish.wav
448,192,300204,1,0,0:0:0:70:Bass.wav
192,192,300613,1,0,0:0:0:70:Bass.wav
64,192,300613,1,0,0:0:0:70:finish.wav
320,192,300613,1,0,0:0:0:0:
448,192,300715,1,0,0:0:0:0:
320,192,300749,1,0,0:0:0:0:
64,192,300783,1,0,0:0:0:0:
192,192,300817,1,0,0:0:0:0:
448,192,300851,1,0,0:0:0:0:
320,192,300885,1,0,0:0:0:0:
64,192,300920,1,0,0:0:0:0:
192,192,300954,1,0,0:0:0:0:
448,192,300988,1,0,0:0:0:0:
320,192,301022,1,0,0:0:0:0:
64,192,301056,1,0,0:0:0:0:
192,192,301090,1,0,0:0:0:0:
448,192,301124,1,0,0:0:0:0:
320,192,301158,1,0,0:0:0:70:finish.wav
192,192,301158,1,0,0:0:0:70:Bass.wav
64,192,301158,1,0,0:0:0:0:
192,192,301567,1,0,0:0:0:0:
320,192,301567,1,0,0:0:0:70:finish.wav
448,192,301567,1,0,0:0:0:70:Bass.wav
64,192,301976,1,0,0:0:0:70:Bass.wav
192,192,301976,1,0,0:0:0:70:finish.wav
448,192,301976,1,0,0:0:0:0:
320,192,302385,1,0,0:0:0:70:finish.wav
448,192,302385,1,0,0:0:0:70:Bass.wav
64,192,302385,1,0,0:0:0:0:
192,192,302795,1,0,0:0:0:70:finish.wav
64,192,302795,1,0,0:0:0:70:Bass.wav
448,192,302795,1,0,0:0:0:0:
192,192,303067,1,0,0:0:0:0:
320,192,303067,1,0,0:0:0:70:finish.wav
448,192,303067,1,0,0:0:0:70:Bass.wav
64,192,303340,1,0,0:0:0:70:Bass.wav
192,192,303340,1,0,0:0:0:70:finish.wav
448,192,303340,1,0,0:0:0:0:
320,192,303749,1,0,0:0:0:70:finish.wav
448,192,303749,1,0,0:0:0:70:Bass.wav
192,192,303749,1,0,0:0:0:0:
192,192,304158,1,0,0:0:0:70:finish.wav
64,192,304158,1,0,0:0:0:70:Bass.wav
320,192,304158,1,0,0:0:0:0:
320,192,304567,5,0,0:0:0:70:finish.wav
448,192,304567,1,0,0:0:0:70:Bass.wav
64,192,304567,1,0,0:0:0:0:
64,192,304976,1,0,0:0:0:70:Bass.wav
192,192,304976,1,0,0:0:0:70:finish.wav
448,192,304976,1,0,0:0:0:0:
320,192,305113,1,0,0:0:0:0:
64,192,305181,128,0,305249:0:0:0:0:
448,192,305249,128,0,305317:0:0:0:0:
192,192,305385,128,0,305454:0:0:0:0:
64,192,305522,5,0,0:0:0:70:Bass.wav
448,192,305522,1,0,0:0:0:70:finish.wav
320,192,305522,1,2,0:0:0:0:
192,192,305590,1,2,0:0:0:0:
64,192,305658,1,0,0:0:0:0:
448,192,305658,1,2,0:0:0:0:
320,192,305726,1,0,0:0:0:0:
192,192,305726,1,2,0:0:0:0:
64,192,305795,1,0,0:0:0:0:
448,192,305795,1,2,0:0:0:0:
320,192,305931,1,0,0:0:0:70:Bass.wav
64,192,305931,1,0,0:0:0:70:finish.wav
192,192,305931,1,2,0:0:0:0:
448,192,305999,1,2,0:0:0:0:
320,192,306067,1,2,0:0:0:0:
64,192,306067,1,0,0:0:0:0:
192,192,306135,1,2,0:0:0:0:
448,192,306135,1,0,0:0:0:0:
320,192,306204,1,2,0:0:0:0:
64,192,306204,1,0,0:0:0:0:
320,192,306340,1,2,0:0:0:0:
448,192,306340,1,0,0:0:0:70:finish.wav
192,192,306340,1,0,0:0:0:70:Bass.wav
64,192,306408,1,2,0:0:0:0:
448,192,306476,1,0,0:0:0:0:
320,192,306476,1,2,0:0:0:0:
64,192,306545,1,0,0:0:0:0:
192,192,306545,1,2,0:0:0:0:
448,192,306613,1,0,0:0:0:0:
320,192,306613,1,2,0:0:0:0:
64,192,306749,1,0,0:0:0:70:finish.wav
192,192,306749,1,2,0:0:0:0:
448,192,306749,1,0,0:0:0:70:Bass.wav
320,192,306817,1,2,0:0:0:0:
64,192,306885,1,0,0:0:0:0:
192,192,306885,1,2,0:0:0:0:
448,192,306954,1,0,0:0:0:0:
320,192,306954,1,2,0:0:0:0:
64,192,307022,1,0,0:0:0:0:
192,192,307022,1,2,0:0:0:0:
448,192,307158,1,0,0:0:0:70:finish.wav
320,192,307158,1,2,0:0:0:0:
64,192,307158,1,0,0:0:0:70:Bass.wav
192,192,307226,1,2,0:0:0:0:
64,192,307295,1,0,0:0:0:0:
448,192,307295,1,2,0:0:0:0:
320,192,307363,1,2,0:0:0:0:
192,192,307431,1,2,0:0:0:0:
448,192,307431,1,0,0:0:0:70:Bass.wav
64,192,307431,1,0,0:0:0:70:finish.wav
320,192,307499,1,2,0:0:0:0:
448,192,307567,1,0,0:0:0:0:
64,192,307567,1,2,0:0:0:0:
192,192,307635,1,2,0:0:0:0:
448,192,307704,1,0,0:0:0:70:finish.wav
64,192,307704,1,0,0:0:0:70:Bass.wav
320,192,307704,1,2,0:0:0:0:
192,192,307772,1,2,0:0:0:0:
320,192,307840,1,2,0:0:0:0:
64,192,307840,1,0,0:0:0:0:
192,192,307908,1,2,0:0:0:0:
448,192,307908,1,0,0:0:0:0:
320,192,307976,1,2,0:0:0:0:
64,192,307976,1,0,0:0:0:0:
320,192,308113,1,0,0:0:0:70:Bass.wav
192,192,308113,1,2,0:0:0:0:
64,192,308113,1,0,0:0:0:70:finish.wav
448,192,308181,1,2,0:0:0:0:
320,192,308249,1,0,0:0:0:0:
192,192,308249,1,2,0:0:0:0:
64,192,308317,1,0,0:0:0:0:
448,192,308317,1,2,0:0:0:0:
320,192,308385,1,0,0:0:0:0:
192,192,308385,1,2,0:0:0:0:
64,192,308522,1,0,0:0:0:70:Bass.wav
320,192,308522,1,2,0:0:0:0:
448,192,308522,1,0,0:0:0:70:finish.wav
192,192,308590,1,2,0:0:0:0:
320,192,308658,1,2,0:0:0:0:
64,192,308658,1,0,0:0:0:0:
448,192,308726,1,0,0:0:0:0:
192,192,308726,1,2,0:0:0:0:
320,192,308795,1,2,0:0:0:0:
64,192,308795,1,0,0:0:0:0:
448,192,308931,1,0,0:0:0:70:Bass.wav
192,192,308931,1,2,0:0:0:0:
64,192,308931,1,0,0:0:0:70:finish.wav
320,192,308999,1,2,0:0:0:0:
64,192,309067,1,2,0:0:0:0:
448,192,309067,1,0,0:0:0:0:
320,192,309135,1,2,0:0:0:0:
192,192,309135,1,0,0:0:0:0:
64,192,309204,1,2,0:0:0:0:
448,192,309204,1,0,0:0:0:0:
448,192,309340,128,0,309885:0:0:0:70:finish.wav
320,192,309340,128,0,309749:0:0:0:70:Bass.wav
192,192,309340,128,0,309613:0:0:0:0:
64,192,309885,1,0,0:0:0:70:finish.wav
192,192,309885,1,2,0:0:0:0:
320,192,309885,1,0,0:0:0:70:Bass.wav
448,192,309954,1,2,0:0:0:0:
64,192,310022,1,0,0:0:0:0:
192,192,310022,1,2,0:0:0:0:
320,192,310090,1,2,0:0:0:0:
448,192,310090,1,0,0:0:0:0:
64,192,310158,1,0,0:0:0:0:
192,192,310158,1,2,0:0:0:0:
448,192,310226,1,2,0:0:0:0:
64,192,310295,1,0,0:0:0:70:finish.wav
192,192,310295,1,2,0:0:0:0:
320,192,310295,1,0,0:0:0:70:Bass.wav
448,192,310363,1,2,0:0:0:0:
64,192,310431,1,0,0:0:0:0:
192,192,310431,1,2,0:0:0:0:
448,192,310499,1,0,0:0:0:0:
320,192,310499,1,2,0:0:0:0:
64,192,310567,1,0,0:0:0:0:
192,192,310567,1,2,0:0:0:0:
448,192,310635,1,2,0:0:0:0:
192,192,310704,1,2,0:0:0:0:
64,192,310704,1,0,0:0:0:70:finish.wav
320,192,310704,1,0,0:0:0:70:Bass.wav
448,192,310772,1,2,0:0:0:0:
64,192,310840,1,0,0:0:0:0:
192,192,310840,1,2,0:0:0:0:
448,192,310908,1,0,0:0:0:0:
320,192,310908,1,2,0:0:0:0:
192,192,310976,1,2,0:0:0:0:
64,192,310976,1,0,0:0:0:0:
448,192,311045,1,2,0:0:0:0:
192,192,311113,1,2,0:0:0:0:
64,192,311113,1,0,0:0:0:70:finish.wav
320,192,311113,1,0,0:0:0:70:Bass.wav
448,192,311181,1,2,0:0:0:0:
64,192,311249,1,0,0:0:0:0:
192,192,311249,1,2,0:0:0:0:
448,192,311317,1,0,0:0:0:0:
320,192,311317,1,2,0:0:0:0:
64,192,311385,1,0,0:0:0:0:
192,192,311385,1,2,0:0:0:0:
448,192,311454,1,2,0:0:0:0:
64,192,311522,1,0,0:0:0:70:finish.wav
320,192,311522,1,0,0:0:0:70:Bass.wav
192,192,311522,1,2,0:0:0:0:
448,192,311590,1,2,0:0:0:0:
64,192,311658,1,0,0:0:0:0:
192,192,311658,1,2,0:0:0:0:
448,192,311726,1,2,0:0:0:0:
192,192,311795,1,2,0:0:0:0:
64,192,311795,1,0,0:0:0:70:finish.wav
320,192,311795,1,0,0:0:0:70:Bass.wav
448,192,311863,1,2,0:0:0:0:
64,192,311931,1,0,0:0:0:0:
192,192,311931,1,2,0:0:0:0:
448,192,311999,1,2,0:0:0:0:
192,192,312067,1,2,0:0:0:0:
64,192,312067,1,0,0:0:0:70:finish.wav
320,192,312067,1,0,0:0:0:70:Bass.wav
64,192,312340,1,0,0:0:0:0:
448,192,312431,1,0,0:0:0:0:
192,192,312522,1,0,0:0:0:0:
320,192,312613,1,0,0:0:0:0:
64,192,312704,1,0,0:0:0:0:
448,192,312795,1,0,0:0:0:0:
192,192,312885,1,0,0:0:0:0:
320,192,312976,1,0,0:0:0:0:
64,192,313067,1,0,0:0:0:0:
320,192,313158,1,2,0:0:0:0:
448,192,313158,1,0,0:0:0:0:
192,192,313226,1,2,0:0:0:0:
64,192,313226,1,0,0:0:0:0:
448,192,313295,1,0,0:0:0:0:
64,192,313340,1,0,0:0:0:0:
320,192,313431,1,2,0:0:0:0:
448,192,313431,1,0,0:0:0:0:
64,192,313499,1,0,0:0:0:0:
192,192,313499,1,2,0:0:0:0:
448,192,313567,1,0,0:0:0:0:
192,192,313613,1,0,0:0:0:0:
448,192,313704,1,0,0:0:0:0:
320,192,313704,1,2,0:0:0:0:
64,192,313772,1,0,0:0:0:0:
192,192,313772,1,2,0:0:0:0:
448,192,313840,1,0,0:0:0:0:
320,192,313908,1,0,0:0:0:0:
64,192,313976,1,0,0:0:0:0:
448,192,313976,1,0,0:0:0:0:
192,192,313976,1,0,0:0:0:70:LR3_Snare FCSRL.wav
320,192,314067,1,0,0:0:0:0:
192,192,314158,1,0,0:0:0:0:
64,192,314249,128,0,317522:0:0:0:0:
320,192,314249,1,0,0:0:0:70:Bass.wav
448,192,314249,1,0,0:0:0:70:finish.wav
192,192,314385,1,0,0:0:0:0:
320,192,314522,1,0,0:0:0:0:
448,192,314658,1,0,0:0:0:0:
192,192,314795,1,0,0:0:0:0:
320,192,315067,1,0,0:0:0:0:
448,192,315067,1,2,0:0:0:0:
192,192,315204,1,0,0:0:0:0:
320,192,315340,1,0,0:0:0:0:
192,192,315613,1,0,0:0:0:0:
448,192,315613,1,2,0:0:0:0:
320,192,315749,1,0,0:0:0:0:
448,192,315885,1,0,0:0:0:0:
320,192,316022,1,0,0:0:0:0:
192,192,316158,1,0,0:0:0:0:
448,192,316295,1,0,0:0:0:0:
320,192,316431,1,0,0:0:0:0:
192,192,316431,1,2,0:0:0:0:
448,192,316567,1,0,0:0:0:0:
320,192,316704,1,0,0:0:0:0:
192,192,316840,1,0,0:0:0:0:
448,192,316976,1,0,0:0:0:0:
320,192,317113,1,0,0:0:0:0:
192,192,317249,1,0,0:0:0:0:
448,192,317249,1,2,0:0:0:0:
320,192,317385,1,0,0:0:0:0:
448,192,317522,1,0,0:0:0:0:
192,192,317658,1,0,0:0:0:0:
320,192,317795,1,0,0:0:0:0:
64,192,317795,1,2,0:0:0:0:
448,192,317931,1,0,0:0:0:0:
64,192,318067,1,0,0:0:0:0:
192,192,318204,1,0,0:0:0:0:
320,192,318204,1,2,0:0:0:0:
448,192,318340,1,0,0:0:0:0:
320,192,318476,1,2,0:0:0:0:
64,192,318476,1,0,0:0:0:0:
192,192,318613,1,0,0:0:0:0:
448,192,318613,1,2,0:0:0:0:
64,192,318749,1,0,0:0:0:0:
448,192,318885,1,0,0:0:0:0:
192,192,319022,1,0,0:0:0:0:
320,192,319090,1,0,0:0:0:0:
448,192,319158,1,0,0:0:0:0:
64,192,319295,1,0,0:0:0:0:
192,192,319431,1,0,0:0:0:0:
448,192,319431,1,2,0:0:0:0:
320,192,319567,1,0,0:0:0:0:
448,192,319704,1,0,0:0:0:0:
320,192,319840,1,0,0:0:0:0:
192,192,319908,1,0,0:0:0:0:
64,192,319976,1,0,0:0:0:0:
448,192,319976,1,2,0:0:0:0:
192,192,320113,1,0,0:0:0:0:
320,192,320181,1,0,0:0:0:0:
448,192,320249,1,0,0:0:0:0:
64,192,320385,1,0,0:0:0:0:
448,192,320522,1,0,0:0:0:0:
320,192,320658,1,0,0:0:0:0:
192,192,320795,1,0,0:0:0:0:
64,192,320795,1,2,0:0:0:0:
320,192,320931,1,0,0:0:0:0:
448,192,321067,1,0,0:0:0:0:
192,192,321204,1,0,0:0:0:0:
320,192,321340,1,0,0:0:0:0:
192,192,321476,1,0,0:0:0:0:
320,192,321613,1,0,0:0:0:0:
64,192,321613,1,2,0:0:0:0:
448,192,321749,1,0,0:0:0:0:
192,192,321885,1,0,0:0:0:0:
320,192,322022,1,0,0:0:0:0:
448,192,322158,1,0,0:0:0:0:
64,192,322158,1,2,0:0:0:0:
320,192,322295,1,0,0:0:0:0:
192,192,322431,1,0,0:0:0:0:
64,192,322567,1,2,0:0:0:0:
320,192,322567,1,0,0:0:0:0:
448,192,322704,1,0,0:0:0:0:
192,192,322840,1,2,0:0:0:0:
320,192,322840,1,0,0:0:0:0:
64,192,322976,1,2,0:0:0:0:
448,192,322976,1,0,0:0:0:0:
320,192,323113,1,0,0:0:0:0:
448,192,323249,1,0,0:0:0:0:
320,192,323385,1,0,0:0:0:0:
64,192,323522,1,0,0:0:0:0:
192,192,323658,1,0,0:0:0:0:
320,192,323795,1,0,0:0:0:0:
448,192,323931,1,0,0:0:0:0:
64,192,324067,1,0,0:0:0:0:
192,192,324204,1,0,0:0:0:0:
320,192,324340,1,0,0:0:0:0:
448,192,324476,1,0,0:0:0:0:
64,192,324613,1,0,0:0:0:0:
192,192,324749,1,0,0:0:0:0:
320,192,324885,1,0,0:0:0:0:
448,192,325022,1,0,0:0:0:0:
64,192,325158,1,0,0:0:0:0:
192,192,325295,1,0,0:0:0:0:
320,192,325431,1,0,0:0:0:0:
448,192,325567,1,0,0:0:0:0:
64,192,325704,1,0,0:0:0:0:
192,192,325840,1,0,0:0:0:0:
320,192,325976,1,0,0:0:0:0:
448,192,326113,1,0,0:0:0:0:
64,192,326249,1,0,0:0:0:0:
192,192,326385,1,0,0:0:0:0:
320,192,326522,128,0,328431:0:0:0:0:
448,192,326522,128,0,329522:0:0:0:0:
64,192,328431,1,0,0:0:0:0:
192,192,328499,1,0,0:0:0:0:
320,192,328567,1,0,0:0:0:0:
64,192,328635,1,0,0:0:0:0:
192,192,328704,1,0,0:0:0:0:
320,192,328772,1,0,0:0:0:0:
64,192,328840,1,0,0:0:0:0:
192,192,328908,1,0,0:0:0:0:
320,192,328976,128,0,330954:0:0:0:0:
64,192,329522,128,0,334976:0:0:0:0:
448,192,330954,128,0,331090:0:0:0:0:
320,192,331704,128,0,334431:0:0:0:0:
448,192,334704,1,0,0:0:0:0:
320,192,334772,1,0,0:0:0:0:
192,192,334840,1,0,0:0:0:0:
448,192,334908,1,0,0:0:0:0:
320,192,334976,1,0,0:0:0:0:
192,192,335045,1,0,0:0:0:0:
64,192,335113,1,0,0:0:0:0:
448,192,335181,1,0,0:0:0:0:
320,192,335249,1,0,0:0:0:0:
192,192,335317,1,0,0:0:0:0:
64,192,335385,1,0,0:0:0:0:
448,192,335454,1,0,0:0:0:0:
320,192,335522,1,0,0:0:0:0:
192,192,335590,1,0,0:0:0:0:
64,192,335658,128,0,336613:0:0:0:0:
448,192,336340,128,0,336431:0:0:0:0:
320,192,336476,128,0,336567:0:0:0:0:
192,192,336613,128,0,336704:0:0:0:0:
64,192,336749,128,0,336885:0:0:0:0:
320,192,336885,128,0,337090:0:0:0:0:
320,192,337158,128,0,337363:0:0:0:0:
320,192,337431,128,0,340431:0:0:0:0:
