osu file format v14

[General]
AudioFilename: 05 - GHOST.mp3
AudioLeadIn: 0
PreviewTime: 61156
Countdown: 0
SampleSet: Soft
StackLeniency: 0.7
Mode: 0
LetterboxInBreaks: 0
WidescreenStoryboard: 0

[Editor]
Bookmarks: 43701,61156,85156,104792,122247,139701,157156,174610,192065,209519,226974,244428,261883
DistanceSpacing: 0.6
BeatDivisor: 4
GridSize: 4
TimelineZoom: 1.9

[Metadata]
Title:GHOST
TitleUnicode:GHOST
Artist:Camellia
ArtistUnicode:かめりあ
Creator:Arbane
Version:AFTERLIFE
Source:
Tags:Cyphisonia EP PumpCore Trap Pump Core
BeatmapID:1221687
BeatmapSetID:577174

[Difficulty]
HPDrainRate:5.5
CircleSize:4
OverallDifficulty:9
ApproachRate:9.6
SliderMultiplier:1.6
SliderTickRate:1

[Events]
//Background and Video events
0,0,"haha.png",0,0
//Break Periods
2,122447,133738
//Storyboard Layer 0 (Background)
//Storyboard Layer 1 (Fail)
//Storyboard Layer 2 (Pass)
//Storyboard Layer 3 (Foreground)
//Storyboard Sound Samples

[TimingPoints]
66,545.454545454546,4,1,1,15,1,0
15338,-100,4,2,1,15,0,0
16975,-100,4,2,1,20,0,0
19156,-100,4,2,1,25,0,0
21338,-100,4,2,1,30,0,0
23520,-100,4,2,1,35,0,0
25156,272.727272727273,4,1,2,70,1,0
25156,-83.3333333333333,4,1,2,70,0,0
26247,272.727272727273,4,2,2,70,1,0
26247,-83.3333333333333,4,2,2,70,0,0
41519,-100,4,2,2,70,0,0
43428,-83.3333333333333,4,2,2,70,0,0
43701,-100,4,2,2,70,0,0
52428,-83.3333333333333,4,2,2,70,0,0
56792,-83.3333333333333,4,1,2,70,0,0
58974,-100,4,2,2,70,0,0
60065,-86.9565217391304,4,2,2,70,0,0
60337,-76.9230769230769,4,2,2,70,0,0
60610,-200,4,2,2,70,0,0
61974,-83.3333333333333,4,2,2,70,0,0
65792,-100,4,2,2,70,0,0
66065,-133.333333333333,4,2,2,70,0,0
66337,-74.0740740740741,4,2,2,70,0,0
67019,-74.0740740740741,4,2,3,70,0,0
67156,-74.0740740740741,4,2,2,70,0,0
67565,-74.0740740740741,4,2,3,70,0,0
67701,-74.0740740740741,4,2,2,70,0,0
68110,-74.0740740740741,4,2,3,70,0,0
68247,-74.0740740740741,4,2,2,70,0,0
68656,-74.0740740740741,4,2,3,70,0,0
68792,-74.0740740740741,4,2,2,70,0,0
69201,-74.0740740740741,4,2,3,70,0,0
69337,-74.0740740740741,4,2,3,70,0,0
69610,-66.6666666666667,4,2,3,70,0,0
69883,-83.3333333333333,4,2,2,70,0,0
70156,-100,4,2,2,70,0,0
70428,-133.333333333333,4,2,2,70,0,0
70701,-83.3333333333333,4,2,2,70,0,0
74519,-100,4,2,2,70,0,0
74792,-66.6666666666667,4,2,3,70,0,0
76428,-83.3333333333333,4,2,2,70,0,0
76701,-100,4,2,2,70,0,0
76974,-66.6666666666667,4,2,3,70,0,0
78065,-83.3333333333333,4,2,2,70,0,0
85156,-100,4,2,2,70,0,0
85974,-86.9565217391304,4,2,2,70,0,0
86247,-76.9230769230769,4,2,2,70,0,0
86519,-68.9655172413793,4,2,2,70,0,0
86792,-200,4,2,2,70,0,0
87337,-83.3333333333333,4,2,3,70,0,0
88156,-83.3333333333333,4,2,2,70,0,0
92247,-83.3333333333333,4,2,3,70,0,0
92519,-133.333333333333,4,2,3,70,0,0
92656,-66.6666666666667,4,2,3,70,0,0
93337,-133.333333333333,4,2,3,70,0,0
93747,-66.6666666666667,4,2,3,70,0,0
93883,-133.333333333333,4,2,3,70,0,0
94292,-66.6666666666667,4,2,3,70,0,0
94428,-133.333333333333,4,2,3,70,0,0
94837,-66.6666666666667,4,2,3,70,0,0
95656,-74.0740740740741,4,2,3,70,0,0
95792,-66.6666666666667,4,2,3,70,0,0
96065,-83.3333333333333,4,2,3,70,0,0
101247,-133.333333333333,4,2,3,70,0,0
101383,-66.6666666666667,4,2,3,70,0,0
102065,-133.333333333333,4,2,3,70,0,0
102474,-57.1428571428571,4,2,3,70,0,0
102610,-100,4,2,3,70,0,0
103019,-50,4,2,3,70,0,0
103156,-80,4,2,3,70,0,0
103565,-50,4,2,3,70,0,0
103974,-133.333333333333,4,2,3,70,0,0
104110,-66.6666666666667,4,2,3,70,0,0
104247,-100,4,2,3,70,0,0
104792,-83.3333333333333,4,2,3,70,0,0
105337,-71.4285714285714,4,2,3,70,0,0
105678,-83.3333333333333,4,2,3,70,0,0
109701,-71.4285714285714,4,2,3,70,0,0
110042,-83.3333333333333,4,2,3,70,0,0
114065,-71.4285714285714,4,2,3,70,0,0
114406,-83.3333333333333,4,2,3,70,0,0
118428,-71.4285714285714,4,2,3,70,0,0
118769,-83.3333333333333,4,2,3,70,0,0
120065,-62.5,4,2,3,70,0,0
121701,-133.333333333333,4,2,3,70,0,0
122247,-83.3333333333333,4,2,3,70,0,0
134247,-83.3333333333333,4,2,3,10,0,0
139701,-200,4,2,3,55,0,0
141747,-200,4,2,3,5,0,0
141883,-200,4,2,3,55,0,0
142837,-200,4,2,3,5,0,0
142974,-200,4,2,3,55,0,0
143928,-200,4,2,3,5,0,0
144065,-200,4,2,3,55,0,0
145019,-200,4,2,3,5,0,0
145156,-200,4,2,3,55,0,0
146519,-200,4,2,3,5,0,0
146656,-200,4,2,3,55,0,0
147474,-200,4,2,3,5,0,0
147610,-200,4,2,3,55,0,0
148701,-200,4,2,3,5,0,0
148837,-200,4,2,3,55,0,0
150474,-200,4,2,3,5,0,0
150610,-200,4,2,3,55,0,0
152792,-200,4,2,3,5,0,0
152928,-200,4,2,3,55,0,0
157156,-200,4,2,3,60,0,0
157428,-100,4,2,3,60,0,0
173519,-83.3333333333333,4,1,2,70,0,0
174610,-83.3333333333333,4,2,3,60,0,0
178974,-83.3333333333333,4,2,1,60,0,0
180065,-83.3333333333333,4,2,1,70,0,0
180610,-83.3333333333333,4,2,2,70,0,0
187974,-83.3333333333333,4,2,2,60,0,0
190428,-62.5,4,2,1,60,0,0
192065,-57.1428571428571,4,2,2,70,0,1
205156,-80,4,2,2,70,0,1
209519,-80,4,2,3,70,0,0
209792,-133.333333333333,4,2,3,70,0,0
209928,-57.1428571428571,4,2,3,70,0,0
210201,-57.1428571428571,4,2,2,70,0,0
210474,-100,4,2,3,70,0,0
210610,-80,4,2,3,70,0,0
210883,-66.6666666666667,4,2,3,70,0,0
211292,-57.1428571428571,4,2,2,70,0,0
211701,-100,4,2,3,70,0,0
211974,-66.6666666666667,4,2,3,70,0,0
212383,-57.1428571428571,4,2,2,70,0,0
212656,-133.333333333333,4,2,3,70,0,0
213201,-57.1428571428571,4,2,3,70,0,0
213337,-57.1428571428571,4,2,1,70,0,0
213610,-133.333333333333,4,2,3,70,0,0
213883,-66.6666666666667,4,2,2,70,0,0
214428,-66.6666666666667,4,2,3,70,0,0
218247,-80,4,2,3,70,0,0
218519,-133.333333333333,4,2,3,70,0,0
218656,-57.1428571428571,4,2,3,70,0,0
218928,-57.1428571428571,4,2,2,70,0,0
219201,-100,4,2,3,70,0,0
219337,-80,4,2,3,70,0,0
219610,-66.6666666666667,4,2,3,70,0,0
220019,-57.1428571428571,4,2,2,70,0,0
220428,-100,4,2,3,70,0,0
220701,-66.6666666666667,4,2,3,70,0,0
221110,-57.1428571428571,4,2,2,70,0,0
221383,-133.333333333333,4,2,3,70,0,0
221928,-57.1428571428571,4,2,3,70,0,0
222065,-57.1428571428571,4,2,1,70,0,0
222474,-100,4,2,3,70,0,0
222610,-66.6666666666667,4,2,2,70,0,0
223156,-66.6666666666667,4,2,3,70,0,0
224792,-200,4,2,3,70,0,0
225883,-83.3333333333333,4,1,2,70,0,0
226974,-66.6666666666667,4,2,3,70,0,0
230792,-80,4,2,3,70,0,0
231337,-66.6666666666667,4,2,3,70,0,0
235360,-83.3333333333333,4,2,3,70,0,0
235701,-66.6666666666667,4,1,2,70,0,0
239519,-83.3333333333333,4,1,2,70,0,0
240065,-66.6666666666667,4,1,2,70,0,0
242247,-200,4,1,2,70,0,0
243201,-200,4,2,2,70,0,0
243337,-133.333333333333,4,2,3,70,0,0
245247,-74.0740740740741,4,2,2,70,0,0
250292,-74.0740740740741,4,2,3,70,0,0
250428,-74.0740740740741,4,2,2,70,0,0
250837,-74.0740740740741,4,2,3,70,0,0
250974,-74.0740740740741,4,2,2,70,0,0
251383,-74.0740740740741,4,2,3,70,0,0
251519,-74.0740740740741,4,2,2,70,0,0
251928,-74.0740740740741,4,2,3,70,0,0
252065,-74.0740740740741,4,2,2,70,0,0
252474,-74.0740740740741,4,2,3,70,0,0
257247,-74.0740740740741,4,2,2,70,0,0
257519,-66.6666666666667,4,2,3,70,0,0
261337,-50,4,2,2,100,0,0
261883,-66.6666666666667,4,2,3,70,0,1
269247,-66.6666666666667,4,2,3,70,0,0
269519,-66.6666666666667,4,2,3,70,0,1
270610,-66.6666666666667,4,2,3,70,0,0
270883,-100,4,2,2,70,0,0
274974,-66.6666666666667,4,1,3,70,0,0
278247,-100,4,2,3,70,0,0
279337,-57.1428571428571,4,2,2,70,0,1
286974,-66.6666666666667,4,2,2,70,0,1
288065,-100,4,2,2,70,0,0
288337,-57.1428571428571,4,2,2,70,0,1
290247,-100,4,2,2,70,0,0
290519,-57.1428571428571,4,2,2,70,0,1
291883,-57.1428571428571,4,2,2,70,0,0
292428,-80,4,2,2,70,0,1
296792,-66.6666666666667,4,2,2,70,0,0
300610,-80,4,2,2,70,0,0
301156,-66.6666666666667,4,2,2,70,0,0
305178,-83.3333333333333,4,2,3,70,0,0
305519,-66.6666666666667,4,1,2,70,0,0
309337,-83.3333333333333,4,1,2,70,0,0
309883,-66.6666666666667,4,1,2,70,0,0
312065,-200,4,2,2,70,0,0
313156,-133.333333333333,4,2,2,70,0,0
314247,-200,4,2,2,70,0,0
314928,-200,4,1,1,50,0,0

[Colours]
Combo1 : 206,53,57
Combo2 : 116,0,232
Combo3 : 255,125,129
Combo4 : 163,70,255

[HitObjects]
121,96,8793,53,0,0:0:0:0:
142,302,9338,1,8,0:0:0:0:
121,96,9611,1,0,0:0:0:0:
121,96,10429,1,8,0:0:0:0:
249,372,10975,5,0,0:0:0:0:
270,166,11520,1,8,0:0:0:0:
249,372,11793,1,0,0:0:0:0:
249,372,12611,1,8,0:0:0:0:
420,110,13156,5,0,0:0:0:0:
441,316,13702,1,8,0:0:0:0:
420,110,13974,1,0,0:0:0:0:
420,110,14792,1,8,0:0:0:0:
420,110,15338,6,0,L|422:71,3,40,0|0|0|0,1:0|0:0|0:0|0:0,0:0:0:0:
322,15,15884,2,0,L|257:18,1,40,8|0,1:0|0:0,0:0:0:0:
208,65,16156,2,0,L|143:62,5,40,0|0|0|0|0|0,1:0|0:0|0:0|0:0|0:0|0:0,0:0:0:0:
54,57,16975,2,0,L|64:191,1,120,8|0,1:0|0:0,0:0:0:0:
40,262,17520,6,0,L|45:195,3,40,0|0|0|0,1:0|0:0|0:0|0:0,0:0:0:0:
153,243,18066,2,0,P|176:235|215:239,1,40,8|0,1:0|0:0,0:0:0:0:
256,293,18338,2,0,P|279:301|318:297,5,40,0|0|0|0|0|0,1:0|0:0|0:0|0:0|0:0|0:0,0:0:0:0:
403,274,19156,2,0,L|395:125,1,120,8|0,1:0|0:0,0:0:0:0:
477,190,19702,6,0,L|480:230,3,40,0|0|0|0,1:0|0:0|0:0|0:0,0:0:0:0:
381,283,20247,2,0,L|378:243,1,40,8|0,1:0|0:0,0:0:0:0:
305,192,20520,2,0,L|302:231,5,40,0|0|0|0|0|0,1:0|0:0|0:0|0:0|0:0|0:0,0:0:0:0:
232,320,21338,2,0,P|184:330|117:263,1,120,8|0,1:0|0:0,0:0:0:0:
98,209,21884,6,0,L|105:168,3,40,0|0|0|0,1:0|0:0|0:0|0:0,0:0:0:0:
207,212,22429,2,0,L|214:253,1,40,8|0,1:0|0:0,0:0:0:0:
292,212,22702,2,0,L|299:171,5,40,0|0|0|0|0|0,1:0|0:0|0:0|0:0|0:0|0:0,0:0:0:0:
251,70,23520,2,0,B|308:88|308:88|391:75,1,120,8|0,1:0|0:0,0:0:0:0:
298,172,24066,6,0,P|292:195|295:230,1,40,0|0,1:0|0:0,0:0:0:0:
375,246,24338,2,0,P|381:223|378:188,1,40
214,201,24611,2,0,P|214:224|226:257,1,40,8|0,1:0|0:0,0:0:0:0:
437,294,24884,2,0,P|448:273|454:238,1,40,0|0,1:0|0:0,0:0:0:0:
292,32,25156,5,0,0:0:0:0:
288,46,25224,1,0,0:0:0:0:
284,60,25292,2,0,L|288:129,1,47.9999985351563,8|0,0:2|0:2,0:2:0:0:
510,136,25428,2,0,L|514:67,1,47.9999985351563,8|0,0:2|0:2,0:2:0:0:
346,241,25565,1,0,0:0:0:0:
393,246,25633,1,0,0:0:0:0:
440,251,25701,1,8,0:2:0:0:
408,29,25837,1,8,0:2:0:0:
229,170,25974,1,8,0:2:0:0:
440,251,26110,1,8,0:2:0:0:
284,69,26247,6,0,L|172:76,1,95.9999970703126,4|0,1:0|0:0,0:0:0:0:
5,193,26519,2,0,L|117:200,1,95.9999970703126
284,315,26792,2,0,L|172:322,1,95.9999970703126,8|0,0:1|0:0,0:0:0:0:
224,140,27065,1,0,1:0:0:0:
315,232,27201,1,0,0:0:0:0:
315,232,27269,1,0,0:0:0:0:
315,232,27337,6,0,P|368:237|411:225,1,95.9999970703126
223,300,27610,2,0,P|260:337|301:356,1,95.9999970703126,0|0,1:0|0:0,0:0:0:0:
299,355,27815,1,0,0:0:0:0:
299,355,27883,2,0,L|171:362,1,95.9999970703126,8|0,1:0|0:0,0:0:0:0:
47,218,28156,1,0,0:0:0:0:
49,199,28224,1,0,0:0:0:0:
51,180,28292,1,0,0:0:0:0:
54,161,28360,1,0,0:0:0:0:
57,142,28428,5,0,1:0:0:0:
200,160,28565,1,0,0:0:0:0:
60,126,28701,1,0,0:0:0:0:
189,62,28838,1,0,0:0:0:0:
89,238,28974,2,0,L|100:344,1,95.9999970703126,8|0,0:1|0:0,0:0:0:0:
276,304,29247,2,0,L|287:198,1,95.9999970703126,0|0,1:0|0:0,0:0:0:0:
285,208,29451,1,0,0:0:0:0:
285,208,29519,6,0,P|325:234|385:231,1,95.9999970703126
420,82,29792,2,0,P|377:103|350:157,1,95.9999970703126,0|0,1:0|0:0,0:0:0:0:
465,263,30065,2,0,L|500:258,6,23.9999992675781,8|0|0|0|0|0|0,0:1|0:0|0:0|0:0|0:0|0:0|0:0,0:0:0:0:
394,312,30337,1,0,0:0:0:0:
374,308,30406,1,0,0:0:0:0:
355,305,30474,1,0,0:0:0:0:
336,302,30542,1,0,0:0:0:0:
317,299,30610,6,0,L|188:308,1,95.9999970703126,0|0,1:0|0:0,0:0:0:0:
81,227,30883,2,0,L|210:218,1,95.9999970703126
181,382,31156,2,0,P|143:340|150:268,1,95.9999970703126,8|0,0:1|0:0,0:0:0:0:
170,74,31428,1,0,1:0:0:0:
258,176,31565,1,0,0:0:0:0:
258,176,31633,1,0,0:0:0:0:
258,176,31701,6,0,L|386:172,1,95.9999970703126
166,260,31974,2,0,L|283:310,1,95.9999970703126,0|0,1:0|0:0,0:0:0:0:
47,297,32247,2,0,L|132:392,1,95.9999970703126,8|0,0:1|0:0,0:0:0:0:
109,190,32519,1,0,0:0:0:0:
108,169,32587,1,0,0:0:0:0:
107,149,32656,1,0,0:0:0:0:
106,129,32724,1,0,0:0:0:0:
105,109,32792,5,0,1:0:0:0:
245,78,32928,1,0,0:0:0:0:
187,195,33065,1,0,0:0:0:0:
327,164,33201,1,0,0:0:0:0:
114,282,33337,2,0,L|8:258,1,95.9999970703126,8|0,0:1|0:0,0:0:0:0:
235,337,33610,2,0,L|341:313,1,95.9999970703126,0|0,1:0|0:0,0:0:0:0:
328,315,33815,1,0,0:0:0:0:
328,315,33883,6,0,L|447:288,1,95.9999970703126
324,104,34156,1,0,1:0:0:0:
324,104,34292,1,0,0:0:0:0:
231,214,34428,2,0,L|235:259,6,23.9999992675781,8|0|0|0|0|0|0,0:1|0:0|0:0|0:0|0:0|0:0|0:0,0:0:0:0:
168,153,34701,1,0,0:0:0:0:
151,143,34769,1,0,0:0:0:0:
132,138,34837,1,0,0:0:0:0:
112,138,34906,1,0,0:0:0:0:
93,144,34974,6,0,L|82:258,1,95.9999970703126,0|0,1:0|0:0,0:0:0:0:
197,79,35247,2,0,L|118:23,1,95.9999970703126
203,202,35519,2,0,L|290:162,1,95.9999970703126,8|0,0:1|0:0,0:0:0:0:
93,144,35792,1,0,1:0:0:0:
116,275,35928,1,0,0:0:0:0:
116,275,35997,1,0,0:0:0:0:
116,275,36065,6,0,P|155:307|231:315,1,95.9999970703126
297,174,36337,2,8,P|250:163|203:173,1,95.9999970703126,0|0,1:0|0:0,0:0:0:0:
301,319,36610,2,0,P|346:306|383:275,1,95.9999970703126,8|0,0:1|0:0,0:0:0:0:
411,143,36883,1,0,0:0:0:0:
409,124,36951,1,0,0:0:0:0:
407,104,37019,1,0,0:0:0:0:
404,85,37087,1,0,0:0:0:0:
402,65,37156,5,0,1:0:0:0:
289,42,37292,1,0,0:0:0:0:
291,195,37428,1,0,0:0:0:0:
404,172,37564,1,0,0:0:0:0:
223,118,37701,6,0,L|100:135,1,95.9999970703126,8|0,0:1|0:0,0:0:0:0:
227,327,37974,2,0,L|322:313,1,95.9999970703126,0|0,1:0|0:0,0:0:0:0:
322,313,38178,1,0,0:0:0:0:
322,313,38247,6,0,L|308:217,1,95.9999970703126
127,219,38519,2,0,L|113:314,1,95.9999970703126,0|0,1:0|0:0,0:0:0:0:
200,146,38792,2,0,L|198:105,6,23.9999992675781,8|0|0|0|0|0|0,0:1|0:0|0:0|0:0|0:0|0:0|0:0,0:0:0:0:
233,226,39065,1,0,0:0:0:0:
244,241,39133,1,0,0:0:0:0:
261,248,39201,1,0,0:0:0:0:
280,250,39269,1,0,0:0:0:0:
298,244,39337,6,0,P|345:236|393:235,1,95.9999970703126,0|0,1:0|0:0,0:0:0:0:
199,146,39610,2,0,P|152:154|104:155,1,95.9999970703126
188,361,39883,2,0,P|235:352|283:351,1,95.9999970703126,8|0,0:1|0:0,0:0:0:0:
474,374,40156,1,0,1:0:0:0:
417,252,40292,1,0,0:0:0:0:
417,252,40360,1,0,0:0:0:0:
417,252,40428,6,0,L|425:141,1,95.9999970703126
295,286,40701,2,0,L|303:175,1,95.9999970703126
173,320,40974,2,0,L|181:209,1,95.9999970703126,8|0,0:1|0:0,0:0:0:0:
51,354,41247,1,0,0:0:0:0:
52,334,41315,1,0,0:0:0:0:
53,315,41383,1,0,0:0:0:0:
55,296,41451,1,0,0:0:0:0:
56,277,41519,6,0,P|56:229|49:178,1,80,0|0,1:0|0:0,0:0:0:0:
179,224,41792,2,0,P|183:176|180:124,1,80
332,223,42065,2,0,P|329:184|329:144,1,80
456,276,42338,2,0,P|455:237|459:197,1,80
477,76,42542,1,0,0:0:0:0:
477,76,42610,6,0,L|374:68,1,80
301,58,42883,1,0,0:0:0:0:
337,180,43019,1,0,0:0:0:0:
315,306,43156,2,0,L|303:340,6,20
231,286,43428,1,0,0:0:0:0:
211,288,43497,1,0,0:0:0:0:
191,290,43565,1,0,0:0:0:0:
171,292,43633,1,0,0:0:0:0:
151,294,43701,6,0,P|102:282|67:250,1,80,4|0,0:1|0:0,0:0:0:0:
114,111,43974,2,0,P|128:147|156:176,1,80
229,84,44247,2,0,P|223:33|241:-9,1,80,0|0,1:0|0:0,0:0:0:0:
298,154,44519,6,0,L|293:206,3,40,0|0|0|0,1:0|0:0|0:0|0:0,0:0:0:0:
373,179,44792,6,0,P|412:181|449:167,1,80
289,288,45065,2,0,P|328:285|365:299,1,80,0|0,1:0|0:0,0:0:0:0:
269,133,45337,2,0,L|278:42,1,80
193,258,45610,2,0,L|202:349,1,80
83,204,45883,6,0,L|87:154,3,40,0|0|0|0,1:0|0:0|0:0|0:0,0:0:0:0:
6,176,46156,6,0,L|15:84,1,80
146,38,46428,2,0,L|155:130,1,80
290,189,46701,6,0,L|296:123,3,40,0|0|0|0,1:0|0:0|0:0|0:0,0:0:0:0:
368,180,46974,6,0,L|464:173,1,80
313,322,47247,2,0,L|409:329,1,80,0|0,1:0|0:0,0:0:0:0:
209,188,47519,2,0,L|129:182,1,80
154,330,47792,2,0,L|74:335,1,80
260,250,48065,6,0,L|329:254,3,40,0|0|0|0,1:0|0:0|0:0|0:0,0:0:0:0:
282,174,48337,6,0,P|270:130|281:81,1,80
477,99,48610,2,0,P|481:138|469:176,1,80,0|0,1:0|0:0,0:0:0:0:
375,53,48883,6,0,L|375:1,3,40,0|0|0|0,1:0|0:0|0:0|0:0,0:0:0:0:
297,35,49156,6,0,L|201:30,1,80
96,105,49428,2,0,L|175:100,1,80,0|0,1:0|0:0,0:0:0:0:
338,147,49701,2,0,P|352:181|344:241,1,80
215,268,49974,2,0,P|239:236|248:197,1,80
38,156,50247,6,0,L|30:220,3,40,0|0|0|0,1:0|0:0|0:0|0:0,0:0:0:0:
36,275,50519,6,0,L|44:373,1,80
201,379,50792,2,0,L|209:281,1,80,0|0,1:0|0:0,0:0:0:0:
357,241,51065,6,0,L|426:256,3,40,0|0|0|0,1:0|0:0|0:0|0:0,0:0:0:0:
391,169,51337,6,0,P|384:123|400:70,1,80
276,69,51610,2,0,P|277:115|302:164,1,80,0|0,1:0|0:0,0:0:0:0:
500,135,51883,2,0,L|394:128,1,80
178,164,52156,2,0,L|284:157,1,80
329,295,52428,6,0,P|329:321|324:342,2,47.9999985351563,4|0|0,1:0|0:0|0:0,0:0:0:0:
183,295,52701,2,0,P|183:321|188:342,2,47.9999985351563,0|0|0,1:0|0:0|0:0,0:0:0:0:
364,247,52974,6,0,P|378:268|386:288,2,47.9999985351563,0|0|0,1:0|0:0|0:0,0:0:0:0:
148,247,53247,2,0,P|133:268|125:288,2,47.9999985351563,0|0|0,1:0|0:0|0:0,0:0:0:0:
369,165,53519,6,0,P|393:156|414:153,2,47.9999985351563,0|0|0,1:0|0:0|0:0,0:0:0:0:
143,165,53792,2,0,P|118:156|97:153,2,47.9999985351563,0|0|0,1:0|0:0|0:0,0:0:0:0:
336,87,54065,6,0,P|346:63|360:46,2,47.9999985351563,0|0|0,1:0|0:0|0:0,0:0:0:0:
176,87,54337,2,0,P|165:63|151:46,2,47.9999985351563,0|0|0,1:0|0:0|0:0,0:0:0:0:
298,164,54610,6,0,P|320:171|344:173,2,47.9999985351563,0|0|0,1:0|0:0|0:0,0:0:0:0:
214,164,54883,2,0,P|191:171|167:173,2,47.9999985351563,0|0|0,1:0|0:0|0:0,0:0:0:0:
341,252,55156,6,0,P|364:249|387:240,2,47.9999985351563,0|0|0,1:0|0:0|0:0,0:0:0:0:
171,252,55428,2,0,P|147:249|124:240,2,47.9999985351563,0|0|0,1:0|0:0|0:0,0:0:0:0:
362,362,55701,6,0,P|376:343|386:321,2,47.9999985351563,0|0|0,1:0|0:0|0:0,0:0:0:0:
150,362,55974,2,0,P|135:343|125:321,2,47.9999985351563,0|0|0,1:0|0:0|0:0,0:0:0:0:
412,307,56247,6,0,P|411:283|404:259,2,47.9999985351563,0|0|0,1:0|0:0|0:0,0:0:0:0:
100,307,56519,2,0,P|101:283|108:259,2,47.9999985351563,0|0|0,1:0|0:0|0:0,0:0:0:0:
388,171,56792,5,0,1:0:0:0:
124,187,56928,1,0,1:0:0:0:
388,187,57065,1,0,1:0:0:0:
124,171,57201,1,0,1:0:0:0:
397,284,57337,5,0,1:0:0:0:
111,267,57473,1,0,1:0:0:0:
397,267,57610,1,0,1:0:0:0:
111,284,57746,1,0,1:0:0:0:
396,193,57883,5,0,0:0:0:0:
391,154,57951,1,0,0:0:0:0:
369,122,58019,1,0,0:0:0:0:
334,105,58087,1,0,0:0:0:0:
295,102,58156,1,0,0:0:0:0:
259,117,58224,1,0,0:0:0:0:
221,121,58292,1,0,0:0:0:0:
183,112,58360,1,0,0:0:0:0:
155,84,58428,5,0,0:0:0:0:
191,94,58496,1,0,0:0:0:0:
223,115,58564,1,0,0:0:0:0:
248,144,58632,1,0,0:0:0:0:
263,180,58700,1,0,0:0:0:0:
267,218,58768,1,0,0:0:0:0:
260,255,58837,1,0,0:0:0:0:
242,289,58905,1,0,0:0:0:0:
216,317,58974,6,0,B|146:331|146:331|91:321,1,120,0|0,1:0|0:0,0:0:0:0:
106,156,59247,6,0,P|148:190|143:257,1,120,0|0,1:0|0:0,0:0:0:0:
2,158,59519,6,0,B|8:67|8:67|14:85|34:98,1,120,8|0,0:1|0:0,0:0:0:0:
86,222,59792,6,0,P|128:250|199:224,1,120,2|0,0:1|0:0,0:0:0:0:
171,212,60065,2,0,P|218:243|299:214,1,138.000002632141,2|0,0:1|0:0,0:0:0:0:
273,202,60337,2,0,P|325:237|414:204,1,155.999992858887,2|0,0:1|0:0,0:0:0:0:
386,197,60610,6,0,L|378:51,1,140,8|0,1:0|0:0,0:0:0:0:
378,57,61156,6,0,L|305:50,1,60,0|0,1:0|0:0,0:0:0:0:
304,176,61428,2,0,L|347:116,1,60
238,53,61701,2,0,L|268:120,1,60,8|0,1:0|0:0,0:0:0:0:
378,57,61974,5,4,1:0:0:0:
371,273,62110,5,2,0:1:0:0:
209,210,62247,1,2,0:1:0:0:
397,243,62383,1,2,0:1:0:0:
290,285,62519,5,0,1:0:0:0:
299,34,62656,5,2,0:1:0:0:
441,161,62792,1,8,1:0:0:0:
256,39,62928,1,2,0:1:0:0:
485,66,63064,1,2,0:1:0:0:
212,45,63201,1,2,0:1:0:0:
343,28,63337,5,0,1:0:0:0:
247,284,63474,5,2,0:1:0:0:
149,118,63610,1,2,0:1:0:0:
267,313,63747,1,2,0:1:0:0:
244,82,63883,1,8,1:0:0:0:
290,347,64019,1,2,0:1:0:0:
323,226,64156,5,0,1:0:0:0:
61,284,64292,5,2,0:1:0:0:
165,326,64428,2,0,L|228:316,3,47.9999985351563,2|0|0|0,0:1|0:0|0:0|0:0,0:0:0:0:
241,312,64701,5,0,1:0:0:0:
117,88,64837,5,2,0:1:0:0:
82,277,64973,1,8,1:0:0:0:
174,23,65110,1,2,0:1:0:0:
209,212,65247,2,0,B|229:259|224:308|224:308|231:279|249:258,1,143.999995605469,2|0,0:1|0:0,0:0:0:0:
184,131,65519,6,0,P|132:176|146:270,1,143.999995605469,0|0,1:0|0:0,0:0:0:0:
326,206,65792,2,0,B|286:202|286:202|248:215|248:215|201:211,1,120
271,318,66065,2,0,B|297:316|297:316|305:310|305:310|313:314|313:314|361:310,1,90.0000034332277,8|0,1:0|0:0,0:0:0:0:
390,309,66337,6,0,L|216:294,1,162.000000617981,2|0,1:0|0:0,0:0:0:0:
110,233,66610,6,0,B|107:74|107:74|158:119,1,216.000000823975,2|0,0:1|1:0,0:0:0:0:
256,268,67019,2,0,L|252:321,1,54.0000002059937,2|0,0:3|0:0,0:0:0:0:
361,112,67156,6,0,B|404:75|404:75|401:234,1,216.000000823975,10|0,1:0|0:1,0:0:0:0:
256,92,67565,2,0,L|259:38,1,54.0000002059937,2|0,0:3|0:0,0:0:0:0:
426,313,67701,6,0,P|364:310|347:168,1,216.000000823975,2|0,1:0|0:1,0:0:0:0:
492,258,68110,2,0,P|508:288|508:337,1,54.0000002059937,2|0,0:3|0:0,0:0:0:0:
238,352,68247,6,0,B|160:371|160:371|81:335|81:335|145:300,1,216.000000823975,10|0,1:0|1:0,0:0:0:0:
315,320,68656,2,0,P|322:347|314:384,1,54.0000002059937,2|0,0:3|0:0,0:0:0:0:
58,246,68792,6,0,P|61:184|203:167,1,216.000000823975,2|0,0:1|1:0,0:0:0:0:
189,153,69201,1,2,0:3:0:0:
210,350,69337,6,0,B|235:356|235:356|272:349,1,54.0000002059937,10|0,1:0|0:0,0:0:0:0:
342,268,69474,2,0,B|367:262|367:262|404:269,1,54.0000002059937,2|0,0:1|0:0,0:0:0:0:
497,371,69610,6,0,L|492:293,1,60.0000022888184,2|0,0:3|0:0,0:0:0:0:
407,97,69747,2,0,L|412:19,1,60.0000022888184,2|0,0:3|0:0,0:0:0:0:
512,206,69883,6,0,L|355:211,1,143.999995605469,0|0,1:0|0:0,0:0:0:0:
337,199,70156,2,0,L|456:202,1,120
375,295,70428,2,0,B|266:292,1,90.0000034332277,8|0,1:0|0:0,0:0:0:0:
170,309,70701,5,0,1:0:0:0:
170,309,70837,6,0,L|117:318,1,47.9999985351563,2|0,0:1|0:0,0:0:0:0:
158,305,70974,2,0,L|176:254,1,47.9999985351563,2|0,0:1|0:0,0:0:0:0:
167,296,71110,2,0,L|201:337,1,47.9999985351563,2|0,0:1|0:0,0:0:0:0:
239,150,71247,5,0,1:0:0:0:
239,150,71383,6,0,L|167:135,1,47.9999985351563,2|0,0:1|0:0,0:0:0:0:
275,141,71519,2,0,L|216:97,1,47.9999985351563,8|0,1:0|0:0,0:0:0:0:
312,150,71656,2,0,L|277:85,1,47.9999985351563,2|0,0:1|0:0,0:0:0:0:
342,173,71792,2,0,L|337:100,1,47.9999985351563,2|0,0:1|0:0,0:0:0:0:
358,207,71929,2,0,L|384:139,1,47.9999985351563,2|0,0:1|0:0,0:0:0:0:
392,330,72065,5,0,1:0:0:0:
392,330,72201,6,0,L|473:335,1,47.9999985351563,2|0,0:1|0:0,0:0:0:0:
283,384,72337,2,0,L|364:379,1,47.9999985351563,2|0,0:1|0:0,0:0:0:0:
330,249,72474,2,0,L|411:254,1,47.9999985351563,2|0,0:1|0:0,0:0:0:0:
221,303,72610,2,0,L|302:298,1,47.9999985351563,8|0,1:0|0:0,0:0:0:0:
268,168,72747,2,0,L|349:173,1,47.9999985351563,2|0,0:1|0:0,0:0:0:0:
405,180,72883,5,0,1:0:0:0:
268,300,73019,1,2,0:1:0:0:
202,81,73156,2,0,L|209:23,3,47.9999985351563,2|0|0|0,0:1|0:0|0:0|0:0,0:0:0:0:
212,5,73428,5,0,1:0:0:0:
317,155,73565,2,0,P|307:186|296:205,1,47.9999985351563,2|0,0:1|0:0,0:0:0:0:
196,217,73701,2,0,P|178:200|165:180,1,47.9999985351563,10|0,1:0|0:0,0:0:0:0:
202,81,73837,2,0,P|225:74|248:72,1,47.9999985351563,2|0,0:1|0:0,0:0:0:0:
240,259,73974,6,0,B|213:256|213:256|192:262|192:262|173:253|173:253|145:250,1,95.9999970703126,2|0,0:1|0:0,0:0:0:0:
27,103,74247,6,0,B|2:171|2:171|101:185,1,143.999995605469,0|0,1:0|0:0,1:0:0:0:
108,106,74519,2,0,B|108:23|108:23|59:40,1,120
73,35,74792,5,8,1:0:0:0:
60,304,74928,2,0,B|143:309|143:309|207:288,1,120.000004577637,2|0,0:3|1:0,0:0:0:0:
395,202,75201,5,2,0:3:0:0:
385,248,75269,1,2,0:3:0:0:
394,294,75337,2,0,L|466:299,1,60.0000022888184,2|0,0:3|0:0,0:0:0:0:
461,32,75474,2,0,B|425:59|425:59|438:154,1,120.000004577637,2|0,0:3|1:0,0:0:0:0:
435,133,75747,1,2,0:3:0:0:
202,75,75883,1,10,1:3:0:0:
173,328,76019,2,0,L|235:333,1,60.0000022888184,2|0,0:3|0:0,0:0:0:0:
361,276,76156,2,0,L|301:280,1,60.0000022888184,2|0,0:3|0:0,0:0:0:0:
60,249,76292,2,0,L|120:253,1,60.0000022888184,2|0,0:3|0:0,0:0:0:0:
326,201,76428,6,0,P|324:123|233:109,1,143.999995605469,0|0,1:0|0:0,0:0:0:0:
167,109,76701,2,0,B|143:110|127:93|127:93|111:109|111:109|95:101|95:101|75:113|51:109,1,120
144,190,76974,6,0,P|173:193|202:184,1,60.0000022888184,10|0,1:3|0:0,0:0:0:0:
304,32,77110,2,0,B|265:8|265:8|166:23,1,120.000004577637,2|0,0:3|1:0,0:0:0:0:
251,250,77383,5,2,0:3:0:0:
279,211,77451,1,2,0:3:0:0:
279,163,77519,2,0,P|268:137|231:111,1,60.0000022888184,2|0,0:3|0:0,0:0:0:0:
125,364,77656,2,0,B|164:367|164:367|202:354|202:354|269:360,1,120.000004577637,2|0,0:3|1:0,0:0:0:0:
242,358,77928,5,2,0:3:0:0:
424,162,78065,2,0,L|417:2,1,143.999995605469,8|0,1:0|0:0,0:0:0:0:
443,46,78337,2,0,L|436:206,1,143.999995605469
363,235,78610,6,0,L|354:188,2,47.9999985351563,0|0|0,1:0|0:0|0:0,0:0:0:0:
148,235,78883,2,0,L|158:188,2,47.9999985351563,0|0|0,1:0|0:0|0:0,0:0:0:0:
378,117,79156,6,0,L|433:124,2,47.9999985351563,0|0|0,1:0|0:0|0:0,0:0:0:0:
134,117,79428,2,0,L|79:124,2,47.9999985351563,0|0|0,1:0|0:0|0:0,0:0:0:0:
407,44,79701,6,0,P|401:21|389:1,2,47.9999985351563,0|0|0,1:0|0:0|0:0,0:0:0:0:
104,44,79974,2,0,P|110:21|123:1,2,47.9999985351563,0|0|0,1:0|0:0|0:0,0:0:0:0:
445,172,80247,6,0,P|453:149|454:125,2,47.9999985351563,0|0|0,1:0|0:0|0:0,0:0:0:0:
67,172,80519,2,0,P|58:149|57:125,2,47.9999985351563,0|0|0,1:0|0:0|0:0,0:0:0:0:
337,242,80792,6,0,L|341:289,3,47.9999985351563,0|0|0|0,1:0|0:0|0:0|0:0,0:0:0:0:
175,242,81065,2,0,L|170:289,3,47.9999985351563,0|0|0|0,1:0|0:0|0:0|0:0,0:0:0:0:
326,277,81337,6,0,L|330:324,3,47.9999985351563,0|0|0|0,1:0|0:0|0:0|0:0,0:0:0:0:
186,277,81610,2,0,L|181:324,3,47.9999985351563,0|0|0|0,1:0|0:0|0:0|0:0,0:0:0:0:
317,311,81883,6,0,L|321:358,3,47.9999985351563,0|0|0|0,1:0|0:0|0:0|0:0,0:0:0:0:
195,311,82156,2,0,L|190:358,3,47.9999985351563,0|0|0|0,1:0|0:0|0:0|0:0,0:0:0:0:
242,229,82428,5,0,1:0:0:0:
244,210,82496,1,0,0:0:0:0:
246,191,82564,1,0,0:0:0:0:
249,172,82632,1,0,0:0:0:0:
270,139,82701,5,0,1:0:0:0:
268,120,82769,1,0,0:0:0:0:
266,101,82837,1,0,0:0:0:0:
263,82,82905,1,0,0:0:0:0:
242,48,82974,5,0,1:0:0:0:
374,235,83110,1,0,1:0:0:0:
256,35,83247,5,0,1:0:0:0:
124,222,83383,1,0,1:0:0:0:
242,25,83519,5,0,1:0:0:0:
374,212,83655,1,0,1:0:0:0:
256,18,83792,5,0,1:0:0:0:
124,199,83928,1,0,1:0:0:0:
384,128,84065,6,0,L|442:132,3,47.9999985351563,0|0|0|0,1:0|1:0|1:0|1:0,1:0:0:0:
257,97,84337,2,0,L|199:101,3,47.9999985351563,0|0|0|0,1:0|1:0|1:0|1:0,1:0:0:0:
326,194,84610,5,0,1:0:0:0:
340,239,84678,1,0,1:0:0:0:
330,285,84746,1,0,1:0:0:0:
299,320,84814,1,0,1:0:0:0:
253,334,84882,1,0,1:0:0:0:
207,324,84950,1,0,1:0:0:0:
172,291,85019,1,0,1:0:0:0:
129,271,85087,1,0,1:0:0:0:
80,274,85156,6,0,P|41:329|57:381,1,120,0|0,1:0|0:0,0:0:0:0:
235,373,85428,2,0,P|245:315|208:270,1,120,0|0,1:0|0:0,0:0:0:0:
91,195,85701,6,0,P|60:196|32:209,2,53.3333333333333,8|0|0,0:1|0:0|0:0,0:0:0:0:
153,118,85974,2,0,P|127:101|96:95,2,61.3333345031739,0|0|0,1:0|0:0|0:0,0:0:0:0:
194,249,86247,6,0,P|203:213|200:177,2,69.3333301595054,0|0|0,1:0|0:0|0:0,0:0:0:0:
301,169,86519,2,0,P|286:129|260:97,2,77.3333356933594,0|0|0,1:0|0:0|0:0,0:0:0:0:
300,313,86792,6,0,B|271:280|271:280|360:291,1,120,8|0,1:0|0:0,0:0:0:0:
111,336,87337,5,2,1:2:0:0:
97,299,87428,1,2,0:0:0:0:
101,260,87519,1,2,0:0:0:0:
161,203,87610,5,2,0:0:0:0:
175,166,87701,1,2,0:0:0:0:
171,127,87792,1,2,0:0:0:0:
139,50,87883,6,0,B|105:48|105:48|94:40|94:40|82:48|82:48|44:46,1,95.9999970703126,8|0,1:0|0:0,0:0:0:0:
89,276,88156,5,0,1:0:0:0:
171,264,88247,1,2,0:0:0:0:
252,252,88337,1,2,0:0:0:0:
266,163,88428,5,0,0:0:0:0:
260,124,88519,1,2,0:0:0:0:
255,85,88610,1,2,0:0:0:0:
360,120,88701,5,0,0:0:0:0:
354,159,88792,1,2,0:0:0:0:
349,198,88883,1,2,0:0:0:0:
360,286,88974,5,8,1:0:0:0:
389,310,89065,1,2,0:0:0:0:
396,273,89156,1,2,0:0:0:0:
359,291,89247,5,0,0:0:0:0:
394,307,89338,1,2,0:0:0:0:
391,269,89429,1,2,0:0:0:0:
271,246,89519,5,0,1:0:0:0:
219,250,89610,1,2,0:0:0:0:
168,255,89701,1,2,0:0:0:0:
96,281,89792,5,0,0:0:0:0:
147,286,89883,1,2,0:0:0:0:
199,290,89974,1,2,0:0:0:0:
264,332,90065,5,8,1:0:0:0:
313,349,90156,1,2,0:0:0:0:
362,332,90247,1,2,0:0:0:0:
362,230,90337,5,0,1:0:0:0:
313,213,90428,1,2,0:0:0:0:
264,230,90519,1,2,0:0:0:0:
434,282,90610,6,0,P|448:253|442:203,2,63.9999980468751,0|2|2,0:0|0:0|0:0,0:0:0:0:
199,282,90883,2,0,P|185:253|191:203,2,63.9999980468751,0|2|2,1:0|0:0|0:0,0:0:0:0:
385,158,91156,5,8,1:0:0:0:
385,158,91247,2,0,L|381:81,1,63.9999980468751,2|2,0:0|0:0,0:0:0:0:
241,158,91428,5,0,0:0:0:0:
241,158,91519,2,0,L|245:81,1,63.9999980468751,2|2,0:0|0:0,0:0:0:0:
94,94,91701,5,2,1:2:0:0:
155,48,91792,1,2,0:0:0:0:
231,50,91883,1,2,0:0:0:0:
295,92,91974,1,2,0:0:0:0:
313,166,92065,1,2,0:0:0:0:
377,208,92156,1,2,0:0:0:0:
453,199,92247,6,0,B|464:162|464:162|451:125|451:125|432:138,1,95.9999970703126,8|0,1:0|0:0,0:0:0:0:
371,352,92519,6,0,L|417:358,1,30.0000011444092,0|0,1:0|0:0,0:0:0:0:
485,353,92656,1,0,0:0:0:0:
484,317,92724,1,0,0:0:0:0:
471,283,92792,1,0,0:0:0:0:
445,257,92860,1,0,0:0:0:0:
411,245,92928,1,0,0:0:0:0:
374,246,92997,1,0,0:0:0:0:
342,263,93065,1,0,1:0:0:0:
307,273,93133,1,0,0:0:0:0:
272,264,93201,2,0,P|261:237|267:188,1,60.0000022888184,2|0,0:3|0:0,0:0:0:0:
315,25,93337,6,0,L|370:17,5,30.0000011444092,8|0|0|0|0|0,1:0|0:0|0:0|0:0|0:0|0:0,0:0:0:0:
190,177,93747,2,0,P|205:152|249:129,1,60.0000022888184,2|0,0:3|0:0,0:0:0:0:
410,75,93883,6,0,L|448:115,5,30.0000011444092,0|0|0|0|0|0,1:0|0:0|0:0|0:0|0:0|0:0,0:0:0:0:
214,59,94292,2,0,P|243:57|287:80,1,60.0000022888184,2|0,0:3|0:0,0:0:0:0:
423,181,94428,6,0,L|411:235,5,30.0000011444092,8|0|0|0|0|0,1:0|0:0|0:0|0:0|1:0|0:0,0:0:0:0:
324,10,94837,2,0,P|341:33|348:82,1,60.0000022888184,2|0,0:3|0:0,0:0:0:0:
344,252,94974,5,0,0:0:0:0:
308,284,95042,1,0,0:0:0:0:
260,285,95110,1,0,0:0:0:0:
221,256,95178,1,0,0:0:0:0:
192,278,95247,5,0,1:0:0:0:
156,278,95315,1,0,0:0:0:0:
119,238,95383,5,0,0:0:0:0:
83,238,95451,1,0,0:0:0:0:
17,286,95519,5,10,1:0:0:0:
69,86,95656,2,0,B|93:71|93:71|129:75,1,54.0000002059937,2|0,0:1|0:0,0:0:0:0:
180,190,95792,6,0,L|79:180,1,60.0000022888184,2|0,0:3|0:0,0:0:0:0:
323,10,95928,2,0,L|382:4,1,60.0000022888184,2|0,0:3|0:0,0:0:0:0:
478,125,96065,6,0,P|481:163|461:198,2,63.9999980468751,0|2|2,1:0|0:0|0:0,0:0:0:0:
270,128,96337,2,0,P|265:96|276:66,2,63.9999980468751,2|2|2,0:0|0:0|0:0,0:0:0:0:
391,256,96610,5,10,1:0:0:0:
391,256,96883,5,0,1:0:0:0:
315,239,96974,1,2,0:0:0:0:
255,287,97065,1,2,0:0:0:0:
179,270,97156,5,0,0:0:0:0:
196,235,97247,1,2,0:0:0:0:
192,197,97337,1,2,0:0:0:0:
157,128,97428,5,0,1:0:0:0:
153,90,97518,1,2,0:0:0:0:
170,55,97609,1,0,0:0:0:0:
236,17,97701,5,8,1:0:0:0:
261,19,97792,1,2,0:0:0:0:
286,20,97883,1,2,0:0:0:0:
309,93,97974,5,0,0:0:0:0:
284,95,98065,1,2,0:0:0:0:
259,96,98156,1,2,0:0:0:0:
364,31,98247,5,0,1:0:0:0:
391,73,98337,1,2,0:0:0:0:
387,124,98428,1,2,0:0:0:0:
328,192,98519,5,0,0:0:0:0:
312,254,98610,1,2,0:0:0:0:
340,310,98700,1,2,0:0:0:0:
263,358,98792,5,8,1:0:0:0:
189,381,98883,1,2,0:0:0:0:
116,355,98974,1,2,0:0:0:0:
113,226,99065,5,0,1:0:0:0:
186,200,99156,1,2,0:0:0:0:
260,223,99247,1,2,0:0:0:0:
43,291,99337,6,0,L|27:218,2,63.9999980468751,2|2|2,0:0|0:0|0:0,0:0:0:0:
202,318,99610,2,0,L|186:391,2,63.9999980468751,0|2|2,1:0|0:0|0:0,0:0:0:0:
229,131,99883,5,8,1:0:0:0:
229,131,99974,2,0,L|303:136,1,63.9999980468751,2|2,0:0|0:0,0:0:0:0:
335,348,100156,5,0,0:0:0:0:
335,348,100247,2,0,L|409:343,1,63.9999980468751,2|2,0:0|0:0,0:0:0:0:
494,257,100428,5,0,1:0:0:0:
417,266,100519,1,2,0:0:0:0:
346,236,100610,1,2,0:0:0:0:
302,172,100701,1,2,0:0:0:0:
231,142,100792,1,2,0:0:0:0:
154,151,100883,1,2,0:0:0:0:
163,258,100974,6,0,B|194:280|194:280|203:180,1,95.9999970703126,8|0,1:0|0:0,0:0:0:0:
166,40,101247,6,0,L|113:37,1,30.0000011444092,0|0,1:0|0:0,0:0:0:0:
52,46,101383,1,2,0:0:0:0:
41,80,101451,1,2,0:0:0:0:
41,115,101519,1,2,0:0:0:0:
54,149,101587,1,2,0:0:0:0:
76,177,101655,1,2,0:0:0:0:
107,196,101723,1,2,0:0:0:0:
142,203,101792,1,0,1:0:0:0:
178,199,101860,1,2,0:0:0:0:
210,184,101928,2,0,L|206:116,1,60.0000022888184,2|0,0:3|0:0,0:0:0:0:
266,332,102065,6,0,L|263:373,5,30.0000011444092,8|2|2|2|2|2,1:0|0:0|0:0|0:0|0:0|0:0,0:0:0:0:
299,136,102474,2,0,L|294:67,1,70.000000667572,2|0,0:3|0:0,0:0:0:0:
354,316,102610,6,0,L|350:358,5,40,0|2|2|2|2|2,1:0|0:0|0:0|0:0|0:0|0:0,0:0:0:0:
387,87,103019,2,0,L|381:6,1,80,2|0,0:3|0:0,0:0:0:0:
442,297,103156,6,0,L|438:349,5,50,8|2|2|2|0|2,1:0|0:0|0:0|0:0|1:0|0:0,0:0:0:0:
457,19,103565,2,0,P|422:4|375:7,1,80,2|0,0:3|0:0,0:0:0:0:
289,63,103701,5,2,0:0:0:0:
275,109,103769,1,2,0:0:0:0:
283,156,103837,1,2,0:0:0:0:
314,192,103906,1,2,0:0:0:0:
359,206,103974,6,0,L|411:203,1,30.0000011444092,0|0,1:0|0:0,0:0:0:0:
168,76,104110,6,0,L|108:79,1,60.0000022888184,2|0,0:1|0:0,0:0:0:0:
458,182,104247,6,0,B|457:168|447:157|447:157|474:148|474:148|453:129|453:129|499:111|527:33|466:-10,1,240,8|0,1:0|0:0,0:0:0:0:
208,20,104792,6,0,B|191:65|191:65|222:121,1,95.9999970703126,4|2,1:0|0:0,0:0:0:0:
366,86,105019,2,0,L|360:-2,2,63.9999980468751,2|2|8,0:0|0:0|1:0,0:0:0:0:
433,349,105337,6,0,B|409:372|373:371|373:371|337:343|321:273|351:215,1,223.999993164063,10|8,1:0|1:0,0:0:0:0:
391,161,105678,2,0,L|443:156,2,47.9999985351563
258,285,105883,5,0,1:0:0:0:
219,282,105951,1,2,0:0:0:0:
180,279,106019,1,2,0:0:0:0:
141,276,106087,1,2,0:0:0:0:
102,273,106156,1,2,0:0:0:0:
63,271,106224,1,2,0:0:0:0:
24,269,106292,6,0,P|12:242|13:209,1,47.9999985351563,8|0,1:0|0:0,0:0:0:0:
174,39,106428,2,0,P|177:62|172:86,3,47.9999985351563,8|2|2|2,1:0|0:0|0:0|0:0,0:0:0:0:
50,64,106701,2,0,L|102:57,1,47.9999985351563,8|2,1:0|0:0,0:0:0:0:
145,174,106837,2,0,L|97:167,1,47.9999985351563,2|2,0:0|0:0,0:0:0:0:
320,48,106974,6,0,L|325:100,5,47.9999985351563,0|2|2|2|2|2,1:0|0:0|0:0|0:0|0:0|0:0,0:0:0:0:
409,88,107383,2,0,L|404:141,1,47.9999985351563,8|0,1:0|0:0,0:0:0:0:
332,303,107519,6,0,P|305:312|259:306,3,47.9999985351563,8|2|2|2,1:0|0:0|0:0|0:0,0:0:0:0:
217,260,107792,2,0,L|223:188,1,47.9999985351563,8|2,1:0|0:0,0:0:0:0:
338,170,107928,2,0,L|344:242,1,47.9999985351563,2|2,0:0|0:0,0:0:0:0:
75,184,108065,6,0,L|81:112,5,47.9999985351563,0|2|2|2|2|2,1:0|0:0|0:0|0:0|0:0|0:0,0:0:0:0:
135,81,108474,2,0,P|153:114|154:149,1,47.9999985351563,8|2,1:0|0:0,0:0:0:0:
127,341,108610,6,0,L|62:351,3,47.9999985351563,8|2|2|2,1:0|0:0|0:0|0:0,0:0:0:0:
119,255,108883,2,0,L|171:261,1,47.9999985351563,8|2,1:0|0:0,0:0:0:0:
245,376,109019,2,0,L|197:381,1,47.9999985351563,2|2,0:0|0:0,0:0:0:0:
234,112,109156,6,0,B|278:95|278:95|345:120,1,95.9999970703126,0|2,1:0|0:0,0:0:0:0:
311,274,109383,2,0,L|247:274,2,63.9999980468751,2|2|8,0:0|0:0|1:0,0:0:0:0:
512,190,109701,6,0,B|468:186|468:186|432:201|432:201|376:177|376:177|334:206|276:184,1,223.999993164063,10|8,1:0|1:0,0:0:0:0:
243,136,110042,2,0,P|266:120|298:114,2,47.9999985351563
373,310,110247,5,0,1:0:0:0:
334,313,110315,1,2,0:0:0:0:
295,316,110383,1,2,0:0:0:0:
261,335,110451,1,2,0:0:0:0:
222,332,110519,1,2,0:0:0:0:
183,329,110587,1,2,0:0:0:0:
144,326,110656,6,0,P|131:296|137:258,1,47.9999985351563,8|0,1:0|0:0,0:0:0:0:
172,63,110792,2,0,L|240:55,3,47.9999985351563,8|2|2|2,1:0|0:0|0:0|0:0,0:0:0:0:
289,152,111065,2,0,L|291:104,1,47.9999985351563,8|2,1:0|0:0,0:0:0:0:
350,3,111201,2,0,L|355:86,1,47.9999985351563,2|2,0:0|0:0,0:0:0:0:
417,179,111337,6,0,P|448:184|480:200,5,47.9999985351563,0|2|2|2|2|2,1:0|0:0|0:0|0:0|0:0|0:0,0:0:0:0:
506,263,111747,2,0,P|483:271|459:274,1,47.9999985351563,8|2,1:0|0:0,0:0:0:0:
224,232,111883,6,0,L|229:161,3,47.9999985351563,8|2|2|2,1:0|0:0|0:0|0:0,0:0:0:0:
154,287,112156,2,0,L|144:225,1,47.9999985351563,8|2,1:0|0:0,0:0:0:0:
278,297,112292,2,0,L|268:359,1,47.9999985351563,2|2,0:0|0:0,0:0:0:0:
27,280,112428,6,0,P|15:249|16:210,5,47.9999985351563,0|2|2|2|2|2,1:0|0:0|0:0|0:0|0:0|0:0,0:0:0:0:
21,153,112837,2,0,L|83:141,1,47.9999985351563,8|2,1:0|0:0,0:0:0:0:
280,145,112974,5,8,1:0:0:0:
280,145,113110,2,0,P|294:176|294:206,1,47.9999985351563,2|0,0:3|0:0,0:0:0:0:
108,256,113247,2,0,P|108:221|121:194,1,47.9999985351563,10|0,1:3|0:0,0:0:0:0:
279,338,113383,1,2,0:3:0:0:
202,347,113451,1,2,0:3:0:0:
125,356,113519,6,0,L|42:348,2,63.9999980468751,0|2|2,1:0|0:0|0:0,0:0:0:0:
363,304,113792,2,0,P|379:271|367:200,1,95.9999970703126,2|8,0:0|1:0,0:0:0:0:
105,146,114065,6,0,P|99:243|178:166,1,223.999993164063,10|8,1:0|1:0,0:0:0:0:
150,80,114406,2,0,P|120:68|89:68,2,47.9999985351563
234,282,114610,5,0,1:0:0:0:
271,276,114678,1,2,0:0:0:0:
302,253,114747,1,2,0:0:0:0:
318,218,114815,1,2,0:0:0:0:
349,195,114883,1,2,0:0:0:0:
386,189,114951,1,2,0:0:0:0:
422,200,115019,2,0,L|430:260,1,47.9999985351563,8|0,1:0|0:0,0:0:0:0:
272,50,115156,6,0,L|276:2,3,47.9999985351563,8|2|2|2,1:0|0:0|0:0|0:0,0:0:0:0:
349,90,115428,2,0,P|329:114|314:124,1,47.9999985351563,8|2,1:0|0:0,0:0:0:0:
215,113,115565,2,0,P|199:95|188:73,1,47.9999985351563,2|2,0:0|0:0,0:0:0:0:
380,14,115701,6,0,P|401:25|418:42,5,47.9999985351563,0|2|2|2|2|2,1:0|0:0|0:0|0:0|0:0|0:0,0:0:0:0:
498,29,116110,2,0,L|493:89,1,47.9999985351563,8|0,1:0|0:0,0:0:0:0:
448,291,116247,6,0,P|425:302|388:305,3,47.9999985351563,8|2|2|2,1:0|0:0|0:0|0:0,0:0:0:0:
324,269,116519,2,0,L|329:207,1,47.9999985351563,8|2,1:0|0:0,0:0:0:0:
450,159,116656,2,0,L|455:221,1,47.9999985351563,2|2,0:0|0:0,0:0:0:0:
170,209,116792,6,0,P|140:203|111:180,5,47.9999985351563,0|2|2|2|2|2,1:0|0:0|0:0|0:0|0:0|0:0,0:0:0:0:
104,108,117201,2,0,L|163:97,1,47.9999985351563,8|0,1:0|0:0,0:0:0:0:
211,363,117337,6,0,L|153:357,3,47.9999985351563,8|2|2|2,1:0|0:0|0:0|0:0,0:0:0:0:
95,286,117610,2,0,L|142:281,1,47.9999985351563,8|2,1:0|0:0,0:0:0:0:
228,214,117747,2,0,L|180:209,1,47.9999985351563,2|2,0:0|0:0,0:0:0:0:
53,63,117883,6,0,B|40:34|40:34|47:-14,2,63.9999980468751,0|2|2,1:0|0:0|0:0,0:0:0:0:
164,137,118156,2,0,L|277:132,1,95.9999970703126,2|8,0:0|1:0,0:0:0:0:
399,282,118428,6,0,B|414:321|395:357|395:357|321:396|238:338,1,223.999993164063,10|8,1:0|1:0,0:0:0:0:
199,295,118769,2,0,P|188:265|197:225,2,47.9999985351563
253,46,118974,5,0,1:0:0:0:
295,66,119042,1,2,0:0:0:0:
315,108,119110,1,2,0:0:0:0:
303,154,119178,1,2,0:0:0:0:
264,181,119246,1,2,0:0:0:0:
217,177,119314,1,2,0:0:0:0:
184,144,119383,2,0,L|187:92,1,47.9999985351563,8|0,1:0|0:0,0:0:0:0:
463,75,119519,6,0,L|465:122,3,47.9999985351563,8|2|2|2,1:0|0:0|0:0|0:0,0:0:0:0:
482,209,119792,2,0,L|427:205,1,47.9999985351563,8|2,1:0|0:0,0:0:0:0:
338,56,119928,2,0,L|385:52,1,47.9999985351563,2|2,0:0|0:0,0:0:0:0:
274,320,120065,6,0,L|263:258,14,32,0|0|2|0|2|0|2|0|2|0|2|0|8|0|2,1:0|0:0|0:0|0:0|0:0|0:0|0:0|0:0|0:0|0:0|0:0|0:0|1:0|0:0|0:0,0:0:0:0:
201,47,120610,2,0,L|190:109,14,32,0|0|2|0|2|0|2|0|8|0|2|0|2|0|2,1:0|0:0|0:0|0:0|0:0|0:0|0:0|0:0|1:0|0:0|0:0|0:0|0:0|0:0|0:0,0:0:0:0:
133,149,121156,6,0,L|136:199,1,32,0|0,1:0|0:0,0:0:0:0:
166,157,121224,2,0,L|169:207,1,32,2|0,0:0|0:0,0:0:0:0:
199,165,121292,2,0,L|202:215,1,32,2|0,0:0|0:0,0:0:0:0:
232,173,121360,2,0,L|233:204,1,32,2|0,0:0|0:0,0:0:0:0:
266,156,121428,6,0,L|269:106,1,32,2|0,0:0|0:0,0:0:0:0:
299,148,121496,2,0,L|302:98,1,32,2|0,0:0|0:0,0:0:0:0:
332,140,121564,2,0,L|335:90,1,32,8|0,1:0|0:0,0:0:0:0:
365,132,121632,2,0,L|368:82,1,32,2|0,0:0|0:0,0:0:0:0:
438,148,121701,6,0,B|429:181|403:195|403:195|431:205|450:230|450:230|406:262|409:310,1,210.000008010865,0|0,1:0|0:0,0:0:0:0:
418,383,122247,5,4,1:0:0:0:
256,192,134247,12,0,139565,0:0:0:0:
66,235,139701,6,0,B|100:256|175:260|218:217|218:217|303:150|216:72|125:154|218:217|218:217|264:217|284:245|284:245|324:222|334:187|325:138,1,600
225,307,141883,6,0,B|263:334|325:332|360:288|360:288|396:285|452:306|456:366,1,280
283,239,142974,6,0,B|281:197|311:173|311:173|282:147|241:147|241:147|286:132|303:80|279:30,1,280
361,233,144065,6,2,P|392:256|390:134,1,280,0|0,0:0|0:0,0:1:0:0:
283,286,145156,6,0,B|296:361|223:387|188:378|136:345|138:283|181:246|181:246|225:245|263:214|265:163,1,400
261,9,146656,6,0,P|375:31|410:150,1,240
387,343,147610,6,0,B|323:367|233:341|221:266|221:266|268:326|326:321,1,320
115,356,148837,6,2,B|61:336|41:276|71:228|71:228|50:202|44:177|44:177|110:207|157:187|157:187|96:141|130:78|130:78|156:102,1,480,0|0,0:0|0:0,0:1:0:0:
221,275,150610,6,0,B|276:260|322:293|322:293|306:220|345:142|389:137|389:137|431:149|455:181|455:181|386:217|414:293|414:293|498:306|515:226,1,640
258,54,152928,6,0,B|269:111|242:147|242:147|201:153|157:135|157:135|51:80|151:-6|241:67|157:135|157:135|106:151|75:204|84:249,1,560
316,357,154974,6,0,B|372:322|431:341|431:341|406:310|406:310|469:285|494:173|452:72|378:47|321:50|321:50|282:69|267:115,1,600
332,232,157156,5,0,1:0:0:0:
332,232,157428,6,0,L|336:136,1,80
350,132,157633,1,0,0:0:0:0:
350,132,157701,2,0,L|354:228,1,80
189,186,157974,6,0,P|226:168|274:174,1,80,0|0,1:0|0:0,0:0:0:0:
208,266,158247,2,0,P|168:267|133:250,1,80
234,60,158519,6,0,L|239:153,1,80,0|0,1:0|0:0,0:0:0:0:
360,89,158792,2,0,L|365:182,1,80
486,118,159065,2,0,L|491:211,1,80
419,340,159337,6,0,P|375:353|325:344,1,80,0|0,1:0|0:0,0:0:0:0:
317,173,159610,2,0,P|346:199|364:235,1,80
224,344,159883,2,0,P|232:306|254:272,1,80
419,340,160156,2,0,P|375:353|325:344,1,80,0|0,1:0|0:0,0:0:0:0:
180,242,160428,6,0,L|184:140,1,80
343,130,160701,2,0,L|347:232,1,80,0|0,1:0|0:0,0:0:0:0:
189,251,160974,2,0,L|193:149,1,80
331,135,161247,2,0,L|335:237,1,80
142,112,161519,5,0,1:0:0:0:
142,112,161792,2,0,B|179:96|179:96|239:101,1,80
292,133,161997,1,0,0:0:0:0:
292,133,162065,2,0,B|331:136|331:136|368:120,1,80
95,45,162337,6,0,P|68:78|67:139,1,80,0|0,1:0|0:0,0:0:0:0:
125,211,162610,2,0,P|129:253|171:297,1,80
327,222,162883,6,0,L|235:211,1,80,0|0,1:0|0:0,0:0:0:0:
145,122,163156,2,0,L|237:111,1,80
327,22,163428,2,0,L|235:11,1,80
391,170,163701,6,0,P|403:136|391:70,1,80,0|0,1:0|0:0,0:0:0:0:
317,233,163974,2,0,P|305:267|317:333,1,80
395,176,164247,2,0,P|413:145|413:78,1,80
312,226,164520,2,0,P|294:257|294:324,1,80,0|0,1:0|0:0,0:0:0:0:
326,28,164792,6,0,B|240:19,1,80
198,103,165065,1,0,0:0:0:0:
293,105,165201,1,0,0:0:0:0:
246,19,165337,1,0,0:0:0:0:
237,269,165474,1,0,0:0:0:0:
323,230,165610,1,0,0:0:0:0:
245,172,165746,1,0,0:0:0:0:
409,272,165883,5,0,1:0:0:0:
409,272,166156,2,0,L|523:286,1,80
511,289,166360,1,0,0:0:0:0:
511,289,166428,2,0,L|397:303,1,80
214,241,166701,6,0,B|202:202|202:202|219:144,1,80,0|0,1:0|0:0,0:0:0:0:
296,304,166974,2,0,B|308:343|308:343|291:401,1,80
127,342,167247,6,0,P|167:330|226:345,1,80,0|0,1:0|0:0,0:0:0:0:
86,248,167519,2,0,P|117:220|176:208,1,80
9,180,167792,2,0,P|25:141|74:106,1,80
274,142,168065,6,0,L|181:135,1,80,0|0,1:0|0:0,0:0:0:0:
339,87,168337,2,0,L|346:-6,1,80
394,152,168610,2,0,L|487:159,1,80
329,207,168883,2,0,L|322:300,1,80,0|0,1:0|0:0,0:0:0:0:
194,135,169156,6,0,L|274:142,1,80
473,158,169428,2,0,L|393:151,1,80,0|0,1:0|0:0,0:0:0:0:
193,148,169701,6,0,L|273:147,1,80
473,145,169973,2,0,L|393:146,1,80
338,332,170247,5,0,1:0:0:0:
338,332,170519,2,0,P|352:289|337:233,1,80
324,177,170724,1,0,0:0:0:0:
324,177,170792,2,0,P|320:137|333:100,1,80
505,146,171065,6,0,L|422:149,1,80,0|0,1:0|0:0,0:0:0:0:
399,278,171337,2,0,L|478:280,1,80
333,100,171610,6,0,P|320:137|324:177,1,80,0|0,1:0|0:0,0:0:0:0:
225,187,171883,2,0,P|235:225|261:255,1,80
185,320,172156,2,0,P|215:345|253:355,1,80
431,335,172428,6,0,L|422:226,1,80,0|0,1:0|0:0,0:0:0:0:
345,44,172701,2,0,L|336:153,1,80,0|0,0:0|0:0,0:0:0:0:
255,334,172974,2,0,L|246:225,1,80,0|0,0:0|0:0,0:0:0:0:
169,43,173247,2,0,L|160:152,1,80,0|0,1:0|0:0,0:0:0:0:
248,254,173519,21,0,0:0:0:0:
276,248,173587,1,0,0:0:0:0:
304,242,173656,2,0,L|315:191,1,47.9999985351563,8|0,0:2|0:0,0:0:0:0:
132,115,173792,2,0,L|143:166,1,47.9999985351563,8|0,0:2|0:0,0:0:0:0:
388,58,173928,1,0,0:0:0:0:
350,27,173997,1,0,0:0:0:0:
302,29,174065,1,8,0:2:0:0:
355,268,174201,1,8,0:2:0:0:
490,47,174337,1,8,0:2:0:0:
234,102,174474,1,8,0:2:0:0:
504,203,174610,6,0,L|515:268,3,47.9999985351563,4|0|0|0,1:0|0:0|0:0|0:0,0:0:0:0:
477,319,174883,2,0,B|431:335|431:335|369:322,1,95.9999970703126
369,105,175156,2,0,B|415:89|415:89|477:102,1,95.9999970703126
309,255,175428,1,0,0:0:0:0:
281,246,175497,1,0,0:0:0:0:
253,237,175565,1,0,0:0:0:0:
225,228,175633,1,0,0:0:0:0:
197,220,175701,6,0,L|189:102,1,95.9999970703126
419,90,175974,2,0,L|411:208,1,95.9999970703126
209,225,176247,2,0,L|201:107,1,95.9999970703126
408,83,176519,2,0,L|400:201,1,95.9999970703126
207,305,176792,6,0,P|174:298|147:273,3,47.9999985351563
117,226,177065,1,0,0:0:0:0:
117,226,177201,1,0,0:0:0:0:
279,119,177337,1,0,0:0:0:0:
279,119,177473,1,0,0:0:0:0:
53,147,177610,1,0,0:0:0:0:
35,124,177678,1,0,0:0:0:0:
28,95,177747,1,0,0:0:0:0:
32,66,177815,1,0,0:0:0:0:
50,43,177883,6,0,B|89:39|89:39|104:46|104:46|162:41,1,95.9999970703126
323,140,178156,2,0,B|283:136|283:136|268:143|268:143|210:138,1,95.9999970703126
50,237,178428,2,0,B|89:233|89:233|104:240|104:240|162:235,1,95.9999970703126
323,334,178701,2,0,B|283:330|283:330|268:337|268:337|210:332,1,95.9999970703126
228,139,178974,6,0,L|244:54,3,47.9999985351563,0|0|0|0,1:0|0:0|0:0|0:0,0:0:0:0:
311,70,179247,2,0,L|321:182,1,95.9999970703126,0|0,1:0|0:0,0:0:0:0:
106,223,179519,2,0,L|116:111,1,95.9999970703126,0|0,1:0|0:0,0:0:0:0:
360,234,179792,1,0,1:0:0:0:
332,243,179860,1,0,0:0:0:0:
304,243,179928,1,0,0:0:0:0:
277,232,179996,1,0,0:0:0:0:
256,213,180065,6,0,L|367:200,1,95.9999970703126,0|0,1:0|0:0,0:0:0:0:
136,316,180337,2,0,L|40:304,1,95.9999970703126,0|0,1:0|0:0,0:0:0:0:
270,225,180610,2,0,L|380:211,1,95.9999970703126,0|0,1:0|0:0,0:0:0:0:
119,303,180883,2,0,L|23:291,1,95.9999970703126,0|0,1:0|0:0,0:0:0:0:
185,88,181156,6,0,L|199:154,3,47.9999985351563,0|0|0|0,1:0|0:0|0:0|0:0,0:0:0:0:
193,211,181428,1,0,1:0:0:0:
193,211,181565,1,0,0:0:0:0:
335,152,181701,1,0,1:0:0:0:
335,152,181838,1,0,0:0:0:0:
298,343,181974,1,0,1:0:0:0:
326,345,182042,1,0,0:0:0:0:
354,347,182110,1,0,0:0:0:0:
382,349,182178,1,0,0:0:0:0:
411,351,182247,6,0,P|436:316|427:241,1,95.9999970703126,0|0,1:0|0:0,0:0:0:0:
393,117,182519,1,0,1:0:0:0:
298,134,182656,1,0,0:0:0:0:
361,206,182792,1,0,1:0:0:0:
334,55,182928,1,0,0:0:0:0:
217,155,183065,1,0,1:0:0:0:
424,116,183201,1,0,0:0:0:0:
220,62,183337,5,4,1:0:0:0:
279,265,183474,1,0,1:0:0:0:
424,116,183610,2,0,L|416:9,1,95.9999970703126,0|0,1:0|0:0,0:0:0:0:
335,124,183815,1,0,0:0:0:0:
331,142,183883,2,0,L|323:35,1,95.9999970703126,0|0,1:0|0:0,0:0:0:0:
242,150,184088,1,0,0:0:0:0:
238,168,184156,2,0,L|230:61,1,95.9999970703126,0|0,1:0|0:0,0:0:0:0:
132,309,184428,6,0,B|177:326|177:326|248:313,1,95.9999970703126,0|0,1:0|0:0,0:0:0:0:
238,168,184633,1,0,0:0:0:0:
238,168,184701,2,0,B|200:198|200:198|176:266,1,95.9999970703126,0|0,1:0|0:0,0:0:0:0:
307,330,184906,1,0,0:0:0:0:
307,330,184974,2,0,B|299:282|299:282|252:227,1,95.9999970703126,0|0,1:0|0:0,0:0:0:0:
102,227,185178,1,0,0:0:0:0:
102,227,185247,2,0,L|-13:245,1,95.9999970703126,0|0,1:0|0:0,0:0:0:0:
159,141,185451,1,0,0:0:0:0:
159,141,185519,6,0,L|228:147,3,47.9999985351563,0|0|0|0,1:0|0:0|0:0|0:0,0:0:0:0:
216,286,185792,2,0,L|285:280,3,47.9999985351563,0|0|0|0,1:0|0:0|0:0|0:0,0:0:0:0:
298,116,186065,2,0,L|304:185,3,47.9999985351563,0|0|0|0,1:0|0:0|0:0|0:0,0:0:0:0:
355,312,186337,2,0,L|361:243,3,47.9999985351563,0|0|0|0,1:0|0:0|0:0|0:0,0:0:0:0:
439,94,186610,6,0,P|462:86|492:88,3,47.9999985351563,0|0|0|0,1:0|0:0|0:0|0:0,0:0:0:0:
438,297,186883,2,0,P|461:305|485:305,3,47.9999985351563,0|0|0|0,1:0|0:0|0:0|0:0,0:0:0:0:
354,65,187156,2,0,L|358:5,3,47.9999985351563,8|0|0|0,1:0|0:0|0:0|0:0,0:0:0:0:
354,319,187428,2,0,L|358:379,3,47.9999985351563,8|0|0|0,1:0|0:0|0:0|0:0,0:0:0:0:
260,192,187701,6,0,L|100:192,1,143.999995605469,4|0,1:0|0:0,0:0:0:0:
49,134,187974,5,8,0:1:0:0:
64,99,188042,1,0,0:0:0:0:
97,80,188110,1,0,0:0:0:0:
135,76,188178,1,0,0:0:0:0:
171,88,188247,2,0,P|195:91|240:76,3,47.9999985351563,8|0|0|0,0:1|0:0|0:0|0:0,0:0:0:0:
295,48,188519,5,8,0:1:0:0:
308,83,188587,1,0,0:0:0:0:
338,107,188656,1,0,0:0:0:0:
375,115,188724,1,0,0:0:0:0:
412,107,188792,2,0,L|421:59,3,47.9999985351563,8|0|0|0,0:1|0:0|0:0|0:0,0:0:0:0:
436,190,189065,5,8,0:1:0:0:
444,226,189133,1,0,0:0:0:0:
435,263,189201,1,0,0:0:0:0:
409,291,189269,1,0,0:0:0:0:
373,303,189337,2,0,L|309:293,3,47.9999985351563,8|0|0|0,0:1|0:0|0:0|0:0,0:0:0:0:
240,277,189610,5,8,0:1:0:0:
201,276,189678,1,0,0:0:0:0:
164,290,189747,1,0,0:0:0:0:
138,318,189815,1,0,0:0:0:0:
127,354,189883,6,0,L|130:379,6,23.9999992675781,8|0|0|0|0|0|0,0:1|0:0|0:0|0:0|0:0|0:0|0:0,0:0:0:0:
31,202,190156,2,0,L|34:177,6,23.9999992675781,8|0|0|0|0|0|0,0:1|0:0|0:0|0:0|0:0|0:0|0:0,0:0:0:0:
213,311,190428,6,0,L|217:345,6,32,0|0|0|0|0|0|0,1:0|1:0|1:0|1:0|1:0|1:0|1:0,1:0:0:0:
117,159,190701,2,0,L|121:121,6,32,0|0|0|0|0|0|0,1:0|1:0|1:0|1:0|1:0|1:0|1:0,1:0:0:0:
242,209,190974,6,0,L|199:218,1,32,0|0,1:0|1:0,1:0:0:0:
270,192,191042,2,0,L|226:189,1,32,0|0,1:0|1:0,1:0:0:0:
302,183,191110,2,0,L|260:169,1,32,0|0,1:0|1:0,1:0:0:0:
335,182,191178,2,0,L|308:164,1,32,0|0,1:0|1:0,1:0:0:0:
360,212,191247,6,0,L|317:222,1,32,0|0,1:0|1:0,1:0:0:0:
392,215,191315,2,0,L|353:235,1,32,0|0,1:0|1:0,1:0:0:0:
425,210,191383,2,0,L|392:240,1,32,0|0,1:0|1:0,1:0:0:0:
455,197,191451,2,0,L|437:223,1,32,0|0,1:0|1:0,1:0:0:0:
471,170,191519,5,0,1:0:0:0:
263,91,192065,5,0,1:0:0:0:
198,260,192201,1,0,1:0:0:0:
352,357,192337,2,0,P|426:360|504:346,1,140.000001335144,10|0,1:0|0:0,0:0:0:0:
405,23,192610,2,0,P|335:12|266:15,1,140.000001335144,2|0,1:0|0:0,0:0:0:0:
43,279,192883,2,0,P|107:336|238:311,1,210.000002002716,10|0,1:0|0:0,0:0:0:0:
352,357,193156,6,0,P|312:312|325:221,1,140.000001335144,0|0,1:0|0:0,0:0:0:0:
432,16,193428,2,0,B|468:61|468:61|454:182,1,140.000001335144,10|0,1:0|0:0,0:0:0:0:
113,258,193701,2,0,B|77:213|77:213|91:92,1,140.000001335144,2|0,1:0|0:0,0:0:0:0:
512,231,193974,2,0,B|432:224|432:224|382:243|382:243|278:234,1,210.000002002716,10|0,1:0|0:0,0:0:0:0:
231,155,194247,6,0,L|370:166,1,140.000001335144,0|0,1:0|0:0,0:0:0:0:
67,372,194519,2,0,B|37:310|37:310|54:228,1,140.000001335144,10|0,1:0|0:0,0:0:0:0:
424,94,194792,2,0,B|454:156|454:156|436:237,1,140.000001335144,2|0,1:0|0:0,0:0:0:0:
0,182,195065,2,0,P|62:128|209:164,1,210.000002002716,10|0,1:0|0:0,0:0:0:0:
230,255,195337,6,0,B|220:353|220:353|176:324,1,140.000001335144,0|0,1:0|0:0,0:0:0:0:
155,28,195610,2,0,B|221:6|221:6|316:24,1,140.000001335144,10|0,1:0|0:0,0:0:0:0:
355,345,195883,2,0,B|289:367|289:367|219:353,1,140.000001335144,2|0,1:0|0:0,0:0:0:0:
465,81,196156,2,0,L|465:225,1,140.000001335144,10|0,1:0|0:0,0:0:0:0:
276,148,196428,5,0,1:0:0:0:
280,127,196497,1,0,1:0:0:0:
146,323,196633,1,0,1:0:0:0:
141,343,196701,6,0,P|100:294|115:194,1,140.000001335144,10|0,1:0|0:0,0:0:0:0:
439,68,196974,2,0,P|480:117|465:217,1,140.000001335144,2|0,1:0|0:0,0:0:0:0:
9,102,197247,2,0,L|237:109,1,210.000002002716,10|0,1:0|0:0,0:0:0:0:
305,69,197519,6,0,L|122:63,1,140.000001335144,0|0,1:0|0:0,0:0:0:0:
431,362,197792,2,0,B|458:317|458:317|440:203,1,140.000001335144,10|0,1:0|0:0,0:0:0:0:
76,168,198065,2,0,B|62:254|62:254|89:299,1,140.000001335144,2|0,1:0|0:0,0:0:0:0:
495,165,198337,2,0,P|415:154|372:272,1,210.000002002716,10|0,1:0|0:0,0:0:0:0:
431,362,198610,6,0,P|456:302|439:220,1,140.000001335144,0|0,1:0|0:0,0:0:0:0:
98,343,198883,2,0,B|149:338|149:338|179:351|179:351|258:344,1,140.000001335144,10|0,1:0|0:0,0:0:0:0:
376,32,199156,2,0,B|324:27|324:27|294:40|294:40|215:33,1,140.000001335144,2|0,1:0|0:0,0:0:0:0:
339,370,199428,2,0,B|375:305|375:305|351:158,1,210.000002002716,10|0,1:0|0:0,0:0:0:0:
269,118,199701,6,0,P|278:237|379:265,1,210.000002002716,0|0,1:0|0:0,0:0:0:0:
432,245,199974,1,10,1:0:0:0:
324,47,200110,1,0,0:0:0:0:
251,314,200247,1,2,1:0:0:0:
480,162,200383,1,0,0:0:0:0:
185,219,200519,1,10,1:0:0:0:
454,274,200655,1,0,0:0:0:0:
247,39,200792,6,0,L|86:53,1,140.000001335144,4|0,1:0|0:0,0:0:0:0:
161,347,201065,2,0,B|194:305|194:305|181:185,1,140.000001335144,10|0,1:0|0:0,0:0:0:0:
317,0,201337,2,0,B|350:42|350:42|337:162,1,140.000001335144,2|0,1:0|0:0,0:0:0:0:
465,384,201610,2,0,B|510:326|510:326|492:161,1,210.000002002716,10|0,1:0|0:0,0:0:0:0:
475,79,201883,6,0,P|420:40|328:53,1,140.000001335144,0|0,1:0|0:0,0:0:0:0:
15,177,202156,2,0,L|25:350,1,140.000001335144,10|0,1:0|0:0,0:0:0:0:
385,268,202428,2,0,L|395:95,1,140.000001335144,2|0,1:0|0:0,0:0:0:0:
96,0,202701,2,0,B|88:139|88:139|171:120,1,210.000002002716,10|0,1:0|0:0,0:0:0:0:
312,64,202974,6,0,L|153:43,1,140.000001335144,0|0,1:0|0:0,0:0:0:0:
388,384,203247,2,0,B|418:325|418:325|395:227,1,140.000001335144,10|0,1:0|0:0,0:0:0:0:
39,173,203519,2,0,B|22:244|22:244|52:303,1,140.000001335144,2|0,1:0|0:0,0:0:0:0:
456,177,203792,2,0,B|347:132|360:219|246:177,1,210.000002002716,10|0,1:0|0:0,0:0:0:0:
157,131,204065,6,0,P|123:74|154:-5,1,140.000001335144,0|0,1:0|0:0,0:0:0:0:
366,317,204337,2,0,L|192:324,1,140.000001335144,10|0,1:0|0:0,0:0:0:0:
303,4,204610,2,0,L|442:9,1,140.000001335144,2|0,1:0|0:0,0:0:0:0:
159,370,204883,2,0,B|110:311|110:311|134:151,1,210.000002002716,10|0,1:0|0:0,0:0:0:0:
253,130,205156,6,0,B|289:155|296:212|274:253|274:253|241:267|204:247,1,200,4|0,1:0|0:0,0:0:0:0:
132,32,205565,1,0,1:0:0:0:
250,0,205701,2,0,L|386:9,1,100,8|0,0:1|0:0,0:0:0:0:
424,205,205974,2,0,L|288:214,1,100,0|0,1:0|0:0,0:0:0:0:
244,217,206178,1,0,0:0:0:0:
244,217,206247,1,0,1:0:0:0:
300,16,206383,6,0,B|322:61|322:61|310:143,1,100,2|2,0:0|0:0,0:0:0:0:
47,93,206656,1,0,1:0:0:0:
186,26,206792,2,0,L|373:31,1,150,8|0,0:1|0:0,0:0:0:0:
416,33,207065,1,0,1:0:0:0:
407,61,207133,1,0,0:0:0:0:
406,90,207201,1,0,0:0:0:0:
415,118,207269,1,0,0:0:0:0:
435,139,207337,6,0,P|454:179|331:235,1,200,0|0,1:0|0:0,0:0:0:0:
299,38,207747,1,0,1:0:0:0:
245,149,207883,2,0,P|203:170|141:157,1,100,8|0,0:1|0:0,0:0:0:0:
28,50,208156,2,0,L|19:174,1,100,0|0,1:0|0:0,0:0:0:0:
15,229,208360,1,0,0:0:0:0:
15,229,208428,1,0,1:0:0:0:
198,303,208565,6,0,L|275:296,1,50,2|0,0:0|0:0,0:0:0:0:
131,249,208701,1,2,0:0:0:0:
257,92,208837,2,0,L|262:28,2,50,0|0|8,1:0|0:0|0:1,0:0:0:0:
295,231,209110,1,0,0:0:0:0:
322,260,209178,1,0,0:0:0:0:
360,272,209247,1,0,1:0:0:0:
399,269,209315,1,0,0:0:0:0:
429,243,209383,1,0,0:0:0:0:
441,205,209451,1,0,0:0:0:0:
433,165,209519,6,0,B|353:134|353:134|255:152,1,150,4|0,1:0|0:0,0:0:0:0:
207,166,209792,2,0,L|202:213,1,30.0000011444092,0|0,1:0|0:0,0:0:0:0:
384,361,209928,2,0,B|396:327|396:327|386:267,1,70.000000667572,2|0,0:3|0:0,0:0:0:0:
344,221,210065,1,0,1:0:0:0:
115,350,210201,6,0,B|154:382|154:382|161:284,1,140.000001335144,2|0,0:1|1:0,0:0:0:0:
13,217,210474,2,0,L|8:269,1,40,2|0,0:1|0:0,0:0:0:0:
290,177,210610,6,0,B|284:117|284:117|270:94|270:94|264:26,1,150,0|0,1:0|0:0,0:0:0:0:
208,167,210883,2,0,B|218:282|218:282|279:252,1,180.000006866455,2|0,1:3|0:0,0:0:0:0:
290,177,211156,1,0,1:0:0:0:
37,29,211292,6,0,B|33:68|33:68|24:76|24:76|32:84|32:84|23:180,1,140.000001335144,2|0,0:1|1:0,0:0:0:0:
244,384,211565,5,2,1:2:0:0:
327,375,211633,1,2,1:2:0:0:
410,367,211701,2,0,B|405:334|383:314|383:314|411:325|451:311,1,120,4|0,1:3|0:0,0:0:0:0:
449,304,211974,6,0,P|390:309|325:197,1,180.000006866455,2|0,1:3|0:0,0:1:0:0:
332,136,212247,1,0,1:0:0:0:
201,371,212383,6,0,B|165:367|165:367|157:359|157:359|149:366|149:366|61:358,1,140.000001335144,2|0,0:1|1:0,0:0:0:0:
221,150,212656,6,0,L|224:179,1,30.0000011444092,2|0,0:1|0:0,0:0:0:0:
201,371,212792,1,0,1:0:0:0:
346,163,212928,6,0,L|349:192,1,30.0000011444092,2|0,0:0|0:0,0:0:0:0:
326,384,213064,1,0,1:0:0:0:
447,207,213201,2,0,B|482:202|482:202|526:231,1,70.000000667572,2|0,0:3|0:0,0:0:0:0:
289,305,213337,5,0,1:0:0:0:
287,290,213406,1,0,1:0:0:0:
285,276,213474,1,0,1:0:0:0:
283,262,213542,1,0,1:0:0:0:
281,248,213610,2,0,B|284:203|284:203|319:236,1,90.0000034332277,0|0,1:0|0:0,0:0:0:0:
355,348,213883,6,0,P|303:382|224:348,1,120.000004577637,8|8,1:0|0:0,0:0:0:0:
89,190,214156,1,8,0:0:0:0:
324,146,214292,1,8,0:0:0:0:
154,384,214428,2,0,B|33:367|33:367|81:295,1,180.000006866455,8|0,1:0|0:0,0:0:0:0:
143,305,214701,5,4,1:0:0:0:
346,374,214837,1,0,0:0:0:0:
303,161,214974,2,0,P|295:103|322:32,1,120.000004577637
498,235,215247,5,0,1:0:0:0:
274,320,215383,1,0,0:0:0:0:
388,109,215519,2,0,B|435:93|435:93|529:110,1,120.000004577637,8|0,1:0|0:0,0:0:0:0:
161,211,215792,6,0,L|63:206,2,60.0000022888184
321,286,216065,6,0,L|451:281,1,120.000004577637,0|0,1:0|0:0,0:0:0:0:
132,125,216337,2,0,L|2:120,1,120.000004577637
393,235,216610,2,0,L|523:230,1,120.000004577637,8|0,1:0|0:0,0:0:0:0:
58,172,216883,2,0,P|28:208|41:306,1,120.000004577637,0|0,1:0|0:0,0:0:0:0:
306,341,217156,6,0,L|312:186,1,120.000004577637
10,43,217428,2,0,L|16:198,1,120.000004577637,0|0,1:0|0:0,0:0:0:0:
374,99,217701,2,0,L|375:58,6,30.0000011444092,8|0|0|0|0|0|0,1:0|0:0|0:0|0:0|0:0|0:0|0:0,0:0:0:0:
360,182,217974,1,0,0:0:0:0:
364,217,218042,1,0,0:0:0:0:
368,252,218110,1,0,0:0:0:0:
372,287,218178,1,0,0:0:0:0:
376,323,218247,6,0,B|287:348|287:348|199:333,1,150,0|0,1:0|0:0,0:0:0:0:
194,262,218519,2,0,L|241:258,1,30.0000011444092,0|0,1:0|0:0,0:0:0:0:
21,377,218656,2,0,B|5:346|5:346|19:288,1,70.000000667572,2|0,0:3|0:0,0:0:0:0:
35,231,218792,1,0,1:0:0:0:
305,273,218928,6,0,P|267:328|166:310,1,140.000001335144,2|0,0:1|0:1,0:0:0:0:
158,104,219201,2,0,L|233:107,1,40,2|0,0:1|0:0,0:0:0:0:
125,362,219337,6,0,B|77:380|77:380|85:271,1,150,0|0,1:0|0:0,0:0:0:0:
52,180,219610,2,0,B|99:175|99:175|175:209|175:209|246:203,1,180.000006866455,2|0,1:3|0:0,0:0:0:0:
321,194,219883,1,0,1:0:0:0:
136,31,220019,6,0,B|88:35|88:35|67:28|67:28|48:38|48:38|-15:44,1,140.000001335144,2|0,0:1|1:0,0:0:0:0:
198,333,220292,5,2,1:2:0:0:
234,257,220360,1,2,1:2:0:0:
214,175,220428,2,0,B|155:153|155:153|165:239,1,120,4|0,1:3|0:0,0:0:0:0:
156,217,220701,6,0,B|144:100|144:100|211:124,1,180.000006866455,2|0,1:3|0:0,0:0:0:0:
241,196,220974,1,0,1:0:0:0:
11,340,221110,6,0,B|15:284|15:284|2:258|2:258|8:187,1,140.000001335144,2|0,0:1|1:0,0:0:0:0:
266,272,221383,6,0,L|215:277,1,30.0000011444092,2|0,0:1|0:0,0:0:0:0:
80,241,221519,1,0,1:0:0:0:
278,354,221656,6,0,L|227:359,1,30.0000011444092
92,323,221792,1,0,1:0:0:0:
312,209,221928,2,0,B|339:232|339:232|345:281,1,70.000000667572,2|0,0:3|0:0,0:0:0:0:
144,237,222065,5,0,1:0:0:0:
145,223,222133,1,0,1:0:0:0:
147,209,222201,1,0,1:0:0:0:
149,195,222269,1,0,1:0:0:0:
151,181,222337,1,0,1:0:0:0:
233,314,222474,2,0,L|226:374,1,40,2|0,0:1|0:0,0:0:0:0:
11,190,222610,6,0,P|60:154|135:167,1,120.000004577637,8|8,1:2|1:2,0:0:0:0:
153,326,222883,1,8,1:2:0:0:
192,77,223019,1,8,1:2:0:0:
289,310,223156,2,0,B|342:345|399:329|399:329|420:295|397:239,1,180.000006866455,8|0,1:0|0:0,0:0:0:0:
331,244,223428,5,4,1:0:0:0:
132,332,223565,1,0,0:0:0:0:
346,353,223701,2,0,B|388:354|417:342|417:342|426:318|424:285,1,120.000004577637
286,97,223974,5,0,1:0:0:0:
263,335,224110,1,0,0:0:0:0:
482,234,224247,2,0,B|498:177|498:177|482:105,1,120.000004577637,8|0,1:0|0:0,0:0:0:0:
347,300,224519,6,0,L|352:362,2,60.0000022888184
197,24,224792,5,0,1:0:0:0:
256,192,224860,12,0,225747,0:0:0:0:
288,177,225883,21,0,0:0:0:0:
321,158,225951,1,0,0:0:0:0:
359,162,226019,2,0,L|365:209,1,47.9999985351563,8|0,0:2|0:0,0:0:0:0:
199,309,226156,2,0,L|208:260,1,47.9999985351563,8|0,0:2|0:0,0:0:0:0:
469,301,226292,1,0,0:0:0:0:
431,308,226360,1,0,0:0:0:0:
393,315,226428,1,8,0:2:0:0:
387,82,226565,1,8,0:2:0:0:
502,295,226701,1,8,0:2:0:0:
257,286,226838,1,8,0:2:0:0:
324,31,226974,6,0,P|456:43|429:152,1,240.000009155274,4|0,1:0|0:0,0:0:0:0:
184,66,227383,6,0,B|246:52|246:52|266:117|351:132|386:81,1,240.000009155274,4|0,1:2|0:0,0:0:0:0:
286,202,227792,6,0,B|262:258|287:328|350:350|350:350|392:329|383:279,1,240.000009155274,4|0,1:2|0:0,0:0:0:0:
246,134,228201,6,0,B|210:158|191:224|202:279|202:279|170:238|114:244,1,240.000009155274,4|0,1:2|0:0,0:0:0:0:
281,367,228610,6,0,L|499:360,1,180.000006866455,4|0,1:2|0:0,0:0:0:0:
489,338,228883,2,0,L|309:343,1,180.000006866455,4|0,1:2|0:0,0:0:0:0:
237,287,229156,6,0,B|209:127|209:127|295:139,1,240.000009155274,4|0,1:2|0:0,0:0:0:0:
178,368,229565,6,0,P|99:354|56:204,1,240.000009155274,4|0,1:2|0:0,0:0:0:0:
252,39,229974,6,0,B|301:24|301:24|273:184|273:184|230:157,1,240.000009155274,4|0,1:2|0:0,0:0:0:0:
0,124,230383,6,0,B|68:66|68:66|234:109,1,240.000009155274,4|0,1:2|0:0,0:0:0:0:
326,313,230792,6,0,B|276:313|252:272|252:272|222:283|207:313|207:313|169:275|112:265|112:265|75:310|6:294,1,350,4|0,1:2|0:0,0:0:0:0:
196,211,231337,6,0,P|228:158|101:52,1,240.000009155274,4|0,1:2|0:0,0:0:0:0:
117,286,231747,6,0,P|159:330|295:235,1,240.000009155274,4|0,1:2|0:0,0:0:0:0:
235,62,232156,6,0,B|186:74|158:111|158:111|155:198|222:275,1,240.000009155274,4|0,1:2|0:0,0:0:0:0:
394,270,232565,6,0,B|407:221|389:178|389:178|315:132|215:152,1,240.000009155274,4|0,1:2|0:0,0:0:0:0:
194,383,232974,6,0,L|405:372,1,180.000006866455,4|0,1:2|0:0,0:0:0:0:
403,352,233247,2,0,L|223:361,1,180.000006866455,4|0,1:2|0:0,0:0:0:0:
98,348,233519,6,0,B|30:304|30:304|52:132,1,240.000009155274,4|0,1:2|0:0,0:0:0:0:
261,21,233928,6,0,B|306:15|376:56|375:122|375:122|342:163|293:157,1,240.000009155274,4|0,1:2|0:0,0:0:0:0:
115,235,234337,6,0,B|134:64|134:64|224:128,1,240.000009155274,4|0,1:2|0:0,0:0:0:0:
299,340,234747,6,0,L|23:333,1,240.000009155274,4|0,1:2|0:0,0:0:0:0:
125,250,235156,6,0,L|257:255,1,120.000004577637,4|0,1:2|0:0,0:0:0:0:
324,256,235360,6,0,B|324:225|306:204|306:204|340:238|389:236,1,143.999995605469,2|2,0:3|0:3,0:0:0:0:
489,85,235701,6,0,L|495:5,4,60.0000022888184,4|0|0|0|8,0:2|0:0|0:0|0:0|0:2,0:0:0:0:
435,298,236110,2,0,L|441:378,4,60.0000022888184,4|0|0|0|0,0:2|0:0|0:0|0:0|0:0,0:0:0:0:
261,112,236519,2,0,L|255:32,4,60.0000022888184,4|0|0|0|0,0:2|0:0|0:0|0:0|0:0,0:0:0:0:
315,325,236928,2,0,L|309:405,4,60.0000022888184,4|0|0|0|0,0:2|0:0|0:0|0:0|0:0,0:0:0:0:
169,162,237337,6,0,L|89:168,3,60.0000022888184,4|0|0|0,0:2|0:0|0:0|0:0,0:0:0:0:
277,196,237610,2,0,L|357:202,3,60.0000022888184,4|0|0|0,0:2|0:0|0:0|0:0,0:0:0:0:
106,90,237883,6,0,P|76:96|41:134,4,60.0000022888184,4|0|0|0|8,0:2|0:0|0:0|0:0|0:2,0:0:0:0:
336,200,238292,2,0,P|366:194|401:156,4,60.0000022888184,4|0|0|0|0,0:2|0:0|0:0|0:0|0:0,0:0:0:0:
174,54,238701,2,0,P|155:29|106:13,4,60.0000022888184,4|0|0|0|0,0:2|0:0|0:0|0:0|0:0,0:0:0:0:
265,238,239110,2,0,P|283:262|332:278,4,60.0000022888184,4|0|0|0|0,0:2|0:0|0:0|0:0|0:0,0:0:0:0:
258,28,239519,6,0,B|288:31|305:21|305:21|323:26|340:47|340:47|376:31|419:35|461:78|449:127|449:127|416:123,1,287.999991210938,4|0,0:2|2:0,0:0:0:0:
367,266,240065,6,0,P|365:300|386:348,5,60.0000022888184,4|0|0|0|0|0,0:2|0:0|0:0|0:0|0:0|0:0,0:0:0:0:
290,192,240474,2,0,P|268:218|258:270,5,60.0000022888184,4|0|0|0|0|0,0:2|0:0|0:0|0:0|0:0|0:0,0:0:0:0:
163,281,240884,2,0,P|156:252|159:223,5,60.0000022888184,4|0|0|0|0|0,0:2|0:0|0:0|0:0|0:0|0:0,0:0:0:0:
52,199,241292,2,0,P|62:171|82:149,5,60.0000022888184,4|0|0|0|0|0,0:2|0:0|0:0|0:0|0:0|0:0,0:0:0:0:
158,112,241701,5,4,0:2:0:0:
193,110,241769,1,0,0:0:0:0:
227,120,241837,1,0,0:0:0:0:
252,145,241906,1,0,0:0:0:0:
270,175,241974,1,4,0:2:0:0:
297,197,242042,1,0,0:0:0:0:
332,203,242110,1,0,0:0:0:0:
366,193,242178,1,0,0:0:0:0:
392,168,242247,5,0,0:0:0:0:
256,192,242315,12,0,243201,0:0:0:0:
272,273,243337,6,0,L|321:285,2,30.0000011444092
103,229,243610,2,0,L|46:242,2,30.0000011444092
276,176,243883,2,0,L|325:188,2,30.0000011444092
107,132,244156,2,0,L|50:145,2,30.0000011444092,8|0|0,1:0|0:0|0:0,0:0:0:0:
330,75,244428,6,0,B|372:78|372:78|389:72|389:72|404:81|404:81|468:87,2,120.000004577637,0|0|0,1:0|0:0|0:0,0:0:0:0:
432,364,245247,6,0,L|485:368,1,54.0000002059937,4|0,1:0|0:0,0:0:0:0:
247,278,245383,2,0,L|193:282,1,54.0000002059937,2|0,1:2|0:0,0:0:0:0:
470,230,245519,2,0,P|487:181|471:108,1,108.000000411987,2|0,1:2|0:0,0:0:0:0:
414,68,245724,5,0,1:0:0:0:
408,88,245792,2,0,L|404:156,1,54.0000002059937,2|0,1:2|0:0,0:0:0:0:
185,193,245928,2,0,L|178:75,1,108.000000411987,2|0,1:2|0:0,0:0:0:0:
261,138,246133,1,2,1:2:0:0:
261,138,246201,1,2,1:2:0:0:
197,351,246337,6,0,L|135:347,1,54.0000002059937,2|0,1:2|0:0,0:0:0:0:
308,294,246474,2,0,L|370:290,1,54.0000002059937,2|0,0:0|0:0,0:0:0:0:
126,223,246610,2,0,L|-5:214,1,108.000000411987,2|0,1:2|0:0,0:0:0:0:
52,135,246815,5,0,1:0:0:0:
52,135,246883,2,0,L|105:138,1,54.0000002059937,2|0,1:2|0:0,0:0:0:0:
171,378,247019,2,0,L|34:386,1,108.000000411987,2|0,1:2|0:0,0:0:0:0:
0,323,247224,1,2,1:2:0:0:
0,323,247292,1,2,1:2:0:0:
212,236,247428,6,0,P|220:267|212:312,1,54.0000002059937,2|0,1:2|0:0,0:0:0:0:
0,151,247565,2,0,P|0:124|7:98,1,54.0000002059937,2|0,1:2|0:0,0:0:0:0:
298,55,247701,2,0,P|306:86|298:131,3,54.0000002059937,2|2|2|2,1:2|0:0|0:0|1:2,0:0:0:0:
281,191,247974,1,2,1:2:0:0:
6,98,248110,6,0,B|69:70|69:70|126:79,1,108.000000411987,2|2,1:2|0:0,0:0:0:0:
192,95,248315,1,0,1:0:0:0:
192,95,248383,1,0,1:0:0:0:
63,354,248519,6,2,B|59:310|59:310|44:276|44:276|53:242|53:242|48:183,1,162.000000617981,2|0,1:0|0:0,0:1:0:0:
137,269,248792,6,0,P|172:308|294:286,1,162.000000617981,0|0,1:0|0:0,0:0:0:0:
316,208,249065,2,0,P|303:264|332:322,1,108.000000411987,0|0,1:0|1:0,0:0:0:0:
458,110,249337,2,0,L|465:37,2,54.0000002059937,0|0|0,0:0|1:0|1:0,0:0:0:0:
475,240,249610,5,0,1:0:0:0:
284,67,249747,1,0,1:0:0:0:
263,368,249883,2,0,L|391:379,1,108.000000411987,2|0,1:0|0:0,0:0:0:0:
454,358,250087,5,0,1:0:0:0:
454,358,250156,2,0,P|461:334|457:293,1,54.0000002059937
271,70,250292,2,0,B|247:104|247:104|261:194,1,108.000000411987,2|2,1:3|0:1,0:0:0:0:
295,248,250497,1,0,1:0:0:0:
295,248,250565,1,0,1:0:0:0:
53,94,250701,6,0,L|-22:99,1,54.0000002059937,2|0,1:0|0:0,0:0:0:0:
149,162,250837,2,0,L|294:171,1,108.000000411987,2|2,0:3|1:0,0:0:0:0:
140,10,251110,1,0,0:0:0:0:
140,10,251178,1,0,1:0:0:0:
140,10,251247,6,0,P|125:49|126:82,1,54.0000002059937,2|0,1:0|0:0,0:0:0:0:
325,236,251383,2,0,P|347:193|337:125,1,108.000000411987,2|2,1:3|0:1,0:0:0:0:
303,57,251587,1,0,1:0:0:0:
303,57,251656,1,0,1:0:0:0:
214,307,251792,6,0,L|217:378,1,54.0000002059937,2|0,1:0|0:0,0:0:0:0:
436,212,251928,2,0,L|441:90,1,108.000000411987,2|2,1:3|1:0,0:0:0:0:
361,350,252201,1,0,0:0:0:0:
361,350,252269,1,0,1:0:0:0:
361,350,252337,6,0,B|387:358|387:358|428:347,1,54.0000002059937,2|0,1:0|0:0,0:0:0:0:
440,104,252474,2,0,B|388:88|388:88|307:109,1,108.000000411987,2|2,1:3|0:1,0:0:0:0:
277,165,252678,1,0,0:0:0:0:
277,165,252747,6,0,L|282:243,1,54.0000002059937,2|0,1:0|0:0,0:0:0:0:
63,64,252883,2,0,L|68:-14,1,54.0000002059937,2|0,1:3|0:0,0:0:0:0:
162,244,253019,2,0,L|157:322,1,54.0000002059937,2|0,0:3|0:0,0:0:0:0:
147,43,253156,5,0,1:0:0:0:
147,43,253428,6,0,P|177:34|222:39,1,54.0000002059937,4|0,1:0|0:0,0:0:0:0:
419,80,253565,1,0,1:0:0:0:
344,235,253701,1,0,0:0:0:0:
296,183,253769,1,0,1:0:0:0:
306,113,253837,1,0,1:0:0:0:
503,230,253974,6,0,L|500:302,1,54.0000002059937,2|0,1:2|0:0,0:0:0:0:
233,316,254110,2,0,L|230:244,1,54.0000002059937,2|0,1:2|0:0,0:0:0:0:
422,126,254247,2,0,L|419:198,1,54.0000002059937,2|0,1:2|0:0,0:0:0:0:
406,322,254383,5,0,0:0:0:0:
406,322,254451,1,0,1:0:0:0:
406,322,254519,2,0,P|377:333|331:324,1,54.0000002059937,2|0,1:2|0:0,0:0:0:0:
170,202,254656,2,0,B|211:180|211:180|293:188,1,108.000000411987,2|2,1:2|0:2,0:0:0:0:
318,258,254860,1,0,1:0:0:0:
318,258,254928,1,0,1:0:0:0:
32,302,255065,6,0,L|25:228,1,54.0000002059937,2|0,1:2|0:0,0:0:0:0:
156,44,255201,2,0,L|149:118,1,54.0000002059937,2|0,1:2|0:0,0:0:0:0:
257,354,255337,2,0,L|247:257,1,54.0000002059937,2|0,1:2|0:0,0:0:0:0:
281,159,255474,5,0,0:0:0:0:
281,159,255542,1,0,1:0:0:0:
281,159,255610,2,0,L|334:164,1,54.0000002059937,2|0,1:2|0:0,0:0:0:0:
512,339,255747,2,0,L|401:349,1,108.000000411987,2|2,1:2|0:2,0:0:0:0:
318,342,255951,1,0,1:0:0:0:
318,342,256019,1,0,1:0:0:0:
461,117,256156,6,0,P|470:147|467:187,1,54.0000002059937,2|0,1:2|0:0,0:0:0:0:
197,216,256292,2,0,P|198:189|206:163,1,54.0000002059937,2|0,1:2|0:0,0:0:0:0:
504,273,256428,2,0,L|439:277,3,54.0000002059937,2|2|2|2,1:2|0:0|0:0|0:0,0:0:0:0:
368,306,256701,2,0,L|433:310,1,54.0000002059937,2|0,1:2|0:0,0:0:0:0:
396,41,256837,6,0,L|342:44,1,54.0000002059937,2|0,1:2|0:0,0:0:0:0:
305,222,256974,2,0,L|358:225,1,54.0000002059937,2|0,0:0|1:0,0:0:0:0:
204,0,257110,2,0,L|207:53,1,54.0000002059937,2|0,1:2|0:0,0:0:0:0:
250,293,257247,2,2,P|299:253|259:158,1,162.000000617981,2|0,1:0|0:0,0:1:0:0:
126,141,257519,6,0,P|189:194|293:137,1,180.000006866455,4|0,1:0|0:0,0:0:0:0:
307,76,257792,6,0,B|352:72|352:72|379:82|379:82|441:77,1,120.000004577637,0|8,0:0|1:0,0:0:0:0:
472,352,258065,6,0,P|442:362|394:355,1,60.0000022888184,0|0,1:0|0:0,0:0:0:0:
222,196,258201,2,0,P|276:193|337:244,1,120.000004577637,2|8,0:3|1:0,0:0:0:0:
99,372,258474,5,2,0:3:0:0:
68,335,258542,1,2,0:3:0:0:
65,287,258610,2,0,P|75:252|101:222,1,60.0000022888184,2|0,1:3|0:0,0:0:0:0:
341,307,258747,2,0,L|204:311,1,120.000004577637,2|0,0:3|0:0,0:0:0:0:
221,310,258951,5,0,0:0:0:0:
221,310,259019,1,10,1:3:0:0:
287,62,259156,1,2,1:3:0:0:
380,269,259292,1,2,0:3:0:0:
380,269,259360,1,0,0:0:0:0:
380,269,259428,2,0,L|375:207,1,60.0000022888184,10|0,1:3|0:0,0:0:0:0:
458,13,259565,2,0,L|453:75,1,60.0000022888184,2|0,0:3|0:0,0:0:0:0:
299,221,259701,6,0,P|318:158|441:171,1,180.000006866455,0|0,1:0|0:0,0:0:0:0:
483,248,259974,2,0,L|469:381,1,120.000004577637,0|8,0:0|1:0,0:0:0:0:
193,258,260247,6,0,L|190:176,1,60.0000022888184,0|0,1:0|0:0,0:0:0:0:
404,91,260383,2,0,L|398:254,1,120.000004577637,2|8,0:3|1:0,0:0:0:0:
123,152,260656,5,2,0:3:0:0:
160,122,260724,1,2,0:3:0:0:
207,118,260792,2,0,P|241:133|269:168,1,60.0000022888184,2|0,1:3|0:0,0:0:0:0:
164,378,260928,2,0,P|139:340|154:253,1,120.000004577637,2|0,0:3|0:0,0:0:0:0:
144,268,261133,1,0,0:0:0:0:
144,268,261201,1,10,1:3:0:0:
365,24,261337,6,2,B|375:74|337:108|337:108|391:97|437:127|437:127|370:133|322:189|322:189|409:196|447:296|391:364,1,560,2|0,1:0|0:0,0:1:0:0:
251,240,261883,6,0,P|243:200|243:160,2,80.0000030517579,0|0|0,1:0|0:0|0:0,0:0:0:0:
489,272,262156,2,0,P|489:313|469:383,2,80.0000030517579,0|0|0,1:0|0:0|0:0,0:0:0:0:
163,236,262428,6,0,P|196:303|316:280,1,180.000006866455,2|0,1:0|0:0,0:0:0:0:
331,229,262701,1,8,1:0:0:0:
357,269,262769,1,2,0:0:0:0:
400,282,262837,1,2,0:0:0:0:
447,270,262906,1,2,0:0:0:0:
470,228,262974,6,0,L|462:155,3,60.0000022888184,0|2|2|2,1:0|0:0|0:0|0:0,0:0:0:0:
207,105,263247,2,0,L|199:178,3,60.0000022888184,8|2|2|2,1:0|0:0|0:0|0:0,0:0:0:0:
258,224,263519,5,0,1:0:0:0:
299,201,263587,1,2,0:0:0:0:
347,202,263655,1,2,0:0:0:0:
388,226,263723,1,2,0:0:0:0:
411,267,263791,1,8,1:0:0:0:
411,315,263859,1,2,0:0:0:0:
387,356,263928,1,2,0:0:0:0:
346,379,263996,1,2,0:0:0:0:
298,379,264065,6,0,P|295:341|308:298,3,60.0000022888184,0|2|2|2,1:0|0:0|0:0|0:0,0:0:0:0:
379,154,264337,2,0,P|382:116|369:73,3,60.0000022888184,8|2|2|2,1:0|0:0|0:0|0:0,0:0:0:0:
255,203,264610,2,0,P|225:198|195:201,3,60.0000022888184,0|2|2|2,1:0|0:0|0:0|0:0,0:0:0:0:
420,282,264882,2,0,P|458:285|501:272,3,60.0000022888184,8|2|2|2,1:0|0:0|0:0|0:0,0:0:0:0:
501,197,265156,5,0,1:0:0:0:
499,161,265224,1,2,0:0:0:0:
480,130,265292,1,2,0:0:0:0:
448,112,265360,1,2,0:0:0:0:
412,110,265428,1,8,1:0:0:0:
378,124,265497,1,2,0:0:0:0:
356,152,265565,1,2,0:0:0:0:
353,187,265633,1,2,0:0:0:0:
365,220,265701,5,0,1:0:0:0:
362,255,265769,1,2,0:0:0:0:
342,284,265837,1,2,0:0:0:0:
309,300,265906,1,2,0:0:0:0:
273,301,265974,1,8,1:0:0:0:
240,285,266042,1,2,0:0:0:0:
217,257,266110,1,2,0:0:0:0:
210,221,266178,1,2,0:0:0:0:
221,186,266247,6,0,B|239:150|239:150|226:82,2,80.0000030517579,0|0|0,1:0|0:0|0:0,0:0:0:0:
32,297,266519,2,0,B|14:333|14:333|27:401,2,80.0000030517579,8|0|0,1:0|0:0|0:0,0:0:0:0:
268,342,266792,6,0,B|228:334|204:353|204:353|167:331|167:331|133:355|90:344,1,180.000006866455,2|0,1:0|0:0,0:0:0:0:
115,262,267065,1,8,1:0:0:0:
135,218,267133,1,2,0:0:0:0:
134,170,267201,1,2,0:0:0:0:
110,128,267269,1,2,0:0:0:0:
66,107,267337,5,0,1:0:0:0:
92,132,267406,1,2,0:0:0:0:
125,144,267474,1,2,0:0:0:0:
160,140,267542,1,2,0:0:0:0:
190,121,267610,1,8,1:0:0:0:
209,90,267678,1,2,0:0:0:0:
241,74,267747,2,0,P|278:65|330:82,1,60.0000022888184,2|0,0:3|0:0,0:0:0:0:
358,282,267883,6,0,P|328:283|299:275,3,60.0000022888184,0|2|2|2,1:3|0:0|0:0|0:0,0:0:0:0:
339,200,268156,1,8,1:0:0:0:
382,180,268224,1,2,0:0:0:0:
429,187,268292,2,0,L|442:266,1,60.0000022888184,2|0,0:3|0:0,0:0:0:0:
205,348,268428,6,0,B|180:306|180:306|194:207,1,120.000004577637,4|0,1:2|0:0,0:0:0:0:
56,134,268633,6,0,B|31:176|31:176|45:275,1,120.000004577637,4|0,1:2|0:0,0:0:0:0:
281,128,268837,6,0,B|241:126|241:126|225:114|225:114|161:111,1,120.000004577637,4|0,1:2|0:0,0:0:0:0:
300,302,269042,6,0,B|371:305|371:305|410:277,1,120.000004577637,4|0,1:2|0:0,0:0:0:0:
344,223,269247,5,0,1:0:0:0:
479,331,269519,6,0,P|495:268|448:198,1,120.000004577637,4|0,1:2|0:0,0:0:0:0:
344,223,269724,6,0,P|328:286|375:356,1,120.000004577637,4|0,1:2|0:0,0:0:0:0:
406,148,269928,6,0,L|274:128,1,120.000004577637,4|0,1:2|0:0,0:0:0:0:
132,225,270133,6,0,L|264:205,1,120.000004577637,4|0,1:2|0:0,0:0:0:0:
298,209,270337,1,2,1:2:0:0:
344,223,270406,1,2,0:0:0:0:
379,254,270474,1,2,0:0:0:0:
395,298,270542,1,2,0:0:0:0:
390,345,270610,5,4,1:0:0:0:
68,365,270883,6,0,L|61:273,1,80,0|0,0:0|1:0,0:0:0:0:
153,254,271156,2,0,L|159:333,1,80,8|0,1:2|0:0,0:0:0:0:
250,301,271428,2,0,L|244:222,1,80,0|0,1:0|0:0,0:0:0:0:
487,210,271701,6,0,L|480:289,1,80,0|0,0:0|1:0,0:0:0:0:
389,258,271974,2,0,L|395:178,1,80,8|0,1:2|0:0,0:0:0:0:
304,146,272246,2,0,L|297:225,1,80,8|0,1:2|0:0,0:0:0:0:
205,192,272519,2,0,L|212:113,1,80,8|0,1:2|0:0,0:0:0:0:
400,68,272792,6,0,L|406:147,1,80,0|0,1:0|0:0,0:0:0:0:
223,169,273065,2,0,L|229:89,1,80,0|0,0:0|1:0,0:0:0:0:
386,75,273337,2,0,L|392:161,1,80,8|0,1:0|0:0,0:0:0:0:
236,161,273610,2,0,L|243:71,1,80,0|0,1:0|0:0,0:0:0:0:
319,271,273883,6,0,L|239:277,1,80,0|0,0:0|1:0,0:0:0:0:
82,264,274156,2,0,L|161:257,1,80,8|0,1:0|0:0,0:0:0:0:
318,281,274428,2,0,L|238:280,1,80,8|0,1:0|0:0,0:0:0:0:
82,253,274701,2,0,L|162:254,1,80,8|0,1:0|0:0,0:0:0:0:
276,186,274974,5,0,0:0:0:0:
300,159,275042,1,0,0:0:0:0:
310,125,275110,1,0,0:0:0:0:
305,90,275178,1,0,0:0:0:0:
285,60,275246,1,0,0:0:0:0:
254,43,275314,1,0,0:0:0:0:
218,40,275383,1,0,0:0:0:0:
185,54,275451,1,0,0:0:0:0:
161,80,275519,5,0,0:0:0:0:
194,94,275587,1,0,0:0:0:0:
230,96,275656,1,0,0:0:0:0:
264,86,275724,1,0,0:0:0:0:
292,63,275792,1,0,0:0:0:0:
326,52,275860,1,0,0:0:0:0:
361,54,275928,1,0,0:0:0:0:
394,68,275997,1,0,0:0:0:0:
416,95,276065,6,0,L|413:172,3,60.0000022888184
309,277,276337,2,0,L|306:200,3,60.0000022888184
232,36,276610,2,0,L|229:113,3,60.0000022888184
178,319,276883,2,0,L|175:242,3,60.0000022888184
125,190,277156,5,0,0:0:0:0:
115,155,277224,1,0,0:0:0:0:
119,120,277292,1,0,0:0:0:0:
137,89,277360,1,0,0:0:0:0:
165,67,277428,1,0,0:0:0:0:
200,59,277496,1,0,0:0:0:0:
235,64,277565,1,0,0:0:0:0:
266,83,277633,1,0,0:0:0:0:
286,112,277701,5,0,0:0:0:0:
274,159,277769,1,0,0:0:0:0:
286,205,277837,1,0,0:0:0:0:
324,234,277906,1,0,0:0:0:0:
371,238,277974,1,0,0:0:0:0:
412,214,278042,1,0,0:0:0:0:
428,169,278110,1,0,0:0:0:0:
415,122,278178,1,0,0:0:0:0:
378,89,278247,6,0,P|330:121|315:193,1,120,0|0,1:0|0:0,0:0:0:0:
315,202,278519,2,0,L|323:310,1,80,2|2,0:0|0:0,0:0:0:0:
221,147,278792,2,0,L|229:39,1,80,2|2,0:0|0:0,0:0:0:0:
174,272,279065,2,0,L|182:380,1,80,2|2,0:0|0:0,0:0:0:0:
435,309,279337,5,0,1:0:0:0:
496,151,279474,1,0,1:0:0:0:
372,37,279610,2,0,P|299:34|216:44,1,140.000001335144,10|0,1:0|0:0,0:0:0:0:
156,348,279883,2,0,P|225:354|295:351,1,140.000001335144,2|0,1:0|0:0,0:0:0:0:
30,39,280156,2,0,P|25:147|40:271,1,210.000002002716,10|0,1:0|0:0,0:0:0:0:
164,201,280428,6,0,P|167:131|160:61,1,140.000001335144,0|0,1:0|0:0,0:0:0:0:
10,357,280701,2,0,L|178:370,1,140.000001335144,10|0,1:0|0:0,0:0:0:0:
291,21,280974,2,0,L|151:31,1,140.000001335144,2|0,1:0|0:0,0:0:0:0:
416,384,281247,2,0,P|455:340|442:197,1,210.000002002716,10|0,1:0|0:0,0:0:0:0:
319,154,281519,6,0,L|310:313,1,140.000001335144,0|0,1:0|0:0,0:0:0:0:
55,382,281792,2,0,P|21:338|33:237,1,140.000001335144,10|0,1:0|0:0,0:0:0:0:
318,24,282065,2,0,P|340:88|318:153,1,140.000001335144,2|0,1:0|0:0,0:0:0:0:
0,104,282337,2,0,B|57:63|57:63|196:83,1,210.000002002716,10|0,1:0|0:0,0:0:0:0:
162,233,282610,6,0,P|106:211|83:113,1,140.000001335144,0|0,1:0|0:0,0:0:0:0:
438,61,282883,2,0,L|427:232,1,140.000001335144,10|0,1:0|0:0,0:0:0:0:
93,320,283156,2,0,L|82:149,1,140.000001335144,2|0,1:0|0:0,0:0:0:0:
493,282,283428,2,0,B|426:301|426:301|335:266,1,140.000001335144,10|0,1:0|0:0,0:0:0:0:
224,100,283701,5,0,1:0:0:0:
224,100,283769,1,0,1:0:0:0:
438,61,283906,1,0,1:0:0:0:
438,61,283974,6,0,L|430:202,1,140.000001335144,10|0,1:0|0:0,0:0:0:0:
48,251,284247,2,0,L|44:108,1,140.000001335144,2|0,1:0|0:0,0:0:0:0:
473,332,284519,2,0,B|328:351|328:351|227:316,1,210.000002002716,10|0,1:0|0:0,0:0:0:0:
239,194,284792,6,0,P|299:209|333:300,1,140.000001335144,0|0,1:0|0:0,0:0:0:0:
33,371,285065,2,0,B|4:308|4:308|31:226,1,140.000001335144,10|0,1:0|0:0,0:0:0:0:
422,217,285337,2,0,B|444:284|444:284|415:347,1,140.000001335144,2|0,1:0|0:0,0:0:0:0:
47,82,285610,2,0,L|130:70,3,70.000000667572,8|0|0|0,1:0|0:0|0:0|0:0,0:0:0:0:
194,104,285883,5,0,1:0:0:0:
228,128,285951,1,0,0:0:0:0:
245,166,286019,1,0,0:0:0:0:
250,207,286087,1,0,0:0:0:0:
238,247,286156,1,8,1:0:0:0:
204,221,286224,1,0,0:0:0:0:
162,214,286292,1,0,0:0:0:0:
120,222,286360,1,0,0:0:0:0:
86,246,286428,5,0,1:0:0:0:
141,256,286497,1,0,0:0:0:0:
193,238,286565,1,0,0:0:0:0:
223,191,286633,1,0,0:0:0:0:
219,135,286701,1,8,1:0:0:0:
244,85,286769,1,0,0:0:0:0:
296,65,286837,1,0,0:0:0:0:
351,74,286906,1,0,0:0:0:0:
392,111,286974,6,0,L|399:177,3,60.0000022888184,0|0|0|0,1:0|0:0|0:0|0:0,0:0:0:0:
267,312,287247,2,0,L|273:252,3,60.0000022888184,8|0|0|0,1:0|0:0|0:0|0:0,0:0:0:0:
258,169,287519,6,0,P|233:150|182:143,1,60.0000022888184,0|0,1:0|0:0,0:0:0:0:
113,301,287656,2,0,P|142:305|171:298,1,60.0000022888184
170,71,287792,2,0,P|145:90|125:137,1,60.0000022888184,8|0,1:0|0:0,0:0:0:0:
241,345,287928,2,0,P|252:317|253:287,1,60.0000022888184
51,161,288065,6,0,B|47:183|28:198|28:198|70:183|129:208,1,120,0|0,1:0|0:0,0:0:0:0:
194,265,288337,6,0,P|123:297|59:279,1,140.000001335144,6|0,1:0|0:0,0:0:0:0:
372,50,288610,2,0,P|433:18|500:32,1,140.000001335144,2|0,1:0|0:0,0:0:0:0:
255,354,288883,2,0,P|203:292|240:136,1,210.000002002716,10|0,1:0|0:0,0:0:0:0:
290,83,289156,6,0,L|445:98,1,140.000001335144,0|0,1:0|0:0,0:0:0:0:
78,329,289428,2,0,B|55:262|55:262|77:175,1,140.000001335144,10|0,1:0|0:0,0:0:0:0:
471,215,289701,2,0,B|487:282|487:282|464:349,1,140.000001335144,2|0,1:0|0:0,0:0:0:0:
23,129,289974,2,0,P|74:114|137:246,1,210.000002002716,10|0,1:0|0:0,0:0:0:0:
97,321,290247,6,0,B|162:329|162:329|200:311|200:311|240:321,1,120,0|0,1:0|0:0,0:0:0:0:
319,342,290519,6,0,B|355:295|355:295|342:186,1,140.000001335144,6|0,1:0|0:0,0:0:0:0:
56,28,290792,2,0,B|20:75|20:75|33:184,1,140.000001335144,2|0,1:0|0:0,0:0:0:0:
412,135,291065,2,0,B|328:127|328:127|282:151|282:151|198:144,1,210.000002002716,10|0,1:0|0:0,0:0:0:0:
139,122,291337,38,0,L|278:133,1,140.000001335144,4|0,1:2|0:0,0:0:0:0:
360,223,291519,2,0,L|220:234,1,140.000001335144,4|0,1:2|0:0,0:0:0:0:
139,324,291701,2,0,L|278:335,1,140.000001335144,4|0,1:2|0:0,0:0:0:0:
363,343,291883,6,0,P|396:315|408:275,2,70.000000667572,4|8|8,1:2|1:2|1:2,0:0:0:0:
169,242,292156,1,0,1:0:0:0:
463,200,292292,1,8,1:2:0:0:
107,140,292428,6,0,P|90:79|222:32,1,200,4|0,1:0|0:0,0:0:0:0:
267,262,292837,1,0,1:0:0:0:
143,294,292974,2,0,L|19:281,1,100,8|0,0:1|0:0,0:0:0:0:
313,185,293247,2,0,L|412:195,1,100,0|0,1:0|0:0,0:0:0:0:
412,195,293451,1,0,0:0:0:0:
412,195,293519,1,0,1:0:0:0:
273,367,293656,6,0,P|246:323|257:252,1,100,2|2,0:0|0:0,0:0:0:0:
320,34,293928,1,0,1:0:0:0:
404,152,294065,2,0,L|397:318,1,150,8|0,0:1|0:0,0:0:0:0:
323,251,294337,1,0,0:0:0:0:
294,241,294406,1,0,0:0:0:0:
264,242,294474,1,0,0:0:0:0:
236,254,294542,1,0,0:0:0:0:
216,277,294610,6,0,P|184:336|60:322,1,200,0|0,1:0|0:0,0:0:0:0:
54,77,295019,1,0,1:0:0:0:
137,165,295156,2,0,L|127:274,1,100,8|0,0:1|0:0,0:0:0:0:
333,205,295428,2,0,L|323:96,1,100,0|0,1:0|0:0,0:0:0:0:
323,105,295633,1,0,0:0:0:0:
323,105,295701,1,0,1:0:0:0:
484,265,295837,6,0,L|479:347,1,50,2|0,0:0|0:0,0:0:0:0:
395,281,295974,1,2,0:0:0:0:
413,91,296110,2,0,L|408:9,2,50,0|0|8,1:0|0:0|0:1,0:0:0:0:
310,200,296383,1,0,0:0:0:0:
279,174,296451,1,0,0:0:0:0:
241,161,296519,1,0,1:0:0:0:
201,159,296587,1,0,0:0:0:0:
161,168,296656,1,0,0:0:0:0:
128,191,296724,1,0,0:0:0:0:
108,225,296792,6,0,P|194:197|188:50,1,240.000009155274,4|0,1:0|0:0,0:0:0:0:
15,219,297201,6,0,B|55:309|55:309|229:301,1,240.000009155274,4|0,1:2|0:0,0:0:0:0:
371,187,297610,6,0,B|390:149|377:107|377:107|325:71|259:78|220:139,1,240.000009155274,4|0,1:2|0:0,0:0:0:0:
291,365,298019,6,0,B|450:350|450:350|413:262,1,240.000009155274,4|0,1:2|0:0,0:0:0:0:
168,167,298428,6,0,L|163:354,1,180.000006866455,4|0,1:2|0:0,0:0:0:0:
184,376,298701,2,0,L|188:196,1,180.000006866455,4|0,1:2|0:0,0:0:0:0:
201,89,298974,6,0,P|251:46|399:120,1,240.000009155274,4|0,1:2|0:0,0:0:0:0:
380,312,299383,6,0,P|330:355|182:281,1,240.000009155274,4|0,1:2|0:0,0:0:0:0:
476,105,299792,6,0,B|453:261|453:261|354:199,1,240.000009155274,4|0,1:2|0:0,0:0:0:0:
206,53,300201,6,0,B|275:9|275:9|298:165,1,240.000009155274,4|0,1:2|0:0,0:0:0:0:
111,250,300610,6,0,B|141:256|162:274|162:274|197:265|215:235|215:235|241:277|294:294|364:281|373:235|373:235|313:251,1,350,4|0,1:2|0:0,0:0:0:0:
461,299,301156,6,0,B|467:128|467:128|385:150,1,240.000009155274,4|0,1:2|0:0,0:0:0:0:
214,236,301565,6,0,P|106:186|124:41,1,240.000009155274,4|0,1:2|0:0,0:0:0:0:
308,16,301974,6,0,B|338:62|337:129|299:180|299:180|249:180|217:133,1,240.000009155274,4|0,1:2|0:0,0:0:0:0:
487,7,302383,6,0,L|476:286,1,240.000009155274,4|0,1:2|0:0,0:0:0:0:
266,374,302792,6,0,L|259:157,1,180.000006866455,4|0,1:2|0:0,0:0:0:0:
232,170,303065,2,0,L|237:349,1,180.000006866455,4|0,1:2|0:0,0:0:0:0:
144,384,303337,6,0,P|68:338|100:170,1,240.000009155274,4|0,1:2|0:0,0:0:0:0:
308,119,303747,6,0,B|333:211|294:304|294:304|273:290|263:262,1,240.000009155274,4|0,1:2|0:0,0:0:0:0:
53,73,304156,6,0,B|186:22|186:22|299:42,1,240.000009155274,4|0,1:2|0:0,0:0:0:0:
407,209,304565,6,0,B|274:260|274:260|177:242,1,240.000009155274,4|0,1:2|0:0,0:0:0:0:
463,140,304974,6,0,P|491:180|468:276,1,120.000004577637,4|0,1:2|0:0,0:0:0:0:
383,314,305178,6,0,B|351:314|329:290|329:290|301:327|314:376,1,143.999995605469,2|2,0:3|0:3,0:0:0:0:
83,266,305519,6,0,L|14:278,4,60.0000022888184,4|0|0|0|8,0:2|0:0|0:0|0:0|0:2,0:0:0:0:
340,122,305928,2,0,L|399:111,4,60.0000022888184,4|0|0|0|0,0:2|0:0|0:0|0:0|0:0,0:0:0:0:
64,179,306337,2,0,L|1:149,4,60.0000022888184,4|0|0|0|0,0:2|0:0|0:0|0:0|0:0,0:0:0:0:
358,208,306746,2,0,L|412:234,4,60.0000022888184,4|0|0|0|0,0:2|0:0|0:0|0:0|0:0,0:0:0:0:
203,134,307156,6,0,P|196:91|209:51,3,60.0000022888184,4|0|0|0,0:2|0:0|0:0|0:0,0:0:0:0:
243,248,307428,2,0,P|250:291|237:331,3,60.0000022888184,4|0|0|0,0:2|0:0|0:0|0:0,0:0:0:0:
299,101,307701,6,0,P|324:65|361:46,4,60.0000022888184,4|0|0|0|8,0:2|0:0|0:0|0:0|0:2,0:0:0:0:
157,252,308110,2,0,P|131:287|94:306,4,60.0000022888184,4|0|0|0|0,0:2|0:0|0:0|0:0|0:0,0:0:0:0:
330,191,308519,2,0,P|374:191|411:211,4,60.0000022888184,4|0|0|0|0,0:2|0:0|0:0|0:0|0:0,0:0:0:0:
125,161,308928,2,0,P|81:161|44:141,4,60.0000022888184,4|0|0|0|0,0:2|0:0|0:0|0:0|0:0,0:0:0:0:
253,58,309337,6,0,B|286:57|304:40|304:40|334:45|349:67|349:67|378:67|397:51|397:51|454:52|481:106|466:160,1,287.999991210938,4|0,0:2|2:0,0:0:0:0:
419,336,309883,6,0,L|344:342,5,60.0000022888184,4|0|0|0|0|0,0:2|0:0|0:0|0:0|0:0|0:0,0:0:0:0:
318,152,310292,2,0,L|378:157,5,60.0000022888184,4|0|0|0|0|0,0:2|0:0|0:0|0:0|0:0|0:0,0:0:0:0:
273,357,310701,2,0,L|198:363,5,60.0000022888184,4|0|0|0|0|0,0:2|0:0|0:0|0:0|0:0|0:0,0:0:0:0:
172,173,311110,2,0,L|231:177,5,60.0000022888184,4|0|0|0|0|0,0:2|0:0|0:0|0:0|0:0|0:0,0:0:0:0:
80,248,311519,5,4,0:2:0:0:
59,205,311587,1,0,0:0:0:0:
57,157,311655,1,0,0:0:0:0:
74,113,311723,1,0,0:0:0:0:
109,79,311791,1,4,0:2:0:0:
153,63,311859,1,0,0:0:0:0:
201,66,311928,1,0,0:0:0:0:
243,87,311996,1,0,0:0:0:0:
270,128,312065,6,0,P|271:199|441:211,1,280,0|0,1:0|0:0,0:0:0:0:
424,35,313156,6,0,L|418:-5,2,30.0000011444092
306,36,313428,2,0,L|311:66,2,30.0000011444092
198,97,313701,2,0,L|192:57,2,30.0000011444092
80,98,313974,2,0,L|85:128,2,30.0000011444092,8|0|0,1:0|0:0|0:0,0:0:0:0:
159,192,314247,6,0,B|152:313|152:313|75:283,1,200,4|0,1:0|2:0,0:0:0:0:
243,177,315065,6,0,L|234:328,1,140,0|0,1:0|2:0,0:0:0:0:
235,316,315610,1,0,0:0:0:0:
384,169,316428,6,0,B|377:48|377:48|300:78,1,200,0|0,1:0|2:0,0:0:0:0:
468,184,317246,6,0,L|459:32,1,140,0|0,1:0|2:0,0:0:0:0:
460,44,317791,1,0,0:0:0:0:
63,189,318610,6,0,P|125:245|244:215,1,200,0|0,0:0|2:0,0:0:0:0:
194,26,319428,6,0,B|152:60|152:60|161:159,1,140,0|0,0:0|2:0,0:0:0:0:
159,145,319974,1,0,0:0:0:0:
449,195,320792,6,0,P|387:139|268:169,1,200,0|0,0:0|2:0,0:0:0:0:
318,358,321610,6,0,B|360:324|360:324|351:225,1,140,0|0,0:0|2:0,0:0:0:0:
353,239,322156,1,0,0:0:0:0:
256,192,322974,5,0,1:0:0:0:
