osu file format v14

[General]
AudioFilename: audio.mp3
AudioLeadIn: 0
PreviewTime: 185999
Countdown: 0
SampleSet: Soft
StackLeniency: 0.7
Mode: 2
LetterboxInBreaks: 0
WidescreenStoryboard: 1

[Editor]
Bookmarks: 10760,27456,44152,60847,66195,66325,66586,66717,67108,67499,67630,67891,68282,68412,70369,70499,70760,70956,71152,71282,72065,72456,72586,72847,73043,73239,85891,90847,91239,91369,91499,91630,91760,92021,92152,92543,92673,92934,93065,93195,93325,93456,93586,93717,107804,119282,135978,152673,169369,186065,202760,219456,236152,236934,237065,237195,237586,237847,237978,238239,238499,238630,238891,239021,239282,239412,239673,239804,239934,240065,240325,241369,241630,241760,242021,242152,242412,242673,242804,243065,243195,243456,243586,243847,243978,253891,269543,286239,302934,322760
DistanceSpacing: 1.3
BeatDivisor: 16
GridSize: 16
TimelineZoom: 5.399995

[Metadata]
Title:GHOST (2020 Halloween+++++++++ VIP)
TitleUnicode:GHOST (2020 Halloween+++++++++ VIP)
Artist:Camellia
ArtistUnicode:かめりあ
Creator:Spectator
Version:SPECTER
Source:
Tags:electronic instrumental ioexception deadcode cyphisonia ep e.p. hybrid trap hardcore pumpcore dubstep edm featured artist fa halloween cametek kamelcamellia spektre
BeatmapID:2726074
BeatmapSetID:1301991

[Difficulty]
HPDrainRate:4
CircleSize:4.1
OverallDifficulty:9.9
ApproachRate:9.9
SliderMultiplier:2
SliderTickRate:2

[Events]
//Background and Video events
0,0,"ghost.jpg",0,0
//Break Periods
2,127830,135513
//Storyboard Layer 0 (Background)
//Storyboard Layer 1 (Fail)
//Storyboard Layer 2 (Pass)
//Storyboard Layer 3 (Foreground)
//Storyboard Layer 4 (Overlay)
//Storyboard Sound Samples

[TimingPoints]
326,260.869565217391,4,2,3,75,1,0
10760,-100,4,2,3,75,0,0
19108,-100,4,2,3,80,0,0
26412,-100,4,2,2,85,0,0
27456,-100,4,2,2,85,0,0
43108,-100,4,2,2,85,0,0
43369,-100,4,2,2,60,0,0
43630,-100,4,2,2,65,0,0
43891,-100,4,2,2,70,0,0
44152,-100,4,2,2,75,0,0
48325,-100,4,2,2,78,0,0
50412,-100,4,2,2,80,0,0
52499,-100,4,2,2,70,0,0
56673,-100,4,2,2,80,0,0
58760,-100,4,2,2,65,0,0
59282,-100,4,2,2,70,0,0
59543,-100,4,2,2,75,0,0
60065,-100,4,2,2,80,0,0
60586,-100,4,2,2,70,0,0
60847,-33.3333333333333,4,2,2,80,0,0
61369,-86.9565217391304,4,2,2,90,0,0
61630,-86.9565217391304,4,2,1,90,0,1
61695,-86.9565217391304,4,2,1,90,0,0
65021,-33.3333333333333,4,2,1,90,0,0
65543,-86.9565217391304,4,2,1,90,0,0
69195,-33.3333333333333,4,2,1,90,0,0
69717,-86.9565217391304,4,2,1,90,0,0
71412,-38.4615384615385,4,2,1,90,0,0
71934,-38.4615384615385,4,2,1,90,0,0
72847,-90.9090909090909,4,2,1,90,0,0
77543,-95.2380952380952,4,2,2,90,0,0
83804,-95.2380952380952,4,2,2,65,0,0
84325,-95.2380952380952,4,2,2,75,0,0
84847,-95.2380952380952,4,2,2,80,0,0
85369,-95.2380952380952,4,2,2,85,0,0
86673,-90.9090909090909,4,2,2,90,0,0
112239,-90.9090909090909,4,2,2,90,0,0
112499,-90.9090909090909,4,2,2,90,0,0
113021,-90.9090909090909,4,2,2,90,0,0
113282,-90.9090909090909,4,2,2,90,0,0
114065,-90.9090909090909,4,2,2,90,0,0
119054,-90.9090909090909,4,2,2,20,0,0
119282,-90.9090909090909,4,2,2,95,0,1
119347,-90.9090909090909,4,2,2,95,0,0
119412,-90.9090909090909,4,2,2,45,0,0
121369,-90.9090909090909,4,2,2,40,0,0
123456,-90.9090909090909,4,2,2,35,0,0
135978,-105.263157894737,4,2,2,65,0,0
151239,-105.263157894737,4,2,2,35,0,0
151891,-105.263157894737,4,2,2,40,0,0
152673,-100,4,2,2,75,0,0
168325,-100,4,2,2,80,0,0
169369,-100,4,2,2,85,0,0
173543,-100,4,2,2,90,0,0
181891,-86.9565217391304,4,2,2,90,0,0
186065,-83.3333333333333,4,2,1,90,0,1
202760,-83.3333333333333,4,2,1,90,0,0
217434,-83.3333333333333,4,2,2,90,0,0
217499,-83.3333333333333,4,2,2,50,0,0
217891,-83.3333333333333,4,2,2,55,0,0
218412,-83.3333333333333,4,2,2,70,0,0
218934,-83.3333333333333,4,2,2,75,0,0
219456,-83.3333333333333,4,2,1,80,0,0
219586,-83.3333333333333,4,2,1,90,0,0
219717,-83.3333333333333,4,2,1,90,0,1
219782,-83.3333333333333,4,2,1,90,0,0
227282,-33.3333333333333,4,2,1,90,0,0
234195,-33.3333333333333,4,2,1,60,0,0
235108,-33.3333333333333,4,2,2,70,0,0
236152,-86.9565217391304,4,2,2,90,0,0
236934,-83.3333333333333,4,2,2,90,0,1
236999,-83.3333333333333,4,2,2,90,0,0
261195,-100,4,2,2,75,0,0
265369,-100,4,2,2,80,0,0
267456,-100,4,2,2,85,0,0
267978,-90.9090909090909,4,2,2,85,0,0
268499,-100,4,2,2,90,0,0
268630,-100,4,2,2,70,0,0
269543,-83.3333333333333,4,2,1,90,0,1
286239,-83.3333333333333,4,2,1,90,0,0
286304,-83.3333333333333,4,2,2,90,0,0
286499,-83.3333333333333,4,2,2,90,0,1
286565,-83.3333333333333,4,2,2,90,0,0
294065,-33.3333333333333,4,2,2,90,0,0
294586,-83.3333333333333,4,2,2,90,0,0
300847,-83.3333333333333,4,2,2,65,0,0
301369,-83.3333333333333,4,2,2,70,0,0
301891,-83.3333333333333,4,2,2,75,0,0
302152,-83.3333333333333,4,2,2,80,0,0
302412,-83.3333333333333,4,2,2,90,0,0
302934,-100,4,2,2,90,0,1
302999,-100,4,2,2,90,0,0
303456,-105.263157894737,4,2,2,45,0,0
307108,-105.263157894737,4,2,2,35,0,0
311412,-105.263157894737,4,2,2,20,0,0
311804,-105.263157894737,4,2,2,19,0,0
312325,-105.263157894737,4,2,2,18,0,0
312847,-105.263157894737,4,2,2,17,0,0
313369,-105.263157894737,4,2,2,17,0,0
313891,-105.263157894737,4,2,2,16,0,0
314412,-105.263157894737,4,2,2,16,0,0
314934,-105.263157894737,4,2,2,15,0,0
315456,-105.263157894737,4,2,2,15,0,0
315978,-105.263157894737,4,2,2,14,0,0
316499,-105.263157894737,4,2,2,14,0,0
317021,-105.263157894737,4,2,2,13,0,0
317543,-105.263157894737,4,2,2,12,0,0
318586,-105.263157894737,4,2,2,11,0,0
319630,-105.263157894737,4,2,2,10,0,0
320673,-105.263157894737,4,2,2,9,0,0
321717,-105.263157894737,4,2,2,8,0,0
322760,-105.263157894737,4,2,2,7,0,0

[Colours]
Combo1 : 163,96,176
Combo2 : 202,117,81
Combo3 : 191,83,83

[HitObjects]
52,181,10760,5,0,3:0:0:0:
217,176,11283,1,8,0:0:0:0:
52,181,11543,1,0,3:0:0:0:
52,181,12325,1,8,0:0:0:0:
460,181,12847,5,0,3:0:0:0:
295,176,13370,1,8,0:0:0:0:
460,181,13630,1,0,3:0:0:0:
460,181,14412,1,8,0:0:0:0:
52,181,14934,5,0,3:0:0:0:
291,173,15457,1,0,0:0:0:0:
126,178,15717,1,0,3:0:0:0:
126,178,16499,1,8,0:0:0:0:
460,181,17021,5,0,3:0:0:0:
221,173,17544,1,0,0:0:0:0:
386,178,17804,1,0,3:0:0:0:
386,178,18586,1,8,0:0:0:0:
52,181,19108,5,0,3:0:0:0:
319,171,19631,1,0,0:0:0:0:
154,176,19891,1,0,3:0:0:0:
154,176,20673,1,8,0:0:0:0:
460,181,21195,5,0,3:0:0:0:
193,171,21718,1,0,0:0:0:0:
358,176,21978,1,0,3:0:0:0:
358,176,22760,1,8,0:0:0:0:
52,181,23282,5,0,3:0:0:0:
378,180,23805,1,0,0:0:0:0:
209,182,24065,1,0,3:0:0:0:
209,182,24847,1,8,0:0:0:0:
460,181,25369,5,0,3:0:0:0:
116,181,25892,1,0,0:0:0:0:
291,182,26152,1,0,3:0:0:0:
116,148,26412,6,0,L|194:148,1,50,0|0,3:2|3:2,0:0:0:0:
314,239,26543,2,0,L|441:239,1,100,2|0,3:0|0:0,0:0:0:0:
277,342,26804,2,0,L|199:342,1,50,0|0,3:2|0:0,0:0:0:0:
462,173,26934,2,0,L|463:303,1,100,2|0,3:3|3:2,0:0:0:0:
332,307,27195,2,0,L|470:308,1,100,2|0,3:3|0:0,0:0:0:0:
132,83,27456,6,0,L|118:205,1,100,0|0,1:0|0:0,0:0:0:0:
262,162,27717,2,0,L|276:284,1,100,2|0,0:0|3:0,0:0:0:0:
31,261,27978,2,0,L|45:383,1,100,8|0,0:0|0:0,0:0:0:0:
168,291,28239,1,2,1:2:0:0:
31,261,28369,2,0,L|41:351,1,50
222,149,28499,6,0,L|236:271,1,100,2|0,0:0|1:0,0:0:0:0:
360,216,28760,1,0,1:0:0:0:
222,149,28891,2,0,L|232:239,1,50
418,136,29021,1,8,0:0:0:0:
163,43,29152,2,0,L|177:165,1,100,0|0,1:0|0:0,0:0:0:0:
303,129,29412,1,2,0:0:0:0:
116,87,29543,6,0,L|102:209,1,100,0|0,1:0|0:0,0:0:0:0:
246,166,29804,2,0,L|260:288,1,100,2|0,0:0|3:0,0:0:0:0:
15,265,30065,2,0,L|29:387,1,100,8|0,0:0|0:0,0:0:0:0:
310,284,30325,1,2,1:2:0:0:
173,254,30455,2,0,L|183:344,1,50
364,142,30586,6,0,L|378:264,1,100,2|0,0:0|0:0,0:0:0:0:
249,246,30847,1,0,1:0:0:0:
364,142,30978,2,0,L|374:232,1,50
163,190,31108,2,0,L|177:312,1,100,8|0,0:0|1:0,0:0:0:0:
314,269,31369,2,0,L|328:391,1,100,0|2,0:0|0:0,0:0:0:0:
57,66,31630,6,0,L|43:188,1,100,0|0,1:0|0:0,0:0:0:0:
186,141,31891,2,0,L|200:263,1,100,2|0,0:0|3:0,0:0:0:0:
406,71,32152,2,0,L|420:193,1,100,8|0,0:0|0:0,0:0:0:0:
269,101,32412,1,2,1:2:0:0:
406,71,32542,2,0,L|416:160,1,50
244,197,32673,6,0,L|230:319,1,100,2|0,0:0|1:0,0:0:0:0:
107,297,32934,1,0,1:0:0:0:
244,197,33065,2,0,L|252:263,1,50
404,229,33195,2,0,L|418:351,1,100,8|0,0:0|1:0,0:0:0:0:
280,354,33456,2,0,L|407:353,1,100,0|2,0:0|0:0,0:0:0:0:
37,278,33717,6,0,L|164:277,1,100,0|0,1:0|0:0,0:0:0:0:
260,203,33978,2,0,L|133:202,1,100,2|0,0:0|3:0,0:0:0:0:
412,146,34239,2,0,L|413:276,1,100,8|0,0:0|0:0,0:0:0:0:
282,280,34500,2,0,L|420:281,1,100,2|2,1:2|0:0,0:0:0:0:
251,358,34760,5,2,0:0:0:0:
474,242,34891,2,0,L|473:174,1,50,2|2,1:2|0:0,0:0:0:0:
298,104,35021,2,0,L|410:105,1,100,2|2,1:2|0:0,0:0:0:0:
205,276,35282,2,0,L|205:141,1,100,8|2,0:0|1:2,0:0:0:0:
271,159,35478,1,2,0:0:0:0:
478,70,35543,2,0,L|379:71,1,100,2|2,0:0|0:0,0:0:0:0:
132,83,35804,6,0,L|118:205,1,100,0|0,1:0|0:0,0:0:0:0:
262,162,36065,2,0,L|276:284,1,100,2|0,0:0|3:0,0:0:0:0:
31,261,36326,2,0,L|45:383,1,100,8|0,0:0|0:0,0:0:0:0:
168,291,36587,1,2,1:2:0:0:
31,261,36717,2,0,L|41:351,1,50
241,173,36847,6,0,L|227:295,1,100,2|0,0:0|1:0,0:0:0:0:
103,240,37108,1,0,1:0:0:0:
241,173,37239,2,0,L|251:263,1,50
73,165,37369,1,8,0:0:0:0:
325,252,37500,2,0,L|339:374,1,100,0|0,1:0|0:0,0:0:0:0:
202,353,37760,1,2,0:0:0:0:
449,81,37891,6,0,L|463:203,1,100,0|0,1:0|0:0,0:0:0:0:
319,159,38152,2,0,L|305:281,1,100,2|0,0:0|3:0,0:0:0:0:
80,157,38412,2,0,L|66:279,1,100,8|0,0:0|0:0,0:0:0:0:
217,187,38673,1,2,1:2:0:0:
80,157,38803,2,0,L|90:247,1,50
282,134,38934,6,0,L|296:256,1,100,2|0,0:0|1:0,0:0:0:0:
167,238,39196,1,0,1:0:0:0:
282,134,39325,2,0,L|292:224,1,50
81,182,39457,2,0,L|95:304,1,100,8|0,0:0|1:0,0:0:0:0:
232,261,39718,2,0,L|246:383,1,100,0|2,0:0|0:0,0:0:0:0:
460,118,39978,6,0,L|474:240,1,100,0|0,1:0|0:0,0:0:0:0:
331,239,40239,2,0,L|317:361,1,100,2|0,0:0|3:0,0:0:0:0:
76,110,40499,2,0,L|62:232,1,100,8|0,0:0|0:0,0:0:0:0:
191,214,40760,1,2,1:2:0:0:
76,110,40891,2,0,L|66:200,1,50
276,158,41021,6,0,L|289:281,1,100,2|0,0:0|1:0,0:0:0:0:
146,237,41282,1,0,0:0:0:0:
286,257,41412,2,0,L|296:347,1,50
84,268,41543,1,8,0:0:0:0:
353,336,41673,2,0,L|363:223,1,100,0|0,1:0|0:0,0:0:0:0:
238,188,41934,1,2,0:0:0:0:
38,350,42065,5,0,1:0:0:0:
158,344,42195,1,0,0:0:0:0:
244,305,42325,1,2,0:0:0:0:
286,191,42456,1,0,0:0:0:0:
286,191,42586,1,2,0:0:0:0:
244,77,42717,1,0,0:0:0:0:
158,38,42847,1,2,0:0:0:0:
38,32,42977,1,0,0:0:0:0:
313,120,43108,5,2,3:2:0:0:
188,120,43239,1,2,3:2:0:0:
313,120,43369,1,2,3:2:0:0:
80,238,43499,1,2,3:2:0:0:
316,213,43629,1,2,3:2:0:0:
191,213,43760,1,2,3:2:0:0:
402,315,43891,1,2,3:2:0:0:
192,310,44022,1,2,3:2:0:0:
431,238,44152,6,0,L|498:237,1,50,4|2,1:0|0:0,0:0:0:0:
315,180,44282,2,0,L|308:56,1,100,2|0,0:0|0:0,0:0:0:0:
440,81,44543,1,2,3:2:0:0:
210,363,44673,2,0,L|203:239,1,100,2|0,3:2|0:0,0:0:0:0:
346,261,44934,2,0,L|352:164,3,50,2|2|2|2,3:2|0:0|0:0|0:0,0:0:0:0:
84,307,45195,6,0,L|77:183,1,100,2|2,0:0|3:2,0:0:0:0:
214,177,45456,2,0,L|93:169,1,100,2|0,3:2|0:0,0:0:0:0:
383,93,45717,2,0,L|504:85,1,100,2|2,3:2|0:0,0:0:0:0:
347,174,45978,2,0,L|340:50,1,100,2|2,0:0|0:0,0:0:0:0:
94,316,46239,2,0,L|90:266,3,50,2|2|2|2,3:2|0:0|0:0|0:0,0:0:0:0:
241,224,46499,2,0,L|234:100,1,100,2|2,0:0|3:2,0:0:0:0:
377,134,46760,2,0,L|370:10,1,100,2|2,3:2|0:0,0:0:0:0:
226,124,47021,2,0,L|220:27,3,50,2|2|2|2,3:2|0:0|0:0|0:0,0:0:0:0:
383,93,47282,6,0,L|504:85,1,100,2|2,0:0|3:2,0:0:0:0:
352,190,47543,2,0,L|231:182,1,100,2|2,3:2|0:0,0:0:0:0:
39,314,47804,2,0,L|139:321,1,100,2|2,3:2|0:0,0:0:0:0:
280,286,48065,1,2,0:0:0:0:
139,321,48195,1,2,0:0:0:0:
388,192,48325,6,0,L|392:242,2,50,2|0|2,3:2|0:0|0:0,0:0:0:0:
253,231,48586,1,2,0:0:0:0:
389,158,48717,1,2,0:0:0:0:
255,231,48847,2,0,L|248:107,1,100,0|2,0:0|3:2,0:0:0:0:
116,237,49108,2,0,L|112:187,3,50,2|2|2|2,3:2|0:0|0:0|0:0,0:0:0:0:
280,287,49369,6,0,L|285:187,1,100,2|2,0:2|3:2,0:0:0:0:
54,110,49630,2,0,L|154:117,1,100,2|2,3:2|0:0,0:0:0:0:
18,187,49891,2,0,L|12:286,1,100,2|2,3:2|0:0,0:0:0:0:
250,250,50152,2,0,L|255:349,1,100,2|2,0:2|0:0,0:0:0:0:
461,215,50412,6,0,L|464:165,3,50,2|2|2|2,3:2|0:0|0:0|0:0,0:0:0:0:
268,197,50673,2,0,L|262:97,1,100,2|2,0:2|3:2,0:0:0:0:
398,181,50934,2,0,L|403:81,1,100,2|2,3:2|0:0,0:0:0:0:
113,213,51195,2,0,L|109:163,3,50,2|2|2|2,3:2|0:0|0:0|0:0,0:0:0:0:
268,277,51456,6,0,L|368:284,1,100,2|2,0:2|3:2,0:0:0:0:
87,162,51717,2,0,L|187:169,1,100,2|2,3:2|0:0,0:0:0:0:
323,81,51978,2,0,L|223:88,1,100,2|2,3:2|0:0,0:0:0:0:
414,201,52239,2,0,L|419:300,1,100,2|0,0:2|0:0,0:0:0:0:
207,359,52499,6,0,L|217:219,1,100,8|2,1:2|0:0,0:0:0:0:
285,241,52695,1,0,0:0:0:0:
97,235,52760,2,0,P|47:219|37:156,1,100,8|2,1:2|0:0,0:0:0:0:
103,151,52956,1,0,0:0:0:0:
305,359,53021,2,0,L|295:219,1,100,8|2,1:2|0:0,0:0:0:0:
227,241,53217,1,0,0:0:0:0:
415,235,53282,2,0,P|465:219|475:156,1,100,8|2,1:2|0:0,0:0:0:0:
409,151,53478,1,0,0:0:0:0:
255,333,53543,6,0,L|147:315,1,100,8|2,1:2|0:0,0:0:0:0:
226,285,53739,1,0,0:0:0:0:
50,53,53804,2,0,L|42:152,1,100,8|2,1:2|0:0,0:0:0:0:
114,147,54000,1,0,0:0:0:0:
257,333,54065,2,0,L|365:315,1,100,8|2,1:2|0:0,0:0:0:0:
286,285,54261,1,0,0:0:0:0:
462,53,54326,2,0,L|470:152,1,100,8|2,1:2|0:0,0:0:0:0:
398,147,54522,1,0,0:0:0:0:
219,139,54586,6,0,L|115:123,1,100,8|2,1:2|0:0,0:0:0:0:
191,96,54782,1,0,0:0:0:0:
361,88,54847,2,0,P|406:106|422:186,1,100,8|2,1:2|0:0,0:0:0:0:
356,156,55043,1,0,0:0:0:0:
167,305,55108,2,0,L|63:289,1,100,8|2,1:2|0:0,0:0:0:0:
139,262,55304,1,0,0:0:0:0:
309,254,55369,2,0,P|354:272|370:352,1,100,8|2,1:2|0:0,0:0:0:0:
304,322,55565,1,0,0:0:0:0:
136,247,55630,6,0,L|126:122,1,100,8|2,1:2|0:0,0:0:0:0:
197,121,55825,1,0,0:0:0:0:
376,247,55891,2,0,L|386:122,1,100,8|2,1:2|0:0,0:0:0:0:
315,121,56086,1,0,0:0:0:0:
143,247,56152,2,0,L|133:122,1,100,8|2,1:2|0:0,0:0:0:0:
200,121,56347,1,0,0:0:0:0:
368,247,56413,2,0,L|378:122,1,100,8|2,1:2|0:0,0:0:0:0:
311,121,56608,1,0,0:0:0:0:
59,212,56673,5,8,1:2:0:0:
305,218,56804,1,8,1:2:0:0:
188,217,56934,1,8,1:2:0:0:
455,313,57065,1,8,1:2:0:0:
201,317,57196,1,8,1:2:0:0:
317,317,57326,1,8,1:2:0:0:
79,320,57456,1,8,1:2:0:0:
336,317,57586,1,8,1:2:0:0:
141,242,57717,6,0,L|86:244,1,50,8|8,1:2|1:2,0:0:0:0:
247,169,57847,2,0,L|254:85,1,50,8|8,1:2|1:2,0:0:0:0:
390,243,57978,2,0,L|445:245,1,50,8|8,1:2|1:2,0:0:0:0:
265,169,58108,2,0,L|258:85,1,50,8|8,1:2|1:2,0:0:0:0:
99,164,58239,2,0,L|94:92,1,50,8|8,1:2|1:2,0:0:0:0:
226,47,58369,2,0,L|228:-12,1,50,8|8,1:2|1:2,0:0:0:0:
386,136,58499,2,0,L|336:136,1,50,8|8,1:2|1:2,0:0:0:0:
158,248,58629,2,0,L|108:248,1,50,8|8,1:2|1:2,0:0:0:0:
352,108,58760,5,0,1:2:0:0:
368,224,58891,1,0,1:2:0:0:
227,201,59021,1,0,1:2:0:0:
368,224,59152,1,0,1:2:0:0:
211,207,59282,1,2,1:3:0:0:
195,323,59413,1,0,0:0:0:0:
336,302,59543,5,0,1:2:0:0:
144,129,59673,1,2,1:3:0:0:
128,245,59804,1,0,1:2:0:0:
407,202,59934,1,0,0:0:0:0:
63,356,60065,1,0,1:2:0:0:
253,354,60325,6,0,P|174:338|151:206,1,200,2|0,0:3|0:0,0:0:0:0:
250,200,60717,1,0,0:0:0:0:
452,231,60847,6,0,B|101:199|101:199|66:-3,2,450.000017166138,2|2|2,3:0|3:0|3:0,0:0:0:0:
170,235,61369,2,0,L|37:248,1,115.000002193451,8|0,1:2|0:0,0:0:0:0:
331,295,61630,5,4,1:0:0:0:
383,272,61695,1,2,0:0:0:0:
413,224,61760,1,2,0:0:0:0:
411,167,61825,1,2,0:0:0:0:
378,122,61890,1,2,0:0:0:0:
325,103,61956,1,2,0:0:0:0:
176,52,62021,6,0,L|263:52,1,57.5000010967255,2|2,1:2|0:0,0:0:0:0:
106,222,62152,1,2,1:2:0:0:
56,200,62217,1,2,0:0:0:0:
48,146,62282,1,2,0:0:0:0:
91,111,62347,1,2,0:0:0:0:
354,294,62412,6,0,L|296:295,1,57.5000010967255,10|2,0:0|0:0,0:0:0:0:
144,366,62543,1,2,1:2:0:0:
89,353,62608,1,2,0:0:0:0:
54,309,62673,1,2,0:0:0:0:
53,253,62738,1,2,0:0:0:0:
86,208,62803,1,2,0:0:0:0:
141,193,62869,1,2,0:0:0:0:
357,257,62934,5,2,1:2:0:0:
413,242,62999,1,2,0:0:0:0:
456,205,63064,1,2,0:0:0:0:
478,152,63129,1,2,0:0:0:0:
474,95,63194,1,2,0:0:0:0:
446,46,63260,1,2,0:0:0:0:
398,14,63325,1,2,0:0:0:0:
342,7,63390,1,2,0:0:0:0:
160,105,63456,6,0,L|249:104,1,57.5000010967255,10|2,0:0|0:0,0:0:0:0:
371,198,63586,2,0,L|460:197,1,57.5000010967255,2|2,0:0|0:0,0:0:0:0:
207,345,63717,5,2,1:2:0:0:
152,336,63782,1,2,0:0:0:0:
115,293,63847,1,2,0:0:0:0:
115,236,63912,1,2,0:0:0:0:
151,193,63977,1,2,0:0:0:0:
207,184,64043,1,2,0:0:0:0:
372,290,64108,6,0,L|460:289,1,57.5000010967255,2|2,1:2|0:0,0:0:0:0:
202,107,64239,2,0,L|67:106,1,115.000002193451,2|0,1:2|0:0,0:0:0:0:
461,342,64499,2,0,L|462:213,1,115.000002193451,8|0,0:0|1:0,0:0:0:0:
326,173,64760,2,0,L|465:174,1,115.000002193451,2|2,3:0|3:0,0:0:0:0:
105,232,65021,6,0,B|456:200|456:200|491:-2,2,450.000017166138,2|2|2,3:0|3:0|3:0,0:0:0:0:
362,245,65543,2,0,L|495:258,1,115.000002193451,8|0,0:0|0:0,0:0:0:0:
103,100,65804,6,0,L|96:190,1,57.5000010967255,0|2,1:0|0:0,0:0:0:0:
163,188,65934,2,0,L|71:200,1,57.5000010967255,2|2,0:0|0:0,0:0:0:0:
287,324,66065,1,2,0:0:0:0:
347,302,66130,1,0,0:0:0:0:
370,242,66195,1,2,1:2:0:0:
343,185,66260,1,2,0:0:0:0:
183,267,66325,6,0,L|77:266,1,57.5000010967255,2|2,1:2|0:0,0:0:0:0:
337,96,66456,2,0,L|280:96,1,57.5000010967255,2|0,0:0|0:0,0:0:0:0:
124,179,66586,6,0,L|116:89,1,57.5000010967255,10|2,0:0|0:0,0:0:0:0:
300,187,66717,2,0,L|406:186,1,57.5000010967255,2|2,1:2|0:0,0:0:0:0:
188,345,66847,2,0,L|180:255,1,57.5000010967255,2|2,0:0|0:0,0:0:0:0:
378,331,66978,2,0,L|321:331,1,57.5000010967255,2|0,1:2|0:0,0:0:0:0:
150,143,67108,6,0,L|146:238,1,57.5000010967255,2|2,1:2|0:0,0:0:0:0:
214,251,67239,2,0,L|122:263,1,57.5000010967255,2|2,0:0|0:0,0:0:0:0:
371,288,67369,2,0,L|372:222,1,57.5000010967255,2|0,0:0|0:0,0:0:0:0:
153,351,67499,2,0,L|245:363,1,57.5000010967255,2|2,0:0|0:0,0:0:0:0:
369,231,67630,6,0,L|373:326,1,57.5000010967255,10|2,0:2|0:0,0:0:0:0:
304,337,67761,2,0,L|396:349,1,57.5000010967255,2|2,0:0|0:0,0:0:0:0:
159,303,67891,2,0,L|167:196,1,57.5000010967255,2|2,1:2|0:0,0:0:0:0:
328,121,68021,2,0,L|404:114,1,57.5000010967255,2|2,0:0|0:0,0:0:0:0:
167,185,68152,6,0,L|41:185,1,115.000002193451,2|0,0:0|1:0,0:0:0:0:
342,186,68412,2,0,L|468:186,1,115.000002193451,0|0,1:0|3:0,0:0:0:0:
121,215,68673,5,8,0:0:0:0:
365,326,68804,2,0,L|512:327,2,115.000002193451,2|2|2,1:2|0:0|0:0,0:0:0:0:
105,232,69195,6,0,B|456:200|456:200|491:-2,2,450.000017166138,0|0|0,1:0|0:0|0:0,0:0:0:0:
362,245,69717,2,0,L|495:258,1,115.000002193451,8|0,0:0|0:0,0:0:0:0:
245,325,69978,6,0,L|239:238,1,57.5000010967255,0|2,1:0|0:3,0:0:0:0:
316,220,70108,2,0,L|310:133,1,57.5000010967255,2|2,0:3|0:3,0:0:0:0:
235,121,70239,2,0,L|229:34,1,57.5000010967255,2|2,0:3|0:3,0:0:0:0:
413,344,70369,6,0,L|407:257,1,57.5000010967255,2|2,1:3|0:3,0:0:0:0:
223,347,70499,6,0,L|217:260,1,57.5000010967255,2|2,1:3|0:3,0:0:0:0:
142,248,70630,2,0,L|136:161,1,57.5000010967255,2|2,0:3|0:3,0:0:0:0:
312,162,70760,6,0,L|306:75,1,57.5000010967255,8|2,0:0|0:3,0:0:0:0:
235,81,70891,1,2,0:3:0:0:
400,223,70956,2,0,L|482:223,2,57.5000010967255,0|2|2,0:0|0:3|0:3,0:0:0:0:
227,223,71152,2,0,L|155:223,1,57.5000010967255,0|2,0:0|0:3,0:0:0:0:
349,298,71282,6,0,L|352:355,1,57.5000010967255,2|0,1:3|0:0,0:0:0:0:
156,316,71412,2,0,L|418:186,2,259.999988098145,2|2|2,0:0|0:0|0:0,0:0:0:0:
270,236,71804,2,0,L|52:74,1,259.999988098145,10|2,0:0|0:0,0:0:0:0:
318,356,72065,2,0,L|328:90,1,259.999988098145,2|2,1:2|0:0,0:0:0:0:
195,96,72325,5,2,0:0:0:0:
446,96,72456,1,2,1:2:0:0:
195,96,72586,2,0,L|185:355,1,259.999988098145,2|2,1:2|0:0,0:0:0:0:
442,188,72847,1,8,0:0:0:0:
219,312,72978,2,0,L|98:271,1,110.000003356934,0|0,1:0|0:0,0:0:0:0:
287,223,73173,2,0,L|180:184,1,110.000003356934,0|0,1:0|0:0,0:0:0:0:
357,180,73369,5,0,1:0:0:0:
358,76,73499,1,0,0:0:0:0:
117,178,73630,1,0,1:0:0:0:
357,180,73760,1,8,1:2:0:0:
117,178,73891,6,0,L|40:178,1,55.0000016784668,2|0,3:2|0:0,0:0:0:0:
252,312,74021,2,0,L|406:312,1,110.000003356934,2|10,1:2|1:2,0:0:0:0:
227,178,74282,6,0,L|150:178,1,55.0000016784668,2|2,0:0|0:0,0:0:0:0:
362,312,74412,2,0,L|516:312,1,110.000003356934,0|0,1:0|0:0,0:0:0:0:
338,178,74673,6,0,L|261:178,1,55.0000016784668,0|0,1:0|0:0,0:0:0:0:
40,312,74804,2,0,L|150:312,1,110.000003356934,8|2,1:2|3:2,0:0:0:0:
472,312,75065,2,0,L|362:312,2,110.000003356934,2|10|2,1:2|1:2|0:0,0:0:0:0:
155,180,75456,5,0,1:0:0:0:
154,76,75586,1,0,0:0:0:0:
395,178,75717,1,0,1:0:0:0:
155,180,75847,1,8,1:2:0:0:
395,178,75978,6,0,L|472:178,1,55.0000016784668,0|2,0:0|0:0,0:0:0:0:
260,312,76108,2,0,L|106:312,1,110.000003356934,2|10,1:2|1:2,0:0:0:0:
285,178,76369,6,0,L|362:178,1,55.0000016784668,0|2,0:0|0:0,0:0:0:0:
150,312,76499,2,0,L|-4:312,1,110.000003356934,0|2,1:0|0:0,0:0:0:0:
172,179,76760,6,0,L|249:179,1,55.0000016784668,2|2,0:0|0:0,0:0:0:0:
412,176,76891,1,2,0:0:0:0:
168,348,77021,1,8,1:2:0:0:
219,329,77086,1,0,0:0:0:0:
255,288,77151,1,0,0:0:0:0:
267,235,77216,1,0,0:0:0:0:
252,183,77281,1,0,0:0:0:0:
213,144,77347,1,0,0:0:0:0:
161,128,77412,1,0,0:0:0:0:
100,131,77478,1,0,0:0:0:0:
257,40,77543,5,0,3:0:0:0:
259,92,77608,1,0,0:0:0:0:
261,144,77673,1,0,0:0:0:0:
404,153,77804,2,0,L|410:304,1,104.999996795654,0|0,3:0|0:0,0:0:0:0:
260,227,78065,2,0,L|254:378,1,104.999996795654,0|0,3:0|0:0,0:0:0:0:
108,184,78325,2,0,L|102:335,1,104.999996795654,0|0,3:0|0:0,0:0:0:0:
448,79,78586,5,0,3:0:0:0:
446,131,78651,1,0,0:0:0:0:
444,183,78716,1,0,0:0:0:0:
301,192,78847,2,0,L|295:343,1,104.999996795654,0|0,3:0|0:0,0:0:0:0:
150,66,79108,2,0,L|156:217,1,104.999996795654,0|0,3:0|0:0,0:0:0:0:
302,192,79369,2,0,L|308:343,1,104.999996795654,0|0,3:0|0:0,0:0:0:0:
64,79,79630,5,0,3:0:0:0:
66,131,79695,1,0,0:0:0:0:
68,183,79760,1,0,0:0:0:0:
211,192,79891,2,0,L|217:343,1,104.999996795654,0|0,3:0|0:0,0:0:0:0:
362,66,80152,2,0,L|356:217,1,104.999996795654,0|0,3:0|0:0,0:0:0:0:
210,192,80413,2,0,L|204:343,1,104.999996795654,0|0,3:0|0:0,0:0:0:0:
468,220,80673,6,0,L|473:116,1,104.999996795654,0|0,3:0|0:0,0:0:0:0:
324,242,80934,2,0,L|318:393,1,104.999996795654,0|0,3:0|0:0,0:0:0:0:
171,242,81195,2,0,L|177:393,1,104.999996795654,0|0,3:0|0:0,0:0:0:0:
333,244,81456,1,0,3:0:0:0:
175,346,81586,1,0,0:0:0:0:
442,343,81717,5,0,1:0:0:0:
174,263,81847,1,0,3:0:0:0:
46,262,81978,1,0,1:0:0:0:
431,237,82108,1,0,3:0:0:0:
163,157,82238,1,0,1:0:0:0:
35,156,82369,1,0,3:0:0:0:
420,136,82499,1,0,1:0:0:0:
152,56,82629,1,0,3:0:0:0:
392,331,82760,6,0,L|400:248,1,52.4999983978272,0|0,1:0|1:0,0:0:0:0:
228,295,82891,2,0,L|156:287,1,52.4999983978272,0|0,1:0|1:0,0:0:0:0:
339,197,83021,2,0,L|331:114,1,52.4999983978272,0|0,1:0|1:0,0:0:0:0:
165,209,83152,2,0,L|97:202,1,52.4999983978272,0|0,1:0|1:0,0:0:0:0:
321,219,83282,2,0,L|404:206,1,52.4999983978272,8|8,1:2|1:2,0:0:0:0:
163,120,83412,2,0,L|246:107,1,52.4999983978272,8|8,1:2|1:2,0:0:0:0:
353,109,83543,2,0,L|436:96,1,52.4999983978272,8|8,1:2|1:2,0:0:0:0:
123,10,83673,2,0,L|206:-3,1,52.4999983978272,8|8,1:2|1:2,0:0:0:0:
373,353,83804,5,0,1:0:0:0:
470,321,83934,1,0,1:0:0:0:
497,198,84065,1,0,1:0:0:0:
470,72,84195,1,0,1:0:0:0:
373,40,84325,1,8,1:2:0:0:
200,149,84586,1,0,1:0:0:0:
327,148,84717,1,0,0:0:0:0:
56,291,84847,6,0,L|40:186,1,69.9999978637696
200,196,85021,1,0,0:0:0:0:
456,291,85108,2,0,L|472:186,1,69.9999978637696,0|0,1:0|0:0,0:0:0:0:
290,193,85282,1,0,0:0:0:0:
51,160,85369,2,0,P|102:130|28:23,1,209.999993591309,8|0,0:2|0:0,0:0:0:0:
449,346,85891,6,0,L|455:225,1,69.9999978637696,4|0,3:1|3:0,0:0:0:0:
292,252,86065,1,0,3:0:0:0:
462,348,86152,2,0,L|468:227,1,69.9999978637696,0|0,3:0|3:0,0:0:0:0:
305,254,86326,1,0,3:0:0:0:
71,252,86412,1,8,0:2:0:0:
300,135,86673,6,0,L|399:134,2,73.3333355712891,0|0|0,1:3|3:0|3:0,0:0:0:0:
141,222,86934,6,0,L|140:117,1,73.3333355712891,0|0,3:0|3:0,0:0:0:0:
302,56,87108,1,0,3:0:0:0:
136,69,87195,2,0,L|37:68,2,73.3333355712891,0|0|0,1:3|3:0|3:0,0:0:0:0:
316,346,87456,5,8,0:2:0:0:
395,334,87543,1,0,0:0:0:0:
440,267,87630,1,0,0:0:0:0:
442,186,87717,1,0,0:0:0:0:
398,118,87804,1,0,0:0:0:0:
318,103,87891,1,0,0:0:0:0:
95,274,87978,6,0,L|94:169,1,73.3333355712891,0|0,1:3|3:0,0:0:0:0:
175,178,88152,1,0,3:0:0:0:
335,201,88239,2,0,L|218:201,1,73.3333355712891,0|0,3:0|3:0,0:0:0:0:
106,201,88412,1,0,3:0:0:0:
276,286,88499,6,0,L|349:286,2,73.3333355712891,8|0|0,0:2|3:0|3:0,0:0:0:0:
65,371,88760,2,0,L|64:266,1,73.3333355712891,0|0,1:3|3:0,0:0:0:0:
145,262,88934,1,0,3:0:0:0:
290,155,89021,6,0,L|376:153,2,73.3333355712891,0|0|0,3:0|0:0|0:0,0:0:0:0:
109,246,89282,2,0,L|108:141,1,73.3333355712891,0|0,1:3|3:0,0:0:0:0:
270,80,89456,1,0,3:0:0:0:
75,356,89543,5,8,0:2:0:0:
154,344,89630,1,0,0:0:0:0:
199,277,89717,1,0,0:0:0:0:
201,196,89804,1,0,0:0:0:0:
157,128,89891,1,0,0:0:0:0:
77,113,89978,1,0,3:0:0:0:
266,212,90065,5,0,1:3:0:0:
348,210,90152,1,0,3:0:0:0:
266,212,90239,1,0,3:0:0:0:
348,210,90325,1,0,3:0:0:0:
266,212,90412,1,0,3:0:0:0:
348,210,90499,1,0,3:0:0:0:
154,211,90586,1,8,0:2:0:0:
352,314,90847,6,0,L|419:314,1,55.0000016784668,2|2,1:2|0:0,0:0:0:0:
254,295,90978,2,0,L|246:222,1,55.0000016784668,2|2,0:0|0:0,0:0:0:0:
403,192,91108,2,0,L|411:119,1,55.0000016784668,2|0,0:0|0:0,0:0:0:0:
230,112,91239,2,0,L|297:112,1,55.0000016784668,2|0,1:3|0:0,0:0:0:0:
109,192,91369,2,0,L|101:119,1,55.0000016784668,2|2,1:2|0:2,0:0:0:0:
290,189,91499,2,0,L|417:191,1,110.000003356934,2|10,0:2|0:2,0:0:0:0:
342,210,91695,1,2,3:0:0:0:
194,269,91760,2,0,L|186:196,1,55.0000016784668,2|2,1:3|3:0,0:0:0:0:
348,307,91891,2,0,L|439:306,1,55.0000016784668,2|0,3:0|0:0,0:0:0:0:
237,359,92021,6,0,L|94:355,1,110.000003356934,2|2,3:0|1:2,0:0:0:0:
294,237,92217,2,0,L|384:237,2,55.0000016784668,2|2|2,0:2|0:2|0:2,0:0:0:0:
127,139,92412,2,0,L|220:139,1,55.0000016784668,2|0,0:2|0:0,0:0:0:0:
363,146,92543,6,0,L|487:149,1,110.000003356934,2|8,0:2|0:2,0:0:0:0:
315,69,92739,2,0,L|225:69,2,55.0000016784668,2|2|2,0:3|0:3|0:3,0:0:0:0:
472,222,92934,2,0,L|474:321,1,55.0000016784668,2|0,1:3|0:0,0:0:0:0:
306,196,93065,6,0,L|182:199,1,110.000003356934,2|2,0:3|0:0,0:0:0:0:
354,119,93261,2,0,L|444:119,2,55.0000016784668,2|2|2,0:0|1:2|0:0,0:0:0:0:
197,272,93456,2,0,L|195:371,1,55.0000016784668,2|0,1:2|0:0,0:0:0:0:
358,245,93586,2,0,L|282:247,1,55.0000016784668,2|0,0:0|0:0,0:0:0:0:
164,294,93717,6,0,L|30:287,1,110.000003356934,8|2,0:2|1:2,0:0:0:0:
348,294,93978,2,0,L|482:287,1,110.000003356934,2|2,0:2|0:2,0:0:0:0:
163,262,94239,5,0,1:3:0:0:
94,241,94325,1,0,3:0:0:0:
51,182,94412,1,0,3:0:0:0:
52,110,94499,1,0,3:0:0:0:
96,53,94586,1,0,3:0:0:0:
166,35,94673,1,0,3:0:0:0:
412,148,94760,1,8,0:2:0:0:
243,299,95021,6,0,L|243:191,1,73.3333355712891,0|0,1:3|3:0,0:0:0:0:
323,202,95195,1,0,3:0:0:0:
142,144,95282,5,0,3:0:0:0:
224,143,95369,1,0,3:0:0:0:
306,142,95456,1,0,3:0:0:0:
138,55,95543,2,0,L|32:54,2,73.3333355712891,0|0|0,1:3|3:0|3:0,0:0:0:0:
322,292,95804,6,0,L|232:292,1,73.3333355712891,8|0,0:2|0:0,0:0:0:0:
427,143,95978,2,0,L|427:239,1,73.3333355712891
337,258,96152,2,0,L|429:259,1,73.3333355712891
231,253,96325,5,0,1:3:0:0:
162,231,96411,1,0,3:0:0:0:
120,172,96498,1,0,3:0:0:0:
123,100,96585,1,0,3:0:0:0:
169,45,96672,1,0,3:0:0:0:
240,29,96759,1,0,3:0:0:0:
403,137,96847,6,0,L|297:136,1,73.3333355712891,8|0,0:2|3:0,0:0:0:0:
159,137,97021,1,0,3:0:0:0:
329,136,97108,2,0,L|329:28,1,73.3333355712891,0|0,1:3|3:0,0:0:0:0:
249,39,97282,1,0,3:0:0:0:
454,172,97369,5,0,3:0:0:0:
374,174,97456,1,0,0:0:0:0:
203,176,97543,1,0,0:0:0:0:
374,264,97630,1,0,1:3:0:0:
455,263,97717,1,0,3:0:0:0:
374,264,97804,1,0,3:0:0:0:
202,272,97891,5,8,0:0:0:0:
374,264,97978,1,0,3:0:0:0:
438,233,98064,1,0,0:0:0:0:
463,165,98151,1,0,0:0:0:0:
434,100,98238,1,0,0:0:0:0:
368,72,98325,1,0,3:0:0:0:
211,136,98412,5,0,1:3:0:0:
131,136,98499,1,0,0:0:0:0:
211,136,98586,1,0,0:0:0:0:
131,136,98673,1,0,0:0:0:0:
211,136,98760,1,0,0:0:0:0:
131,136,98847,1,0,0:0:0:0:
346,295,98934,2,0,L|467:295,1,110.000003356934,0|0,1:0|0:0,0:0:0:0:
226,285,99195,6,0,L|145:284,1,55.0000016784668,8|0,1:2|0:0,0:0:0:0:
242,212,99325,2,0,L|322:211,1,55.0000016784668
108,62,99456,6,0,L|109:159,1,55.0000016784668,0|0,1:3|0:0,0:0:0:0:
179,145,99586,2,0,L|236:143,1,55.0000016784668
160,218,99717,2,0,L|63:222,1,55.0000016784668,0|0,3:0|0:0,0:0:0:0:
305,341,99847,2,0,L|306:266,1,55.0000016784668,8|0,1:2|0:0,0:0:0:0:
135,302,99978,6,0,L|78:300,1,55.0000016784668
154,375,100109,2,0,L|251:379,1,55.0000016784668,0|0,1:3|0:0,0:0:0:0:
404,304,100239,2,0,L|407:212,1,55.0000016784668,8|0,1:2|0:0,0:0:0:0:
335,232,100369,2,0,L|338:140,1,55.0000016784668
155,111,100499,6,0,L|88:111,1,55.0000016784668,0|0,1:3|0:0,0:0:0:0:
278,113,100630,2,0,L|345:113,1,55.0000016784668
155,111,100760,2,0,L|88:111,1,55.0000016784668,0|0,3:0|0:0,0:0:0:0:
171,191,100891,2,0,L|247:192,1,55.0000016784668,8|0,1:2|0:0,0:0:0:0:
427,160,101021,6,0,L|494:160,1,55.0000016784668
265,160,101152,2,0,L|198:160,1,55.0000016784668,0|0,1:3|0:0,0:0:0:0:
427,160,101282,2,0,L|494:160,1,55.0000016784668,8|0,1:2|0:0,0:0:0:0:
411,240,101413,2,0,L|335:241,1,55.0000016784668
83,213,101543,6,0,L|16:213,1,55.0000016784668,0|0,1:3|0:0,0:0:0:0:
293,210,101674,2,0,L|360:210,1,55.0000016784668
83,213,101804,2,0,L|16:213,1,55.0000016784668,8|0,1:2|0:0,0:0:0:0:
99,293,101935,2,0,L|175:294,1,55.0000016784668,0|0,1:3|0:0,0:0:0:0:
343,352,102065,6,0,P|425:319|322:100,1,385.000011749268,8|0,1:2|0:0,0:0:0:0:
129,150,102586,5,4,1:0:0:0:
57,151,102673,1,0,3:0:0:0:
129,150,102760,1,0,3:0:0:0:
352,181,102847,2,0,L|361:332,1,110.000003356934,0|0,3:0|0:0,0:0:0:0:
127,245,103108,2,0,L|-2:246,1,110.000003356934,0|0,1:0|0:0,0:0:0:0:
134,333,103369,2,0,L|249:331,1,110.000003356934,8|0,1:2|0:0,0:0:0:0:
472,314,103630,5,2,1:2:0:0:
414,300,103695,1,2,2:2:0:0:
356,286,103760,1,2,2:2:0:0:
298,272,103825,1,2,2:2:0:0:
35,261,103891,5,2,2:2:0:0:
104,244,103956,1,2,2:2:0:0:
173,227,104021,1,10,1:2:0:0:
242,211,104086,1,2,2:2:0:0:
459,194,104152,5,2,1:2:0:0:
401,178,104217,1,2,2:2:0:0:
343,162,104282,1,2,2:2:0:0:
285,146,104347,1,2,2:2:0:0:
227,130,104412,1,10,1:2:0:0:
168,114,104478,1,2,2:2:0:0:
110,98,104543,1,2,2:2:0:0:
52,83,104608,1,2,2:2:0:0:
298,272,104673,5,2,1:2:0:0:
356,286,104738,1,2,2:2:0:0:
414,300,104803,1,2,2:2:0:0:
472,314,104868,1,2,2:2:0:0:
242,211,104934,5,2,2:2:0:0:
173,227,104999,1,2,2:2:0:0:
104,244,105064,1,10,1:2:0:0:
35,261,105129,1,2,2:2:0:0:
305,182,105195,5,2,1:2:0:0:
364,167,105260,1,2,2:2:0:0:
423,153,105325,1,2,2:2:0:0:
365,136,105391,1,2,2:2:0:0:
307,119,105456,1,10,1:2:0:0:
366,103,105521,1,2,2:2:0:0:
425,87,105586,1,2,2:2:0:0:
367,69,105652,1,2,2:2:0:0:
227,335,105717,5,0,1:0:0:0:
14,336,105847,1,2,0:3:0:0:
285,335,105978,1,2,0:3:0:0:
498,336,106108,1,8,1:2:0:0:
254,220,106239,5,2,1:3:0:0:
133,216,106369,1,2,0:3:0:0:
258,220,106499,1,8,1:2:0:0:
379,216,106629,1,2,0:3:0:0:
41,135,106760,5,4,1:2:0:0:
113,134,106847,1,0,3:0:0:0:
41,135,106934,1,0,3:0:0:0:
190,89,107021,1,0,3:0:0:0:
250,90,107108,1,0,3:0:0:0:
190,89,107195,1,0,3:0:0:0:
339,175,107282,5,0,1:0:0:0:
366,179,107314,1,0,0:0:0:0:
389,165,107347,1,0,0:0:0:0:
398,140,107379,1,0,0:0:0:0:
389,115,107412,1,0,0:0:0:0:
366,101,107445,1,0,0:0:0:0:
339,106,107477,1,0,0:0:0:0:
186,231,107543,2,0,L|56:232,1,110.000003356934,8|0,1:2|0:0,0:0:0:0:
298,272,107804,5,2,1:2:0:0:
356,286,107869,1,2,2:2:0:0:
414,300,107934,1,2,2:2:0:0:
472,314,107999,1,2,2:2:0:0:
242,211,108065,5,2,2:2:0:0:
173,227,108130,1,2,2:2:0:0:
104,244,108195,1,10,1:2:0:0:
35,261,108260,1,2,2:2:0:0:
256,171,108325,5,2,1:2:0:0:
316,157,108391,1,2,2:2:0:0:
375,143,108456,1,2,2:2:0:0:
317,129,108521,1,2,2:2:0:0:
259,115,108586,1,10,1:2:0:0:
200,101,108652,1,2,2:2:0:0:
142,87,108717,1,2,2:2:0:0:
201,70,108782,1,2,2:2:0:0:
456,283,108847,5,2,1:2:0:0:
398,269,108912,1,2,2:2:0:0:
340,255,108977,1,2,2:2:0:0:
282,241,109042,1,2,2:2:0:0:
31,288,109108,5,2,2:2:0:0:
99,271,109173,1,2,2:2:0:0:
166,255,109238,1,10,1:2:0:0:
233,239,109303,1,2,2:2:0:0:
457,209,109369,5,2,1:2:0:0:
388,190,109434,1,2,2:2:0:0:
319,170,109499,1,2,2:2:0:0:
389,153,109565,1,2,2:2:0:0:
458,137,109630,1,10,1:2:0:0:
388,119,109695,1,2,2:2:0:0:
318,102,109760,1,2,2:2:0:0:
387,86,109825,1,2,2:2:0:0:
157,134,109891,5,0,1:0:0:0:
35,136,110021,1,2,0:3:0:0:
259,135,110152,1,2,0:3:0:0:
477,136,110282,1,8,1:2:0:0:
252,261,110412,5,2,1:3:0:0:
134,260,110543,1,2,0:3:0:0:
260,261,110673,1,8,1:2:0:0:
378,260,110804,1,2,0:3:0:0:
58,116,110934,6,0,L|52:221,1,73.3333355712891,4|0,1:0|3:0,0:0:0:0:
143,231,111108,1,0,3:0:0:0:
50,266,111195,1,0,3:0:0:0:
244,281,111325,1,8,1:2:0:0:
471,278,111456,1,0,3:0:0:0:
268,281,111586,1,0,1:0:0:0:
41,278,111717,1,8,1:2:0:0:
244,281,111847,1,0,0:0:0:0:
471,170,111978,5,2,1:2:0:0:
410,170,112043,1,2,0:0:0:0:
349,170,112108,1,2,0:0:0:0:
288,170,112173,1,2,0:0:0:0:
42,169,112239,1,2,0:0:0:0:
107,167,112304,1,2,0:0:0:0:
172,165,112369,1,10,1:2:0:0:
237,164,112434,1,0,0:0:0:0:
458,287,112499,5,0,3:0:0:0:
400,288,112565,1,0,0:0:0:0:
344,289,112630,1,0,1:0:0:0:
287,291,112695,1,0,0:0:0:0:
230,292,112760,1,10,1:2:0:0:
174,294,112825,1,2,0:0:0:0:
117,296,112891,1,2,0:0:0:0:
59,298,112956,1,2,0:0:0:0:
289,197,113021,5,2,1:2:0:0:
349,197,113086,1,2,0:0:0:0:
410,197,113152,1,2,0:0:0:0:
470,197,113217,1,2,0:0:0:0:
233,95,113282,1,2,0:0:0:0:
161,95,113347,1,2,0:0:0:0:
89,96,113412,1,10,1:2:0:0:
16,98,113478,1,0,0:0:0:0:
290,325,113543,5,0,3:0:0:0:
360,299,113608,1,0,0:0:0:0:
430,273,113673,1,0,1:0:0:0:
359,248,113739,1,0,0:0:0:0:
289,224,113804,1,10,1:2:0:0:
359,198,113869,1,2,0:0:0:0:
429,170,113934,1,2,0:0:0:0:
359,148,113999,1,2,0:0:0:0:
167,332,114065,5,2,1:2:0:0:
224,310,114130,1,2,0:0:0:0:
281,288,114195,1,2,0:0:0:0:
338,266,114260,1,2,0:0:0:0:
395,244,114325,1,2,0:0:0:0:
339,219,114391,1,2,0:0:0:0:
284,195,114456,1,10,1:2:0:0:
228,171,114521,1,0,0:0:0:0:
29,188,114586,5,0,3:0:0:0:
256,191,114717,1,0,1:0:0:0:
483,188,114847,2,0,L|484:337,1,110.000003356934,10|2,1:2|0:3,0:0:0:0:
291,248,115108,5,4,1:2:0:0:
225,246,115195,1,0,3:0:0:0:
291,248,115282,1,0,3:0:0:0:
142,202,115369,1,0,3:0:0:0:
82,203,115456,1,0,0:0:0:0:
142,202,115543,1,0,0:0:0:0:
333,120,115630,2,0,L|465:120,1,110.000003356934,0|0,3:0|1:0,0:0:0:0:
179,120,115891,2,0,L|47:120,1,110.000003356934,8|0,1:2|0:0,0:0:0:0:
298,272,116152,5,2,1:2:0:0:
356,286,116217,1,2,0:0:0:0:
414,300,116282,1,2,0:0:0:0:
472,314,116347,1,2,0:0:0:0:
242,211,116413,5,2,0:0:0:0:
173,227,116478,1,2,0:0:0:0:
104,244,116543,1,10,1:2:0:0:
35,261,116608,1,0,0:0:0:0:
256,171,116673,5,0,3:0:0:0:
316,157,116739,1,0,0:0:0:0:
375,143,116804,1,0,1:0:0:0:
317,129,116869,1,0,0:0:0:0:
259,115,116934,1,10,1:2:0:0:
200,101,117000,1,2,0:0:0:0:
142,87,117065,1,2,0:0:0:0:
201,70,117130,1,2,0:0:0:0:
423,206,117195,5,8,1:2:0:0:
420,256,117260,1,0,0:0:0:0:
265,284,117325,1,0,1:0:0:0:
262,334,117390,1,0,0:0:0:0:
89,178,117456,1,8,1:2:0:0:
92,128,117521,1,0,0:0:0:0:
247,100,117586,1,0,1:0:0:0:
250,50,117651,1,0,0:0:0:0:
445,82,117717,5,8,1:2:0:0:
442,132,117782,1,0,0:0:0:0:
290,168,117847,1,0,1:0:0:0:
287,218,117912,1,0,0:0:0:0:
70,345,117978,1,8,1:2:0:0:
73,295,118043,1,0,0:0:0:0:
222,216,118108,1,0,1:0:0:0:
225,166,118173,1,0,0:0:0:0:
464,213,118239,5,8,1:2:0:0:
348,212,118369,1,0,1:0:0:0:
44,256,118499,1,8,1:2:0:0:
256,251,118630,1,0,1:0:0:0:
468,256,118760,1,8,1:2:0:0:
359,254,118891,1,8,1:2:0:0:
93,359,119021,1,8,1:3:0:0:
65,344,119053,1,0,0:0:0:0:
45,318,119086,1,0,0:0:0:0:
37,287,119118,1,0,0:0:0:0:
43,255,119151,1,8,1:3:0:0:
61,228,119184,1,0,0:0:0:0:
89,210,119216,1,0,0:0:0:0:
358,198,119282,5,4,1:0:0:0:
256,192,119412,12,2,127630,0:0:0:0:
319,69,135978,6,0,L|439:80,1,94.9999974632264,2|2,3:2|0:0,0:0:0:0:
299,171,136239,2,0,L|179:182,1,94.9999974632264,2|2,3:2|0:0,0:0:0:0:
327,342,136499,2,0,L|331:204,1,94.9999974632264,2|2,0:0|0:0,0:0:0:0:
440,232,136760,2,0,L|436:94,1,94.9999974632264,2|2,0:0|0:0,0:0:0:0:
186,70,137021,6,0,L|66:81,1,94.9999974632264,2|2,3:2|0:0,0:0:0:0:
206,172,137282,2,0,L|326:183,1,94.9999974632264,2|2,3:2|0:0,0:0:0:0:
178,345,137542,2,0,L|174:207,1,94.9999974632264,2|0,0:0|0:0,0:0:0:0:
65,235,137803,2,0,L|69:97,1,94.9999974632264,2|0,0:0|0:0,0:0:0:0:
355,270,138065,6,0,L|260:261,1,94.9999974632264,2|2,3:2|0:0,0:0:0:0:
146,167,138326,2,0,L|240:158,1,94.9999974632264,2|2,3:2|0:0,0:0:0:0:
363,196,138586,2,0,L|370:66,1,94.9999974632264,2|2,0:0|0:0,0:0:0:0:
237,111,138847,2,0,L|230:-19,1,94.9999974632264,2|2,0:0|0:0,0:0:0:0:
39,362,139108,6,0,L|133:353,1,94.9999974632264,2|2,3:2|0:0,0:0:0:0:
248,259,139369,2,0,L|153:250,1,94.9999974632264,2|2,3:2|0:0,0:0:0:0:
39,236,139630,1,2,0:0:0:0:
56,133,139760,1,2,0:0:0:0:
123,52,139891,1,2,0:0:0:0:
225,32,140021,1,2,0:0:0:0:
443,182,140152,6,0,L|314:172,1,94.9999974632264,2|2,3:2|0:0,0:0:0:0:
462,97,140412,2,0,L|352:88,1,94.9999974632264,2|2,3:2|0:0,0:0:0:0:
243,343,140673,2,0,L|234:216,1,94.9999974632264,2|2,0:0|0:0,0:0:0:0:
356,237,140934,2,0,L|347:110,1,94.9999974632264,2|2,0:0|0:0,0:0:0:0:
79,336,141195,6,0,L|208:326,1,94.9999974632264,2|2,3:2|0:0,0:0:0:0:
296,279,141455,2,0,L|186:270,1,94.9999974632264,2|2,3:2|0:0,0:0:0:0:
324,283,141716,2,0,L|333:156,1,94.9999974632264,2|2,0:0|0:0,0:0:0:0:
201,191,141978,1,2,0:0:0:0:
330,188,142108,1,2,0:0:0:0:
54,336,142239,6,0,L|183:326,1,94.9999974632264,2|2,3:2|0:0,0:0:0:0:
271,237,142499,2,0,L|176:244,1,94.9999974632264,2|2,3:2|0:0,0:0:0:0:
48,142,142760,2,0,L|177:132,1,94.9999974632264,2|2,0:0|0:0,0:0:0:0:
272,57,143021,2,0,L|177:65,1,94.9999974632264,2|0,0:0|0:0,0:0:0:0:
458,336,143282,6,0,L|329:326,1,94.9999974632264,2|2,3:2|0:0,0:0:0:0:
241,237,143542,2,0,L|335:244,1,94.9999974632264,2|2,3:2|0:0,0:0:0:0:
459,248,143803,2,0,L|450:121,1,94.9999974632264,2|2,0:0|0:0,0:0:0:0:
323,175,144065,2,0,L|314:48,1,94.9999974632264,2|2,0:0|0:0,0:0:0:0:
54,332,144325,5,2,3:2:0:0:
66,227,144456,1,2,0:0:0:0:
120,137,144586,1,2,3:2:0:0:
225,95,144717,1,2,0:0:0:0:
101,75,144847,2,0,L|213:56,1,94.9999974632264,2|2,0:0|0:0,0:0:0:0:
70,123,145108,2,0,L|63:251,1,94.9999974632264,2|2,0:0|0:0,0:0:0:0:
275,188,145369,6,0,L|391:183,1,94.9999974632264,2|2,3:2|0:0,0:0:0:0:
236,188,145630,2,0,L|120:183,1,94.9999974632264,2|2,3:2|0:0,0:0:0:0:
275,188,145891,2,0,L|391:183,1,94.9999974632264,2|2,0:0|0:0,0:0:0:0:
236,188,146152,2,0,L|120:183,1,94.9999974632264,2|2,0:0|0:0,0:0:0:0:
458,332,146412,5,2,3:2:0:0:
446,227,146543,1,2,0:0:0:0:
392,137,146673,1,2,3:2:0:0:
277,98,146804,1,2,0:0:0:0:
411,75,146934,2,0,L|299:56,1,94.9999974632264,2|2,0:0|0:0,0:0:0:0:
457,124,147195,2,0,L|464:252,1,94.9999974632264,2|2,0:0|0:0,0:0:0:0:
142,183,147456,6,0,L|236:188,1,94.9999974632264,2|2,3:2|0:0,0:0:0:0:
370,183,147717,2,0,L|275:188,1,94.9999974632264,2|2,3:2|0:0,0:0:0:0:
137,205,147978,2,0,L|232:209,1,94.9999974632264,2|2,0:0|0:0,0:0:0:0:
375,205,148239,2,0,L|281:209,1,94.9999974632264,2|2,0:0|0:0,0:0:0:0:
54,332,148499,5,2,3:2:0:0:
66,227,148630,1,2,0:0:0:0:
120,137,148760,1,2,3:2:0:0:
235,98,148891,1,2,0:0:0:0:
363,201,149021,2,0,L|231:186,1,94.9999974632264,2|2,0:0|0:0,0:0:0:0:
143,286,149282,2,0,L|11:271,1,94.9999974632264,2|2,0:0|0:0,0:0:0:0:
256,337,149543,5,2,3:2:0:0:
368,309,149673,1,2,0:0:0:0:
405,225,149804,1,2,3:2:0:0:
370,136,149934,1,2,0:0:0:0:
256,337,150065,1,2,0:0:0:0:
144,309,150195,1,2,0:0:0:0:
107,225,150326,1,2,0:0:0:0:
142,136,150456,1,2,0:0:0:0:
256,337,150586,6,0,L|257:34,1,284.999992389679,2|2,3:2|0:2,0:0:0:0:
37,27,151108,1,2,0:2:0:0:
256,192,151239,12,2,152412,0:0:0:0:
360,369,152673,6,0,L|351:232,1,100,0|0,3:0|0:0,0:0:0:0:
467,195,152934,2,0,L|478:321,1,100,2|0,0:0|0:0,0:0:0:0:
334,141,153195,2,0,L|473:147,1,100,2|0,0:0|0:0,0:0:0:0:
303,296,153456,1,2,3:2:0:0:
281,251,153543,1,2,0:0:0:0:
303,203,153630,1,2,0:0:0:0:
352,182,153717,6,0,L|475:192,1,100,2|2,0:0|0:0,0:0:0:0:
323,100,153978,2,0,L|200:110,1,100,2|2,3:2|0:0,0:0:0:0:
101,263,154239,2,0,L|97:145,1,100,2|2,0:0|0:0,0:0:0:0:
153,144,154434,1,0,0:0:0:0:
203,120,154499,1,2,0:0:0:0:
85,110,154630,1,2,0:0:0:0:
345,363,154760,6,0,L|354:226,1,100,2|0,3:2|0:0,0:0:0:0:
238,189,155021,2,0,L|227:315,1,100,2|2,0:0|0:0,0:0:0:0:
371,135,155282,2,0,L|232:141,1,100,2|0,0:0|0:0,0:0:0:0:
136,137,155543,1,2,3:2:0:0:
188,123,155630,1,2,0:0:0:0:
231,83,155717,1,2,0:0:0:0:
245,30,155804,6,0,L|145:19,1,100,2|2,0:0|0:0,0:0:0:0:
274,126,156065,2,0,L|374:115,1,100,2|2,3:2|0:0,0:0:0:0:
232,373,156325,2,0,L|228:255,1,100,2|2,0:0|0:0,0:0:0:0:
284,254,156520,1,0,0:0:0:0:
334,230,156585,1,2,0:0:0:0:
461,272,156716,1,2,0:0:0:0:
171,294,156847,6,0,L|165:173,1,100,2|0,3:2|0:0,0:0:0:0:
302,175,157108,2,0,L|172:161,1,100,2|2,0:0|0:0,0:0:0:0:
341,294,157369,2,0,L|347:173,1,100,2|0,0:0|0:0,0:0:0:0:
209,207,157630,1,2,3:2:0:0:
187,162,157717,1,2,0:0:0:0:
209,114,157804,1,2,0:0:0:0:
258,93,157891,6,0,L|381:103,1,100,2|2,0:0|0:0,0:0:0:0:
484,227,158152,2,0,L|361:237,1,100,2|2,3:2|0:0,0:0:0:0:
252,357,158412,2,0,L|134:353,1,100,2|2,0:0|0:0,0:0:0:0:
207,344,158608,1,0,0:0:0:0:
261,335,158673,1,2,0:0:0:0:
389,364,158804,1,2,0:0:0:0:
180,244,158934,6,0,L|58:235,1,100,2|2,3:2|0:0,0:0:0:0:
200,166,159195,2,0,L|191:306,1,100,2|2,0:0|0:0,0:0:0:0:
318,265,159456,2,0,L|312:166,1,100,2|2,0:0|0:0,0:0:0:0:
431,236,159717,2,0,L|332:244,1,100,2|2,3:2|0:0,0:0:0:0:
187,240,159978,6,0,L|180:339,1,100,2|2,0:0|0:0,0:0:0:0:
234,340,160173,1,2,0:0:0:0:
390,257,160239,2,0,L|396:356,1,100,2|2,3:2|0:0,0:0:0:0:
279,275,160499,2,0,L|169:267,1,100,2|2,0:0|0:0,0:0:0:0:
234,267,160695,1,2,0:0:0:0:
455,240,160760,2,0,L|461:339,1,100,2|2,0:0|0:0,0:0:0:0:
212,361,161021,6,0,L|88:350,1,100,2|0,3:2|0:0,0:0:0:0:
234,327,161282,2,0,L|242:227,1,100,2|2,0:0|0:0,0:0:0:0:
115,164,161543,2,0,L|214:159,1,100,2|0,0:0|0:0,0:0:0:0:
352,175,161804,1,2,3:2:0:0:
374,130,161891,1,2,0:0:0:0:
352,82,161978,1,2,0:0:0:0:
303,61,162065,6,0,L|180:71,1,100,2|2,0:0|0:0,0:0:0:0:
76,168,162326,2,0,L|199:178,1,100,2|2,3:2|0:0,0:0:0:0:
319,264,162587,2,0,L|323:146,1,100,2|2,0:0|0:0,0:0:0:0:
267,145,162782,1,0,0:0:0:0:
217,121,162847,1,2,0:0:0:0:
335,111,162978,1,2,0:0:0:0:
83,348,163108,6,0,L|74:211,1,100,2|0,3:2|0:0,0:0:0:0:
190,174,163369,2,0,L|201:300,1,100,2|2,0:0|0:0,0:0:0:0:
57,120,163630,2,0,L|196:126,1,100,2|0,0:0|0:0,0:0:0:0:
303,141,163891,1,2,3:2:0:0:
256,128,163978,1,2,0:0:0:0:
213,88,164065,1,2,0:0:0:0:
199,35,164152,6,0,L|299:24,1,100,2|2,0:0|0:0,0:0:0:0:
421,126,164412,2,0,L|321:115,1,100,2|2,3:2|0:0,0:0:0:0:
199,336,164673,2,0,L|195:218,1,100,2|2,0:0|0:0,0:0:0:0:
251,217,164868,1,0,0:0:0:0:
301,193,164933,1,2,0:0:0:0:
428,235,165064,1,2,0:0:0:0:
132,293,165195,6,0,L|128:175,1,100,2|0,3:2|0:0,0:0:0:0:
254,157,165456,2,0,L|354:168,1,100,2|2,0:0|0:0,0:0:0:0:
229,74,165717,2,0,L|129:85,1,100,2|0,0:0|0:0,0:0:0:0:
265,277,165978,1,2,3:2:0:0:
316,257,166065,1,2,0:0:0:0:
343,209,166152,1,2,0:0:0:0:
344,154,166239,6,0,L|212:131,1,100,2|2,0:0|0:0,0:0:0:0:
365,87,166499,2,0,L|497:64,1,100,2|2,3:2|0:0,0:0:0:0:
349,354,166760,2,0,L|344:212,1,100,2|2,0:0|0:0,0:0:0:0:
400,245,166956,1,0,0:0:0:0:
454,237,167021,1,2,0:0:0:0:
322,197,167152,1,2,0:0:0:0:
45,267,167282,5,2,3:2:0:0:
58,158,167412,1,2,0:0:0:0:
134,78,167543,1,2,0:0:0:0:
242,59,167673,1,2,0:0:0:0:
368,107,167804,2,0,L|248:93,1,100,2|2,0:0|0:0,0:0:0:0:
144,107,168065,2,0,L|264:93,1,100,2|2,3:2|0:0,0:0:0:0:
474,245,168325,6,0,L|479:177,1,50,0|0,3:2|3:2,0:0:0:0:
214,238,168456,2,0,L|114:249,1,100,2|0,3:0|0:0,0:0:0:0:
354,314,168717,2,0,L|359:246,1,50,0|0,3:2|0:0,0:0:0:0:
84,270,168847,1,2,3:3:0:0:
72,154,168978,1,0,3:2:0:0:
319,97,169108,1,2,3:3:0:0:
194,74,169239,1,0,0:0:0:0:
440,216,169369,6,0,L|445:149,2,50,4|2|2,1:0|0:0|0:0,0:0:0:0:
196,144,169630,2,0,L|74:134,1,100,0|2,0:0|3:2,0:0:0:0:
316,144,169891,2,0,L|438:134,1,100,2|0,3:2|0:0,0:0:0:0:
198,296,170152,2,0,L|192:227,3,50,2|2|2|2,3:2|0:0|0:0|0:0,0:0:0:0:
385,198,170412,6,0,L|492:188,1,100,2|2,0:0|3:2,0:0:0:0:
246,263,170673,2,0,L|239:120,1,100,2|0,3:2|0:0,0:0:0:0:
479,91,170934,2,0,L|357:81,1,100,2|2,3:2|0:0,0:0:0:0:
140,203,171195,2,0,L|262:193,1,100,2|2,0:0|0:0,0:0:0:0:
465,332,171456,6,0,L|471:263,3,50,2|2|2|2,3:2|0:0|0:0|0:0,0:0:0:0:
262,314,171717,2,0,L|162:322,1,100,2|2,0:0|3:2,0:0:0:0:
411,162,171978,2,0,L|311:170,1,100,2|2,3:2|0:0,0:0:0:0:
47,332,172239,6,0,L|41:263,3,50,2|2|2|2,3:2|0:0|0:0|0:0,0:0:0:0:
250,314,172500,2,0,L|349:322,1,100,2|2,0:0|3:2,0:0:0:0:
101,162,172761,2,0,L|200:170,1,100,2|2,3:2|0:0,0:0:0:0:
417,114,173021,2,0,L|426:261,1,100,2|0,3:2|0:0,0:0:0:0:
200,176,173282,1,2,0:0:0:0:
335,179,173412,1,2,0:0:0:0:
114,275,173543,6,0,L|108:206,2,50,2|0|2,1:2|0:0|0:0,0:0:0:0:
375,325,173804,2,0,L|497:325,1,100,2|2,1:2|0:0,0:0:0:0:
257,190,174065,2,0,L|379:190,1,100,2|2,1:2|0:0,0:0:0:0:
140,89,174325,2,0,L|134:20,3,50,2|2|2|2,1:2|0:0|0:0|0:0,0:0:0:0:
426,97,174586,6,0,L|434:227,1,100,2|2,1:2|0:0,0:0:0:0:
183,273,174847,2,0,L|305:273,1,100,2|2,1:2|0:0,0:0:0:0:
86,97,175108,2,0,L|78:227,1,100,2|2,1:2|0:0,0:0:0:0:
329,273,175369,2,0,L|207:273,1,100,2|2,1:2|0:0,0:0:0:0:
449,278,175630,6,0,L|455:209,3,50,2|2|2|2,1:2|0:0|0:0|0:0,0:0:0:0:
232,118,175891,2,0,L|114:117,1,100,2|2,1:2|0:0,0:0:0:0:
378,205,176152,2,0,L|260:204,1,100,2|2,1:2|0:0,0:0:0:0:
63,278,176412,2,0,L|57:209,3,50,2|2|2|2,1:2|0:0|0:0|0:0,0:0:0:0:
310,96,176673,5,0,1:2:0:0:
423,154,176804,2,0,L|344:153,1,50,2|0,0:0|0:0,0:0:0:0:
179,161,176934,2,0,L|169:29,1,100,2|2,1:2|0:0,0:0:0:0:
301,65,177195,1,2,1:2:0:0:
62,164,177325,2,0,L|54:98,2,50,2|0|2,0:0|0:0|1:2,0:0:0:0:
189,162,177586,1,0,0:0:0:0:
454,258,177717,6,0,L|394:259,1,50,8|0,1:2|0:0,0:0:0:0:
337,188,177847,2,0,L|397:189,1,50,0|0,1:0|0:0,0:0:0:0:
455,258,177978,2,0,L|395:259,1,50,8|0,1:2|0:0,0:0:0:0:
338,188,178108,2,0,L|398:189,1,50,0|0,1:0|0:0,0:0:0:0:
456,258,178239,2,0,L|396:259,1,50,8|0,1:2|0:0,0:0:0:0:
339,188,178369,2,0,L|399:189,1,50,0|0,1:0|0:0,0:0:0:0:
457,258,178499,2,0,L|397:259,1,50,8|0,1:2|0:0,0:0:0:0:
340,188,178629,2,0,L|400:189,1,50,0|0,1:0|0:0,0:0:0:0:
228,244,178760,6,0,L|178:243,1,50,8|0,1:2|0:0,0:0:0:0:
246,314,178890,2,0,L|295:313,1,50,0|0,1:0|0:0,0:0:0:0:
227,244,179020,2,0,L|177:243,1,50,8|0,1:2|0:0,0:0:0:0:
245,314,179152,2,0,L|294:313,1,50
226,244,179281,2,0,L|176:243,1,50,8|0,1:2|0:0,0:0:0:0:
244,314,179412,2,0,L|293:313,1,50,0|0,1:0|0:0,0:0:0:0:
225,244,179542,2,0,L|175:243,1,50,8|0,1:2|0:0,0:0:0:0:
243,314,179673,2,0,L|292:313,1,50,0|0,1:0|0:0,0:0:0:0:
31,222,179804,6,0,L|91:223,1,50,8|0,1:2|0:0,0:0:0:0:
148,152,179934,2,0,L|88:153,1,50,0|0,1:0|0:0,0:0:0:0:
30,222,180065,2,0,L|90:223,1,50,8|0,1:2|0:0,0:0:0:0:
147,152,180195,2,0,L|87:153,1,50,0|0,1:0|0:0,0:0:0:0:
29,222,180326,2,0,L|89:223,1,50,8|0,1:2|0:0,0:0:0:0:
146,152,180456,2,0,L|86:153,1,50,0|0,1:0|0:0,0:0:0:0:
28,222,180586,2,0,L|88:223,1,50,8|0,1:2|0:0,0:0:0:0:
145,152,180717,2,0,L|85:153,1,50,0|0,1:0|0:0,0:0:0:0:
252,246,180847,6,0,L|308:245,1,50,8|0,1:2|0:0,0:0:0:0:
232,316,180977,2,0,L|178:315,1,50,0|0,1:0|0:0,0:0:0:0:
253,246,181107,2,0,L|309:245,1,50,8|0,1:2|0:0,0:0:0:0:
233,316,181239,2,0,L|179:315,1,50
255,246,181368,2,0,L|310:245,1,50,8|0,1:2|0:0,0:0:0:0:
235,316,181499,2,0,L|180:315,1,50,0|0,1:0|0:0,0:0:0:0:
256,246,181629,2,0,L|311:245,1,50,8|0,1:2|0:0,0:0:0:0:
236,316,181759,2,0,L|181:315,1,50,0|0,1:0|0:0,0:0:0:0:
396,329,181891,5,4,3:1:0:0:
424,316,181923,1,0,0:0:0:0:
444,291,181956,1,0,0:0:0:0:
448,259,181989,1,0,0:0:0:0:
440,228,182021,1,0,0:0:0:0:
424,199,182054,1,0,0:0:0:0:
396,183,182086,1,0,0:0:0:0:
274,183,182119,1,0,0:0:0:0:
122,331,182152,5,0,3:2:0:0:
94,318,182184,1,0,0:0:0:0:
74,293,182217,1,0,0:0:0:0:
70,261,182250,1,0,0:0:0:0:
78,230,182282,1,0,0:0:0:0:
94,201,182315,1,0,0:0:0:0:
122,185,182347,1,0,0:0:0:0:
240,183,182380,1,0,0:0:0:0:
415,329,182412,5,0,3:2:0:0:
445,316,182444,1,0,0:0:0:0:
466,291,182477,1,0,0:0:0:0:
470,259,182510,1,0,0:0:0:0:
461,228,182542,1,0,0:0:0:0:
445,199,182575,1,0,0:0:0:0:
415,183,182607,1,0,0:0:0:0:
281,183,182641,1,0,0:0:0:0:
97,329,182673,5,0,3:2:0:0:
67,316,182705,1,0,0:0:0:0:
46,291,182738,1,0,0:0:0:0:
42,259,182771,1,0,0:0:0:0:
51,228,182803,1,0,0:0:0:0:
67,199,182836,1,0,0:0:0:0:
97,183,182868,1,0,0:0:0:0:
231,183,182902,1,0,0:0:0:0:
438,325,182934,5,0,3:0:0:0:
469,312,182966,1,0,0:0:0:0:
491,287,182999,1,0,0:0:0:0:
496,255,183032,1,0,0:0:0:0:
487,224,183064,1,0,0:0:0:0:
469,195,183097,1,0,0:0:0:0:
438,179,183129,1,0,0:0:0:0:
289,182,183162,1,0,0:0:0:0:
74,325,183195,5,0,3:0:0:0:
43,312,183227,1,0,0:0:0:0:
21,287,183260,1,0,0:0:0:0:
16,255,183293,1,0,0:0:0:0:
25,224,183325,1,0,0:0:0:0:
43,195,183358,1,0,0:0:0:0:
74,179,183390,1,0,0:0:0:0:
223,182,183423,1,0,0:0:0:0:
454,321,183456,5,0,3:0:0:0:
485,308,183488,1,0,0:0:0:0:
507,283,183521,1,0,0:0:0:0:
511,251,183554,1,0,0:0:0:0:
502,220,183586,1,0,0:0:0:0:
485,191,183619,1,0,0:0:0:0:
454,175,183651,1,0,0:0:0:0:
295,182,183684,1,0,0:0:0:0:
58,321,183717,5,0,3:0:0:0:
27,308,183749,1,0,0:0:0:0:
5,283,183782,1,0,0:0:0:0:
1,251,183815,1,0,0:0:0:0:
10,220,183847,1,0,0:0:0:0:
27,191,183880,1,0,0:0:0:0:
58,175,183912,1,0,0:0:0:0:
217,182,183945,1,0,0:0:0:0:
403,275,183978,5,4,1:2:0:0:
428,274,184010,1,0,0:0:0:0:
403,275,184043,1,0,1:0:0:0:
257,277,184075,1,0,0:0:0:0:
109,275,184108,1,0,1:0:0:0:
84,274,184140,1,0,0:0:0:0:
109,275,184173,1,0,1:0:0:0:
255,277,184205,1,0,0:0:0:0:
417,275,184239,5,0,1:0:0:0:
443,274,184271,1,0,0:0:0:0:
417,275,184304,1,0,1:0:0:0:
257,277,184336,1,0,0:0:0:0:
94,275,184369,1,0,1:0:0:0:
68,274,184401,1,0,0:0:0:0:
94,275,184434,1,0,1:0:0:0:
254,277,184466,1,0,0:0:0:0:
432,275,184499,5,0,1:0:0:0:
460,274,184531,1,0,0:0:0:0:
432,275,184564,1,0,1:0:0:0:
257,277,184596,1,0,0:0:0:0:
80,275,184629,1,0,1:0:0:0:
52,274,184661,1,0,0:0:0:0:
80,275,184694,1,0,1:0:0:0:
254,277,184728,1,0,0:0:0:0:
448,275,184760,5,0,1:0:0:0:
477,274,184792,1,0,0:0:0:0:
448,275,184825,1,0,1:0:0:0:
257,277,184857,1,0,0:0:0:0:
63,275,184890,1,0,1:0:0:0:
34,274,184922,1,0,0:0:0:0:
63,275,184955,1,0,1:0:0:0:
254,277,184989,1,0,0:0:0:0:
432,142,185021,5,0,1:0:0:0:
454,141,185037,1,0,0:0:0:0:
430,141,185054,1,0,0:0:0:0:
407,141,185070,1,0,0:0:0:0:
278,198,185086,1,0,1:0:0:0:
263,198,185103,1,0,0:0:0:0:
247,198,185119,1,0,0:0:0:0:
232,198,185135,1,0,0:0:0:0:
80,142,185152,1,0,1:0:0:0:
58,141,185168,1,0,0:0:0:0:
82,141,185185,1,0,0:0:0:0:
105,141,185201,1,0,0:0:0:0:
233,198,185217,1,0,1:0:0:0:
248,198,185234,1,0,0:0:0:0:
264,198,185250,1,0,0:0:0:0:
279,198,185266,1,0,0:0:0:0:
449,142,185282,5,0,1:0:0:0:
473,141,185298,1,0,0:0:0:0:
447,141,185315,1,0,0:0:0:0:
422,141,185331,1,0,0:0:0:0:
280,198,185347,1,0,1:0:0:0:
263,198,185364,1,0,0:0:0:0:
246,198,185380,1,0,0:0:0:0:
229,198,185396,1,0,0:0:0:0:
62,142,185413,1,0,1:0:0:0:
38,141,185429,1,0,0:0:0:0:
64,141,185446,1,0,0:0:0:0:
89,141,185462,1,0,0:0:0:0:
230,198,185478,1,0,1:0:0:0:
247,198,185495,1,0,0:0:0:0:
264,198,185511,1,0,0:0:0:0:
281,198,185527,1,0,0:0:0:0:
473,86,185543,6,0,L|472:224,1,115.000002193451,4|8,0:1|0:0,0:0:0:0:
193,209,185804,2,0,L|129:210,1,57.5000010967255,12|0,0:2|0:0,0:0:0:0:
327,119,185934,2,0,L|385:120,1,57.5000010967255
50,348,186065,5,4,1:0:0:0:
300,346,186195,1,0,1:0:0:0:
50,348,186325,2,0,L|194:347,1,119.999996337891,8|2,1:2|0:2,0:0:0:0:
461,232,186586,2,0,L|317:231,1,119.999996337891,0|2,1:0|0:2,0:0:0:0:
48,234,186847,1,8,1:2:0:0:
129,232,186934,1,2,0:2:0:0:
291,229,187021,1,2,0:2:0:0:
46,151,187108,6,0,L|46:9,1,119.999996337891,0|2,1:0|0:2,0:0:0:0:
316,120,187369,2,0,L|168:120,1,119.999996337891,8|2,1:2|0:2,0:0:0:0:
466,151,187630,2,0,L|466:9,1,119.999996337891,0|0,1:0|0:0,0:0:0:0:
223,33,187891,1,8,1:2:0:0:
465,31,188021,1,2,0:2:0:0:
197,258,188152,6,0,L|49:258,1,119.999996337891,0|2,1:0|0:2,0:0:0:0:
315,258,188412,2,0,L|463:258,1,119.999996337891,8|2,1:2|0:2,0:0:0:0:
155,173,188673,2,0,L|155:31,1,119.999996337891,0|2,1:0|0:2,0:0:0:0:
397,137,188934,1,8,1:2:0:0:
316,136,189021,1,0,0:0:0:0:
397,137,189108,1,0,0:0:0:0:
104,276,189195,6,0,L|105:138,1,119.999996337891,0|2,1:0|0:2,0:0:0:0:
224,157,189456,2,0,L|81:155,1,119.999996337891,8|2,1:2|0:2,0:0:0:0:
408,276,189717,2,0,L|407:138,1,119.999996337891,0|2,1:0|0:2,0:0:0:0:
287,157,189978,2,0,L|430:155,1,119.999996337891,8|2,1:2|0:2,0:0:0:0:
278,190,190239,5,0,1:2:0:0:
102,187,190304,2,0,L|102:337,1,119.999996337891,0|0,1:0|1:0,0:0:0:0:
293,289,190499,2,0,L|452:289,1,119.999996337891,12|2,1:2|0:2,0:0:0:0:
52,92,190760,2,0,L|172:92,1,119.999996337891,0|2,1:0|0:2,0:0:0:0:
464,234,191021,1,8,1:2:0:0:
385,231,191108,1,2,0:2:0:0:
220,229,191195,1,2,0:2:0:0:
466,151,191282,6,0,L|466:9,1,119.999996337891,0|2,1:0|0:2,0:0:0:0:
197,123,191543,2,0,L|348:122,1,119.999996337891,8|2,1:2|0:2,0:0:0:0:
46,151,191804,2,0,L|46:9,1,119.999996337891,0|0,1:0|0:0,0:0:0:0:
281,179,192065,1,8,1:2:0:0:
46,151,192195,1,2,0:2:0:0:
282,269,192325,6,0,L|146:269,1,119.999996337891,0|2,1:0|0:2,0:0:0:0:
448,187,192586,2,0,L|448:59,1,119.999996337891,8|2,1:2|0:2,0:0:0:0:
157,97,192847,2,0,L|307:98,1,119.999996337891,0|2,1:0|0:2,0:0:0:0:
150,181,193108,2,0,L|12:180,1,119.999996337891,8|2,1:2|0:2,0:0:0:0:
347,269,193369,5,0,1:0:0:0:
217,272,193499,2,0,L|276:272,1,59.9999981689454,2|2,0:2|0:2,0:0:0:0:
452,353,193630,2,0,L|333:353,1,119.999996337891,8|2,1:2|0:2,0:0:0:0:
101,351,193891,1,0,1:0:0:0:
336,230,194021,2,0,L|336:144,1,59.9999981689454,2|2,0:2|0:2,0:0:0:0:
154,204,194152,2,0,L|34:204,1,119.999996337891,8|2,1:2|0:2,0:0:0:0:
464,309,194412,6,0,L|465:151,1,119.999996337891,4|2,1:0|0:2,0:0:0:0:
196,73,194673,2,0,L|339:72,1,119.999996337891,8|2,1:2|0:2,0:0:0:0:
32,233,194934,2,0,L|169:231,1,119.999996337891,0|2,1:0|0:2,0:0:0:0:
464,234,195195,1,8,1:2:0:0:
384,234,195282,1,2,0:2:0:0:
222,229,195369,1,2,0:2:0:0:
466,151,195456,6,0,L|466:9,1,119.999996337891,0|2,1:0|0:2,0:0:0:0:
183,117,195717,2,0,L|324:118,1,119.999996337891,8|2,1:2|0:2,0:0:0:0:
46,151,195978,2,0,L|46:9,1,119.999996337891,0|2,1:0|0:2,0:0:0:0:
185,33,196239,1,8,1:2:0:0:
432,34,196369,1,2,0:2:0:0:
179,218,196499,6,0,L|33:218,1,119.999996337891,0|2,1:0|0:2,0:0:0:0:
333,218,196760,2,0,L|479:218,1,119.999996337891,8|2,1:2|0:2,0:0:0:0:
179,218,197021,2,0,L|179:358,1,119.999996337891,0|2,1:0|0:2,0:0:0:0:
321,340,197282,1,8,1:2:0:0:
401,340,197369,1,0,0:0:0:0:
321,340,197456,1,0,0:0:0:0:
93,300,197543,6,0,L|94:146,1,119.999996337891,0|2,1:0|0:2,0:0:0:0:
328,92,197804,2,0,L|171:89,1,119.999996337891,8|2,1:2|0:2,0:0:0:0:
419,300,198065,2,0,L|418:146,1,119.999996337891,0|2,1:0|0:2,0:0:0:0:
163,237,198325,2,0,L|6:234,1,119.999996337891,8|2,1:2|0:2,0:0:0:0:
472,338,198586,6,0,L|472:210,1,119.999996337891,4|2,1:0|0:3,0:0:0:0:
257,193,198847,1,8,0:2:0:0:
46,191,198978,2,0,L|46:54,1,119.999996337891,0|2,1:0|0:3,0:0:0:0:
178,68,199239,1,0,1:0:0:0:
472,211,199369,2,0,P|409:199|334:218,1,119.999996337891,8|0,0:2|0:0,0:0:0:0:
40,338,199630,6,0,L|40:210,1,119.999996337891,4|2,1:2|0:3,0:0:0:0:
255,193,199891,1,8,0:2:0:0:
466,191,200022,2,0,L|466:54,1,119.999996337891,0|2,1:0|0:3,0:0:0:0:
177,74,200283,1,0,1:0:0:0:
467,70,200413,2,0,P|408:61|349:73,1,119.999996337891,8|2,0:2|0:0,0:0:0:0:
44,327,200673,6,0,L|46:198,1,119.999996337891,4|2,1:0|0:0,0:0:0:0:
114,210,200869,1,0,1:0:0:0:
307,284,200934,2,0,L|307:110,1,119.999996337891,0|0,1:0|1:0,0:0:0:0:
243,145,201130,1,0,0:0:0:0:
369,224,201195,2,0,L|497:224,1,119.999996337891,4|2,1:2|0:0,0:0:0:0:
344,222,201391,1,0,1:0:0:0:
143,224,201456,2,0,L|15:224,1,119.999996337891,0|0,1:0|1:0,0:0:0:0:
250,225,201652,1,0,0:0:0:0:
462,361,201717,6,0,L|461:277,1,59.9999981689454,12|8,1:2|1:2,0:0:0:0:
291,119,201847,2,0,L|208:118,1,59.9999981689454,8|8,1:2|1:2,0:0:0:0:
26,142,201978,2,0,L|27:218,1,59.9999981689454,12|8,1:2|1:2,0:0:0:0:
95,231,202108,2,0,L|7:232,1,59.9999981689454,8|8,1:2|1:2,0:0:0:0:
251,327,202239,6,0,L|329:329,1,59.9999981689454,14|10,1:2|1:2,0:0:0:0:
99,322,202369,2,0,L|21:324,1,59.9999981689454,10|10,1:2|1:2,0:0:0:0:
254,241,202499,2,0,L|402:240,1,119.999996337891,14|10,1:2|1:2,0:0:0:0:
306,201,202695,1,10,1:2:0:0:
156,346,202760,6,0,L|21:346,1,119.999996337891,4|0,1:0|0:0,0:0:0:0:
257,288,203021,1,8,1:2:0:0:
374,290,203054,1,0,0:0:0:0:
473,295,203152,1,2,0:0:0:0:
169,305,203282,6,0,L|34:305,1,119.999996337891,0|2,1:0|0:0,0:0:0:0:
270,247,203543,1,8,1:2:0:0:
387,249,203576,1,0,0:0:0:0:
486,254,203674,1,2,0:0:0:0:
169,305,203804,6,0,L|34:305,1,119.999996337891,0|2,1:0|0:0,0:0:0:0:
343,305,204065,2,0,L|478:305,1,119.999996337891,8|2,1:2|0:0,0:0:0:0:
229,249,204325,2,0,L|229:102,1,119.999996337891,0|2,1:0|0:0,0:0:0:0:
299,130,204521,1,0,0:0:0:0:
157,205,204586,2,0,L|25:207,1,119.999996337891,8|2,1:2|0:0,0:0:0:0:
205,205,204782,1,0,0:0:0:0:
356,346,204847,6,0,L|491:346,1,119.999996337891,4|0,1:2|0:0,0:0:0:0:
255,288,205108,1,8,1:2:0:0:
138,290,205141,1,0,0:0:0:0:
39,295,205239,1,2,0:0:0:0:
343,305,205369,6,0,L|478:305,1,119.999996337891,0|2,1:0|0:0,0:0:0:0:
242,247,205630,1,8,1:2:0:0:
125,249,205663,1,0,0:0:0:0:
26,254,205761,1,2,0:0:0:0:
328,264,205891,6,0,L|463:264,1,119.999996337891,0|2,1:0|0:0,0:0:0:0:
195,133,206152,2,0,L|330:133,1,119.999996337891,8|2,1:2|0:0,0:0:0:0:
71,137,206412,2,0,L|71:220,1,59.9999981689454,0|0,1:0|0:0,0:0:0:0:
242,236,206543,2,0,L|143:235,1,59.9999981689454,2|0,0:0|0:0,0:0:0:0:
335,335,206673,2,0,L|475:336,1,119.999996337891,8|2,1:2|0:0,0:0:0:0:
184,321,206934,5,0,1:0:0:0:
85,297,207065,1,0,3:0:0:0:
63,195,207195,1,0,0:0:0:0:
85,102,207325,1,0,3:0:0:0:
338,204,207456,2,0,L|471:199,1,119.999996337891,8|0,3:2|0:0,0:0:0:0:
234,300,207717,1,0,1:0:0:0:
134,262,207847,1,0,3:0:0:0:
100,167,207978,5,0,0:0:0:0:
138,79,208108,1,0,3:0:0:0:
409,273,208239,2,0,L|423:97,1,119.999996337891,0|0,1:0|0:0,0:0:0:0:
142,140,208499,1,8,3:2:0:0:
429,203,208630,2,0,P|419:124|282:58,1,239.999992675781,0|0,3:0|3:0,0:0:0:0:
52,237,209021,6,0,L|178:225,1,119.999996337891,0|2,1:0|0:0,0:0:0:0:
407,304,209282,1,0,3:0:0:0:
105,143,209412,2,0,L|244:126,2,119.999996337891,2|8|2,0:0|3:2|0:0,0:0:0:0:
460,237,209804,6,0,L|334:225,1,119.999996337891,0|2,1:0|0:0,0:0:0:0:
105,304,210065,1,0,3:0:0:0:
407,143,210195,2,0,L|268:126,2,119.999996337891,2|0|2,0:0|1:0|0:0,0:0:0:0:
111,116,210586,2,0,L|105:262,1,119.999996337891,8|2,3:2|0:0,0:0:0:0:
401,116,210847,2,0,L|407:262,1,119.999996337891,2|2,0:0|0:0,0:0:0:0:
156,346,211108,6,0,L|21:346,1,119.999996337891,4|0,1:0|0:0,0:0:0:0:
257,288,211369,1,8,1:2:0:0:
374,290,211402,1,0,0:0:0:0:
473,295,211500,1,2,0:0:0:0:
169,305,211630,6,0,L|34:305,1,119.999996337891,0|2,1:0|0:0,0:0:0:0:
270,247,211891,1,8,1:2:0:0:
387,249,211924,1,0,0:0:0:0:
486,254,212022,1,2,0:0:0:0:
158,253,212152,6,0,L|25:252,1,119.999996337891,0|2,1:0|0:0,0:0:0:0:
324,107,212412,2,0,L|180:106,1,119.999996337891,8|0,1:2|0:0,0:0:0:0:
456,343,212673,2,0,L|455:193,1,119.999996337891,0|2,1:0|0:0,0:0:0:0:
384,218,212869,1,0,0:0:0:0:
174,215,212934,2,0,L|40:216,1,119.999996337891,8|2,1:2|0:0,0:0:0:0:
205,300,213130,1,0,0:0:0:0:
356,346,213195,6,0,L|491:346,1,119.999996337891,4|2,1:2|0:0,0:0:0:0:
255,288,213456,1,8,1:2:0:0:
138,290,213489,1,0,0:0:0:0:
39,295,213587,1,2,0:0:0:0:
343,305,213717,6,0,L|478:305,1,119.999996337891,0|2,1:0|0:0,0:0:0:0:
242,247,213978,1,8,1:2:0:0:
125,249,214011,1,0,0:0:0:0:
26,254,214109,1,2,0:0:0:0:
392,254,214239,6,0,L|392:117,1,119.999996337891,0|2,1:0|0:0,0:0:0:0:
126,171,214499,2,0,L|-2:170,1,119.999996337891,8|2,1:2|0:0,0:0:0:0:
241,304,214760,2,0,L|147:302,1,59.9999981689454,0|0,1:0|0:0,0:0:0:0:
359,151,214891,2,0,L|451:150,1,59.9999981689454,2|0,0:0|0:0,0:0:0:0:
238,74,215021,2,0,L|75:72,1,119.999996337891,8|2,1:2|0:0,0:0:0:0:
364,331,215282,5,0,1:0:0:0:
464,294,215412,1,0,3:0:0:0:
498,200,215543,1,0,0:0:0:0:
463,109,215673,1,0,3:0:0:0:
174,216,215804,2,0,L|19:218,1,119.999996337891,8|0,3:2|0:0,0:0:0:0:
399,241,216065,5,0,1:0:0:0:
389,150,216195,1,0,3:0:0:0:
310,66,216325,1,0,0:0:0:0:
181,44,216456,1,0,3:0:0:0:
455,153,216586,2,0,L|455:313,1,119.999996337891,0|0,1:0|0:0,0:0:0:0:
153,215,216847,1,8,3:2:0:0:
452,353,216978,2,0,P|373:325|465:255,1,239.999992675781,0|0,3:0|3:0,0:0:0:0:
153,174,217369,5,0,1:0:0:0:
256,192,217499,12,0,218282,0:0:0:0:
226,191,218412,6,0,L|286:191,1,59.9999981689454,0|0,3:2|3:2,0:0:0:0:
422,99,218543,1,2,3:0:0:0:
190,108,218673,1,0,0:0:0:0:
70,107,218804,1,0,3:2:0:0:
468,292,218934,2,0,L|328:291,3,119.999996337891,2|0|2|0,3:3|3:2|3:3|0:0,0:0:0:0:
194,343,219456,6,0,P|128:313|219:216,1,239.999992675781,0|4,0:0|1:0,0:0:0:0:
433,211,219847,1,0,1:0:0:0:
229,135,220108,5,0,1:0:0:0:
469,129,220239,1,0,1:0:0:0:
328,272,220499,5,0,1:0:0:0:
328,272,220695,1,0,1:0:0:0:
128,272,220760,1,0,1:0:0:0:
252,272,220891,1,0,1:0:0:0:
53,275,221086,5,0,1:0:0:0:
252,189,221282,1,0,1:0:0:0:
51,188,221412,1,0,1:0:0:0:
252,119,221543,5,0,1:0:0:0:
492,113,221674,1,0,1:0:0:0:
252,119,221934,5,0,1:0:0:0:
492,113,222065,1,0,1:0:0:0:
333,117,222260,5,0,1:0:0:0:
492,113,222456,1,0,1:0:0:0:
200,212,222652,1,0,1:0:0:0:
359,208,222847,5,0,1:0:0:0:
229,206,222978,1,0,1:0:0:0:
459,352,223108,5,4,1:2:0:0:
502,339,223124,1,0,0:0:0:0:
467,352,223141,1,0,0:0:0:0:
493,339,223157,1,0,0:0:0:0:
459,352,223173,1,0,0:0:0:0:
502,339,223189,1,0,0:0:0:0:
467,352,223206,1,0,0:0:0:0:
493,339,223222,1,0,0:0:0:0:
459,352,223239,1,0,0:0:0:0:
502,339,223255,1,0,0:0:0:0:
467,352,223272,1,0,0:0:0:0:
493,339,223288,1,0,0:0:0:0:
459,352,223304,1,0,0:0:0:0:
502,339,223320,1,0,0:0:0:0:
467,352,223337,1,0,0:0:0:0:
493,339,223353,1,0,0:0:0:0:
459,352,223369,1,0,0:0:0:0:
502,339,223385,1,0,0:0:0:0:
467,352,223402,1,0,0:0:0:0:
493,339,223418,1,0,0:0:0:0:
459,352,223434,1,0,0:0:0:0:
502,339,223450,1,0,0:0:0:0:
467,352,223467,1,0,0:0:0:0:
493,339,223483,1,0,0:0:0:0:
459,352,223500,1,0,0:0:0:0:
502,339,223516,1,0,0:0:0:0:
467,352,223533,1,0,0:0:0:0:
493,339,223549,1,0,0:0:0:0:
459,352,223565,1,0,0:0:0:0:
493,339,223581,1,0,0:0:0:0:
459,352,223597,1,0,0:0:0:0:
314,284,223630,6,0,L|226:276,1,59.9999981689454,4|0,1:0|1:0,0:0:0:0:
424,163,223760,2,0,L|509:154,1,59.9999981689454,0|0,1:0|1:0,0:0:0:0:
262,83,223891,1,0,1:0:0:0:
248,178,224086,5,0,1:0:0:0:
39,177,224151,1,0,1:0:0:0:
148,178,224282,1,0,1:0:0:0:
474,252,224543,5,0,1:0:0:0:
153,246,224673,1,0,1:0:0:0:
273,250,224804,1,0,1:0:0:0:
426,337,225065,5,0,1:0:0:0:
221,341,225130,1,0,1:0:0:0:
162,342,225195,1,0,1:0:0:0:
426,337,225391,1,0,1:0:0:0:
162,342,225586,1,0,1:0:0:0:
41,259,225847,5,0,1:0:0:0:
284,254,225978,1,0,1:0:0:0:
41,259,226108,1,0,1:0:0:0:
143,333,226369,1,0,1:0:0:0:
386,328,226499,1,0,1:0:0:0:
247,253,226760,1,0,1:0:0:0:
490,258,226890,1,0,1:0:0:0:
331,255,227086,1,0,1:0:0:0:
57,323,227282,6,0,B|358:325|358:325|422:52,2,450.000017166138,6|6|6,0:2|0:2|0:2,0:0:0:0:
394,284,227804,5,0,1:0:0:0:
447,263,227869,1,0,1:0:0:0:
462,207,227934,1,0,1:0:0:0:
439,147,227999,1,0,1:0:0:0:
237,137,228065,5,0,1:0:0:0:
13,136,228195,1,0,1:0:0:0:
161,260,228456,1,0,1:0:0:0:
385,259,228586,1,0,1:0:0:0:
256,351,228847,5,0,1:0:0:0:
256,224,229044,1,0,1:0:0:0:
445,198,229109,1,0,1:0:0:0:
320,170,229239,1,0,1:0:0:0:
113,248,229434,5,0,1:0:0:0:
258,268,229630,1,0,1:0:0:0:
33,348,229760,1,0,1:0:0:0:
254,268,229891,5,0,1:0:0:0:
479,348,230021,1,0,1:0:0:0:
363,211,230282,1,0,1:0:0:0:
138,291,230412,5,0,1:0:0:0:
416,289,230608,1,0,1:0:0:0:
138,291,230804,1,0,1:0:0:0:
416,289,230999,1,0,1:0:0:0:
45,290,231195,5,0,1:0:0:0:
173,287,231325,1,0,1:0:0:0:
457,350,231456,5,4,1:2:0:0:
493,334,231472,1,0,0:0:0:0:
468,322,231489,1,0,0:0:0:0:
457,302,231505,1,0,0:0:0:0:
492,318,231521,1,0,0:0:0:0:
457,302,231537,1,0,0:0:0:0:
481,289,231554,1,0,0:0:0:0:
493,269,231570,1,0,0:0:0:0:
457,350,231586,1,0,0:0:0:0:
493,334,231603,1,0,0:0:0:0:
468,322,231619,1,0,0:0:0:0:
457,302,231635,1,0,0:0:0:0:
492,318,231651,1,0,0:0:0:0:
457,302,231667,1,0,0:0:0:0:
481,289,231684,1,0,0:0:0:0:
493,269,231700,1,0,0:0:0:0:
457,350,231717,1,0,0:0:0:0:
493,334,231733,1,0,0:0:0:0:
468,322,231750,1,0,0:0:0:0:
457,302,231766,1,0,0:0:0:0:
492,318,231782,1,0,0:0:0:0:
457,302,231798,1,0,0:0:0:0:
481,289,231815,1,0,0:0:0:0:
493,269,231831,1,0,0:0:0:0:
457,350,231847,1,0,0:0:0:0:
493,334,231864,1,0,0:0:0:0:
468,322,231880,1,0,0:0:0:0:
457,302,231896,1,0,0:0:0:0:
492,318,231912,1,0,0:0:0:0:
457,302,231928,1,0,0:0:0:0:
481,289,231945,1,0,0:0:0:0:
308,252,231978,5,0,1:0:0:0:
254,251,232043,1,0,1:0:0:0:
436,140,232108,1,0,1:0:0:0:
490,138,232173,1,0,1:0:0:0:
310,81,232239,1,0,1:0:0:0:
202,171,232434,5,0,1:0:0:0:
386,171,232499,1,0,1:0:0:0:
450,230,232630,5,0,1:0:0:0:
280,224,232695,1,0,1:0:0:0:
191,301,232825,5,0,1:0:0:0:
254,305,232891,1,0,1:0:0:0:
465,310,232956,1,0,1:0:0:0:
463,194,233086,1,0,1:0:0:0:
400,198,233152,1,0,1:0:0:0:
189,203,233217,1,0,1:0:0:0:
198,235,233347,5,0,1:0:0:0:
374,180,233412,1,0,1:0:0:0:
319,180,233478,1,0,1:0:0:0:
262,181,233543,1,0,1:0:0:0:
95,183,233608,1,0,1:0:0:0:
154,182,233673,1,0,1:0:0:0:
376,283,233739,1,0,1:0:0:0:
279,309,233869,5,0,1:0:0:0:
85,306,233934,1,0,1:0:0:0:
85,306,233999,1,0,1:0:0:0:
279,309,234065,1,0,1:0:0:0:
256,192,234195,12,12,235891,1:2:0:0:
228,273,236152,6,0,P|246:187|349:134,1,191.666670322418,4|0,1:0|0:0,0:0:0:0:
152,147,236456,1,0,0:0:0:0:
391,239,236543,1,0,0:0:0:0:
505,239,236717,1,0,0:0:0:0:
170,290,236934,2,0,L|79:292,1,59.9999981689454,12|0,1:2|0:0,0:0:0:0:
342,290,237065,2,0,L|433:292,1,59.9999981689454,8|0,1:2|0:0,0:0:0:0:
147,351,237195,5,0,1:0:0:0:
88,345,237260,1,0,0:0:0:0:
48,302,237325,1,0,0:0:0:0:
47,243,237390,1,0,1:0:0:0:
85,198,237455,1,8,1:2:0:0:
143,190,237521,1,0,0:0:0:0:
329,89,237586,6,0,L|228:90,1,59.9999981689454,0|0,1:2|0:0,0:0:0:0:
440,268,237717,2,0,L|439:180,1,59.9999981689454,0|0,0:0|1:0,0:0:0:0:
271,205,237847,2,0,L|181:206,1,59.9999981689454,0|0,1:2|0:0,0:0:0:0:
386,250,237978,5,8,1:2:0:0:
442,237,238043,1,0,0:0:0:0:
473,187,238108,1,0,0:0:0:0:
458,130,238173,1,0,0:0:0:0:
246,134,238239,6,0,L|180:134,1,59.9999981689454,0|0,1:0|0:0,0:0:0:0:
261,55,238369,2,0,L|372:55,1,59.9999981689454,0|0,0:0|1:0,0:0:0:0:
145,280,238499,6,0,L|144:204,1,59.9999981689454,8|0,1:2|0:0,0:0:0:0:
337,205,238630,1,0,1:2:0:0:
393,192,238695,1,0,0:0:0:0:
424,142,238760,1,0,0:0:0:0:
409,85,238825,1,0,1:0:0:0:
236,298,238891,6,0,L|146:297,1,59.9999981689454,0|0,1:0|0:0,0:0:0:0:
336,267,239021,1,8,1:2:0:0:
362,205,239086,1,0,0:0:0:0:
335,140,239152,1,0,0:0:0:0:
270,126,239217,1,0,1:0:0:0:
88,212,239282,6,0,L|88:129,1,59.9999981689454,0|0,1:0|0:0,0:0:0:0:
232,119,239412,2,0,L|292:119,1,59.9999981689454
437,226,239543,2,0,L|437:143,1,59.9999981689454,8|0,1:2|0:0,0:0:0:0:
212,195,239673,6,0,L|279:195,1,59.9999981689454,0|0,1:0|0:0,0:0:0:0:
486,147,239804,2,0,L|426:147,1,59.9999981689454,8|0,1:2|0:0,0:0:0:0:
206,86,239934,2,0,L|266:86,1,59.9999981689454,0|0,1:2|0:0,0:0:0:0:
460,240,240065,5,0,1:0:0:0:
256,247,240195,1,0,0:0:0:0:
42,313,240325,6,0,P|60:227|163:174,1,199.999993896485,4|0,1:0|1:0,0:0:0:0:
336,175,240629,1,0,2:0:0:0:
261,174,240716,1,0,1:0:0:0:
28,174,240890,1,0,0:0:0:0:
396,301,241108,6,0,L|492:301,1,59.9999981689454,8|0,1:2|0:0,0:0:0:0:
224,256,241239,2,0,L|135:254,1,59.9999981689454,0|0,1:0|0:0,0:0:0:0:
398,121,241369,6,0,L|398:210,1,59.9999981689454,0|0,1:0|0:0,0:0:0:0:
331,209,241499,2,0,L|412:209,1,59.9999981689454,0|0,0:0|1:0,0:0:0:0:
219,110,241630,2,0,L|116:110,1,59.9999981689454,8|0,1:2|0:0,0:0:0:0:
321,309,241760,2,0,L|432:308,1,59.9999981689454,0|0,1:0|0:0,0:0:0:0:
115,124,241891,6,0,L|115:213,1,59.9999981689454,0|0,0:0|1:0,0:0:0:0:
182,210,242021,2,0,L|101:210,1,59.9999981689454,0|0,1:0|0:0,0:0:0:0:
294,111,242152,2,0,L|397:111,1,59.9999981689454,8|0,1:2|0:0,0:0:0:0:
191,309,242282,2,0,L|80:308,1,59.9999981689454
370,224,242412,6,0,L|370:322,1,59.9999981689454,0|0,1:0|0:0,0:0:0:0:
302,312,242543,2,0,L|383:312,1,59.9999981689454,0|0,0:0|1:0,0:0:0:0:
176,357,242673,2,0,L|178:271,1,59.9999981689454,8|0,1:2|0:0,0:0:0:0:
333,146,242804,2,0,L|420:146,1,59.9999981689454,0|0,1:0|0:0,0:0:0:0:
142,224,242934,6,0,L|142:322,1,59.9999981689454,0|0,0:0|1:0,0:0:0:0:
209,311,243065,2,0,L|128:311,1,59.9999981689454,0|0,1:0|0:0,0:0:0:0:
355,358,243195,2,0,L|353:272,1,59.9999981689454,8|0,1:2|0:0,0:0:0:0:
157,147,243326,2,0,L|70:147,1,59.9999981689454,0|0,0:0|1:0,0:0:0:0:
327,223,243456,6,0,L|436:223,1,59.9999981689454,0|0,1:0|0:0,0:0:0:0:
99,349,243586,2,0,L|99:269,1,59.9999981689454,0|0,1:0|0:0,0:0:0:0:
249,277,243717,2,0,L|249:197,1,59.9999981689454,8|0,1:2|1:0,0:0:0:0:
97,207,243847,2,0,L|97:127,1,59.9999981689454,0|0,1:0|0:0,0:0:0:0:
467,144,243978,5,8,1:2:0:0:
254,142,244108,1,0,0:0:0:0:
43,145,244239,2,0,L|43:295,1,119.999996337891,0|0,1:0|0:0,0:0:0:0:
352,239,244499,6,0,L|489:242,1,119.999996337891,0|0,1:0|0:0,0:0:0:0:
203,181,244760,1,12,1:2:0:0:
472,170,244891,1,0,1:0:0:0:
160,239,245021,2,0,L|23:242,1,119.999996337891,0|0,0:0|1:0,0:0:0:0:
248,335,245282,6,0,L|255:245,3,59.9999981689454,8|0|2|2,1:2|0:0|1:3|0:3,0:0:0:0:
435,264,245543,2,0,L|442:174,3,59.9999981689454,2|2|2|2,1:3|0:3|0:3|1:3,0:0:0:0:
264,335,245804,6,0,L|257:245,3,59.9999981689454,8|2|2|2,1:2|0:3|1:3|0:3,0:0:0:0:
77,264,246065,2,0,L|70:174,3,59.9999981689454,2|2|2|2,0:3|1:3|1:3|0:3,0:0:0:0:
248,335,246325,6,0,L|255:245,3,59.9999981689454,8|2|2|2,1:2|0:3|1:3|0:3,0:0:0:0:
448,231,246586,5,2,1:3:0:0:
152,232,246717,1,2,0:2:0:0:
450,149,246847,1,10,1:2:0:0:
317,151,246978,1,2,1:2:0:0:
62,149,247108,5,2,0:2:0:0:
332,152,247239,1,2,1:2:0:0:
62,149,247369,1,10,1:2:0:0:
185,149,247499,1,2,0:2:0:0:
450,149,247630,5,2,1:2:0:0:
205,151,247761,1,2,1:2:0:0:
450,149,247891,1,10,1:2:0:0:
327,149,248021,1,2,1:2:0:0:
59,359,248152,6,0,L|59:223,1,119.999996337891,2|0,1:2|0:0,0:0:0:0:
453,359,248412,2,0,L|453:223,1,119.999996337891,8|0,1:2|0:0,0:0:0:0:
156,74,248673,6,0,L|25:76,1,119.999996337891,4|0,1:0|3:2,0:0:0:0:
287,160,248934,2,0,L|148:159,1,119.999996337891,0|8,0:0|3:2,0:0:0:0:
433,164,249195,5,0,1:0:0:0:
169,275,249325,2,0,L|40:274,1,119.999996337891,0|8,0:0|3:2,0:0:0:0:
374,281,249586,2,0,L|466:280,1,59.9999981689454
257,198,249717,6,0,L|128:197,1,119.999996337891,0|0,1:0|3:0,0:0:0:0:
429,106,249978,2,0,L|510:106,2,59.9999981689454,0|0|8,0:0|0:0|3:2,0:0:0:0:
193,289,250239,6,0,L|322:288,1,119.999996337891,0|0,1:2|0:0,0:0:0:0:
83,106,250500,2,0,L|2:106,2,59.9999981689454,8|0|0,3:2|0:0|0:0,0:0:0:0:
476,217,250760,5,0,1:0:0:0:
257,220,250891,1,0,3:0:0:0:
30,226,251021,2,0,L|169:224,1,119.999996337891,0|8,0:0|3:2,0:0:0:0:
472,316,251282,6,0,L|334:313,1,119.999996337891,0|0,1:0|0:0,0:0:0:0:
83,106,251543,2,0,L|2:106,2,59.9999981689454,8|0|0,3:2|0:0|0:0,0:0:0:0:
425,231,251804,5,0,1:0:0:0:
300,231,251934,1,0,3:0:0:0:
65,236,252065,1,0,0:0:0:0:
300,231,252195,1,8,3:2:0:0:
56,195,252325,5,0,1:0:0:0:
56,195,252342,1,0,0:0:0:0:
54,353,252357,1,0,0:0:0:0:
57,353,252374,1,0,0:0:0:0:
42,332,252390,1,0,0:0:0:0:
69,332,252407,1,0,0:0:0:0:
34,306,252422,1,0,0:0:0:0:
77,306,252439,1,0,0:0:0:0:
31,276,252455,1,0,0:0:0:0:
80,276,252472,1,0,0:0:0:0:
34,247,252488,1,0,0:0:0:0:
77,247,252505,1,0,0:0:0:0:
41,220,252520,1,0,0:0:0:0:
70,220,252537,1,0,0:0:0:0:
56,113,252554,1,0,0:0:0:0:
56,113,252570,1,0,0:0:0:0:
56,195,252586,1,0,0:0:0:0:
56,195,252603,1,0,0:0:0:0:
54,353,252618,1,0,0:0:0:0:
57,353,252635,1,0,0:0:0:0:
42,332,252651,1,0,0:0:0:0:
69,332,252668,1,0,0:0:0:0:
34,306,252683,1,0,0:0:0:0:
77,306,252700,1,0,0:0:0:0:
31,276,252716,1,0,0:0:0:0:
80,276,252733,1,0,0:0:0:0:
34,247,252749,1,0,0:0:0:0:
77,247,252766,1,0,0:0:0:0:
41,220,252781,1,0,0:0:0:0:
70,220,252798,1,0,0:0:0:0:
56,113,252815,1,0,0:0:0:0:
340,143,252847,6,0,L|485:143,1,119.999996337891,4|0,1:0|0:0,0:0:0:0:
175,253,253108,2,0,L|55:253,1,119.999996337891,8|0,3:2|0:0,0:0:0:0:
342,229,253369,2,0,L|342:368,1,119.999996337891,0|0,1:0|0:0,0:0:0:0:
38,337,253630,6,0,L|38:266,1,59.9999981689454,8|2,1:2|0:3,0:0:0:0:
38,337,253760,2,0,L|38:266,1,59.9999981689454,2|2,0:3|0:3,0:0:0:0:
199,141,253891,2,0,L|199:70,1,59.9999981689454,2|2,1:3|0:3,0:0:0:0:
199,141,254021,2,0,L|199:70,1,59.9999981689454,2|2,0:3|0:3,0:0:0:0:
381,205,254152,5,10,1:2:0:0:
321,205,254217,1,2,0:2:0:0:
262,206,254282,1,2,0:2:0:0:
202,207,254347,1,2,0:2:0:0:
381,205,254412,1,2,1:2:0:0:
321,205,254478,1,2,0:2:0:0:
262,206,254542,1,2,0:2:0:0:
202,207,254607,1,2,0:2:0:0:
474,337,254673,6,0,L|474:277,1,59.9999981689454,8|2,1:2|0:3,0:0:0:0:
474,337,254803,2,0,L|474:277,1,59.9999981689454,2|2,0:3|0:3,0:0:0:0:
313,141,254934,2,0,L|313:81,1,59.9999981689454,2|2,1:3|0:3,0:0:0:0:
313,141,255064,2,0,L|313:81,1,59.9999981689454,2|2,0:3|0:3,0:0:0:0:
136,205,255195,5,10,1:2:0:0:
191,205,255260,1,2,0:2:0:0:
247,206,255325,1,2,0:2:0:0:
302,207,255390,1,2,0:2:0:0:
136,205,255455,1,2,1:2:0:0:
191,205,255521,1,2,0:2:0:0:
247,206,255585,1,2,0:2:0:0:
302,207,255652,1,0,0:0:0:0:
57,334,255717,6,0,L|57:274,1,59.9999981689454,8|2,1:2|0:3,0:0:0:0:
57,334,255847,2,0,L|57:274,1,59.9999981689454,2|2,0:3|0:3,0:0:0:0:
208,342,255978,6,0,L|208:282,1,59.9999981689454,2|2,1:3|0:3,0:0:0:0:
208,342,256108,2,0,L|208:282,1,59.9999981689454,2|2,0:3|0:3,0:0:0:0:
358,353,256239,6,0,L|358:293,1,59.9999981689454,8|2,1:2|0:3,0:0:0:0:
358,353,256369,2,0,L|358:293,1,59.9999981689454,2|2,0:3|0:3,0:0:0:0:
182,218,256499,6,0,L|182:72,1,119.999996337891,2|2,1:3|0:3,0:0:0:0:
328,218,256760,2,0,L|328:72,1,119.999996337891,8|2,1:2|0:3,0:0:0:0:
83,194,257021,1,4,1:2:0:0:
12,197,257108,1,0,3:0:0:0:
83,194,257195,1,0,3:0:0:0:
226,129,257282,1,8,3:2:0:0:
297,132,257369,1,0,3:0:0:0:
226,129,257456,1,0,3:0:0:0:
459,194,257543,2,0,L|460:349,1,119.999996337891,0|0,1:0|0:0,0:0:0:0:
94,323,257804,6,0,L|94:263,1,59.9999981689454,8|2,1:2|0:3,0:0:0:0:
94,323,257934,2,0,L|94:263,1,59.9999981689454,2|2,0:3|0:3,0:0:0:0:
255,326,258065,2,0,L|255:266,1,59.9999981689454,2|2,1:3|0:3,0:0:0:0:
255,326,258195,2,0,L|255:266,1,59.9999981689454,2|2,0:3|0:3,0:0:0:0:
417,182,258325,5,10,1:2:0:0:
165,181,258456,1,2,0:2:0:0:
417,182,258586,1,2,1:2:0:0:
165,181,258717,1,2,0:2:0:0:
417,182,258847,2,0,L|417:17,1,119.999996337891,8|2,1:2|0:3,0:0:0:0:
45,310,259108,6,0,L|237:307,1,179.999994506836,4|0,1:0|1:0,0:0:0:0:
431,228,259369,1,8,0:0:0:0:
155,233,259499,2,0,L|155:103,1,119.999996337891,4|0,3:0|0:0,0:0:0:0:
363,111,259760,1,4,3:0:0:0:
68,315,259891,1,8,3:2:0:0:
54,303,259923,1,0,3:0:0:0:
44,287,259956,1,0,3:0:0:0:
40,269,259989,1,0,3:0:0:0:
44,251,260021,1,0,3:0:0:0:
52,235,260054,1,0,3:0:0:0:
65,223,260086,1,0,3:0:0:0:
297,307,260152,6,0,L|477:310,1,179.999994506836,4|0,1:2|1:0,0:0:0:0:
210,311,260543,2,0,L|30:313,1,179.999994506836,0|0,1:0|1:0,0:0:0:0:
372,235,260934,1,8,1:2:0:0:
434,232,260999,1,0,0:0:0:0:
463,187,261065,1,0,0:0:0:0:
434,138,261130,1,0,0:0:0:0:
212,220,261195,6,0,P|157:183|226:87,1,200,0|0,1:0|0:0,0:0:0:0:
343,86,261586,1,0,1:0:0:0:
84,89,261717,1,0,1:0:0:0:
268,342,261978,6,0,P|323:305|254:209,1,200,0|0,1:0|0:0,0:0:0:0:
137,208,262369,1,0,1:0:0:0:
396,211,262500,1,0,1:0:0:0:
137,208,262760,1,0,1:0:0:0:
137,208,263021,1,0,1:0:0:0:
455,231,263282,6,0,P|445:164|316:96,1,200,0|0,1:0|0:0,0:0:0:0:
212,91,263673,1,0,1:0:0:0:
459,96,263804,1,0,1:0:0:0:
325,340,264065,6,0,P|315:273|186:205,1,200,0|0,1:0|0:0,0:0:0:0:
82,200,264456,1,0,1:0:0:0:
329,205,264587,1,0,1:0:0:0:
166,211,264847,2,0,P|78:254|52:347,1,200,0|0,1:0|3:0,0:0:0:0:
51,346,265239,1,0,0:0:0:0:
328,125,265369,6,0,L|333:188,1,50,0|0,3:0|3:0,0:0:0:0:
183,123,265499,2,0,L|178:186,1,50,0|0,3:0|3:0,0:0:0:0:
331,174,265630,2,0,L|350:258,1,50,0|0,3:0|3:0,0:0:0:0:
180,173,265760,2,0,L|162:257,1,50,0|0,3:0|3:0,0:0:0:0:
342,222,265891,6,0,L|375:285,1,50,0|0,3:0|3:0,0:0:0:0:
169,221,266021,2,0,L|137:284,1,50,0|0,3:0|3:0,0:0:0:0:
365,266,266152,2,0,L|410:314,1,50,0|0,3:0|3:0,0:0:0:0:
146,265,266282,2,0,L|102:313,1,50,0|0,3:0|3:0,0:0:0:0:
399,302,266412,6,0,L|469:313,1,50,2|2,3:0|3:0,0:0:0:0:
113,302,266543,2,0,L|43:313,1,50,2|2,3:0|3:0,0:0:0:0:
405,338,266673,2,0,L|458:346,1,50,2|0,3:0|3:0,0:0:0:0:
108,338,266804,2,0,L|55:346,1,50,2|0,3:0|3:0,0:0:0:0:
423,264,266934,6,0,L|478:272,1,50,2|2,3:0|3:0,0:0:0:0:
89,264,267065,2,0,L|34:272,1,50,2|2,3:0|3:0,0:0:0:0:
435,218,267195,2,0,L|493:226,1,50,2|0,3:0|3:0,0:0:0:0:
77,218,267326,2,0,L|19:226,1,50,2|0,3:0|3:0,0:0:0:0:
257,188,267456,6,0,L|297:187,1,25,6|0,3:0|0:0,0:0:0:0:
403,98,267521,2,0,L|443:97,1,25,2|0,3:0|0:0,0:0:0:0:
256,121,267586,2,0,L|216:120,1,25,2|0,3:0|0:0,0:0:0:0:
109,98,267652,2,0,L|69:97,1,25,0|0,3:0|0:0,0:0:0:0:
256,330,267717,6,0,L|296:329,1,25,6|0,3:0|0:0,0:0:0:0:
422,167,267782,2,0,L|462:166,1,25,0|0,3:0|0:0,0:0:0:0:
255,263,267847,2,0,L|215:262,1,25,2|0,3:0|0:0,0:0:0:0:
90,167,267912,2,0,L|50:166,1,25,0|0,3:0|0:0,0:0:0:0:
256,330,267978,6,0,L|296:329,1,27.5000008392334,6|0,3:0|0:0,0:0:0:0:
436,231,268043,2,0,L|476:230,1,27.5000008392334,2|0,3:0|0:0,0:0:0:0:
255,263,268108,2,0,L|215:262,1,27.5000008392334,2|0,3:0|0:0,0:0:0:0:
76,231,268173,2,0,L|36:230,1,27.5000008392334,0|0,3:0|0:0,0:0:0:0:
256,330,268239,6,0,L|296:329,1,27.5000008392334,6|0,3:0|0:0,0:0:0:0:
451,306,268304,2,0,L|491:305,1,27.5000008392334,0|0,3:0|0:0,0:0:0:0:
255,263,268369,2,0,L|215:262,1,27.5000008392334,2|0,3:0|0:0,0:0:0:0:
61,306,268434,2,0,L|21:305,1,27.5000008392334,0|0,3:0|0:0,0:0:0:0:
305,147,268499,5,0,1:3:0:0:
256,192,268630,12,0,269282,0:0:0:0:
193,352,269543,6,0,L|193:219,1,119.999996337891,4|0,1:0|1:0,0:0:0:0:
490,212,269804,2,0,L|371:213,1,119.999996337891,8|2,1:2|0:2,0:0:0:0:
76,101,270065,2,0,L|195:98,1,119.999996337891,0|2,1:0|0:2,0:0:0:0:
465,218,270326,1,8,1:2:0:0:
385,215,270413,1,2,0:2:0:0:
223,213,270500,1,2,0:2:0:0:
466,151,270587,6,0,L|466:9,1,119.999996337891,0|2,1:0|0:2,0:0:0:0:
346,31,270847,2,0,L|488:31,1,119.999996337891,8|2,1:2|0:2,0:0:0:0:
120,229,271108,2,0,L|262:229,1,119.999996337891,0|2,1:0|0:2,0:0:0:0:
477,238,271369,1,8,1:2:0:0:
253,238,271499,1,2,0:2:0:0:
35,238,271630,6,0,L|35:83,1,119.999996337891,0|2,1:0|0:2,0:0:0:0:
286,149,271891,2,0,L|423:149,1,119.999996337891,8|2,1:2|0:2,0:0:0:0:
155,118,272152,2,0,L|18:118,1,119.999996337891,0|2,1:0|0:2,0:0:0:0:
286,149,272412,1,8,1:2:0:0:
286,149,272499,1,0,0:0:0:0:
125,153,272586,1,0,0:0:0:0:
286,149,272673,6,0,L|427:149,1,119.999996337891,0|2,1:0|0:2,0:0:0:0:
113,282,272934,2,0,L|254:282,1,119.999996337891,8|2,1:2|0:2,0:0:0:0:
471,219,273195,2,0,L|471:364,1,119.999996337891,0|2,1:0|0:2,0:0:0:0:
208,344,273456,1,8,1:2:0:0:
472,340,273586,1,2,0:2:0:0:
359,342,273717,1,0,1:2:0:0:
178,346,273782,2,0,L|179:197,1,119.999996337891,0|0,1:0|1:0,0:0:0:0:
360,342,273978,6,0,L|489:341,1,119.999996337891,12|2,1:2|0:2,0:0:0:0:
152,342,274239,2,0,L|23:341,1,119.999996337891,0|2,1:0|0:2,0:0:0:0:
325,259,274499,1,8,1:2:0:0:
245,258,274586,1,2,0:2:0:0:
76,255,274673,1,2,0:2:0:0:
324,176,274760,6,0,L|488:177,1,119.999996337891,0|2,1:0|0:2,0:0:0:0:
193,71,275021,2,0,L|357:72,1,119.999996337891,8|2,1:2|0:2,0:0:0:0:
68,176,275282,2,0,L|67:317,1,119.999996337891,0|2,1:0|0:2,0:0:0:0:
317,169,275543,2,0,L|169:168,1,119.999996337891,8|2,1:2|0:2,0:0:0:0:
456,276,275804,5,0,1:0:0:0:
472,212,275869,1,2,0:2:0:0:
451,149,275934,1,2,0:2:0:0:
388,128,275999,1,2,0:2:0:0:
216,253,276065,2,0,L|216:169,1,59.9999981689454,8|2,1:2|0:2,0:0:0:0:
282,194,276195,2,0,L|217:194,1,59.9999981689454,2|2,0:2|0:2,0:0:0:0:
423,66,276325,6,0,L|498:66,1,59.9999981689454,2|2,1:2|0:2,0:0:0:0:
265,322,276456,2,0,L|266:235,1,59.9999981689454,2|2,0:2|0:2,0:0:0:0:
438,299,276586,1,8,1:2:0:0:
492,279,276652,1,2,0:2:0:0:
492,231,276717,1,2,0:2:0:0:
438,206,276782,1,2,0:2:0:0:
274,250,276847,6,0,L|334:250,1,59.9999981689454,2|2,1:2|0:2,0:0:0:0:
172,315,276978,1,2,0:2:0:0:
117,292,277043,1,2,0:2:0:0:
83,244,277108,1,8,1:2:0:0:
81,185,277173,1,2,0:2:0:0:
111,134,277238,1,2,0:2:0:0:
164,108,277304,1,2,0:2:0:0:
354,77,277369,6,0,L|358:156,1,59.9999981689454,2|2,1:2|0:2,0:0:0:0:
158,77,277499,2,0,L|154:156,1,59.9999981689454,2|2,0:2|0:2,0:0:0:0:
404,250,277630,2,0,L|329:251,1,59.9999981689454,8|2,1:2|0:2,0:0:0:0:
108,250,277760,2,0,L|183:251,1,59.9999981689454,2|2,0:2|0:2,0:0:0:0:
406,352,277891,5,4,1:0:0:0:
422,352,277907,1,0,0:0:0:0:
435,354,277923,1,0,0:0:0:0:
451,349,277940,1,0,0:0:0:0:
460,338,277956,1,0,0:0:0:0:
469,325,277972,1,0,0:0:0:0:
470,311,277988,1,0,0:0:0:0:
468,294,278005,1,0,0:0:0:0:
461,283,278021,1,0,3:0:0:0:
452,269,278037,1,0,0:0:0:0:
436,266,278054,1,0,0:0:0:0:
421,262,278070,1,0,0:0:0:0:
400,261,278086,1,0,3:0:0:0:
155,336,278152,6,0,L|27:336,1,119.999996337891,8|2,1:2|0:2,0:0:0:0:
357,336,278412,2,0,L|485:336,1,119.999996337891,0|2,1:0|0:2,0:0:0:0:
198,255,278673,1,8,1:2:0:0:
278,256,278760,1,2,0:2:0:0:
448,259,278847,1,2,0:2:0:0:
280,153,278934,6,0,L|149:152,1,119.999996337891,0|2,1:0|0:2,0:0:0:0:
409,61,279195,2,0,L|278:60,1,119.999996337891,8|2,1:2|0:2,0:0:0:0:
45,280,279456,2,0,L|45:146,1,119.999996337891,0|2,1:0|0:2,0:0:0:0:
289,60,279717,2,0,L|409:61,1,119.999996337891,8|2,1:2|0:2,0:0:0:0:
43,101,279978,5,0,1:0:0:0:
43,101,280108,1,0,3:2:0:0:
117,104,280173,1,0,3:2:0:0:
333,221,280239,6,0,L|494:221,1,119.999996337891,8|2,1:2|0:2,0:0:0:0:
179,221,280499,2,0,L|18:221,1,119.999996337891,0|2,1:0|0:2,0:0:0:0:
260,111,280760,2,0,L|260:266,1,119.999996337891,8|2,1:2|0:2,0:0:0:0:
54,340,281021,5,4,1:2:0:0:
367,302,281217,1,0,1:2:0:0:
35,342,281412,1,0,1:2:0:0:
244,225,281543,2,0,L|375:193,1,119.999996337891,2|2,0:3|0:3,0:0:0:0:
497,251,281739,1,0,0:0:0:0:
320,225,281804,2,0,L|182:226,1,119.999996337891,0|2,1:2|0:2,0:0:0:0:
438,176,282065,6,0,P|496:152|423:94,1,179.999994506836,4|0,1:0|1:3,0:0:0:0:
73,175,282456,2,0,P|15:151|88:93,1,179.999994506836,0|0,1:0|1:0,0:0:0:0:
329,76,282847,2,0,L|329:209,1,119.999996337891,8|0,1:2|0:0,0:0:0:0:
262,194,283043,1,0,0:0:0:0:
465,155,283108,6,0,L|464:351,1,179.999994506836,4|0,0:0|1:0,0:0:0:0:
47,155,283499,2,0,L|48:351,1,179.999994506836,0|0,1:0|1:0,0:0:0:0:
311,248,283891,2,0,L|311:94,1,119.999996337891,8|2,0:2|0:0,0:0:0:0:
244,127,284086,1,0,0:0:0:0:
34,272,284152,6,0,L|34:131,1,119.999996337891,4|2,1:0|0:0,0:0:0:0:
94,139,284347,1,0,1:0:0:0:
288,304,284412,2,0,L|288:163,1,119.999996337891,8|0,1:2|1:0,0:0:0:0:
228,171,284607,1,0,0:0:0:0:
478,272,284673,6,0,L|478:131,1,119.999996337891,4|2,1:2|0:0,0:0:0:0:
412,139,284868,1,0,1:0:0:0:
242,316,284934,2,0,L|101:315,1,119.999996337891,8|0,1:2|1:0,0:0:0:0:
401,261,285195,6,0,L|490:264,2,59.9999981689454,12|8|8,1:2|1:2|1:2,0:0:0:0:
225,257,285391,1,8,1:2:0:0:
396,179,285456,1,12,1:2:0:0:
454,166,285521,1,8,1:2:0:0:
472,114,285586,1,8,1:2:0:0:
452,56,285652,1,8,1:2:0:0:
178,95,285717,6,0,L|96:96,1,59.9999981689454,14|10,1:2|1:2,0:0:0:0:
334,95,285847,2,0,L|400:96,1,59.9999981689454,10|10,1:2|1:2,0:0:0:0:
91,306,285978,2,0,L|151:308,1,59.9999981689454,14|10,1:2|1:2,0:0:0:0:
420,306,286108,2,0,L|361:308,1,59.9999981689454,10|10,1:2|1:2,0:0:0:0:
92,212,286239,1,14,1:2:0:0:
89,338,286499,5,4,1:0:0:0:
332,339,286630,1,0,1:0:0:0:
180,339,286891,1,0,1:0:0:0:
423,338,287022,1,0,1:0:0:0:
256,250,287282,1,0,1:0:0:0:
424,174,287478,5,0,1:0:0:0:
253,170,287543,1,0,1:0:0:0:
80,170,287673,1,0,1:0:0:0:
211,170,287869,1,0,1:0:0:0:
80,170,288065,5,0,1:0:0:0:
349,168,288195,1,0,1:0:0:0:
80,170,288325,1,0,1:0:0:0:
349,168,288455,1,0,1:0:0:0:
198,240,288717,5,0,1:0:0:0:
467,238,288847,1,0,1:0:0:0:
330,307,289043,5,0,1:0:0:0:
155,308,289239,1,0,1:0:0:0:
446,307,289434,1,0,1:0:0:0:
155,308,289630,1,0,1:0:0:0:
287,305,289760,1,0,1:0:0:0:
16,297,289891,5,4,1:2:0:0:
51,297,289907,1,0,0:0:0:0:
16,267,289923,1,0,0:0:0:0:
51,267,289939,1,0,0:0:0:0:
16,237,289956,1,0,0:0:0:0:
50,237,289972,1,0,0:0:0:0:
18,207,289989,1,0,0:0:0:0:
47,207,290005,1,0,0:0:0:0:
22,178,290021,1,0,0:0:0:0:
43,178,290037,1,0,0:0:0:0:
27,151,290054,1,0,0:0:0:0:
39,151,290070,1,0,0:0:0:0:
33,124,290086,1,0,0:0:0:0:
33,124,290102,1,0,0:0:0:0:
33,124,290119,1,0,0:0:0:0:
33,124,290135,1,0,0:0:0:0:
33,124,290152,1,0,0:0:0:0:
33,124,290168,1,0,0:0:0:0:
39,151,290184,1,0,0:0:0:0:
27,151,290200,1,0,0:0:0:0:
43,178,290217,1,0,0:0:0:0:
22,178,290233,1,0,0:0:0:0:
47,207,290250,1,0,0:0:0:0:
18,207,290266,1,0,0:0:0:0:
50,237,290282,1,0,0:0:0:0:
16,237,290298,1,0,0:0:0:0:
51,267,290315,1,0,0:0:0:0:
16,267,290331,1,0,0:0:0:0:
51,297,290347,1,0,0:0:0:0:
16,297,290363,1,0,0:0:0:0:
51,297,290380,1,0,0:0:0:0:
246,194,290412,6,0,L|326:186,1,59.9999981689454,4|0,1:0|1:0,0:0:0:0:
109,52,290543,2,0,L|27:40,1,59.9999981689454,0|0,1:0|1:0,0:0:0:0:
247,69,290673,1,0,1:0:0:0:
353,144,290869,5,0,1:0:0:0:
159,144,290934,1,0,1:0:0:0:
41,147,291065,1,0,1:0:0:0:
159,251,291325,5,0,1:0:0:0:
404,257,291456,1,0,1:0:0:0:
159,251,291586,1,0,1:0:0:0:
297,342,291847,5,0,1:0:0:0:
240,343,291912,1,0,1:0:0:0:
40,341,291978,1,0,1:0:0:0:
176,341,292173,1,0,1:0:0:0:
40,341,292369,1,0,1:0:0:0:
464,233,292630,5,0,1:0:0:0:
257,229,292760,1,0,1:0:0:0:
48,233,292891,1,0,1:0:0:0:
129,160,293152,5,0,1:0:0:0:
383,160,293283,1,0,1:0:0:0:
300,89,293543,5,0,1:0:0:0:
60,90,293673,1,0,1:0:0:0:
199,89,293869,1,0,1:0:0:0:
455,323,294065,6,0,B|154:325|154:325|90:52,2,450.000017166138,6|6|6,0:2|0:2|0:2,0:0:0:0:
102,316,294586,5,0,1:0:0:0:
39,293,294652,1,0,1:0:0:0:
18,230,294717,1,0,1:0:0:0:
44,169,294782,1,0,1:0:0:0:
212,153,294847,1,0,1:0:0:0:
410,316,294978,5,0,1:0:0:0:
473,293,295044,1,0,0:0:0:0:
494,230,295109,1,0,0:0:0:0:
468,169,295174,1,0,0:0:0:0:
300,153,295239,1,0,1:0:0:0:
102,316,295369,5,0,1:0:0:0:
39,293,295435,1,0,0:0:0:0:
18,230,295500,1,0,0:0:0:0:
44,169,295565,1,0,0:0:0:0:
212,153,295630,1,0,1:0:0:0:
410,316,295761,5,0,0:0:0:0:
473,293,295825,1,0,0:0:0:0:
494,230,295892,1,0,1:0:0:0:
468,169,295957,1,0,0:0:0:0:
300,153,296022,1,0,1:0:0:0:
37,152,296217,5,0,1:0:0:0:
340,252,296412,1,0,1:0:0:0:
480,254,296543,1,0,1:0:0:0:
49,260,296673,6,0,L|41:176,3,59.9999981689454,0|0|0|0,1:0|0:0|1:0|0:0,0:0:0:0:
201,223,296934,1,0,0:0:0:0:
463,260,297065,6,0,L|471:176,3,59.9999981689454,0|0|0|0,1:0|0:0|1:0|0:0,0:0:0:0:
311,223,297326,1,0,0:0:0:0:
122,329,297456,6,0,L|54:328,1,59.9999981689454
214,233,297586,2,0,L|306:228,1,59.9999981689454,0|0,1:0|0:0,0:0:0:0:
130,77,297717,1,0,0:0:0:0:
411,315,297847,6,0,L|479:314,1,59.9999981689454
267,141,297977,2,0,L|175:136,1,59.9999981689454,0|0,1:0|0:0,0:0:0:0:
40,356,298108,1,0,1:0:0:0:
378,326,298239,5,4,1:2:0:0:
395,324,298255,1,0,0:0:0:0:
411,320,298271,1,0,0:0:0:0:
426,313,298287,1,0,0:0:0:0:
443,306,298304,1,0,0:0:0:0:
457,296,298320,1,0,0:0:0:0:
468,283,298336,1,0,0:0:0:0:
476,267,298353,1,0,0:0:0:0:
482,251,298369,1,0,0:0:0:0:
486,235,298385,1,0,0:0:0:0:
490,218,298402,1,0,0:0:0:0:
493,201,298418,1,0,0:0:0:0:
495,184,298434,1,0,0:0:0:0:
495,167,298450,1,0,0:0:0:0:
495,149,298467,1,0,0:0:0:0:
495,132,298483,1,0,0:0:0:0:
495,149,298499,1,0,0:0:0:0:
495,167,298516,1,0,0:0:0:0:
495,184,298532,1,0,0:0:0:0:
493,201,298548,1,0,0:0:0:0:
490,218,298564,1,0,0:0:0:0:
486,235,298581,1,0,0:0:0:0:
482,251,298597,1,0,0:0:0:0:
476,267,298613,1,0,0:0:0:0:
468,283,298630,1,0,0:0:0:0:
457,296,298646,1,0,0:0:0:0:
443,306,298662,1,0,0:0:0:0:
426,313,298679,1,0,0:0:0:0:
411,320,298695,1,0,0:0:0:0:
395,324,298711,1,0,0:0:0:0:
378,326,298727,1,0,0:0:0:0:
174,248,298760,6,0,L|87:249,1,59.9999981689454,0|0,1:0|1:0,0:0:0:0:
338,248,298891,2,0,L|425:249,1,59.9999981689454,0|0,1:0|1:0,0:0:0:0:
179,146,299021,2,0,L|16:147,1,119.999996337891,0|0,1:0|0:0,0:0:0:0:
124,121,299217,1,0,1:0:0:0:
333,146,299282,2,0,L|496:147,1,119.999996337891,0|0,1:0|1:0,0:0:0:0:
201,300,299543,2,0,L|195:216,1,59.9999981689454
411,190,299673,2,0,L|417:106,1,59.9999981689454,0|0,1:0|0:0,0:0:0:0:
119,150,299804,6,0,L|197:144,1,59.9999981689454,0|0,1:0|0:0,0:0:0:0:
350,257,299934,2,0,L|428:251,1,59.9999981689454,0|0,1:0|0:0,0:0:0:0:
140,75,300065,1,0,0:0:0:0:
370,73,300195,1,0,1:0:0:0:
140,75,300325,2,0,L|79:75,1,59.9999981689454,0|0,1:0|0:0,0:0:0:0:
256,321,300456,2,0,L|336:322,1,59.9999981689454,0|0,1:0|0:0,0:0:0:0:
494,178,300586,1,0,0:0:0:0:
257,182,300716,1,0,1:0:0:0:
23,187,300847,5,2,0:0:0:0:
28,234,300934,1,0,0:0:0:0:
46,278,301021,1,0,0:0:0:0:
87,312,301108,1,0,0:0:0:0:
140,331,301195,1,0,0:0:0:0:
203,332,301282,1,0,0:0:0:0:
403,332,301369,5,2,0:0:0:0:
476,303,301456,1,0,0:0:0:0:
512,238,301543,1,0,0:0:0:0:
512,159,301630,1,2,0:0:0:0:
480,93,301717,1,0,0:0:0:0:
408,61,301804,1,0,0:0:0:0:
173,189,301891,5,0,1:0:0:0:
97,192,301978,1,0,0:0:0:0:
173,189,302065,1,0,0:0:0:0:
328,187,302152,5,0,1:0:0:0:
404,190,302239,1,0,0:0:0:0:
328,187,302326,1,0,0:0:0:0:
138,283,302412,5,12,1:2:0:0:
211,284,302499,1,0,0:0:0:0:
138,283,302586,1,0,0:0:0:0:
400,255,302673,5,12,1:2:0:0:
256,253,302760,1,0,0:0:0:0:
109,252,302847,1,0,0:0:0:0:
468,238,302934,5,4,1:0:0:0:
180,347,303717,6,0,P|121:346|185:150,1,379.999989852906,0|0,3:0|3:0,0:0:0:0:
416,237,305021,5,0,3:0:0:0:
145,351,305804,2,0,P|86:350|150:154,1,379.999989852906,0|0,3:0|3:0,0:0:0:0:
411,73,306717,2,0,L|411:276,1,189.999994926453,0|0,3:0|3:0,0:0:0:0:
92,252,307108,5,0,3:0:0:0:
368,349,307891,2,0,P|427:348|363:152,1,379.999989852906,0|0,3:0|3:0,0:0:0:0:
96,237,309195,5,0,3:0:0:0:
368,349,309978,2,0,P|427:348|363:152,1,379.999989852906,0|0,3:0|3:0,0:0:0:0:
118,242,310891,2,0,L|119:33,1,189.999994926453,0|0,3:0|3:0,0:0:0:0:
391,175,311282,5,0,3:0:0:0:
256,192,311412,12,2,322760,0:0:0:0:
