osu file format v14

[General]
AudioFilename: audio.mp3
AudioLeadIn: 0
PreviewTime: 302869
Countdown: 0
SampleSet: Soft
StackLeniency: 0.4
Mode: 0
LetterboxInBreaks: 0
WidescreenStoryboard: 0

[Editor]
Bookmarks: 10760,60847,77543,85891,102586,119282,152673,186065,202760,219456,236152,252847,269543,302934
DistanceSpacing: 1.1
BeatDivisor: 4
GridSize: 16
TimelineZoom: 2.599998

[Metadata]
Title:GHOST (2020 Halloween+++++++++ VIP)
TitleUnicode:GHOST (2020 Halloween+++++++++ VIP)
Artist:Camellia
ArtistUnicode:かめりあ
Creator:IOException
Version:RE//APPARITION+++++++++
Source:
Tags:electronic instrumental ghost2 spektre cametek cyphisonia ep e.p. hybrid trap hardcore pumpcore dubstep edm featured artist fa halloween speedcore deadcode ceo_of_osu ceo of osu
BeatmapID:3123843
BeatmapSetID:1527006

[Difficulty]
HPDrainRate:5
CircleSize:4
OverallDifficulty:8.6
ApproachRate:9.5
SliderMultiplier:2
SliderTickRate:1

[Events]
//Background and Video events
0,0,"background.jpg",0,0
//Break Periods
2,123656,135408
//Storyboard Layer 0 (Background)
//Storyboard Layer 1 (Fail)
//Storyboard Layer 2 (Pass)
//Storyboard Layer 3 (Foreground)
//Storyboard Layer 4 (Overlay)
//Storyboard Sound Samples

[TimingPoints]
326,260.869565217391,4,2,3,50,1,0
10760,260.869565217391,4,2,3,50,1,0
10760,-200,4,2,3,50,0,0
23281,-166.666666666667,4,2,3,50,0,0
26412,-100,4,2,2,80,0,0
26933,-125,4,2,2,80,0,0
27455,-125,4,2,2,80,0,0
27977,-66.6666666666667,4,2,2,80,0,0
28325,-125,4,2,2,80,0,0
30064,-66.6666666666667,4,2,2,80,0,0
30412,-125,4,2,2,80,0,0
32151,-66.6666666666667,4,2,2,80,0,0
32499,-125,4,2,2,80,0,0
35412,-66.6666666666667,4,2,2,80,0,0
35803,-125,4,2,2,80,0,0
36325,-66.6666666666667,4,2,2,80,0,0
36673,-125,4,2,2,80,0,0
38412,-66.6666666666667,4,2,2,80,0,0
38759,-125,4,2,2,80,0,0
40499,-66.6666666666667,4,2,2,80,0,0
40846,-125,4,2,2,80,0,0
42325,-166.666666666667,4,2,2,80,0,0
43107,-100,4,2,2,80,0,0
53020,-111.111111111111,4,2,2,80,0,0
53542,-125,4,2,2,80,0,0
54064,-142.857142857143,4,2,2,80,0,0
54586,-166.666666666667,4,2,2,80,0,0
55107,-200,4,2,2,80,0,0
55629,-250,4,2,2,80,0,0
56151,-333.333333333333,4,2,2,80,0,0
56673,-200,4,2,2,80,0,0
56933,-142.857142857143,4,2,2,80,0,0
57194,-111.111111111111,4,2,2,80,0,0
57455,-90.9090909090908,4,2,2,80,0,0
57977,-125,4,2,2,80,0,0
59020,-200,4,2,2,80,0,0
59281,-83.3333333333333,4,2,2,80,0,0
60064,-125,4,2,2,80,0,0
60846,-50,4,2,2,80,0,0
61042,-133.333333333333,4,2,2,80,0,0
61368,-66.6666666666667,4,2,2,80,0,0
61629,-100,4,2,1,90,0,0
62412,-100,4,2,1,90,0,0
64629,-50,4,2,1,90,0,0
65216,-133.333333333333,4,2,1,90,0,0
65542,-66.6666666666667,4,2,1,90,0,0
65803,-83.3333333333333,4,2,1,90,0,0
68151,-50,4,2,1,90,0,0
68803,-66.6666666666667,4,2,1,90,0,0
69194,-50,4,2,1,90,0,0
69390,-133.333333333333,4,2,1,90,0,0
69716,-66.6666666666667,4,2,1,90,0,0
69977,-100,4,2,1,90,0,0
71412,-66.6666666666667,4,2,1,90,0,0
73368,-100,4,2,1,90,0,0
77542,-100,4,2,2,75,0,0
84064,-133.333333333333,4,2,2,75,0,0
84325,-66.6666666666667,4,2,2,75,0,0
85107,-133.333333333333,4,2,2,75,0,0
85368,-200,4,2,2,75,0,0
85890,-200,4,2,2,90,0,0
86151,-100,4,2,2,90,0,0
86412,-66.6666666666667,4,2,2,90,0,0
86933,-100,4,2,2,90,0,0
90586,-66.6666666666667,4,2,2,90,0,0
90846,-100,4,2,2,90,0,0
91629,-200,4,2,2,90,0,0
92151,-100,4,2,2,90,0,0
92673,-200,4,2,2,90,0,0
93194,-100,4,2,2,90,0,0
93846,-66.6666666666667,4,2,2,90,0,0
94499,-100,4,2,2,90,0,0
94759,-66.6666666666667,4,2,2,90,0,0
95281,-100,4,2,2,90,0,0
99455,-125,4,2,2,90,0,0
99977,-111.111111111111,4,2,2,90,0,0
100499,-100,4,2,2,90,0,0
101020,-90.9090909090909,4,2,2,90,0,0
101542,-83.3333333333333,4,2,2,90,0,0
102325,-125,4,2,2,90,0,0
102846,-100,4,2,2,90,0,0
105846,-83.3333333333333,4,2,2,90,0,0
106499,-66.6666666666667,4,2,2,90,0,0
107020,-100,4,2,2,90,0,0
110020,-83.3333333333333,4,2,2,90,0,0
110673,-66.6666666666667,4,2,2,90,0,0
110933,-100,4,2,2,90,0,0
135977,-200,4,2,2,65,0,0
152673,-133.333333333333,4,2,2,65,0,0
168325,-100,4,2,2,80,0,0
168846,-125,4,2,2,80,0,0
169368,-100,4,2,2,80,0,0
181890,-133.333333333333,4,2,2,70,0,0
182933,-111.111111111111,4,2,2,70,0,0
183977,-83.3333333333333,4,2,2,80,0,0
184499,-83.3333333333333,4,2,2,85,0,0
185020,-83.3333333333333,4,2,2,90,0,0
185542,-100,4,2,2,90,0,0
185803,-133.333333333333,4,2,2,90,0,0
186064,-76.9230769230769,4,2,1,100,0,1
186325,-66.6666666666667,4,2,1,100,0,1
193499,-100,4,2,1,100,0,1
194412,-66.6666666666667,4,2,1,100,0,1
202238,-83.3333333333333,4,2,1,100,0,1
202759,-83.3333333333333,4,2,1,90,0,0
203020,-55.5555555555556,4,2,1,90,0,0
203281,-100,4,2,1,90,0,0
203542,-55.5555555555556,4,2,1,90,0,0
203803,-100,4,2,1,90,0,0
204064,-55.5555555555556,4,2,1,90,0,0
204325,-100,4,2,1,90,0,0
204586,-55.5555555555556,4,2,1,90,0,0
204846,-100,4,2,1,90,0,0
205107,-55.5555555555556,4,2,1,90,0,0
205368,-100,4,2,1,90,0,0
205629,-55.5555555555556,4,2,1,90,0,0
205890,-100,4,2,1,90,0,0
206151,-55.5555555555556,4,2,1,90,0,0
206999,-55.5555555555556,4,2,1,80,0,0
207064,-83.3333333333333,4,2,1,80,0,0
210846,-133.333333333333,4,2,1,80,0,0
211107,-83.3333333333333,4,2,1,90,0,0
211368,-55.5555555555556,4,2,1,90,0,0
211629,-100,4,2,1,90,0,0
211890,-55.5555555555556,4,2,1,90,0,0
212151,-100,4,2,1,90,0,0
212412,-55.5555555555556,4,2,1,90,0,0
212673,-100,4,2,1,90,0,0
212933,-55.5555555555556,4,2,1,90,0,0
213194,-83.3333333333333,4,2,1,90,0,0
213455,-55.5555555555556,4,2,1,90,0,0
213716,-100,4,2,1,90,0,0
213977,-55.5555555555556,4,2,1,90,0,0
214238,-100,4,2,1,90,0,0
214499,-55.5555555555556,4,2,1,90,0,0
215347,-55.5555555555556,4,2,1,80,0,0
215412,-83.3333333333333,4,2,1,80,0,0
217238,-133.333333333333,4,2,1,80,0,0
217368,-1000,4,2,1,80,0,0
217434,-1000,4,2,2,40,0,0
218412,-83.3333333333333,4,2,2,85,0,0
218933,-133.333333333333,4,2,2,85,0,0
219325,-83.3333333333333,4,2,2,85,0,0
219455,-83.3333333333333,4,2,1,75,0,0
223107,-50,4,2,1,75,0,0
223890,-200,4,2,1,75,0,0
224151,-83.3333333333333,4,2,1,75,0,0
227281,-58.8235294117647,4,2,1,75,0,0
227803,-100,4,2,1,75,0,0
228064,-83.3333333333333,4,2,1,75,0,0
230607,-66.6666666666667,4,2,1,75,0,0
231194,-100,4,2,1,75,0,0
231455,-50,4,2,1,75,0,0
232499,-83.3333333333333,4,2,1,75,0,0
233542,-50,4,2,1,75,0,0
234064,-1000,4,2,1,75,0,0
235107,-100,4,2,2,80,0,0
235890,-50,4,2,2,80,0,0
236151,-500,4,2,2,80,0,0
236933,-43.4782608695652,4,2,2,100,0,0
237194,-66.6666666666667,4,2,2,100,0,0
241499,-133.333333333333,4,2,2,100,0,0
243455,-50,4,2,2,100,0,0
243586,-133.333333333333,4,2,2,100,0,0
243977,-50,4,2,2,100,0,0
244238,-66.6666666666667,4,2,2,100,0,0
244499,-100,4,2,2,100,0,0
244759,-83.3333333333333,4,2,2,100,0,0
245020,-66.6666666666667,4,2,2,100,0,0
246716,-133.333333333333,4,2,2,100,0,0
247629,-111.111111111111,4,2,2,100,0,0
248151,-66.6666666666667,4,2,2,100,0,0
248803,-111.111111111111,4,2,2,100,0,0
252325,-52.6315789473684,4,2,2,100,0,0
252846,-66.6666666666667,4,2,2,100,0,0
255716,-76.9230769230769,4,2,2,100,0,0
255977,-90.9090909090909,4,2,2,100,0,0
256238,-111.111111111111,4,2,2,100,0,0
256499,-142.857142857143,4,2,2,100,0,0
256759,-1000,4,2,2,100,0,0
257020,-66.6666666666667,4,2,2,100,0,0
257803,-76.9230769230769,4,2,2,100,0,0
259107,-66.6666666666667,4,2,2,100,0,0
259890,-500,4,2,2,100,0,0
260151,-66.6666666666667,4,2,2,100,0,0
260738,-50,4,2,2,100,0,0
260933,-500,4,2,2,100,0,0
261194,-133.333333333333,4,2,2,100,0,0
261260,-133.333333333333,4,2,2,65,0,0
265368,-100,4,2,2,80,0,0
266412,-100,4,2,2,85,0,0
266542,-83.3333333333333,4,2,2,85,0,0
267455,-83.3333333333333,4,2,2,90,0,0
268499,-399.999999999997,4,2,2,90,0,0
269542,-66.6666666666667,4,2,1,100,0,1
269803,-66.6666666666667,4,2,1,100,0,1
277890,-250,4,2,1,100,0,0
278151,-66.6666666666667,4,2,1,100,0,1
279977,-83.3333333333333,4,2,1,100,0,0
280238,-66.6666666666667,4,2,1,100,0,1
281542,-100,4,2,1,100,0,0
282064,-66.6666666666667,4,2,1,100,0,1
286303,-66.6666666666667,4,2,2,75,0,0
286499,-83.3333333333333,4,2,2,75,0,0
289890,-43.4782608695652,4,2,2,75,0,0
290673,-200,4,2,2,75,0,0
290933,-83.3333333333333,4,2,2,75,0,0
294064,-58.8235294117647,4,2,2,75,0,0
294586,-100,4,2,2,85,0,0
294846,-83.3333333333333,4,2,2,85,0,0
297390,-66.6666666666667,4,2,2,85,0,0
297977,-100,4,2,2,85,0,0
298238,-50,4,2,2,85,0,0
298759,-50,4,2,2,95,0,0
299281,-83.3333333333333,4,2,2,95,0,0
300325,-50,4,2,2,95,0,0
300846,-1000,4,2,2,95,0,0
301890,-100,4,2,2,95,0,0
302412,-50,4,2,2,95,0,0
302933,-133.333333333333,4,2,2,95,0,0
302999,-133.333333333333,4,2,2,40,0,0
311281,-333.333333333333,4,2,2,40,0,0
317804,-333.333333333333,4,2,2,35,0,0
319630,-333.333333333333,4,2,2,25,0,0
320673,-333.333333333333,4,2,2,15,0,0
321717,-333.333333333333,4,2,2,5,0,0
322759,-333.333333333333,4,2,2,0,0,0

[Colours]
Combo1 : 163,174,194
Combo2 : 128,128,192
Combo3 : 146,146,201
Combo4 : 171,156,199

[HitObjects]
256,192,3456,12,0,9717,0:0:0:0:
189,384,10760,6,0,P|212:335|272:319,1,100,0|0,3:0|0:0,0:0:0:0:
322,350,11151,2,0,P|358:357|383:362,1,50,0|8,0:0|0:0,0:0:0:0:
371,359,11542,2,0,L|162:370,1,200,0|0,3:0|0:0,0:0:0:0:
171,369,12325,1,8,0:0:0:0:
134,151,12846,6,0,P|92:161|51:218,1,100,0|0,3:0|0:0,0:0:0:0:
1,260,13238,2,0,P|6:290|25:322,1,50,0|8,0:0|0:0,0:0:0:0:
14,307,13629,2,0,P|19:236|99:126,1,200,0|0,3:0|0:0,0:0:0:0:
90,132,14412,1,8,0:0:0:0:
176,31,14933,6,0,P|215:83|258:93,1,100,0|0,3:0|0:0,0:0:0:0:
321,133,15325,2,0,L|382:121,1,50,0|8,0:0|0:0,0:0:0:0:
370,123,15716,2,0,B|342:85|342:85|277:158|341:238,1,200,0|0,3:0|0:0,0:0:0:0:
330,224,16499,1,8,0:0:0:0:
474,364,17020,6,0,P|492:334|455:263,1,100,0|0,3:0|0:0,0:0:0:0:
488,195,17412,2,0,L|427:189,1,50,0|8,0:0|0:0,0:0:0:0:
438,190,17803,2,0,B|387:226|392:291|392:291|353:257|303:266,1,200,0|0,3:0|0:0,0:0:0:0:
171,284,18586,2,0,P|163:242|254:228,1,150,8|0,0:0|0:0,0:0:0:0:
236,359,19107,6,0,L|128:373,1,100,0|0,3:0|0:0,0:0:0:0:
60,379,19499,2,0,L|70:308,1,50,0|8,0:0|0:0,0:0:0:0:
66,329,19890,2,0,P|143:343|133:243,1,200,0|0,3:0|0:0,0:0:0:0:
141,247,20673,1,8,0:0:0:0:
7,84,21194,6,0,L|127:57,1,100,0|0,3:0|0:0,0:0:0:0:
191,96,21586,2,0,L|179:29,1,50,0|8,0:0|0:0,0:0:0:0:
183,47,21977,2,0,B|178:88|178:88|212:247,1,200,0|0,3:0|0:0,0:0:0:0:
211,243,22759,1,8,0:0:0:0:
445,338,23281,6,0,P|469:303|436:228,1,120,0|0,3:0|0:0,0:0:0:0:
459,153,23673,2,0,P|442:119|450:80,1,59.9999999999999,0|8,0:0|0:0,0:0:0:0:
442,97,24064,2,0,B|385:238|507:194|457:330,1,240,0|0,3:0|0:0,0:0:0:0:
459,323,24846,1,8,0:0:0:0:
280,122,25368,6,0,P|257:83|166:53,1,120,0|0,3:0|0:0,0:0:0:0:
108,84,25759,2,0,P|104:36|117:5,1,59.9999999999999,0|8,0:0|0:0,0:0:0:0:
331,190,26151,2,0,P|354:164|363:130,1,59.9999999999999,0|0,3:0|0:0,0:0:0:0:
186,144,26412,6,0,L|191:197,1,50,0|0,3:2|3:2,0:0:0:0:
186,144,26542,2,0,B|206:185|206:185|179:294|179:294|203:351,1,200,2|0,3:0|3:2,0:0:0:0:
264,289,26868,1,0,0:0:0:0:
264,289,26933,2,0,L|357:295,1,80,2|0,3:3|3:2,0:0:0:0:
110,206,27194,2,0,L|17:200,1,80,2|0,3:3|0:0,0:0:0:0:
311,384,27455,6,0,P|346:316|408:294,1,120,0|0,1:0|0:0,0:0:0:0:
467,264,27716,2,0,P|460:309|458:362,1,80,2|0,0:0|3:0,0:0:0:0:
241,220,27977,2,0,B|254:158|256:75|256:75|268:129|293:163,1,225,8|0,0:0|0:0,0:0:0:0:
333,228,28238,1,2,1:2:0:0:
333,228,28325,2,0,P|353:219|391:210,2,53.3333333333333,2|2|2,0:0|0:0|0:0,0:0:0:0:
175,361,28629,1,0,1:0:0:0:
175,361,28759,2,0,P|188:313|266:307,1,120,0|0,1:0|0:0,0:0:0:0:
160,201,29020,1,8,0:0:0:0:
250,297,29151,2,0,P|184:282|166:186,1,160,0|2,1:0|0:0,0:0:0:0:
138,125,29477,1,0,0:0:0:0:
138,125,29542,6,0,P|89:134|77:207,1,120,0|0,1:0|0:0,0:0:0:0:
13,264,29803,2,0,P|63:273|101:288,1,80,2|0,0:0|3:0,0:0:0:0:
310,105,30064,2,0,B|336:91|371:82|371:82|286:89|208:57,1,225,8|0,0:0|0:0,0:0:0:0:
232,153,30325,1,2,1:2:0:0:
232,153,30412,2,0,P|239:186|239:223,2,53.3333333333333,2|2|2,0:0|0:0|0:0,0:0:0:0:
59,38,30716,1,0,1:0:0:0:
59,38,30846,2,0,P|83:85|143:67,1,120,0|0,1:0|0:0,0:0:0:0:
118,219,31107,1,8,0:0:0:0:
139,71,31238,2,0,P|149:56|151:50,8,20,0|0|0|0|0|0|0|0|2,1:0|0:0|0:0|0:0|0:0|0:0|0:0|0:0|0:0,0:0:0:0:
201,214,31629,6,0,P|187:168|152:148,1,80,0|0,1:0|0:0,0:0:0:0:
1,243,31890,2,0,P|52:228|147:219,1,120,2|0,0:0|0:0,0:0:0:0:
264,299,32151,2,0,B|287:328|290:362|290:362|240:299|141:287,1,225,8|0,0:0|0:0,0:0:0:0:
99,360,32412,1,2,1:2:0:0:
99,360,32499,2,0,P|65:362|36:369,2,53.3333333333333,2|2|2,0:0|0:0|0:0,0:0:0:0:
289,216,32803,1,0,1:0:0:0:
289,216,32933,2,0,P|297:173|250:115,1,120,0|0,1:0|0:0,0:0:0:0:
156,289,33194,1,8,0:0:0:0:
193,196,33325,1,0,1:0:0:0:
193,196,33455,2,0,P|138:206|103:211,1,80,0|2,0:0|0:0,0:0:0:0:
57,88,33716,5,0,1:0:0:0:
142,117,33846,1,0,0:0:0:0:
57,88,33977,1,2,0:0:0:0:
142,117,34107,1,0,3:0:0:0:
190,291,34238,1,8,0:0:0:0:
270,255,34368,1,0,0:0:0:0:
190,291,34499,1,2,1:2:0:0:
270,255,34629,2,0,L|321:266,2,40,2|0|2,0:0|0:0|0:0,0:0:0:0:
329,98,34890,5,2,1:2:0:0:
329,98,34955,1,2,0:0:0:0:
329,98,35020,2,0,P|336:153|341:190,1,80,2|2,1:2|0:0,0:0:0:0:
413,117,35281,5,8,0:0:0:0:
396,315,35412,2,0,L|404:250,8,37.5,2|0|2|0|2|0|0|0|2,1:2|0:0|0:0|0:0|0:0|0:0|0:0|0:0|0:0,0:0:0:0:
473,239,35738,1,0,0:0:0:0:
473,239,35803,6,0,P|418:243|356:170,1,120,0|0,1:0|0:0,0:0:0:0:
371,127,36064,2,0,P|312:137|290:140,1,80,2|0,0:0|3:0,0:0:0:0:
264,348,36325,2,0,B|263:400|199:398|178:239|303:216,1,225,8|0,0:0|0:0,0:0:0:0:
212,160,36586,1,2,1:2:0:0:
212,160,36673,2,0,P|203:127|191:101,2,53.3333333333333,2|2|2,0:0|0:0|0:0,0:0:0:0:
333,298,36977,1,0,1:0:0:0:
333,298,37107,2,0,P|378:285|402:208,1,120,0|0,1:0|0:0,0:0:0:0:
485,341,37368,1,8,0:0:0:0:
405,221,37499,2,0,P|478:279|472:375,1,160,0|2,1:0|0:0,0:0:0:0:
420,384,37825,1,0,0:0:0:0:
420,384,37890,6,0,P|359:369|269:364,1,120,0|0,1:0|0:0,0:0:0:0:
219,373,38151,2,0,P|231:323|255:295,1,80,2|0,0:0|3:0,0:0:0:0:
316,142,38412,2,0,B|372:203|326:286|326:286|321:249|283:220,1,225,8|0,0:0|0:0,0:0:0:0:
248,301,38673,1,2,1:2:0:0:
248,301,38759,2,0,P|209:308|189:310,2,53.3333333333333,2|2|2,0:0|0:0|0:0,0:0:0:0:
407,247,39064,1,0,1:0:0:0:
407,247,39194,2,0,P|367:229|268:235,1,120,0|0,1:0|0:0,0:0:0:0:
305,73,39455,1,8,0:0:0:0:
291,227,39586,2,0,L|287:196,8,20,0|0|0|0|0|0|0|0|2,1:0|0:0|0:0|0:0|0:0|0:0|0:0|0:0|0:0,0:0:0:0:
238,150,39912,1,0,0:0:0:0:
238,150,39977,6,0,P|282:130|352:162,1,120,0|0,1:0|0:0,0:0:0:0:
461,108,40238,2,0,P|466:69|429:14,1,80,2|0,0:0|3:0,0:0:0:0:
238,150,40499,2,0,B|294:78|391:81|391:81|356:96|336:125,1,225,8|0,0:0|0:0,0:0:0:0:
415,160,40759,1,2,1:2:0:0:
415,160,40846,2,0,P|423:187|424:218,2,53.3333333333333,2|2|2,0:0|0:0|0:0,0:0:0:0:
270,40,41151,1,0,1:0:0:0:
270,40,41281,2,0,P|326:55|340:138,1,120,0|0,1:0|0:0,0:0:0:0:
237,293,41542,1,8,0:0:0:0:
312,256,41673,2,0,L|306:198,1,40,0|0,1:0|0:0,0:0:0:0:
180,222,41803,2,0,P|189:173|211:124,1,80,0|2,0:0|0:0,0:0:0:0:
199,144,42064,6,0,L|111:155,1,80,0|0,1:0|0:0,0:0:0:0:
30,325,42325,2,0,P|38:287|58:263,1,59.9999999999999,2|0,0:0|0:0,0:0:0:0:
19,340,42586,2,0,P|51:318|82:315,1,59.9999999999999,2|0,0:0|0:0,0:0:0:0:
1,345,42846,2,0,P|39:353|63:373,1,59.9999999999999,2|0,0:0|0:0,0:0:0:0:
326,118,43107,6,0,P|293:130|270:126,1,50,2|0,3:2|0:0,0:0:0:0:
300,159,43238,2,0,P|268:145|255:126,1,50,2|0,3:2|0:0,0:0:0:0:
223,258,43368,6,0,P|255:244|268:225,1,50,2|0,3:2|0:0,0:0:0:0:
197,217,43499,2,0,P|229:229|252:225,1,50,2|0,3:2|0:0,0:0:0:0:
288,31,43629,6,0,L|283:70,6,25,2|0|0|0|2|0|0,3:2|0:0|0:0|0:0|3:2|0:0|0:0,0:0:0:0:
211,81,43890,6,0,L|199:15,1,50,2|0,3:2|0:0,0:0:0:0:
370,116,44020,2,0,L|358:50,1,50,2|0,3:2|0:0,0:0:0:0:
200,270,44151,6,0,L|196:305,2,25,4|0|2,1:0|0:0|0:0,0:0:0:0:
121,206,44281,2,0,B|102:232|119:270|242:235|269:156,1,200,2|2,0:0|3:2,0:0:0:0:
337,166,44673,2,0,P|328:118|278:92,1,100,2|0,3:2|0:0,0:0:0:0:
200,270,44933,2,0,L|196:305,4,25,2|0|2|0|2,3:2|0:0|0:0|0:0|0:0,0:0:0:0:
246,363,45129,1,2,0:0:0:0:
235,367,45194,6,0,P|268:326|327:305,1,100,2|2,0:0|3:2,0:0:0:0:
202,169,45455,2,0,P|221:218|209:279,1,100,2|0,3:2|0:0,0:0:0:0:
389,239,45716,2,0,B|292:247|318:154|185:201,1,200,2|2,3:2|0:0,0:0:0:0:
203,195,46107,1,2,0:0:0:0:
138,23,46238,6,0,L|94:15,4,25,2|0|2|0|2,3:2|0:0|0:0|0:0|0:0,0:0:0:0:
49,123,46499,2,0,P|25:68|52:21,1,100,2|2,0:0|3:2,0:0:0:0:
187,180,46759,2,0,P|224:116|183:19,1,150,2|0,3:2|0:0,0:0:0:0:
138,23,47020,2,0,L|94:15,4,25,2|0|2|0|2,3:2|0:0|0:0|0:0|0:0,0:0:0:0:
132,103,47281,6,0,P|68:92|34:49,1,100,2|2,0:0|3:2,0:0:0:0:
224,155,47542,2,0,P|182:204|128:212,1,100,2|2,3:2|0:0,0:0:0:0:
315,101,47803,2,0,P|337:161|317:212,1,100,2|2,3:2|0:0,0:0:0:0:
329,194,48064,2,0,P|321:231|323:260,1,50,2|0,0:0|0:0,0:0:0:0:
282,307,48194,2,0,P|293:332|321:352,1,50,2|0,0:0|0:0,0:0:0:0:
507,344,48325,6,0,L|469:340,2,25,2|0|0,3:2|0:0|0:0,0:0:0:0:
405,367,48455,2,0,P|452:337|389:233,1,200,2|2,0:0|3:2,0:0:0:0:
329,194,48846,2,0,P|362:158|411:157,1,100,2|2,3:2|0:0,0:0:0:0:
507,344,49107,2,0,L|469:340,4,25,2|0|2|0|2,3:2|0:0|0:0|0:0|0:0,0:0:0:0:
373,327,49303,1,2,0:0:0:0:
382,324,49368,6,0,P|406:277|386:218,1,100,2|2,0:2|3:2,0:0:0:0:
269,141,49629,2,0,P|245:188|265:247,1,100,2|2,3:2|0:0,0:0:0:0:
463,324,49890,2,0,P|434:252|302:194,1,200,2|2,3:2|0:2,0:0:0:0:
331,194,50281,1,2,0:0:0:0:
135,384,50412,6,0,L|127:345,4,25,2|0|2|0|2,3:2|0:0|0:0|0:0|0:0,0:0:0:0:
80,236,50673,2,0,P|113:199|188:185,1,100,2|2,0:2|3:2,0:0:0:0:
285,326,50933,2,0,P|260:291|136:289,1,150,2|0,3:2|0:0,0:0:0:0:
135,384,51194,2,0,L|127:345,4,25,2|0|2|0|2,3:2|0:0|0:0|0:0|0:0,0:0:0:0:
208,349,51455,6,0,P|218:290|249:240,1,100,2|2,0:2|3:2,0:0:0:0:
94,188,51716,2,0,P|153:182|209:199,1,100,2|2,3:2|0:0,0:0:0:0:
251,0,51977,2,0,B|300:87|222:113|286:191,1,200,2|2,3:2|0:2,0:0:0:0:
385,36,52499,6,0,L|444:28,2,50,8|2|2,1:2|0:0|0:0,0:0:0:0:
394,110,52759,2,0,L|453:102,2,50,8|2|2,1:2|0:0|0:0,0:0:0:0:
266,156,53020,6,0,L|325:164,2,45,8|2|2,1:2|0:0|0:0,0:0:0:0:
275,82,53281,2,0,L|334:90,2,45,8|2|2,1:2|0:0|0:0,0:0:0:0:
151,41,53542,6,0,L|210:33,2,40,8|2|2,1:2|0:0|0:0,0:0:0:0:
160,115,53803,2,0,L|219:107,2,40,8|2|2,1:2|0:0|0:0,0:0:0:0:
38,166,54064,6,0,L|97:174,2,35,8|2|2,1:2|0:0|0:0,0:0:0:0:
47,92,54325,2,0,L|106:100,2,35,8|2|2,1:2|0:0|0:0,0:0:0:0:
128,335,54586,6,0,L|132:305,2,29.9999999999999,8|2|2,1:2|0:0|0:0,0:0:0:0:
141,228,54846,2,0,L|145:198,2,29.9999999999999,8|2|2,1:2|0:0|0:0,0:0:0:0:
223,168,55107,6,0,L|227:197,2,25,8|2|2,1:2|0:0|0:0,0:0:0:0:
239,267,55368,2,0,L|243:296,2,25,8|2|2,1:2|0:0|0:0,0:0:0:0:
320,320,55629,6,0,L|324:290,2,20,8|2|2,1:2|0:0|0:0,0:0:0:0:
335,227,55890,2,0,L|339:197,2,20,8|2|2,1:2|0:0|0:0,0:0:0:0:
409,180,56151,6,0,L|411:194,2,15,8|2|2,1:2|0:0|0:0,0:0:0:0:
422,266,56412,2,0,L|424:280,2,15,8|2|2,1:2|0:0|0:0,0:0:0:0:
493,62,56673,6,0,L|459:92,1,25,8|0,1:2|0:0,0:0:0:0:
475,97,56803,2,0,L|435:101,1,25,8|0,1:2|0:0,0:0:0:0:
378,111,56933,6,0,L|327:121,1,35,8|0,1:2|0:0,0:0:0:0:
338,142,57064,2,0,L|276:126,1,35,8|0,1:2|0:0,0:0:0:0:
233,121,57194,6,0,L|171:105,1,45,8|0,1:2|0:0,0:0:0:0:
177,139,57325,2,0,L|132:105,1,45,8|0,1:2|0:0,0:0:0:0:
83,62,57455,6,0,L|29:14,1,55.0000000000001,8|0,1:2|0:0,0:0:0:0:
13,53,57586,2,0,L|-2:-11,1,55.0000000000001,8|0,1:2|0:0,0:0:0:0:
49,138,57716,5,8,1:2:0:0:
50,162,57781,1,8,1:2:0:0:
52,187,57846,1,8,1:2:0:0:
53,212,57912,1,8,1:2:0:0:
55,237,57977,2,0,L|59:294,3,40,8|8|8|8,1:2|1:2|1:2|1:2,0:0:0:0:
24,335,58238,5,8,1:2:0:0:
47,308,58303,1,8,1:2:0:0:
74,286,58368,1,8,1:2:0:0:
104,268,58433,1,8,1:2:0:0:
136,255,58499,1,8,1:2:0:0:
170,246,58564,1,8,1:2:0:0:
205,243,58629,1,8,1:2:0:0:
240,246,58694,1,8,1:2:0:0:
274,253,58759,6,0,P|284:300|292:348,1,80,0|0,1:2|1:2,0:0:0:0:
207,325,59020,2,0,P|211:345|219:395,1,50,0|0,1:2|1:2,0:0:0:0:
365,194,59281,2,0,B|371:232|297:229|240:177|278:87,1,180,2|0,1:3|0:0,0:0:0:0:
273,95,59542,1,0,1:2:0:0:
241,310,59673,2,0,B|172:192|346:208|263:77,1,240,2|2,1:3|1:3,0:0:0:0:
181,49,60064,2,0,P|150:105|198:136,1,120,0|0,1:2|0:0,0:0:0:0:
181,148,60325,2,0,P|295:162|453:183,1,240,2|0,0:3|0:0,0:0:0:0:
494,205,60846,6,0,B|520:161|524:104|452:70|452:70|465:115,1,200,2|0,3:0|0:0,0:0:0:0:
465,107,61042,2,0,P|500:154|489:212,1,112.5,2|2,3:0|3:0,0:0:0:0:
459,354,61368,2,0,B|472:277|386:286|413:198|413:198|410:236|436:269,1,225,8|0,1:2|0:0,0:0:0:0:
379,347,61629,6,0,L|305:360,5,50,4|2|2|2|2|2,1:0|0:0|0:0|0:0|0:0|0:0,0:0:0:0:
274,198,62020,2,0,P|266:226|266:274,1,50,2|2,1:2|0:0,0:0:0:0:
259,323,62151,2,0,L|185:336,3,50,2|2|2|2,1:2|0:0|0:0|0:0,0:0:0:0:
114,270,62412,2,0,P|129:301|150:325,1,50,10|2,0:0|0:0,0:0:0:0:
315,249,62542,2,0,B|352:218|352:218|170:255,1,200,2|2,1:2|0:0,0:0:0:0:
94,182,62868,1,2,0:0:0:0:
94,182,62933,6,0,P|125:186|154:201,7,50,2|2|2|2|2|2|2|2,1:2|0:0|0:0|0:0|0:0|0:0|0:0|0:0,0:0:0:0:
172,83,63455,2,0,P|189:108|198:139,3,50,10|2|2|2,0:0|0:0|0:0|0:0,0:0:0:0:
216,273,63716,6,0,P|247:269|276:254,5,50,2|2|2|2|2|2,1:2|0:0|0:0|0:0|0:0|0:0,0:0:0:0:
294,369,64107,2,0,P|311:344|320:313,1,50,2|2,1:2|0:0,0:0:0:0:
335,196,64238,6,0,P|366:200|395:215,3,50,2|0|0|0,1:2|0:0|0:0|0:0,0:0:0:0:
471,196,64499,5,8,0:0:0:0:
471,196,64629,2,0,P|489:121|474:-22,2,200,0|2|2,1:0|3:0|3:0,0:0:0:0:
449,346,65020,6,0,B|438:314|438:314|307:293|307:293|326:352,1,200,2|0,3:0|0:0,0:0:0:0:
338,327,65216,2,0,L|461:348,1,112.5,2|2,3:0|3:0,0:0:0:0:
469,185,65542,2,0,B|501:184|501:184|416:227|416:227|319:157,1,225,8|0,0:0|0:0,0:0:0:0:
264,196,65803,6,0,B|255:168|255:168|265:115,1,60,0|2,1:0|0:0,0:0:0:0:
200,10,65933,2,0,L|208:96,2,60,2|2|2,0:0|0:0|0:0,0:0:0:0:
166,209,66194,1,2,1:2:0:0:
166,209,66325,2,0,B|134:248|134:248|155:170|155:170|126:90,1,180,2|2,1:2|0:0,0:0:0:0:
106,11,66586,5,10,0:0:0:0:
69,179,66716,2,0,B|43:181|43:181|3:162,5,60,2|2|2|2|2|2,1:2|0:0|0:0|0:0|0:0|0:0,0:0:0:0:
53,92,67107,5,2,1:2:0:0:
90,260,67238,2,0,B|116:262|116:262|156:243,5,60,2|2|2|2|2|2,0:0|0:0|0:0|0:0|0:0|0:0,0:0:0:0:
96,178,67629,5,10,0:2:0:0:
96,178,67759,1,2,0:0:0:0:
59,346,67890,2,0,B|33:348|33:348|-7:329,3,60,2|2|2|2,1:2|0:0|0:0|0:0,0:0:0:0:
205,270,68151,6,0,B|161:252|161:252|54:267|54:267|12:248,1,200,2|0,0:0|1:0,0:0:0:0:
15,240,68412,2,0,B|55:258|55:258|162:243|162:243|206:261,1,200,0|0,1:0|3:0,0:0:0:0:
364,327,68673,5,8,0:0:0:0:
364,327,68803,2,0,B|403:308|403:308|529:332,2,150,2|2|2,1:2|0:0|0:0,0:0:0:0:
192,243,69194,6,0,P|209:157|289:193,1,200,0|0,1:0|0:0,0:0:0:0:
290,206,69390,2,0,P|226:215|193:276,1,112.5
364,327,69716,2,0,B|399:377|399:377|370:183,1,225,8|0,0:0|0:0,0:0:0:0:
286,326,69977,6,0,L|280:389,5,50,0|2|2|2|2|2,1:0|0:3|0:3|0:3|0:3|0:3,0:0:0:0:
138,244,70368,2,0,P|159:232|189:226,1,50,2|2,1:3|0:3,0:0:0:0:
257,166,70499,2,0,L|261:215,3,50,2|2|2|2,1:3|0:3|0:3|0:3,0:0:0:0:
435,155,70759,2,0,P|414:143|384:137,1,50,8|2,0:0|0:3,0:0:0:0:
279,36,70890,2,0,L|238:7,2,50,2|2|2,0:3|0:3|0:3,0:0:0:0:
366,43,71086,2,0,L|411:22,2,50,2|2|2,0:3|0:3|0:3,0:0:0:0:
317,104,71281,6,0,L|312:153,1,50,2|0,1:3|0:0,0:0:0:0:
110,229,71412,2,0,L|259:213,2,150,2|2|2,0:0|0:0|0:0,0:0:0:0:
333,53,71803,2,0,B|344:79|344:79|328:177|328:177|308:144,1,150,10|2,0:0|0:0,0:0:0:0:
251,44,71999,1,0,0:0:0:0:
251,44,72064,2,0,L|102:21,2,150,2|2|2,1:2|0:0|0:0,0:0:0:0:
289,229,72455,2,0,B|322:243|322:243|357:226,1,75,2|0,1:2|0:0,0:0:0:0:
357,226,72586,2,0,B|368:252|368:252|352:350|352:350|332:317,1,150,2|2,1:2|0:0,0:0:0:0:
218,177,72846,6,0,B|202:211|202:211|215:282,1,100.000003814697,8|0,0:0|0:0,0:0:0:0:
213,272,73020,2,0,B|145:287|145:287|103:263,1,100.000003814697,0|0,1:0|0:0,0:0:0:0:
81,84,73194,2,0,B|149:69|149:69|191:93,1,100.000003814697,0|0,1:0|0:0,0:0:0:0:
333,191,73368,6,0,P|308:178|281:175,1,50,0|0,1:0|0:0,0:0:0:0:
272,186,73499,2,0,P|265:160|243:132,1,50
244,131,73629,2,0,P|251:121|261:77,1,50,0|0,1:0|0:0,0:0:0:0:
374,5,73759,6,0,L|450:-3,3,50,8|0|2|2,1:2|0:0|3:2|0:0,0:0:0:0:
275,8,74020,2,0,L|210:2,1,50,2|2,1:2|0:0,0:0:0:0:
373,24,74151,2,0,L|437:32,3,50,10|2|2|2,1:2|0:0|0:0|0:0,0:0:0:0:
257,103,74412,6,0,P|247:128|245:169,5,50,0|0|0|0|0|0,1:0|0:0|0:0|0:0|0:0|0:0,0:0:0:0:
314,27,74803,2,0,P|342:9|370:5,3,50,8|0|2|2,1:2|0:0|3:2|0:0,0:0:0:0:
226,151,75064,2,0,P|238:178|261:203,1,50,2|2,1:2|0:0,0:0:0:0:
268,44,75194,2,0,P|274:21|292:-3,3,50,10|2|2|2,1:2|0:0|0:0|0:0,0:0:0:0:
116,92,75455,6,0,P|85:84|63:65,1,50,0|0,1:0|0:0,0:0:0:0:
134,148,75586,2,0,P|128:118|133:83,1,50
113,200,75716,2,0,P|127:170|148:155,1,50,0|0,1:0|0:0,0:0:0:0:
0,146,75846,6,0,L|15:214,3,50,8|0|2|2,1:2|0:0|3:2|0:0,0:0:0:0:
42,311,76107,2,0,L|51:243,1,50,2|2,1:2|0:0,0:0:0:0:
36,137,76238,2,0,L|23:205,3,50,10|2|2|2,1:2|0:0|0:0|0:0,0:0:0:0:
123,274,76499,6,0,P|153:263|181:261,1,50,0|2,1:0|0:0,0:0:0:0:
225,162,76629,2,0,P|192:151|168:133,5,50,2|2|2|2|2|2,0:0|0:0|0:0|0:0|0:0|0:0,0:0:0:0:
250,305,77020,2,0,P|272:238|387:216,1,150,8|0,1:2|0:0,0:0:0:0:
420,222,77281,1,0,0:0:0:0:
421,209,77346,1,0,0:0:0:0:
423,197,77412,1,0,0:0:0:0:
424,184,77477,1,0,0:0:0:0:
426,172,77542,6,0,L|432:111,1,50,0|0,3:0|0:0,0:0:0:0:
337,56,77673,2,0,L|468:38,1,100,0|0,0:0|3:0,0:0:0:0:
436,42,77933,1,0,0:0:0:0:
336,191,78064,2,0,P|310:133|193:132,1,150,0|0,3:0|0:0,0:0:0:0:
231,111,78325,2,0,L|223:170,3,50,0|0|0|0,3:0|0:0|0:0|0:0,0:0:0:0:
171,249,78586,2,0,P|223:242|279:241,1,100,0|0,3:0|0:0,0:0:0:0:
271,25,78846,2,0,P|219:32|163:33,1,100,0|0,3:0|0:0,0:0:0:0:
180,301,79107,2,0,B|184:218|222:261|226:129,1,150,0|0,3:0|0:0,0:0:0:0:
224,159,79368,2,0,L|172:137,3,50,0|0|0|0,3:0|0:0|0:0|0:0,0:0:0:0:
350,251,79629,6,0,P|292:269|259:308,1,100,0|0,3:0|0:0,0:0:0:0:
212,112,79890,2,0,P|231:163|279:199,1,100,0|0,3:0|0:0,0:0:0:0:
349,332,80086,1,0,0:0:0:0:
349,332,80151,2,0,P|373:269|364:184,1,150,0|0,3:0|0:0,0:0:0:0:
366,188,80412,2,0,L|415:178,1,50,0|0,3:0|0:0,0:0:0:0:
512,213,80542,1,0,0:0:0:0:
512,213,80673,6,0,P|506:148|505:93,1,100,0|0,3:0|0:0,0:0:0:0:
292,41,80933,2,0,P|298:106|299:161,1,100,0|0,3:0|0:0,0:0:0:0:
298,354,81194,2,0,P|339:280|416:280,1,150,0|0,3:0|0:0,0:0:0:0:
397,272,81455,2,0,L|408:347,3,50,0|0|0|0,3:0|0:0|0:0|0:0,0:0:0:0:
454,201,81716,6,0,P|460:173|457:135,1,50,0|0,1:0|0:0,0:0:0:0:
421,194,81846,2,0,P|430:169|454:143,1,50,0|0,3:0|0:0,0:0:0:0:
333,88,81977,6,0,P|345:123|346:155,1,50,0|0,1:0|0:0,0:0:0:0:
310,98,82107,2,0,P|317:120|344:149,1,50,0|0,3:0|0:0,0:0:0:0:
228,199,82238,6,0,P|236:167|236:143,1,50,0|0,1:0|0:0,0:0:0:0:
214,195,82368,2,0,P|223:164|237:138,1,50,0|0,3:0|0:0,0:0:0:0:
132,100,82499,6,0,P|141:127|146:158,1,50,0|0,1:0|0:0,0:0:0:0:
125,102,82629,2,0,P|133:128|149:154,1,50,0|0,3:0|0:0,0:0:0:0:
39,155,82759,5,0,1:0:0:0:
48,178,82825,1,0,1:0:0:0:
53,202,82890,1,0,1:0:0:0:
53,227,82955,1,0,1:0:0:0:
48,252,83020,2,0,L|65:323,3,50,0|0|0|0,1:0|1:0|1:0|1:0,0:0:0:0:
20,367,83281,5,0,1:0:0:0:
56,379,83346,1,0,1:0:0:0:
96,373,83412,1,0,1:0:0:0:
127,349,83477,1,0,1:0:0:0:
143,312,83542,1,0,1:0:0:0:
158,275,83607,1,0,1:0:0:0:
189,251,83673,1,0,1:0:0:0:
228,245,83738,1,0,1:0:0:0:
266,258,83803,6,0,P|319:255|373:246,1,100,0|0,1:0|1:0,0:0:0:0:
343,169,84064,2,0,P|302:175|262:176,1,75.0000000000002,0|0,1:0|1:0,0:0:0:0:
328,352,84325,2,0,P|382:259|516:261,1,225,8|0,1:2|0:0,0:0:0:0:
509,265,84586,1,0,1:0:0:0:
411,89,84716,2,0,B|388:58|449:23|527:82|485:192|485:192|522:225|507:270,1,300.000011444092,8|8,1:2|1:2,0:0:0:0:
429,382,85107,6,0,P|422:352|420:328,2,50.0000000000001,0|0|0,1:0|3:0|3:0,0:0:0:0:
430,256,85368,2,0,L|263:231,1,150,8|0,0:2|0:0,0:0:0:0:
219,306,85890,5,4,3:1:0:0:
219,306,85977,1,0,3:0:0:0:
219,306,86064,1,0,3:0:0:0:
219,306,86151,2,0,P|183:311|144:324,2,66.6666666666667,0|0|0,3:0|3:0|3:0,0:0:0:0:
287,94,86412,6,0,B|271:242|271:242|242:154,1,225,8|0,0:2|0:0,0:0:0:0:
357,268,86673,5,0,1:3:0:0:
357,268,86759,1,0,3:0:0:0:
357,268,86846,1,0,3:0:0:0:
357,268,86933,2,0,L|424:231,2,66.6666666666667,0|0|0,3:0|3:0|3:0,0:0:0:0:
509,169,87194,2,0,L|486:281,2,66.6666666666667,0|0|0,1:3|3:0|3:0,0:0:0:0:
361,132,87455,2,0,L|430:158,2,66.6666666666667,8|0|0,0:2|3:0|3:0,0:0:0:0:
284,178,87716,1,0,3:0:0:0:
284,178,87803,1,0,3:0:0:0:
284,178,87890,1,0,3:0:0:0:
284,178,87977,6,0,L|209:170,2,66.6666666666667,0|0|0,1:3|3:0|3:0,0:0:0:0:
171,108,88238,2,0,L|98:97,2,66.6666666666667,0|0|0,3:0|3:0|3:0,0:0:0:0:
358,142,88499,2,0,L|283:159,2,66.6666666666667,8|0|0,0:2|3:0|3:0,0:0:0:0:
166,222,88759,5,0,1:3:0:0:
166,222,88846,1,0,3:0:0:0:
166,222,88933,1,0,3:0:0:0:
166,222,89020,2,0,L|248:206,2,66.6666666666667,0|0|0,3:0|3:0|3:0,0:0:0:0:
23,290,89281,2,0,L|14:373,2,66.6666666666667,0|0|0,1:3|3:0|3:0,0:0:0:0:
72,166,89542,2,0,L|90:263,2,66.6666666666667,8|0|0,0:2|3:0|3:0,0:0:0:0:
141,293,89803,1,0,3:0:0:0:
117,314,89890,1,0,3:0:0:0:
111,343,89977,1,0,3:0:0:0:
167,348,90064,5,0,1:3:0:0:
167,348,90151,1,0,3:0:0:0:
167,348,90238,1,0,3:0:0:0:
167,348,90325,2,0,P|205:354|243:372,2,66.6666666666667,0|0|0,3:0|3:0|3:0,0:0:0:0:
227,116,90586,6,0,B|213:154|213:154|237:277|237:277|259:215,1,225,8|0,0:2|0:0,0:0:0:0:
302,145,90846,6,0,B|333:135|333:135|433:159,1,100,2|2,1:2|0:0,0:0:0:0:
476,173,91042,1,2,0:0:0:0:
476,173,91107,6,0,L|488:235,4,50,2|0|2|0|2,0:0|0:0|1:3|0:0|1:2,0:0:0:0:
242,198,91499,1,2,0:2:0:0:
399,151,91629,6,0,L|405:120,4,25,10|2|2|2|2,0:2|3:0|1:3|3:0|3:0,0:0:0:0:
188,165,92020,1,2,3:0:0:0:
335,201,92151,6,0,L|347:263,4,50,2|2|2|2|2,1:2|0:2|0:2|0:2|0:2,0:0:0:0:
120,211,92542,1,2,0:2:0:0:
267,162,92673,6,0,L|273:131,4,25,8|2|2|2|2,0:2|0:3|0:3|0:3|1:3,0:0:0:0:
54,165,93064,1,2,0:3:0:0:
200,206,93194,6,0,L|212:268,4,50,2|2|2|2|2,0:0|0:0|1:2|0:0|1:2,0:0:0:0:
1,218,93586,1,2,0:0:0:0:
134,168,93716,2,0,L|130:106,1,50,8|0,0:2|0:0,0:0:0:0:
113,93,93846,6,0,L|124:280,2,150,2|2|2,1:2|0:2|0:2,0:0:0:0:
62,300,94238,5,0,1:3:0:0:
62,300,94325,1,0,3:0:0:0:
62,300,94412,1,0,3:0:0:0:
62,300,94499,2,0,P|58:341|47:380,2,66.6666666666667,0|0|0,3:0|3:0|3:0,0:0:0:0:
204,249,94759,6,0,B|162:259|162:259|365:290,1,225,8|0,0:2|0:0,0:0:0:0:
241,376,95020,5,0,1:3:0:0:
241,376,95107,1,0,3:0:0:0:
241,376,95194,1,0,3:0:0:0:
241,376,95281,2,0,P|276:368|311:366,2,66.6666666666667,0|0|0,3:0|3:0|3:0,0:0:0:0:
302,213,95542,2,0,P|293:252|290:310,2,66.6666666666667,0|0|0,1:3|3:0|3:0,0:0:0:0:
346,94,95803,2,0,P|354:128|360:173,2,66.6666666666667,8|0|0,0:2|3:0|3:0,0:0:0:0:
408,276,96064,5,0,3:0:0:0:
408,276,96151,1,0,3:0:0:0:
408,276,96238,1,0,3:0:0:0:
408,276,96325,2,0,P|446:266|476:266,2,66.6666666666667,0|0|0,1:3|3:0|3:0,0:0:0:0:
290,218,96586,2,0,P|270:198|220:172,2,66.6666666666667,0|0|0,3:0|3:0|3:0,0:0:0:0:
399,142,96846,2,0,P|418:111|443:86,2,66.6666666666667,8|0|0,0:2|3:0|3:0,0:0:0:0:
271,247,97107,5,0,1:3:0:0:
271,247,97194,1,0,3:0:0:0:
271,247,97281,1,0,3:0:0:0:
271,247,97368,2,0,P|225:242|187:248,2,66.6666666666667,0|0|0,3:0|3:0|3:0,0:0:0:0:
393,175,97629,2,0,P|425:154|464:147,2,66.6666666666667,0|0|0,1:3|3:0|3:0,0:0:0:0:
277,10,97890,2,0,P|294:45|299:90,2,66.6666666666667,8|0|0,0:2|3:0|3:0,0:0:0:0:
279,156,98151,1,0,3:0:0:0:
246,176,98238,1,0,3:0:0:0:
236,216,98325,1,0,3:0:0:0:
271,268,98412,5,0,1:3:0:0:
271,268,98499,1,0,3:0:0:0:
271,268,98586,1,0,3:0:0:0:
271,268,98673,2,0,L|281:349,2,66.6666666666667,0|0|0,3:0|0:0|0:0,0:0:0:0:
348,80,99194,2,0,L|287:70,1,50,8|0,1:2|0:0,0:0:0:0:
283,145,99325,1,0,0:0:0:0:
249,27,99455,6,0,L|260:90,4,40,0|0|0|0|0,1:3|0:0|0:0|0:0|3:0,0:0:0:0:
265,143,99846,1,8,1:2:0:0:
207,254,99977,6,0,L|230:204,4,45,0|0|0|0|8,0:0|0:0|1:3|0:0|1:2,0:0:0:0:
280,155,100368,1,0,0:0:0:0:
418,135,100499,6,0,L|362:142,4,50,0|0|0|0|0,1:3|0:0|0:0|0:0|3:0,0:0:0:0:
268,132,100890,1,8,1:2:0:0:
137,75,101020,6,0,L|208:108,4,55,0|0|0|0|8,0:0|0:0|1:3|0:0|1:2,0:0:0:0:
267,153,101412,1,0,0:0:0:0:
300,308,101542,6,0,L|287:250,4,60,0|0|0|0|8,1:3|0:0|0:0|0:0|1:2,0:0:0:0:
266,141,101933,1,0,1:3:0:0:
306,59,102064,5,8,1:2:0:0:
306,59,102194,1,8,1:2:0:0:
303,228,102325,2,0,L|299:316,1,80,8|8,1:3|1:3,0:0:0:0:
183,142,102586,5,4,1:0:0:0:
183,142,102673,1,0,3:0:0:0:
183,142,102759,1,0,3:0:0:0:
183,142,102846,2,0,P|141:122|115:119,2,66.6666666666667,0|0|0,3:0|3:0|3:0,0:0:0:0:
224,253,103107,2,0,P|297:235|388:212,1,150,0|0,1:0|0:0,0:0:0:0:
419,160,103368,2,0,P|453:164|485:174,2,50,8|0|0,1:2|0:0|0:0,0:0:0:0:
481,29,103629,6,0,L|465:82,1,50,2|2,1:2|2:2,0:0:0:0:
450,21,103759,2,0,L|447:85,1,50,2|2,2:2|2:2,0:0:0:0:
419,18,103890,2,0,L|428:77,1,50,2|2,2:2|2:2,0:0:0:0:
385,24,104020,2,0,L|406:83,1,50,10|2,1:2|2:2,0:0:0:0:
353,38,104151,6,0,L|385:91,1,50,2|2,1:2|2:2,0:0:0:0:
385,24,104281,2,0,L|401:71,1,50,2|2,2:2|2:2,0:0:0:0:
419,18,104412,2,0,L|426:67,1,50,10|2,1:2|2:2,0:0:0:0:
450,21,104542,2,0,L|447:70,1,50,2|2,2:2|2:2,0:0:0:0:
481,29,104673,6,0,L|465:82,1,50,2|2,1:2|2:2,0:0:0:0:
450,21,104803,2,0,L|447:85,1,50,2|2,2:2|2:2,0:0:0:0:
419,18,104933,2,0,L|428:77,1,50,2|2,2:2|2:2,0:0:0:0:
385,24,105064,2,0,L|406:83,1,50,10|2,1:2|2:2,0:0:0:0:
353,38,105194,6,0,L|385:91,1,50,2|2,1:2|2:2,0:0:0:0:
385,24,105325,2,0,L|401:71,1,50,2|2,2:2|2:2,0:0:0:0:
419,18,105455,2,0,L|426:67,1,50,10|2,1:2|2:2,0:0:0:0:
450,21,105586,2,0,L|447:70,1,50,2|2,2:2|2:2,0:0:0:0:
481,29,105716,2,0,L|465:82,1,50,0|0,1:0|0:0,0:0:0:0:
430,143,105846,6,0,B|452:227|452:227|437:289,1,120,2|2,0:3|0:3,0:0:0:0:
378,368,106107,2,0,B|356:284|356:284|371:222,1,120,8|2,1:2|1:3,0:0:0:0:
290,166,106368,2,0,L|275:244,1,60,2|0,0:3|0:0,0:0:0:0:
278,224,106499,2,0,B|192:233|192:233|164:194|164:194|46:207,1,225,8|0,1:2|0:0,0:0:0:0:
116,300,106759,5,4,1:2:0:0:
116,300,106846,1,0,3:0:0:0:
116,300,106933,1,0,3:0:0:0:
116,300,107020,2,0,P|104:348|102:390,2,66.6666666666667,0|0|0,3:0|3:0|3:0,0:0:0:0:
43,201,107281,2,0,P|71:131|156:117,1,150,0|0,1:0|0:0,0:0:0:0:
235,167,107542,2,0,L|170:181,2,50,8|0|0,1:2|0:0|0:0,0:0:0:0:
357,129,107803,6,0,P|388:121|424:98,1,50,2|2,1:2|2:2,0:0:0:0:
387,174,107933,2,0,P|416:177|448:176,1,50,2|2,2:2|2:2,0:0:0:0:
406,234,108064,2,0,L|466:264,1,50,2|2,2:2|2:2,0:0:0:0:
346,252,108194,2,0,P|364:279|379:308,1,50,10|2,1:2|2:2,0:0:0:0:
290,246,108325,6,0,P|291:279|289:305,1,50,2|2,1:2|2:2,0:0:0:0:
346,252,108455,2,0,P|361:273|373:295,1,50,2|2,2:2|2:2,0:0:0:0:
406,234,108586,2,0,L|450:256,1,50,10|2,1:2|2:2,0:0:0:0:
387,174,108716,2,0,P|411:176|436:176,1,50,2|2,2:2|2:2,0:0:0:0:
357,129,108846,6,0,P|388:121|424:98,1,50,2|2,1:2|2:2,0:0:0:0:
387,174,108977,2,0,P|416:177|448:176,1,50,2|2,2:2|2:2,0:0:0:0:
406,234,109107,2,0,L|466:264,1,50,2|2,2:2|2:2,0:0:0:0:
346,252,109238,2,0,P|364:279|379:308,1,50,10|2,1:2|2:2,0:0:0:0:
290,246,109368,6,0,P|291:279|289:305,1,50,2|2,1:2|2:2,0:0:0:0:
346,252,109499,2,0,P|361:273|373:295,1,50,2|2,2:2|2:2,0:0:0:0:
406,234,109629,2,0,L|450:256,1,50,10|2,1:2|2:2,0:0:0:0:
387,174,109759,2,0,P|411:176|436:176,1,50,2|2,2:2|2:2,0:0:0:0:
357,129,109890,2,0,P|388:121|424:98,1,50,0|0,1:0|0:0,0:0:0:0:
246,72,110020,6,0,P|243:37|162:35,1,120,2|2,0:3|0:3,0:0:0:0:
106,192,110281,2,0,P|113:143|174:104,1,120,8|2,1:2|1:3,0:0:0:0:
316,189,110542,2,0,P|336:211|346:242,1,60,2|0,0:3|0:0,0:0:0:0:
345,239,110673,2,0,B|271:177|187:181|187:181|217:191|229:230,1,225,8|0,1:2|0:0,0:0:0:0:
151,271,110933,6,0,P|152:299|142:352,3,66.6666666666667,4|0|0|0,1:0|3:0|3:0|3:0,0:0:0:0:
83,116,111325,1,8,1:2:0:0:
71,117,111390,2,0,L|137:106,1,50,0|0,0:0|3:0,0:0:0:0:
244,259,111586,1,0,1:0:0:0:
206,187,111716,2,0,L|261:172,1,50,8|0,1:2|0:0,0:0:0:0:
254,173,111846,2,0,L|309:158,1,50
302,159,111977,6,0,L|357:144,4,50,2|2|2|2|2,1:2|0:0|0:0|0:0|0:0,0:0:0:0:
409,91,112368,1,10,1:2:0:0:
435,90,112433,2,0,L|382:60,1,50,0|0,0:0|3:0,0:0:0:0:
368,249,112629,2,0,L|300:239,1,50,0|0,1:0|0:0,0:0:0:0:
456,180,112759,2,0,B|448:204|448:204|462:282,1,100,10|2,1:2|0:0,0:0:0:0:
431,377,113020,6,0,L|378:367,1,50,2|2,1:2|0:0,0:0:0:0:
381,367,113151,2,0,L|328:357,1,50,2|2,0:0|0:0,0:0:0:0:
331,357,113281,2,0,L|278:347,1,50,2|2,0:0|0:0,0:0:0:0:
222,212,113412,1,10,1:2:0:0:
251,191,113477,2,0,L|242:258,1,50,0|0,0:0|3:0,0:0:0:0:
165,347,113673,2,0,L|106:357,1,50,0|0,1:0|0:0,0:0:0:0:
10,245,113803,2,0,B|19:258|19:258|132:279,1,100,10|2,1:2|0:0,0:0:0:0:
266,349,114064,6,0,L|301:314,1,50,2|2,1:2|0:0,0:0:0:0:
301,314,114194,2,0,L|351:299,1,50,2|2,0:0|0:0,0:0:0:0:
349,299,114325,2,0,L|412:304,1,50,2|2,0:0|0:0,0:0:0:0:
482,228,114455,1,10,1:2:0:0:
492,208,114520,2,0,L|427:227,1,50,0|0,0:0|3:0,0:0:0:0:
509,378,114716,2,0,B|482:366|482:366|435:363,1,50,0|0,1:0|0:0,0:0:0:0:
370,185,114846,2,0,B|364:207|364:207|266:237|266:237|256:275,1,150,10|2,1:2|0:3,0:0:0:0:
241,285,115107,6,0,P|256:328|260:358,3,66.6666666666667,4|0|0|0,1:2|3:0|3:0|3:0,0:0:0:0:
184,154,115499,2,0,L|104:149,1,50,8|0,1:2|0:0,0:0:0:0:
141,258,115629,2,0,L|126:147,1,100,0|0,3:0|1:0,0:0:0:0:
261,71,115890,1,8,1:2:0:0:
261,71,115955,1,0,0:0:0:0:
261,71,116020,2,0,L|249:138,1,50
324,225,116151,6,0,L|302:170,4,50,2|2|2|2|2,1:2|0:0|0:0|0:0|0:0,0:0:0:0:
474,132,116542,2,0,L|400:145,1,50,10|0,1:2|0:0,0:0:0:0:
404,257,116673,2,0,L|423:150,1,100,0|0,3:0|1:0,0:0:0:0:
343,25,116933,1,10,1:2:0:0:
343,25,116999,1,2,0:0:0:0:
343,25,117064,2,0,L|342:103,1,50,2|2,0:0|0:0,0:0:0:0:
261,106,117194,6,0,L|228:60,2,50,8|0|0,1:2|0:0|1:0,0:0:0:0:
342,197,117455,2,0,L|388:164,2,50,8|0|0,1:2|0:0|1:0,0:0:0:0:
251,278,117716,2,0,L|284:324,2,50,8|0|0,1:2|0:0|1:0,0:0:0:0:
170,187,117977,2,0,L|124:220,2,50,8|0|0,1:2|0:0|1:0,0:0:0:0:
265,75,118238,6,0,L|270:18,2,50,8|0|0,1:2|0:0|1:0,0:0:0:0:
247,309,118499,2,0,L|242:366,2,50,8|0|0,1:2|0:0|1:0,0:0:0:0:
208,144,118759,5,8,1:2:0:0:
304,240,118890,1,8,1:2:0:0:
304,144,119020,1,8,1:3:0:0:
208,240,119151,1,8,1:3:0:0:
256,192,119281,5,4,1:0:0:0:
256,192,119346,12,0,123455,0:0:0:0:
470,352,135977,6,0,L|404:335,1,50,2|2,3:2|0:0,0:0:0:0:
430,265,136238,2,0,L|320:276,1,100,2|2,3:2|0:0,0:0:0:0:
330,274,137020,2,0,P|321:235|322:217,1,50,2|2,3:2|0:0,0:0:0:0:
256,179,137281,2,0,P|268:139|311:98,1,100,2|2,3:2|0:0,0:0:0:0:
308,99,138064,6,0,L|366:107,1,50,2|2,3:2|0:0,0:0:0:0:
370,185,138325,2,0,L|259:168,1,100,2|2,3:2|0:0,0:0:0:0:
271,169,139107,2,0,P|243:178|225:190,1,50,2|2,3:2|0:0,0:0:0:0:
169,128,139368,2,0,P|206:105|280:85,1,100,2|2,3:2|0:0,0:0:0:0:
259,87,140151,6,0,L|256:137,1,50,2|2,3:2|0:0,0:0:0:0:
189,282,140412,2,0,L|175:173,1,100,2|2,3:2|0:0,0:0:0:0:
176,182,141194,2,0,L|231:210,1,50,2|2,3:2|0:0,0:0:0:0:
396,194,141455,2,0,L|296:206,1,100,2|2,3:2|0:0,0:0:0:0:
296,206,142238,6,0,L|300:149,1,50,2|2,3:2|0:0,0:0:0:0:
310,83,142499,2,0,L|206:34,1,100,2|2,3:2|0:0,0:0:0:0:
219,40,143281,2,0,L|276:51,1,50,2|2,3:2|0:0,0:0:0:0:
288,121,143542,2,0,L|302:244,1,100,2|2,3:2|0:0,0:0:0:0:
299,220,144325,6,0,P|326:205|365:203,1,50,2|2,3:2|0:0,0:0:0:0:
407,155,144586,2,0,P|454:168|490:222,1,100,2|2,3:2|0:0,0:0:0:0:
485,206,145107,1,2,0:0:0:0:
473,349,145368,2,0,P|434:354|406:345,1,50,2|2,3:2|0:0,0:0:0:0:
349,371,145629,2,0,P|313:339|302:288,1,100,2|2,3:2|0:0,0:0:0:0:
301,289,146151,1,2,0:0:0:0:
219,189,146412,6,0,L|226:132,1,50,2|2,3:2|0:0,0:0:0:0:
228,63,146673,2,0,P|272:49|342:59,1,100,2|2,3:2|0:0,0:0:0:0:
325,52,147194,1,2,0:0:0:0:
361,263,147455,2,0,L|418:256,1,50,2|2,3:2|0:0,0:0:0:0:
487,254,147716,2,0,P|501:210|491:140,1,100,2|2,3:2|0:0,0:0:0:0:
497,156,148238,1,2,0:0:0:0:
391,111,148499,6,0,P|361:85|345:58,1,50,2|2,3:2|0:0,0:0:0:0:
345,0,148759,2,0,L|233:14,1,100,2|2,3:2|0:0,0:0:0:0:
245,12,149281,1,2,0:0:0:0:
89,89,149542,2,0,P|80:115|73:157,1,50,2|2,3:2|0:0,0:0:0:0:
24,199,149803,2,0,L|40:317,1,100,2|2,3:2|0:0,0:0:0:0:
226,273,150325,1,2,0:0:0:0:
226,273,150455,1,2,0:0:0:0:
226,273,150586,6,0,P|261:267|285:204,1,100,2|0,3:2|3:2,0:0:0:0:
251,146,150977,1,2,0:2:0:0:
259,343,151107,5,2,0:2:0:0:
256,192,151238,12,0,152542,0:0:0:0:
223,214,152673,6,0,P|186:197|146:194,1,75.0000000000002,0|0,3:0|0:0,0:0:0:0:
83,241,152933,1,2,0:0:0:0:
166,357,153194,1,2,0:0:0:0:
223,214,153455,2,0,P|218:177|204:152,3,50.0000000000001,2|2|2|2,3:2|0:0|0:0|0:0,0:0:0:0:
160,272,153846,1,2,0:0:0:0:
223,214,153977,2,0,P|244:176|250:139,1,75.0000000000002,2|2,3:2|0:0,0:0:0:0:
188,38,154238,1,2,0:0:0:0:
114,55,154368,2,0,L|72:30,2,37.5000000000001,2|0|2,0:0|0:0|0:0,0:0:0:0:
110,132,154629,1,2,0:0:0:0:
223,214,154759,6,0,P|239:261|240:295,1,75.0000000000002,2|0,3:2|0:0,0:0:0:0:
181,350,155020,1,2,0:0:0:0:
75,244,155281,1,2,0:0:0:0:
223,214,155542,2,0,P|249:222|273:236,3,50.0000000000001,2|2|2|2,3:2|0:0|0:0|0:0,0:0:0:0:
159,270,155933,1,2,0:0:0:0:
223,214,156064,2,0,P|267:200|303:198,1,75.0000000000002,2|2,3:2|0:0,0:0:0:0:
373,262,156325,1,2,0:0:0:0:
373,262,156455,1,2,0:0:0:0:
295,197,156586,2,0,P|251:183|215:181,1,75.0000000000002,2|2,0:0|0:0,0:0:0:0:
211,99,156846,6,0,L|202:20,1,75.0000000000002,2|0,3:2|0:0,0:0:0:0:
309,52,157107,1,2,0:0:0:0:
108,73,157368,1,2,0:0:0:0:
211,99,157629,2,0,L|211:39,3,50.0000000000001,2|2|2|2,3:2|0:0|0:0|0:0,0:0:0:0:
221,179,158020,1,2,0:0:0:0:
211,99,158151,2,0,L|202:20,1,75.0000000000002,2|2,3:2|0:0,0:0:0:0:
150,239,158412,1,2,0:0:0:0:
68,233,158542,2,0,L|30:267,2,37.5000000000001,2|0|2,0:0|0:0|0:0,0:0:0:0:
75,150,158803,1,2,0:0:0:0:
230,256,158933,6,0,P|275:255|326:269,1,75.0000000000002,2|2,3:2|0:0,0:0:0:0:
297,341,159194,1,2,0:0:0:0:
297,341,159325,1,2,0:0:0:0:
317,186,159455,1,2,0:0:0:0:
317,186,159586,1,2,0:0:0:0:
230,256,159716,2,0,P|185:257|134:243,1,75.0000000000002,2|2,3:2|0:0,0:0:0:0:
151,170,159977,1,2,0:0:0:0:
230,256,160107,1,2,0:0:0:0:
230,256,160173,1,2,0:0:0:0:
230,256,160238,2,0,P|241:299|244:342,1,75.0000000000002,2|2,3:2|0:0,0:0:0:0:
161,379,160499,2,0,L|167:328,4,37.5000000000001,2|0|2|2|2,0:0|0:0|0:0|0:0|0:0,0:0:0:0:
88,324,160890,1,2,0:0:0:0:
137,183,161020,6,0,L|217:169,1,75.0000000000002,2|0,3:2|0:0,0:0:0:0:
268,105,161281,1,2,0:0:0:0:
316,260,161542,1,2,0:0:0:0:
137,183,161803,2,0,P|140:146|152:119,3,50.0000000000001,2|2|2|2,3:2|0:0|0:0|0:0,0:0:0:0:
225,247,162194,1,2,0:0:0:0:
137,183,162325,2,0,L|57:197,1,75.0000000000002,2|2,3:2|0:0,0:0:0:0:
0,141,162586,1,2,0:0:0:0:
12,50,162716,2,0,L|-2:0,2,37.5000000000001,2|0|2,0:0|0:0|0:0,0:0:0:0:
95,29,162977,1,2,0:0:0:0:
229,124,163107,6,0,P|243:172|248:208,1,75.0000000000002,2|0,3:2|0:0,0:0:0:0:
270,35,163368,1,2,0:0:0:0:
228,287,163629,1,2,0:0:0:0:
229,124,163890,2,0,P|199:119|173:117,3,50.0000000000001,2|2|2|2,3:2|0:0|0:0|0:0,0:0:0:0:
332,191,164281,1,2,0:0:0:0:
229,124,164412,2,0,P|215:76|210:40,1,75.0000000000002,2|2,3:2|0:0,0:0:0:0:
354,12,164673,1,2,0:0:0:0:
354,12,164803,1,2,0:0:0:0:
246,51,164933,2,0,P|232:99|227:135,1,75.0000000000002,2|2,0:0|0:0,0:0:0:0:
309,341,165194,6,0,L|296:253,1,75.0000000000002,2|0,3:2|0:0,0:0:0:0:
361,205,165455,1,2,0:0:0:0:
504,309,165716,1,2,0:0:0:0:
309,341,165977,2,0,P|313:311|320:292,3,50.0000000000001,2|2|2|2,3:2|0:0|0:0|0:0,0:0:0:0:
442,366,166368,1,2,0:0:0:0:
310,342,166499,2,0,P|342:308|385:288,1,75.0000000000002,2|2,3:2|0:0,0:0:0:0:
426,171,166759,1,2,0:0:0:0:
373,87,166890,2,0,L|391:27,2,37.5000000000001,2|0|2,0:0|0:0|0:0,0:0:0:0:
274,108,167151,1,2,0:0:0:0:
139,192,167281,6,0,P|100:189|49:181,1,75.0000000000002,2|2,3:2|0:0,0:0:0:0:
258,195,167542,1,2,0:0:0:0:
258,195,167673,1,2,0:0:0:0:
168,204,167803,1,2,0:0:0:0:
168,204,167933,1,2,0:0:0:0:
283,210,168064,2,0,P|322:213|373:221,1,75.0000000000002,2|2,3:2|0:0,0:0:0:0:
124,93,168325,6,0,L|97:52,1,50,0|0,3:2|3:2,0:0:0:0:
124,93,168455,2,0,B|111:53|111:53|165:8|245:48|231:121,1,200,2|0,3:0|3:2,0:0:0:0:
288,160,168781,1,0,0:0:0:0:
288,160,168846,2,0,P|275:211|236:242,1,80,2|0,3:3|3:2,0:0:0:0:
124,93,169107,2,0,P|144:44|231:20,1,120,2|0,3:3|0:0,0:0:0:0:
375,104,169368,6,0,L|342:107,2,25,4|0|2,1:0|0:0|0:0,0:0:0:0:
484,46,169499,2,0,B|490:79|399:118|325:-13,1,200,2|2,0:0|3:2,0:0:0:0:
254,240,169890,2,0,P|240:161|252:122,1,100,2|0,3:2|0:0,0:0:0:0:
375,104,170151,2,0,L|342:107,4,25,2|0|2|0|2,3:2|0:0|0:0|0:0|0:0,0:0:0:0:
419,181,170346,1,2,0:0:0:0:
419,181,170412,2,0,P|365:186|308:188,1,100,2|2,0:0|3:2,0:0:0:0:
309,366,170673,2,0,P|363:361|420:359,1,100,2|0,3:2|0:0,0:0:0:0:
465,264,170933,2,0,P|355:272|237:280,1,200,2|2,3:2|0:0,0:0:0:0:
265,278,171325,1,2,0:0:0:0:
112,170,171455,6,0,P|102:160|99:139,4,25,2|0|2|0|2,3:2|0:0|0:0|0:0|0:0,0:0:0:0:
94,248,171651,1,2,0:0:0:0:
94,248,171716,2,0,P|49:224|23:170,1,100,2|2,0:0|3:2,0:0:0:0:
246,36,171977,2,0,B|199:80|256:126|177:181,1,150,2|0,3:2|0:0,0:0:0:0:
112,170,172238,2,0,P|102:160|99:139,4,25,2|0|2|0|2,3:2|0:0|0:0|0:0|0:0,0:0:0:0:
235,211,172433,1,2,0:0:0:0:
235,211,172499,6,0,B|259:202|259:202|188:169,1,100,2|2,0:0|3:2,0:0:0:0:
25,182,172759,2,0,B|1:191|1:191|72:224,1,100,2|2,3:2|0:0,0:0:0:0:
272,177,173020,2,0,B|302:154|302:154|151:176,1,150,2|0,3:2|0:0,0:0:0:0:
68,222,173281,2,0,L|54:290,1,50,2|0,0:0|0:0,0:0:0:0:
97,335,173412,2,0,L|83:267,1,50,2|0,0:0|0:0,0:0:0:0:
272,286,173542,6,0,L|308:273,2,25,2|0|0,1:2|0:0|0:0,0:0:0:0:
186,339,173673,2,0,P|183:288|201:228,1,100,2|2,0:0|1:2,0:0:0:0:
332,180,173933,2,0,L|268:201,1,50,2|0,0:0|0:0,0:0:0:0:
165,146,174064,2,0,P|235:160|278:168,1,100,2|2,1:2|0:0,0:0:0:0:
272,286,174325,2,0,L|308:273,4,25,2|0|2|0|2,1:2|0:0|0:0|0:0|0:0,0:0:0:0:
362,322,174520,1,2,0:0:0:0:
362,322,174586,6,0,P|419:333|459:367,1,100,2|2,1:2|0:0,0:0:0:0:
503,111,174846,2,0,P|462:139|413:146,1,100,2|2,1:2|0:0,0:0:0:0:
249,236,175107,2,0,B|191:222|226:147|299:136|347:212,1,200,2|2,1:2|1:2,0:0:0:0:
342,205,175499,1,2,0:0:0:0:
463,360,175629,6,0,L|461:392,4,25,2|0|2|0|2,1:2|0:0|0:0|0:0|0:0,0:0:0:0:
487,288,175825,1,2,0:0:0:0:
487,288,175890,2,0,P|444:263|414:213,1,100,2|2,1:2|0:0,0:0:0:0:
256,384,176151,2,0,L|370:366,1,100,2|2,1:2|0:0,0:0:0:0:
337,138,176412,2,0,B|308:201|356:226|329:290,1,150,2|2,1:2|0:0,0:0:0:0:
331,284,176673,5,2,1:2:0:0:
233,162,176803,2,0,L|244:217,2,50,2|0|2,0:0|0:0|1:2,0:0:0:0:
168,263,177064,1,2,0:0:0:0:
84,384,177194,2,0,L|92:324,4,50,2|0|2|0|2,1:2|0:0|0:0|0:0|1:2,0:0:0:0:
29,266,177586,1,0,0:0:0:0:
74,123,177716,6,0,L|50:62,1,50,8|0,1:2|0:0,0:0:0:0:
79,135,177846,2,0,L|32:163,1,50,0|0,1:0|0:0,0:0:0:0:
184,84,177977,2,0,L|246:64,1,50,8|0,1:2|0:0,0:0:0:0:
173,87,178107,2,0,L|159:31,1,50,0|0,1:0|0:0,0:0:0:0:
261,192,178238,2,0,L|321:222,1,50,8|0,1:2|0:0,0:0:0:0:
252,201,178368,2,0,L|257:265,1,50,0|0,1:0|0:0,0:0:0:0:
329,101,178499,2,0,L|397:77,1,50,8|0,1:2|0:0,0:0:0:0:
325,114,178629,2,0,L|399:140,1,50,0|0,1:0|0:0,0:0:0:0:
459,235,178759,6,0,L|496:190,1,50,8|0,1:2|0:0,0:0:0:0:
444,243,178890,2,0,L|447:174,1,50,0|0,1:0|0:0,0:0:0:0:
346,302,179020,2,0,L|360:382,1,50,8|0,1:2|0:0,0:0:0:0:
329,318,179151,2,0,L|314:379,1,50,0|0,1:0|0:0,0:0:0:0:
256,226,179281,2,0,L|259:167,1,50,8|0,1:2|0:0,0:0:0:0:
245,217,179412,2,0,L|219:164,1,50,0|0,1:0|0:0,0:0:0:0:
148,297,179542,2,0,L|92:326,1,50,8|0,1:2|0:0,0:0:0:0:
132,295,179673,2,0,L|72:285,1,50,0|0,1:0|0:0,0:0:0:0:
56,124,179803,6,0,L|75:68,1,50,8|0,1:2|0:0,0:0:0:0:
67,122,179933,2,0,L|89:176,1,50,0|0,1:0|0:0,0:0:0:0:
193,90,180064,2,0,L|244:61,1,50,8|0,1:2|0:0,0:0:0:0:
202,94,180194,2,0,L|248:112,1,50,0|0,1:0|0:0,0:0:0:0:
337,170,180325,2,0,L|352:232,1,50,8|0,1:2|0:0,0:0:0:0:
350,166,180455,2,0,L|365:104,1,50,0|0,1:0|0:0,0:0:0:0:
465,85,180586,2,0,L|502:46,1,50,8|0,1:2|0:0,0:0:0:0:
467,72,180716,2,0,L|406:57,1,50,0|0,1:0|0:0,0:0:0:0:
298,34,180846,6,0,L|239:55,1,50,8|0,1:2|0:0,0:0:0:0:
290,43,180977,2,0,L|301:108,1,50,0|0,1:0|0:0,0:0:0:0:
236,198,181107,2,0,L|316:201,1,50,8|0,1:2|0:0,0:0:0:0:
242,207,181238,2,0,L|252:143,1,50,0|0,1:0|0:0,0:0:0:0:
438,269,181369,2,0,L|378:277,1,50,8|0,1:2|0:0,0:0:0:0:
428,283,181499,2,0,L|421:227,1,50,0|0,1:0|0:0,0:0:0:0:
396,87,181629,2,0,L|468:98,1,50,8|0,1:2|0:0,0:0:0:0:
400,98,181760,2,0,L|385:170,1,50,0|0,1:0|0:0,0:0:0:0:
318,226,181890,6,0,B|304:268|304:268|320:335|320:335|305:379,2,150,4|0|0,3:1|3:2|3:2,0:0:0:0:
222,155,182673,1,0,3:2:0:0:
222,155,182738,1,0,3:0:0:0:
222,155,182803,1,0,3:0:0:0:
222,155,182868,1,0,3:0:0:0:
222,155,182933,6,0,B|169:168|169:168|127:228|127:228|69:242,2,180,0|0|0,3:0|3:0|3:0,0:0:0:0:
267,24,183716,1,0,3:0:0:0:
267,24,183781,1,0,3:0:0:0:
267,24,183846,1,0,3:0:0:0:
267,24,183912,1,0,3:0:0:0:
267,24,183977,6,0,L|173:17,3,60,4|0|0|0,1:2|1:0|1:0|1:0,0:0:0:0:
291,96,184238,2,0,L|219:157,3,60,0|0|0|0,1:0|1:0|1:0|1:0,0:0:0:0:
359,130,184499,2,0,L|352:224,3,60,0|0|0|0,1:0|1:0|1:0|1:0,0:0:0:0:
431,106,184759,2,0,L|492:177,3,60,0|0|0|0,1:0|1:0|1:0|1:0,0:0:0:0:
364,40,185020,5,4,1:2:0:0:
366,54,185086,1,0,1:0:0:0:
368,69,185151,1,0,1:0:0:0:
370,84,185216,1,0,1:0:0:0:
373,99,185281,1,0,1:0:0:0:
375,114,185346,1,0,1:0:0:0:
377,128,185412,1,0,1:0:0:0:
380,143,185477,1,0,1:0:0:0:
382,158,185542,2,0,L|375:225,1,50,4|0,0:1|0:0,0:0:0:0:
302,220,185673,2,0,L|316:273,1,50,8|0,0:0|0:0,0:0:0:0:
245,304,185803,2,0,B|260:333|260:333|335:384,1,112.5,12|0,0:2|0:0,0:0:0:0:
328,361,186064,6,0,L|404:347,1,65,4|0,1:0|0:0,0:0:0:0:
482,281,186194,2,0,L|406:267,1,65,0|0,1:0|0:0,0:0:0:0:
340,128,186325,2,0,B|354:156|354:156|330:314,1,150,8|2,1:2|0:2,0:0:0:0:
101,125,186586,2,0,B|87:153|87:153|111:311,1,150,0|2,1:0|0:2,0:0:0:0:
260,49,186846,2,0,B|297:54|297:54|315:46|315:46|361:51,2,100,8|2|2,1:2|0:2|0:2,0:0:0:0:
111,71,187107,6,0,L|297:43,1,150,0|2,1:0|0:2,0:0:0:0:
373,125,187368,2,0,L|224:147,1,150,8|2,1:2|0:2,0:0:0:0:
142,309,187629,2,0,B|125:278|125:278|151:137,1,150,0|2,1:0|0:2,0:0:0:0:
145,165,187825,1,0,0:0:0:0:
145,165,187890,1,8,1:2:0:0:
166,77,188020,2,0,L|249:66,1,75,2|0,0:2|0:0,0:0:0:0:
271,144,188151,6,0,B|294:165|294:165|310:309,1,150,0|2,1:0|0:2,0:0:0:0:
161,356,188412,2,0,L|330:374,1,150,8|2,1:2|0:2,0:0:0:0:
389,125,188673,2,0,B|372:154|372:154|385:270,1,150,0|2,1:0|0:2,0:0:0:0:
164,274,188933,2,0,B|174:208|174:208|199:185,2,100,8|0|0,1:2|0:0|0:0,0:0:0:0:
341,347,189194,6,0,B|288:333|288:333|247:225,1,150,0|2,1:0|0:2,0:0:0:0:
138,99,189455,2,0,L|311:87,1,150,8|2,1:2|0:2,0:0:0:0:
469,79,189716,2,0,B|450:36|450:36|304:18,1,150,0|2,1:0|0:2,0:0:0:0:
347,23,189912,1,0,0:0:0:0:
347,23,189977,1,8,1:2:0:0:
370,175,190107,1,2,0:2:0:0:
284,184,190238,5,0,1:2:0:0:
282,163,190303,1,0,1:0:0:0:
423,276,190433,5,0,1:0:0:0:
429,294,190499,2,0,B|436:241|436:241|456:218|456:218|468:97,1,150,12|2,1:2|0:2,0:0:0:0:
337,34,190759,2,0,B|344:87|344:87|364:110|364:110|376:231,1,150,0|2,1:0|0:2,0:0:0:0:
256,384,191020,2,0,B|253:354|253:354|268:327|268:327|258:273,2,100,8|2|2,1:2|0:2|0:2,0:0:0:0:
293,214,191281,6,0,L|125:183,1,150,0|2,1:0|0:2,0:0:0:0:
112,335,191542,2,0,B|74:305|74:305|60:169,1,150,8|2,1:2|0:2,0:0:0:0:
152,42,191803,2,0,B|133:72|133:72|147:207,1,150,0|2,1:0|0:2,0:0:0:0:
144,185,191999,1,0,0:0:0:0:
144,185,192064,1,8,1:2:0:0:
259,179,192194,2,0,B|287:152|287:152|283:99,1,75,2|0,0:2|0:0,0:0:0:0:
255,37,192325,5,0,1:0:0:0:
141,76,192455,1,2,0:2:0:0:
224,160,192586,1,8,1:2:0:0:
224,160,192716,1,2,0:2:0:0:
247,291,192846,5,0,1:0:0:0:
165,320,192977,1,2,0:2:0:0:
223,376,193107,1,8,1:2:0:0:
184,237,193238,1,2,0:2:0:0:
256,156,193368,5,0,1:0:0:0:
430,185,193499,2,0,L|501:195,2,50,2|2|8,0:2|0:2|1:2,0:0:0:0:
406,329,193759,1,2,0:2:0:0:
380,86,193890,5,0,1:0:0:0:
380,86,193955,1,0,0:0:0:0:
380,86,194020,2,0,L|309:76,2,50,2|2|8,0:2|0:2|1:2,0:0:0:0:
363,249,194281,1,2,0:2:0:0:
259,336,194412,6,0,L|245:178,1,150,4|2,1:0|0:2,0:0:0:0:
69,56,194673,2,0,B|85:81|85:81|236:113,1,150,8|2,1:2|0:2,0:0:0:0:
392,173,194933,2,0,B|294:167|294:167|212:199,1,150,0|2,1:0|0:2,0:0:0:0:
112,139,195194,2,0,B|143:113|143:113|211:104,2,100,8|2|2,1:2|0:2|0:2,0:0:0:0:
44,199,195455,6,0,L|62:357,1,150,0|2,1:0|0:2,0:0:0:0:
245,185,195716,2,0,L|227:27,1,150,8|2,1:2|0:2,0:0:0:0:
0,56,195977,2,0,B|100:80|100:80|130:140,1,150,0|2,1:0|0:2,0:0:0:0:
121,122,196173,1,0,0:0:0:0:
121,122,196238,1,8,1:2:0:0:
295,252,196368,2,0,B|261:268|261:268|208:262,1,75,2|0,0:2|0:0,0:0:0:0:
131,324,196499,6,0,B|148:225|148:225|191:184,1,150,0|2,1:0|0:2,0:0:0:0:
35,75,196759,2,0,L|199:101,1,150,8|2,1:2|0:2,0:0:0:0:
334,261,197020,2,0,B|319:165|319:165|260:143,1,150,0|2,1:0|0:2,0:0:0:0:
240,0,197281,2,0,B|189:19|189:19|140:10,2,100,8|0|0,1:2|0:0|0:0,0:0:0:0:
346,161,197542,6,0,L|193:183,1,150,0|2,1:0|0:2,0:0:0:0:
38,187,197803,2,0,B|27:129|27:129|69:35,1,150,8|2,1:2|0:2,0:0:0:0:
275,208,198064,2,0,B|273:261|273:261|291:304|291:304|285:371,1,150,0|2,1:0|0:2,0:0:0:0:
286,354,198259,1,0,0:0:0:0:
286,354,198325,1,8,1:2:0:0:
114,277,198455,2,0,B|89:306|89:306|93:363,1,75,2|0,0:2|0:0,0:0:0:0:
11,364,198586,6,0,L|183:386,1,150,4|2,1:0|0:3,0:0:0:0:
303,273,198846,2,0,L|207:288,1,75,8|0,0:2|0:0,0:0:0:0:
228,284,198977,2,0,B|230:236|230:236|211:196|211:196|219:121,1,150,0|2,1:0|0:3,0:0:0:0:
218,30,199238,2,0,L|122:15,1,75,0|0,1:0|0:0,0:0:0:0:
143,18,199368,2,0,B|144:66|144:66|125:106|125:106|133:181,1,150,8|0,0:2|0:0,0:0:0:0:
0,230,199629,6,0,L|172:253,1,150,4|2,1:2|0:3,0:0:0:0:
391,35,199890,2,0,L|295:20,1,75,8|0,0:2|0:0,0:0:0:0:
316,24,200020,2,0,B|318:72|318:72|299:112|299:112|307:187,1,150,0|2,1:0|0:3,0:0:0:0:
303,272,200281,2,0,L|207:287,1,75,0|0,1:0|0:0,0:0:0:0:
228,284,200412,2,0,B|229:236|229:236|210:196|210:196|218:121,1,150,8|2,0:2|0:0,0:0:0:0:
0,12,200673,6,0,L|182:34,1,150,4|2,1:0|0:0,0:0:0:0:
148,30,200868,1,0,1:0:0:0:
148,30,200933,2,0,L|119:220,1,150,0|0,1:0|1:0,0:0:0:0:
386,178,201194,6,0,L|364:30,1,150,4|2,1:2|0:0,0:0:0:0:
363,29,201390,1,0,1:0:0:0:
362,29,201455,2,0,L|511:11,1,150,0|0,1:0|1:0,0:0:0:0:
255,73,201716,6,0,B|248:106|248:106|259:155,3,75,12|8|8|8,1:2|1:2|1:2|1:2,0:0:0:0:
303,213,201977,1,12,1:2:0:0:
301,231,202042,1,8,1:2:0:0:
299,250,202107,1,8,1:2:0:0:
297,268,202173,1,8,1:2:0:0:
295,287,202238,2,0,L|221:299,3,60,14|10|10|10,1:2|1:2|1:2|1:2,0:0:0:0:
343,351,202499,2,0,L|417:363,3,60,14|10|10|10,1:2|1:2|1:2|1:2,0:0:0:0:
266,373,202759,6,0,B|209:380|209:380|140:339,1,120,4|2,1:0|0:0,0:0:0:0:
76,174,203020,2,0,B|46:102|46:102|62:192|62:192|44:232|44:232|65:329,1,270,8|0,1:2|0:0,0:0:0:0:
75,322,203281,6,0,L|59:389,1,50,0|0,1:0|0:0,0:0:0:0:
134,242,203412,2,0,L|195:226,1,50,2|0,0:0|0:0,0:0:0:0:
235,330,203542,2,0,B|277:370|277:370|161:349|161:349|197:219,1,270,8|0,1:2|0:0,0:0:0:0:
259,238,203803,6,0,L|244:175,1,50,0|0,1:0|0:0,0:0:0:0:
179,155,203933,2,0,L|192:79,1,50,2|0,0:0|0:0,0:0:0:0:
350,15,204064,2,0,B|392:37|392:37|273:56|273:56|267:41|267:41|162:21,1,270,8|0,1:2|0:0,0:0:0:0:
70,174,204325,6,0,B|63:221|63:221|54:212|54:212|65:111,1,150,0|0,1:0|0:0,0:0:0:0:
167,16,204586,2,0,B|172:67|172:67|183:82|183:82|191:171|191:171|170:144,1,180,8|2,1:2|0:0,0:0:0:0:
0,68,204781,2,0,B|-8:49|-8:49|3:19,1,45
5,72,204846,6,0,B|22:49|22:49|123:22,1,100,4|2,1:2|0:0,0:0:0:0:
263,77,205107,2,0,B|297:102|297:102|192:73|192:73|190:88|190:88|75:115,1,270,8|0,1:2|0:0,0:0:0:0:
63,122,205368,6,0,L|137:136,1,50,0|0,1:0|0:0,0:0:0:0:
213,163,205499,2,0,L|164:196,1,50,2|0,0:0|0:0,0:0:0:0:
77,311,205629,2,0,B|70:256|70:256|93:215|93:215|84:345|84:345|91:355|91:355|86:401,1,270,8|0,1:2|0:0,0:0:0:0:
171,190,205890,6,0,L|176:254,2,50,0|0|2,1:0|0:0|0:0,0:0:0:0:
243,293,206086,1,0,0:0:0:0:
255,285,206151,2,0,B|290:266|290:266|270:214|270:214|275:206|275:206|268:127|268:127|340:186,1,270,8|0,1:2|0:0,0:0:0:0:
438,210,206412,6,0,P|485:171|431:200,1,180,0|2,1:0|0:0,0:0:0:0:
360,317,206607,1,0,0:0:0:0:
370,312,206673,2,0,P|350:335|362:307,1,89.9999999999999,8|0,1:2|0:0,0:0:0:0:
338,223,206803,2,0,P|318:199|330:227,1,89.9999999999999,2|0,0:0|0:0,0:0:0:0:
444,289,206933,5,0,1:0:0:0:
444,289,207064,2,0,P|382:267|362:203,1,120,0|0,3:0|0:0,0:0:0:0:
303,156,207325,2,0,P|309:136|338:105,1,60,0|0,3:0|0:0,0:0:0:0:
334,107,207455,2,0,B|394:131|394:131|464:90,1,120,8|0,3:2|0:0,0:0:0:0:
248,274,207716,2,0,B|224:231|217:133|217:133|204:210|179:235,1,240,0|0,1:0|0:0,0:0:0:0:
175,334,208107,1,0,3:0:0:0:
175,334,208238,2,0,B|129:310|129:310|61:318,1,120,0|0,1:0|0:0,0:0:0:0:
134,104,208499,1,8,3:2:0:0:
19,236,208629,2,0,B|-19:187|-7:104|52:90|52:90|47:128|78:166,1,240,0|0,3:0|3:0,0:0:0:0:
120,226,209020,6,0,B|194:221|194:221|249:254,1,120,0|2,1:0|0:0,0:0:0:0:
367,180,209281,2,0,B|293:185|293:185|238:152,1,120,0|2,3:0|0:0,0:0:0:0:
173,81,209542,2,0,L|182:21,2,60,8|0|2,3:2|0:0|0:0,0:0:0:0:
229,284,209803,2,0,P|253:225|320:200,1,120,0|2,1:0|0:0,0:0:0:0:
325,124,209999,1,2,0:0:0:0:
325,124,210064,2,0,L|459:133,1,120,0|2,3:0|0:0,0:0:0:0:
482,365,210325,2,0,B|452:336|456:285|456:285|426:326|362:336,1,180,0|0,1:0|0:0,0:0:0:0:
383,173,210586,2,0,L|386:211,6,30,8|0|0|0|2|0|2,3:2|0:0|0:0|0:0|0:0|0:0|0:0,0:0:0:0:
332,306,210846,6,0,L|349:273,1,37.5000000000001,2|2,0:0|0:0,0:0:0:0:
472,280,210977,2,0,L|444:256,1,37.5000000000001,2|2,0:0|0:0,0:0:0:0:
402,35,211107,6,0,B|431:11|431:11|413:121,1,120,4|2,1:0|0:0,0:0:0:0:
211,126,211368,2,0,B|213:166|248:201|248:201|268:144|268:144|299:169|299:169|307:117|338:97,1,270,8|0,1:2|0:0,0:0:0:0:
338,97,211629,6,0,P|329:70|316:49,1,50,0|0,1:0|0:0,0:0:0:0:
383,173,211759,2,0,P|377:197|377:222,1,50,2|0,0:0|0:0,0:0:0:0:
483,69,211890,2,0,B|496:42|527:30|527:30|465:24|418:92|418:92|462:113|470:162,1,270,8|0,1:2|0:0,0:0:0:0:
465,182,212151,6,0,L|525:162,1,50,0|0,1:0|0:0,0:0:0:0:
325,288,212281,2,0,L|242:285,1,50,2|0,0:0|0:0,0:0:0:0:
486,268,212412,2,0,B|468:232|423:208|423:208|418:219|418:219|390:204|342:198|342:198|347:211|347:211|304:202|246:215,1,270,8|0,1:2|0:0,0:0:0:0:
148,177,212673,6,0,B|128:123|179:106|179:106|148:130|155:166,1,150,0|0,1:0|0:0,0:0:0:0:
352,105,212933,2,0,P|278:189|225:96,1,180,8|2,1:2|0:0,0:0:0:0:
154,254,213129,2,0,B|130:258|130:258|153:260,1,45
157,267,213194,6,0,B|101:264|65:281|65:281|35:246,1,120,4|2,1:2|0:0,0:0:0:0:
1,60,213455,2,0,B|27:22|59:3|59:3|50:38|47:82|47:82|52:74|63:71|63:71|51:114|62:173,1,270,8|0,1:2|0:0,0:0:0:0:
61,171,213716,6,0,P|97:178|123:174,1,50,0|0,1:0|0:0,0:0:0:0:
179,9,213846,2,0,P|182:34|168:69,1,50,2|0,0:0|0:0,0:0:0:0:
178,260,213977,2,0,B|257:260|288:177|248:109|248:109|226:143|185:147,1,270,8|0,1:2|0:0,0:0:0:0:
191,134,214238,6,0,L|201:196,2,50,0|0|2,1:0|0:0|0:0,0:0:0:0:
376,263,214499,2,0,B|333:236|320:198|320:198|288:254|288:254|256:240|256:240|228:265|168:259,1,270,8|0,1:2|0:0,0:0:0:0:
78,247,214759,6,0,P|31:208|85:237,1,180,0|2,1:0|0:0,0:0:0:0:
156,354,214955,1,0,0:0:0:0:
146,349,215020,2,0,P|166:372|154:344,1,89.9999999999999,8|0,1:2|0:0,0:0:0:0:
178,260,215151,2,0,P|198:236|186:264,1,89.9999999999999,2|0,0:0|0:0,0:0:0:0:
36,336,215281,5,0,1:0:0:0:
36,336,215412,2,0,P|99:342|134:393,1,120,0|0,3:0|0:0,0:0:0:0:
156,104,215673,2,0,P|151:78|130:46,1,60,0|0,3:0|0:0,0:0:0:0:
133,49,215803,2,0,P|112:113|139:186,1,120,8|0,3:2|0:0,0:0:0:0:
321,282,216064,6,0,B|326:317|326:317|243:343|176:262|233:176,1,240,0|0,1:0|0:0,0:0:0:0:
240,115,216455,1,0,3:0:0:0:
240,115,216586,2,0,B|276:114|295:136|295:136|300:104|331:79,1,120,0|0,1:0|0:0,0:0:0:0:
487,319,216846,6,0,P|466:336|423:341,1,60,8|0,3:2|0:0,0:0:0:0:
433,147,216977,2,0,L|436:188,6,30,0|0|0|0|0|0|0,3:0|0:0|0:0|0:0|0:0|0:0|0:0,0:0:0:0:
397,248,217238,2,0,L|442:263,1,37.5000000000001,0|0,3:0|0:0,0:0:0:0:
475,51,217368,6,0,B|469:123,1,70,0|0,1:0|0:0,0:0:0:0:
449,208,218412,6,0,P|425:199|400:171,1,60,0|0,3:2|3:2,0:0:0:0:
449,208,218542,2,0,B|393:215|345:179|345:179|311:222|311:222|279:202|224:223,1,240,2|0,3:0|3:2,0:0:0:0:
173,265,218868,1,0,0:0:0:0:
173,265,218933,2,0,P|158:218|173:169,1,75.0000000000002,2|0,3:3|3:2,0:0:0:0:
333,88,219194,1,2,3:3:0:0:
333,88,219325,2,0,L|325:19,2,60
399,306,219716,6,0,B|419:319|419:319|396:319|372:306,1,60,4|0,1:0|0:0,0:0:0:0:
313,273,219846,2,0,B|272:273|234:231|234:231|219:283|184:302,1,180,0|0,1:0|0:0,0:0:0:0:
107,335,220107,6,0,B|88:355|88:355|106:354|125:329,1,60,0|0,1:0|0:0,0:0:0:0:
183,291,220238,2,0,B|218:271|232:220|232:220|270:261|311:261,1,180,0|0,1:0|0:0,0:0:0:0:
422,313,220499,6,0,B|444:330|466:330|466:330|423:352|378:307,1,120,0|0,1:0|0:0,0:0:0:0:
390,237,220694,1,0,1:0:0:0:
390,237,220759,2,0,L|381:164,1,60,0|0,1:0|0:0,0:0:0:0:
391,184,220890,6,0,B|424:168|424:168|440:73,1,120,0|0,1:0|0:0,0:0:0:0:
363,11,221086,2,0,B|359:47|359:47|433:108,1,120,0|0,1:0|0:0,0:0:0:0:
496,74,221281,2,0,L|430:87,1,60,0|0,1:0|0:0,0:0:0:0:
273,175,221412,2,0,L|207:162,1,60,0|0,1:0|0:0,0:0:0:0:
202,146,221542,6,0,L|260:157,1,60,0|0,1:0|0:0,0:0:0:0:
349,140,221673,2,0,B|360:155|360:155|337:295|337:295|355:318,1,180,0|0,1:0|0:0,0:0:0:0:
478,359,221933,6,0,L|419:347,1,60,0|0,1:0|0:0,0:0:0:0:
358,300,222064,2,0,L|378:182,1,120,0|0,1:0|0:0,0:0:0:0:
378,181,222259,2,0,L|237:205,1,120,0|0,1:0|0:0,0:0:0:0:
259,201,222455,2,0,L|278:82,1,120,0|0,1:0|0:0,0:0:0:0:
277,82,222651,2,0,L|136:106,1,120,0|0,1:0|0:0,0:0:0:0:
90,140,222846,2,0,B|79:115|79:115|86:65,1,60,0|0,1:0|0:0,0:0:0:0:
225,62,222977,2,0,B|236:87|236:87|229:137,1,60,0|0,1:0|0:0,0:0:0:0:
78,236,223107,6,0,B|98:306|68:372|68:372|121:352|179:262|167:180|167:180|208:240|211:302|211:302|241:251|238:206|238:206|276:259|343:252,1,700,4|0,1:2|0:0,0:0:0:0:
395,199,223629,5,4,1:0:0:0:
396,211,223694,1,0,1:0:0:0:
398,223,223759,1,0,1:0:0:0:
399,236,223825,1,0,1:0:0:0:
401,248,223890,2,0,L|407:318,1,50,0|0,1:0|0:0,0:0:0:0:
471,168,224086,1,0,1:0:0:0:
471,168,224151,6,0,P|448:138|417:124,1,60,0|0,1:0|0:0,0:0:0:0:
438,45,224281,2,0,B|343:52|374:131|269:133,1,180,0|0,1:0|0:0,0:0:0:0:
297,227,224542,6,0,B|267:221|267:221|220:181,1,60,0|0,1:0|0:0,0:0:0:0:
204,49,224673,2,0,L|191:117,1,60,0|0,1:0|0:0,0:0:0:0:
115,140,224803,2,0,B|144:147|144:147|249:116|249:116|307:140,1,180,0|0,1:0|0:0,0:0:0:0:
368,177,225064,1,0,1:0:0:0:
368,177,225129,1,0,1:0:0:0:
368,177,225194,6,0,B|393:175|393:175|423:134|407:66,1,120,0|0,1:0|0:0,0:0:0:0:
495,54,225390,2,0,B|480:33|480:33|430:27|379:75,1,120,0|0,1:0|0:0,0:0:0:0:
324,5,225586,2,0,B|313:27|313:27|333:74|400:94,1,120,0|0,1:0|0:0,0:0:0:0:
470,309,225846,6,0,P|465:276|463:234,1,60,0|0,1:0|0:0,0:0:0:0:
394,320,225977,2,0,P|389:287|387:245,1,60,0|0,1:0|0:0,0:0:0:0:
318,331,226107,2,0,P|313:298|311:256,1,60,0|0,1:0|0:0,0:0:0:0:
261,102,226368,6,0,P|292:116|315:141,1,60,0|0,1:0|0:0,0:0:0:0:
395,140,226499,2,0,L|205:162,1,180,0|0,1:0|0:0,0:0:0:0:
128,168,226759,6,0,P|97:182|74:207,1,60,0|0,1:0|0:0,0:0:0:0:
9,241,226890,2,0,L|165:262,1,120,0|0,1:0|0:0,0:0:0:0:
127,257,227086,2,0,B|177:292|177:292|120:346,1,120,0|0,1:0|0:0,0:0:0:0:
54,322,227281,6,0,B|27:243|27:243|61:172|61:172|33:75,2,255,6|6|6,0:2|0:2|0:2,0:0:0:0:
184,104,227803,6,0,L|180:138,6,25,0|0|0|0|0|0|0,1:0|0:0|1:0|0:0|1:0|0:0|1:0,0:0:0:0:
255,191,228064,6,0,P|268:158|287:136,1,60,0|0,1:0|0:0,0:0:0:0:
431,123,228194,2,0,B|340:139|361:46|259:63,1,180,0|0,1:0|0:0,0:0:0:0:
441,0,228455,6,0,P|428:33|409:55,1,60,0|0,1:0|0:0,0:0:0:0:
265,68,228586,2,0,B|356:52|335:145|437:128,1,180,0|0,1:0|0:0,0:0:0:0:
293,170,228846,2,0,B|284:184|288:211|288:211|253:173|301:111,1,120,0|0,1:0|0:0,0:0:0:0:
366,207,229042,1,0,1:0:0:0:
366,207,229107,2,0,P|375:236|368:283,1,60,0|0,1:0|0:0,0:0:0:0:
382,342,229238,6,0,B|364:350|364:350|291:333|291:333|247:347,1,120,0|0,1:0|0:0,0:0:0:0:
255,356,229433,2,0,B|240:318|240:318|258:221,1,120,0|0,1:0|0:0,0:0:0:0:
191,77,229629,2,0,L|122:105,1,60,0|0,1:0|0:0,0:0:0:0:
171,232,229759,2,0,L|119:189,1,60,0|0,1:0|0:0,0:0:0:0:
262,167,229890,6,0,L|173:152,1,60,0|0,1:0|0:0,0:0:0:0:
275,33,230020,2,0,B|267:56|267:56|273:99,3,60,0|0|0|0,1:0|0:0|0:0|0:0,0:0:0:0:
393,130,230281,6,0,L|304:145,1,60,0|0,1:0|0:0,0:0:0:0:
405,265,230412,2,0,B|397:242|397:242|403:199,2,60,0|0|0,1:0|0:0|0:0,0:0:0:0:
486,123,230607,6,0,B|474:157|474:157|509:290|509:290|492:349,2,225,0|0|0,1:0|1:0|1:0,0:0:0:0:
260,298,231194,2,0,L|315:286,1,50,0|0,1:0|0:0,0:0:0:0:
325,164,231325,2,0,L|316:238,1,50,0|0,1:0|0:0,0:0:0:0:
302,370,231455,6,0,B|275:36|275:36|251:17|251:17|308:296|308:296|303:348,1,700,4|0,1:2|0:0,0:0:0:0:
208,342,231977,5,0,1:0:0:0:
196,343,232042,1,0,1:0:0:0:
184,345,232107,1,0,1:0:0:0:
171,346,232173,1,0,1:0:0:0:
159,348,232238,2,0,B|101:355|101:355|76:177,1,200,0|0,1:0|0:0,0:0:0:0:
14,172,232433,1,0,1:0:0:0:
14,172,232499,6,0,B|32:147|32:147|73:135,1,60,0|0,1:0|0:0,0:0:0:0:
110,79,232629,2,0,B|140:82|140:82|171:111,3,60,0|0|0|0,1:0|0:0|0:0|0:0,0:0:0:0:
179,196,232890,6,0,B|209:192|209:192|240:163,1,60,0|0,1:0|0:0,0:0:0:0:
302,185,233020,2,0,B|314:156|314:156|304:115,1,60,0|0,1:0|0:0,0:0:0:0:
353,72,233151,2,0,B|335:46|335:46|294:34,3,60,0|0|0|0,1:0|0:0|0:0|0:0,0:0:0:0:
236,88,233412,1,0,1:0:0:0:
236,88,233477,1,0,1:0:0:0:
236,88,233542,6,0,B|218:151|218:151|270:308|270:308|254:397,2,300,0|0|0,1:0|1:0|1:0,0:0:0:0:
182,345,234064,6,0,L|173:274,1,70,0|0,3:0|0:0,0:0:0:0:
103,334,235107,6,0,L|40:327,1,50,0|0,1:0|1:0,0:0:0:0:
416,233,235368,6,0,L|479:226,1,50,0|0,1:0|1:0,0:0:0:0:
231,34,235629,6,0,L|168:27,1,50,12|0,1:2|0:0,0:0:0:0:
406,325,235890,2,0,B|413:357|413:357|350:333|327:284|328:218|328:218|288:250|291:309,1,300,12|0,1:2|0:0,0:0:0:0:
304,377,236151,6,0,L|193:359,1,110,4|0,1:0|0:0,0:0:0:0:
125,384,236933,6,0,B|110:355|110:355|127:245,1,115,12|0,1:2|0:0,0:0:0:0:
210,277,237064,2,0,B|225:248|225:248|208:138,1,115,8|0,1:2|0:0,0:0:0:0:
140,198,237194,6,0,B|92:192|92:192|59:217|59:217|-9:206,1,150,0|0,1:0|0:0,0:0:0:0:
0,207,237390,1,0,1:0:0:0:
0,207,237455,1,8,1:2:0:0:
101,0,237586,2,0,B|71:38|71:38|76:79|76:79|33:133,1,150,0|0,1:2|0:0,0:0:0:0:
38,126,237781,1,0,1:0:0:0:
38,126,237846,1,0,1:2:0:0:
268,80,237977,2,0,B|297:125|297:125|232:154|156:113|164:28,1,225,8|0,1:2|0:0,0:0:0:0:
164,59,238238,6,0,B|176:90|176:90|163:175|163:175|186:215,1,150,0|0,1:0|0:0,0:0:0:0:
178,201,238433,1,0,1:0:0:0:
178,201,238499,1,8,1:2:0:0:
270,355,238629,2,0,B|281:324|281:324|268:239|268:239|291:199,1,150,0|0,1:2|0:0,0:0:0:0:
283,212,238825,1,0,1:0:0:0:
283,212,238890,1,0,1:0:0:0:
452,8,239020,2,0,B|410:41|381:156|526:167|483:76|377:70,1,225,8|0,1:2|1:0,0:0:0:0:
325,71,239281,6,0,B|291:88|291:88|249:77,1,75,0|0,1:0|0:0,0:0:0:0:
218,176,239412,2,0,L|383:158,1,150,0|8,1:2|1:2,0:0:0:0:
367,159,239607,1,0,1:0:0:0:
367,159,239673,1,0,1:0:0:0:
512,278,239803,6,0,B|498:244|498:244|509:198,1,75,8|0,1:2|0:0,0:0:0:0:
441,317,239933,2,0,B|442:353|442:353|470:390,1,75,0|0,1:2|0:0,0:0:0:0:
359,321,240064,2,0,B|345:287|345:287|356:241,2,75,0|0|0,1:0|0:0|0:0,0:0:0:0:
64,320,240325,6,0,B|55:304|55:304|197:332,1,150,4|0,1:0|0:0,0:0:0:0:
334,304,240520,1,0,1:0:0:0:
334,304,240586,2,0,L|260:315,1,75,0|0,1:0|0:0,0:0:0:0:
196,248,240716,2,0,L|270:237,1,75,0|0,1:0|0:0,0:0:0:0:
380,324,240846,2,0,B|389:340|389:340|247:312,1,150,0|0,1:0|1:0,0:0:0:0:
52,129,241107,6,0,B|37:96|37:96|44:38,1,75,8|0,1:2|0:0,0:0:0:0:
211,105,241238,2,0,B|215:66|215:66|200:33,1,75,0|0,1:0|0:0,0:0:0:0:
126,80,241368,5,2,1:2:0:0:
126,80,241433,1,2,0:0:0:0:
126,80,241499,2,0,L|133:131,2,37.5000000000001,2|0|8,0:0|1:0|1:2,0:0:0:0:
146,193,241759,1,0,1:0:0:0:
168,377,241890,5,2,0:0:0:0:
168,377,241955,1,2,1:2:0:0:
168,377,242020,2,0,L|175:326,2,37.5000000000001,2|0|8,1:2|0:0|1:2,0:0:0:0:
188,264,242281,1,0,0:0:0:0:
224,93,242412,5,2,1:2:0:0:
224,93,242477,1,2,0:0:0:0:
224,93,242542,2,0,L|231:144,2,37.5000000000001,2|0|8,0:0|1:0|1:2,0:0:0:0:
244,206,242803,1,0,1:0:0:0:
295,359,242933,5,2,0:0:0:0:
295,359,242999,1,2,1:2:0:0:
295,359,243064,2,0,L|302:308,2,37.5000000000001,2|0|8,1:2|0:0|1:2,0:0:0:0:
315,246,243325,1,0,0:0:0:0:
378,184,243455,6,0,L|493:168,1,100,2|0,1:2|0:0,0:0:0:0:
467,361,243586,2,0,L|472:319,1,37.5000000000001,0|0,1:0|0:0,0:0:0:0:
393,335,243716,2,0,L|398:293,1,37.5000000000001,8|0,1:2|1:0,0:0:0:0:
320,311,243846,2,0,L|325:269,1,37.5000000000001,0|0,1:0|0:0,0:0:0:0:
165,107,243977,6,0,B|350:111|352:268|187:210|289:65,1,300,8|0,1:2|0:0,0:0:0:0:
295,6,244238,2,0,L|332:3,6,37.5,0|0|0|0|0|0|0,1:0|0:0|0:0|0:0|0:0|0:0|0:0,0:0:0:0:
410,33,244499,6,0,B|383:64|375:126|375:126|358:70,1,150,0|0,1:0|1:0,0:0:0:0:
270,97,244759,6,0,P|247:117|235:149,1,60,12|0,1:2|0:0,0:0:0:0:
342,210,244890,2,0,P|317:183|308:151,1,60,0|0,1:0|0:0,0:0:0:0:
402,130,245020,6,0,B|288:123|323:234|209:219,1,225
136,249,245281,1,8,1:2:0:0:
138,255,245346,1,0,0:0:0:0:
140,261,245412,1,2,1:3:0:0:
142,267,245477,1,2,0:3:0:0:
144,274,245542,6,0,L|134:358,3,75,2|2|2|2,1:3|0:3|0:3|1:3,0:0:0:0:
61,301,245803,2,0,L|51:385,3,75,8|2|2|2,1:2|0:3|1:3|0:3,0:0:0:0:
122,155,246064,2,0,L|90:76,3,75,2|2|2|2,0:3|1:3|1:3|0:3,0:0:0:0:
34,150,246325,2,0,L|2:71,3,75,8|2|2|2,1:2|0:3|1:3|0:3,0:0:0:0:
0,236,246586,1,2,1:3:0:0:
0,236,246716,6,0,L|56:223,1,37.5000000000001,2|0,0:2|1:0,0:0:0:0:
105,209,246846,2,0,L|161:196,1,37.5000000000001,10|0,1:2|0:0,0:0:0:0:
210,182,246977,2,0,L|266:169,1,37.5000000000001,2|0,1:2|0:0,0:0:0:0:
399,217,247107,6,0,L|362:225,1,37.5000000000001,2|0,0:2|1:0,0:0:0:0:
294,244,247238,2,0,L|257:252,1,37.5000000000001,2|0,1:2|0:0,0:0:0:0:
184,272,247368,2,0,L|142:281,1,37.5000000000001,10|0,1:2|0:0,0:0:0:0:
40,307,247499,1,2,0:2:0:0:
40,307,247564,1,0,1:0:0:0:
40,307,247629,6,0,L|47:225,1,45,2|0,1:2|0:0,0:0:0:0:
107,215,247759,2,0,L|114:133,1,45,2|0,1:2|0:0,0:0:0:0:
174,123,247890,2,0,L|181:41,2,45,10|8|2,1:2|1:2|1:2,0:0:0:0:
321,334,248151,6,0,B|192:368|179:211|27:267,1,300,2|8,1:2|1:2,0:0:0:0:
43,261,248673,5,4,1:0:0:0:
109,384,248803,2,0,L|122:294,1,90.0000000000001,0|0,3:2|0:0,0:0:0:0:
122,294,249064,1,8,3:2:0:0:
274,154,249194,6,0,L|261:205,2,45,0|0|0,1:0|0:0|0:0,0:0:0:0:
178,91,249455,2,0,L|196:147,2,45,8|0|0,3:2|0:0|0:0,0:0:0:0:
274,154,249716,6,0,L|261:205,2,45,0|0|0,1:0|0:0|3:0,0:0:0:0:
178,91,249977,2,0,L|196:147,2,45,0|0|8,0:0|0:0|3:2,0:0:0:0:
274,154,250238,6,0,L|261:205,2,45,0|0|0,1:2|0:0|0:0,0:0:0:0:
178,91,250499,2,0,L|196:147,2,45,8|0|0,3:2|0:0|0:0,0:0:0:0:
320,347,250759,5,0,1:0:0:0:
152,351,250890,2,0,B|191:330|191:330|244:337,1,90.0000000000001,0|0,3:0|0:0,0:0:0:0:
320,347,251151,1,8,3:2:0:0:
113,174,251281,6,0,L|55:159,2,45,0|0|0,1:0|0:0|0:0,0:0:0:0:
386,132,251542,2,0,L|444:117,2,45,8|0|0,3:2|0:0|0:0,0:0:0:0:
163,54,251803,6,0,L|105:39,2,45,0|0|0,1:0|0:0|3:0,0:0:0:0:
341,29,252064,2,0,L|399:14,2,45,0|0|8,0:0|0:0|3:2,0:0:0:0:
237,350,252325,6,0,B|261:138|261:138|329:124|329:124|332:108|332:108|258:123|258:123|248:137|248:137|169:153|169:153|172:137|172:137|245:121|245:121|258:-7,1,664.999982242585,0|0,1:0|0:0,0:0:0:0:
256,20,252846,6,0,L|267:156,1,100,4|0,1:0|3:0,0:0:0:0:
237,217,253020,1,0,3:0:0:0:
327,173,253107,2,0,L|228:222,1,100,8|0,3:2|3:0,0:0:0:0:
292,280,253281,1,0,3:0:0:0:
292,280,253368,2,0,L|301:404,1,75,0|0,1:0|0:0,0:0:0:0:
87,37,253629,5,8,1:2:0:0:
87,37,253694,2,0,L|167:20,2,75,2|2|2,0:3|0:3|0:3,0:0:0:0:
101,110,253890,1,2,1:3:0:0:
101,110,253955,2,0,L|181:93,2,75,2|2|2,0:3|0:3|0:3,0:0:0:0:
309,30,254151,5,10,1:2:0:0:
309,30,254216,2,0,L|229:47,2,75,2|2|2,0:2|0:2|0:2,0:0:0:0:
323,103,254412,1,2,1:2:0:0:
323,103,254477,2,0,L|243:120,2,75,2|2|2,0:2|0:2|0:2,0:0:0:0:
115,183,254673,5,8,1:2:0:0:
115,183,254738,2,0,L|195:166,2,75,2|2|2,0:3|0:3|0:3,0:0:0:0:
129,256,254933,1,2,1:3:0:0:
129,256,254999,2,0,L|209:239,2,75,2|2|2,0:3|0:3|0:3,0:0:0:0:
337,176,255194,5,10,1:2:0:0:
337,176,255259,2,0,L|257:193,2,75,2|2|2,0:2|0:2|0:2,0:0:0:0:
351,249,255455,1,2,1:2:0:0:
351,249,255520,2,0,L|271:266,2,75,2|2|2,0:2|0:2|0:2,0:0:0:0:
176,323,255716,5,8,1:2:0:0:
176,323,255781,2,0,L|221:236,2,65,2|2|2,0:3|0:3|0:3,0:0:0:0:
263,191,255977,1,2,1:3:0:0:
263,191,256042,2,0,L|276:253,2,55,2|2|2,0:3|0:3|0:3,0:0:0:0:
305,338,256238,1,8,1:2:0:0:
305,338,256303,2,0,L|262:312,2,45,2|2|2,0:3|0:3|0:3,0:0:0:0:
162,239,256499,1,2,1:3:0:0:
162,239,256564,2,0,L|203:232,2,35,2|2|2,0:3|0:3|0:3,0:0:0:0:
350,273,256759,2,0,L|348:255,1,15,8|2,1:2|0:3,0:0:0:0:
371,232,257020,6,0,B|328:208|328:208|261:229,1,100,4|0,1:2|3:0,0:0:0:0:
202,239,257194,1,0,3:0:0:0:
202,239,257281,2,0,B|193:271|193:271|200:300|200:300|188:352,1,100,8|0,3:2|3:0,0:0:0:0:
117,312,257455,1,0,3:0:0:0:
117,312,257542,2,0,B|78:320|78:320|31:300,1,75,0|0,1:0|0:0,0:0:0:0:
45,306,257803,5,8,1:2:0:0:
45,306,257868,2,0,L|32:395,2,65,2|2|2,0:3|0:3|0:3,0:0:0:0:
117,312,258064,1,2,1:3:0:0:
117,312,258129,2,0,L|104:401,2,65,2|2|2,0:3|0:3|0:3,0:0:0:0:
202,239,258325,5,10,1:2:0:0:
202,239,258390,2,0,L|189:150,2,65,2|2|2,0:2|0:2|0:2,0:0:0:0:
274,233,258586,1,2,1:2:0:0:
274,233,258651,2,0,L|261:144,2,65,2|2|2,0:2|0:2|0:2,0:0:0:0:
351,299,258846,5,8,1:2:0:0:
351,299,258912,1,2,0:3:0:0:
351,299,258977,2,0,L|338:388,1,65,2|2,0:3|0:3,0:0:0:0:
447,218,259107,6,0,B|475:201|475:201|342:219,1,150,4|0,1:0|0:0,0:0:0:0:
274,233,259303,1,0,1:0:0:0:
274,233,259368,2,0,B|256:249|256:249|266:178,1,75,8|0,1:2|0:0,0:0:0:0:
385,0,259499,2,0,B|416:25|416:25|432:78,1,75,0|0,1:0|0:0,0:0:0:0:
358,216,259629,1,0,1:0:0:0:
358,216,259694,2,0,B|343:180|343:180|355:104|355:104|346:71,1,150,0|0,1:0|0:0,0:0:0:0:
177,28,259890,6,0,L|147:36,1,30,8|0,1:2|0:0,0:0:0:0:
75,0,260151,6,0,B|27:59|27:59|104:106,1,150,4|0,1:2|0:0,0:0:0:0:
128,168,260346,1,0,1:0:0:0:
128,168,260412,2,0,B|158:144|158:144|174:92,1,75,8|0,1:2|0:0,0:0:0:0:
278,20,260542,2,0,B|308:44|308:44|324:96,1,75,0|0,1:0|0:0,0:0:0:0:
400,98,260673,1,0,1:0:0:0:
400,98,260738,2,0,B|415:120|415:120|228:96,1,200,0|0,1:0|0:0,0:0:0:0:
260,177,260933,2,0,L|260:184,6,5,8|0|0|0|0|0|0,1:2|0:0|0:0|0:0|0:0|0:0|0:0,0:0:0:0:
336,215,261194,6,0,P|247:218|216:341,1,225.000000000001,0|0,3:0|3:0,0:0:0:0:
119,359,261716,2,0,P|119:324|113:276,1,75.0000000000002,0|0,3:0|0:0,0:0:0:0:
95,201,261977,2,0,B|199:187|179:308|295:285,1,225.000000000001,0|0,3:0|3:0,0:0:0:0:
289,285,262499,1,0,3:0:0:0:
450,209,262759,2,0,P|495:220|517:250,1,75.0000000000002,0|0,3:0|0:0,0:0:0:0:
387,319,263020,2,0,P|432:308|454:278,1,75.0000000000002,0|0,3:0|0:0,0:0:0:0:
349,120,263281,6,0,L|357:168,4,37.5000000000001,0|0|0|0|0,3:0|0:0|0:0|0:0|0:0,0:0:0:0:
372,238,263673,1,0,3:0:0:0:
372,238,263803,2,0,P|317:224|281:223,1,75.0000000000002,0|0,3:0|0:0,0:0:0:0:
240,87,264064,2,0,B|201:96|196:171|342:170|358:19,1,225.000000000001,0|0,3:0|3:0,0:0:0:0:
431,72,264586,2,0,P|429:30|411:-11,1,75.0000000000002,0|0,3:0|0:0,0:0:0:0:
143,115,264846,2,0,B|258:123|227:44|366:49,1,225.000000000001,0|0,3:0|0:0,0:0:0:0:
485,137,265368,6,0,L|479:205,15,50,0|0|0|0|0|0|0|0|0|0|0|0|0|0|0|0,3:0|3:0|3:0|3:0|3:0|3:0|3:0|3:0|3:0|3:0|3:0|3:0|3:0|3:0|3:0|3:0,0:0:0:0:
354,213,266412,5,2,3:0:0:0:
354,213,266477,1,2,3:0:0:0:
354,213,266542,2,0,L|429:224,2,60,2|2|2,3:0|3:0|3:0,0:0:0:0:
379,111,266803,1,0,3:0:0:0:
303,241,266933,5,2,3:0:0:0:
303,241,266999,1,2,3:0:0:0:
303,241,267064,2,0,L|378:230,2,60,2|2|2,3:0|3:0|3:0,0:0:0:0:
300,135,267325,1,0,3:0:0:0:
265,292,267455,5,2,1:3:0:0:
265,292,267520,1,2,1:3:0:0:
265,292,267586,1,2,1:3:0:0:
265,292,267651,1,2,1:3:0:0:
265,292,267716,2,0,L|315:249,2,60,2|0|0,1:3|1:3|1:3,0:0:0:0:
259,378,267977,5,2,1:3:0:0:
259,378,268042,1,2,1:3:0:0:
259,378,268107,1,2,1:3:0:0:
259,378,268173,1,2,1:3:0:0:
259,378,268238,2,0,L|260:305,3,60,2|0|0|0,1:3|1:3|1:3|1:3,0:0:0:0:
256,231,268499,6,0,B|272:163|224:138|252:55,1,175.000000000001,0|0,1:3|0:0,0:0:0:0:
325,82,269542,6,0,B|359:61|359:61|319:31,1,75,4|0,1:0|0:0,0:0:0:0:
174,34,269673,2,0,B|140:55|140:55|180:85,1,75,0|0,1:0|0:0,0:0:0:0:
310,173,269803,2,0,B|270:165|246:136|246:136|222:167|172:171,1,150,8|2,1:2|0:2,0:0:0:0:
22,267,270064,2,0,B|2:319|2:319|74:394|166:333,1,225,0|0,1:0|0:0,0:0:0:0:
232,304,270325,1,8,1:2:0:0:
241,245,270412,1,2,0:2:0:0:
186,265,270499,1,2,0:2:0:0:
223,278,270586,6,0,B|285:273|285:273|301:282|301:282|394:276,1,150,0|2,1:0|0:2,0:0:0:0:
470,373,270846,2,0,B|407:377|407:377|392:369|392:369|299:375,1,150,8|2,1:2|0:2,0:0:0:0:
394,187,271107,2,0,B|458:202|470:278|470:278|505:235|474:180,1,225.000008583069,0|0,1:0|0:0,0:0:0:0:
424,108,271368,2,0,P|391:100|337:118,1,75,8|0,1:2|0:0,0:0:0:0:
77,142,271499,1,2,0:2:0:0:
308,174,271629,6,0,B|312:143|312:143|293:76|323:16,1,150.000005722046,0|2,1:0|0:2,0:0:0:0:
77,142,271890,2,0,B|73:173|73:173|92:240|62:300,1,150.000005722046,8|2,1:2|0:2,0:0:0:0:
342,245,272151,2,0,B|397:250|394:326|288:370|245:273,1,225,0|0,1:0|0:0,0:0:0:0:
151,103,272412,1,8,1:2:0:0:
152,170,272499,1,2,0:2:0:0:
215,134,272586,1,2,0:2:0:0:
175,140,272673,6,0,P|118:187|35:207,1,150,0|2,1:0|0:2,0:0:0:0:
263,69,272933,2,0,P|320:22|403:2,1,150,8|2,1:2|0:2,0:0:0:0:
472,266,273194,2,0,B|486:226|458:169|458:169|459:241|402:274,1,225,0|0,1:0|0:0,0:0:0:0:
417,349,273455,2,0,P|381:354|342:373,1,75,8|0,1:2|0:0,0:0:0:0:
373,184,273586,1,2,0:2:0:0:
505,345,273716,5,0,1:2:0:0:
497,379,273781,1,0,1:0:0:0:
321,272,273912,1,0,1:0:0:0:
314,295,273977,2,0,B|324:226|266:245|285:136,1,150,12|2,1:2|0:2,0:0:0:0:
385,96,274238,2,0,L|110:151,1,225,0|0,1:0|0:0,0:0:0:0:
54,296,274499,1,8,1:2:0:0:
51,235,274586,1,2,0:2:0:0:
108,264,274673,1,2,0:2:0:0:
74,265,274759,6,0,B|66:221|66:221|74:178|74:178|62:108,1,150,0|2,1:0|0:2,0:0:0:0:
283,215,275020,2,0,B|291:259|291:259|283:302|283:302|295:372,1,150,8|2,1:2|0:2,0:0:0:0:
207,68,275281,2,0,B|237:-16|348:13|348:13|327:95,1,225,0|0,1:0|0:0,0:0:0:0:
354,144,275542,2,0,P|318:147|270:118,1,75,8|0,1:2|0:0,0:0:0:0:
138,6,275673,1,2,0:2:0:0:
76,266,275803,6,0,L|165:249,3,75,0|2|2|2,1:0|0:2|0:2|0:2,0:0:0:0:
227,197,276064,1,8,1:2:0:0:
229,215,276129,1,2,0:2:0:0:
232,234,276194,1,2,0:2:0:0:
234,252,276259,1,2,0:2:0:0:
237,271,276325,2,0,L|326:254,3,75,2|2|2|2,1:2|0:2|0:2|0:2,0:0:0:0:
267,128,276586,2,0,B|234:115|234:115|178:126,3,75,8|2|2|2,1:2|0:2|0:2|0:2,0:0:0:0:
320,215,276846,5,2,1:2:0:0:
323,243,276912,1,2,0:2:0:0:
326,271,276977,1,2,0:2:0:0:
329,299,277042,1,2,0:2:0:0:
332,327,277107,2,0,L|258:341,3,75,8|2|2|2,1:2|0:2|0:2|0:2,0:0:0:0:
423,313,277368,5,2,1:2:0:0:
438,287,277433,1,2,0:2:0:0:
442,257,277499,1,2,0:2:0:0:
433,228,277564,1,2,0:2:0:0:
412,206,277629,1,8,1:2:0:0:
391,184,277694,1,2,0:2:0:0:
382,155,277759,1,2,0:2:0:0:
386,125,277825,1,2,0:2:0:0:
401,99,277890,2,0,P|440:91|468:70,1,60,4|0,1:0|3:0,0:0:0:0:
496,104,278151,6,0,P|421:19|319:56,1,225,8|0,1:2|0:0,0:0:0:0:
295,162,278412,2,0,P|220:247|118:210,1,225,0|0,1:0|0:0,0:0:0:0:
85,143,278673,1,8,1:2:0:0:
23,107,278759,1,2,0:2:0:0:
24,179,278846,1,2,0:2:0:0:
45,145,278933,6,0,B|58:105|58:105|51:54|51:54|70:-6,1,150,0|2,1:0|0:2,0:0:0:0:
295,162,279194,2,0,B|282:202|282:202|289:253|289:253|270:313,1,150,8|2,1:2|0:2,0:0:0:0:
143,67,279455,2,0,P|255:55|419:27,1,225,0|0,1:0|0:0,0:0:0:0:
453,186,279716,2,0,P|410:177|370:174,1,75,8|0,1:2|0:0,0:0:0:0:
420,96,279846,2,0,P|463:105|503:108,1,75,2|0,0:2|0:0,0:0:0:0:
512,330,279977,6,0,B|489:355|482:383|482:383|480:354|462:321,1,120,0|0,1:0|3:2,0:0:0:0:
493,257,280173,1,0,3:2:0:0:
493,257,280238,2,0,P|501:188|482:62,1,150,8|2,1:2|0:2,0:0:0:0:
251,2,280499,2,0,P|243:71|262:197,1,150,0|2,1:0|0:2,0:0:0:0:
328,320,280759,1,8,1:2:0:0:
375,266,280846,1,2,0:2:0:0:
304,252,280933,1,2,0:2:0:0:
332,279,281020,6,0,B|363:280|390:263|390:263|441:304|441:304|476:281|516:282,2,200,4|0|0,1:2|0:0|0:0,0:0:0:0:
195,351,281542,2,0,L|128:340,2,50,2|2|2,0:3|0:3|0:3,0:0:0:0:
139,243,281803,1,0,1:2:0:0:
139,243,281933,2,0,B|114:241|114:241|82:254,1,50,2|0,0:2|0:0,0:0:0:0:
57,321,282064,6,0,L|82:134,1,150,4|0,1:0|3:3,0:0:0:0:
168,21,282259,2,0,L|143:208,1,150,0|0,1:3|0:0,0:0:0:0:
195,351,282455,2,0,L|220:164,1,150,0|2,1:0|0:3,0:0:0:0:
306,51,282651,2,0,L|281:238,1,150,0|0,1:0|0:0,0:0:0:0:
333,381,282846,2,0,L|358:194,1,150,8|0,1:2|0:0,0:0:0:0:
365,159,283042,1,0,0:0:0:0:
365,159,283107,6,0,B|285:154|294:209|208:195,1,150,4|0,1:2|3:3,0:0:0:0:
131,300,283303,2,0,B|198:257|159:217|236:178,1,150,0|0,1:3|0:0,0:0:0:0:
237,48,283499,2,0,B|207:122|262:130|222:208,1,150,0|2,1:0|0:3,0:0:0:0:
298,314,283694,2,0,B|278:236|228:261|215:175,1,150,0|0,1:0|0:0,0:0:0:0:
91,135,283890,2,0,B|152:186|177:136|239:198,1,150,8|2,0:2|0:0,0:0:0:0:
317,194,284086,1,0,0:0:0:0:
317,194,284151,6,0,L|411:179,3,75,4|0|2|0,1:0|0:0|0:0|1:0,0:0:0:0:
387,26,284412,2,0,L|392:129,2,75,8|0|0,1:2|0:0|1:0,0:0:0:0:
474,164,284607,1,0,0:0:0:0:
474,164,284673,6,0,L|469:61,3,75,4|0|2|0,1:2|0:0|0:0|1:0,0:0:0:0:
425,255,284933,2,0,L|521:263,3,75,8|0|0|0,1:2|0:0|1:0|0:0,0:0:0:0:
390,339,285194,1,12,1:2:0:0:
348,349,285259,1,8,1:2:0:0:
308,335,285325,1,8,1:2:0:0:
281,302,285390,1,8,1:2:0:0:
275,260,285455,2,0,L|196:251,3,75,12|8|8|8,1:2|1:2|1:2|1:2,0:0:0:0:
119,278,285716,5,14,1:2:0:0:
107,234,285781,1,10,1:2:0:0:
124,193,285846,1,10,1:2:0:0:
162,168,285912,1,10,1:2:0:0:
206,169,285977,1,14,1:2:0:0:
250,170,286042,1,10,1:2:0:0:
288,145,286107,1,10,1:2:0:0:
304,104,286173,1,10,1:2:0:0:
293,60,286238,2,0,B|280:44|281:27|281:27|271:46|284:64,1,75,14|0,1:2|0:0,0:0:0:0:
416,210,286499,6,0,B|436:223|436:223|413:223|389:210,1,60,4|0,1:0|0:0,0:0:0:0:
320,209,286629,2,0,B|228:227|253:136|151:166,1,180,0|0,1:0|0:0,0:0:0:0:
68,152,286890,6,0,B|48:139|48:139|71:139|95:152,1,60,0|0,1:0|0:0,0:0:0:0:
164,153,287020,2,0,B|255:134|230:225|332:195,1,180,0|0,1:0|0:0,0:0:0:0:
424,204,287281,6,0,B|446:221|468:221|468:221|425:243|380:198,1,120,0|0,1:0|0:0,0:0:0:0:
314,63,287477,1,0,1:0:0:0:
314,63,287542,2,0,L|305:136,1,60,0|0,1:0|0:0,0:0:0:0:
256,324,287673,6,0,B|242:237|242:237|201:204,1,120,0|0,1:0|0:0,0:0:0:0:
328,311,287868,2,0,B|314:224|314:224|341:166,1,120,0|0,1:0|0:0,0:0:0:0:
285,126,288064,2,0,B|258:143|258:143|214:130,1,60,0|0,1:0|0:0,0:0:0:0:
231,0,288194,2,0,L|243:69,1,60,0|0,1:0|0:0,0:0:0:0:
280,280,288325,6,0,L|269:220,1,60,0|0,1:0|0:0,0:0:0:0:
175,139,288455,2,0,B|190:128|190:128|322:142|322:142|353:133,1,180,0|0,1:0|0:0,0:0:0:0:
386,69,288716,6,0,L|327:57,1,60,0|0,1:0|0:0,0:0:0:0:
211,253,288846,2,0,L|231:135,1,120,0|0,1:0|0:0,0:0:0:0:
329,244,289042,2,0,L|188:268,1,120,0|0,1:0|0:0,0:0:0:0:
260,150,289238,2,0,L|353:255,1,120,0|0,1:0|0:0,0:0:0:0:
238,278,289433,2,0,L|261:150,1,120,0|0,1:0|0:0,0:0:0:0:
228,76,289629,2,0,B|253:65|253:65|303:72,1,60,0|0,1:0|0:0,0:0:0:0:
300,235,289759,2,0,B|275:246|275:246|225:239,1,60,0|0,1:0|0:0,0:0:0:0:
107,6,289890,6,0,B|76:38|82:88|82:88|98:59|148:48|148:48|126:101|161:169|161:169|174:108|203:81|203:81|224:128|287:149|287:149|270:114|274:84|274:84|325:131|390:102,1,690,4|0,1:2|0:0,0:0:0:0:
473,73,290412,5,4,1:0:0:0:
474,85,290477,1,0,1:0:0:0:
476,97,290542,1,0,1:0:0:0:
477,110,290607,1,0,1:0:0:0:
479,122,290673,2,0,L|485:192,1,50,0|0,1:0|0:0,0:0:0:0:
495,259,290868,1,0,1:0:0:0:
495,259,290933,6,0,L|423:245,1,60,0|0,1:0|0:0,0:0:0:0:
371,168,291064,2,0,B|344:194|344:194|365:360,1,180,0|0,1:0|0:0,0:0:0:0:
361,335,291325,6,0,L|441:321,1,60,0|0,1:0|0:0,0:0:0:0:
262,147,291455,2,0,L|249:215,1,60,0|0,1:0|0:0,0:0:0:0:
373,252,291586,6,0,B|344:259|344:259|239:228|239:228|181:252,1,180,0|0,1:0|0:0,0:0:0:0:
180,326,291846,1,0,1:0:0:0:
180,326,291912,1,0,1:0:0:0:
180,326,291977,6,0,B|105:297|105:297|94:256,1,120,0|0,1:0|0:0,0:0:0:0:
118,158,292173,2,0,B|130:237|130:237|100:267,1,120,0|0,1:0|0:0,0:0:0:0:
0,294,292368,2,0,B|62:243|62:243|103:254,1,120,0|0,1:0|0:0,0:0:0:0:
293,172,292629,6,0,P|322:165|352:147,1,60,0|0,1:0|0:0,0:0:0:0:
223,128,292759,2,0,P|202:106|171:89,1,60,0|0,1:0|0:0,0:0:0:0:
219,210,292890,2,0,P|210:238|211:273,1,60,0|0,1:0|0:0,0:0:0:0:
424,331,293151,6,0,P|438:300|463:277,1,60,0|0,1:0|0:0,0:0:0:0:
456,281,293281,2,0,L|434:91,1,180,0|0,1:0|0:0,0:0:0:0:
415,0,293542,6,0,P|384:14|361:39,1,60,0|0,1:0|0:0,0:0:0:0:
365,32,293673,2,0,L|349:172,1,120,0|0,1:0|0:0,0:0:0:0:
360,171,293868,2,0,L|232:185,1,120,0|0,1:0|0:0,0:0:0:0:
177,191,294064,6,0,B|256:164|256:164|327:198|327:198|424:170,2,255,6|6|6,0:2|0:2|0:2,0:0:0:0:
393,300,294586,6,0,L|389:334,6,25,0|0|0|0|0|0|0,1:0|0:0|1:0|0:0|1:0|0:0|1:0,0:0:0:0:
477,288,294846,6,0,P|464:255|445:233,1,60,0|0,1:0|0:0,0:0:0:0:
155,383,294977,2,0,B|246:399|225:306|327:323,1,180,0|0,1:0|0:0,0:0:0:0:
407,321,295238,6,0,P|394:288|375:266,1,60,0|0,1:0|0:0,0:0:0:0:
154,259,295368,2,0,B|245:243|224:336|326:319,1,180,0|0,1:0|0:0,0:0:0:0:
81,334,295629,2,0,B|72:348|76:375|76:375|41:337|89:275,1,120,0|0,1:0|0:0,0:0:0:0:
148,183,295825,1,0,1:0:0:0:
148,183,295890,2,0,P|118:189|81:219,1,60,0|0,1:0|0:0,0:0:0:0:
227,342,296020,6,0,P|169:305|155:234,1,120,0|0,1:0|0:0,0:0:0:0:
311,177,296216,2,0,P|249:216|231:283,1,120,0|0,1:0|0:0,0:0:0:0:
370,303,296412,2,0,P|325:286|309:255,1,60,0|0,1:0|0:0,0:0:0:0:
439,201,296542,2,0,P|406:210|384:233,1,60,0|0,1:0|0:0,0:0:0:0:
509,288,296673,6,0,L|420:273,1,60,0|0,1:0|0:0,0:0:0:0:
442,142,296803,2,0,B|434:165|434:165|440:208,3,60,0|0|0|0,1:0|0:0|0:0|0:0,0:0:0:0:
362,285,297064,6,0,L|273:300,1,60,0|0,1:0|0:0,0:0:0:0:
230,384,297194,2,0,B|222:361|222:361|228:318,2,60,0|0|0,1:0|0:0|0:0,0:0:0:0:
250,210,297390,6,0,B|216:198|216:198|83:233|83:233|24:216,2,225,0|0|0,1:0|1:0|1:0,0:0:0:0:
330,297,297977,2,0,L|275:285,1,50,0|0,1:0|0:0,0:0:0:0:
127,183,298107,2,0,L|198:166,1,50,0|0,1:0|0:0,0:0:0:0:
405,50,298238,6,0,B|231:25|231:25|286:365|286:365|63:325,1,700,4|0,1:2|0:0,0:0:0:0:
22,320,298759,5,0,1:0:0:0:
21,308,298825,1,0,1:0:0:0:
19,296,298890,1,0,1:0:0:0:
18,283,298955,1,0,1:0:0:0:
16,271,299020,2,0,B|9:213|9:213|187:188,1,200,0|0,1:0|0:0,0:0:0:0:
224,257,299216,1,0,1:0:0:0:
224,257,299281,6,0,B|249:239|249:239|261:198,1,60,0|0,1:0|0:0,0:0:0:0:
337,174,299412,2,0,B|367:177|367:177|398:206,3,60,0|0|0|0,1:0|0:0|0:0|0:0,0:0:0:0:
420,111,299673,6,0,L|421:33,1,60,0|0,1:0|0:0,0:0:0:0:
265,95,299803,2,0,L|266:17,1,60,0|0,1:0|0:0,0:0:0:0:
110,79,299933,2,0,L|111:1,3,60,0|0|0|0,1:0|0:0|0:0|0:0,0:0:0:0:
190,63,300194,1,0,1:0:0:0:
190,63,300259,1,0,1:0:0:0:
190,63,300325,6,0,B|184:118|184:118|300:263|300:263|288:344,2,300,0|0|0,1:0|1:0|1:0,0:0:0:0:
215,363,300846,6,0,L|206:290,1,70,0|0,3:0|0:0,0:0:0:0:
188,280,301890,6,0,P|182:306|169:331,1,50,0|0,1:0|1:0,0:0:0:0:
340,264,302151,2,0,P|345:296|361:318,1,50,0|0,1:0|1:0,0:0:0:0:
78,142,302412,6,0,B|90:128|94:103|94:103|99:138|77:170,1,100,12|0,1:2|0:0,0:0:0:0:
427,138,302673,6,0,B|415:124|411:99|411:99|406:134|428:166,1,100,12|0,1:2|0:0,0:0:0:0:
259,369,302933,6,0,P|262:271|266:368,1,300.000000000001,4|0,1:0|3:0,0:0:0:0:
256,323,303716,1,0,3:0:0:0:
256,323,304238,1,0,3:0:0:0:
512,235,305020,6,0,P|460:208|358:240,1,150,0|0,3:0|0:0,0:0:0:0:
299,259,305412,2,0,B|267:273|230:253|230:253|257:288|316:272,1,150
373,226,305803,2,0,B|397:167|341:139|378:62,1,150,0|0,3:0|0:0,0:0:0:0:
400,12,306194,2,0,P|364:3|324:24,1,75.0000000000002,0|0,0:0|3:0,0:0:0:0:
330,17,306716,1,0,3:0:0:0:
139,197,306977,1,0,3:0:0:0:
139,197,307107,6,0,P|176:157|93:117,1,150,0|0,3:0|0:0,0:0:0:0:
45,123,307499,2,0,P|40:72|66:54,1,75.0000000000002
54,58,307890,6,0,P|21:81|54:177,1,150,0|0,3:0|0:0,0:0:0:0:
115,208,308281,1,0,0:0:0:0:
115,208,308412,2,0,P|150:268|105:323,1,150,0|0,3:0|0:0,0:0:0:0:
104,323,309194,6,0,B|138:283|138:283|262:268|262:268|317:305,1,225.000000000001,0|0,3:0|0:0,0:0:0:0:
501,297,309846,2,0,B|509:336|509:336|496:369,1,75.0000000000002,0|0,0:0|3:0,0:0:0:0:
417,242,310238,5,0,0:0:0:0:
483,368,310368,2,0,B|496:335|496:335|488:291,1,75.0000000000002,0|0,0:0|3:0,0:0:0:0:
448,73,310759,5,0,0:0:0:0:
448,73,310890,1,0,3:0:0:0:
282,285,311151,5,0,3:0:0:0:
242,146,311281,2,0,P|250:216|267:388,2,240,0|0|0,3:0|0:0|3:0,0:0:0:0:
512,384,315455,6,0,P|406:367|271:349,2,240,0|0|0,3:0|0:0|3:0,0:0:0:0:
256,192,317803,12,0,322759,0:0:0:0:
