osu file format v14

[General]
AudioFilename: audio.mp3
AudioLeadIn: 0
PreviewTime: 193367
Countdown: 0
SampleSet: Soft
StackLeniency: 0.7
Mode: 3
LetterboxInBreaks: 0
SpecialStyle: 0
WidescreenStoryboard: 1

[Editor]
Bookmarks: 10708,28163,45617,54345,63072,80527,89254,106708,124163,141617,159072,176527,185254,193981,207072,211436,215799,220163,224527,226708,228890,237617,246345,259436,263799,272527,276890,281254,294345,298708,307436,316163,324890
DistanceSpacing: 0.8
BeatDivisor: 8
GridSize: 8
TimelineZoom: 1.1

[Metadata]
Title:GHOST
TitleUnicode:GHOST
Artist:Camellia
ArtistUnicode:かめりあ
Creator:-mint-
Version:SPECTRE (2017)
Source:
Tags:qqqant dubstep drumstep drum and bass dnb pumpcore trap cyphisonia e.p. ep ctcd-014 fa featured artist かめるかめりあ kamelcamellia cametek masaya oya mentholzzz polytetral electronic instrumental
BeatmapID:1950799
BeatmapSetID:639647

[Difficulty]
HPDrainRate:9.3
CircleSize:4
OverallDifficulty:8.8
ApproachRate:5
SliderMultiplier:1.4
SliderTickRate:1

[Events]
//Background and Video events
0,0,"ghost.png",0,0
//Break Periods
//Storyboard Layer 0 (Background)
//Storyboard Layer 1 (Fail)
//Storyboard Layer 2 (Pass)
//Storyboard Layer 3 (Foreground)
//Storyboard Layer 4 (Overlay)
//Storyboard Sound Samples

[TimingPoints]
8527,272.727272727273,4,2,2,50,1,0
8527,-166.666666666667,4,2,2,50,0,0
17254,-156.25,4,2,2,50,0,0
17527,-153.846153846154,4,2,2,50,0,0
17799,-151.515151515152,4,2,2,50,0,0
18072,-149.253731343284,4,2,2,50,0,0
18345,-147.058823529412,4,2,2,50,0,0
18617,-144.927536231884,4,2,2,50,0,0
18890,-142.857142857143,4,2,2,50,0,0
19163,-140.845070422535,4,2,2,50,0,0
19436,-138.888888888889,4,2,2,50,0,0
19708,-136.986301369863,4,2,2,50,0,0
19981,-135.135135135135,4,2,2,50,0,0
20254,-133.333333333333,4,2,2,50,0,0
20527,-131.578947368421,4,2,2,50,0,0
20799,-129.87012987013,4,2,2,50,0,0
21072,-128.205128205128,4,2,2,50,0,0
21345,-126.582278481013,4,2,2,50,0,0
21617,-125,4,2,2,50,0,0
21890,-123.456790123457,4,2,2,50,0,0
22163,-121.951219512195,4,2,2,50,0,0
22436,-120.481927710843,4,2,2,50,0,0
22708,-119.047619047619,4,2,2,50,0,0
22981,-117.647058823529,4,2,2,50,0,0
23254,-116.279069767442,4,2,2,50,0,0
23527,-114.942528735632,4,2,2,50,0,0
23799,-113.636363636364,4,2,2,50,0,0
24072,-112.359550561798,4,2,2,50,0,0
24345,-111.111111111111,4,2,2,50,0,0
24617,-109.89010989011,4,2,2,50,0,0
24890,-108.695652173913,4,2,2,50,0,0
25163,-107.52688172043,4,2,2,50,0,0
25436,-59.1715976331361,4,2,2,50,0,0
25453,-144.927536231884,4,2,2,50,0,0
25504,-59.1715976331361,4,2,2,50,0,0
25521,-144.927536231884,4,2,2,50,0,0
25572,-59.1715976331361,4,2,2,50,0,0
25589,-144.927536231884,4,2,2,50,0,0
25640,-59.1715976331361,4,2,2,50,0,0
25657,-144.927536231884,4,2,2,50,0,0
25708,-58.8235294117647,4,2,2,50,0,0
25725,-142.857142857143,4,2,2,50,0,0
25777,-58.8235294117647,4,2,2,50,0,0
25794,-142.857142857143,4,2,2,50,0,0
25845,-58.8235294117647,4,2,2,50,0,0
25862,-142.857142857143,4,2,2,50,0,0
25913,-58.8235294117647,4,2,2,50,0,0
25930,-142.857142857143,4,2,2,50,0,0
25981,-58.4795321637427,4,2,2,50,0,0
25998,-140.845070422535,4,2,2,50,0,0
26049,-58.4795321637427,4,2,2,50,0,0
26066,-140.845070422535,4,2,2,50,0,0
26117,-58.4795321637427,4,2,2,50,0,0
26134,-140.845070422535,4,2,2,50,0,0
26186,-58.4795321637427,4,2,2,50,0,0
26203,-140.845070422535,4,2,2,50,0,0
26254,-58.1395348837209,4,2,2,50,0,0
26271,-138.888888888889,4,2,2,50,0,0
26322,-58.1395348837209,4,2,2,50,0,0
26339,-138.888888888889,4,2,2,50,0,0
26390,-58.1395348837209,4,2,2,50,0,0
26407,-138.888888888889,4,2,2,50,0,0
26458,-58.1395348837209,4,2,2,50,0,0
26475,-138.888888888889,4,2,2,50,0,0
26527,-57.8034682080925,4,2,2,50,0,0
26544,-136.986301369863,4,2,2,50,0,0
26595,-57.8034682080925,4,2,2,50,0,0
26612,-136.986301369863,4,2,2,50,0,0
26663,-57.8034682080925,4,2,2,50,0,0
26680,-136.986301369863,4,2,2,50,0,0
26731,-57.8034682080925,4,2,2,50,0,0
26748,-136.986301369863,4,2,2,50,0,0
26799,-57.4712643678161,4,2,2,50,0,0
26816,-135.135135135135,4,2,2,50,0,0
26867,-57.4712643678161,4,2,2,50,0,0
26884,-135.135135135135,4,2,2,50,0,0
26936,-57.4712643678161,4,2,2,50,0,0
26953,-135.135135135135,4,2,2,50,0,0
27004,-57.4712643678161,4,2,2,50,0,0
27021,-135.135135135135,4,2,2,50,0,0
27072,-100,4,2,1,50,0,0
28163,-86.9565217391304,4,2,1,50,0,0
28231,-100,4,2,1,50,0,0
31981,-52.6315789473684,4,2,1,50,0,0
32004,-1000,4,2,1,50,0,0
32027,-52.6315789473684,4,2,1,50,0,0
32049,-1000,4,2,1,50,0,0
32072,-52.6315789473684,4,2,1,50,0,0
32095,-1000,4,2,1,50,0,0
32117,-52.6315789473684,4,2,1,50,0,0
32140,-1000,4,2,1,50,0,0
32163,-52.6315789473684,4,2,1,50,0,0
32186,-1000,4,2,1,50,0,0
32208,-52.6315789473684,4,2,1,50,0,0
32231,-1000,4,2,1,50,0,0
32254,-100,4,2,1,50,0,0
36345,-52.6315789473684,4,2,1,50,0,0
36367,-1000,4,2,1,50,0,0
36390,-52.6315789473684,4,2,1,50,0,0
36413,-1000,4,2,1,50,0,0
36436,-52.6315789473684,4,2,1,50,0,0
36458,-1000,4,2,1,50,0,0
36481,-52.6315789473684,4,2,1,50,0,0
36504,-1000,4,2,1,50,0,0
36527,-52.6315789473684,4,2,1,50,0,0
36549,-1000,4,2,1,50,0,0
36572,-52.6315789473684,4,2,1,50,0,0
36595,-1000,4,2,1,50,0,0
36617,-100,4,2,1,50,0,0
40708,-52.6315789473684,4,2,1,50,0,0
40731,-1000,4,2,1,50,0,0
40754,-52.6315789473684,4,2,1,50,0,0
40777,-1000,4,2,1,50,0,0
40799,-52.6315789473684,4,2,1,50,0,0
40822,-1000,4,2,1,50,0,0
40845,-52.6315789473684,4,2,1,50,0,0
40867,-1000,4,2,1,50,0,0
40890,-52.6315789473684,4,2,1,50,0,0
40913,-1000,4,2,1,50,0,0
40936,-52.6315789473684,4,2,1,50,0,0
40958,-1000,4,2,1,50,0,0
40981,-100,4,2,1,50,0,0
45072,-52.6315789473684,4,2,1,50,0,0
45095,-1000,4,2,1,50,0,0
45117,-52.6315789473684,4,2,1,50,0,0
45140,-1000,4,2,1,50,0,0
45163,-52.6315789473684,4,2,1,50,0,0
45186,-1000,4,2,1,50,0,0
45208,-52.6315789473684,4,2,1,50,0,0
45231,-1000,4,2,1,50,0,0
45254,-52.6315789473684,4,2,1,50,0,0
45277,-1000,4,2,1,50,0,0
45299,-52.6315789473684,4,2,1,50,0,0
45322,-1000,4,2,1,50,0,0
45345,-97.0873786407767,4,2,1,50,0,0
45413,-94.3396226415094,4,2,1,50,0,0
45481,-91.743119266055,4,2,1,50,0,0
45549,-89.2857142857143,4,2,1,50,0,0
45617,-86.9565217391304,4,2,1,50,0,0
45652,-119.047619047619,4,2,1,50,0,0
46163,-117.647058823529,4,2,1,50,0,0
46708,-116.279069767442,4,2,1,50,0,0
47254,-114.942528735632,4,2,1,50,0,0
47799,-113.636363636364,4,2,1,50,0,0
48345,-112.359550561798,4,2,1,50,0,0
48890,-111.111111111111,4,2,1,50,0,0
49436,-109.89010989011,4,2,1,50,0,0
49981,-108.695652173913,4,2,1,50,0,0
50527,-107.52688172043,4,2,1,50,0,0
51072,-106.382978723404,4,2,1,50,0,0
51617,-105.263157894737,4,2,1,50,0,0
52163,-104.166666666667,4,2,1,50,0,0
52708,-103.092783505155,4,2,1,50,0,0
53254,-102.040816326531,4,2,1,50,0,0
53799,-101.010101010101,4,2,1,50,0,0
54345,-66.6666666666667,4,2,1,50,0,0
54379,-100,4,2,1,50,0,0
54617,-66.6666666666667,4,2,1,50,0,0
54652,-200,4,2,1,50,0,0
54686,-100,4,2,1,50,0,0
54890,-66.6666666666667,4,2,1,50,0,0
54925,-200,4,2,1,50,0,0
54959,-100,4,2,1,50,0,0
55163,-66.6666666666667,4,2,1,50,0,0
55198,-200,4,2,1,50,0,0
55232,-100,4,2,1,50,0,0
55436,-66.6666666666667,4,2,1,50,0,0
55471,-200,4,2,1,50,0,0
55505,-100,4,2,1,50,0,0
55708,-66.6666666666667,4,2,1,50,0,0
55743,-200,4,2,1,50,0,0
55777,-100,4,2,1,50,0,0
55981,-66.6666666666667,4,2,1,50,0,0
56016,-200,4,2,1,50,0,0
56050,-100,4,2,1,50,0,0
56254,-66.6666666666667,4,2,1,50,0,0
56289,-200,4,2,1,50,0,0
56323,-100,4,2,1,50,0,0
56527,-66.6666666666667,4,2,1,50,0,0
56562,-200,4,2,1,50,0,0
56596,-100,4,2,1,50,0,0
56799,-66.6666666666667,4,2,1,50,0,0
56834,-200,4,2,1,50,0,0
56868,-100,4,2,1,50,0,0
57072,-66.6666666666667,4,2,1,50,0,0
57107,-200,4,2,1,50,0,0
57141,-100,4,2,1,50,0,0
57345,-66.6666666666667,4,2,1,50,0,0
57380,-200,4,2,1,50,0,0
57414,-100,4,2,1,50,0,0
57617,-66.6666666666667,4,2,1,50,0,0
57652,-200,4,2,1,50,0,0
57686,-100,4,2,1,50,0,0
57890,-66.6666666666667,4,2,1,50,0,0
57925,-200,4,2,1,50,0,0
57959,-100,4,2,1,50,0,0
58163,-66.6666666666667,4,2,1,50,0,0
58198,-200,4,2,1,50,0,0
58232,-100,4,2,1,50,0,0
58436,-66.6666666666667,4,2,1,50,0,0
58471,-200,4,2,1,50,0,0
58505,-100,4,2,1,50,0,0
58708,-66.6666666666667,4,2,1,50,0,0
58742,-200,4,2,1,50,0,0
58777,-100,4,2,1,50,0,0
58845,-66.6666666666667,4,2,1,50,0,0
58879,-200,4,2,1,50,0,0
58913,-100,4,2,1,50,0,0
58981,-66.6666666666667,4,2,1,50,0,0
59015,-200,4,2,1,50,0,0
59049,-100,4,2,1,50,0,0
59117,-66.6666666666667,4,2,1,50,0,0
59152,-200,4,2,1,50,0,0
59186,-100,4,2,1,50,0,0
59254,-66.6666666666667,4,2,1,50,0,0
59288,-200,4,2,1,50,0,0
59322,-100,4,2,1,50,0,0
59390,-66.6666666666667,4,2,1,50,0,0
59424,-200,4,2,1,50,0,0
59458,-100,4,2,1,50,0,0
59527,-66.6666666666667,4,2,1,50,0,0
59561,-200,4,2,1,50,0,0
59595,-100,4,2,1,50,0,0
59663,-66.6666666666667,4,2,1,50,0,0
59697,-200,4,2,1,50,0,0
59731,-100,4,2,1,50,0,0
59799,-66.6666666666667,4,2,1,50,0,0
59833,-200,4,2,1,50,0,0
59867,-66.2251655629139,4,2,1,50,0,0
59902,-196.078431372549,4,2,1,50,0,0
59936,-65.7894736842105,4,2,1,50,0,0
59970,-192.307692307692,4,2,1,50,0,0
60004,-65.359477124183,4,2,1,50,0,0
60038,-188.679245283019,4,2,1,50,0,0
60072,-64.9350649350649,4,2,1,50,0,0
60106,-185.185185185185,4,2,1,50,0,0
60140,-64.5161290322581,4,2,1,50,0,0
60174,-181.818181818182,4,2,1,50,0,0
60208,-64.1025641025641,4,2,1,50,0,0
60242,-178.571428571429,4,2,1,50,0,0
60277,-63.6942675159236,4,2,1,50,0,0
60311,-175.438596491228,4,2,1,50,0,0
60345,-63.2911392405063,4,2,1,50,0,0
60379,-172.413793103448,4,2,1,50,0,0
60413,-62.8930817610063,4,2,1,50,0,0
60447,-169.491525423729,4,2,1,50,0,0
60481,-62.5,4,2,1,50,0,0
60515,-166.666666666667,4,2,1,50,0,0
60549,-62.111801242236,4,2,1,50,0,0
60583,-163.934426229508,4,2,1,50,0,0
60617,-61.7283950617284,4,2,1,50,0,0
60652,-161.290322580645,4,2,1,50,0,0
60686,-61.3496932515337,4,2,1,50,0,0
60720,-158.730158730159,4,2,1,50,0,0
60754,-60.9756097560976,4,2,1,50,0,0
60788,-156.25,4,2,1,50,0,0
60822,-60.6060606060606,4,2,1,50,0,0
60856,-153.846153846154,4,2,1,50,0,0
60890,-111.111111111111,4,2,1,50,0,0
61163,-109.89010989011,4,2,1,50,0,0
61436,-25,4,2,1,50,0,0
61453,-108.695652173913,4,2,1,50,0,0
61708,-107.52688172043,4,2,1,50,0,0
61981,-25,4,2,1,50,0,0
61998,-106.382978723404,4,2,1,50,0,0
62254,-25,4,2,1,50,0,0
62271,-105.263157894737,4,2,1,50,0,0
62527,-10,4,2,1,50,0,0
62573,-333.333333333333,4,2,1,50,0,0
62800,-222.222222222222,4,2,1,50,0,0
62868,-142.857142857143,4,2,1,50,0,0
62936,-90.9090909090909,4,2,1,50,0,0
63005,-55.5555555555556,4,2,1,50,0,0
63072,-66.6666666666667,4,2,1,50,0,0
63106,-200,4,2,1,50,0,0
63140,-66.6666666666667,4,2,1,50,0,0
63174,-200,4,2,1,50,0,0
63208,-66.6666666666667,4,2,1,50,0,0
63242,-200,4,2,1,50,0,0
63277,-100,4,2,1,50,0,0
63345,-66.6666666666667,4,2,1,50,0,0
63379,-200,4,2,1,50,0,0
63413,-66.6666666666667,4,2,1,50,0,0
63447,-200,4,2,1,50,0,0
63481,-66.6666666666667,4,2,1,50,0,0
63515,-200,4,2,1,50,0,0
63549,-100,4,2,1,50,0,0
63617,-66.6666666666667,4,2,1,50,0,0
63652,-200,4,2,1,50,0,0
63686,-66.6666666666667,4,2,1,50,0,0
63720,-200,4,2,1,50,0,0
63754,-66.6666666666667,4,2,1,50,0,0
63788,-200,4,2,1,50,0,0
63822,-100,4,2,1,50,0,0
63890,-40,4,2,1,50,0,0
63924,-250,4,2,1,50,0,0
64027,-40,4,2,1,50,0,0
64061,-250,4,2,1,50,0,0
64163,-40,4,2,1,50,0,0
64197,-250,4,2,1,50,0,0
64299,-40,4,2,1,50,0,0
64333,-250,4,2,1,50,0,0
64436,-40,4,2,1,50,0,0
64470,-250,4,2,1,50,0,0
64572,-40,4,2,1,50,0,0
64606,-250,4,2,1,50,0,0
64708,-40,4,2,1,50,0,0
64742,-250,4,2,1,50,0,0
64845,-40,4,2,1,50,0,0
64879,-250,4,2,1,50,0,0
64981,-40,4,2,1,50,0,0
65015,-250,4,2,1,50,0,0
65117,-40,4,2,1,50,0,0
65152,-250,4,2,1,50,0,0
65254,-40,4,2,1,50,0,0
65288,-250,4,2,1,50,0,0
65390,-40,4,2,1,50,0,0
65424,-250,4,2,1,50,0,0
65527,-40,4,2,1,50,0,0
65561,-250,4,2,1,50,0,0
65663,-40,4,2,1,50,0,0
65697,-250,4,2,1,50,0,0
65799,-40,4,2,1,50,0,0
65833,-250,4,2,1,50,0,0
65936,-40,4,2,1,50,0,0
65970,-250,4,2,1,50,0,0
66072,-40,4,2,1,50,0,0
66106,-250,4,2,1,50,0,0
66208,-40,4,2,1,50,0,0
66242,-250,4,2,1,50,0,0
66345,-66.6666666666667,4,2,1,50,0,0
66379,-200,4,2,1,50,0,0
66413,-66.6666666666667,4,2,1,50,0,0
66447,-200,4,2,1,50,0,0
66481,-66.6666666666667,4,2,1,50,0,0
66515,-200,4,2,1,50,0,0
66549,-66.6666666666667,4,2,1,50,0,0
66583,-200,4,2,1,50,0,0
66617,-100,4,2,1,50,0,0
66890,-52.6315789473684,4,2,1,50,0,0
66913,-1000,4,2,1,50,0,0
66936,-52.6315789473684,4,2,1,50,0,0
66959,-1000,4,2,1,50,0,0
66981,-52.6315789473684,4,2,1,50,0,0
67004,-1000,4,2,1,50,0,0
67027,-52.6315789473684,4,2,1,50,0,0
67049,-1000,4,2,1,50,0,0
67072,-52.6315789473684,4,2,1,50,0,0
67095,-1000,4,2,1,50,0,0
67118,-52.6315789473684,4,2,1,50,0,0
67140,-1000,4,2,1,50,0,0
67163,-100,4,2,1,50,0,0
67436,-66.6666666666667,4,2,1,50,0,0
67470,-200,4,2,1,50,0,0
67504,-66.6666666666667,4,2,1,50,0,0
67538,-200,4,2,1,50,0,0
67572,-66.6666666666667,4,2,1,50,0,0
67606,-200,4,2,1,50,0,0
67640,-100,4,2,1,50,0,0
67708,-66.6666666666667,4,2,1,50,0,0
67742,-200,4,2,1,50,0,0
67777,-66.6666666666667,4,2,1,50,0,0
67811,-200,4,2,1,50,0,0
67845,-66.6666666666667,4,2,1,50,0,0
67879,-200,4,2,1,50,0,0
67913,-100,4,2,1,50,0,0
67981,-66.6666666666667,4,2,1,50,0,0
68015,-200,4,2,1,50,0,0
68049,-66.6666666666667,4,2,1,50,0,0
68083,-200,4,2,1,50,0,0
68117,-66.6666666666667,4,2,1,50,0,0
68152,-200,4,2,1,50,0,0
68186,-100,4,2,1,50,0,0
68936,-33.3333333333333,4,2,1,50,0,0
68970,-333.333333333333,4,2,1,50,0,0
69072,-100,4,2,1,50,0,0
69481,-33.3333333333333,4,2,1,50,0,0
69515,-333.333333333333,4,2,1,50,0,0
69617,-100,4,2,1,50,0,0
70027,-33.3333333333333,4,2,1,50,0,0
70061,-333.333333333333,4,2,1,50,0,0
70163,-100,4,2,1,50,0,0
70572,-33.3333333333333,4,2,1,50,0,0
70606,-333.333333333333,4,2,1,50,0,0
70708,-100,4,2,1,50,0,0
71254,-52.6315789473684,4,2,1,50,0,0
71277,-1000,4,2,1,50,0,0
71300,-52.6315789473684,4,2,1,50,0,0
71323,-1000,4,2,1,50,0,0
71345,-52.6315789473684,4,2,1,50,0,0
71368,-1000,4,2,1,50,0,0
71391,-52.6315789473684,4,2,1,50,0,0
71413,-1000,4,2,1,50,0,0
71436,-52.6315789473684,4,2,1,50,0,0
71459,-1000,4,2,1,50,0,0
71482,-52.6315789473684,4,2,1,50,0,0
71504,-1000,4,2,1,50,0,0
71527,-66.6666666666667,4,2,1,50,0,0
71561,-200,4,2,1,50,0,0
71595,-100,4,2,1,50,0,0
71663,-66.6666666666667,4,2,1,50,0,0
71697,-200,4,2,1,50,0,0
71731,-100,4,2,1,50,0,0
71799,-66.6666666666667,4,2,1,50,0,0
71833,-200,4,2,1,50,0,0
71867,-66.6666666666667,4,2,1,50,0,0
71902,-200,4,2,1,50,0,0
71936,-66.6666666666667,4,2,1,50,0,0
71970,-200,4,2,1,50,0,0
72004,-66.6666666666667,4,2,1,50,0,0
72072,-100,4,2,1,50,0,0
72106,-200,4,2,1,50,0,0
72140,-66.6666666666667,4,2,1,50,0,0
72174,-200,4,2,1,50,0,0
72208,-66.6666666666667,4,2,1,50,0,0
72242,-200,4,2,1,50,0,0
72277,-66.6666666666667,4,2,1,50,0,0
72345,-100,4,2,1,50,0,0
72379,-200,4,2,1,50,0,0
72413,-66.6666666666667,4,2,1,50,0,0
72447,-200,4,2,1,50,0,0
72481,-66.6666666666667,4,2,1,50,0,0
72515,-200,4,2,1,50,0,0
72549,-100,4,2,1,50,0,0
72617,-40,4,2,1,50,0,0
72652,-250,4,2,1,50,0,0
72754,-40,4,2,1,50,0,0
72788,-250,4,2,1,50,0,0
72890,-40,4,2,1,50,0,0
72924,-250,4,2,1,50,0,0
73027,-40,4,2,1,50,0,0
73061,-250,4,2,1,50,0,0
73163,-40,4,2,1,50,0,0
73197,-250,4,2,1,50,0,0
73299,-40,4,2,1,50,0,0
73333,-250,4,2,1,50,0,0
73436,-40,4,2,1,50,0,0
73470,-250,4,2,1,50,0,0
73572,-40,4,2,1,50,0,0
73606,-250,4,2,1,50,0,0
73708,-40,4,2,1,50,0,0
73742,-250,4,2,1,50,0,0
73845,-40,4,2,1,50,0,0
73879,-250,4,2,1,50,0,0
73981,-40,4,2,1,50,0,0
74015,-250,4,2,1,50,0,0
74117,-40,4,2,1,50,0,0
74152,-250,4,2,1,50,0,0
74254,-40,4,2,1,50,0,0
74288,-250,4,2,1,50,0,0
74390,-40,4,2,1,50,0,0
74424,-250,4,2,1,50,0,0
74527,-40,4,2,1,50,0,0
74561,-250,4,2,1,50,0,0
74663,-40,4,2,1,50,0,0
74697,-250,4,2,1,50,0,0
74799,-40,4,2,1,50,0,0
74833,-250,4,2,1,50,0,0
74936,-40,4,2,1,50,0,0
74970,-250,4,2,1,50,0,0
75072,-66.6666666666667,4,2,1,50,0,0
75106,-200,4,2,1,50,0,0
75140,-66.6666666666667,4,2,1,50,0,0
75174,-200,4,2,1,50,0,0
75208,-66.6666666666667,4,2,1,50,0,0
75242,-200,4,2,1,50,0,0
75277,-66.6666666666667,4,2,1,50,0,0
75311,-200,4,2,1,50,0,0
75345,-100,4,2,1,50,0,0
75617,-52.6315789473684,4,2,1,50,0,0
75640,-1000,4,2,1,50,0,0
75663,-52.6315789473684,4,2,1,50,0,0
75686,-1000,4,2,1,50,0,0
75708,-52.6315789473684,4,2,1,50,0,0
75731,-1000,4,2,1,50,0,0
75754,-52.6315789473684,4,2,1,50,0,0
75776,-1000,4,2,1,50,0,0
75799,-52.6315789473684,4,2,1,50,0,0
75822,-1000,4,2,1,50,0,0
75845,-52.6315789473684,4,2,1,50,0,0
75867,-1000,4,2,1,50,0,0
75890,-100,4,2,1,50,0,0
76163,-66.6666666666667,4,2,1,50,0,0
76197,-200,4,2,1,50,0,0
76231,-66.6666666666667,4,2,1,50,0,0
76265,-200,4,2,1,50,0,0
76299,-66.6666666666667,4,2,1,50,0,0
76333,-200,4,2,1,50,0,0
76367,-100,4,2,1,50,0,0
76436,-66.6666666666667,4,2,1,50,0,0
76470,-200,4,2,1,50,0,0
76504,-66.6666666666667,4,2,1,50,0,0
76538,-200,4,2,1,50,0,0
76572,-66.6666666666667,4,2,1,50,0,0
76606,-200,4,2,1,50,0,0
76640,-100,4,2,1,50,0,0
78345,-66.6666666666667,4,2,1,50,0,0
78379,-200,4,2,1,50,0,0
78413,-66.6666666666667,4,2,1,50,0,0
78447,-200,4,2,1,50,0,0
78481,-66.6666666666667,4,2,1,50,0,0
78515,-200,4,2,1,50,0,0
78549,-100,4,2,1,50,0,0
78617,-66.6666666666667,4,2,1,50,0,0
78652,-200,4,2,1,50,0,0
78686,-66.6666666666667,4,2,1,50,0,0
78720,-200,4,2,1,50,0,0
78754,-66.6666666666667,4,2,1,50,0,0
78788,-200,4,2,1,50,0,0
78822,-100,4,2,1,50,0,0
80254,-200,4,2,1,50,0,0
80390,-100,4,2,1,50,0,0
80458,-50,4,2,1,50,0,0
80527,-80,4,2,1,50,0,0
80561,-100,4,2,1,50,0,0
80799,-66.6666666666667,4,2,1,50,0,0
80833,-200,4,2,1,50,0,0
80867,-100,4,2,1,50,0,0
81072,-66.6666666666667,4,2,1,50,0,0
81106,-200,4,2,1,50,0,0
81140,-100,4,2,1,50,0,0
81345,-66.6666666666667,4,2,1,50,0,0
81379,-200,4,2,1,50,0,0
81413,-100,4,2,1,50,0,0
81617,-66.6666666666667,4,2,1,50,0,0
81651,-200,4,2,1,50,0,0
81685,-100,4,2,1,50,0,0
81890,-66.6666666666667,4,2,1,50,0,0
81924,-200,4,2,1,50,0,0
81958,-100,4,2,1,50,0,0
82163,-66.6666666666667,4,2,1,50,0,0
82197,-200,4,2,1,50,0,0
82231,-100,4,2,1,50,0,0
82436,-66.6666666666667,4,2,1,50,0,0
82470,-200,4,2,1,50,0,0
82504,-100,4,2,1,50,0,0
82708,-66.6666666666667,4,2,1,50,0,0
82742,-200,4,2,1,50,0,0
82776,-100,4,2,1,50,0,0
82981,-66.6666666666667,4,2,1,50,0,0
83015,-200,4,2,1,50,0,0
83049,-100,4,2,1,50,0,0
83254,-66.6666666666667,4,2,1,50,0,0
83288,-200,4,2,1,50,0,0
83322,-100,4,2,1,50,0,0
83527,-66.6666666666667,4,2,1,50,0,0
83561,-200,4,2,1,50,0,0
83595,-100,4,2,1,50,0,0
83799,-66.6666666666667,4,2,1,50,0,0
83833,-200,4,2,1,50,0,0
83867,-100,4,2,1,50,0,0
84072,-66.6666666666667,4,2,1,50,0,0
84106,-200,4,2,1,50,0,0
84140,-100,4,2,1,50,0,0
84345,-66.6666666666667,4,2,1,50,0,0
84379,-200,4,2,1,50,0,0
84413,-100,4,2,1,50,0,0
84617,-66.6666666666667,4,2,1,50,0,0
84651,-200,4,2,1,50,0,0
84685,-100,4,2,1,50,0,0
84890,-66.6666666666667,4,2,1,50,0,0
84924,-200,4,2,1,50,0,0
84958,-100,4,2,1,50,0,0
85027,-66.6666666666667,4,2,1,50,0,0
85061,-200,4,2,1,50,0,0
85095,-100,4,2,1,50,0,0
85163,-66.6666666666667,4,2,1,50,0,0
85197,-200,4,2,1,50,0,0
85231,-100,4,2,1,50,0,0
85299,-66.6666666666667,4,2,1,50,0,0
85333,-200,4,2,1,50,0,0
85367,-100,4,2,1,50,0,0
85436,-66.6666666666667,4,2,1,50,0,0
85470,-200,4,2,1,50,0,0
85504,-100,4,2,1,50,0,0
85572,-66.6666666666667,4,2,1,50,0,0
85606,-200,4,2,1,50,0,0
85640,-100,4,2,1,50,0,0
85708,-66.6666666666667,4,2,1,50,0,0
85742,-200,4,2,1,50,0,0
85777,-100,4,2,1,50,0,0
85845,-66.6666666666667,4,2,1,50,0,0
85879,-200,4,2,1,50,0,0
85913,-100,4,2,1,50,0,0
85981,-66.6666666666667,4,2,1,50,0,0
86015,-200,4,2,1,50,0,0
86049,-66.2251655629139,4,2,1,50,0,0
86083,-196.078431372549,4,2,1,50,0,0
86117,-65.7894736842105,4,2,1,50,0,0
86152,-192.307692307692,4,2,1,50,0,0
86186,-65.359477124183,4,2,1,50,0,0
86220,-188.679245283019,4,2,1,50,0,0
86254,-64.9350649350649,4,2,1,50,0,0
86288,-185.185185185185,4,2,1,50,0,0
86322,-64.5161290322581,4,2,1,50,0,0
86356,-181.818181818182,4,2,1,50,0,0
86390,-64.1025641025641,4,2,1,50,0,0
86424,-178.571428571429,4,2,1,50,0,0
86458,-63.6942675159236,4,2,1,50,0,0
86492,-175.438596491228,4,2,1,50,0,0
86527,-63.2911392405063,4,2,1,50,0,0
86561,-172.413793103448,4,2,1,50,0,0
86595,-62.8930817610063,4,2,1,50,0,0
86629,-169.491525423729,4,2,1,50,0,0
86663,-62.5,4,2,1,50,0,0
86697,-166.666666666667,4,2,1,50,0,0
86731,-62.111801242236,4,2,1,50,0,0
86765,-163.934426229508,4,2,1,50,0,0
86799,-61.7283950617284,4,2,1,50,0,0
86833,-161.290322580645,4,2,1,50,0,0
86867,-61.3496932515337,4,2,1,50,0,0
86902,-158.730158730159,4,2,1,50,0,0
86936,-60.9756097560976,4,2,1,50,0,0
86970,-156.25,4,2,1,50,0,0
87004,-60.6060606060606,4,2,1,50,0,0
87038,-153.846153846154,4,2,1,50,0,0
87072,-111.111111111111,4,2,1,50,0,0
87345,-109.89010989011,4,2,1,50,0,0
87617,-108.695652173913,4,2,1,50,0,0
87890,-107.52688172043,4,2,1,50,0,0
88163,-106.382978723404,4,2,1,50,0,0
88436,-105.263157894737,4,2,1,50,0,0
88708,-10,4,2,1,50,0,0
88754,-333.333333333333,4,2,1,50,0,0
88981,-222.222222222222,4,2,1,50,0,0
89049,-142.857142857143,4,2,1,50,0,0
89117,-90.9090909090909,4,2,1,50,0,0
89186,-55.5555555555556,4,2,1,50,0,0
89254,-66.6666666666667,4,2,1,50,0,0
89299,-200,4,2,1,50,0,0
89345,-66.6666666666667,4,2,1,50,0,0
89390,-200,4,2,1,50,0,0
89436,-66.6666666666667,4,2,1,50,0,0
89481,-200,4,2,1,50,0,0
89527,-66.6666666666667,4,2,1,50,0,0
89572,-200,4,2,1,50,0,0
89617,-66.6666666666667,4,2,1,50,0,0
89663,-200,4,2,1,50,0,0
89708,-66.6666666666667,4,2,1,50,0,0
89754,-200,4,2,1,50,0,0
89799,-27.027027027027,4,2,1,50,0,0
89816,-1000,4,2,1,50,0,0
89867,-29.4117647058824,4,2,1,50,0,0
89884,-500,4,2,1,50,0,0
89936,-32.258064516129,4,2,1,50,0,0
89953,-333.333333333333,4,2,1,50,0,0
90004,-35.7142857142857,4,2,1,50,0,0
90021,-250,4,2,1,50,0,0
90072,-100,4,2,1,50,0,0
93072,-52.6315789473684,4,2,1,50,0,0
93095,-1000,4,2,1,50,0,0
93117,-52.6315789473684,4,2,1,50,0,0
93140,-1000,4,2,1,50,0,0
93163,-52.6315789473684,4,2,1,50,0,0
93186,-1000,4,2,1,50,0,0
93208,-52.6315789473684,4,2,1,50,0,0
93231,-1000,4,2,1,50,0,0
93254,-52.6315789473684,4,2,1,50,0,0
93277,-1000,4,2,1,50,0,0
93299,-52.6315789473684,4,2,1,50,0,0
93322,-1000,4,2,1,50,0,0
93345,-100,4,2,1,50,0,0
93617,-66.6666666666667,4,2,1,50,0,0
93663,-200,4,2,1,50,0,0
93708,-66.6666666666667,4,2,1,50,0,0
93754,-200,4,2,1,50,0,0
93799,-66.6666666666667,4,2,1,50,0,0
93845,-200,4,2,1,50,0,0
93890,-66.6666666666667,4,2,1,50,0,0
93936,-200,4,2,1,50,0,0
93981,-66.6666666666667,4,2,1,50,0,0
94027,-200,4,2,1,50,0,0
94072,-66.6666666666667,4,2,1,50,0,0
94117,-200,4,2,1,50,0,0
94163,-27.027027027027,4,2,1,50,0,0
94180,-1000,4,2,1,50,0,0
94231,-29.4117647058824,4,2,1,50,0,0
94248,-500,4,2,1,50,0,0
94300,-32.258064516129,4,2,1,50,0,0
94317,-333.333333333333,4,2,1,50,0,0
94368,-35.7142857142857,4,2,1,50,0,0
94385,-250,4,2,1,50,0,0
94436,-100,4,2,1,50,0,0
95117,-33.3333333333333,4,2,1,50,0,0
95152,-333.333333333333,4,2,1,50,0,0
95254,-100,4,2,1,50,0,0
95663,-33.3333333333333,4,2,1,50,0,0
95697,-333.333333333333,4,2,1,50,0,0
95799,-100,4,2,1,50,0,0
96208,-33.3333333333333,4,2,1,50,0,0
96242,-333.333333333333,4,2,1,50,0,0
96345,-100,4,2,1,50,0,0
96754,-33.3333333333333,4,2,1,50,0,0
96788,-333.333333333333,4,2,1,50,0,0
96890,-100,4,2,1,50,0,0
97299,-33.3333333333333,4,2,1,50,0,0
97333,-333.333333333333,4,2,1,50,0,0
97436,-100,4,2,1,50,0,0
97981,-66.6666666666667,4,2,1,50,0,0
98027,-200,4,2,1,50,0,0
98072,-66.6666666666667,4,2,1,50,0,0
98117,-200,4,2,1,50,0,0
98163,-66.6666666666667,4,2,1,50,0,0
98208,-200,4,2,1,50,0,0
98254,-66.6666666666667,4,2,1,50,0,0
98299,-200,4,2,1,50,0,0
98345,-66.6666666666667,4,2,1,50,0,0
98390,-200,4,2,1,50,0,0
98436,-66.6666666666667,4,2,1,50,0,0
98481,-200,4,2,1,50,0,0
98527,-27.027027027027,4,2,1,50,0,0
98544,-1000,4,2,1,50,0,0
98595,-29.4117647058824,4,2,1,50,0,0
98612,-500,4,2,1,50,0,0
98664,-32.258064516129,4,2,1,50,0,0
98681,-333.333333333333,4,2,1,50,0,0
98732,-35.7142857142857,4,2,1,50,0,0
98749,-250,4,2,1,50,0,0
98800,-100,4,2,1,50,0,0
101799,-52.6315789473684,4,2,1,50,0,0
101822,-1000,4,2,1,50,0,0
101844,-52.6315789473684,4,2,1,50,0,0
101867,-1000,4,2,1,50,0,0
101890,-52.6315789473684,4,2,1,50,0,0
101913,-1000,4,2,1,50,0,0
101935,-52.6315789473684,4,2,1,50,0,0
101958,-1000,4,2,1,50,0,0
101981,-52.6315789473684,4,2,1,50,0,0
102004,-1000,4,2,1,50,0,0
102026,-52.6315789473684,4,2,1,50,0,0
102049,-1000,4,2,1,50,0,0
102072,-100,4,2,1,50,0,0
102345,-66.6666666666667,4,2,1,50,0,0
102367,-133.333333333333,4,2,1,50,0,0
102413,-66.6666666666667,4,2,1,50,0,0
102436,-133.333333333333,4,2,1,50,0,0
102481,-66.6666666666667,4,2,1,50,0,0
102527,-200,4,2,1,50,0,0
102572,-66.6666666666667,4,2,1,50,0,0
102617,-100,4,2,1,50,0,0
102640,-200,4,2,1,50,0,0
102686,-66.6666666666667,4,2,1,50,0,0
102731,-200,4,2,1,50,0,0
102777,-66.6666666666667,4,2,1,50,0,0
102822,-100,4,2,1,50,0,0
102845,-200,4,2,1,50,0,0
102890,-27.027027027027,4,2,1,50,0,0
102907,-1000,4,2,1,50,0,0
102958,-29.4117647058824,4,2,1,50,0,0
102975,-500,4,2,1,50,0,0
103027,-32.258064516129,4,2,1,50,0,0
103044,-333.333333333333,4,2,1,50,0,0
103095,-35.7142857142857,4,2,1,50,0,0
103112,-250,4,2,1,50,0,0
103163,-100,4,2,1,50,0,0
103845,-33.3333333333333,4,2,1,50,0,0
103879,-333.333333333333,4,2,1,50,0,0
103981,-100,4,2,1,50,0,0
104390,-33.3333333333333,4,2,1,50,0,0
104424,-333.333333333333,4,2,1,50,0,0
104527,-100,4,2,1,50,0,0
104936,-33.3333333333333,4,2,1,50,0,0
104970,-333.333333333333,4,2,1,50,0,0
105072,-100,4,2,1,50,0,0
105481,-33.3333333333333,4,2,1,50,0,0
105515,-333.333333333333,4,2,1,50,0,0
105617,-100,4,2,1,50,0,0
106027,-33.3333333333333,4,2,1,50,0,0
106061,-333.333333333333,4,2,1,50,0,0
106163,-10,4,2,1,50,0,0
106209,-333.333333333333,4,2,1,50,0,0
106436,-222.222222222222,4,2,1,50,0,0
106504,-142.857142857143,4,2,1,50,0,0
106572,-90.9090909090909,4,2,1,50,0,0
106641,-55.5555555555556,4,2,1,50,0,0
106708,-100,4,2,1,50,0,0
107254,-27.027027027027,4,2,1,50,0,0
107271,-1000,4,2,1,50,0,0
107322,-29.4117647058824,4,2,1,50,0,0
107339,-500,4,2,1,50,0,0
107391,-32.258064516129,4,2,1,50,0,0
107408,-333.333333333333,4,2,1,50,0,0
107459,-35.7142857142857,4,2,1,50,0,0
107476,-250,4,2,1,50,0,0
107527,-100,4,2,1,50,0,0
111617,-27.027027027027,4,2,1,50,0,0
111634,-1000,4,2,1,50,0,0
111685,-29.4117647058824,4,2,1,50,0,0
111702,-500,4,2,1,50,0,0
111754,-32.258064516129,4,2,1,50,0,0
111771,-333.333333333333,4,2,1,50,0,0
111822,-35.7142857142857,4,2,1,50,0,0
111839,-250,4,2,1,50,0,0
111890,-100,4,2,1,50,0,0
115027,-83.3333333333333,4,2,1,50,0,0
115095,-125,4,2,1,50,0,0
115163,-66.6666666666667,4,2,1,50,0,0
115231,-200,4,2,1,50,0,0
115299,-66.6666666666667,4,2,1,50,0,0
115333,-200,4,2,1,50,0,0
115367,-66.6666666666667,4,2,1,50,0,0
115402,-200,4,2,1,50,0,0
115436,-100,4,2,1,50,0,0
115981,-27.027027027027,4,2,1,50,0,0
115998,-1000,4,2,1,50,0,0
116049,-29.4117647058824,4,2,1,50,0,0
116066,-500,4,2,1,50,0,0
116118,-32.258064516129,4,2,1,50,0,0
116135,-333.333333333333,4,2,1,50,0,0
116186,-35.7142857142857,4,2,1,50,0,0
116203,-250,4,2,1,50,0,0
116254,-100,4,2,1,50,0,0
119254,-52.6315789473684,4,2,1,50,0,0
119277,-1000,4,2,1,50,0,0
119299,-52.6315789473684,4,2,1,50,0,0
119322,-1000,4,2,1,50,0,0
119345,-52.6315789473684,4,2,1,50,0,0
119368,-1000,4,2,1,50,0,0
119390,-52.6315789473684,4,2,1,50,0,0
119413,-1000,4,2,1,50,0,0
119436,-52.6315789473684,4,2,1,50,0,0
119459,-1000,4,2,1,50,0,0
119481,-52.6315789473684,4,2,1,50,0,0
119504,-1000,4,2,1,50,0,0
119527,-100,4,2,1,50,0,0
121981,-98.0392156862745,4,2,1,50,0,0
122254,-96.1538461538461,4,2,1,50,0,0
122527,-94.3396226415094,4,2,1,50,0,0
122799,-92.5925925925926,4,2,1,50,0,0
123072,-90.9090909090909,4,2,1,50,0,0
123345,-89.2857142857143,4,2,1,50,0,0
123617,-58.8235294117647,4,2,1,50,0,0
123652,-125,4,2,1,50,0,0
123686,-250.000000000001,4,2,1,50,0,0
123754,-58.8235294117647,4,2,1,50,0,0
123789,-125,4,2,1,50,0,0
123823,-250.000000000001,4,2,1,50,0,0
123890,-58.8235294117647,4,2,1,50,0,0
123925,-125,4,2,1,50,0,0
123959,-250.000000000001,4,2,1,50,0,0
124027,-100,4,2,1,50,0,0
124095,-45.4545454545455,4,2,1,50,0,0
124163,-166.666666666667,4,2,1,50,0,0
141617,-125,4,2,1,50,0,0
157981,-400,4,2,1,50,0,0
158527,-250,4,2,1,50,0,0
158663,-153.846153846154,4,2,1,50,0,0
158799,-95.2380952380952,4,2,1,50,0,0
158936,-62.5,4,2,1,50,0,0
159072,-117.647058823529,4,2,1,50,0,0
171617,-116.279069767442,4,2,1,50,0,0
171890,-114.942528735632,4,2,1,50,0,0
172163,-113.636363636364,4,2,1,50,0,0
172436,-112.359550561798,4,2,1,50,0,0
172708,-111.111111111111,4,2,1,50,0,0
172981,-109.89010989011,4,2,1,50,0,0
173254,-108.695652173913,4,2,1,50,0,0
173527,-107.52688172043,4,2,1,50,0,0
173799,-106.382978723404,4,2,1,50,0,0
174072,-105.263157894737,4,2,1,50,0,0
174345,-58.4795321637427,4,2,1,50,0,0
174362,-140.845070422535,4,2,1,50,0,0
174413,-58.4795321637427,4,2,1,50,0,0
174430,-140.845070422535,4,2,1,50,0,0
174481,-58.4795321637427,4,2,1,50,0,0
174498,-140.845070422535,4,2,1,50,0,0
174550,-58.4795321637427,4,2,1,50,0,0
174567,-140.845070422535,4,2,1,50,0,0
174618,-58.1395348837209,4,2,1,50,0,0
174635,-138.888888888889,4,2,1,50,0,0
174686,-58.1395348837209,4,2,1,50,0,0
174703,-138.888888888889,4,2,1,50,0,0
174754,-58.1395348837209,4,2,1,50,0,0
174771,-138.888888888889,4,2,1,50,0,0
174822,-58.1395348837209,4,2,1,50,0,0
174839,-138.888888888889,4,2,1,50,0,0
174891,-57.8034682080925,4,2,1,50,0,0
174908,-136.986301369863,4,2,1,50,0,0
174959,-57.8034682080925,4,2,1,50,0,0
174976,-136.986301369863,4,2,1,50,0,0
175027,-57.8034682080925,4,2,1,50,0,0
175044,-136.986301369863,4,2,1,50,0,0
175095,-57.8034682080925,4,2,1,50,0,0
175112,-136.986301369863,4,2,1,50,0,0
175163,-57.4712643678161,4,2,1,50,0,0
175180,-135.135135135135,4,2,1,50,0,0
175231,-57.4712643678161,4,2,1,50,0,0
175248,-135.135135135135,4,2,1,50,0,0
175300,-57.4712643678161,4,2,1,50,0,0
175317,-135.135135135135,4,2,1,50,0,0
175368,-57.4712643678161,4,2,1,50,0,0
175385,-135.135135135135,4,2,1,50,0,0
175436,-100,4,2,1,50,0,0
176527,-86.9565217391304,4,2,1,50,0,0
176561,-131.578947368421,4,2,2,50,0,0
177072,-129.87012987013,4,2,2,50,0,0
177617,-128.205128205128,4,2,2,50,0,0
178163,-126.582278481013,4,2,2,50,0,0
178708,-125,4,2,2,50,0,0
179254,-123.456790123457,4,2,2,50,0,0
179799,-121.951219512195,4,2,2,50,0,0
180345,-120.481927710843,4,2,2,50,0,0
180890,-119.047619047619,4,2,1,50,0,0
181436,-117.647058823529,4,2,1,50,0,0
181981,-116.279069767442,4,2,1,50,0,0
182527,-114.942528735632,4,2,1,50,0,0
183072,-113.636363636364,4,2,1,50,0,0
183617,-112.359550561798,4,2,1,50,0,0
184163,-111.111111111111,4,2,1,50,0,0
184708,-109.89010989011,4,2,1,50,0,0
185254,-86.9565217391304,4,2,1,50,0,0
185322,-108.695652173913,4,2,1,50,0,0
185799,-107.52688172043,4,2,1,50,0,0
186345,-106.382978723404,4,2,1,50,0,0
186890,-105.263157894737,4,2,1,50,0,0
187436,-104.166666666667,4,2,1,50,0,0
187981,-103.092783505155,4,2,1,50,0,0
188527,-102.040816326531,4,2,1,50,0,0
189072,-101.010101010101,4,2,1,50,0,0
189617,-100,4,2,1,50,0,0
189754,-99.009900990099,4,2,1,50,0,0
189890,-98.0392156862745,4,2,1,50,0,0
190027,-97.0873786407767,4,2,1,50,0,0
190163,-96.1538461538461,4,2,1,50,0,0
190299,-95.2380952380952,4,2,1,50,0,0
190436,-94.3396226415094,4,2,1,50,0,0
190572,-93.4579439252336,4,2,1,50,0,0
190708,-92.5925925925926,4,2,1,50,0,0
190845,-91.743119266055,4,2,1,50,0,0
190981,-90.9090909090909,4,2,1,50,0,0
191117,-90.0900900900901,4,2,1,50,0,0
191254,-89.2857142857143,4,2,1,50,0,0
191390,-88.4955752212389,4,2,1,50,0,0
191527,-87.719298245614,4,2,1,50,0,0
191663,-86.9565217391304,4,2,1,50,0,0
191799,-86.2068965517241,4,2,1,50,0,0
191936,-85.4700854700855,4,2,1,50,0,0
192072,-84.7457627118644,4,2,1,50,0,0
192208,-84.0336134453781,4,2,1,50,0,0
192345,-83.3333333333333,4,2,1,50,0,0
193436,-50,4,2,1,50,0,0
193470,-100,4,2,1,50,0,0
193504,-200,4,2,1,50,0,0
193572,-50,4,2,1,50,0,0
193606,-100,4,2,1,50,0,0
193640,-200,4,2,1,50,0,0
193708,-50,4,2,1,50,0,0
193742,-100,4,2,1,50,0,0
193777,-200,4,2,1,50,0,0
193845,-133.333333333333,4,2,1,50,0,0
193913,-100,4,2,1,50,0,0
193981,-66.6666666666667,4,2,1,50,0,0
194049,-200,4,2,1,50,0,0
194117,-66.6666666666667,4,2,1,50,0,0
194186,-200,4,2,1,50,0,0
194254,-100,4,2,1,50,0,1
198345,-66.6666666666667,4,2,1,50,0,1
198379,-200,4,2,1,50,0,1
198413,-66.6666666666667,4,2,1,50,0,1
198481,-200,4,2,1,50,0,1
198549,-66.6666666666667,4,2,1,50,0,1
198583,-200,4,2,1,50,0,1
198617,-100,4,2,1,50,0,1
211436,-80,4,2,1,50,0,0
211470,-100,4,2,1,50,0,0
211845,-57.1428571428571,4,2,1,50,0,0
211879,-400,4,2,1,50,0,0
211913,-57.1428571428571,4,2,1,50,0,0
211947,-400,4,2,1,50,0,0
211981,-100,4,2,1,50,0,0
212117,-250,4,2,1,50,0,0
212152,-125,4,2,1,50,0,0
212186,-83.3333333333333,4,2,1,50,0,0
212220,-62.5,4,2,1,50,0,0
212254,-100,4,2,1,50,0,0
212390,-66.6666666666667,4,2,1,50,0,0
212413,-100,4,2,1,50,0,0
212436,-200,4,2,1,50,0,0
212458,-100,4,2,1,50,0,0
212663,-55.5555555555556,4,2,1,50,0,0
212697,-500,4,2,1,50,0,0
212731,-100,4,2,1,50,0,0
212936,-57.1428571428571,4,2,1,50,0,0
212970,-400,4,2,1,50,0,0
213004,-57.1428571428571,4,2,1,50,0,0
213038,-400,4,2,1,50,0,0
213072,-100,4,2,1,50,0,0
213208,-250,4,2,1,50,0,0
213243,-125,4,2,1,50,0,0
213277,-83.3333333333333,4,2,1,50,0,0
213311,-62.5,4,2,1,50,0,0
213345,-100,4,2,1,50,0,0
213481,-55.5555555555556,4,2,1,50,0,0
213515,-500,4,2,1,50,0,0
213549,-55.5555555555556,4,2,1,50,0,0
213583,-500,4,2,1,50,0,0
213617,-100,4,2,1,50,0,0
213754,-55.5555555555556,4,2,1,50,0,0
213788,-500,4,2,1,50,0,0
213822,-100,4,2,1,50,0,0
214027,-57.1428571428571,4,2,1,50,0,0
214061,-400,4,2,1,50,0,0
214095,-57.1428571428571,4,2,1,50,0,0
214129,-400,4,2,1,50,0,0
214163,-100,4,2,1,50,0,0
214299,-250,4,2,1,50,0,0
214334,-125,4,2,1,50,0,0
214368,-83.3333333333333,4,2,1,50,0,0
214402,-62.5,4,2,1,50,0,0
214436,-100,4,2,1,50,0,0
214572,-66.6666666666667,4,2,1,50,0,0
214595,-100,4,2,1,50,0,0
214618,-200,4,2,1,50,0,0
214640,-100,4,2,1,50,0,0
214845,-55.5555555555556,4,2,1,50,0,0
214879,-500,4,2,1,50,0,0
214913,-100,4,2,1,50,0,0
215118,-57.1428571428571,4,2,1,50,0,0
215152,-400,4,2,1,50,0,0
215186,-57.1428571428571,4,2,1,50,0,0
215220,-400,4,2,1,50,0,0
215254,-100,4,2,1,50,0,0
220572,-57.1428571428571,4,2,1,50,0,0
220606,-400,4,2,1,50,0,0
220640,-57.1428571428571,4,2,1,50,0,0
220674,-400,4,2,1,50,0,0
220708,-100,4,2,1,50,0,0
220844,-250,4,2,1,50,0,0
220879,-125,4,2,1,50,0,0
220913,-83.3333333333333,4,2,1,50,0,0
220947,-62.5,4,2,1,50,0,0
220981,-100,4,2,1,50,0,0
221117,-66.6666666666667,4,2,1,50,0,0
221140,-100,4,2,1,50,0,0
221163,-200,4,2,1,50,0,0
221185,-100,4,2,1,50,0,0
221390,-55.5555555555556,4,2,1,50,0,0
221424,-500,4,2,1,50,0,0
221458,-100,4,2,1,50,0,0
221663,-57.1428571428571,4,2,1,50,0,0
221697,-400,4,2,1,50,0,0
221731,-57.1428571428571,4,2,1,50,0,0
221765,-400,4,2,1,50,0,0
221799,-100,4,2,1,50,0,0
221935,-250,4,2,1,50,0,0
221970,-125,4,2,1,50,0,0
222004,-83.3333333333333,4,2,1,50,0,0
222038,-62.5,4,2,1,50,0,0
222072,-100,4,2,1,50,0,0
222208,-55.5555555555556,4,2,1,50,0,0
222242,-500,4,2,1,50,0,0
222276,-55.5555555555556,4,2,1,50,0,0
222310,-500,4,2,1,50,0,0
222344,-100,4,2,1,50,0,0
222481,-55.5555555555556,4,2,1,50,0,0
222515,-500,4,2,1,50,0,0
222549,-100,4,2,1,50,0,0
222754,-57.1428571428571,4,2,1,50,0,0
222788,-400,4,2,1,50,0,0
222822,-57.1428571428571,4,2,1,50,0,0
222856,-400,4,2,1,50,0,0
222890,-100,4,2,1,50,0,0
223026,-250,4,2,1,50,0,0
223061,-125,4,2,1,50,0,0
223095,-83.3333333333333,4,2,1,50,0,0
223129,-62.5,4,2,1,50,0,0
223163,-100,4,2,1,50,0,0
223299,-66.6666666666667,4,2,1,50,0,0
223322,-100,4,2,1,50,0,0
223345,-200,4,2,1,50,0,0
223367,-100,4,2,1,50,0,0
223572,-55.5555555555556,4,2,1,50,0,0
223606,-500,4,2,1,50,0,0
223640,-100,4,2,1,50,0,0
223845,-57.1428571428571,4,2,1,50,0,0
223879,-400,4,2,1,50,0,0
223913,-57.1428571428571,4,2,1,50,0,0
223947,-400,4,2,1,50,0,0
223981,-100,4,2,1,50,0,0
224117,-66.6666666666667,4,2,1,50,0,0
224152,-200,4,2,1,50,0,0
224186,-57.1428571428571,4,2,1,50,0,0
224220,-400,4,2,1,50,0,0
224254,-100,4,2,1,50,0,0
224390,-66.6666666666667,4,2,1,50,0,0
224424,-100,4,2,1,50,0,0
224458,-200,4,2,1,50,0,0
224492,-100,4,2,1,50,0,0
226708,-125,4,2,1,50,0,0
227799,-100,4,2,1,50,0,0
228890,-142.857142857143,4,2,1,50,0,0
229095,-52.6315789473684,4,2,1,50,0,0
229163,-100,4,2,1,50,0,0
229299,-142.857142857143,4,2,1,50,0,0
229504,-52.6315789473684,4,2,1,50,0,0
229572,-100,4,2,1,50,0,0
229708,-142.857142857143,4,2,1,50,0,0
229913,-52.6315789473684,4,2,1,50,0,0
229981,-100,4,2,1,50,0,0
230117,-142.857142857143,4,2,1,50,0,0
230322,-52.6315789473684,4,2,1,50,0,0
230390,-100,4,2,1,50,0,0
230527,-142.857142857143,4,2,1,50,0,0
230663,-62.5,4,2,1,50,0,0
230731,-100,4,2,1,50,0,0
230799,-142.857142857143,4,2,1,50,0,0
230936,-62.5,4,2,1,50,0,0
231004,-100,4,2,1,50,0,0
231072,-142.857142857143,4,2,1,50,0,0
231277,-52.6315789473684,4,2,1,50,0,0
231345,-100,4,2,1,50,0,0
231481,-142.857142857143,4,2,1,50,0,0
231686,-52.6315789473684,4,2,1,50,0,0
231754,-100,4,2,1,50,0,0
231890,-142.857142857143,4,2,1,50,0,0
232095,-52.6315789473684,4,2,1,50,0,0
232163,-100,4,2,1,50,0,0
232299,-142.857142857143,4,2,1,50,0,0
232504,-52.6315789473684,4,2,1,50,0,0
232572,-100,4,2,1,50,0,0
233254,-142.857142857143,4,2,1,50,0,0
233458,-52.6315789473684,4,2,1,50,0,0
233527,-100,4,2,1,50,0,0
233663,-142.857142857143,4,2,1,50,0,0
233867,-52.6315789473684,4,2,1,50,0,0
233936,-100,4,2,1,50,0,0
234072,-142.857142857143,4,2,1,50,0,0
234277,-52.6315789473684,4,2,1,50,0,0
234345,-100,4,2,1,50,0,0
234481,-142.857142857143,4,2,1,50,0,0
234686,-52.6315789473684,4,2,1,50,0,0
234754,-100,4,2,1,50,0,0
234890,-142.857142857143,4,2,1,50,0,0
235027,-62.5,4,2,1,50,0,0
235095,-100,4,2,1,50,0,0
235163,-142.857142857143,4,2,1,50,0,0
235299,-62.5,4,2,1,50,0,0
235367,-100,4,2,1,50,0,0
235436,-142.857142857143,4,2,1,50,0,0
235640,-52.6315789473684,4,2,1,50,0,0
235708,-100,4,2,1,50,0,0
235845,-142.857142857143,4,2,1,50,0,0
236049,-52.6315789473684,4,2,1,50,0,0
236117,-100,4,2,1,50,0,0
236254,-142.857142857143,4,2,1,50,0,0
236458,-52.6315789473684,4,2,1,50,0,0
236527,-100,4,2,1,50,0,0
236663,-142.857142857143,4,2,1,50,0,0
236867,-52.6315789473684,4,2,1,50,0,0
236936,-100,4,2,1,50,0,0
244163,-125,4,2,1,50,0,0
245254,-111.111111111111,4,2,1,50,0,0
245799,-105.263157894737,4,2,1,50,0,0
246345,-66.6666666666667,4,2,1,50,0,0
246379,-200,4,2,1,50,0,0
246413,-66.6666666666667,4,2,1,50,0,0
246447,-200,4,2,1,50,0,0
246481,-66.6666666666667,4,2,1,50,0,0
246515,-200,4,2,1,50,0,0
246549,-100,4,2,1,50,0,0
246617,-66.6666666666667,4,2,1,50,0,0
246652,-200,4,2,1,50,0,0
246686,-66.6666666666667,4,2,1,50,0,0
246720,-200,4,2,1,50,0,0
246754,-66.6666666666667,4,2,1,50,0,0
246788,-200,4,2,1,50,0,0
246822,-100,4,2,1,50,0,0
246890,-66.6666666666667,4,2,1,50,0,0
246924,-200,4,2,1,50,0,0
246958,-66.6666666666667,4,2,1,50,0,0
246992,-200,4,2,1,50,0,0
247027,-66.6666666666667,4,2,1,50,0,0
247061,-200,4,2,1,50,0,0
247095,-100,4,2,1,50,0,0
247163,-100,4,2,1,50,0,1
252208,-33.3333333333333,4,2,1,50,0,1
252242,-333.333333333333,4,2,1,50,0,1
252344,-100,4,2,1,50,0,1
252754,-33.3333333333333,4,2,1,50,0,1
252788,-333.333333333333,4,2,1,50,0,1
252890,-100,4,2,1,50,0,1
253299,-33.3333333333333,4,2,1,50,0,1
253333,-333.333333333333,4,2,1,50,0,1
253435,-100,4,2,1,50,0,1
253845,-33.3333333333333,4,2,1,50,0,1
253879,-333.333333333333,4,2,1,50,0,1
253981,-100,4,2,1,50,0,1
254390,-33.3333333333333,4,2,1,50,0,1
254424,-333.333333333333,4,2,1,50,0,1
254526,-100,4,2,1,50,0,1
255072,-400,4,2,1,50,0,1
255208,-40,4,2,1,50,0,1
255277,-100,4,2,1,50,0,1
259436,-66.6666666666667,4,2,1,50,0,0
259470,-200,4,2,1,50,0,0
259504,-66.6666666666667,4,2,1,50,0,0
259538,-200,4,2,1,50,0,0
259572,-66.6666666666667,4,2,1,50,0,0
259606,-200,4,2,1,50,0,0
259640,-100,4,2,1,50,0,0
259708,-66.6666666666667,4,2,1,50,0,0
259742,-200,4,2,1,50,0,0
259777,-66.6666666666667,4,2,1,50,0,0
259811,-200,4,2,1,50,0,0
259845,-66.6666666666667,4,2,1,50,0,0
259879,-200,4,2,1,50,0,0
259913,-100,4,2,1,50,0,0
261617,-66.6666666666667,4,2,1,50,0,0
261652,-200,4,2,1,50,0,0
261686,-66.6666666666667,4,2,1,50,0,0
261720,-200,4,2,1,50,0,0
261754,-66.6666666666667,4,2,1,50,0,0
261788,-200,4,2,1,50,0,0
261822,-100,4,2,1,50,0,0
261890,-66.6666666666667,4,2,1,50,0,0
261924,-200,4,2,1,50,0,0
261958,-66.6666666666667,4,2,1,50,0,0
261992,-200,4,2,1,50,0,0
262027,-66.6666666666667,4,2,1,50,0,0
262061,-200,4,2,1,50,0,0
262095,-100,4,2,1,50,0,0
263799,-66.6666666666667,4,2,1,50,0,1
263867,-200,4,2,1,50,0,1
263935,-66.6666666666667,4,2,1,50,0,1
264004,-200,4,2,1,50,0,1
264072,-100,4,2,1,50,0,1
264345,-27.027027027027,4,2,1,50,0,1
264362,-1000,4,2,1,50,0,1
264413,-29.4117647058824,4,2,1,50,0,1
264430,-500,4,2,1,50,0,1
264482,-32.258064516129,4,2,1,50,0,1
264499,-333.333333333333,4,2,1,50,0,1
264550,-35.7142857142857,4,2,1,50,0,1
264567,-250,4,2,1,50,0,1
264618,-100,4,2,1,50,0,1
268708,-27.027027027027,4,2,1,50,0,1
268725,-1000,4,2,1,50,0,1
268776,-29.4117647058824,4,2,1,50,0,1
268793,-500,4,2,1,50,0,1
268845,-32.258064516129,4,2,1,50,0,1
268862,-333.333333333333,4,2,1,50,0,1
268913,-35.7142857142857,4,2,1,50,0,1
268930,-250,4,2,1,50,0,1
268981,-100,4,2,1,50,0,1
269663,-33.3333333333333,4,2,1,50,0,1
269697,-333.333333333333,4,2,1,50,0,1
269799,-100,4,2,1,50,0,1
270208,-33.3333333333333,4,2,1,50,0,1
270242,-333.333333333333,4,2,1,50,0,1
270345,-100,4,2,1,50,0,1
270754,-33.3333333333333,4,2,1,50,0,1
270788,-333.333333333333,4,2,1,50,0,1
270890,-100,4,2,1,50,0,1
271163,-200,4,2,1,50,0,1
271265,-40,4,2,1,50,0,1
271299,-66.6666666666667,4,2,1,50,0,1
271333,-200,4,2,1,50,0,1
271367,-66.6666666666667,4,2,1,50,0,1
271402,-200,4,2,1,50,0,1
271436,-100,4,2,1,50,0,1
271845,-33.3333333333333,4,2,1,50,0,1
271879,-333.333333333333,4,2,1,50,0,1
271981,-100,4,2,1,50,0,1
272527,-125,4,2,1,50,0,0
276890,-62.5,4,2,1,50,0,0
276924,-200,4,2,1,50,0,0
276958,-66.6666666666667,4,2,1,50,0,0
276992,-200,4,2,1,50,0,0
277027,-66.6666666666667,4,2,1,50,0,0
277061,-200,4,2,1,50,0,0
277095,-66.6666666666667,4,2,1,50,0,0
277129,-200,4,2,1,50,0,0
277163,-66.6666666666667,4,2,1,50,0,0
277197,-200,4,2,1,50,0,0
277231,-66.6666666666667,4,2,1,50,0,0
277265,-200,4,2,1,50,0,0
277299,-66.6666666666667,4,2,1,50,0,0
277333,-200,4,2,1,50,0,0
277367,-66.6666666666667,4,2,1,50,0,0
277401,-200,4,2,1,50,0,0
277436,-66.6666666666667,4,2,1,50,0,0
277470,-200,4,2,1,50,0,0
277504,-66.6666666666667,4,2,1,50,0,0
277538,-200,4,2,1,50,0,0
277572,-66.6666666666667,4,2,1,50,0,0
277606,-200,4,2,1,50,0,0
277640,-66.6666666666667,4,2,1,50,0,0
277674,-200,4,2,1,50,0,0
277708,-66.6666666666667,4,2,1,50,0,0
277742,-200,4,2,1,50,0,0
277776,-66.6666666666667,4,2,1,50,0,0
277810,-200,4,2,1,50,0,0
277845,-66.6666666666667,4,2,1,50,0,0
277879,-200,4,2,1,50,0,0
277913,-66.6666666666667,4,2,1,50,0,0
277947,-200,4,2,1,50,0,0
277981,-66.6666666666667,4,2,1,50,0,0
278015,-200,4,2,1,50,0,0
278049,-66.2251655629139,4,2,1,50,0,0
278084,-196.078431372549,4,2,1,50,0,0
278118,-65.7894736842105,4,2,1,50,0,0
278152,-192.307692307692,4,2,1,50,0,0
278186,-65.359477124183,4,2,1,50,0,0
278220,-188.679245283019,4,2,1,50,0,0
278254,-64.9350649350649,4,2,1,50,0,0
278288,-185.185185185185,4,2,1,50,0,0
278322,-64.5161290322581,4,2,1,50,0,0
278356,-181.818181818182,4,2,1,50,0,0
278390,-64.1025641025641,4,2,1,50,0,0
278424,-178.571428571429,4,2,1,50,0,0
278459,-63.6942675159236,4,2,1,50,0,0
278493,-175.438596491228,4,2,1,50,0,0
278527,-63.2911392405063,4,2,1,50,0,0
278561,-172.413793103448,4,2,1,50,0,0
278595,-62.8930817610063,4,2,1,50,0,0
278629,-169.491525423729,4,2,1,50,0,0
278663,-62.5,4,2,1,50,0,0
278697,-166.666666666667,4,2,1,50,0,0
278731,-62.111801242236,4,2,1,50,0,0
278765,-163.934426229508,4,2,1,50,0,0
278799,-61.7283950617284,4,2,1,50,0,0
278834,-161.290322580645,4,2,1,50,0,0
278868,-61.3496932515337,4,2,1,50,0,0
278902,-158.730158730159,4,2,1,50,0,0
278936,-60.9756097560976,4,2,1,50,0,0
278970,-156.25,4,2,1,50,0,0
279004,-60.6060606060606,4,2,1,50,0,0
279038,-153.846153846154,4,2,1,50,0,0
279072,-86.9565217391304,4,2,1,50,0,0
280163,-111.111111111111,4,2,1,50,0,0
281254,-66.6666666666667,4,2,1,50,0,0
281322,-200,4,2,1,50,0,0
281390,-66.6666666666667,4,2,1,50,0,0
281458,-200,4,2,1,50,0,0
281527,-100,4,2,1,50,0,1
285617,-66.6666666666667,4,2,1,50,0,1
285652,-200,4,2,1,50,0,1
285686,-66.6666666666667,4,2,1,50,0,1
285754,-200,4,2,1,50,0,1
285822,-66.6666666666667,4,2,1,50,0,1
285856,-200,4,2,1,50,0,1
285890,-100,4,2,1,50,0,1
289981,-200,4,2,1,50,0,0
290117,-50,4,2,1,50,0,0
290152,-100,4,2,1,50,0,0
290220,-50,4,2,1,50,0,0
290254,-100,4,2,1,50,0,1
292163,-200,4,2,1,50,0,0
292265,-40,4,2,1,50,0,0
292299,-66.6666666666667,4,2,1,50,0,0
292333,-200,4,2,1,50,0,0
292367,-66.6666666666667,4,2,1,50,0,0
292402,-200,4,2,1,50,0,0
292436,-100,4,2,1,50,0,1
293254,-200,4,2,1,50,0,1
293390,-40,4,2,1,50,0,1
293436,-200,4,2,1,50,0,1
293572,-40,4,2,1,50,0,1
293617,-200,4,2,1,50,0,1
293754,-40,4,2,1,50,0,1
293799,-100,4,2,1,50,0,1
298708,-142.857142857143,4,2,1,50,0,0
298913,-52.6315789473684,4,2,1,50,0,0
298981,-100,4,2,1,50,0,0
299117,-142.857142857143,4,2,1,50,0,0
299322,-52.6315789473684,4,2,1,50,0,0
299390,-100,4,2,1,50,0,0
299527,-142.857142857143,4,2,1,50,0,0
299731,-52.6315789473684,4,2,1,50,0,0
299799,-100,4,2,1,50,0,0
299936,-142.857142857143,4,2,1,50,0,0
300140,-52.6315789473684,4,2,1,50,0,0
300208,-100,4,2,1,50,0,0
300345,-142.857142857143,4,2,1,50,0,0
300481,-62.5,4,2,1,50,0,0
300549,-100,4,2,1,50,0,0
300617,-142.857142857143,4,2,1,50,0,0
300754,-62.5,4,2,1,50,0,0
300822,-100,4,2,1,50,0,0
300890,-142.857142857143,4,2,1,50,0,0
301095,-52.6315789473684,4,2,1,50,0,0
301163,-100,4,2,1,50,0,0
301299,-142.857142857143,4,2,1,50,0,0
301504,-52.6315789473684,4,2,1,50,0,0
301572,-100,4,2,1,50,0,0
301708,-142.857142857143,4,2,1,50,0,0
301913,-52.6315789473684,4,2,1,50,0,0
301981,-100,4,2,1,50,0,0
302117,-142.857142857143,4,2,1,50,0,0
302322,-52.6315789473684,4,2,1,50,0,0
302390,-100,4,2,1,50,0,0
303072,-142.857142857143,4,2,1,50,0,0
303277,-52.6315789473684,4,2,1,50,0,0
303345,-100,4,2,1,50,0,0
303481,-142.857142857143,4,2,1,50,0,0
303686,-52.6315789473684,4,2,1,50,0,0
303754,-100,4,2,1,50,0,0
303890,-142.857142857143,4,2,1,50,0,0
304095,-52.6315789473684,4,2,1,50,0,0
304163,-100,4,2,1,50,0,0
304299,-142.857142857143,4,2,1,50,0,0
304504,-52.6315789473684,4,2,1,50,0,0
304572,-100,4,2,1,50,0,0
304708,-142.857142857143,4,2,1,50,0,0
304845,-62.5,4,2,1,50,0,0
304913,-100,4,2,1,50,0,0
304981,-142.857142857143,4,2,1,50,0,0
305117,-62.5,4,2,1,50,0,0
305186,-100,4,2,1,50,0,0
305254,-142.857142857143,4,2,1,50,0,0
305458,-52.6315789473684,4,2,1,50,0,0
305527,-100,4,2,1,50,0,0
305663,-142.857142857143,4,2,1,50,0,0
305867,-52.6315789473684,4,2,1,50,0,0
305936,-100,4,2,1,50,0,0
306072,-142.857142857143,4,2,1,50,0,0
306277,-52.6315789473684,4,2,1,50,0,0
306345,-100,4,2,1,50,0,0
306481,-142.857142857143,4,2,1,50,0,0
306686,-52.6315789473684,4,2,1,50,0,0
306754,-100,4,2,1,50,0,0
313981,-125,4,2,1,50,0,0
315072,-111.111111111111,4,2,1,50,0,0
315617,-105.263157894737,4,2,1,50,0,0
316163,-125,4,2,1,50,0,0
324890,-133.333333333333,4,2,1,50,0,0
325981,-142.857142857143,4,2,1,50,0,0
327072,-153.846153846154,4,2,1,50,0,0
328231,-166.666666666667,4,2,1,50,0,0
331708,-250,4,2,1,50,0,0

[HitObjects]
192,192,8527,128,0,10708:0:0:0:0:
64,192,10708,1,2,0:0:0:0:
320,192,10708,1,0,0:0:0:0:
448,192,11254,1,8,0:0:0:0:
320,192,11527,1,0,0:0:0:0:
64,192,11527,1,2,0:0:0:0:
448,192,12345,1,8,0:0:0:0:
192,192,12890,1,0,0:0:0:0:
64,192,12890,1,2,0:0:0:0:
320,192,13436,1,8,0:0:0:0:
192,192,13708,1,0,0:0:0:0:
64,192,13708,1,2,0:0:0:0:
320,192,14527,1,8,0:0:0:0:
64,192,15072,1,2,0:0:0:0:
448,192,15072,1,0,0:0:0:0:
192,192,15617,1,8,0:0:0:0:
64,192,15890,1,2,0:0:0:0:
448,192,15890,1,0,0:0:0:0:
192,192,16708,1,8,0:0:0:0:
320,192,17254,1,2,0:0:0:0:
448,192,17254,1,0,0:0:0:0:
64,192,17390,1,0,0:0:0:0:
192,192,17527,1,0,0:0:0:0:
320,192,17663,1,0,0:0:0:0:
448,192,17799,1,8,0:0:0:0:
64,192,17799,1,0,0:0:0:0:
320,192,17936,1,0,0:0:0:0:
64,192,18072,1,2,0:0:0:0:
192,192,18072,1,0,0:0:0:0:
448,192,18208,1,0,0:0:0:0:
64,192,18345,1,0,0:0:0:0:
320,192,18481,1,0,0:0:0:0:
192,192,18617,1,0,0:0:0:0:
448,192,18754,1,0,0:0:0:0:
320,192,18890,1,8,0:0:0:0:
64,192,18890,1,0,0:0:0:0:
192,192,19027,1,0,0:0:0:0:
448,192,19163,1,0,0:0:0:0:
64,192,19436,1,2,0:0:0:0:
192,192,19436,1,0,0:0:0:0:
320,192,19572,1,0,0:0:0:0:
192,192,19708,1,0,0:0:0:0:
448,192,19845,1,0,0:0:0:0:
320,192,19981,1,8,0:0:0:0:
64,192,19981,1,0,0:0:0:0:
448,192,20117,1,0,0:0:0:0:
64,192,20254,1,2,0:0:0:0:
192,192,20254,1,0,0:0:0:0:
320,192,20390,1,0,0:0:0:0:
64,192,20527,1,0,0:0:0:0:
192,192,20663,1,0,0:0:0:0:
320,192,20799,1,0,0:0:0:0:
448,192,20936,1,0,0:0:0:0:
192,192,21072,1,8,0:0:0:0:
64,192,21072,1,0,0:0:0:0:
320,192,21208,1,0,0:0:0:0:
192,192,21345,1,0,0:0:0:0:
448,192,21481,1,0,0:0:0:0:
320,192,21617,1,0,0:0:0:0:
64,192,21617,1,2,0:0:0:0:
192,192,21754,1,0,0:0:0:0:
448,192,21890,1,0,0:0:0:0:
64,192,22027,1,0,0:0:0:0:
320,192,22163,1,0,0:0:0:0:
448,192,22163,1,8,0:0:0:0:
192,192,22299,1,0,0:0:0:0:
64,192,22436,1,2,0:0:0:0:
320,192,22436,1,0,0:0:0:0:
448,192,22572,1,0,0:0:0:0:
192,192,22708,1,0,0:0:0:0:
320,192,22845,1,0,0:0:0:0:
64,192,22981,1,0,0:0:0:0:
448,192,23117,1,0,0:0:0:0:
192,192,23254,1,0,0:0:0:0:
320,192,23254,1,8,0:0:0:0:
64,192,23390,1,0,0:0:0:0:
320,192,23527,1,0,0:0:0:0:
448,192,23663,1,0,0:0:0:0:
192,192,23799,1,0,0:0:0:0:
64,192,23799,1,2,0:0:0:0:
320,192,23936,1,0,0:0:0:0:
192,192,24072,1,0,0:0:0:0:
448,192,24208,1,0,0:0:0:0:
64,192,24345,1,0,0:0:0:0:
320,192,24345,1,8,0:0:0:0:
192,192,24481,1,0,0:0:0:0:
64,192,24617,1,2,0:0:0:0:
448,192,24617,1,0,0:0:0:0:
320,192,24754,1,0,0:0:0:0:
192,192,24890,1,0,0:0:0:0:
320,192,25027,1,0,0:0:0:0:
64,192,25163,1,0,0:0:0:0:
448,192,25299,1,0,0:0:0:0:
192,192,25436,1,8,0:0:0:0:
64,192,25436,128,0,25708:0:0:0:0:
320,192,25572,128,0,25708:0:0:0:0:
192,192,25708,128,0,25981:0:0:0:0:
448,192,25845,128,0,25981:0:0:0:0:
320,192,25981,1,0,0:0:0:0:
64,192,25981,128,2,26254:0:0:0:0:
192,192,26117,128,0,26390:0:0:0:0:
320,192,26254,128,0,26527:0:0:0:0:
64,192,26390,128,0,26663:0:0:0:0:
192,192,26527,128,0,26663:0:0:0:0:
448,192,26527,128,8,26799:0:0:0:0:
320,192,26663,128,0,26936:0:0:0:0:
192,192,26799,128,0,26936:0:0:0:0:
64,192,26799,128,2,26936:0:0:0:0:
448,192,26936,1,0,0:0:0:0:
192,192,27072,1,0,0:0:0:0:
64,192,27072,1,2,0:0:0:0:
448,192,27140,1,2,0:0:0:0:
64,192,27208,1,0,0:0:0:0:
320,192,27208,1,0,0:0:0:0:
192,192,27208,1,2,1:0:0:0:
448,192,27345,1,8,0:0:0:0:
320,192,27345,1,0,0:0:0:0:
64,192,27345,1,0,0:0:0:0:
192,192,27481,1,2,0:0:0:0:
448,192,27481,1,0,0:0:0:0:
320,192,27549,1,2,0:0:0:0:
64,192,27617,1,0,0:0:0:0:
448,192,27617,1,8,0:0:0:0:
192,192,27617,1,0,0:0:0:0:
64,192,27754,1,2,0:0:0:0:
320,192,27754,1,0,0:0:0:0:
192,192,27822,1,0,0:0:0:0:
64,192,27890,1,0,0:0:0:0:
320,192,27890,1,2,1:0:0:0:
448,192,27890,1,0,0:0:0:0:
192,192,28027,1,0,0:0:0:0:
64,192,28027,1,2,0:0:0:0:
320,192,28163,1,4,0:0:0:0:
448,192,28163,1,0,1:0:0:0:
192,192,28163,1,0,0:0:0:0:
64,192,28163,1,2,0:0:0:0:
448,192,28299,1,0,1:0:0:0:
192,192,28436,1,0,0:0:0:0:
448,192,28436,1,0,1:0:0:0:
448,192,28572,1,0,1:0:0:0:
320,192,28708,1,8,0:0:0:0:
192,192,28708,1,0,0:0:0:0:
64,192,28708,1,0,1:0:0:0:
64,192,28845,1,0,1:0:0:0:
64,192,28981,1,0,1:0:0:0:
448,192,28981,1,0,0:0:0:0:
320,192,28981,1,2,0:0:0:0:
64,192,29117,1,0,1:0:0:0:
192,192,29186,1,0,1:0:0:0:
320,192,29254,1,0,1:0:0:0:
448,192,29254,1,0,0:0:0:0:
320,192,29390,1,0,1:0:0:0:
320,192,29527,1,0,1:0:0:0:
192,192,29527,1,0,0:0:0:0:
64,192,29527,1,2,0:0:0:0:
320,192,29663,1,0,1:0:0:0:
192,192,29731,1,0,1:0:0:0:
64,192,29799,1,0,1:0:0:0:
320,192,29799,1,0,0:0:0:0:
448,192,29799,1,8,0:0:0:0:
64,192,29936,1,0,1:0:0:0:
64,192,30072,1,0,1:0:0:0:
192,192,30072,1,0,0:0:0:0:
448,192,30140,1,0,1:0:0:0:
64,192,30208,1,0,1:0:0:0:
320,192,30277,1,0,1:0:0:0:
64,192,30345,1,2,0:0:0:0:
192,192,30345,1,0,0:0:0:0:
448,192,30345,1,0,1:0:0:0:
448,192,30481,1,0,1:0:0:0:
448,192,30617,1,0,1:0:0:0:
192,192,30617,1,0,0:0:0:0:
448,192,30754,1,0,1:0:0:0:
320,192,30890,1,8,0:0:0:0:
192,192,30890,1,0,1:0:0:0:
64,192,30890,1,0,0:0:0:0:
192,192,31027,1,0,1:0:0:0:
192,192,31163,1,0,1:0:0:0:
448,192,31163,1,0,0:0:0:0:
320,192,31163,1,2,0:0:0:0:
192,192,31299,1,0,1:0:0:0:
448,192,31367,1,0,1:0:0:0:
64,192,31436,1,0,0:0:0:0:
320,192,31436,1,0,1:0:0:0:
320,192,31572,1,0,1:0:0:0:
192,192,31708,1,0,0:0:0:0:
64,192,31708,1,2,0:0:0:0:
320,192,31708,1,0,1:0:0:0:
320,192,31845,1,0,1:0:0:0:
192,192,31913,1,0,1:0:0:0:
64,192,31981,1,8,0:0:0:0:
448,192,31981,1,0,1:0:0:0:
320,192,32027,1,0,1:0:0:0:
192,192,32072,1,0,1:0:0:0:
448,192,32117,1,0,1:0:0:0:
320,192,32163,1,0,1:0:0:0:
192,192,32208,1,0,1:0:0:0:
320,192,32254,1,0,0:0:0:0:
448,192,32254,1,0,1:0:0:0:
64,192,32322,1,0,1:0:0:0:
448,192,32390,1,0,1:0:0:0:
192,192,32458,1,0,1:0:0:0:
64,192,32527,1,0,1:0:0:0:
320,192,32527,1,2,0:0:0:0:
448,192,32527,1,0,0:0:0:0:
64,192,32663,1,0,1:0:0:0:
320,192,32799,1,0,0:0:0:0:
64,192,32799,1,0,1:0:0:0:
64,192,32936,1,0,1:0:0:0:
192,192,33072,1,0,0:0:0:0:
320,192,33072,1,0,1:0:0:0:
448,192,33072,1,8,0:0:0:0:
320,192,33208,1,0,1:0:0:0:
320,192,33345,1,0,1:0:0:0:
64,192,33345,1,2,0:0:0:0:
192,192,33345,1,0,0:0:0:0:
320,192,33481,1,0,1:0:0:0:
64,192,33549,1,0,1:0:0:0:
192,192,33617,1,0,1:0:0:0:
448,192,33617,1,0,0:0:0:0:
192,192,33754,1,0,1:0:0:0:
320,192,33890,1,0,0:0:0:0:
192,192,33890,1,0,1:0:0:0:
64,192,33890,1,2,0:0:0:0:
192,192,34027,1,0,1:0:0:0:
320,192,34095,1,0,0:0:0:0:
192,192,34163,1,8,0:0:0:0:
64,192,34163,1,0,0:0:0:0:
448,192,34163,1,0,1:0:0:0:
448,192,34299,1,0,1:0:0:0:
448,192,34436,1,0,1:0:0:0:
320,192,34436,1,0,0:0:0:0:
64,192,34504,1,0,1:0:0:0:
448,192,34572,1,0,1:0:0:0:
192,192,34640,1,0,1:0:0:0:
448,192,34708,1,0,0:0:0:0:
320,192,34708,1,2,0:0:0:0:
64,192,34708,1,0,1:0:0:0:
64,192,34845,1,0,1:0:0:0:
64,192,34981,1,0,1:0:0:0:
320,192,34981,1,0,0:0:0:0:
64,192,35117,1,0,1:0:0:0:
192,192,35254,1,0,0:0:0:0:
320,192,35254,1,0,1:0:0:0:
448,192,35254,1,8,0:0:0:0:
320,192,35390,1,0,1:0:0:0:
64,192,35527,1,2,0:0:0:0:
192,192,35527,1,0,0:0:0:0:
320,192,35527,1,0,1:0:0:0:
320,192,35663,1,0,1:0:0:0:
64,192,35731,1,0,1:0:0:0:
192,192,35799,1,0,1:0:0:0:
448,192,35799,1,0,0:0:0:0:
192,192,35936,1,0,1:0:0:0:
192,192,36072,1,0,1:0:0:0:
320,192,36072,1,2,0:0:0:0:
448,192,36072,1,0,0:0:0:0:
192,192,36208,1,0,1:0:0:0:
64,192,36208,1,0,0:0:0:0:
320,192,36277,1,0,1:0:0:0:
448,192,36345,1,8,0:0:0:0:
64,192,36345,1,0,1:0:0:0:
192,192,36390,1,0,1:0:0:0:
320,192,36436,1,0,1:0:0:0:
64,192,36481,1,0,1:0:0:0:
192,192,36527,1,0,1:0:0:0:
320,192,36572,1,0,1:0:0:0:
192,192,36617,1,0,0:0:0:0:
64,192,36617,1,0,1:0:0:0:
448,192,36686,1,0,1:0:0:0:
64,192,36754,1,0,1:0:0:0:
320,192,36754,1,0,0:0:0:0:
192,192,36822,1,0,1:0:0:0:
64,192,36890,1,2,0:0:0:0:
320,192,36890,1,0,0:0:0:0:
448,192,36890,1,0,1:0:0:0:
448,192,37027,1,0,1:0:0:0:
448,192,37163,1,0,1:0:0:0:
192,192,37163,1,0,0:0:0:0:
448,192,37299,1,0,1:0:0:0:
320,192,37436,1,8,0:0:0:0:
64,192,37436,1,0,0:0:0:0:
192,192,37436,1,0,1:0:0:0:
192,192,37572,1,0,1:0:0:0:
320,192,37708,1,2,0:0:0:0:
448,192,37708,1,0,0:0:0:0:
192,192,37708,1,0,1:0:0:0:
192,192,37845,1,0,1:0:0:0:
448,192,37913,1,0,1:0:0:0:
64,192,37981,1,0,0:0:0:0:
320,192,37981,1,0,1:0:0:0:
320,192,38117,1,0,1:0:0:0:
320,192,38254,1,0,1:0:0:0:
192,192,38254,1,0,0:0:0:0:
64,192,38254,1,2,0:0:0:0:
320,192,38390,1,0,1:0:0:0:
192,192,38458,1,0,1:0:0:0:
64,192,38527,1,0,1:0:0:0:
320,192,38527,1,0,0:0:0:0:
448,192,38527,1,8,0:0:0:0:
64,192,38663,1,0,1:0:0:0:
64,192,38799,1,0,1:0:0:0:
448,192,38799,1,0,0:0:0:0:
320,192,38867,1,0,1:0:0:0:
192,192,38936,1,0,0:0:0:0:
64,192,38936,1,0,1:0:0:0:
320,192,39004,1,0,1:0:0:0:
192,192,39072,1,0,0:0:0:0:
64,192,39072,1,2,0:0:0:0:
448,192,39072,1,0,1:0:0:0:
448,192,39208,1,0,1:0:0:0:
448,192,39345,1,0,1:0:0:0:
64,192,39345,1,0,0:0:0:0:
448,192,39481,1,0,1:0:0:0:
64,192,39617,1,0,0:0:0:0:
192,192,39617,1,0,1:0:0:0:
320,192,39617,1,8,0:0:0:0:
192,192,39754,1,0,1:0:0:0:
192,192,39890,1,0,1:0:0:0:
320,192,39890,1,2,0:0:0:0:
448,192,39890,1,0,0:0:0:0:
192,192,40027,1,0,1:0:0:0:
448,192,40095,1,0,1:0:0:0:
64,192,40163,1,0,0:0:0:0:
320,192,40163,1,0,1:0:0:0:
320,192,40299,1,0,1:0:0:0:
320,192,40436,1,0,1:0:0:0:
64,192,40436,1,2,0:0:0:0:
192,192,40436,1,0,0:0:0:0:
320,192,40572,1,0,1:0:0:0:
192,192,40640,1,0,1:0:0:0:
64,192,40708,1,8,0:0:0:0:
448,192,40708,1,0,1:0:0:0:
320,192,40754,1,0,1:0:0:0:
192,192,40799,1,0,1:0:0:0:
448,192,40845,1,0,1:0:0:0:
320,192,40890,1,0,1:0:0:0:
192,192,40936,1,0,1:0:0:0:
320,192,40981,1,0,0:0:0:0:
448,192,40981,1,0,1:0:0:0:
64,192,41049,1,0,1:0:0:0:
448,192,41117,1,0,1:0:0:0:
192,192,41186,1,0,1:0:0:0:
64,192,41254,1,0,1:0:0:0:
320,192,41254,1,2,0:0:0:0:
448,192,41254,1,0,0:0:0:0:
64,192,41390,1,0,1:0:0:0:
64,192,41527,1,0,1:0:0:0:
320,192,41527,1,0,0:0:0:0:
64,192,41663,1,0,1:0:0:0:
192,192,41799,1,0,0:0:0:0:
320,192,41799,1,8,0:0:0:0:
448,192,41799,1,0,1:0:0:0:
448,192,41936,1,0,1:0:0:0:
192,192,42072,1,0,0:0:0:0:
64,192,42072,1,2,0:0:0:0:
448,192,42072,1,0,1:0:0:0:
448,192,42208,1,0,1:0:0:0:
320,192,42277,1,0,1:0:0:0:
192,192,42345,1,0,1:0:0:0:
64,192,42345,1,0,0:0:0:0:
192,192,42481,1,0,1:0:0:0:
192,192,42617,1,0,1:0:0:0:
320,192,42617,1,2,0:0:0:0:
448,192,42617,1,0,0:0:0:0:
192,192,42754,1,0,1:0:0:0:
320,192,42822,1,0,1:0:0:0:
192,192,42890,1,8,0:0:0:0:
64,192,42890,1,0,0:0:0:0:
448,192,42890,1,0,1:0:0:0:
448,192,43027,1,0,1:0:0:0:
448,192,43163,1,0,1:0:0:0:
320,192,43163,1,0,0:0:0:0:
64,192,43231,1,0,1:0:0:0:
448,192,43299,1,0,1:0:0:0:
192,192,43367,1,0,1:0:0:0:
64,192,43436,1,0,1:0:0:0:
320,192,43436,1,2,0:0:0:0:
448,192,43436,1,0,0:0:0:0:
64,192,43572,1,0,1:0:0:0:
64,192,43708,1,0,1:0:0:0:
320,192,43708,1,0,0:0:0:0:
64,192,43845,1,0,1:0:0:0:
64,192,43981,1,0,1:0:0:0:
192,192,43981,1,0,0:0:0:0:
64,192,44117,1,0,1:0:0:0:
64,192,44254,1,0,1:0:0:0:
448,192,44254,1,0,0:0:0:0:
64,192,44390,1,0,1:0:0:0:
192,192,44458,1,0,1:0:0:0:
320,192,44527,1,0,1:0:0:0:
448,192,44527,1,0,0:0:0:0:
64,192,44663,1,0,0:0:0:0:
448,192,44799,1,0,0:0:0:0:
192,192,44799,1,0,1:0:0:0:
192,192,44936,1,0,1:0:0:0:
64,192,44936,1,0,0:0:0:0:
320,192,45004,1,0,1:0:0:0:
64,192,45072,1,0,1:0:0:0:
448,192,45072,1,0,0:0:0:0:
192,192,45117,1,0,1:0:0:0:
320,192,45163,1,0,1:0:0:0:
64,192,45208,1,0,1:0:0:0:
192,192,45254,1,0,1:0:0:0:
320,192,45299,1,0,1:0:0:0:
192,192,45345,1,0,0:0:0:0:
64,192,45345,1,0,1:0:0:0:
448,192,45413,1,0,1:0:0:0:
64,192,45481,1,0,1:0:0:0:
320,192,45549,1,0,1:0:0:0:
64,192,45617,1,2,0:0:0:0:
448,192,45617,1,4,0:0:0:0:
192,192,45652,1,0,0:0:0:0:
320,192,45686,1,0,0:0:0:0:
448,192,45754,1,0,0:0:0:0:
320,192,45822,1,0,0:0:0:0:
448,192,45890,1,0,0:0:0:0:
448,192,46027,1,0,0:0:0:0:
192,192,46163,1,0,0:0:0:0:
64,192,46163,1,0,0:0:0:0:
192,192,46299,1,0,0:0:0:0:
64,192,46436,1,2,0:0:0:0:
448,192,46436,1,0,0:0:0:0:
320,192,46470,1,0,0:0:0:0:
192,192,46504,1,0,0:0:0:0:
64,192,46572,1,0,0:0:0:0:
192,192,46640,1,0,0:0:0:0:
64,192,46708,1,0,0:0:0:0:
448,192,46708,1,0,0:0:0:0:
448,192,46845,1,0,0:0:0:0:
448,192,46981,1,0,0:0:0:0:
64,192,46981,1,2,0:0:0:0:
448,192,47117,1,0,0:0:0:0:
320,192,47254,1,0,0:0:0:0:
192,192,47254,1,0,0:0:0:0:
192,192,47390,1,0,0:0:0:0:
192,192,47527,1,0,0:0:0:0:
192,192,47663,1,0,0:0:0:0:
64,192,47799,1,2,0:0:0:0:
448,192,47799,1,0,0:0:0:0:
192,192,47833,1,0,0:0:0:0:
320,192,47867,1,0,0:0:0:0:
64,192,47936,1,0,0:0:0:0:
320,192,48004,1,0,0:0:0:0:
192,192,48072,1,0,0:0:0:0:
64,192,48072,1,0,0:0:0:0:
64,192,48208,1,0,0:0:0:0:
320,192,48345,1,0,0:0:0:0:
448,192,48345,1,0,0:0:0:0:
320,192,48481,1,0,0:0:0:0:
64,192,48617,1,0,0:0:0:0:
448,192,48617,1,2,0:0:0:0:
320,192,48652,1,0,0:0:0:0:
192,192,48686,1,0,0:0:0:0:
448,192,48754,1,0,0:0:0:0:
192,192,48822,1,0,0:0:0:0:
320,192,48890,1,0,0:0:0:0:
448,192,48890,1,0,0:0:0:0:
320,192,49027,1,0,0:0:0:0:
64,192,49163,1,2,0:0:0:0:
320,192,49163,1,0,0:0:0:0:
320,192,49299,1,0,0:0:0:0:
192,192,49436,1,0,0:0:0:0:
64,192,49436,1,0,0:0:0:0:
192,192,49572,1,0,0:0:0:0:
192,192,49708,1,0,0:0:0:0:
192,192,49845,1,0,0:0:0:0:
320,192,49981,1,2,0:0:0:0:
448,192,49981,1,0,0:0:0:0:
192,192,50015,1,0,0:0:0:0:
64,192,50049,1,0,0:0:0:0:
320,192,50117,1,0,0:0:0:0:
192,192,50186,1,0,0:0:0:0:
64,192,50254,1,0,0:0:0:0:
448,192,50254,1,0,0:0:0:0:
64,192,50390,1,0,0:0:0:0:
320,192,50527,1,0,0:0:0:0:
448,192,50527,1,0,0:0:0:0:
448,192,50663,1,0,0:0:0:0:
64,192,50799,1,0,0:0:0:0:
192,192,50799,1,2,0:0:0:0:
320,192,50833,1,0,0:0:0:0:
448,192,50867,1,0,0:0:0:0:
192,192,50936,1,0,0:0:0:0:
320,192,51004,1,0,0:0:0:0:
448,192,51072,1,0,0:0:0:0:
64,192,51072,1,0,0:0:0:0:
448,192,51208,1,0,0:0:0:0:
64,192,51345,1,0,0:0:0:0:
192,192,51345,1,2,0:0:0:0:
64,192,51481,1,0,0:0:0:0:
192,192,51617,1,0,0:0:0:0:
320,192,51617,1,0,0:0:0:0:
320,192,51754,1,0,0:0:0:0:
320,192,51890,1,0,0:0:0:0:
320,192,52027,1,0,0:0:0:0:
64,192,52163,1,0,0:0:0:0:
192,192,52163,1,2,0:0:0:0:
320,192,52197,1,0,0:0:0:0:
448,192,52231,1,0,0:0:0:0:
64,192,52299,1,0,0:0:0:0:
320,192,52367,1,0,0:0:0:0:
448,192,52436,1,0,0:0:0:0:
192,192,52436,1,0,0:0:0:0:
448,192,52572,1,0,0:0:0:0:
192,192,52708,1,0,0:0:0:0:
64,192,52708,1,0,0:0:0:0:
192,192,52845,1,0,0:0:0:0:
320,192,52981,1,2,0:0:0:0:
448,192,52981,1,0,0:0:0:0:
192,192,53015,1,0,0:0:0:0:
64,192,53049,1,0,0:0:0:0:
448,192,53117,1,0,0:0:0:0:
192,192,53186,1,0,0:0:0:0:
64,192,53254,1,0,0:0:0:0:
320,192,53254,1,0,0:0:0:0:
64,192,53390,1,0,0:0:0:0:
448,192,53527,1,2,0:0:0:0:
320,192,53527,1,0,0:0:0:0:
320,192,53663,1,0,0:0:0:0:
192,192,53799,1,0,0:0:0:0:
448,192,53799,1,0,0:0:0:0:
192,192,53936,1,0,0:0:0:0:
192,192,54072,1,0,0:0:0:0:
192,192,54208,1,0,0:0:0:0:
320,192,54345,1,0,0:0:0:0:
448,192,54345,1,4,0:0:0:0:
64,192,54345,1,2,1:0:0:0:
192,192,54413,1,0,0:0:0:0:
320,192,54481,1,0,0:0:0:0:
192,192,54549,1,0,0:0:0:0:
64,192,54617,1,2,1:0:0:0:
448,192,54617,1,0,0:0:0:0:
320,192,54686,1,0,0:0:0:0:
192,192,54754,1,0,0:0:0:0:
320,192,54822,1,0,0:0:0:0:
448,192,54890,1,0,0:0:0:0:
64,192,54890,1,2,1:0:0:0:
192,192,54958,1,0,0:0:0:0:
320,192,55027,1,0,0:0:0:0:
192,192,55095,1,0,0:0:0:0:
64,192,55163,1,2,1:0:0:0:
448,192,55163,1,0,0:0:0:0:
320,192,55231,1,0,0:0:0:0:
192,192,55299,1,0,0:0:0:0:
64,192,55367,1,0,0:0:0:0:
448,192,55436,1,0,0:0:0:0:
320,192,55436,1,2,1:0:0:0:
192,192,55504,1,0,0:0:0:0:
64,192,55572,1,0,0:0:0:0:
192,192,55640,1,0,0:0:0:0:
320,192,55708,1,0,0:0:0:0:
448,192,55708,1,2,1:0:0:0:
64,192,55777,1,0,0:0:0:0:
192,192,55845,1,0,0:0:0:0:
448,192,55913,1,0,0:0:0:0:
192,192,55981,1,0,0:0:0:0:
64,192,55981,1,2,1:0:0:0:
320,192,56049,1,0,0:0:0:0:
448,192,56117,1,0,0:0:0:0:
320,192,56186,1,0,0:0:0:0:
64,192,56254,1,2,1:0:0:0:
192,192,56254,1,0,0:0:0:0:
448,192,56322,1,0,0:0:0:0:
320,192,56390,1,0,0:0:0:0:
192,192,56458,1,0,0:0:0:0:
448,192,56527,1,2,1:0:0:0:
320,192,56527,1,0,0:0:0:0:
64,192,56595,1,0,0:0:0:0:
448,192,56663,1,0,0:0:0:0:
320,192,56731,1,0,0:0:0:0:
192,192,56799,1,2,1:0:0:0:
64,192,56799,1,0,0:0:0:0:
448,192,56867,1,0,0:0:0:0:
64,192,56936,1,0,0:0:0:0:
192,192,57004,1,0,0:0:0:0:
320,192,57072,1,0,0:0:0:0:
448,192,57072,1,2,1:0:0:0:
64,192,57140,1,0,0:0:0:0:
448,192,57208,1,0,0:0:0:0:
320,192,57277,1,0,0:0:0:0:
192,192,57345,1,2,1:0:0:0:
64,192,57345,1,0,0:0:0:0:
448,192,57413,1,0,0:0:0:0:
64,192,57481,1,0,0:0:0:0:
192,192,57549,1,0,0:0:0:0:
320,192,57617,1,0,0:0:0:0:
448,192,57617,1,2,1:0:0:0:
64,192,57686,1,0,0:0:0:0:
192,192,57754,1,0,0:0:0:0:
320,192,57822,1,0,0:0:0:0:
64,192,57890,1,2,1:0:0:0:
448,192,57890,1,0,0:0:0:0:
320,192,57958,1,0,0:0:0:0:
192,192,58027,1,0,0:0:0:0:
448,192,58095,1,0,0:0:0:0:
192,192,58163,1,0,0:0:0:0:
64,192,58163,1,2,1:0:0:0:
320,192,58231,1,0,0:0:0:0:
448,192,58299,1,0,0:0:0:0:
192,192,58367,1,0,0:0:0:0:
320,192,58436,1,0,0:0:0:0:
448,192,58436,1,2,1:0:0:0:
64,192,58504,1,0,0:0:0:0:
320,192,58572,1,0,0:0:0:0:
192,192,58640,1,0,0:0:0:0:
64,192,58708,1,2,1:0:0:0:
448,192,58708,1,4,0:0:0:0:
320,192,58777,1,0,0:0:0:0:
448,192,58845,1,0,0:0:0:0:
192,192,58845,1,2,1:0:0:0:
320,192,58913,1,0,0:0:0:0:
192,192,58981,1,0,0:0:0:0:
64,192,58981,1,2,1:0:0:0:
448,192,59049,1,0,0:0:0:0:
320,192,59117,1,0,0:0:0:0:
64,192,59117,1,2,1:0:0:0:
192,192,59186,1,0,0:0:0:0:
448,192,59254,1,0,0:0:0:0:
320,192,59254,1,2,1:0:0:0:
64,192,59322,1,0,0:0:0:0:
192,192,59390,1,2,1:0:0:0:
448,192,59390,1,0,0:0:0:0:
320,192,59458,1,0,0:0:0:0:
448,192,59527,1,0,0:0:0:0:
64,192,59527,1,2,1:0:0:0:
192,192,59595,1,0,0:0:0:0:
64,192,59663,1,2,1:0:0:0:
320,192,59663,1,0,0:0:0:0:
448,192,59731,1,0,0:0:0:0:
64,192,59799,1,0,0:0:0:0:
192,192,59799,1,2,1:0:0:0:
320,192,59867,1,2,1:0:0:0:
448,192,59867,1,0,0:0:0:0:
192,192,59936,1,2,1:0:0:0:
64,192,59936,1,0,0:0:0:0:
320,192,60004,1,2,1:0:0:0:
448,192,60004,1,0,0:0:0:0:
64,192,60072,1,0,0:0:0:0:
192,192,60072,1,2,1:0:0:0:
320,192,60140,1,2,1:0:0:0:
448,192,60140,1,0,0:0:0:0:
64,192,60208,1,0,0:0:0:0:
192,192,60208,1,2,1:0:0:0:
448,192,60277,1,0,0:0:0:0:
320,192,60277,1,2,1:0:0:0:
192,192,60345,1,2,1:0:0:0:
64,192,60345,1,0,0:0:0:0:
448,192,60413,1,0,0:0:0:0:
320,192,60413,1,2,1:0:0:0:
192,192,60481,1,2,1:0:0:0:
64,192,60481,1,0,0:0:0:0:
320,192,60549,1,2,1:0:0:0:
448,192,60549,1,0,0:0:0:0:
64,192,60617,1,0,0:0:0:0:
192,192,60617,1,2,1:0:0:0:
320,192,60686,1,2,1:0:0:0:
448,192,60686,1,0,0:0:0:0:
64,192,60754,1,0,0:0:0:0:
192,192,60754,1,2,1:0:0:0:
448,192,60822,1,0,0:0:0:0:
320,192,60822,1,2,1:0:0:0:
192,192,60890,1,0,0:0:0:0:
64,192,60890,128,0,61095:0:0:0:0:
64,192,61163,128,0,61367:0:0:0:0:
320,192,61163,1,0,0:0:0:0:
64,192,61436,128,0,61640:0:0:0:0:
320,192,61436,1,0,0:0:0:0:
448,192,61436,1,2,0:0:0:0:
64,192,61708,128,0,61913:0:0:0:0:
192,192,61708,128,0,61913:0:0:0:0:
448,192,61845,1,0,0:0:0:0:
192,192,61981,128,0,62186:0:0:0:0:
64,192,61981,128,0,62186:0:0:0:0:
320,192,61981,1,0,0:0:0:0:
448,192,62117,1,0,0:0:0:0:
64,192,62254,128,0,62458:0:0:0:0:
192,192,62254,128,0,62458:0:0:0:0:
320,192,62254,1,0,0:0:0:0:
448,192,62390,1,0,0:0:0:0:
64,192,62527,1,0,0:0:0:0:
192,192,62527,1,0,0:0:0:0:
448,192,62527,128,2,63072:0:0:0:0:
64,192,63072,128,2,63549:0:0:0:0:
320,192,63072,1,0,0:0:0:0:
192,192,63072,1,0,0:0:0:0:
448,192,63345,128,0,63822:0:0:0:0:
64,192,63617,1,0,0:0:0:0:
192,192,63617,1,0,0:0:0:0:
320,192,63617,128,8,63822:0:0:0:0:
320,192,63890,1,0,0:0:0:0:
448,192,63890,1,4,0:0:0:0:
64,192,63890,1,2,0:0:0:0:
192,192,64027,1,0,1:0:0:0:
448,192,64027,1,0,0:0:0:0:
448,192,64163,1,0,0:0:0:0:
192,192,64163,1,0,1:0:0:0:
192,192,64299,1,0,1:0:0:0:
448,192,64299,1,0,0:0:0:0:
320,192,64436,1,0,0:0:0:0:
192,192,64436,1,0,0:0:0:0:
64,192,64436,1,2,0:0:0:0:
64,192,64572,1,0,1:0:0:0:
448,192,64572,1,0,0:0:0:0:
320,192,64708,1,0,0:0:0:0:
448,192,64708,1,8,0:0:0:0:
192,192,64708,1,0,0:0:0:0:
64,192,64708,1,0,1:0:0:0:
192,192,64845,1,0,1:0:0:0:
320,192,64845,1,0,0:0:0:0:
448,192,64981,1,0,0:0:0:0:
64,192,64981,1,0,1:0:0:0:
448,192,65117,1,0,0:0:0:0:
64,192,65117,1,0,1:0:0:0:
192,192,65254,1,2,0:0:0:0:
320,192,65254,1,0,0:0:0:0:
448,192,65254,1,0,0:0:0:0:
64,192,65390,1,0,1:0:0:0:
192,192,65390,1,0,0:0:0:0:
64,192,65527,1,0,1:0:0:0:
320,192,65527,1,0,0:0:0:0:
64,192,65663,1,0,1:0:0:0:
320,192,65663,1,0,0:0:0:0:
192,192,65799,1,0,0:0:0:0:
64,192,65799,1,0,1:0:0:0:
448,192,65799,1,8,0:0:0:0:
320,192,65799,1,0,0:0:0:0:
448,192,65936,1,0,0:0:0:0:
192,192,65936,1,0,1:0:0:0:
64,192,66072,1,2,0:0:0:0:
448,192,66072,1,0,0:0:0:0:
320,192,66072,1,0,0:0:0:0:
192,192,66208,1,0,1:0:0:0:
320,192,66208,1,0,0:0:0:0:
64,192,66345,1,0,0:0:0:0:
192,192,66345,1,0,1:0:0:0:
320,192,66413,1,0,1:0:0:0:
448,192,66413,1,0,0:0:0:0:
192,192,66481,1,0,1:0:0:0:
64,192,66481,1,0,0:0:0:0:
320,192,66549,1,0,1:0:0:0:
448,192,66617,1,0,0:0:0:0:
192,192,66617,1,0,0:0:0:0:
64,192,66617,1,2,0:0:0:0:
448,192,66754,1,0,0:0:0:0:
320,192,66754,1,0,1:0:0:0:
192,192,66822,1,0,0:0:0:0:
64,192,66890,1,8,0:0:0:0:
448,192,66890,1,0,1:0:0:0:
320,192,66936,1,0,1:0:0:0:
192,192,66981,1,0,1:0:0:0:
448,192,67027,1,0,1:0:0:0:
320,192,67072,1,0,1:0:0:0:
192,192,67117,1,0,1:0:0:0:
320,192,67163,1,0,0:0:0:0:
448,192,67163,1,0,1:0:0:0:
64,192,67231,1,0,0:0:0:0:
320,192,67299,1,0,0:0:0:0:
192,192,67367,1,0,0:0:0:0:
448,192,67436,1,0,0:0:0:0:
64,192,67436,128,2,67913:0:0:0:0:
320,192,67436,1,0,0:0:0:0:
192,192,67572,1,0,0:0:0:0:
448,192,67708,128,0,68186:0:0:0:0:
192,192,67708,1,0,0:0:0:0:
320,192,67845,1,0,0:0:0:0:
320,192,67981,128,8,68186:0:0:0:0:
64,192,67981,1,0,0:0:0:0:
192,192,67981,1,0,0:0:0:0:
64,192,68117,1,0,0:0:0:0:
320,192,68254,1,0,0:0:0:0:
192,192,68254,1,2,0:0:0:0:
448,192,68254,128,0,68390:0:0:0:0:
64,192,68390,1,0,0:0:0:0:
320,192,68458,1,0,0:0:0:0:
448,192,68527,1,0,0:0:0:0:
192,192,68527,128,0,68663:1:0:0:0:
448,192,68663,1,0,0:0:0:0:
320,192,68799,128,2,68936:0:0:0:0:
64,192,68799,1,0,0:0:0:0:
64,192,68936,128,0,69072:0:0:0:0:
192,192,68936,128,0,69208:0:0:0:0:
448,192,69072,128,0,69208:1:0:0:0:
320,192,69072,1,8,0:0:0:0:
64,192,69208,1,0,0:0:0:0:
192,192,69345,128,0,69481:1:0:0:0:
320,192,69481,128,0,69754:0:0:0:0:
64,192,69481,128,0,69617:0:0:0:0:
448,192,69617,128,2,69754:0:0:0:0:
192,192,69617,1,0,0:0:0:0:
192,192,69754,1,0,0:0:0:0:
448,192,69890,128,0,70027:1:0:0:0:
192,192,70027,128,0,70299:0:0:0:0:
320,192,70027,128,0,70163:0:0:0:0:
64,192,70163,128,0,70299:1:0:0:0:
448,192,70163,1,8,0:0:0:0:
448,192,70299,1,0,0:0:0:0:
320,192,70436,128,2,70572:0:0:0:0:
64,192,70436,1,0,0:0:0:0:
64,192,70572,128,0,70708:0:0:0:0:
192,192,70572,128,0,70845:0:0:0:0:
448,192,70708,128,0,70845:1:0:0:0:
320,192,70708,1,0,0:0:0:0:
64,192,70845,1,0,0:0:0:0:
320,192,70981,1,0,0:0:0:0:
448,192,70981,128,2,71117:0:0:0:0:
192,192,71117,1,0,1:0:0:0:
64,192,71117,1,0,0:0:0:0:
320,192,71186,1,0,0:0:0:0:
448,192,71254,1,8,0:0:0:0:
64,192,71254,1,0,1:0:0:0:
192,192,71299,1,0,1:0:0:0:
320,192,71345,1,0,1:0:0:0:
64,192,71390,1,0,1:0:0:0:
192,192,71436,1,0,1:0:0:0:
320,192,71481,1,0,1:0:0:0:
192,192,71527,1,0,0:0:0:0:
64,192,71527,1,0,1:0:0:0:
448,192,71595,1,0,0:0:0:0:
320,192,71663,1,0,0:0:0:0:
64,192,71663,1,0,1:0:0:0:
192,192,71731,1,0,0:0:0:0:
64,192,71799,1,0,0:0:0:0:
448,192,71799,128,2,72277:0:0:0:0:
320,192,71799,1,0,0:0:0:0:
192,192,71936,1,0,0:0:0:0:
192,192,72072,128,0,72549:0:0:0:0:
64,192,72072,1,0,0:0:0:0:
320,192,72208,1,0,0:0:0:0:
64,192,72345,128,8,72549:0:0:0:0:
320,192,72345,1,0,0:0:0:0:
448,192,72345,1,0,0:0:0:0:
448,192,72481,1,0,0:0:0:0:
320,192,72617,1,0,0:0:0:0:
192,192,72617,1,0,0:0:0:0:
64,192,72617,1,2,0:0:0:0:
64,192,72754,1,0,1:0:0:0:
448,192,72754,1,0,0:0:0:0:
64,192,72890,1,0,1:0:0:0:
448,192,72890,1,0,0:0:0:0:
64,192,73027,1,0,1:0:0:0:
448,192,73027,1,0,0:0:0:0:
192,192,73163,1,2,0:0:0:0:
320,192,73163,1,0,0:0:0:0:
448,192,73163,1,0,0:0:0:0:
64,192,73299,1,0,1:0:0:0:
320,192,73299,1,0,0:0:0:0:
192,192,73436,1,0,0:0:0:0:
64,192,73436,1,0,1:0:0:0:
320,192,73436,1,0,0:0:0:0:
448,192,73436,1,8,0:0:0:0:
192,192,73572,1,0,1:0:0:0:
448,192,73572,1,0,0:0:0:0:
320,192,73708,1,0,0:0:0:0:
64,192,73708,1,0,1:0:0:0:
64,192,73845,1,0,1:0:0:0:
320,192,73845,1,0,0:0:0:0:
64,192,73981,1,2,0:0:0:0:
192,192,73981,1,0,0:0:0:0:
448,192,73981,1,0,0:0:0:0:
320,192,74117,1,0,1:0:0:0:
448,192,74117,1,0,0:0:0:0:
448,192,74254,1,0,0:0:0:0:
320,192,74254,1,0,1:0:0:0:
320,192,74390,1,0,1:0:0:0:
448,192,74390,1,0,0:0:0:0:
448,192,74527,1,8,0:0:0:0:
320,192,74527,1,0,0:0:0:0:
192,192,74527,1,0,0:0:0:0:
64,192,74527,1,0,1:0:0:0:
64,192,74663,1,0,1:0:0:0:
192,192,74663,1,0,0:0:0:0:
64,192,74799,1,2,0:0:0:0:
320,192,74799,1,0,0:0:0:0:
448,192,74799,1,0,0:0:0:0:
192,192,74936,1,0,1:0:0:0:
448,192,74936,1,0,0:0:0:0:
192,192,75072,1,0,1:0:0:0:
64,192,75072,1,0,0:0:0:0:
320,192,75140,1,0,1:0:0:0:
448,192,75140,1,0,0:0:0:0:
192,192,75208,1,0,1:0:0:0:
64,192,75208,1,0,0:0:0:0:
320,192,75277,1,0,1:0:0:0:
192,192,75345,1,0,0:0:0:0:
64,192,75345,1,2,0:0:0:0:
448,192,75345,1,0,0:0:0:0:
320,192,75481,1,0,1:0:0:0:
448,192,75481,1,0,0:0:0:0:
192,192,75549,1,0,0:0:0:0:
64,192,75617,1,8,0:0:0:0:
448,192,75617,1,0,1:0:0:0:
320,192,75663,1,0,1:0:0:0:
192,192,75708,1,0,1:0:0:0:
448,192,75754,1,0,1:0:0:0:
320,192,75799,1,0,1:0:0:0:
192,192,75845,1,0,1:0:0:0:
320,192,75890,1,0,0:0:0:0:
448,192,75890,1,0,1:0:0:0:
64,192,75958,1,0,0:0:0:0:
320,192,76027,1,0,0:0:0:0:
192,192,76095,1,0,0:0:0:0:
64,192,76163,1,0,0:0:0:0:
448,192,76163,128,2,76640:0:0:0:0:
320,192,76163,1,0,0:0:0:0:
64,192,76299,1,0,0:0:0:0:
192,192,76436,1,0,0:0:0:0:
320,192,76436,128,0,76640:0:0:0:0:
192,192,76572,1,0,0:0:0:0:
64,192,76708,1,0,0:0:0:0:
320,192,76708,1,0,1:0:0:0:
448,192,76708,1,8,0:0:0:0:
192,192,76777,1,0,1:0:0:0:
320,192,76845,1,0,1:0:0:0:
448,192,76845,1,0,0:0:0:0:
192,192,76981,1,0,0:0:0:0:
64,192,76981,1,2,0:0:0:0:
448,192,76981,1,0,0:0:0:0:
64,192,77117,1,0,0:0:0:0:
320,192,77117,1,0,1:0:0:0:
192,192,77186,1,0,1:0:0:0:
448,192,77186,1,0,0:0:0:0:
320,192,77254,1,0,1:0:0:0:
64,192,77254,1,0,0:0:0:0:
320,192,77390,1,0,1:0:0:0:
448,192,77390,1,0,0:0:0:0:
448,192,77527,1,0,0:0:0:0:
192,192,77527,1,0,1:0:0:0:
64,192,77527,1,2,0:0:0:0:
320,192,77663,1,0,0:0:0:0:
192,192,77663,1,0,1:0:0:0:
192,192,77799,1,0,1:0:0:0:
320,192,77799,1,0,0:0:0:0:
448,192,77799,1,8,0:0:0:0:
64,192,77799,1,0,0:0:0:0:
448,192,77936,1,0,1:0:0:0:
64,192,77936,1,0,0:0:0:0:
320,192,78004,1,0,0:0:0:0:
192,192,78004,1,0,1:0:0:0:
448,192,78072,1,0,1:0:0:0:
64,192,78072,1,0,0:0:0:0:
320,192,78208,1,0,1:0:0:0:
64,192,78208,1,0,0:0:0:0:
192,192,78345,1,0,0:0:0:0:
320,192,78345,1,0,0:0:0:0:
448,192,78345,128,2,78822:0:0:0:0:
192,192,78481,1,0,0:0:0:0:
320,192,78617,128,0,78822:0:0:0:0:
64,192,78617,1,0,0:0:0:0:
64,192,78754,1,0,0:0:0:0:
192,192,78890,1,0,0:0:0:0:
320,192,78890,1,0,1:0:0:0:
448,192,78890,1,8,0:0:0:0:
64,192,78958,1,0,1:0:0:0:
320,192,79027,1,0,1:0:0:0:
448,192,79027,1,0,0:0:0:0:
192,192,79163,1,0,1:0:0:0:
64,192,79163,1,2,0:0:0:0:
448,192,79163,1,0,0:0:0:0:
320,192,79299,1,0,1:0:0:0:
192,192,79299,1,0,0:0:0:0:
64,192,79367,1,0,0:0:0:0:
448,192,79367,1,0,1:0:0:0:
192,192,79436,1,0,0:0:0:0:
320,192,79436,1,0,1:0:0:0:
320,192,79572,1,0,0:0:0:0:
448,192,79572,1,0,1:0:0:0:
192,192,79708,1,2,0:0:0:0:
64,192,79708,1,0,1:0:0:0:
448,192,79708,1,0,0:0:0:0:
320,192,79845,1,0,0:0:0:0:
64,192,79845,1,0,1:0:0:0:
64,192,79981,1,0,0:0:0:0:
192,192,79981,1,0,0:0:0:0:
320,192,79981,1,0,0:0:0:0:
448,192,79981,1,8,0:0:0:0:
192,192,80117,1,0,0:0:0:0:
320,192,80254,128,0,80527:1:0:0:0:
64,192,80527,1,2,1:0:0:0:
192,192,80527,1,0,0:0:0:0:
448,192,80527,1,4,0:0:0:0:
320,192,80595,1,0,0:0:0:0:
192,192,80663,1,0,0:0:0:0:
448,192,80731,1,0,0:0:0:0:
320,192,80799,1,0,0:0:0:0:
64,192,80799,1,2,1:0:0:0:
192,192,80867,1,0,0:0:0:0:
320,192,80936,1,0,0:0:0:0:
448,192,81004,1,0,0:0:0:0:
192,192,81072,1,0,0:0:0:0:
64,192,81072,1,2,1:0:0:0:
320,192,81140,1,0,0:0:0:0:
192,192,81208,1,0,0:0:0:0:
448,192,81277,1,0,0:0:0:0:
320,192,81345,1,0,0:0:0:0:
64,192,81345,1,2,1:0:0:0:
192,192,81413,1,0,0:0:0:0:
320,192,81481,1,0,0:0:0:0:
448,192,81549,1,0,0:0:0:0:
192,192,81617,1,0,0:0:0:0:
64,192,81617,1,2,1:0:0:0:
320,192,81686,1,0,0:0:0:0:
448,192,81754,1,0,0:0:0:0:
320,192,81822,1,0,0:0:0:0:
192,192,81890,1,0,0:0:0:0:
64,192,81890,1,2,1:0:0:0:
448,192,81958,1,0,0:0:0:0:
320,192,82027,1,0,0:0:0:0:
64,192,82095,1,0,0:0:0:0:
320,192,82163,1,0,0:0:0:0:
448,192,82163,1,2,1:0:0:0:
192,192,82231,1,0,0:0:0:0:
64,192,82299,1,0,0:0:0:0:
192,192,82367,1,0,0:0:0:0:
320,192,82436,1,0,0:0:0:0:
448,192,82436,1,2,1:0:0:0:
64,192,82504,1,0,0:0:0:0:
192,192,82572,1,0,0:0:0:0:
448,192,82640,1,0,0:0:0:0:
64,192,82708,1,2,1:0:0:0:
320,192,82708,1,0,0:0:0:0:
192,192,82777,1,0,0:0:0:0:
320,192,82845,1,0,0:0:0:0:
64,192,82913,1,0,0:0:0:0:
192,192,82981,1,0,0:0:0:0:
448,192,82981,1,2,1:0:0:0:
320,192,83049,1,0,0:0:0:0:
192,192,83117,1,0,0:0:0:0:
448,192,83186,1,0,0:0:0:0:
320,192,83254,1,0,0:0:0:0:
64,192,83254,1,2,1:0:0:0:
192,192,83322,1,0,0:0:0:0:
320,192,83390,1,0,0:0:0:0:
64,192,83458,1,0,0:0:0:0:
448,192,83527,1,2,1:0:0:0:
192,192,83527,1,0,0:0:0:0:
320,192,83595,1,0,0:0:0:0:
192,192,83663,1,0,0:0:0:0:
64,192,83731,1,0,0:0:0:0:
320,192,83799,1,0,0:0:0:0:
448,192,83799,1,2,1:0:0:0:
192,192,83867,1,0,0:0:0:0:
320,192,83936,1,0,0:0:0:0:
448,192,84004,1,0,0:0:0:0:
64,192,84072,1,0,0:0:0:0:
192,192,84072,1,2,1:0:0:0:
320,192,84140,1,0,0:0:0:0:
448,192,84208,1,0,0:0:0:0:
320,192,84277,1,0,0:0:0:0:
192,192,84345,1,2,1:0:0:0:
64,192,84345,1,0,0:0:0:0:
448,192,84413,1,0,0:0:0:0:
64,192,84481,1,0,0:0:0:0:
192,192,84549,1,0,0:0:0:0:
320,192,84617,1,0,0:0:0:0:
448,192,84617,1,2,1:0:0:0:
64,192,84686,1,0,0:0:0:0:
448,192,84754,1,0,0:0:0:0:
320,192,84822,1,0,0:0:0:0:
192,192,84890,1,0,0:0:0:0:
64,192,84890,1,2,1:0:0:0:
448,192,84958,1,0,0:0:0:0:
320,192,85027,1,0,0:0:0:0:
64,192,85027,1,2,1:0:0:0:
192,192,85095,1,0,0:0:0:0:
64,192,85163,1,2,1:0:0:0:
448,192,85163,1,0,0:0:0:0:
320,192,85231,1,0,0:0:0:0:
448,192,85299,1,0,0:0:0:0:
192,192,85299,1,2,1:0:0:0:
64,192,85367,1,0,0:0:0:0:
320,192,85436,1,2,1:0:0:0:
448,192,85436,1,0,0:0:0:0:
192,192,85504,1,0,0:0:0:0:
64,192,85572,1,2,1:0:0:0:
320,192,85572,1,0,0:0:0:0:
192,192,85640,1,0,0:0:0:0:
320,192,85708,1,2,1:0:0:0:
448,192,85708,1,0,0:0:0:0:
64,192,85777,1,0,0:0:0:0:
192,192,85845,1,2,1:0:0:0:
448,192,85845,1,0,0:0:0:0:
320,192,85913,1,0,0:0:0:0:
192,192,85981,1,2,1:0:0:0:
64,192,85981,1,0,0:0:0:0:
320,192,86049,1,2,1:0:0:0:
448,192,86049,1,0,0:0:0:0:
192,192,86117,1,2,1:0:0:0:
64,192,86117,1,0,0:0:0:0:
320,192,86186,1,2,1:0:0:0:
448,192,86186,1,0,0:0:0:0:
192,192,86254,1,2,1:0:0:0:
64,192,86254,1,0,0:0:0:0:
320,192,86322,1,2,1:0:0:0:
448,192,86322,1,0,0:0:0:0:
64,192,86390,1,0,0:0:0:0:
192,192,86390,1,2,1:0:0:0:
448,192,86458,1,0,0:0:0:0:
320,192,86458,1,2,1:0:0:0:
64,192,86527,1,0,0:0:0:0:
192,192,86527,1,2,1:0:0:0:
448,192,86595,1,0,0:0:0:0:
320,192,86595,1,2,1:0:0:0:
192,192,86663,1,2,1:0:0:0:
64,192,86663,1,0,0:0:0:0:
320,192,86731,1,2,1:0:0:0:
448,192,86731,1,0,0:0:0:0:
192,192,86799,1,2,1:0:0:0:
64,192,86799,1,0,0:0:0:0:
320,192,86867,1,2,1:0:0:0:
448,192,86867,1,0,0:0:0:0:
64,192,86936,1,0,0:0:0:0:
192,192,86936,1,2,1:0:0:0:
448,192,87004,1,0,0:0:0:0:
320,192,87004,1,2,1:0:0:0:
64,192,87072,1,0,0:0:0:0:
192,192,87072,1,0,0:0:0:0:
320,192,87254,1,0,0:0:0:0:
448,192,87345,1,0,0:0:0:0:
192,192,87390,1,0,0:0:0:0:
320,192,87481,1,0,0:0:0:0:
64,192,87572,1,0,0:0:0:0:
320,192,87617,1,2,0:0:0:0:
448,192,87617,1,0,0:0:0:0:
192,192,87663,1,0,0:0:0:0:
192,192,87754,1,0,0:0:0:0:
448,192,87845,1,0,0:0:0:0:
64,192,87890,1,0,0:0:0:0:
320,192,87936,1,0,0:0:0:0:
192,192,88027,1,0,0:0:0:0:
448,192,88027,1,0,0:0:0:0:
64,192,88117,1,0,0:0:0:0:
320,192,88163,1,0,0:0:0:0:
64,192,88208,1,0,0:0:0:0:
320,192,88299,1,0,0:0:0:0:
448,192,88299,1,0,0:0:0:0:
64,192,88390,1,0,0:0:0:0:
448,192,88436,1,0,0:0:0:0:
192,192,88481,1,0,0:0:0:0:
320,192,88572,1,0,0:0:0:0:
64,192,88572,1,0,0:0:0:0:
320,192,88663,1,0,0:0:0:0:
64,192,88708,1,0,0:0:0:0:
192,192,88708,1,0,0:0:0:0:
448,192,88708,128,2,89254:0:0:0:0:
64,192,89254,1,2,0:0:0:0:
192,192,89254,1,0,0:0:0:0:
192,192,89345,1,0,0:0:0:0:
448,192,89436,1,0,0:0:0:0:
320,192,89527,1,0,0:0:0:0:
320,192,89617,1,0,0:0:0:0:
192,192,89708,1,0,0:0:0:0:
320,192,89799,128,0,90004:0:0:0:0:
448,192,89799,128,8,90004:0:0:0:0:
64,192,89799,128,0,90004:0:0:0:0:
64,192,90072,1,2,0:0:0:0:
192,192,90072,1,0,0:0:0:0:
448,192,90072,1,4,0:0:0:0:
320,192,90163,1,0,0:0:0:0:
320,192,90254,1,0,0:0:0:0:
64,192,90345,1,0,0:0:0:0:
192,192,90345,1,0,0:0:0:0:
448,192,90436,1,0,0:0:0:0:
448,192,90527,1,0,0:0:0:0:
64,192,90617,1,2,0:0:0:0:
192,192,90617,1,0,0:0:0:0:
320,192,90617,1,0,0:0:0:0:
192,192,90708,1,0,0:0:0:0:
448,192,90799,1,0,0:0:0:0:
320,192,90890,1,0,0:0:0:0:
448,192,90890,1,8,0:0:0:0:
192,192,90890,1,0,0:0:0:0:
64,192,90890,1,0,0:0:0:0:
64,192,90981,1,0,0:0:0:0:
320,192,91072,1,0,0:0:0:0:
192,192,91163,1,0,0:0:0:0:
448,192,91163,1,0,0:0:0:0:
320,192,91254,1,0,0:0:0:0:
320,192,91345,1,0,0:0:0:0:
192,192,91436,1,0,0:0:0:0:
64,192,91436,1,2,0:0:0:0:
448,192,91436,1,0,0:0:0:0:
192,192,91527,1,0,0:0:0:0:
320,192,91617,1,0,0:0:0:0:
64,192,91708,1,0,0:0:0:0:
192,192,91708,1,0,0:0:0:0:
448,192,91799,1,0,0:0:0:0:
192,192,91890,1,0,0:0:0:0:
320,192,91981,1,0,0:0:0:0:
192,192,91981,1,0,0:0:0:0:
64,192,91981,1,0,0:0:0:0:
448,192,91981,1,8,0:0:0:0:
448,192,92072,1,0,0:0:0:0:
64,192,92163,1,0,0:0:0:0:
192,192,92254,1,2,0:0:0:0:
320,192,92254,1,0,0:0:0:0:
448,192,92254,1,0,0:0:0:0:
320,192,92345,1,0,0:0:0:0:
64,192,92436,1,0,0:0:0:0:
448,192,92527,1,0,0:0:0:0:
320,192,92527,1,0,0:0:0:0:
192,192,92617,1,0,0:0:0:0:
192,192,92708,1,0,0:0:0:0:
64,192,92799,1,2,0:0:0:0:
320,192,92799,1,0,0:0:0:0:
448,192,92799,1,0,0:0:0:0:
448,192,92890,1,0,0:0:0:0:
192,192,92981,1,0,0:0:0:0:
64,192,93072,1,8,0:0:0:0:
448,192,93072,1,0,1:0:0:0:
320,192,93117,1,0,1:0:0:0:
192,192,93163,1,0,1:0:0:0:
448,192,93208,1,0,1:0:0:0:
320,192,93254,1,0,1:0:0:0:
192,192,93299,1,0,1:0:0:0:
320,192,93345,1,0,0:0:0:0:
448,192,93345,1,0,1:0:0:0:
64,192,93436,1,0,0:0:0:0:
64,192,93527,1,0,0:0:0:0:
448,192,93617,1,0,0:0:0:0:
192,192,93617,1,2,0:0:0:0:
320,192,93617,1,0,0:0:0:0:
320,192,93708,1,0,0:0:0:0:
64,192,93799,1,0,0:0:0:0:
192,192,93890,1,0,0:0:0:0:
192,192,93981,1,0,0:0:0:0:
320,192,94072,1,0,0:0:0:0:
64,192,94163,128,0,94367:0:0:0:0:
192,192,94163,128,0,94367:0:0:0:0:
448,192,94163,128,8,94367:0:0:0:0:
320,192,94436,1,0,0:0:0:0:
448,192,94436,1,0,0:0:0:0:
64,192,94436,1,2,0:0:0:0:
192,192,94504,1,0,1:0:0:0:
448,192,94572,1,0,1:0:0:0:
320,192,94640,1,0,1:0:0:0:
448,192,94708,1,0,1:0:0:0:
64,192,94777,1,0,1:0:0:0:
320,192,94845,1,0,1:0:0:0:
192,192,94913,1,0,1:0:0:0:
64,192,94981,1,2,0:0:0:0:
448,192,94981,1,0,1:0:0:0:
192,192,95049,1,0,1:0:0:0:
320,192,95117,128,0,95254:0:0:0:0:
448,192,95117,128,0,95254:0:0:0:0:
192,192,95254,1,8,0:0:0:0:
64,192,95254,1,0,1:0:0:0:
448,192,95322,1,0,1:0:0:0:
64,192,95390,1,0,1:0:0:0:
320,192,95458,1,0,1:0:0:0:
192,192,95527,1,0,1:0:0:0:
320,192,95595,1,0,1:0:0:0:
192,192,95663,128,0,95799:0:0:0:0:
64,192,95663,128,0,95799:0:0:0:0:
320,192,95799,1,2,0:0:0:0:
448,192,95799,1,0,1:0:0:0:
64,192,95867,1,0,1:0:0:0:
320,192,95936,1,0,1:0:0:0:
192,192,96004,1,0,1:0:0:0:
448,192,96072,1,0,1:0:0:0:
192,192,96140,1,0,1:0:0:0:
320,192,96208,128,0,96345:0:0:0:0:
448,192,96208,128,0,96345:0:0:0:0:
192,192,96345,1,8,0:0:0:0:
64,192,96345,1,0,1:0:0:0:
320,192,96413,1,0,1:0:0:0:
448,192,96481,1,0,1:0:0:0:
192,192,96549,1,0,1:0:0:0:
448,192,96617,1,0,1:0:0:0:
64,192,96617,1,2,0:0:0:0:
320,192,96686,1,0,1:0:0:0:
192,192,96754,128,0,96890:0:0:0:0:
64,192,96754,128,0,96890:0:0:0:0:
448,192,96890,1,0,1:0:0:0:
320,192,96958,1,0,1:0:0:0:
448,192,97027,1,0,1:0:0:0:
192,192,97095,1,0,1:0:0:0:
320,192,97163,1,0,1:0:0:0:
64,192,97163,1,2,0:0:0:0:
192,192,97231,1,0,1:0:0:0:
320,192,97299,128,0,97436:0:0:0:0:
448,192,97299,128,0,97436:0:0:0:0:
192,192,97436,1,8,0:0:0:0:
64,192,97436,1,0,0:0:0:0:
64,192,97572,128,0,97640:1:0:0:0:
448,192,97572,128,0,97640:0:0:0:0:
192,192,97708,128,0,97777:1:0:0:0:
320,192,97708,128,0,97777:0:0:0:0:
320,192,97845,128,0,97913:1:0:0:0:
448,192,97845,128,0,97913:0:0:0:0:
64,192,97981,1,2,0:0:0:0:
192,192,97981,1,0,0:0:0:0:
448,192,97981,1,0,0:0:0:0:
64,192,98072,1,0,0:0:0:0:
320,192,98163,1,0,0:0:0:0:
448,192,98254,1,0,0:0:0:0:
448,192,98345,1,0,0:0:0:0:
192,192,98436,1,0,0:0:0:0:
64,192,98527,128,0,98731:0:0:0:0:
320,192,98527,128,0,98731:0:0:0:0:
448,192,98527,128,8,98731:0:0:0:0:
192,192,98799,1,0,0:0:0:0:
64,192,98799,1,2,0:0:0:0:
448,192,98799,1,0,0:0:0:0:
192,192,98890,1,0,0:0:0:0:
320,192,98981,1,0,0:0:0:0:
64,192,99072,1,0,0:0:0:0:
448,192,99072,1,0,0:0:0:0:
192,192,99163,1,0,0:0:0:0:
320,192,99254,1,0,0:0:0:0:
64,192,99345,1,2,0:0:0:0:
448,192,99345,1,0,0:0:0:0:
320,192,99345,1,0,0:0:0:0:
192,192,99436,1,0,0:0:0:0:
448,192,99527,1,0,0:0:0:0:
448,192,99617,1,8,0:0:0:0:
320,192,99617,1,0,0:0:0:0:
192,192,99617,1,0,0:0:0:0:
64,192,99617,1,0,0:0:0:0:
192,192,99708,1,0,0:0:0:0:
320,192,99799,1,0,0:0:0:0:
448,192,99890,1,0,0:0:0:0:
64,192,99890,1,0,0:0:0:0:
64,192,99981,1,0,0:0:0:0:
192,192,100072,1,0,0:0:0:0:
64,192,100163,1,2,0:0:0:0:
320,192,100163,1,0,0:0:0:0:
448,192,100163,1,0,0:0:0:0:
320,192,100254,1,0,0:0:0:0:
192,192,100345,1,0,0:0:0:0:
320,192,100436,1,0,0:0:0:0:
448,192,100436,1,0,0:0:0:0:
64,192,100527,1,0,0:0:0:0:
448,192,100617,1,0,0:0:0:0:
448,192,100708,1,8,0:0:0:0:
320,192,100708,1,0,0:0:0:0:
192,192,100708,1,0,0:0:0:0:
64,192,100708,1,0,0:0:0:0:
64,192,100799,1,0,0:0:0:0:
320,192,100890,1,0,0:0:0:0:
64,192,100981,1,2,0:0:0:0:
448,192,100981,1,0,0:0:0:0:
192,192,100981,1,0,0:0:0:0:
320,192,101072,1,0,0:0:0:0:
320,192,101163,1,0,0:0:0:0:
64,192,101254,1,0,0:0:0:0:
448,192,101254,1,0,0:0:0:0:
192,192,101345,1,0,0:0:0:0:
320,192,101436,1,0,0:0:0:0:
448,192,101527,1,0,0:0:0:0:
64,192,101527,1,2,0:0:0:0:
192,192,101527,1,0,0:0:0:0:
64,192,101617,1,0,0:0:0:0:
320,192,101708,1,0,0:0:0:0:
64,192,101799,1,0,1:0:0:0:
448,192,101799,1,8,0:0:0:0:
192,192,101845,1,0,1:0:0:0:
320,192,101890,1,0,1:0:0:0:
64,192,101936,1,0,1:0:0:0:
192,192,101981,1,0,1:0:0:0:
320,192,102027,1,0,1:0:0:0:
192,192,102072,1,0,0:0:0:0:
64,192,102072,1,0,1:0:0:0:
448,192,102163,1,0,0:0:0:0:
448,192,102254,1,0,0:0:0:0:
320,192,102345,1,0,0:0:0:0:
64,192,102345,1,2,0:0:0:0:
192,192,102345,1,0,0:0:0:0:
448,192,102413,1,0,0:0:0:0:
64,192,102481,1,0,0:0:0:0:
320,192,102583,1,0,0:0:0:0:
320,192,102686,1,0,0:0:0:0:
192,192,102788,1,0,0:0:0:0:
64,192,102890,128,0,103095:0:0:0:0:
320,192,102890,128,0,103095:0:0:0:0:
448,192,102890,128,8,103095:0:0:0:0:
192,192,103163,1,0,0:0:0:0:
64,192,103163,1,2,0:0:0:0:
448,192,103163,1,0,0:0:0:0:
320,192,103231,1,0,1:0:0:0:
64,192,103299,1,0,1:0:0:0:
192,192,103367,1,0,1:0:0:0:
64,192,103436,1,0,1:0:0:0:
448,192,103504,1,0,1:0:0:0:
192,192,103572,1,0,1:0:0:0:
320,192,103640,1,0,1:0:0:0:
448,192,103708,1,0,1:0:0:0:
64,192,103708,1,2,0:0:0:0:
320,192,103777,1,0,1:0:0:0:
192,192,103845,128,0,103981:0:0:0:0:
64,192,103845,128,0,103981:0:0:0:0:
320,192,103981,1,0,1:0:0:0:
448,192,103981,1,8,0:0:0:0:
64,192,104049,1,0,1:0:0:0:
448,192,104117,1,0,1:0:0:0:
192,192,104186,1,0,1:0:0:0:
320,192,104254,1,0,1:0:0:0:
192,192,104322,1,0,1:0:0:0:
320,192,104390,128,0,104527:0:0:0:0:
448,192,104390,128,0,104527:0:0:0:0:
192,192,104527,1,0,1:0:0:0:
64,192,104527,1,2,0:0:0:0:
448,192,104595,1,0,1:0:0:0:
192,192,104663,1,0,1:0:0:0:
320,192,104731,1,0,1:0:0:0:
64,192,104799,1,0,1:0:0:0:
320,192,104867,1,0,1:0:0:0:
192,192,104936,128,0,105072:0:0:0:0:
64,192,104936,128,0,105072:0:0:0:0:
320,192,105072,1,0,1:0:0:0:
448,192,105072,1,8,0:0:0:0:
192,192,105140,1,0,1:0:0:0:
64,192,105208,1,0,1:0:0:0:
320,192,105277,1,0,1:0:0:0:
64,192,105345,1,2,0:0:0:0:
448,192,105345,1,0,1:0:0:0:
192,192,105413,1,0,1:0:0:0:
320,192,105481,128,0,105617:0:0:0:0:
448,192,105481,128,0,105617:0:0:0:0:
64,192,105617,1,0,1:0:0:0:
192,192,105686,1,0,1:0:0:0:
64,192,105754,1,0,1:0:0:0:
320,192,105822,1,0,1:0:0:0:
192,192,105890,1,2,0:0:0:0:
448,192,105890,1,0,1:0:0:0:
320,192,105958,1,0,1:0:0:0:
192,192,106027,128,0,106163:0:0:0:0:
64,192,106027,128,0,106163:0:0:0:0:
448,192,106163,1,0,0:0:0:0:
320,192,106163,128,8,106708:0:0:0:0:
192,192,106708,1,8,1:0:0:0:
448,192,106708,1,4,0:0:0:0:
64,192,106708,1,2,0:0:0:0:
192,192,106845,1,0,0:0:0:0:
320,192,106947,1,0,0:0:0:0:
320,192,107049,1,0,0:0:0:0:
448,192,107117,1,8,0:0:0:0:
64,192,107117,1,0,0:0:0:0:
192,192,107117,1,0,0:0:0:0:
320,192,107186,1,0,0:0:0:0:
64,192,107254,128,2,107458:0:0:0:0:
192,192,107254,128,8,107458:1:0:0:0:
448,192,107527,1,8,0:0:0:0:
64,192,107527,1,0,0:0:0:0:
320,192,107527,1,0,0:0:0:0:
192,192,107595,1,0,0:0:0:0:
320,192,107663,1,0,0:0:0:0:
448,192,107731,1,0,0:0:0:0:
192,192,107799,1,8,1:0:0:0:
64,192,107799,1,2,0:0:0:0:
320,192,107867,1,0,0:0:0:0:
64,192,107936,1,0,0:0:0:0:
448,192,108004,1,0,0:0:0:0:
192,192,108072,1,0,0:0:0:0:
320,192,108140,1,0,0:0:0:0:
64,192,108208,1,0,0:0:0:0:
192,192,108208,1,0,0:0:0:0:
448,192,108208,1,8,0:0:0:0:
320,192,108277,1,0,0:0:0:0:
448,192,108345,1,8,1:0:0:0:
64,192,108345,1,2,0:0:0:0:
192,192,108413,1,0,0:0:0:0:
320,192,108481,1,0,0:0:0:0:
64,192,108549,1,0,0:0:0:0:
192,192,108617,1,0,0:0:0:0:
448,192,108617,1,8,0:0:0:0:
320,192,108617,1,0,0:0:0:0:
64,192,108686,1,0,0:0:0:0:
448,192,108754,1,0,0:0:0:0:
320,192,108822,1,0,0:0:0:0:
64,192,108890,1,2,0:0:0:0:
192,192,108890,1,8,1:0:0:0:
320,192,108958,1,0,0:0:0:0:
448,192,109027,1,0,0:0:0:0:
192,192,109095,1,0,0:0:0:0:
64,192,109163,1,0,0:0:0:0:
320,192,109231,1,0,0:0:0:0:
192,192,109299,1,0,0:0:0:0:
64,192,109299,1,0,0:0:0:0:
448,192,109299,1,8,0:0:0:0:
320,192,109367,1,0,0:0:0:0:
192,192,109436,1,8,1:0:0:0:
64,192,109436,1,2,0:0:0:0:
448,192,109504,1,0,0:0:0:0:
320,192,109572,1,0,0:0:0:0:
192,192,109640,1,0,0:0:0:0:
320,192,109708,1,0,0:0:0:0:
64,192,109708,1,0,0:0:0:0:
448,192,109708,1,8,0:0:0:0:
192,192,109777,1,0,0:0:0:0:
448,192,109845,1,0,0:0:0:0:
64,192,109913,1,0,0:0:0:0:
192,192,109981,1,2,0:0:0:0:
320,192,109981,1,8,1:0:0:0:
448,192,110049,1,0,0:0:0:0:
192,192,110117,1,0,0:0:0:0:
320,192,110186,1,0,0:0:0:0:
64,192,110254,1,0,0:0:0:0:
192,192,110322,1,0,0:0:0:0:
448,192,110390,1,8,0:0:0:0:
64,192,110390,1,0,0:0:0:0:
320,192,110390,1,0,0:0:0:0:
192,192,110458,1,0,0:0:0:0:
448,192,110527,1,8,1:0:0:0:
320,192,110527,1,2,0:0:0:0:
64,192,110595,1,0,0:0:0:0:
192,192,110663,1,0,0:0:0:0:
320,192,110731,1,0,0:0:0:0:
192,192,110799,1,0,0:0:0:0:
448,192,110799,1,8,0:0:0:0:
64,192,110799,1,0,0:0:0:0:
320,192,110867,1,0,0:0:0:0:
64,192,110936,1,0,0:0:0:0:
192,192,111004,1,0,0:0:0:0:
320,192,111072,1,2,0:0:0:0:
448,192,111072,1,8,1:0:0:0:
320,192,111174,1,0,0:0:0:0:
192,192,111277,1,0,0:0:0:0:
64,192,111345,1,0,0:0:0:0:
64,192,111447,1,0,0:0:0:0:
320,192,111481,1,0,0:0:0:0:
448,192,111481,1,8,0:0:0:0:
192,192,111549,1,0,0:0:0:0:
64,192,111617,128,2,111822:0:0:0:0:
448,192,111617,128,8,111822:1:0:0:0:
64,192,111890,1,0,0:0:0:0:
192,192,111890,1,0,0:0:0:0:
448,192,111890,1,8,0:0:0:0:
320,192,111958,1,0,0:0:0:0:
192,192,112027,1,0,0:0:0:0:
448,192,112095,1,0,0:0:0:0:
64,192,112163,1,2,0:0:0:0:
320,192,112163,1,8,1:0:0:0:
192,192,112231,1,0,0:0:0:0:
320,192,112299,1,0,0:0:0:0:
448,192,112367,1,0,0:0:0:0:
64,192,112436,1,0,0:0:0:0:
320,192,112504,1,0,0:0:0:0:
192,192,112572,1,0,0:0:0:0:
64,192,112572,1,0,0:0:0:0:
448,192,112572,1,8,0:0:0:0:
320,192,112640,1,0,0:0:0:0:
192,192,112708,1,8,1:0:0:0:
64,192,112708,1,2,0:0:0:0:
448,192,112777,1,0,0:0:0:0:
320,192,112845,1,0,0:0:0:0:
192,192,112913,1,0,0:0:0:0:
64,192,112981,1,0,0:0:0:0:
320,192,112981,1,0,0:0:0:0:
448,192,112981,1,8,0:0:0:0:
192,192,113049,1,0,0:0:0:0:
448,192,113117,1,0,0:0:0:0:
64,192,113186,1,0,0:0:0:0:
320,192,113254,1,8,1:0:0:0:
192,192,113254,1,2,0:0:0:0:
448,192,113322,1,0,0:0:0:0:
64,192,113390,1,0,0:0:0:0:
320,192,113458,1,0,0:0:0:0:
448,192,113527,1,0,0:0:0:0:
192,192,113595,1,0,0:0:0:0:
320,192,113663,1,0,0:0:0:0:
64,192,113663,1,0,0:0:0:0:
448,192,113663,1,8,0:0:0:0:
192,192,113731,1,0,0:0:0:0:
448,192,113799,1,8,1:0:0:0:
64,192,113799,1,2,0:0:0:0:
320,192,113867,1,0,0:0:0:0:
192,192,113936,1,0,0:0:0:0:
448,192,114004,1,0,0:0:0:0:
64,192,114072,1,0,0:0:0:0:
192,192,114072,1,0,0:0:0:0:
320,192,114072,1,8,0:0:0:0:
448,192,114140,1,0,0:0:0:0:
64,192,114208,1,0,0:0:0:0:
192,192,114277,1,0,0:0:0:0:
320,192,114345,1,2,0:0:0:0:
448,192,114345,1,8,1:0:0:0:
64,192,114413,1,0,0:0:0:0:
320,192,114481,1,0,0:0:0:0:
448,192,114549,1,0,0:0:0:0:
192,192,114617,1,0,0:0:0:0:
320,192,114686,1,0,0:0:0:0:
192,192,114754,1,0,0:0:0:0:
64,192,114754,1,0,0:0:0:0:
448,192,114754,1,8,0:0:0:0:
320,192,114822,1,0,0:0:0:0:
192,192,114890,1,8,1:0:0:0:
64,192,114890,1,2,0:0:0:0:
320,192,115027,1,0,0:0:0:0:
448,192,115027,1,0,0:0:0:0:
320,192,115163,1,0,0:0:0:0:
448,192,115163,1,8,0:0:0:0:
64,192,115163,1,0,0:0:0:0:
192,192,115299,1,0,0:0:0:0:
320,192,115367,1,0,0:0:0:0:
192,192,115436,1,8,1:0:0:0:
64,192,115436,1,2,0:0:0:0:
448,192,115436,1,4,0:0:0:0:
320,192,115504,1,0,0:0:0:0:
320,192,115606,1,0,0:0:0:0:
64,192,115708,1,0,0:0:0:0:
448,192,115799,1,0,0:0:0:0:
192,192,115845,1,8,0:0:0:0:
64,192,115845,1,0,0:0:0:0:
320,192,115890,1,0,0:0:0:0:
64,192,115981,128,2,116186:0:0:0:0:
448,192,115981,128,8,116186:1:0:0:0:
64,192,116254,1,0,0:0:0:0:
320,192,116254,1,0,0:0:0:0:
448,192,116254,1,8,0:0:0:0:
192,192,116322,1,0,0:0:0:0:
320,192,116390,1,0,0:0:0:0:
448,192,116458,1,0,0:0:0:0:
64,192,116527,1,2,0:0:0:0:
192,192,116527,1,8,1:0:0:0:
320,192,116595,1,0,0:0:0:0:
192,192,116663,1,0,0:0:0:0:
448,192,116731,1,0,0:0:0:0:
64,192,116799,1,0,0:0:0:0:
320,192,116867,1,0,0:0:0:0:
192,192,116936,1,0,0:0:0:0:
64,192,116936,1,0,0:0:0:0:
448,192,116936,1,8,0:0:0:0:
320,192,117004,1,0,0:0:0:0:
192,192,117072,1,8,1:0:0:0:
64,192,117072,1,2,0:0:0:0:
448,192,117140,1,0,0:0:0:0:
320,192,117208,1,0,0:0:0:0:
192,192,117277,1,0,0:0:0:0:
320,192,117345,1,0,0:0:0:0:
448,192,117345,1,8,0:0:0:0:
64,192,117345,1,0,0:0:0:0:
192,192,117413,1,0,0:0:0:0:
448,192,117481,1,0,0:0:0:0:
64,192,117549,1,0,0:0:0:0:
192,192,117617,1,2,0:0:0:0:
320,192,117617,1,8,1:0:0:0:
448,192,117686,1,0,0:0:0:0:
192,192,117754,1,0,0:0:0:0:
320,192,117822,1,0,0:0:0:0:
64,192,117890,1,0,0:0:0:0:
448,192,117958,1,0,0:0:0:0:
64,192,118027,1,0,0:0:0:0:
320,192,118027,1,8,0:0:0:0:
192,192,118027,1,0,0:0:0:0:
448,192,118095,1,0,0:0:0:0:
192,192,118163,1,8,1:0:0:0:
64,192,118163,1,2,0:0:0:0:
320,192,118231,1,0,0:0:0:0:
448,192,118299,1,0,0:0:0:0:
192,192,118367,1,0,0:0:0:0:
64,192,118436,1,0,0:0:0:0:
320,192,118436,1,0,0:0:0:0:
448,192,118436,1,8,0:0:0:0:
192,192,118504,1,0,0:0:0:0:
320,192,118572,1,0,0:0:0:0:
448,192,118640,1,0,0:0:0:0:
64,192,118708,1,2,0:0:0:0:
192,192,118708,1,8,1:0:0:0:
320,192,118777,1,0,0:0:0:0:
64,192,118845,1,0,0:0:0:0:
448,192,118913,1,0,0:0:0:0:
192,192,118981,1,0,0:0:0:0:
320,192,119049,1,0,0:0:0:0:
448,192,119117,1,8,0:0:0:0:
192,192,119117,1,0,0:0:0:0:
64,192,119117,1,0,0:0:0:0:
320,192,119186,1,0,0:0:0:0:
448,192,119254,1,2,0:0:0:0:
64,192,119254,1,8,1:0:0:0:
192,192,119299,1,0,1:0:0:0:
320,192,119345,1,0,1:0:0:0:
64,192,119390,1,0,1:0:0:0:
192,192,119436,1,0,1:0:0:0:
320,192,119481,1,0,1:0:0:0:
192,192,119527,1,8,0:0:0:0:
64,192,119527,1,0,1:0:0:0:
448,192,119595,1,0,0:0:0:0:
64,192,119663,1,0,0:0:0:0:
192,192,119731,1,0,0:0:0:0:
320,192,119799,1,2,0:0:0:0:
448,192,119799,1,8,1:0:0:0:
64,192,119867,1,0,0:0:0:0:
320,192,119936,1,0,0:0:0:0:
192,192,120004,1,0,0:0:0:0:
64,192,120072,1,0,0:0:0:0:
320,192,120140,1,0,0:0:0:0:
448,192,120208,1,8,0:0:0:0:
192,192,120208,1,0,0:0:0:0:
64,192,120208,1,0,0:0:0:0:
320,192,120277,1,0,0:0:0:0:
192,192,120345,1,8,1:0:0:0:
64,192,120345,1,2,0:0:0:0:
448,192,120413,1,0,0:0:0:0:
320,192,120481,1,0,0:0:0:0:
192,192,120549,1,0,0:0:0:0:
64,192,120617,1,0,0:0:0:0:
320,192,120617,1,0,0:0:0:0:
448,192,120617,1,8,0:0:0:0:
192,192,120686,1,0,0:0:0:0:
448,192,120754,1,0,0:0:0:0:
320,192,120822,1,0,0:0:0:0:
192,192,120890,1,8,1:0:0:0:
64,192,120890,1,2,0:0:0:0:
448,192,120958,1,0,0:0:0:0:
64,192,121027,1,0,0:0:0:0:
320,192,121095,1,0,0:0:0:0:
192,192,121163,1,0,0:0:0:0:
448,192,121231,1,0,0:0:0:0:
320,192,121299,1,8,0:0:0:0:
192,192,121299,1,0,0:0:0:0:
64,192,121299,1,0,0:0:0:0:
448,192,121367,1,0,0:0:0:0:
192,192,121436,1,8,1:0:0:0:
64,192,121436,1,2,0:0:0:0:
320,192,121504,1,0,0:0:0:0:
448,192,121572,1,0,0:0:0:0:
192,192,121640,1,0,0:0:0:0:
64,192,121708,1,0,0:0:0:0:
320,192,121708,1,0,0:0:0:0:
448,192,121708,1,8,0:0:0:0:
192,192,121777,1,0,0:0:0:0:
320,192,121845,1,0,0:0:0:0:
448,192,121913,1,0,0:0:0:0:
64,192,121981,1,2,0:0:0:0:
192,192,122015,1,0,0:0:0:0:
320,192,122049,1,0,0:0:0:0:
448,192,122083,1,0,0:0:0:0:
64,192,122117,1,0,0:0:0:0:
192,192,122152,1,0,0:0:0:0:
320,192,122186,1,0,0:0:0:0:
448,192,122220,1,0,0:0:0:0:
64,192,122254,1,0,0:0:0:0:
192,192,122288,1,0,0:0:0:0:
320,192,122322,1,0,0:0:0:0:
448,192,122356,1,0,0:0:0:0:
64,192,122390,1,8,0:0:0:0:
192,192,122424,1,0,0:0:0:0:
320,192,122458,1,0,0:0:0:0:
448,192,122492,1,0,0:0:0:0:
64,192,122527,1,2,0:0:0:0:
192,192,122561,1,0,0:0:0:0:
320,192,122595,1,0,0:0:0:0:
448,192,122629,1,0,0:0:0:0:
64,192,122663,1,0,0:0:0:0:
192,192,122697,1,0,0:0:0:0:
320,192,122731,1,0,0:0:0:0:
448,192,122765,1,0,0:0:0:0:
64,192,122799,1,8,0:0:0:0:
192,192,122833,1,0,0:0:0:0:
320,192,122867,1,0,0:0:0:0:
448,192,122902,1,0,0:0:0:0:
64,192,122936,1,0,0:0:0:0:
192,192,122970,1,0,0:0:0:0:
320,192,123004,1,0,0:0:0:0:
448,192,123038,1,0,0:0:0:0:
192,192,123072,1,2,0:0:0:0:
64,192,123106,1,0,0:0:0:0:
448,192,123140,1,0,0:0:0:0:
320,192,123174,1,0,0:0:0:0:
192,192,123208,1,0,0:0:0:0:
64,192,123242,1,0,0:0:0:0:
448,192,123277,1,0,0:0:0:0:
320,192,123311,1,0,0:0:0:0:
192,192,123345,1,0,0:0:0:0:
64,192,123379,1,0,0:0:0:0:
448,192,123413,1,0,0:0:0:0:
320,192,123447,1,0,0:0:0:0:
192,192,123481,1,8,0:0:0:0:
64,192,123515,1,0,0:0:0:0:
448,192,123549,1,0,0:0:0:0:
320,192,123583,1,0,0:0:0:0:
192,192,123617,1,0,0:0:0:0:
64,192,123617,128,2,124163:0:0:0:0:
192,192,124163,1,2,1:0:0:0:
320,192,124163,128,0,126481:0:0:0:0:
448,192,124163,128,4,126481:0:0:0:0:
64,192,126481,128,0,127572:0:0:0:0:
192,192,126481,128,0,128595:0:0:0:0:
320,192,127572,128,0,128595:0:0:0:0:
64,192,128595,128,0,130845:0:0:0:0:
448,192,128595,128,0,129754:0:0:0:0:
320,192,129754,128,0,130845:0:0:0:0:
192,192,130845,128,0,132958:0:0:0:0:
448,192,130845,128,0,131867:0:0:0:0:
64,192,131867,128,0,134049:0:0:0:0:
320,192,132958,128,0,135208:0:0:0:0:
192,192,134049,128,0,135208:0:0:0:0:
64,192,135208,128,0,137322:0:0:0:0:
448,192,135208,128,0,136231:0:0:0:0:
192,192,136231,128,0,137322:0:0:0:0:
320,192,137322,128,0,139504:0:0:0:0:
448,192,137322,128,0,139504:0:0:0:0:
64,192,139504,128,0,140049:0:0:0:0:
192,192,139504,128,0,140595:0:0:0:0:
448,192,140049,128,0,140595:0:0:0:0:
320,192,140595,128,0,141140:0:0:0:0:
64,192,140595,128,0,141617:0:0:0:0:
192,192,141140,128,0,141617:0:0:0:0:
320,192,141617,1,0,0:0:0:0:
64,192,141754,1,0,0:0:0:0:
448,192,141890,1,0,0:0:0:0:
192,192,142027,1,0,0:0:0:0:
320,192,142163,1,0,0:0:0:0:
64,192,142299,1,0,0:0:0:0:
192,192,142436,1,0,0:0:0:0:
448,192,142572,1,0,0:0:0:0:
320,192,142708,1,0,0:0:0:0:
64,192,142845,1,0,0:0:0:0:
448,192,142981,1,0,0:0:0:0:
192,192,143117,1,0,0:0:0:0:
320,192,143254,1,0,0:0:0:0:
64,192,143390,1,0,0:0:0:0:
192,192,143527,1,0,0:0:0:0:
448,192,143663,1,0,0:0:0:0:
64,192,143799,1,0,0:0:0:0:
320,192,143936,1,0,0:0:0:0:
192,192,144072,1,0,0:0:0:0:
448,192,144208,1,0,0:0:0:0:
64,192,144345,1,0,0:0:0:0:
192,192,144481,1,0,0:0:0:0:
320,192,144617,1,0,0:0:0:0:
192,192,144754,1,0,0:0:0:0:
448,192,144890,1,0,0:0:0:0:
64,192,145027,1,0,0:0:0:0:
320,192,145163,1,0,0:0:0:0:
448,192,145299,1,0,0:0:0:0:
192,192,145436,1,0,0:0:0:0:
64,192,145572,1,0,0:0:0:0:
320,192,145708,1,0,0:0:0:0:
192,192,145845,1,0,0:0:0:0:
64,192,145981,1,0,0:0:0:0:
320,192,146117,1,0,0:0:0:0:
192,192,146254,1,0,0:0:0:0:
320,192,146390,1,0,0:0:0:0:
448,192,146527,1,0,0:0:0:0:
192,192,146663,1,0,0:0:0:0:
320,192,146799,1,0,0:0:0:0:
64,192,146936,1,0,0:0:0:0:
192,192,147072,1,0,0:0:0:0:
320,192,147208,1,0,0:0:0:0:
448,192,147345,1,0,0:0:0:0:
64,192,147481,1,0,0:0:0:0:
320,192,147617,1,0,0:0:0:0:
192,192,147754,1,0,0:0:0:0:
64,192,147890,1,0,0:0:0:0:
320,192,148027,1,0,0:0:0:0:
448,192,148163,1,0,0:0:0:0:
192,192,148299,1,0,0:0:0:0:
320,192,148436,1,0,0:0:0:0:
64,192,148572,1,0,0:0:0:0:
192,192,148708,1,0,0:0:0:0:
448,192,148845,1,0,0:0:0:0:
64,192,148981,1,0,0:0:0:0:
320,192,149117,1,0,0:0:0:0:
192,192,149254,1,0,0:0:0:0:
64,192,149390,1,0,0:0:0:0:
448,192,149527,1,0,0:0:0:0:
320,192,149663,1,0,0:0:0:0:
64,192,149799,1,0,0:0:0:0:
448,192,149936,1,0,0:0:0:0:
320,192,150072,1,0,0:0:0:0:
192,192,150208,1,0,0:0:0:0:
320,192,150345,1,0,0:0:0:0:
64,192,150481,1,0,0:0:0:0:
192,192,150617,1,0,0:0:0:0:
320,192,150754,1,0,0:0:0:0:
448,192,150890,1,0,0:0:0:0:
64,192,151027,1,0,0:0:0:0:
320,192,151163,1,0,0:0:0:0:
192,192,151299,1,0,0:0:0:0:
64,192,151436,1,0,0:0:0:0:
192,192,151572,1,0,0:0:0:0:
320,192,151708,1,0,0:0:0:0:
64,192,151845,1,0,0:0:0:0:
448,192,151981,1,0,0:0:0:0:
192,192,152117,1,0,0:0:0:0:
448,192,152254,1,0,0:0:0:0:
64,192,152390,1,0,0:0:0:0:
192,192,152527,1,0,0:0:0:0:
448,192,152663,1,0,0:0:0:0:
320,192,152799,1,0,0:0:0:0:
192,192,152936,1,0,0:0:0:0:
448,192,153072,1,0,0:0:0:0:
64,192,153208,1,0,0:0:0:0:
320,192,153345,1,0,0:0:0:0:
192,192,153481,1,0,0:0:0:0:
448,192,153617,1,0,0:0:0:0:
64,192,153754,1,0,0:0:0:0:
320,192,153890,1,0,0:0:0:0:
64,192,154027,1,0,0:0:0:0:
448,192,154163,1,0,0:0:0:0:
192,192,154299,1,0,0:0:0:0:
320,192,154436,1,0,0:0:0:0:
64,192,154572,1,0,0:0:0:0:
192,192,154708,1,0,0:0:0:0:
320,192,154845,1,0,0:0:0:0:
448,192,154981,1,0,0:0:0:0:
64,192,155117,1,0,0:0:0:0:
320,192,155254,1,0,0:0:0:0:
192,192,155390,1,0,0:0:0:0:
64,192,155527,1,0,0:0:0:0:
320,192,155663,1,0,0:0:0:0:
448,192,155799,1,0,0:0:0:0:
192,192,155936,1,0,0:0:0:0:
320,192,156072,1,0,0:0:0:0:
448,192,156208,1,0,0:0:0:0:
192,192,156345,1,0,0:0:0:0:
64,192,156481,1,0,0:0:0:0:
320,192,156617,1,0,0:0:0:0:
192,192,156754,1,0,0:0:0:0:
64,192,156890,1,0,0:0:0:0:
448,192,156890,128,0,159072:0:0:0:0:
192,192,157299,1,0,0:0:0:0:
192,192,157436,1,0,0:0:0:0:
64,192,159072,1,2,1:0:0:0:
192,192,159072,1,0,0:0:0:0:
320,192,159072,1,0,0:0:0:0:
448,192,159345,128,0,159481:0:0:0:0:
64,192,159481,1,0,0:0:0:0:
192,192,159549,1,0,0:0:0:0:
320,192,159617,128,0,159754:0:0:0:0:
64,192,159754,1,0,0:0:0:0:
192,192,159890,128,0,160027:0:0:0:0:
448,192,159890,1,2,1:0:0:0:
320,192,160027,1,0,0:0:0:0:
64,192,160163,128,0,160299:0:0:0:0:
192,192,160299,1,0,0:0:0:0:
320,192,160436,128,0,160572:0:0:0:0:
448,192,160436,1,2,1:0:0:0:
64,192,160572,1,0,0:0:0:0:
192,192,160708,128,0,160845:0:0:0:0:
320,192,160845,1,0,0:0:0:0:
448,192,160981,128,0,161117:0:0:0:0:
192,192,161117,1,0,0:0:0:0:
320,192,161254,128,0,161390:0:0:0:0:
448,192,161254,1,2,1:0:0:0:
64,192,161390,1,0,0:0:0:0:
192,192,161527,128,0,161663:0:0:0:0:
448,192,161663,1,0,0:0:0:0:
64,192,161799,128,0,161936:0:0:0:0:
192,192,161936,1,0,0:0:0:0:
320,192,162072,128,0,162208:0:0:0:0:
448,192,162072,1,2,1:0:0:0:
64,192,162208,1,0,0:0:0:0:
448,192,162345,128,0,162481:0:0:0:0:
192,192,162481,1,0,0:0:0:0:
320,192,162617,128,0,162754:0:0:0:0:
64,192,162617,1,2,1:0:0:0:
448,192,162754,1,0,0:0:0:0:
64,192,162890,128,0,163027:0:0:0:0:
448,192,163027,1,0,0:0:0:0:
320,192,163027,1,0,0:0:0:0:
192,192,163163,128,0,163299:0:0:0:0:
320,192,163299,1,0,0:0:0:0:
448,192,163299,1,0,0:0:0:0:
320,192,163436,1,0,0:0:0:0:
192,192,163436,1,2,1:0:0:0:
64,192,163572,1,0,0:0:0:0:
448,192,163708,128,0,163845:0:0:0:0:
192,192,163845,1,0,0:0:0:0:
64,192,163913,1,0,0:0:0:0:
320,192,163981,128,0,164117:0:0:0:0:
448,192,164117,1,0,0:0:0:0:
64,192,164254,128,0,164390:0:0:0:0:
192,192,164254,1,2,1:0:0:0:
320,192,164390,1,0,0:0:0:0:
448,192,164527,128,0,164663:0:0:0:0:
64,192,164663,1,0,0:0:0:0:
192,192,164799,128,0,164936:0:0:0:0:
448,192,164799,1,2,1:0:0:0:
320,192,164936,1,0,0:0:0:0:
64,192,165072,128,0,165208:0:0:0:0:
192,192,165208,1,0,0:0:0:0:
320,192,165345,128,0,165481:0:0:0:0:
192,192,165481,1,0,0:0:0:0:
448,192,165617,128,0,165754:0:0:0:0:
64,192,165617,1,2,1:0:0:0:
320,192,165754,1,0,0:0:0:0:
192,192,165890,128,0,166027:0:0:0:0:
448,192,166027,1,0,0:0:0:0:
64,192,166163,128,0,166299:0:0:0:0:
192,192,166299,1,0,0:0:0:0:
320,192,166436,128,0,166572:0:0:0:0:
448,192,166436,1,2,1:0:0:0:
64,192,166572,1,0,0:0:0:0:
192,192,166708,128,0,166845:0:0:0:0:
448,192,166845,1,0,0:0:0:0:
64,192,166981,128,0,167117:0:0:0:0:
192,192,166981,1,2,1:0:0:0:
320,192,167117,128,0,167254:0:0:0:0:
448,192,167254,128,0,167390:0:0:0:0:
192,192,167390,128,0,167527:0:0:0:0:
64,192,167390,1,0,0:0:0:0:
320,192,167527,128,0,167663:0:0:0:0:
192,192,167663,1,0,0:0:0:0:
64,192,167663,128,0,167799:0:0:0:0:
192,192,167799,1,2,1:0:0:0:
320,192,167799,1,0,0:0:0:0:
64,192,167936,1,0,0:0:0:0:
448,192,168072,128,0,168208:0:0:0:0:
192,192,168208,1,0,0:0:0:0:
64,192,168277,1,0,0:0:0:0:
320,192,168345,128,0,168481:0:0:0:0:
64,192,168481,1,0,0:0:0:0:
192,192,168617,128,0,168754:0:0:0:0:
448,192,168617,1,2,1:0:0:0:
320,192,168754,1,0,0:0:0:0:
64,192,168890,128,0,169027:0:0:0:0:
192,192,169027,1,0,0:0:0:0:
320,192,169163,128,0,169299:0:0:0:0:
448,192,169163,1,2,1:0:0:0:
64,192,169299,1,0,0:0:0:0:
192,192,169436,128,0,169572:0:0:0:0:
320,192,169572,1,0,0:0:0:0:
448,192,169708,128,0,169845:0:0:0:0:
192,192,169845,1,0,0:0:0:0:
64,192,169981,1,2,1:0:0:0:
320,192,169981,128,0,170117:0:0:0:0:
448,192,170117,1,0,0:0:0:0:
192,192,170254,128,0,170390:0:0:0:0:
320,192,170390,1,0,0:0:0:0:
64,192,170527,128,0,170663:0:0:0:0:
192,192,170663,1,0,0:0:0:0:
320,192,170799,128,0,170936:0:0:0:0:
448,192,170799,1,2,1:0:0:0:
64,192,170936,1,0,0:0:0:0:
448,192,171072,128,0,171208:0:0:0:0:
192,192,171208,1,0,0:0:0:0:
320,192,171345,128,0,171481:0:0:0:0:
64,192,171345,1,2,1:0:0:0:
448,192,171481,1,0,0:0:0:0:
64,192,171617,128,0,171754:0:0:0:0:
320,192,171754,1,0,0:0:0:0:
448,192,171754,1,0,0:0:0:0:
192,192,171890,128,0,172027:0:0:0:0:
320,192,172027,1,0,0:0:0:0:
448,192,172027,1,0,0:0:0:0:
64,192,172163,1,2,1:0:0:0:
320,192,172163,1,0,0:0:0:0:
192,192,172299,1,0,0:0:0:0:
448,192,172436,128,0,172572:0:0:0:0:
64,192,172572,1,0,0:0:0:0:
192,192,172640,1,0,0:0:0:0:
320,192,172708,128,0,172845:0:0:0:0:
64,192,172845,1,0,0:0:0:0:
192,192,172981,128,0,173117:0:0:0:0:
448,192,172981,1,2,1:0:0:0:
320,192,173117,1,0,0:0:0:0:
64,192,173254,128,0,173390:0:0:0:0:
192,192,173390,1,0,0:0:0:0:
320,192,173527,128,0,173663:0:0:0:0:
448,192,173527,1,2,1:0:0:0:
64,192,173663,1,0,0:0:0:0:
192,192,173799,128,0,173936:0:0:0:0:
448,192,173936,1,0,0:0:0:0:
320,192,174072,128,0,174208:0:0:0:0:
64,192,174208,1,0,0:0:0:0:
448,192,174345,128,0,174481:0:0:0:0:
192,192,174345,128,2,174617:1:0:0:0:
64,192,174481,128,0,174617:0:0:0:0:
320,192,174617,128,0,174890:0:0:0:0:
192,192,174754,128,0,175027:0:0:0:0:
64,192,174890,128,0,175299:0:0:0:0:
320,192,175027,128,0,175163:0:0:0:0:
448,192,175163,128,2,175299:1:0:0:0:
192,192,175163,128,0,175299:0:0:0:0:
320,192,175299,1,0,0:0:0:0:
64,192,175436,1,2,0:0:0:0:
192,192,175436,1,0,0:0:0:0:
448,192,175504,1,2,0:0:0:0:
192,192,175572,1,2,1:0:0:0:
64,192,175572,1,0,0:0:0:0:
320,192,175572,1,0,0:0:0:0:
320,192,175708,1,0,0:0:0:0:
448,192,175708,1,8,0:0:0:0:
64,192,175708,1,0,0:0:0:0:
448,192,175845,1,0,0:0:0:0:
192,192,175845,1,2,0:0:0:0:
320,192,175913,1,2,0:0:0:0:
192,192,175981,1,0,0:0:0:0:
448,192,175981,1,8,0:0:0:0:
64,192,175981,1,0,0:0:0:0:
64,192,176117,1,2,0:0:0:0:
320,192,176117,1,0,0:0:0:0:
192,192,176186,1,0,0:0:0:0:
64,192,176254,1,0,0:0:0:0:
448,192,176254,1,0,0:0:0:0:
320,192,176254,1,2,1:0:0:0:
64,192,176390,1,2,0:0:0:0:
192,192,176390,1,0,0:0:0:0:
448,192,176527,1,4,0:0:0:0:
192,192,176527,1,0,0:0:0:0:
64,192,176527,1,2,0:0:0:0:
320,192,176595,1,0,0:0:0:0:
448,192,176663,1,0,0:0:0:0:
192,192,176731,1,0,0:0:0:0:
64,192,176799,1,2,0:0:0:0:
320,192,176799,1,0,0:0:0:0:
320,192,176936,1,0,0:0:0:0:
192,192,177072,1,0,0:0:0:0:
64,192,177072,1,2,0:0:0:0:
64,192,177208,1,0,0:0:0:0:
320,192,177345,1,2,0:0:0:0:
448,192,177345,1,0,0:0:0:0:
192,192,177413,1,0,0:0:0:0:
320,192,177481,1,0,0:0:0:0:
192,192,177549,1,0,0:0:0:0:
64,192,177617,1,2,0:0:0:0:
448,192,177617,1,0,0:0:0:0:
448,192,177754,1,0,0:0:0:0:
448,192,177890,1,0,0:0:0:0:
192,192,177890,1,2,0:0:0:0:
448,192,178027,1,0,0:0:0:0:
448,192,178163,1,0,0:0:0:0:
64,192,178163,1,2,0:0:0:0:
448,192,178299,1,0,0:0:0:0:
448,192,178436,1,0,0:0:0:0:
320,192,178436,1,2,0:0:0:0:
448,192,178572,1,0,0:0:0:0:
64,192,178708,1,2,0:0:0:0:
192,192,178708,1,0,0:0:0:0:
320,192,178777,1,0,0:0:0:0:
192,192,178845,1,0,0:0:0:0:
448,192,178913,1,0,0:0:0:0:
320,192,178981,1,0,0:0:0:0:
64,192,178981,1,2,0:0:0:0:
64,192,179117,1,0,0:0:0:0:
192,192,179254,1,2,0:0:0:0:
448,192,179254,1,0,0:0:0:0:
448,192,179390,1,0,0:0:0:0:
64,192,179527,1,2,0:0:0:0:
192,192,179527,1,0,0:0:0:0:
320,192,179595,1,0,0:0:0:0:
448,192,179663,1,0,0:0:0:0:
192,192,179731,1,0,0:0:0:0:
64,192,179799,1,0,0:0:0:0:
448,192,179799,1,2,0:0:0:0:
64,192,179936,1,0,0:0:0:0:
64,192,180072,1,0,0:0:0:0:
320,192,180072,1,2,0:0:0:0:
64,192,180208,1,0,0:0:0:0:
64,192,180345,1,0,0:0:0:0:
192,192,180345,1,2,0:0:0:0:
64,192,180481,1,0,0:0:0:0:
64,192,180617,1,0,0:0:0:0:
448,192,180617,1,2,0:0:0:0:
64,192,180754,1,0,0:0:0:0:
320,192,180890,1,2,0:0:0:0:
448,192,180890,1,0,0:0:0:0:
192,192,180958,1,0,0:0:0:0:
64,192,181027,1,0,0:0:0:0:
192,192,181095,1,0,0:0:0:0:
320,192,181163,1,2,0:0:0:0:
448,192,181163,1,0,0:0:0:0:
320,192,181299,1,0,0:0:0:0:
192,192,181436,1,0,0:0:0:0:
64,192,181436,1,2,0:0:0:0:
64,192,181572,1,0,0:0:0:0:
192,192,181708,1,2,0:0:0:0:
448,192,181708,1,0,0:0:0:0:
320,192,181777,1,0,0:0:0:0:
192,192,181845,1,0,0:0:0:0:
64,192,181913,1,0,0:0:0:0:
320,192,181981,1,0,0:0:0:0:
448,192,181981,1,2,0:0:0:0:
320,192,182117,1,0,0:0:0:0:
320,192,182254,1,0,0:0:0:0:
192,192,182254,1,2,0:0:0:0:
320,192,182390,1,0,0:0:0:0:
64,192,182527,1,2,0:0:0:0:
320,192,182527,1,0,0:0:0:0:
320,192,182663,1,0,0:0:0:0:
320,192,182799,1,0,0:0:0:0:
448,192,182799,1,2,0:0:0:0:
320,192,182936,1,0,0:0:0:0:
192,192,183072,1,0,0:0:0:0:
64,192,183072,1,2,0:0:0:0:
448,192,183140,1,0,0:0:0:0:
64,192,183208,1,0,0:0:0:0:
320,192,183277,1,0,0:0:0:0:
192,192,183345,1,2,0:0:0:0:
448,192,183345,1,0,0:0:0:0:
192,192,183481,1,0,0:0:0:0:
320,192,183617,1,0,0:0:0:0:
64,192,183617,1,2,0:0:0:0:
320,192,183754,1,0,0:0:0:0:
64,192,183890,1,2,0:0:0:0:
448,192,183890,1,0,0:0:0:0:
192,192,183958,1,0,0:0:0:0:
320,192,184027,1,0,0:0:0:0:
64,192,184095,1,0,0:0:0:0:
192,192,184163,1,0,0:0:0:0:
448,192,184163,1,2,0:0:0:0:
192,192,184299,1,0,0:0:0:0:
192,192,184436,1,0,0:0:0:0:
64,192,184436,1,2,0:0:0:0:
192,192,184572,1,0,0:0:0:0:
320,192,184572,1,0,0:0:0:0:
192,192,184708,1,0,0:0:0:0:
448,192,184708,1,2,0:0:0:0:
192,192,184845,1,0,0:0:0:0:
320,192,184845,1,0,0:0:0:0:
192,192,184981,1,0,0:0:0:0:
64,192,184981,1,2,0:0:0:0:
192,192,185117,1,0,0:0:0:0:
64,192,185254,1,2,1:0:0:0:
320,192,185254,1,0,0:0:0:0:
448,192,185254,1,4,0:0:0:0:
192,192,185390,1,2,1:0:0:0:
448,192,185390,1,0,0:0:0:0:
448,192,185527,1,0,0:0:0:0:
320,192,185527,1,0,0:0:0:0:
64,192,185527,1,2,0:0:0:0:
192,192,185663,1,2,1:0:0:0:
320,192,185663,1,0,0:0:0:0:
64,192,185799,1,2,0:0:0:0:
320,192,185799,1,0,0:0:0:0:
448,192,185799,1,0,0:0:0:0:
448,192,185936,1,0,0:0:0:0:
192,192,185936,1,2,1:0:0:0:
64,192,186072,1,2,0:0:0:0:
320,192,186072,1,0,0:0:0:0:
448,192,186072,1,0,0:0:0:0:
320,192,186208,1,0,0:0:0:0:
192,192,186208,1,2,1:0:0:0:
192,192,186345,1,0,0:0:0:0:
64,192,186345,1,0,0:0:0:0:
448,192,186345,1,2,0:0:0:0:
64,192,186481,1,0,0:0:0:0:
320,192,186481,1,2,1:0:0:0:
448,192,186617,1,2,0:0:0:0:
192,192,186617,1,0,0:0:0:0:
64,192,186617,1,0,0:0:0:0:
320,192,186754,1,2,1:0:0:0:
192,192,186754,1,0,0:0:0:0:
192,192,186890,1,0,0:0:0:0:
64,192,186890,1,0,0:0:0:0:
448,192,186890,1,2,0:0:0:0:
64,192,187027,1,0,0:0:0:0:
320,192,187027,1,2,1:0:0:0:
192,192,187163,1,0,0:0:0:0:
448,192,187163,1,2,0:0:0:0:
64,192,187163,1,0,0:0:0:0:
320,192,187299,1,2,1:0:0:0:
192,192,187299,1,0,0:0:0:0:
320,192,187436,1,0,0:0:0:0:
448,192,187436,1,0,0:0:0:0:
64,192,187436,1,2,0:0:0:0:
192,192,187572,1,2,1:0:0:0:
64,192,187572,1,0,0:0:0:0:
64,192,187708,1,2,0:0:0:0:
448,192,187708,1,0,0:0:0:0:
192,192,187708,1,0,0:0:0:0:
320,192,187845,1,2,1:0:0:0:
448,192,187845,1,0,0:0:0:0:
448,192,187981,1,0,0:0:0:0:
320,192,187981,1,0,0:0:0:0:
64,192,187981,1,2,0:0:0:0:
64,192,188117,1,0,0:0:0:0:
192,192,188117,1,2,1:0:0:0:
64,192,188254,1,2,0:0:0:0:
192,192,188254,1,0,0:0:0:0:
448,192,188254,1,0,0:0:0:0:
448,192,188390,1,0,0:0:0:0:
320,192,188390,1,2,1:0:0:0:
320,192,188527,1,0,0:0:0:0:
448,192,188527,1,2,0:0:0:0:
64,192,188527,1,0,0:0:0:0:
192,192,188663,1,2,1:0:0:0:
64,192,188663,1,0,0:0:0:0:
320,192,188799,1,0,0:0:0:0:
448,192,188799,1,2,0:0:0:0:
64,192,188799,1,0,0:0:0:0:
192,192,188936,1,2,1:0:0:0:
448,192,188936,1,0,0:0:0:0:
320,192,189072,1,0,0:0:0:0:
64,192,189072,1,0,0:0:0:0:
448,192,189072,1,2,0:0:0:0:
320,192,189208,1,2,1:0:0:0:
192,192,189208,1,0,0:0:0:0:
64,192,189345,1,0,0:0:0:0:
192,192,189345,1,0,0:0:0:0:
448,192,189345,1,2,0:0:0:0:
448,192,189481,1,0,0:0:0:0:
320,192,189481,1,2,1:0:0:0:
64,192,189617,5,4,0:0:0:0:
192,192,189652,1,0,0:0:0:0:
448,192,189686,1,0,0:0:0:0:
320,192,189720,1,0,0:0:0:0:
64,192,189754,1,0,0:0:0:0:
192,192,189788,1,0,0:0:0:0:
448,192,189822,1,0,0:0:0:0:
320,192,189856,1,0,0:0:0:0:
64,192,189890,1,2,1:0:0:0:
192,192,189924,1,0,0:0:0:0:
448,192,189958,1,0,0:0:0:0:
320,192,189992,1,0,0:0:0:0:
64,192,190027,1,0,0:0:0:0:
192,192,190061,1,0,0:0:0:0:
448,192,190095,1,0,0:0:0:0:
320,192,190129,1,0,0:0:0:0:
64,192,190163,1,2,1:0:0:0:
192,192,190197,1,0,0:0:0:0:
448,192,190231,1,0,0:0:0:0:
320,192,190265,1,0,0:0:0:0:
64,192,190299,1,0,0:0:0:0:
192,192,190333,1,0,0:0:0:0:
448,192,190367,1,0,0:0:0:0:
320,192,190402,1,0,0:0:0:0:
64,192,190436,1,2,1:0:0:0:
192,192,190470,1,0,0:0:0:0:
448,192,190504,1,2,1:0:0:0:
320,192,190538,1,0,0:0:0:0:
64,192,190572,1,2,1:0:0:0:
192,192,190606,1,0,0:0:0:0:
448,192,190640,1,2,1:0:0:0:
320,192,190674,1,0,0:0:0:0:
64,192,190708,1,2,1:0:0:0:
192,192,190742,1,0,0:0:0:0:
320,192,190777,1,0,0:0:0:0:
448,192,190811,1,0,0:0:0:0:
64,192,190845,1,0,0:0:0:0:
192,192,190879,1,0,0:0:0:0:
320,192,190913,1,0,0:0:0:0:
448,192,190947,1,0,0:0:0:0:
64,192,190981,1,2,1:0:0:0:
192,192,191015,1,0,0:0:0:0:
320,192,191049,1,0,0:0:0:0:
448,192,191083,1,0,0:0:0:0:
64,192,191117,1,0,0:0:0:0:
192,192,191152,1,0,0:0:0:0:
320,192,191186,1,0,0:0:0:0:
448,192,191220,1,0,0:0:0:0:
64,192,191254,1,2,1:0:0:0:
192,192,191288,1,0,0:0:0:0:
320,192,191322,1,0,0:0:0:0:
448,192,191356,1,0,0:0:0:0:
64,192,191390,1,0,0:0:0:0:
192,192,191424,1,0,0:0:0:0:
320,192,191458,1,0,0:0:0:0:
448,192,191492,1,0,0:0:0:0:
64,192,191527,1,2,1:0:0:0:
192,192,191561,1,0,0:0:0:0:
320,192,191595,1,2,1:0:0:0:
448,192,191629,1,0,0:0:0:0:
64,192,191663,1,2,1:0:0:0:
192,192,191697,1,0,0:0:0:0:
320,192,191731,1,2,1:0:0:0:
448,192,191765,1,0,0:0:0:0:
192,192,191799,1,2,1:0:0:0:
64,192,191833,1,0,0:0:0:0:
320,192,191867,1,0,0:0:0:0:
448,192,191902,1,0,0:0:0:0:
192,192,191936,1,0,0:0:0:0:
64,192,191970,1,0,0:0:0:0:
320,192,192004,1,0,0:0:0:0:
448,192,192038,1,0,0:0:0:0:
192,192,192072,1,0,0:0:0:0:
64,192,192106,1,0,0:0:0:0:
320,192,192140,1,0,0:0:0:0:
448,192,192174,1,0,0:0:0:0:
192,192,192208,1,0,0:0:0:0:
64,192,192242,1,0,0:0:0:0:
320,192,192277,1,0,0:0:0:0:
448,192,192311,1,0,0:0:0:0:
192,192,192345,1,0,0:0:0:0:
64,192,192379,1,0,0:0:0:0:
320,192,192413,1,0,0:0:0:0:
448,192,192447,1,0,0:0:0:0:
192,192,192481,1,0,0:0:0:0:
64,192,192515,1,0,0:0:0:0:
320,192,192549,1,0,0:0:0:0:
448,192,192583,1,0,0:0:0:0:
192,192,192617,1,0,0:0:0:0:
64,192,192652,1,0,0:0:0:0:
320,192,192686,1,0,0:0:0:0:
448,192,192720,1,0,0:0:0:0:
192,192,192754,1,0,0:0:0:0:
64,192,192788,1,0,0:0:0:0:
320,192,192822,1,0,0:0:0:0:
448,192,192856,1,0,0:0:0:0:
64,192,192890,1,0,0:0:0:0:
192,192,192924,1,0,0:0:0:0:
448,192,192958,1,0,0:0:0:0:
320,192,192992,1,0,0:0:0:0:
192,192,193027,1,0,0:0:0:0:
64,192,193061,1,0,0:0:0:0:
448,192,193095,1,0,0:0:0:0:
320,192,193129,1,0,0:0:0:0:
64,192,193163,1,0,0:0:0:0:
192,192,193197,1,0,0:0:0:0:
320,192,193231,1,0,0:0:0:0:
448,192,193265,1,0,0:0:0:0:
64,192,193299,1,0,0:0:0:0:
192,192,193333,1,0,0:0:0:0:
448,192,193367,1,0,0:0:0:0:
320,192,193402,1,0,0:0:0:0:
64,192,193436,128,0,193913:0:0:0:0:
192,192,193436,128,0,193572:0:0:0:0:
448,192,193572,128,0,193913:0:0:0:0:
320,192,193708,128,0,193913:0:0:0:0:
192,192,193708,128,0,193913:0:0:0:0:
64,192,193981,1,2,1:0:0:0:
192,192,193981,1,0,0:0:0:0:
320,192,193981,1,0,0:0:0:0:
448,192,193981,1,4,0:0:0:0:
320,192,194117,1,0,0:0:0:0:
448,192,194117,1,0,0:0:0:0:
64,192,194117,1,2,1:0:0:0:
64,192,194254,1,0,0:0:0:0:
192,192,194254,1,0,0:0:0:0:
448,192,194254,128,2,194527:0:0:0:0:
192,192,194390,1,0,0:0:0:0:
320,192,194527,128,2,194799:1:0:0:0:
64,192,194527,1,0,0:0:0:0:
192,192,194663,1,0,0:0:0:0:
192,192,194799,128,2,195072:0:0:0:0:
64,192,194799,1,0,0:0:0:0:
448,192,194799,1,0,0:0:0:0:
448,192,194936,1,0,0:0:0:0:
64,192,195072,128,2,195345:1:0:0:0:
320,192,195072,1,0,0:0:0:0:
192,192,195208,1,0,0:0:0:0:
320,192,195345,128,2,195617:0:0:0:0:
192,192,195345,1,0,0:0:0:0:
448,192,195345,1,0,0:0:0:0:
448,192,195481,1,0,0:0:0:0:
192,192,195617,128,2,195890:1:0:0:0:
64,192,195617,1,0,0:0:0:0:
320,192,195754,1,0,0:0:0:0:
448,192,195890,128,2,196163:0:0:0:0:
64,192,195890,1,0,0:0:0:0:
320,192,195890,1,0,0:0:0:0:
192,192,196027,1,0,0:0:0:0:
320,192,196163,128,2,196436:1:0:0:0:
192,192,196163,1,0,0:0:0:0:
64,192,196299,1,0,0:0:0:0:
192,192,196436,128,2,196708:0:0:0:0:
448,192,196436,1,0,0:0:0:0:
64,192,196436,1,0,0:0:0:0:
320,192,196572,1,0,0:0:0:0:
64,192,196708,128,2,196981:1:0:0:0:
320,192,196708,1,0,0:0:0:0:
448,192,196845,1,0,0:0:0:0:
320,192,196981,128,2,197254:0:0:0:0:
192,192,196981,1,0,0:0:0:0:
448,192,196981,1,0,0:0:0:0:
192,192,197117,1,0,0:0:0:0:
448,192,197254,128,2,197527:1:0:0:0:
64,192,197254,1,0,0:0:0:0:
320,192,197390,1,0,0:0:0:0:
320,192,197527,128,2,197799:0:0:0:0:
192,192,197527,1,0,0:0:0:0:
64,192,197527,1,0,0:0:0:0:
64,192,197663,1,0,0:0:0:0:
192,192,197799,128,2,198072:1:0:0:0:
448,192,197799,1,0,0:0:0:0:
320,192,197936,1,0,0:0:0:0:
448,192,198072,128,2,198345:0:0:0:0:
64,192,198072,1,0,0:0:0:0:
320,192,198072,1,0,0:0:0:0:
192,192,198208,1,0,0:0:0:0:
64,192,198345,1,0,0:0:0:0:
192,192,198345,1,2,1:0:0:0:
320,192,198413,1,2,1:0:0:0:
448,192,198413,1,0,0:0:0:0:
192,192,198549,1,2,1:0:0:0:
64,192,198549,1,0,0:0:0:0:
320,192,198617,1,0,0:0:0:0:
448,192,198617,128,2,198890:0:0:0:0:
320,192,198754,1,0,0:0:0:0:
192,192,198890,128,2,199163:1:0:0:0:
64,192,198890,1,0,0:0:0:0:
448,192,199027,1,0,0:0:0:0:
64,192,199163,128,2,199436:0:0:0:0:
320,192,199163,1,0,0:0:0:0:
448,192,199163,1,0,0:0:0:0:
192,192,199299,1,0,0:0:0:0:
448,192,199436,128,2,199708:1:0:0:0:
320,192,199436,1,0,0:0:0:0:
64,192,199572,1,0,0:0:0:0:
320,192,199708,128,2,199981:0:0:0:0:
64,192,199708,1,0,0:0:0:0:
192,192,199708,1,0,0:0:0:0:
448,192,199845,1,0,0:0:0:0:
192,192,199981,128,2,200254:1:0:0:0:
64,192,199981,1,0,0:0:0:0:
320,192,200117,1,0,0:0:0:0:
320,192,200254,128,2,200527:0:0:0:0:
64,192,200254,1,0,0:0:0:0:
448,192,200254,1,0,0:0:0:0:
64,192,200390,1,0,0:0:0:0:
448,192,200527,128,2,200799:1:0:0:0:
192,192,200527,1,0,0:0:0:0:
320,192,200663,1,0,0:0:0:0:
192,192,200799,128,2,201072:0:0:0:0:
320,192,200799,1,0,0:0:0:0:
64,192,200799,1,0,0:0:0:0:
448,192,200936,1,0,0:0:0:0:
64,192,201072,128,2,201345:1:0:0:0:
448,192,201072,1,0,0:0:0:0:
320,192,201208,1,0,0:0:0:0:
320,192,201345,128,2,201617:0:0:0:0:
192,192,201345,1,0,0:0:0:0:
448,192,201345,1,0,0:0:0:0:
64,192,201481,1,0,0:0:0:0:
192,192,201617,128,2,201890:1:0:0:0:
64,192,201617,1,0,0:0:0:0:
448,192,201754,1,0,0:0:0:0:
64,192,201890,128,2,202027:0:0:0:0:
320,192,201890,1,0,0:0:0:0:
448,192,201890,1,0,0:0:0:0:
320,192,202027,128,0,202163:0:0:0:0:
192,192,202027,1,0,0:0:0:0:
448,192,202163,128,2,202299:1:0:0:0:
192,192,202163,1,0,0:0:0:0:
64,192,202163,1,0,0:0:0:0:
64,192,202299,1,0,0:0:0:0:
320,192,202299,128,0,202436:0:0:0:0:
64,192,202436,1,0,0:0:0:0:
192,192,202436,128,2,202572:0:0:0:0:
448,192,202436,1,0,0:0:0:0:
320,192,202572,1,0,0:0:0:0:
448,192,202572,1,0,0:0:0:0:
192,192,202708,1,0,0:0:0:0:
64,192,202708,1,2,1:0:0:0:
320,192,202708,1,0,0:0:0:0:
448,192,202708,1,4,0:0:0:0:
192,192,202845,1,0,0:0:0:0:
64,192,202845,1,0,0:0:0:0:
64,192,202981,1,0,0:0:0:0:
320,192,202981,1,0,0:0:0:0:
448,192,202981,128,2,203254:0:0:0:0:
320,192,203117,1,0,0:0:0:0:
64,192,203254,1,0,0:0:0:0:
192,192,203254,128,2,203527:1:0:0:0:
448,192,203390,1,0,0:0:0:0:
64,192,203527,128,2,203799:0:0:0:0:
320,192,203527,1,0,0:0:0:0:
448,192,203527,1,0,0:0:0:0:
192,192,203663,1,0,0:0:0:0:
192,192,203799,1,0,0:0:0:0:
320,192,203799,128,2,204072:1:0:0:0:
448,192,203936,1,0,0:0:0:0:
64,192,204072,1,0,0:0:0:0:
448,192,204072,1,0,0:0:0:0:
192,192,204072,128,2,204345:0:0:0:0:
320,192,204208,1,0,0:0:0:0:
64,192,204345,128,2,204617:1:0:0:0:
448,192,204345,1,0,0:0:0:0:
192,192,204481,1,0,0:0:0:0:
192,192,204617,1,0,0:0:0:0:
320,192,204617,1,0,0:0:0:0:
448,192,204617,128,2,204890:0:0:0:0:
64,192,204754,1,0,0:0:0:0:
320,192,204890,128,2,205163:1:0:0:0:
192,192,204890,1,0,0:0:0:0:
64,192,205027,1,0,0:0:0:0:
192,192,205163,128,2,205436:0:0:0:0:
448,192,205163,1,0,0:0:0:0:
64,192,205163,1,0,0:0:0:0:
448,192,205299,1,0,0:0:0:0:
64,192,205436,128,2,205708:1:0:0:0:
320,192,205436,1,0,0:0:0:0:
192,192,205572,1,0,0:0:0:0:
192,192,205708,1,0,0:0:0:0:
448,192,205708,1,0,0:0:0:0:
320,192,205708,128,2,205981:0:0:0:0:
64,192,205845,1,0,0:0:0:0:
64,192,205981,1,0,0:0:0:0:
448,192,205981,128,2,206254:1:0:0:0:
192,192,206117,1,0,0:0:0:0:
320,192,206254,128,2,206527:0:0:0:0:
192,192,206254,1,0,0:0:0:0:
64,192,206254,1,0,0:0:0:0:
448,192,206390,1,0,0:0:0:0:
64,192,206527,128,2,206799:1:0:0:0:
448,192,206527,1,0,0:0:0:0:
192,192,206663,1,0,0:0:0:0:
192,192,206799,1,0,0:0:0:0:
320,192,206799,1,0,0:0:0:0:
448,192,206799,128,2,207072:0:0:0:0:
64,192,206936,1,0,0:0:0:0:
192,192,207072,1,4,0:0:0:0:
64,192,207072,1,2,0:0:0:0:
320,192,207072,1,0,1:0:0:0:
320,192,207208,1,0,1:0:0:0:
320,192,207345,1,0,1:0:0:0:
448,192,207345,1,0,0:0:0:0:
320,192,207481,1,0,1:0:0:0:
64,192,207481,1,2,0:0:0:0:
192,192,207617,1,0,1:0:0:0:
448,192,207617,1,0,0:0:0:0:
192,192,207754,1,0,1:0:0:0:
192,192,207890,1,0,1:0:0:0:
320,192,207890,1,2,0:0:0:0:
192,192,208027,1,0,1:0:0:0:
320,192,208095,1,0,1:0:0:0:
64,192,208163,1,2,0:0:0:0:
448,192,208163,1,0,1:0:0:0:
448,192,208299,1,0,1:0:0:0:
448,192,208436,1,0,1:0:0:0:
320,192,208436,1,0,0:0:0:0:
448,192,208572,1,0,1:0:0:0:
192,192,208572,1,2,0:0:0:0:
320,192,208640,1,0,1:0:0:0:
192,192,208708,1,0,0:0:0:0:
64,192,208708,1,0,1:0:0:0:
64,192,208845,1,0,1:0:0:0:
64,192,208981,1,0,1:0:0:0:
448,192,208981,1,2,0:0:0:0:
320,192,209049,1,0,1:0:0:0:
64,192,209117,1,0,1:0:0:0:
192,192,209186,1,0,1:0:0:0:
320,192,209254,1,0,1:0:0:0:
448,192,209254,1,2,0:0:0:0:
320,192,209390,1,0,1:0:0:0:
64,192,209527,1,0,0:0:0:0:
320,192,209527,1,0,1:0:0:0:
320,192,209663,1,0,1:0:0:0:
448,192,209663,1,2,0:0:0:0:
192,192,209799,1,0,1:0:0:0:
64,192,209799,1,0,0:0:0:0:
192,192,209936,1,0,1:0:0:0:
192,192,210072,1,0,1:0:0:0:
448,192,210072,1,2,0:0:0:0:
192,192,210208,1,0,1:0:0:0:
320,192,210277,1,0,1:0:0:0:
64,192,210345,1,0,1:0:0:0:
448,192,210345,1,2,0:0:0:0:
192,192,210481,1,0,1:0:0:0:
320,192,210549,1,0,0:0:0:0:
448,192,210617,1,0,1:0:0:0:
192,192,210754,1,0,0:0:0:0:
64,192,210754,1,2,0:0:0:0:
320,192,210822,1,0,1:0:0:0:
64,192,210890,1,0,1:0:0:0:
192,192,210936,1,0,1:0:0:0:
320,192,210981,1,0,1:0:0:0:
64,192,211027,1,0,1:0:0:0:
448,192,211027,1,0,0:0:0:0:
192,192,211095,1,0,1:0:0:0:
448,192,211163,1,2,0:0:0:0:
320,192,211163,1,0,1:0:0:0:
64,192,211231,1,0,1:0:0:0:
320,192,211299,1,0,1:0:0:0:
192,192,211367,1,0,1:0:0:0:
64,192,211436,1,2,1:0:0:0:
320,192,211436,1,0,0:0:0:0:
448,192,211436,1,4,0:0:0:0:
192,192,211572,1,0,0:0:0:0:
192,192,211708,1,0,0:0:0:0:
64,192,211708,1,2,0:0:0:0:
448,192,211708,1,0,0:0:0:0:
448,192,211845,128,0,211981:0:0:0:0:
64,192,211845,1,0,0:0:0:0:
192,192,211981,1,2,1:0:0:0:
320,192,211981,1,0,0:0:0:0:
64,192,212117,128,0,212254:0:0:0:0:
448,192,212117,1,0,0:0:0:0:
192,192,212254,1,2,0:0:0:0:
320,192,212254,1,0,0:0:0:0:
448,192,212254,1,0,0:0:0:0:
192,192,212390,128,0,212458:0:0:0:0:
64,192,212390,1,0,0:0:0:0:
320,192,212527,1,2,1:0:0:0:
448,192,212527,1,0,0:0:0:0:
320,192,212663,128,0,212731:0:0:0:0:
64,192,212663,1,0,0:0:0:0:
64,192,212799,1,2,0:0:0:0:
192,192,212799,1,0,0:0:0:0:
448,192,212799,1,0,0:0:0:0:
320,192,212936,1,0,0:0:0:0:
448,192,212936,128,0,213072:0:0:0:0:
192,192,213072,1,0,0:0:0:0:
64,192,213072,1,2,1:0:0:0:
64,192,213208,128,0,213345:0:0:0:0:
320,192,213208,1,0,0:0:0:0:
192,192,213345,1,2,0:0:0:0:
320,192,213345,1,0,0:0:0:0:
448,192,213345,1,0,0:0:0:0:
64,192,213481,1,0,0:0:0:0:
192,192,213549,1,0,0:0:0:0:
320,192,213617,1,2,1:0:0:0:
448,192,213617,1,0,0:0:0:0:
64,192,213754,128,0,213890:0:0:0:0:
192,192,213890,1,2,0:0:0:0:
320,192,213890,1,0,0:0:0:0:
448,192,213890,1,0,0:0:0:0:
448,192,214027,128,0,214163:0:0:0:0:
192,192,214027,1,0,0:0:0:0:
320,192,214163,1,0,0:0:0:0:
64,192,214163,1,2,1:0:0:0:
64,192,214299,128,0,214436:0:0:0:0:
448,192,214299,1,0,0:0:0:0:
192,192,214436,1,2,0:0:0:0:
320,192,214436,1,0,0:0:0:0:
448,192,214436,1,0,0:0:0:0:
192,192,214572,128,0,214640:0:0:0:0:
320,192,214572,1,0,0:0:0:0:
64,192,214708,1,2,1:0:0:0:
448,192,214708,1,0,0:0:0:0:
320,192,214845,128,0,214913:0:0:0:0:
192,192,214845,1,0,0:0:0:0:
192,192,214981,1,0,0:0:0:0:
448,192,214981,1,0,0:0:0:0:
64,192,214981,1,2,0:0:0:0:
448,192,215117,128,0,215254:0:0:0:0:
320,192,215117,1,0,0:0:0:0:
192,192,215254,1,0,0:0:0:0:
64,192,215254,1,2,1:0:0:0:
320,192,215390,1,0,0:0:0:0:
64,192,215527,1,2,0:0:0:0:
320,192,215527,1,0,0:0:0:0:
448,192,215527,1,0,0:0:0:0:
192,192,215663,1,0,0:0:0:0:
64,192,215799,1,0,1:0:0:0:
192,192,215799,1,2,1:0:0:0:
448,192,215799,1,0,0:0:0:0:
64,192,215936,1,0,1:0:0:0:
448,192,216072,1,0,1:0:0:0:
192,192,216208,1,0,1:0:0:0:
64,192,216345,1,0,0:0:0:0:
192,192,216345,1,0,0:0:0:0:
320,192,216345,1,0,1:0:0:0:
448,192,216345,1,8,0:0:0:0:
320,192,216481,1,0,1:0:0:0:
192,192,216617,1,2,0:0:0:0:
64,192,216617,1,0,1:0:0:0:
448,192,216617,1,4,0:0:0:0:
320,192,216754,1,0,0:0:0:0:
64,192,216754,1,0,1:0:0:0:
192,192,216822,1,0,1:0:0:0:
448,192,216890,1,0,0:0:0:0:
64,192,216890,1,0,1:0:0:0:
320,192,217027,1,0,1:0:0:0:
192,192,217163,1,0,0:0:0:0:
64,192,217163,1,2,0:0:0:0:
448,192,217163,1,0,1:0:0:0:
320,192,217299,1,0,0:0:0:0:
448,192,217299,1,0,1:0:0:0:
192,192,217367,1,0,1:0:0:0:
64,192,217436,1,0,0:0:0:0:
320,192,217436,1,8,0:0:0:0:
448,192,217436,1,0,1:0:0:0:
192,192,217572,1,0,1:0:0:0:
64,192,217708,1,0,1:0:0:0:
320,192,217777,1,0,1:0:0:0:
192,192,217845,1,0,0:0:0:0:
448,192,217845,1,0,1:0:0:0:
320,192,217913,1,0,1:0:0:0:
192,192,217981,1,2,0:0:0:0:
64,192,217981,1,0,0:0:0:0:
448,192,217981,1,0,1:0:0:0:
64,192,218117,1,0,1:0:0:0:
192,192,218254,1,0,0:0:0:0:
320,192,218254,1,0,1:0:0:0:
320,192,218390,1,0,1:0:0:0:
320,192,218527,1,0,0:0:0:0:
448,192,218527,1,8,0:0:0:0:
192,192,218527,1,0,1:0:0:0:
64,192,218527,1,0,0:0:0:0:
192,192,218663,1,0,1:0:0:0:
64,192,218799,1,2,0:0:0:0:
320,192,218799,1,0,0:0:0:0:
448,192,218799,1,0,1:0:0:0:
448,192,218936,1,0,1:0:0:0:
192,192,219004,1,0,1:0:0:0:
320,192,219072,1,0,0:0:0:0:
64,192,219072,1,0,1:0:0:0:
64,192,219208,1,0,1:0:0:0:
192,192,219345,1,0,1:0:0:0:
320,192,219345,1,2,0:0:0:0:
448,192,219345,1,0,0:0:0:0:
192,192,219481,1,0,1:0:0:0:
320,192,219549,1,0,1:0:0:0:
448,192,219617,1,8,0:0:0:0:
64,192,219617,1,0,1:0:0:0:
192,192,219663,1,0,1:0:0:0:
320,192,219708,1,0,1:0:0:0:
64,192,219754,1,0,1:0:0:0:
192,192,219799,1,0,1:0:0:0:
320,192,219845,1,0,1:0:0:0:
192,192,219890,1,0,0:0:0:0:
64,192,219890,1,0,1:0:0:0:
448,192,219958,1,0,1:0:0:0:
320,192,220027,1,0,1:0:0:0:
192,192,220095,1,0,1:0:0:0:
320,192,220163,1,0,0:0:0:0:
64,192,220163,1,2,1:0:0:0:
448,192,220163,1,4,0:0:0:0:
192,192,220299,1,0,0:0:0:0:
192,192,220436,1,0,0:0:0:0:
64,192,220436,1,2,0:0:0:0:
448,192,220436,1,0,0:0:0:0:
448,192,220572,128,0,220708:0:0:0:0:
64,192,220572,1,0,0:0:0:0:
192,192,220708,1,2,1:0:0:0:
320,192,220708,1,0,0:0:0:0:
64,192,220845,128,0,220981:0:0:0:0:
448,192,220845,1,0,0:0:0:0:
192,192,220981,1,2,0:0:0:0:
320,192,220981,1,0,0:0:0:0:
448,192,220981,1,0,0:0:0:0:
192,192,221117,128,0,221186:0:0:0:0:
64,192,221117,1,0,0:0:0:0:
320,192,221254,1,2,1:0:0:0:
448,192,221254,1,0,0:0:0:0:
320,192,221390,128,0,221458:0:0:0:0:
64,192,221390,1,0,0:0:0:0:
64,192,221527,1,2,0:0:0:0:
192,192,221527,1,0,0:0:0:0:
448,192,221527,1,0,0:0:0:0:
320,192,221663,1,0,0:0:0:0:
448,192,221663,128,0,221799:0:0:0:0:
192,192,221799,1,0,0:0:0:0:
64,192,221799,1,2,1:0:0:0:
64,192,221936,128,0,222072:0:0:0:0:
320,192,221936,1,0,0:0:0:0:
192,192,222072,1,2,0:0:0:0:
320,192,222072,1,0,0:0:0:0:
448,192,222072,1,0,0:0:0:0:
64,192,222208,1,0,0:0:0:0:
192,192,222277,1,0,0:0:0:0:
320,192,222345,1,2,1:0:0:0:
448,192,222345,1,0,0:0:0:0:
64,192,222481,128,0,222617:0:0:0:0:
192,192,222617,1,2,0:0:0:0:
320,192,222617,1,0,0:0:0:0:
448,192,222617,1,0,0:0:0:0:
448,192,222754,128,0,222890:0:0:0:0:
192,192,222754,1,0,0:0:0:0:
320,192,222890,1,0,0:0:0:0:
64,192,222890,1,2,1:0:0:0:
64,192,223027,128,0,223163:0:0:0:0:
448,192,223027,1,0,0:0:0:0:
192,192,223163,1,2,0:0:0:0:
320,192,223163,1,0,0:0:0:0:
448,192,223163,1,0,0:0:0:0:
192,192,223299,128,0,223367:0:0:0:0:
320,192,223299,1,0,0:0:0:0:
64,192,223436,1,2,1:0:0:0:
448,192,223436,1,0,0:0:0:0:
320,192,223572,128,0,223640:0:0:0:0:
192,192,223572,1,0,0:0:0:0:
192,192,223708,1,0,0:0:0:0:
448,192,223708,1,0,0:0:0:0:
64,192,223708,1,2,0:0:0:0:
448,192,223845,128,0,223981:0:0:0:0:
320,192,223845,1,0,0:0:0:0:
192,192,223981,1,0,0:0:0:0:
64,192,223981,1,2,1:0:0:0:
192,192,224117,1,0,0:0:0:0:
320,192,224186,1,0,0:0:0:0:
64,192,224254,1,2,1:0:0:0:
448,192,224254,1,0,0:0:0:0:
192,192,224254,1,0,0:0:0:0:
320,192,224390,128,0,224527:0:0:0:0:
64,192,224527,1,0,1:0:0:0:
192,192,224527,1,2,1:0:0:0:
448,192,224527,1,0,0:0:0:0:
64,192,224663,1,0,1:0:0:0:
448,192,224799,1,0,1:0:0:0:
192,192,224936,1,0,1:0:0:0:
64,192,225072,1,0,0:0:0:0:
192,192,225072,1,0,0:0:0:0:
320,192,225072,1,0,1:0:0:0:
448,192,225072,1,8,0:0:0:0:
320,192,225208,1,0,1:0:0:0:
192,192,225345,1,2,0:0:0:0:
64,192,225345,1,0,1:0:0:0:
448,192,225345,1,4,0:0:0:0:
320,192,225481,1,0,0:0:0:0:
64,192,225481,1,0,1:0:0:0:
192,192,225549,1,0,1:0:0:0:
448,192,225617,1,0,0:0:0:0:
64,192,225617,1,0,1:0:0:0:
320,192,225754,1,0,1:0:0:0:
192,192,225890,1,0,0:0:0:0:
64,192,225890,1,2,0:0:0:0:
448,192,225890,1,0,1:0:0:0:
320,192,226027,1,0,0:0:0:0:
448,192,226027,1,0,1:0:0:0:
192,192,226095,1,0,1:0:0:0:
64,192,226163,1,0,0:0:0:0:
320,192,226163,1,8,0:0:0:0:
448,192,226163,1,0,1:0:0:0:
192,192,226299,1,0,1:0:0:0:
64,192,226436,1,0,1:0:0:0:
320,192,226504,1,0,1:0:0:0:
192,192,226572,1,0,0:0:0:0:
448,192,226572,1,0,1:0:0:0:
320,192,226640,1,0,1:0:0:0:
192,192,226708,1,0,0:0:0:0:
448,192,226708,128,2,227799:1:0:0:0:
64,192,226708,128,0,226981:0:0:0:0:
320,192,227117,1,0,0:0:0:0:
320,192,227254,1,0,0:0:0:0:
192,192,227390,128,0,227663:0:0:0:0:
192,192,227799,1,0,0:0:0:0:
64,192,227799,1,2,0:0:0:0:
448,192,227867,1,2,0:0:0:0:
320,192,227936,1,0,0:0:0:0:
192,192,227936,1,2,1:0:0:0:
64,192,227936,1,0,0:0:0:0:
64,192,228072,1,0,0:0:0:0:
448,192,228072,1,8,0:0:0:0:
320,192,228072,1,0,0:0:0:0:
192,192,228208,1,2,0:0:0:0:
448,192,228208,1,0,0:0:0:0:
320,192,228277,1,2,0:0:0:0:
448,192,228345,1,8,0:0:0:0:
64,192,228345,1,0,0:0:0:0:
192,192,228345,1,0,0:0:0:0:
320,192,228481,1,0,0:0:0:0:
64,192,228481,1,2,0:0:0:0:
192,192,228549,1,0,0:0:0:0:
64,192,228617,1,0,0:0:0:0:
448,192,228617,1,0,0:0:0:0:
320,192,228617,1,2,1:0:0:0:
64,192,228754,1,2,0:0:0:0:
192,192,228754,1,0,0:0:0:0:
64,192,228890,1,0,0:0:0:0:
192,192,228890,128,2,229163:0:0:0:0:
320,192,228890,128,4,229163:0:0:0:0:
448,192,228890,128,0,229163:0:0:0:0:
448,192,229299,128,0,229572:0:0:0:0:
320,192,229299,128,4,229572:0:0:0:0:
192,192,229299,128,2,229572:0:0:0:0:
64,192,229708,128,2,229981:0:0:0:0:
192,192,229708,128,4,229981:0:0:0:0:
448,192,229708,128,0,229981:0:0:0:0:
64,192,230117,128,2,230390:0:0:0:0:
448,192,230117,128,0,230390:0:0:0:0:
192,192,230117,128,4,230390:0:0:0:0:
320,192,230527,128,4,230731:0:0:0:0:
448,192,230527,128,0,230731:0:0:0:0:
64,192,230527,128,2,230731:0:0:0:0:
64,192,230799,128,2,231004:0:0:0:0:
448,192,230799,128,0,231004:0:0:0:0:
320,192,230799,128,4,231004:0:0:0:0:
192,192,231072,128,4,231345:0:0:0:0:
320,192,231072,128,0,231345:0:0:0:0:
64,192,231072,128,2,231345:0:0:0:0:
320,192,231481,128,0,231754:0:0:0:0:
192,192,231481,128,4,231754:0:0:0:0:
64,192,231481,128,2,231754:0:0:0:0:
64,192,231890,128,2,232163:0:0:0:0:
448,192,231890,128,0,232163:0:0:0:0:
320,192,231890,128,4,232163:0:0:0:0:
64,192,232299,128,2,232572:0:0:0:0:
320,192,232299,128,4,232572:0:0:0:0:
448,192,232299,128,0,232572:0:0:0:0:
64,192,232708,1,2,0:0:0:0:
192,192,232708,1,0,0:0:0:0:
448,192,232777,1,0,0:0:0:0:
320,192,232811,1,0,0:0:0:0:
192,192,232845,1,0,0:0:0:0:
64,192,232879,1,0,0:0:0:0:
448,192,232913,1,0,0:0:0:0:
320,192,232947,1,0,0:0:0:0:
192,192,232981,1,0,0:0:0:0:
64,192,233015,1,0,0:0:0:0:
448,192,233049,1,0,0:0:0:0:
320,192,233083,1,0,0:0:0:0:
192,192,233117,1,0,0:0:0:0:
64,192,233152,1,0,0:0:0:0:
448,192,233186,1,0,0:0:0:0:
64,192,233254,128,2,233527:0:0:0:0:
192,192,233254,128,4,233527:0:0:0:0:
320,192,233254,128,0,233527:0:0:0:0:
64,192,233663,128,2,233936:0:0:0:0:
192,192,233663,128,4,233936:0:0:0:0:
320,192,233663,128,0,233936:0:0:0:0:
192,192,234072,128,2,234345:0:0:0:0:
320,192,234072,128,4,234345:0:0:0:0:
448,192,234072,128,0,234345:0:0:0:0:
192,192,234481,128,2,234754:0:0:0:0:
320,192,234481,128,4,234754:0:0:0:0:
448,192,234481,128,0,234754:0:0:0:0:
192,192,234890,128,4,235095:0:0:0:0:
64,192,234890,128,2,235095:0:0:0:0:
448,192,234890,128,0,235095:0:0:0:0:
448,192,235163,128,0,235367:0:0:0:0:
64,192,235163,128,2,235367:0:0:0:0:
192,192,235163,128,4,235367:0:0:0:0:
64,192,235436,128,2,235708:0:0:0:0:
320,192,235436,128,4,235708:0:0:0:0:
448,192,235436,128,0,235708:0:0:0:0:
64,192,235845,128,2,236117:0:0:0:0:
320,192,235845,128,4,236117:0:0:0:0:
448,192,235845,128,0,236117:0:0:0:0:
64,192,236254,128,2,236527:0:0:0:0:
320,192,236254,128,0,236527:0:0:0:0:
192,192,236254,128,4,236527:0:0:0:0:
64,192,236663,128,2,236936:0:0:0:0:
192,192,236663,128,4,236936:0:0:0:0:
320,192,236663,128,0,236936:0:0:0:0:
64,192,237072,1,2,0:0:0:0:
192,192,237072,1,0,0:0:0:0:
320,192,237072,1,0,0:0:0:0:
448,192,237277,128,0,237413:0:0:0:0:
448,192,237481,128,0,237617:0:0:0:0:
64,192,237617,1,6,0:0:0:0:
192,192,237617,1,2,1:0:0:0:
320,192,237686,1,2,1:0:0:0:
448,192,237686,1,0,0:0:0:0:
192,192,237754,1,2,1:0:0:0:
64,192,237754,1,0,0:0:0:0:
320,192,237822,1,2,1:0:0:0:
448,192,237822,1,0,0:0:0:0:
192,192,237890,1,2,1:0:0:0:
64,192,237890,1,8,1:0:0:0:
320,192,238027,1,2,1:0:0:0:
448,192,238027,1,6,0:0:0:0:
192,192,238095,1,2,1:0:0:0:
64,192,238095,1,0,0:0:0:0:
320,192,238163,1,2,1:0:0:0:
448,192,238163,1,0,0:0:0:0:
192,192,238231,1,2,1:0:0:0:
64,192,238231,1,0,0:0:0:0:
320,192,238299,1,2,1:0:0:0:
448,192,238299,1,0,0:0:0:0:
64,192,238436,1,6,0:0:0:0:
320,192,238436,1,2,1:0:0:0:
448,192,238504,1,0,0:0:0:0:
192,192,238504,1,2,1:0:0:0:
64,192,238572,1,0,0:0:0:0:
320,192,238572,1,2,1:0:0:0:
192,192,238640,1,2,1:0:0:0:
448,192,238640,1,0,0:0:0:0:
320,192,238708,1,2,1:0:0:0:
64,192,238708,1,8,1:0:0:0:
192,192,238845,1,2,1:0:0:0:
448,192,238845,1,6,0:0:0:0:
320,192,238913,1,2,1:0:0:0:
64,192,238913,1,0,0:0:0:0:
192,192,238981,1,2,1:0:0:0:
448,192,238981,1,0,0:0:0:0:
320,192,239049,1,2,1:0:0:0:
64,192,239049,1,0,0:0:0:0:
448,192,239117,1,0,0:0:0:0:
192,192,239117,1,2,1:0:0:0:
64,192,239254,1,6,0:0:0:0:
192,192,239254,1,2,1:0:0:0:
320,192,239322,1,2,1:0:0:0:
448,192,239322,1,0,0:0:0:0:
192,192,239390,1,2,1:0:0:0:
64,192,239390,1,0,0:0:0:0:
320,192,239458,1,2,1:0:0:0:
448,192,239458,1,0,0:0:0:0:
64,192,239527,1,6,0:0:0:0:
192,192,239527,1,10,1:0:0:0:
320,192,239595,1,2,1:0:0:0:
448,192,239595,1,0,0:0:0:0:
192,192,239663,1,2,1:0:0:0:
64,192,239663,1,0,0:0:0:0:
320,192,239731,1,2,1:0:0:0:
64,192,239799,1,10,1:0:0:0:
448,192,239799,1,6,0:0:0:0:
320,192,239867,1,2,1:0:0:0:
192,192,239867,1,0,0:0:0:0:
64,192,239936,1,2,1:0:0:0:
448,192,239936,1,0,0:0:0:0:
192,192,240004,1,0,0:0:0:0:
320,192,240004,1,2,1:0:0:0:
64,192,240072,1,2,0:0:0:0:
448,192,240072,1,8,1:0:0:0:
192,192,240208,1,6,0:0:0:0:
320,192,240208,1,2,1:0:0:0:
64,192,240277,1,2,1:0:0:0:
448,192,240277,1,0,0:0:0:0:
192,192,240345,1,0,0:0:0:0:
320,192,240345,1,2,1:0:0:0:
64,192,240413,1,2,1:0:0:0:
448,192,240413,1,0,0:0:0:0:
192,192,240481,1,0,0:0:0:0:
320,192,240481,1,2,1:0:0:0:
192,192,240617,1,2,1:0:0:0:
64,192,240617,1,6,0:0:0:0:
448,192,240686,1,0,0:0:0:0:
320,192,240686,1,2,1:0:0:0:
192,192,240754,1,2,1:0:0:0:
64,192,240754,1,0,0:0:0:0:
448,192,240822,1,0,0:0:0:0:
320,192,240822,1,2,1:0:0:0:
192,192,240890,1,2,1:0:0:0:
64,192,240890,1,8,1:0:0:0:
320,192,241027,1,2,1:0:0:0:
448,192,241027,1,6,0:0:0:0:
192,192,241095,1,2,1:0:0:0:
64,192,241095,1,0,0:0:0:0:
320,192,241163,1,2,1:0:0:0:
448,192,241163,1,0,0:0:0:0:
192,192,241231,1,2,1:0:0:0:
64,192,241231,1,0,0:0:0:0:
448,192,241299,1,0,0:0:0:0:
320,192,241299,1,2,1:0:0:0:
192,192,241436,1,0,0:0:0:0:
64,192,241436,1,2,0:0:0:0:
448,192,241504,1,0,0:0:0:0:
320,192,241538,1,0,0:0:0:0:
192,192,241572,1,0,0:0:0:0:
64,192,241606,1,0,0:0:0:0:
448,192,241640,1,0,0:0:0:0:
320,192,241674,1,0,0:0:0:0:
192,192,241708,1,0,0:0:0:0:
64,192,241742,1,0,0:0:0:0:
448,192,241777,1,0,0:0:0:0:
320,192,241811,1,0,0:0:0:0:
192,192,241845,1,0,0:0:0:0:
64,192,241879,1,0,0:0:0:0:
448,192,241913,1,0,0:0:0:0:
320,192,241981,1,2,1:0:0:0:
192,192,241981,1,4,0:0:0:0:
64,192,241981,1,2,0:0:0:0:
448,192,242049,1,2,1:0:0:0:
64,192,242117,1,0,0:0:0:0:
192,192,242117,1,2,1:0:0:0:
320,192,242186,1,2,1:0:0:0:
64,192,242254,1,2,1:0:0:0:
448,192,242254,1,0,0:0:0:0:
192,192,242322,1,2,1:0:0:0:
320,192,242390,1,2,1:0:0:0:
64,192,242390,1,2,0:0:0:0:
448,192,242390,1,4,0:0:0:0:
192,192,242458,1,2,1:0:0:0:
448,192,242527,1,0,0:0:0:0:
320,192,242527,1,2,1:0:0:0:
64,192,242595,1,2,1:0:0:0:
448,192,242663,1,0,0:0:0:0:
192,192,242663,1,2,1:0:0:0:
320,192,242731,1,2,1:0:0:0:
64,192,242799,1,6,0:0:0:0:
192,192,242799,1,2,1:0:0:0:
320,192,242867,1,2,1:0:0:0:
448,192,242867,1,0,0:0:0:0:
192,192,242936,1,2,1:0:0:0:
64,192,242936,1,0,0:0:0:0:
320,192,243004,1,2,1:0:0:0:
448,192,243004,1,0,0:0:0:0:
64,192,243072,1,0,0:0:0:0:
192,192,243072,1,2,1:0:0:0:
320,192,243140,1,2,1:0:0:0:
448,192,243140,1,0,0:0:0:0:
192,192,243208,1,2,1:0:0:0:
64,192,243208,1,6,0:0:0:0:
320,192,243277,1,2,1:0:0:0:
448,192,243277,1,0,0:0:0:0:
192,192,243345,1,2,1:0:0:0:
64,192,243345,1,0,0:0:0:0:
320,192,243413,1,2,1:0:0:0:
448,192,243413,1,0,0:0:0:0:
192,192,243481,1,2,1:0:0:0:
64,192,243481,1,0,0:0:0:0:
448,192,243549,1,0,0:0:0:0:
320,192,243549,1,2,1:0:0:0:
192,192,243617,1,2,1:0:0:0:
64,192,243617,1,6,0:0:0:0:
448,192,243686,1,0,0:0:0:0:
320,192,243686,1,2,1:0:0:0:
192,192,243754,1,2,1:0:0:0:
64,192,243754,1,0,0:0:0:0:
320,192,243822,1,2,1:0:0:0:
448,192,243822,1,0,0:0:0:0:
64,192,243890,1,6,0:0:0:0:
192,192,243890,1,2,1:0:0:0:
320,192,243958,1,2,1:0:0:0:
448,192,243958,1,0,0:0:0:0:
192,192,244027,1,2,1:0:0:0:
64,192,244027,1,0,0:0:0:0:
320,192,244095,1,2,1:0:0:0:
448,192,244095,1,0,0:0:0:0:
192,192,244163,1,0,0:0:0:0:
64,192,244163,128,2,245254:0:0:0:0:
448,192,244436,1,0,0:0:0:0:
320,192,244527,1,0,0:0:0:0:
192,192,244617,1,0,0:0:0:0:
320,192,244708,1,0,0:0:0:0:
448,192,244799,1,0,0:0:0:0:
192,192,244890,1,0,0:0:0:0:
448,192,244981,1,0,0:0:0:0:
320,192,245072,1,0,0:0:0:0:
192,192,245163,1,0,0:0:0:0:
320,192,245254,1,2,1:0:0:0:
448,192,245254,1,0,0:0:0:0:
192,192,245322,1,2,1:0:0:0:
64,192,245322,1,0,0:0:0:0:
320,192,245527,1,2,1:0:0:0:
448,192,245527,1,0,0:0:0:0:
192,192,245595,1,2,1:0:0:0:
64,192,245595,1,0,0:0:0:0:
448,192,245799,128,0,246072:0:0:0:0:
320,192,245799,1,2,1:0:0:0:
192,192,245867,1,2,1:0:0:0:
64,192,245867,1,0,0:0:0:0:
192,192,246072,1,8,1:0:0:0:
64,192,246072,1,2,0:0:0:0:
320,192,246072,1,0,0:0:0:0:
64,192,246163,1,0,0:0:0:0:
192,192,246254,1,0,0:0:0:0:
64,192,246345,1,0,0:0:0:0:
320,192,246345,1,0,0:0:0:0:
448,192,246345,128,2,246890:1:0:0:0:
64,192,246617,128,0,247095:0:0:0:0:
192,192,246890,128,0,247095:0:0:0:0:
64,192,247163,1,2,0:0:0:0:
192,192,247163,1,4,0:0:0:0:
448,192,247163,1,0,0:0:0:0:
64,192,247299,1,2,0:0:0:0:
320,192,247299,1,0,0:0:0:0:
448,192,247299,1,0,0:0:0:0:
64,192,247436,1,2,0:0:0:0:
192,192,247436,1,0,0:0:0:0:
448,192,247436,1,0,0:0:0:0:
320,192,247572,1,0,0:0:0:0:
192,192,247640,1,2,0:0:0:0:
64,192,247640,1,0,0:0:0:0:
320,192,247708,1,2,0:0:0:0:
448,192,247708,1,0,0:0:0:0:
192,192,247845,1,2,0:0:0:0:
64,192,247845,1,0,0:0:0:0:
448,192,247845,1,0,0:0:0:0:
64,192,247981,1,0,0:0:0:0:
448,192,248049,1,0,0:0:0:0:
320,192,248049,1,2,0:0:0:0:
64,192,248117,1,0,0:0:0:0:
192,192,248117,1,2,0:0:0:0:
64,192,248254,1,0,0:0:0:0:
320,192,248254,1,2,0:0:0:0:
448,192,248254,1,0,0:0:0:0:
448,192,248390,1,0,0:0:0:0:
192,192,248390,1,0,0:0:0:0:
64,192,248527,1,0,0:0:0:0:
192,192,248527,1,2,0:0:0:0:
320,192,248527,1,0,0:0:0:0:
448,192,248663,1,0,0:0:0:0:
320,192,248731,1,0,0:0:0:0:
192,192,248731,1,2,0:0:0:0:
448,192,248799,1,2,0:0:0:0:
64,192,248799,1,0,0:0:0:0:
192,192,248936,1,0,0:0:0:0:
320,192,248936,1,2,0:0:0:0:
448,192,248936,1,0,0:0:0:0:
64,192,249072,1,0,0:0:0:0:
192,192,249140,1,0,0:0:0:0:
320,192,249140,1,2,0:0:0:0:
448,192,249208,1,0,0:0:0:0:
64,192,249208,1,2,0:0:0:0:
192,192,249345,1,2,0:0:0:0:
448,192,249345,1,0,0:0:0:0:
320,192,249345,1,0,0:0:0:0:
64,192,249481,1,0,0:0:0:0:
192,192,249481,1,2,0:0:0:0:
320,192,249481,1,0,0:0:0:0:
64,192,249617,1,0,0:0:0:0:
192,192,249617,1,2,0:0:0:0:
448,192,249617,1,0,0:0:0:0:
320,192,249686,1,0,0:0:0:0:
448,192,249754,1,0,0:0:0:0:
64,192,249822,1,2,0:0:0:0:
192,192,249822,1,0,0:0:0:0:
448,192,249890,1,0,0:0:0:0:
320,192,249890,1,2,0:0:0:0:
64,192,250027,1,0,0:0:0:0:
192,192,250027,1,2,0:0:0:0:
320,192,250027,1,0,0:0:0:0:
64,192,250163,1,0,0:0:0:0:
320,192,250231,1,2,0:0:0:0:
448,192,250231,1,0,0:0:0:0:
64,192,250299,1,0,0:0:0:0:
192,192,250299,1,2,0:0:0:0:
64,192,250436,1,0,0:0:0:0:
320,192,250436,1,0,0:0:0:0:
448,192,250436,128,2,250640:0:0:0:0:
192,192,250572,1,0,0:0:0:0:
64,192,250708,1,0,0:0:0:0:
448,192,250708,1,0,0:0:0:0:
192,192,250708,1,2,0:0:0:0:
320,192,250845,1,0,0:0:0:0:
192,192,250913,1,2,0:0:0:0:
64,192,250913,1,0,0:0:0:0:
320,192,250981,1,2,0:0:0:0:
448,192,250981,1,0,0:0:0:0:
448,192,251117,1,0,0:0:0:0:
64,192,251117,1,0,0:0:0:0:
192,192,251117,1,2,0:0:0:0:
192,192,251254,1,0,0:0:0:0:
320,192,251322,1,2,0:0:0:0:
448,192,251322,1,0,0:0:0:0:
192,192,251390,1,2,0:0:0:0:
64,192,251390,1,0,0:0:0:0:
64,192,251527,1,2,0:0:0:0:
320,192,251527,1,0,0:0:0:0:
448,192,251527,1,0,0:0:0:0:
192,192,251663,1,2,0:0:0:0:
320,192,251663,1,0,0:0:0:0:
64,192,251799,1,0,0:0:0:0:
448,192,251799,1,2,0:0:0:0:
192,192,251799,1,0,0:0:0:0:
320,192,251936,1,0,0:0:0:0:
192,192,252004,1,2,0:0:0:0:
448,192,252004,1,0,0:0:0:0:
320,192,252072,1,2,0:0:0:0:
64,192,252072,1,0,0:0:0:0:
64,192,252208,1,0,0:0:0:0:
192,192,252208,1,2,0:0:0:0:
448,192,252208,128,0,252345:0:0:0:0:
192,192,252345,1,0,0:0:0:0:
320,192,252413,1,2,0:0:0:0:
64,192,252413,1,0,0:0:0:0:
448,192,252481,1,0,0:0:0:0:
192,192,252481,1,2,0:0:0:0:
64,192,252617,1,0,0:0:0:0:
448,192,252617,1,0,0:0:0:0:
320,192,252617,1,2,0:0:0:0:
64,192,252754,128,0,252890:0:0:0:0:
192,192,252890,1,0,0:0:0:0:
320,192,252890,1,0,0:0:0:0:
448,192,252890,1,2,0:0:0:0:
64,192,253027,1,0,0:0:0:0:
320,192,253095,1,2,0:0:0:0:
448,192,253095,1,0,0:0:0:0:
192,192,253163,1,2,0:0:0:0:
64,192,253163,1,0,0:0:0:0:
64,192,253299,1,2,0:0:0:0:
320,192,253299,1,0,0:0:0:0:
448,192,253299,128,0,253436:0:0:0:0:
192,192,253436,1,0,0:0:0:0:
448,192,253504,1,0,0:0:0:0:
320,192,253504,1,2,0:0:0:0:
192,192,253572,1,2,0:0:0:0:
64,192,253572,1,0,0:0:0:0:
320,192,253708,1,0,0:0:0:0:
64,192,253708,1,2,0:0:0:0:
448,192,253708,1,0,0:0:0:0:
64,192,253845,128,0,253981:0:0:0:0:
448,192,253845,1,2,0:0:0:0:
320,192,253981,1,0,0:0:0:0:
448,192,253981,1,2,0:0:0:0:
192,192,253981,1,0,0:0:0:0:
320,192,254117,1,0,0:0:0:0:
448,192,254186,1,0,0:0:0:0:
192,192,254186,1,2,0:0:0:0:
64,192,254254,1,2,0:0:0:0:
320,192,254254,1,0,0:0:0:0:
64,192,254390,1,0,0:0:0:0:
192,192,254390,1,2,0:0:0:0:
448,192,254390,128,0,254527:0:0:0:0:
320,192,254527,1,0,0:0:0:0:
64,192,254595,1,2,0:0:0:0:
192,192,254595,1,0,0:0:0:0:
448,192,254663,1,2,0:0:0:0:
320,192,254663,1,0,0:0:0:0:
448,192,254799,1,0,0:0:0:0:
64,192,254799,1,0,0:0:0:0:
192,192,254799,1,2,0:0:0:0:
192,192,254936,1,0,0:0:0:0:
320,192,254936,1,2,0:0:0:0:
192,192,255072,1,0,0:0:0:0:
448,192,255072,1,0,0:0:0:0:
64,192,255072,128,2,255277:0:0:0:0:
64,192,255345,1,4,0:0:0:0:
320,192,255345,1,2,0:0:0:0:
448,192,255345,1,0,0:0:0:0:
448,192,255481,1,0,0:0:0:0:
192,192,255481,1,2,0:0:0:0:
320,192,255617,1,0,0:0:0:0:
64,192,255686,1,0,0:0:0:0:
192,192,255686,1,2,0:0:0:0:
448,192,255754,1,0,0:0:0:0:
320,192,255754,1,2,0:0:0:0:
64,192,255890,1,0,0:0:0:0:
448,192,255890,1,0,0:0:0:0:
192,192,255890,1,2,0:0:0:0:
64,192,256027,1,0,0:0:0:0:
448,192,256027,1,0,0:0:0:0:
320,192,256027,1,2,0:0:0:0:
64,192,256163,1,0,0:0:0:0:
192,192,256163,1,2,0:0:0:0:
448,192,256163,1,0,0:0:0:0:
192,192,256299,1,0,0:0:0:0:
448,192,256367,1,0,0:0:0:0:
320,192,256367,1,2,0:0:0:0:
192,192,256436,1,2,0:0:0:0:
64,192,256436,1,0,0:0:0:0:
64,192,256572,1,0,0:0:0:0:
320,192,256572,1,2,0:0:0:0:
448,192,256572,1,0,0:0:0:0:
320,192,256708,1,0,0:0:0:0:
192,192,256777,1,2,0:0:0:0:
64,192,256777,1,0,0:0:0:0:
448,192,256845,1,0,0:0:0:0:
320,192,256845,1,2,0:0:0:0:
192,192,256981,1,2,0:0:0:0:
448,192,256981,1,0,0:0:0:0:
64,192,256981,1,0,0:0:0:0:
64,192,257117,1,0,0:0:0:0:
320,192,257117,1,2,0:0:0:0:
448,192,257117,1,0,0:0:0:0:
64,192,257254,1,0,0:0:0:0:
320,192,257254,1,2,0:0:0:0:
192,192,257254,1,0,0:0:0:0:
192,192,257390,1,0,0:0:0:0:
64,192,257458,1,2,0:0:0:0:
448,192,257458,1,0,0:0:0:0:
192,192,257527,1,0,0:0:0:0:
320,192,257527,1,2,0:0:0:0:
64,192,257663,1,0,0:0:0:0:
320,192,257663,1,2,0:0:0:0:
448,192,257663,1,0,0:0:0:0:
320,192,257799,1,0,0:0:0:0:
448,192,257867,1,2,0:0:0:0:
64,192,257867,1,0,0:0:0:0:
320,192,257936,1,0,0:0:0:0:
192,192,257936,1,2,0:0:0:0:
192,192,258072,1,2,0:0:0:0:
64,192,258072,1,0,0:0:0:0:
448,192,258072,1,0,0:0:0:0:
64,192,258208,1,0,0:0:0:0:
320,192,258208,1,2,0:0:0:0:
448,192,258208,1,0,0:0:0:0:
64,192,258345,1,0,0:0:0:0:
192,192,258345,1,2,0:0:0:0:
448,192,258345,1,0,0:0:0:0:
320,192,258413,1,0,0:0:0:0:
448,192,258481,1,0,0:0:0:0:
64,192,258549,1,0,0:0:0:0:
192,192,258549,1,2,0:0:0:0:
320,192,258617,1,2,0:0:0:0:
448,192,258617,1,0,0:0:0:0:
64,192,258754,1,0,0:0:0:0:
192,192,258754,1,2,0:0:0:0:
320,192,258754,1,0,0:0:0:0:
192,192,258890,1,0,0:0:0:0:
448,192,258958,1,0,0:0:0:0:
320,192,258958,1,2,0:0:0:0:
64,192,259027,1,0,0:0:0:0:
192,192,259027,1,2,0:0:0:0:
320,192,259163,1,0,0:0:0:0:
64,192,259163,1,0,0:0:0:0:
448,192,259163,128,2,259436:0:0:0:0:
192,192,259299,1,0,0:0:0:0:
320,192,259436,1,0,0:0:0:0:
192,192,259436,1,4,0:0:0:0:
64,192,259436,128,2,259913:0:0:0:0:
320,192,259572,1,0,0:0:0:0:
192,192,259708,128,0,259913:0:0:0:0:
448,192,259845,1,0,0:0:0:0:
320,192,259845,1,8,0:0:0:0:
64,192,259981,1,2,0:0:0:0:
192,192,259981,1,0,1:0:0:0:
320,192,259981,1,0,0:0:0:0:
448,192,260049,1,0,1:0:0:0:
192,192,260117,1,0,1:0:0:0:
64,192,260117,1,0,0:0:0:0:
64,192,260254,1,0,1:0:0:0:
320,192,260254,1,8,0:0:0:0:
448,192,260254,1,0,0:0:0:0:
192,192,260390,1,0,1:0:0:0:
448,192,260390,1,0,0:0:0:0:
320,192,260458,1,0,1:0:0:0:
64,192,260458,1,0,0:0:0:0:
448,192,260527,1,2,0:0:0:0:
192,192,260527,1,0,1:0:0:0:
64,192,260663,1,0,0:0:0:0:
192,192,260663,1,0,1:0:0:0:
320,192,260799,1,0,1:0:0:0:
192,192,260867,1,0,1:0:0:0:
448,192,260867,1,0,0:0:0:0:
64,192,260936,1,8,0:0:0:0:
320,192,260936,1,0,1:0:0:0:
192,192,261072,1,0,1:0:0:0:
320,192,261072,1,0,0:0:0:0:
448,192,261072,1,2,0:0:0:0:
64,192,261208,1,0,0:0:0:0:
192,192,261208,1,0,1:0:0:0:
320,192,261277,1,0,1:0:0:0:
448,192,261277,1,0,0:0:0:0:
192,192,261345,1,0,1:0:0:0:
64,192,261345,1,8,0:0:0:0:
448,192,261481,1,0,0:0:0:0:
64,192,261481,1,0,1:0:0:0:
192,192,261617,1,0,0:0:0:0:
64,192,261617,1,0,0:0:0:0:
448,192,261617,128,2,262095:0:0:0:0:
192,192,261754,1,0,0:0:0:0:
320,192,261890,128,0,262095:0:0:0:0:
64,192,262027,1,8,0:0:0:0:
192,192,262027,1,0,0:0:0:0:
448,192,262163,1,2,0:0:0:0:
320,192,262163,1,0,1:0:0:0:
192,192,262163,1,0,0:0:0:0:
64,192,262231,1,0,1:0:0:0:
320,192,262299,1,0,1:0:0:0:
448,192,262299,1,0,0:0:0:0:
448,192,262436,1,0,0:0:0:0:
192,192,262436,1,0,1:0:0:0:
64,192,262436,1,8,0:0:0:0:
320,192,262572,1,0,1:0:0:0:
64,192,262572,1,0,0:0:0:0:
192,192,262640,1,0,1:0:0:0:
448,192,262640,1,0,0:0:0:0:
64,192,262708,1,2,0:0:0:0:
320,192,262708,1,0,1:0:0:0:
448,192,262845,1,0,0:0:0:0:
320,192,262845,1,0,1:0:0:0:
192,192,262981,1,0,1:0:0:0:
64,192,263049,1,0,0:0:0:0:
320,192,263049,1,0,1:0:0:0:
192,192,263117,1,0,1:0:0:0:
448,192,263117,1,8,0:0:0:0:
64,192,263254,5,2,0:0:0:0:
192,192,263288,1,0,0:0:0:0:
320,192,263322,1,0,0:0:0:0:
448,192,263356,1,0,0:0:0:0:
64,192,263390,1,0,0:0:0:0:
192,192,263424,1,0,0:0:0:0:
320,192,263458,1,0,0:0:0:0:
448,192,263492,1,0,0:0:0:0:
64,192,263527,1,0,0:0:0:0:
192,192,263561,1,0,0:0:0:0:
320,192,263595,1,0,0:0:0:0:
448,192,263629,1,0,0:0:0:0:
64,192,263663,1,0,0:0:0:0:
192,192,263697,1,0,0:0:0:0:
320,192,263731,1,0,0:0:0:0:
64,192,263799,1,2,1:0:0:0:
192,192,263799,1,0,0:0:0:0:
448,192,263799,1,4,0:0:0:0:
64,192,263936,1,2,1:0:0:0:
448,192,263936,1,0,0:0:0:0:
320,192,263936,1,0,0:0:0:0:
64,192,264072,1,0,0:0:0:0:
448,192,264072,1,0,0:0:0:0:
192,192,264072,1,2,0:0:0:0:
192,192,264208,1,0,0:0:0:0:
64,192,264345,128,0,264549:0:0:0:0:
448,192,264345,128,0,264549:0:0:0:0:
320,192,264345,128,2,264549:1:0:0:0:
64,192,264617,1,2,0:0:0:0:
192,192,264617,1,0,0:0:0:0:
448,192,264617,1,0,0:0:0:0:
320,192,264686,1,0,0:0:0:0:
192,192,264754,1,0,0:0:0:0:
448,192,264822,1,0,0:0:0:0:
320,192,264890,1,0,0:0:0:0:
192,192,264890,1,0,0:0:0:0:
64,192,264890,1,2,1:0:0:0:
448,192,264958,1,0,0:0:0:0:
64,192,265027,1,0,0:0:0:0:
320,192,265095,1,0,0:0:0:0:
192,192,265163,1,0,0:0:0:0:
64,192,265163,1,2,0:0:0:0:
448,192,265163,1,0,0:0:0:0:
320,192,265231,1,0,0:0:0:0:
192,192,265299,1,0,0:0:0:0:
64,192,265367,1,0,0:0:0:0:
192,192,265436,1,2,1:0:0:0:
320,192,265436,1,0,0:0:0:0:
448,192,265436,1,0,0:0:0:0:
64,192,265504,1,0,0:0:0:0:
320,192,265572,1,0,0:0:0:0:
192,192,265640,1,0,0:0:0:0:
64,192,265708,1,2,0:0:0:0:
320,192,265708,1,0,0:0:0:0:
448,192,265708,1,0,0:0:0:0:
192,192,265777,1,0,0:0:0:0:
448,192,265845,1,0,0:0:0:0:
320,192,265913,1,0,0:0:0:0:
448,192,265981,1,0,0:0:0:0:
192,192,265981,1,0,0:0:0:0:
64,192,265981,1,2,1:0:0:0:
320,192,266049,1,0,0:0:0:0:
192,192,266117,1,0,0:0:0:0:
448,192,266186,1,0,0:0:0:0:
320,192,266254,1,0,0:0:0:0:
192,192,266254,1,0,0:0:0:0:
64,192,266254,1,2,0:0:0:0:
448,192,266322,1,0,0:0:0:0:
64,192,266390,1,0,0:0:0:0:
192,192,266458,1,0,0:0:0:0:
64,192,266527,1,2,1:0:0:0:
320,192,266527,1,0,0:0:0:0:
448,192,266527,1,0,0:0:0:0:
192,192,266595,1,0,0:0:0:0:
320,192,266663,1,0,0:0:0:0:
64,192,266731,1,0,0:0:0:0:
192,192,266799,1,2,0:0:0:0:
320,192,266799,1,0,0:0:0:0:
448,192,266799,1,0,0:0:0:0:
64,192,266867,1,0,0:0:0:0:
448,192,266936,1,0,0:0:0:0:
192,192,267004,1,0,0:0:0:0:
64,192,267072,1,2,1:0:0:0:
320,192,267072,1,0,0:0:0:0:
448,192,267072,1,0,0:0:0:0:
192,192,267140,1,0,0:0:0:0:
320,192,267208,1,0,0:0:0:0:
448,192,267277,1,0,0:0:0:0:
320,192,267345,1,0,0:0:0:0:
192,192,267345,1,0,0:0:0:0:
64,192,267345,1,2,0:0:0:0:
448,192,267413,1,0,0:0:0:0:
192,192,267481,1,0,0:0:0:0:
320,192,267549,1,0,0:0:0:0:
64,192,267617,1,2,1:0:0:0:
192,192,267617,1,0,0:0:0:0:
448,192,267617,1,0,0:0:0:0:
320,192,267686,1,0,0:0:0:0:
64,192,267754,1,0,0:0:0:0:
192,192,267822,1,0,0:0:0:0:
64,192,267890,1,2,0:0:0:0:
320,192,267890,1,0,0:0:0:0:
448,192,267890,1,0,0:0:0:0:
192,192,267958,1,0,0:0:0:0:
320,192,268027,1,0,0:0:0:0:
448,192,268095,1,0,0:0:0:0:
320,192,268163,1,0,0:0:0:0:
64,192,268163,1,2,1:0:0:0:
192,192,268163,1,0,0:0:0:0:
448,192,268231,1,0,0:0:0:0:
192,192,268299,1,0,0:0:0:0:
320,192,268402,1,0,0:0:0:0:
192,192,268436,1,0,0:0:0:0:
64,192,268436,1,2,0:0:0:0:
448,192,268504,1,0,0:0:0:0:
64,192,268572,1,0,0:0:0:0:
320,192,268640,1,0,0:0:0:0:
192,192,268708,128,2,268913:1:0:0:0:
64,192,268708,128,0,268913:0:0:0:0:
448,192,268708,128,0,268913:0:0:0:0:
448,192,268981,1,0,0:0:0:0:
320,192,268981,1,2,0:0:0:0:
64,192,268981,1,0,0:0:0:0:
192,192,269049,1,0,0:0:0:0:
320,192,269117,1,0,0:0:0:0:
448,192,269186,1,0,0:0:0:0:
320,192,269254,1,2,1:0:0:0:
192,192,269254,1,0,0:0:0:0:
64,192,269254,1,0,0:0:0:0:
448,192,269322,1,0,0:0:0:0:
192,192,269390,1,0,0:0:0:0:
320,192,269458,1,0,0:0:0:0:
192,192,269527,1,0,0:0:0:0:
64,192,269527,1,0,0:0:0:0:
448,192,269527,1,2,0:0:0:0:
320,192,269595,1,0,0:0:0:0:
64,192,269663,128,0,269799:0:0:0:0:
448,192,269663,1,0,0:0:0:0:
320,192,269799,1,0,0:0:0:0:
448,192,269799,1,2,1:0:0:0:
192,192,269799,1,0,0:0:0:0:
64,192,269867,1,0,0:0:0:0:
320,192,269936,1,0,0:0:0:0:
192,192,270004,1,0,0:0:0:0:
320,192,270072,1,0,0:0:0:0:
448,192,270072,1,2,0:0:0:0:
64,192,270072,1,0,0:0:0:0:
192,192,270140,1,0,0:0:0:0:
448,192,270208,128,0,270345:0:0:0:0:
64,192,270208,1,0,0:0:0:0:
64,192,270345,1,2,1:0:0:0:
320,192,270345,1,4,0:0:0:0:
192,192,270345,1,0,0:0:0:0:
448,192,270413,1,0,0:0:0:0:
192,192,270481,1,0,0:0:0:0:
320,192,270549,1,0,0:0:0:0:
64,192,270549,1,2,0:0:0:0:
448,192,270549,1,0,0:0:0:0:
192,192,270617,1,8,0:0:0:0:
320,192,270686,1,0,0:0:0:0:
448,192,270754,1,0,0:0:0:0:
192,192,270754,1,2,1:0:0:0:
64,192,270754,128,0,270890:0:0:0:0:
320,192,270890,1,0,0:0:0:0:
448,192,270958,1,4,0:0:0:0:
192,192,270958,1,2,0:0:0:0:
64,192,270958,1,0,0:0:0:0:
320,192,271027,1,0,0:0:0:0:
192,192,271095,1,0,0:0:0:0:
448,192,271163,1,0,0:0:0:0:
64,192,271163,128,2,271436:1:0:0:0:
192,192,271436,1,0,0:0:0:0:
320,192,271436,1,4,0:0:0:0:
448,192,271436,1,2,1:0:0:0:
64,192,271504,1,0,0:0:0:0:
320,192,271572,1,0,0:0:0:0:
192,192,271640,1,2,0:0:0:0:
64,192,271640,1,0,0:0:0:0:
448,192,271640,1,0,0:0:0:0:
320,192,271708,1,8,0:0:0:0:
192,192,271777,1,0,0:0:0:0:
64,192,271845,1,2,1:0:0:0:
320,192,271845,1,0,0:0:0:0:
448,192,271845,128,0,271981:0:0:0:0:
192,192,271981,1,0,0:0:0:0:
64,192,272049,1,2,0:0:0:0:
320,192,272049,1,0,0:0:0:0:
448,192,272049,1,4,0:0:0:0:
192,192,272117,1,0,0:0:0:0:
320,192,272254,1,2,1:0:0:0:
448,192,272254,1,0,0:0:0:0:
192,192,272390,1,0,0:0:0:0:
320,192,272458,1,0,0:0:0:0:
192,192,272527,5,0,0:0:0:0:
64,192,272527,1,8,1:0:0:0:
448,192,272527,128,4,274708:0:0:0:0:
320,192,272799,1,8,1:0:0:0:
64,192,272936,1,0,0:0:0:0:
64,192,273072,1,8,1:0:0:0:
192,192,273345,1,8,1:0:0:0:
64,192,273617,1,8,1:0:0:0:
320,192,273754,1,0,0:0:0:0:
320,192,273890,1,8,1:0:0:0:
192,192,274163,1,8,1:0:0:0:
320,192,274436,1,8,1:0:0:0:
64,192,274708,128,8,275799:1:0:0:0:
192,192,274708,1,0,0:0:0:0:
448,192,274981,1,8,1:0:0:0:
320,192,275117,1,0,0:0:0:0:
320,192,275254,1,8,1:0:0:0:
192,192,275527,1,8,1:0:0:0:
448,192,275799,128,8,276890:1:0:0:0:
320,192,275799,1,0,0:0:0:0:
192,192,275936,1,0,0:0:0:0:
192,192,276072,1,8,1:0:0:0:
64,192,276345,1,8,1:0:0:0:
320,192,276617,1,8,1:0:0:0:
64,192,276890,5,4,0:0:0:0:
192,192,276890,1,2,0:0:0:0:
320,192,276958,1,2,0:0:0:0:
448,192,276958,1,0,0:0:0:0:
192,192,277027,1,2,0:0:0:0:
64,192,277027,1,0,0:0:0:0:
448,192,277095,1,0,0:0:0:0:
320,192,277095,1,2,0:0:0:0:
192,192,277163,1,2,0:0:0:0:
64,192,277163,1,0,0:0:0:0:
320,192,277231,1,2,0:0:0:0:
448,192,277231,1,0,0:0:0:0:
192,192,277299,1,2,0:0:0:0:
64,192,277299,1,0,0:0:0:0:
320,192,277367,1,2,0:0:0:0:
448,192,277367,1,0,0:0:0:0:
192,192,277436,1,2,0:0:0:0:
64,192,277436,1,0,0:0:0:0:
320,192,277504,1,2,0:0:0:0:
448,192,277504,1,0,0:0:0:0:
192,192,277572,1,2,0:0:0:0:
64,192,277572,1,0,0:0:0:0:
320,192,277640,1,2,0:0:0:0:
448,192,277640,1,0,0:0:0:0:
64,192,277708,1,0,0:0:0:0:
192,192,277708,1,2,0:0:0:0:
320,192,277777,1,2,0:0:0:0:
448,192,277777,1,0,0:0:0:0:
64,192,277845,1,0,0:0:0:0:
192,192,277845,1,2,0:0:0:0:
448,192,277913,1,0,0:0:0:0:
320,192,277913,1,2,0:0:0:0:
64,192,277981,1,0,0:0:0:0:
192,192,277981,1,2,0:0:0:0:
320,192,278049,1,2,0:0:0:0:
448,192,278049,1,0,0:0:0:0:
192,192,278117,1,2,0:0:0:0:
64,192,278117,1,0,0:0:0:0:
448,192,278186,1,0,0:0:0:0:
320,192,278186,1,2,0:0:0:0:
192,192,278254,1,2,0:0:0:0:
64,192,278254,1,0,0:0:0:0:
320,192,278322,1,2,0:0:0:0:
448,192,278322,1,0,0:0:0:0:
192,192,278390,1,2,0:0:0:0:
64,192,278390,1,0,0:0:0:0:
320,192,278458,1,2,0:0:0:0:
448,192,278458,1,0,0:0:0:0:
192,192,278527,1,2,0:0:0:0:
64,192,278527,1,0,0:0:0:0:
320,192,278595,1,2,0:0:0:0:
448,192,278595,1,0,0:0:0:0:
192,192,278663,1,2,0:0:0:0:
64,192,278663,1,0,0:0:0:0:
320,192,278731,1,2,0:0:0:0:
448,192,278731,1,0,0:0:0:0:
64,192,278799,1,0,0:0:0:0:
192,192,278799,1,2,0:0:0:0:
320,192,278867,1,2,0:0:0:0:
448,192,278867,1,0,0:0:0:0:
64,192,278936,1,0,0:0:0:0:
192,192,278936,1,2,0:0:0:0:
448,192,279004,1,0,0:0:0:0:
320,192,279004,1,2,0:0:0:0:
64,192,279072,1,0,0:0:0:0:
192,192,279072,1,2,0:0:0:0:
448,192,279106,1,0,0:0:0:0:
320,192,279140,1,0,0:0:0:0:
64,192,279174,1,0,0:0:0:0:
192,192,279208,1,0,0:0:0:0:
448,192,279242,1,0,0:0:0:0:
320,192,279277,1,0,0:0:0:0:
64,192,279311,1,0,0:0:0:0:
448,192,279345,1,0,0:0:0:0:
192,192,279345,1,0,0:0:0:0:
320,192,279379,1,0,0:0:0:0:
64,192,279413,1,0,0:0:0:0:
192,192,279447,1,0,0:0:0:0:
448,192,279481,1,0,0:0:0:0:
320,192,279515,1,0,0:0:0:0:
64,192,279549,1,0,0:0:0:0:
192,192,279583,1,0,0:0:0:0:
320,192,279617,1,0,0:0:0:0:
448,192,279617,1,0,0:0:0:0:
64,192,279652,1,0,0:0:0:0:
192,192,279686,1,0,0:0:0:0:
448,192,279720,1,0,0:0:0:0:
320,192,279754,1,0,0:0:0:0:
64,192,279788,1,0,0:0:0:0:
192,192,279822,1,0,0:0:0:0:
448,192,279856,1,0,0:0:0:0:
320,192,279890,1,0,0:0:0:0:
64,192,279890,1,0,0:0:0:0:
192,192,279924,1,0,0:0:0:0:
448,192,279958,1,0,0:0:0:0:
320,192,279992,1,0,0:0:0:0:
64,192,280027,1,0,0:0:0:0:
192,192,280061,1,0,0:0:0:0:
448,192,280095,1,0,0:0:0:0:
320,192,280129,1,0,0:0:0:0:
64,192,280163,128,0,280572:0:0:0:0:
192,192,280163,128,2,281186:1:0:0:0:
448,192,280436,128,0,280708:0:0:0:0:
320,192,280572,128,0,280845:0:0:0:0:
64,192,280708,128,0,281186:0:0:0:0:
448,192,280845,128,0,281186:0:0:0:0:
320,192,280981,128,0,281186:0:0:0:0:
64,192,281254,1,2,1:0:0:0:
320,192,281254,1,0,0:0:0:0:
448,192,281254,1,4,0:0:0:0:
192,192,281254,1,0,0:0:0:0:
64,192,281390,1,2,1:0:0:0:
192,192,281390,1,0,0:0:0:0:
448,192,281390,1,0,0:0:0:0:
320,192,281527,1,2,0:0:0:0:
64,192,281527,1,0,0:0:0:0:
448,192,281527,128,0,281799:0:0:0:0:
192,192,281663,1,0,0:0:0:0:
320,192,281799,128,2,282072:1:0:0:0:
192,192,281799,1,0,0:0:0:0:
64,192,281936,1,0,0:0:0:0:
192,192,282072,128,2,282345:0:0:0:0:
64,192,282072,1,0,0:0:0:0:
448,192,282072,1,0,0:0:0:0:
448,192,282208,1,0,0:0:0:0:
64,192,282345,128,2,282617:1:0:0:0:
320,192,282345,1,0,0:0:0:0:
192,192,282481,1,0,0:0:0:0:
320,192,282617,128,2,282890:0:0:0:0:
192,192,282617,1,0,0:0:0:0:
448,192,282617,1,0,0:0:0:0:
448,192,282754,1,0,0:0:0:0:
192,192,282890,128,2,283163:1:0:0:0:
64,192,282890,1,0,0:0:0:0:
320,192,283027,1,0,0:0:0:0:
448,192,283163,128,2,283436:0:0:0:0:
64,192,283163,1,0,0:0:0:0:
320,192,283163,1,0,0:0:0:0:
192,192,283299,1,0,0:0:0:0:
320,192,283436,128,2,283708:1:0:0:0:
192,192,283436,1,0,0:0:0:0:
64,192,283572,1,0,0:0:0:0:
192,192,283708,128,2,283981:0:0:0:0:
448,192,283708,1,0,0:0:0:0:
64,192,283708,1,0,0:0:0:0:
320,192,283845,1,0,0:0:0:0:
64,192,283981,128,2,284254:1:0:0:0:
320,192,283981,1,0,0:0:0:0:
448,192,284117,1,0,0:0:0:0:
320,192,284254,128,2,284527:0:0:0:0:
192,192,284254,1,0,0:0:0:0:
448,192,284254,1,0,0:0:0:0:
192,192,284390,1,0,0:0:0:0:
448,192,284527,128,2,284799:1:0:0:0:
64,192,284527,1,0,0:0:0:0:
320,192,284663,1,0,0:0:0:0:
320,192,284799,128,2,285072:0:0:0:0:
192,192,284799,1,0,0:0:0:0:
64,192,284799,1,0,0:0:0:0:
64,192,284936,1,0,0:0:0:0:
192,192,285072,128,2,285345:1:0:0:0:
448,192,285072,1,0,0:0:0:0:
320,192,285208,1,0,0:0:0:0:
448,192,285345,128,2,285617:0:0:0:0:
64,192,285345,1,0,0:0:0:0:
320,192,285345,1,0,0:0:0:0:
192,192,285481,1,0,0:0:0:0:
64,192,285617,1,0,0:0:0:0:
192,192,285617,1,2,1:0:0:0:
320,192,285686,1,2,1:0:0:0:
448,192,285686,1,0,0:0:0:0:
192,192,285822,1,2,1:0:0:0:
64,192,285822,1,0,0:0:0:0:
320,192,285890,1,0,0:0:0:0:
448,192,285890,128,2,286163:0:0:0:0:
320,192,286027,1,0,0:0:0:0:
192,192,286163,128,2,286436:1:0:0:0:
64,192,286163,1,0,0:0:0:0:
448,192,286299,1,0,0:0:0:0:
64,192,286436,128,2,286708:0:0:0:0:
320,192,286436,1,0,0:0:0:0:
448,192,286436,1,0,0:0:0:0:
192,192,286572,1,0,0:0:0:0:
448,192,286708,128,2,286981:1:0:0:0:
320,192,286708,1,0,0:0:0:0:
64,192,286845,1,0,0:0:0:0:
320,192,286981,128,2,287254:0:0:0:0:
64,192,286981,1,0,0:0:0:0:
192,192,286981,1,0,0:0:0:0:
448,192,287117,1,0,0:0:0:0:
192,192,287254,128,2,287527:1:0:0:0:
64,192,287254,1,0,0:0:0:0:
320,192,287390,1,0,0:0:0:0:
448,192,287527,1,0,0:0:0:0:
320,192,287527,1,2,0:0:0:0:
64,192,287595,1,0,0:0:0:0:
192,192,287663,1,0,0:0:0:0:
320,192,287731,1,0,0:0:0:0:
448,192,287799,1,0,0:0:0:0:
192,192,287799,1,2,1:0:0:0:
64,192,287867,1,0,0:0:0:0:
320,192,287936,1,0,0:0:0:0:
192,192,288004,1,0,0:0:0:0:
320,192,288072,1,0,0:0:0:0:
448,192,288072,1,0,0:0:0:0:
64,192,288072,1,2,0:0:0:0:
192,192,288140,1,0,0:0:0:0:
448,192,288208,1,0,0:0:0:0:
64,192,288277,1,0,0:0:0:0:
320,192,288345,1,2,1:0:0:0:
448,192,288345,1,0,0:0:0:0:
64,192,288413,1,0,0:0:0:0:
192,192,288481,1,0,0:0:0:0:
320,192,288549,1,0,0:0:0:0:
192,192,288617,1,0,0:0:0:0:
64,192,288617,1,2,0:0:0:0:
448,192,288617,1,0,0:0:0:0:
320,192,288686,1,0,0:0:0:0:
64,192,288754,1,0,0:0:0:0:
192,192,288822,1,0,0:0:0:0:
320,192,288890,1,0,0:0:0:0:
64,192,288890,1,2,1:0:0:0:
448,192,288958,1,0,0:0:0:0:
192,192,289027,1,0,0:0:0:0:
320,192,289095,1,0,0:0:0:0:
64,192,289163,1,2,0:0:0:0:
192,192,289163,1,0,0:0:0:0:
448,192,289163,1,0,0:0:0:0:
320,192,289231,1,0,0:0:0:0:
64,192,289299,1,0,0:0:0:0:
192,192,289367,1,0,0:0:0:0:
320,192,289436,1,2,1:0:0:0:
448,192,289436,1,0,0:0:0:0:
64,192,289504,1,0,0:0:0:0:
320,192,289572,1,0,0:0:0:0:
192,192,289640,1,0,0:0:0:0:
448,192,289708,1,0,0:0:0:0:
320,192,289708,1,0,0:0:0:0:
64,192,289708,1,2,0:0:0:0:
192,192,289777,1,0,0:0:0:0:
448,192,289845,1,0,0:0:0:0:
320,192,289913,1,0,0:0:0:0:
64,192,289981,1,2,1:0:0:0:
192,192,289981,1,0,0:0:0:0:
64,192,290254,1,4,0:0:0:0:
320,192,290254,1,0,0:0:0:0:
448,192,290254,128,2,290527:0:0:0:0:
320,192,290390,1,0,0:0:0:0:
192,192,290527,128,2,290799:1:0:0:0:
64,192,290527,1,0,0:0:0:0:
448,192,290663,1,0,0:0:0:0:
448,192,290799,1,0,0:0:0:0:
320,192,290799,1,0,0:0:0:0:
64,192,290799,128,2,291072:0:0:0:0:
192,192,290936,1,0,0:0:0:0:
320,192,291072,1,0,0:0:0:0:
448,192,291072,128,2,291345:1:0:0:0:
64,192,291208,1,0,0:0:0:0:
320,192,291345,128,2,291617:0:0:0:0:
192,192,291345,1,0,0:0:0:0:
64,192,291345,1,0,0:0:0:0:
448,192,291481,1,0,0:0:0:0:
64,192,291617,128,2,291890:1:0:0:0:
192,192,291617,1,0,0:0:0:0:
448,192,291754,1,0,0:0:0:0:
448,192,291890,128,2,292163:0:0:0:0:
192,192,291890,1,0,0:0:0:0:
320,192,291890,1,0,0:0:0:0:
192,192,292027,1,0,0:0:0:0:
64,192,292163,1,2,1:0:0:0:
320,192,292163,1,0,0:0:0:0:
192,192,292299,1,0,0:0:0:0:
320,192,292367,1,0,0:0:0:0:
64,192,292436,1,0,0:0:0:0:
192,192,292436,128,2,292708:0:0:0:0:
448,192,292436,1,4,0:0:0:0:
320,192,292572,1,0,0:0:0:0:
64,192,292708,128,2,292981:1:0:0:0:
320,192,292708,1,0,0:0:0:0:
448,192,292845,1,0,0:0:0:0:
320,192,292981,128,2,293254:0:0:0:0:
448,192,292981,1,0,0:0:0:0:
192,192,292981,1,0,0:0:0:0:
64,192,293117,1,0,0:0:0:0:
448,192,293254,1,2,1:0:0:0:
192,192,293254,1,0,0:0:0:0:
64,192,293254,1,4,0:0:0:0:
448,192,293436,1,2,1:0:0:0:
192,192,293436,1,0,0:0:0:0:
64,192,293436,1,4,0:0:0:0:
448,192,293617,1,2,1:0:0:0:
192,192,293617,1,0,0:0:0:0:
64,192,293617,1,4,0:0:0:0:
64,192,293799,128,2,294345:0:0:0:0:
192,192,293799,1,4,0:0:0:0:
320,192,293867,1,0,0:0:0:0:
448,192,293936,1,0,0:0:0:0:
192,192,294072,1,2,0:0:0:0:
320,192,294140,1,0,0:0:0:0:
448,192,294208,1,0,0:0:0:0:
192,192,294345,1,0,0:0:0:0:
448,192,294345,1,0,0:0:0:0:
320,192,294345,1,0,0:0:0:0:
320,192,294481,1,0,1:0:0:0:
64,192,294617,1,0,0:0:0:0:
320,192,294617,1,0,1:0:0:0:
448,192,294754,1,2,0:0:0:0:
320,192,294754,1,0,1:0:0:0:
64,192,294890,1,0,0:0:0:0:
192,192,294890,1,0,1:0:0:0:
192,192,295027,1,0,1:0:0:0:
320,192,295163,1,2,0:0:0:0:
192,192,295163,1,0,1:0:0:0:
192,192,295299,1,0,1:0:0:0:
320,192,295367,1,0,1:0:0:0:
448,192,295436,1,0,1:0:0:0:
64,192,295436,1,2,0:0:0:0:
448,192,295572,1,0,1:0:0:0:
320,192,295708,1,0,0:0:0:0:
448,192,295708,1,0,1:0:0:0:
192,192,295845,1,2,0:0:0:0:
448,192,295845,1,0,1:0:0:0:
320,192,295913,1,0,1:0:0:0:
64,192,295981,1,0,1:0:0:0:
192,192,295981,1,0,0:0:0:0:
64,192,296117,1,0,1:0:0:0:
448,192,296254,1,2,0:0:0:0:
64,192,296254,1,0,1:0:0:0:
320,192,296322,1,0,1:0:0:0:
64,192,296390,1,0,1:0:0:0:
192,192,296458,1,0,1:0:0:0:
448,192,296527,1,2,0:0:0:0:
320,192,296527,1,0,1:0:0:0:
320,192,296663,1,0,1:0:0:0:
320,192,296799,1,0,1:0:0:0:
64,192,296799,1,0,0:0:0:0:
448,192,296936,1,2,0:0:0:0:
320,192,296936,1,0,1:0:0:0:
64,192,297072,1,0,0:0:0:0:
192,192,297072,1,0,1:0:0:0:
192,192,297208,1,0,1:0:0:0:
448,192,297345,1,2,0:0:0:0:
192,192,297345,1,0,1:0:0:0:
192,192,297481,1,0,1:0:0:0:
320,192,297549,1,0,1:0:0:0:
448,192,297617,1,2,0:0:0:0:
64,192,297617,1,0,1:0:0:0:
192,192,297754,1,0,1:0:0:0:
320,192,297822,1,0,0:0:0:0:
448,192,297890,1,0,1:0:0:0:
192,192,298027,1,0,1:0:0:0:
64,192,298027,1,2,0:0:0:0:
320,192,298095,1,0,1:0:0:0:
448,192,298163,1,0,1:0:0:0:
64,192,298208,1,0,1:0:0:0:
192,192,298254,1,0,1:0:0:0:
320,192,298299,1,0,1:0:0:0:
448,192,298299,1,0,0:0:0:0:
64,192,298367,1,0,1:0:0:0:
448,192,298436,1,2,0:0:0:0:
192,192,298436,1,0,1:0:0:0:
320,192,298504,1,0,1:0:0:0:
192,192,298572,1,0,1:0:0:0:
64,192,298640,1,0,1:0:0:0:
192,192,298708,128,2,298981:0:0:0:0:
320,192,298708,128,4,298981:0:0:0:0:
448,192,298708,128,0,298981:0:0:0:0:
448,192,299117,128,0,299390:0:0:0:0:
320,192,299117,128,4,299390:0:0:0:0:
192,192,299117,128,2,299390:0:0:0:0:
64,192,299527,128,2,299799:0:0:0:0:
192,192,299527,128,4,299799:0:0:0:0:
448,192,299527,128,0,299799:0:0:0:0:
64,192,299936,128,2,300208:0:0:0:0:
448,192,299936,128,0,300208:0:0:0:0:
192,192,299936,128,4,300208:0:0:0:0:
320,192,300345,128,4,300549:0:0:0:0:
448,192,300345,128,0,300549:0:0:0:0:
64,192,300345,128,2,300549:0:0:0:0:
64,192,300617,128,2,300822:0:0:0:0:
448,192,300617,128,0,300822:0:0:0:0:
320,192,300617,128,4,300822:0:0:0:0:
192,192,300890,128,4,301163:0:0:0:0:
320,192,300890,128,0,301163:0:0:0:0:
64,192,300890,128,2,301163:0:0:0:0:
320,192,301299,128,0,301572:0:0:0:0:
64,192,301299,128,2,301572:0:0:0:0:
192,192,301299,128,4,301572:0:0:0:0:
64,192,301708,128,2,301981:0:0:0:0:
448,192,301708,128,0,301981:0:0:0:0:
320,192,301708,128,4,301981:0:0:0:0:
64,192,302117,128,2,302390:0:0:0:0:
320,192,302117,128,4,302390:0:0:0:0:
448,192,302117,128,0,302390:0:0:0:0:
64,192,302527,1,2,0:0:0:0:
192,192,302527,1,0,0:0:0:0:
448,192,302595,1,0,0:0:0:0:
320,192,302629,1,0,0:0:0:0:
192,192,302663,1,0,0:0:0:0:
64,192,302697,1,0,0:0:0:0:
448,192,302731,1,0,0:0:0:0:
320,192,302765,1,0,0:0:0:0:
192,192,302799,1,0,0:0:0:0:
64,192,302833,1,0,0:0:0:0:
448,192,302867,1,0,0:0:0:0:
320,192,302902,1,0,0:0:0:0:
192,192,302936,1,0,0:0:0:0:
64,192,302970,1,0,0:0:0:0:
448,192,303004,1,0,0:0:0:0:
64,192,303072,128,2,303345:0:0:0:0:
192,192,303072,128,4,303345:0:0:0:0:
320,192,303072,128,0,303345:0:0:0:0:
64,192,303481,128,2,303754:0:0:0:0:
192,192,303481,128,4,303754:0:0:0:0:
320,192,303481,128,0,303754:0:0:0:0:
192,192,303890,128,2,304163:0:0:0:0:
320,192,303890,128,4,304163:0:0:0:0:
448,192,303890,128,0,304163:0:0:0:0:
192,192,304299,128,2,304572:0:0:0:0:
320,192,304299,128,4,304572:0:0:0:0:
448,192,304299,128,0,304572:0:0:0:0:
192,192,304708,128,4,304913:0:0:0:0:
64,192,304708,128,2,304913:0:0:0:0:
448,192,304708,128,0,304913:0:0:0:0:
448,192,304981,128,0,305186:0:0:0:0:
64,192,304981,128,2,305186:0:0:0:0:
192,192,304981,128,4,305186:0:0:0:0:
64,192,305254,128,2,305527:0:0:0:0:
320,192,305254,128,4,305527:0:0:0:0:
448,192,305254,128,0,305527:0:0:0:0:
64,192,305663,128,2,305936:0:0:0:0:
320,192,305663,128,4,305936:0:0:0:0:
448,192,305663,128,0,305936:0:0:0:0:
64,192,306072,128,2,306345:0:0:0:0:
192,192,306072,128,4,306345:0:0:0:0:
320,192,306072,128,0,306345:0:0:0:0:
64,192,306481,128,2,306754:0:0:0:0:
192,192,306481,128,4,306754:0:0:0:0:
320,192,306481,128,0,306754:0:0:0:0:
64,192,306890,1,2,0:0:0:0:
192,192,306890,1,0,0:0:0:0:
320,192,306890,1,0,0:0:0:0:
448,192,307095,128,0,307231:0:0:0:0:
448,192,307299,128,0,307436:0:0:0:0:
192,192,307436,1,2,1:0:0:0:
64,192,307436,1,6,0:0:0:0:
320,192,307504,1,2,1:0:0:0:
448,192,307504,1,0,0:0:0:0:
192,192,307572,1,2,1:0:0:0:
64,192,307572,1,0,0:0:0:0:
320,192,307640,1,2,1:0:0:0:
448,192,307640,1,0,0:0:0:0:
192,192,307708,1,2,1:0:0:0:
64,192,307708,1,8,1:0:0:0:
320,192,307845,1,2,1:0:0:0:
448,192,307845,1,6,0:0:0:0:
192,192,307913,1,2,1:0:0:0:
64,192,307913,1,0,0:0:0:0:
320,192,307981,1,2,1:0:0:0:
448,192,307981,1,0,0:0:0:0:
192,192,308049,1,2,1:0:0:0:
64,192,308049,1,0,0:0:0:0:
320,192,308117,1,2,1:0:0:0:
448,192,308117,1,0,0:0:0:0:
64,192,308254,1,6,0:0:0:0:
320,192,308254,1,2,1:0:0:0:
448,192,308322,1,0,0:0:0:0:
192,192,308322,1,2,1:0:0:0:
64,192,308390,1,0,0:0:0:0:
320,192,308390,1,2,1:0:0:0:
192,192,308458,1,2,1:0:0:0:
448,192,308458,1,0,0:0:0:0:
320,192,308527,1,2,1:0:0:0:
64,192,308527,1,8,1:0:0:0:
192,192,308663,1,2,1:0:0:0:
448,192,308663,1,6,0:0:0:0:
320,192,308731,1,2,1:0:0:0:
64,192,308731,1,0,0:0:0:0:
192,192,308799,1,2,1:0:0:0:
448,192,308799,1,0,0:0:0:0:
320,192,308867,1,2,1:0:0:0:
64,192,308867,1,0,0:0:0:0:
448,192,308936,1,0,0:0:0:0:
192,192,308936,1,2,1:0:0:0:
64,192,309072,1,6,0:0:0:0:
192,192,309072,1,2,1:0:0:0:
320,192,309140,1,2,1:0:0:0:
448,192,309140,1,0,0:0:0:0:
192,192,309208,1,2,1:0:0:0:
64,192,309208,1,0,0:0:0:0:
320,192,309277,1,2,1:0:0:0:
448,192,309277,1,0,0:0:0:0:
64,192,309345,1,6,0:0:0:0:
192,192,309345,1,10,1:0:0:0:
320,192,309413,1,2,1:0:0:0:
448,192,309413,1,0,0:0:0:0:
192,192,309481,1,2,1:0:0:0:
64,192,309481,1,0,0:0:0:0:
320,192,309549,1,2,1:0:0:0:
64,192,309617,1,10,1:0:0:0:
448,192,309617,1,6,0:0:0:0:
320,192,309686,1,2,1:0:0:0:
192,192,309686,1,0,0:0:0:0:
64,192,309754,1,2,1:0:0:0:
448,192,309754,1,0,0:0:0:0:
192,192,309822,1,0,0:0:0:0:
320,192,309822,1,2,1:0:0:0:
64,192,309890,1,2,0:0:0:0:
448,192,309890,1,8,1:0:0:0:
192,192,310027,1,6,0:0:0:0:
320,192,310027,1,2,1:0:0:0:
64,192,310095,1,2,1:0:0:0:
448,192,310095,1,0,0:0:0:0:
192,192,310163,1,0,0:0:0:0:
320,192,310163,1,2,1:0:0:0:
64,192,310231,1,2,1:0:0:0:
448,192,310231,1,0,0:0:0:0:
192,192,310299,1,0,0:0:0:0:
320,192,310299,1,2,1:0:0:0:
320,192,310436,1,2,1:0:0:0:
448,192,310436,1,6,0:0:0:0:
64,192,310504,1,0,0:0:0:0:
192,192,310504,1,2,1:0:0:0:
320,192,310572,1,2,1:0:0:0:
448,192,310572,1,0,0:0:0:0:
64,192,310640,1,0,0:0:0:0:
192,192,310640,1,2,1:0:0:0:
320,192,310708,1,2,1:0:0:0:
448,192,310708,1,8,1:0:0:0:
192,192,310777,1,0,0:0:0:0:
448,192,310845,1,2,1:0:0:0:
64,192,310845,1,6,0:0:0:0:
320,192,310913,1,2,1:0:0:0:
192,192,310913,1,0,0:0:0:0:
448,192,310981,1,2,1:0:0:0:
64,192,310981,1,0,0:0:0:0:
320,192,311049,1,2,1:0:0:0:
192,192,311049,1,0,0:0:0:0:
64,192,311117,1,0,0:0:0:0:
448,192,311117,1,2,1:0:0:0:
320,192,311186,1,0,0:0:0:0:
192,192,311254,1,0,0:0:0:0:
64,192,311254,1,2,0:0:0:0:
448,192,311322,1,0,0:0:0:0:
320,192,311356,1,0,0:0:0:0:
192,192,311390,1,0,0:0:0:0:
64,192,311424,1,0,0:0:0:0:
448,192,311458,1,0,0:0:0:0:
320,192,311492,1,0,0:0:0:0:
192,192,311527,1,0,0:0:0:0:
64,192,311561,1,0,0:0:0:0:
448,192,311595,1,0,0:0:0:0:
320,192,311629,1,0,0:0:0:0:
192,192,311663,1,0,0:0:0:0:
64,192,311697,1,0,0:0:0:0:
448,192,311731,1,0,0:0:0:0:
320,192,311799,1,2,1:0:0:0:
192,192,311799,1,4,0:0:0:0:
64,192,311799,1,2,0:0:0:0:
448,192,311867,1,2,1:0:0:0:
64,192,311936,1,0,0:0:0:0:
192,192,311936,1,2,1:0:0:0:
320,192,312004,1,2,1:0:0:0:
64,192,312072,1,2,1:0:0:0:
448,192,312072,1,0,0:0:0:0:
192,192,312140,1,2,1:0:0:0:
320,192,312208,1,2,1:0:0:0:
64,192,312208,1,2,0:0:0:0:
448,192,312208,1,4,0:0:0:0:
192,192,312277,1,2,1:0:0:0:
448,192,312345,1,0,0:0:0:0:
320,192,312345,1,2,1:0:0:0:
64,192,312413,1,2,1:0:0:0:
448,192,312481,1,0,0:0:0:0:
192,192,312481,1,2,1:0:0:0:
320,192,312549,1,2,1:0:0:0:
64,192,312617,1,6,0:0:0:0:
192,192,312617,1,2,1:0:0:0:
320,192,312686,1,2,1:0:0:0:
448,192,312686,1,0,0:0:0:0:
192,192,312754,1,2,1:0:0:0:
64,192,312754,1,0,0:0:0:0:
320,192,312822,1,2,1:0:0:0:
448,192,312822,1,0,0:0:0:0:
64,192,312890,1,0,0:0:0:0:
192,192,312890,1,2,1:0:0:0:
320,192,312958,1,2,1:0:0:0:
448,192,312958,1,0,0:0:0:0:
192,192,313027,1,2,1:0:0:0:
64,192,313027,1,6,0:0:0:0:
320,192,313095,1,2,1:0:0:0:
448,192,313095,1,0,0:0:0:0:
192,192,313163,1,2,1:0:0:0:
64,192,313163,1,0,0:0:0:0:
320,192,313231,1,2,1:0:0:0:
448,192,313231,1,0,0:0:0:0:
192,192,313299,1,2,1:0:0:0:
64,192,313299,1,0,0:0:0:0:
448,192,313367,1,0,0:0:0:0:
320,192,313367,1,2,1:0:0:0:
192,192,313436,1,2,1:0:0:0:
64,192,313436,1,6,0:0:0:0:
448,192,313504,1,0,0:0:0:0:
320,192,313504,1,2,1:0:0:0:
192,192,313572,1,2,1:0:0:0:
64,192,313572,1,0,0:0:0:0:
320,192,313640,1,2,1:0:0:0:
448,192,313640,1,0,0:0:0:0:
64,192,313708,1,6,0:0:0:0:
192,192,313708,1,2,1:0:0:0:
320,192,313777,1,2,1:0:0:0:
448,192,313777,1,0,0:0:0:0:
192,192,313845,1,2,1:0:0:0:
64,192,313845,1,0,0:0:0:0:
320,192,313913,1,2,1:0:0:0:
448,192,313913,1,0,0:0:0:0:
192,192,313981,1,0,0:0:0:0:
64,192,313981,128,2,315072:0:0:0:0:
448,192,314254,1,0,0:0:0:0:
320,192,314345,1,0,0:0:0:0:
192,192,314436,1,0,0:0:0:0:
320,192,314527,1,0,0:0:0:0:
448,192,314617,1,0,0:0:0:0:
192,192,314708,1,0,0:0:0:0:
448,192,314799,1,0,0:0:0:0:
320,192,314890,1,0,0:0:0:0:
192,192,314981,1,0,0:0:0:0:
320,192,315072,1,2,1:0:0:0:
448,192,315072,1,0,0:0:0:0:
192,192,315140,1,2,1:0:0:0:
64,192,315140,1,0,0:0:0:0:
320,192,315345,1,2,1:0:0:0:
448,192,315345,1,0,0:0:0:0:
192,192,315413,1,2,1:0:0:0:
64,192,315413,1,0,0:0:0:0:
448,192,315617,128,0,315890:0:0:0:0:
320,192,315617,1,2,1:0:0:0:
192,192,315686,1,2,1:0:0:0:
64,192,315686,1,0,0:0:0:0:
192,192,315890,1,8,1:0:0:0:
64,192,315890,1,2,0:0:0:0:
320,192,315890,1,0,0:0:0:0:
64,192,315981,1,0,0:0:0:0:
192,192,316072,1,0,0:0:0:0:
64,192,316163,1,4,0:0:0:0:
320,192,316163,1,0,0:0:0:0:
448,192,316163,1,2,1:0:0:0:
320,192,316708,1,0,0:0:0:0:
64,192,316981,1,2,1:0:0:0:
192,192,316981,1,0,0:0:0:0:
64,192,317527,1,2,1:0:0:0:
192,192,317527,1,0,0:0:0:0:
448,192,317663,1,0,0:0:0:0:
320,192,317731,1,0,0:0:0:0:
448,192,317799,1,0,0:0:0:0:
192,192,317936,1,0,0:0:0:0:
64,192,318345,1,0,0:0:0:0:
448,192,318345,1,2,1:0:0:0:
192,192,318617,1,0,0:0:0:0:
320,192,318754,1,0,0:0:0:0:
192,192,319027,1,0,0:0:0:0:
64,192,319163,1,0,0:0:0:0:
448,192,319163,1,2,1:0:0:0:
320,192,319436,1,0,0:0:0:0:
192,192,319572,1,0,0:0:0:0:
64,192,319708,1,0,0:0:0:0:
448,192,319708,1,2,1:0:0:0:
192,192,320117,1,0,0:0:0:0:
192,192,320390,1,0,0:0:0:0:
320,192,320527,1,2,1:0:0:0:
448,192,320527,1,0,0:0:0:0:
448,192,320799,1,0,0:0:0:0:
64,192,320936,1,0,0:0:0:0:
192,192,321004,1,0,0:0:0:0:
64,192,321072,1,0,0:0:0:0:
192,192,321208,1,0,0:0:0:0:
320,192,321345,1,2,1:0:0:0:
448,192,321345,1,0,0:0:0:0:
64,192,321754,1,0,0:0:0:0:
192,192,321822,1,0,0:0:0:0:
320,192,321890,1,2,1:0:0:0:
448,192,321890,1,0,0:0:0:0:
192,192,322027,1,0,0:0:0:0:
320,192,322095,1,0,0:0:0:0:
192,192,322163,1,0,0:0:0:0:
448,192,322299,1,0,0:0:0:0:
64,192,322708,1,2,1:0:0:0:
192,192,322708,1,0,0:0:0:0:
64,192,322981,1,0,0:0:0:0:
192,192,323117,1,0,0:0:0:0:
320,192,323390,1,0,0:0:0:0:
64,192,323527,1,0,0:0:0:0:
448,192,323527,1,2,1:0:0:0:
192,192,323799,1,0,0:0:0:0:
320,192,323936,1,0,0:0:0:0:
192,192,324072,1,2,1:0:0:0:
64,192,324072,1,0,0:0:0:0:
448,192,324208,1,0,0:0:0:0:
320,192,324481,1,0,0:0:0:0:
320,192,324754,1,0,0:0:0:0:
448,192,324890,1,0,0:0:0:0:
64,192,324890,1,2,1:0:0:0:
192,192,325027,1,0,0:0:0:0:
320,192,325163,1,0,0:0:0:0:
448,192,325299,1,0,0:0:0:0:
64,192,325436,1,0,0:0:0:0:
192,192,325572,1,0,0:0:0:0:
320,192,325708,1,0,0:0:0:0:
448,192,325845,1,0,0:0:0:0:
64,192,325981,1,0,0:0:0:0:
192,192,326117,1,0,0:0:0:0:
320,192,326254,1,0,0:0:0:0:
448,192,326390,1,0,0:0:0:0:
64,192,326527,1,0,0:0:0:0:
192,192,326663,1,0,0:0:0:0:
320,192,326799,1,0,0:0:0:0:
448,192,326936,1,0,0:0:0:0:
64,192,327072,128,0,328163:0:0:0:0:
192,192,327208,1,0,0:0:0:0:
320,192,327345,1,0,0:0:0:0:
448,192,327481,1,0,0:0:0:0:
192,192,327617,1,0,0:0:0:0:
448,192,327754,1,0,0:0:0:0:
320,192,327890,1,0,0:0:0:0:
192,192,328163,1,0,0:0:0:0:
448,192,328231,128,0,331436:0:0:0:0:
64,192,328299,1,0,0:0:0:0:
320,192,328436,128,0,329254:0:0:0:0:
64,192,329458,128,0,331913:0:0:0:0:
192,192,331436,128,0,336890:0:0:0:0:
320,192,331913,128,0,339345:0:0:0:0:
