osu file format v14

[General]
AudioFilename: audio.mp3
AudioLeadIn: 0
PreviewTime: 215293
Countdown: 0
SampleSet: Soft
StackLeniency: 0.7
Mode: 3
LetterboxInBreaks: 0
SpecialStyle: 0
WidescreenStoryboard: 1

[Editor]
Bookmarks: 16496,150725,161696,240382,285296
DistanceSpacing: 0.3
BeatDivisor: 4
GridSize: 8
TimelineZoom: 2.100002

[Metadata]
Title:Flash Me Back
TitleUnicode:Flash Me Back
Artist:Camellia
ArtistUnicode:かめりあ
Creator:ZirconEscalus
Version:Temporal Anomaly
Source:
Tags:featured artist fa kamelcamellia cametek masaya oya かめるかめりあ かめてく 大箭将也 大箭マサヤ breakcore EDM Electronic Dance Music J-Core Jcore dubstep UK hardcore instrumental drumstep artcore techno 300k subs 2022 FAMoss Prostatic101
BeatmapID:3768526
BeatmapSetID:1835578

[Difficulty]
HPDrainRate:8
CircleSize:4
OverallDifficulty:8
ApproachRate:5
SliderMultiplier:1.4
SliderTickRate:1

[Events]
//Background and Video events
0,0,"bg.jpeg",0,0
//Break Periods
//Storyboard Layer 0 (Background)
//Storyboard Layer 1 (Fail)
//Storyboard Layer 2 (Pass)
//Storyboard Layer 3 (Foreground)
//Storyboard Layer 4 (Overlay)
//Storyboard Sound Samples
Sample,5524,0,"P_Gb5.wav",25
Sample,8096,0,"P_Bb5.wav",25
Sample,10839,0,"P_Bb5.wav",25
Sample,13582,0,"P_Bb5.wav",25
Sample,14953,0,"P_Gb5.wav",25
Sample,15639,0,"P_Bb5.wav",25
Sample,16496,0,"soft-hitnormal.wav",30
Sample,16496,0,"P_Bb5.wav",25
Sample,16496,0,"P_Gb5.wav",25
Sample,17182,0,"soft-hitnormal.wav",30
Sample,17867,0,"soft-hitnormal.wav",30
Sample,18210,0,"soft-hitnormal.wav",30
Sample,18382,0,"soft-hitnormal.wav",30
Sample,18553,0,"soft-hitnormal.wav",30
Sample,18725,0,"soft-hitnormal.wav",30
Sample,18896,0,"soft-hitnormal.wav",30
Sample,19067,0,"P_Bb5.wav",25
Sample,19067,0,"soft-hitnormal.wav",30
Sample,19067,0,"P_Gb5.wav",25
Sample,19410,0,"soft-hitnormal.wav",30
Sample,19582,0,"soft-hitnormal.wav",30
Sample,19753,0,"soft-hitnormal.wav",30
Sample,20096,0,"P_Ab7.wav",30
Sample,20096,0,"soft-hitnormal.wav",30
Sample,20267,0,"soft-hitnormal.wav",30
Sample,20267,0,"P_Bb7.wav",30
Sample,20439,0,"soft-hitnormal.wav",30
Sample,20439,0,"P_Ab5.wav",25
Sample,20439,0,"P_Bb5.wav",25
Sample,20782,0,"soft-hitnormal.wav",30
Sample,20953,0,"soft-hitnormal.wav",30
Sample,21125,0,"soft-hitnormal.wav",30
Sample,21639,0,"soft-hitnormal.wav",30
Sample,21810,0,"soft-hitnormal.wav",30
Sample,21982,0,"soft-hitnormal.wav",30
Sample,21982,0,"P_Ab5.wav",25
Sample,21982,0,"P_Gb5.wav",25
Sample,22325,0,"soft-hitnormal.wav",30
Sample,22496,0,"soft-hitnormal.wav",30
Sample,23010,0,"soft-hitnormal.wav",30
Sample,23182,0,"soft-hitnormal.wav",30
Sample,23353,0,"soft-hitnormal.wav",30
Sample,23353,0,"P_D5.wav",15
Sample,23353,0,"P_Gb5.wav",25
Sample,23696,0,"soft-hitnormal.wav",30
Sample,23867,0,"soft-hitnormal.wav",30
Sample,24382,0,"soft-hitnormal.wav",30
Sample,24553,0,"soft-hitnormal.wav",30
Sample,24725,0,"soft-hitnormal.wav",30
Sample,24725,0,"P_Bb5.wav",25
Sample,24725,0,"P_Gb5.wav",25
Sample,88839,0,"soft-hitwhistle.wav",70
Sample,89525,0,"soft-hitwhistle.wav",70
Sample,90210,0,"soft-hitwhistle.wav",70
Sample,147467,0,"soft-hitnormal.wav",50
Sample,148153,0,"P_Gb5.wav",25
Sample,148153,0,"P_Bb5.wav",25
Sample,148153,0,"P_Db6.wav",25
Sample,150725,0,"P_Bb5.wav",25
Sample,150725,0,"P_Eb5.wav",25
Sample,150725,0,"P_Gb5.wav",25
Sample,153467,0,"P_F5.wav",25
Sample,153467,0,"P_Ab5.wav",25
Sample,153467,0,"P_Gb5.wav",25
Sample,156210,0,"P_Eb5.wav",25
Sample,156210,0,"P_Bb5.wav",25
Sample,156210,0,"P_Gb5.wav",25
Sample,157582,0,"P_Bb5.wav",25
Sample,157582,0,"P_Gb5.wav",25
Sample,158267,0,"P_Ab5.wav",25
Sample,158267,0,"P_E5.wav",20
Sample,159125,0,"P_Gb5.wav",25
Sample,159125,0,"acoustickick.mp3",70
Sample,159125,0,"P_Db6.wav",25
Sample,159125,0,"P_Bb5.wav",25
Sample,161696,0,"P_Bb5.wav",25
Sample,161696,0,"P_Gb5.wav",25
Sample,161696,0,"P_Eb5.wav",25
Sample,162725,0,"P_Ab7.wav",50
Sample,162896,0,"P_Bb7.wav",50
Sample,163067,0,"P_F5.wav",25
Sample,163067,0,"P_Bb5.wav",25
Sample,163067,0,"P_Gb5.wav",25
Sample,164610,0,"P_Gb5.wav",25
Sample,164610,0,"P_Bb5.wav",25
Sample,164610,0,"P_Ab5.wav",25
Sample,165982,0,"P_Gb5.wav",25
Sample,165982,0,"P_Ab5.wav",25
Sample,213639,0,"soft-hitwhistle.wav",50
Sample,213682,0,"soft-hitwhistle.wav",50
Sample,213725,0,"soft-hitwhistle.wav",50
Sample,213767,0,"soft-hitwhistle.wav",50
Sample,213810,0,"soft-hitwhistle.wav",50
Sample,213853,0,"soft-hitwhistle.wav",50
Sample,213896,0,"soft-hitwhistle.wav",50
Sample,213939,0,"soft-hitwhistle.wav",50
Sample,240382,0,"P_G7.wav",50
Sample,241067,0,"P_F8.wav",50
Sample,243810,0,"P_F7.wav",50
Sample,244496,0,"P_F7.wav",50
Sample,245867,0,"P_G7.wav",50
Sample,246553,0,"P_F8.wav",50
Sample,247925,0,"P_Bb7.wav",50
Sample,251353,0,"P_G7.wav",50
Sample,251696,0,"P_Bb7.wav",50
Sample,252039,0,"P_F8.wav",50
Sample,252382,0,"P_Bb7.wav",50
Sample,252725,0,"P_F8.wav",50
Sample,285296,0,"soft-hitnormal.wav",70
Sample,285467,0,"soft-hitnormal.wav",70
Sample,285639,0,"soft-hitnormal.wav",70
Sample,285810,0,"soft-hitnormal.wav",70
Sample,285982,0,"soft-hitnormal.wav",70
Sample,286153,0,"P_F5.wav",25
Sample,286153,0,"soft-hitnormal.wav",70
Sample,286325,0,"P_G5.wav",25
Sample,286325,0,"soft-hitnormal.wav",70
Sample,286496,0,"soft-hitnormal.wav",70
Sample,286496,0,"P_Eb6.wav",25
Sample,287010,0,"soft-hitnormal.wav",70
Sample,287182,0,"soft-hitnormal.wav",70
Sample,287353,0,"soft-hitnormal.wav",70
Sample,287525,0,"soft-hitnormal.wav",70
Sample,287525,0,"P_G5.wav",25
Sample,287696,0,"soft-hitnormal.wav",70
Sample,287696,0,"P_Ab5.wav",25
Sample,287867,0,"soft-hitnormal.wav",70
Sample,287867,0,"P_Bb5.wav",25
Sample,288210,0,"soft-hitnormal.wav",60
Sample,288382,0,"soft-hitnormal.wav",60
Sample,288553,0,"soft-hitnormal.wav",60
Sample,288725,0,"soft-hitnormal.wav",60
Sample,288896,0,"P_C5.wav",25
Sample,288896,0,"soft-hitnormal.wav",60
Sample,289067,0,"P_G5.wav",15
Sample,289067,0,"soft-hitnormal.wav",60
Sample,289239,0,"P_C6.wav",25
Sample,289239,0,"soft-hitnormal.wav",60
Sample,289753,0,"soft-hitnormal.wav",60
Sample,289925,0,"soft-hitnormal.wav",60
Sample,290267,0,"P_Eb5.wav",25
Sample,290267,0,"soft-hitnormal.wav",60
Sample,290439,0,"soft-hitnormal.wav",60
Sample,290439,0,"P_G5.wav",25
Sample,290610,0,"P_F5.wav",25
Sample,290610,0,"soft-hitnormal.wav",60
Sample,290953,0,"soft-hitnormal.wav",50
Sample,291125,0,"soft-hitnormal.wav",50
Sample,291296,0,"soft-hitnormal.wav",50
Sample,291467,0,"soft-hitnormal.wav",50
Sample,291639,0,"P_Eb5.wav",25
Sample,291639,0,"soft-hitnormal.wav",50
Sample,291810,0,"soft-hitnormal.wav",50
Sample,291810,0,"P_F5.wav",25
Sample,291982,0,"soft-hitnormal.wav",50
Sample,291982,0,"P_C6.wav",25
Sample,292496,0,"soft-hitnormal.wav",50
Sample,292667,0,"soft-hitnormal.wav",50
Sample,292839,0,"P_D4.wav",25
Sample,292839,0,"P_G3.wav",25
Sample,293010,0,"soft-hitnormal.wav",50
Sample,293182,0,"soft-hitnormal.wav",50
Sample,293353,0,"soft-hitnormal.wav",50
Sample,294039,0,"soft-hitnormal.wav",40
Sample,294210,0,"soft-hitnormal.wav",40
Sample,294382,0,"soft-hitnormal.wav",40
Sample,294553,0,"soft-hitnormal.wav",40
Sample,295067,0,"soft-hitnormal.wav",40
Sample,295239,0,"soft-hitnormal.wav",40
Sample,296267,0,"soft-hitnormal.wav",30
Sample,296439,0,"soft-hitnormal.wav",20
Sample,296611,0,"soft-hitnormal.wav",15
Sample,296784,0,"soft-hitnormal.wav",10
Sample,297129,0,"P_F5.wav",25
Sample,297301,0,"P_G5.wav",25
Sample,297473,0,"P_Eb6.wav",25
Sample,298343,0,"P_Eb4.wav",25
Sample,298518,0,"P_G5.wav",25
Sample,298692,0,"P_Ab5.wav",25
Sample,298866,0,"P_Bb5.wav",25
Sample,299913,0,"P_C5.wav",25
Sample,300087,0,"P_G5.wav",15
Sample,300262,0,"P_C6.wav",25
Sample,301154,0,"P_Ab4.wav",25
Sample,301334,0,"P_Eb5.wav",25
Sample,301513,0,"P_G5.wav",25
Sample,301693,0,"P_F5.wav",25
Sample,302771,0,"P_Eb5.wav",25
Sample,302950,0,"P_F5.wav",25
Sample,303130,0,"P_C6.wav",25
Sample,303849,0,"P_F5.wav",25
Sample,304208,0,"P_G5.wav",25
Sample,304388,0,"P_Ab5.wav",25
Sample,304567,0,"P_Eb6.wav",25
Sample,304747,0,"P_Db4.wav",25
Sample,304929,0,"P_Ab4.wav",25
Sample,305112,0,"P_Eb5.wav",25
Sample,305295,0,"P_F5.wav",25
Sample,305478,0,"P_C6.wav",25
Sample,308002,0,"P_Ab6.wav",25
Sample,308216,0,"P_Bb6.wav",25
Sample,308438,0,"P_C7.wav",25
Sample,312388,0,"P_Bb4.wav",25

[TimingPoints]
5525,342.857142857143,4,2,1,100,1,0
5525,-100,4,2,1,50,0,0
27467,-100,4,2,1,100,0,0
71353,-100,4,2,1,100,0,1
112496,-100,4,2,1,100,0,0
137182,-100,4,2,1,50,0,0
172839,-100,4,2,1,10,0,0
173525,-100,4,2,1,100,0,0
216725,-100,4,2,1,100,0,1
259239,-100,4,2,1,100,0,0
296267,344.827586206897,4,2,1,50,1,0
296267,-99.009900990099,4,2,1,50,0,0
297646,348.837209302326,4,2,1,50,1,0
297646,-98.0392156862745,4,2,1,50,0,0
300436,359.281437125748,4,2,1,50,1,0
300436,-95.2380952380952,4,2,1,50,0,0
304747,365.853658536585,4,2,1,50,1,0
304747,-93.4579439252336,4,2,1,50,0,0
306210,394.736842105263,4,2,1,50,1,0
306210,-86.9565217391304,4,2,1,50,0,0
307788,428.571428571429,4,2,1,50,1,0
307788,-80,4,2,1,50,0,0
308216,444.444444444444,4,2,1,50,1,0
308216,-76.9230769230769,4,2,1,50,0,0
308660,480,4,2,1,50,1,0
308660,-71.4285714285714,4,2,1,50,0,0
309140,545.454545454546,4,2,1,50,1,0
309140,-62.8930817610063,4,2,1,50,0,0
309685,600,4,2,1,50,1,0
309685,-57.1428571428571,4,2,1,50,0,0
310285,666.666666666667,4,2,1,50,1,0
310285,-51.5463917525773,4,2,1,50,0,0
310951,375,4,2,1,50,1,0
310951,-91.743119266055,4,2,1,50,0,0

[HitObjects]
448,192,5524,128,0,5610:0:0:0:50:P_Bb7.wav
64,192,5524,128,0,5696:0:0:0:25:P_Db6.wav
448,192,6210,1,0,0:0:0:25:P_Bb7.wav
448,192,6896,1,0,0:0:0:12:P_Bb7.wav
192,192,7239,128,0,7325:0:0:0:50:P_F7.wav
320,192,7410,128,0,7496:0:0:0:50:P_Gb7.wav
64,192,7582,128,0,7667:0:0:0:50:P_Ab7.wav
192,192,7753,128,0,7839:0:0:0:50:P_Db8.wav
448,192,7924,128,0,8010:0:0:0:50:P_Eb8.wav
64,192,8096,128,0,8182:0:0:0:50:P_Bb7.wav
192,192,8096,128,0,8267:0:0:0:25:P_Gb5.wav
320,192,8439,1,0,0:0:0:25:P_Db8.wav
448,192,8610,1,0,0:0:0:25:P_Eb8.wav
64,192,8782,1,0,0:0:0:25:P_Bb7.wav
320,192,9125,1,0,0:0:0:12:P_Db8.wav
448,192,9296,1,0,0:0:0:12:P_Eb8.wav
64,192,9467,1,0,0:0:0:12:P_Bb7.wav
320,192,10153,128,0,10239:0:0:0:50:P_F8.wav
448,192,10239,128,0,10325:0:0:0:50:P_Gb8.wav
320,192,10325,128,0,10410:0:0:0:50:P_F8.wav
64,192,10496,128,0,10582:0:0:0:50:P_Db8.wav
192,192,10667,128,0,10753:0:0:0:50:P_Eb8.wav
64,192,10839,128,0,11010:0:0:0:25:P_Db6.wav
320,192,10839,1,0,0:0:0:25:P_F8.wav
448,192,10925,1,0,0:0:0:25:P_Gb8.wav
320,192,11010,1,0,0:0:0:25:P_F8.wav
64,192,11182,1,0,0:0:0:25:P_Db8.wav
192,192,11353,1,0,0:0:0:25:P_Eb8.wav
320,192,11525,1,0,0:0:0:12:P_F8.wav
448,192,11610,1,0,0:0:0:12:P_Gb8.wav
320,192,11696,1,0,0:0:0:12:P_F8.wav
64,192,11867,1,0,0:0:0:12:P_Db8.wav
192,192,12039,1,0,0:0:0:12:P_Eb8.wav
192,192,12725,128,0,12810:0:0:0:50:P_F7.wav
320,192,12896,128,0,12982:0:0:0:50:P_Gb7.wav
64,192,13067,128,0,13153:0:0:0:50:P_Ab7.wav
192,192,13239,128,0,13325:0:0:0:50:P_Db8.wav
448,192,13410,128,0,13496:0:0:0:50:P_Eb8.wav
192,192,13582,128,0,13753:0:0:0:25:P_Gb5.wav
64,192,13582,128,0,13667:0:0:0:50:P_Bb7.wav
320,192,13925,1,0,0:0:0:25:P_Db8.wav
448,192,14096,1,0,0:0:0:25:P_Eb8.wav
64,192,14267,1,0,0:0:0:25:P_Bb7.wav
320,192,14439,128,0,14525:0:0:0:50:P_F7.wav
64,192,14610,128,0,14696:0:0:0:50:P_Gb7.wav
192,192,14782,128,0,14867:0:0:0:50:P_Ab7.wav
448,192,14953,128,0,15039:0:0:0:50:P_Db8.wav
320,192,14953,128,0,15639:0:0:0:25:P_Cb6.wav
192,192,15296,128,0,15382:0:0:0:50:P_Cb8.wav
64,192,15639,128,0,15725:0:0:0:50:P_Bb7.wav
448,192,15639,128,0,16325:0:0:0:25:P_Db6.wav
192,192,15982,128,0,16067:0:0:0:30:P_Ab7.wav
320,192,15982,128,0,16067:0:0:0:20:P_B7.wav
448,192,16496,128,0,16582:0:0:0:50:P_Bb7.wav
64,192,16496,128,0,16667:0:0:0:25:P_Db6.wav
320,192,16667,1,0,0:0:0:30:
64,192,16839,1,0,0:0:0:30:
192,192,17010,1,0,0:0:0:30:
448,192,17182,1,0,0:0:0:25:P_Bb7.wav
192,192,17353,1,0,0:0:0:30:
320,192,17525,1,0,0:0:0:30:
64,192,17696,1,0,0:0:0:30:
448,192,17867,1,0,0:0:0:12:P_Bb7.wav
320,192,18039,1,0,0:0:0:30:
192,192,18210,128,0,18296:0:0:0:50:P_F7.wav
320,192,18382,128,0,18467:0:0:0:50:P_Gb7.wav
64,192,18553,128,0,18639:0:0:0:50:P_Ab7.wav
192,192,18725,128,0,18810:0:0:0:50:P_Db8.wav
448,192,18896,128,0,18982:0:0:0:50:P_Eb8.wav
64,192,19067,128,0,19153:0:0:0:50:P_Bb7.wav
192,192,19067,128,0,19239:0:0:0:25:P_Gb5.wav
448,192,19239,1,0,0:0:0:30:
320,192,19410,1,0,0:0:0:25:P_Db8.wav
448,192,19582,1,0,0:0:0:25:P_Eb8.wav
64,192,19753,1,0,0:0:0:25:P_Bb7.wav
320,192,19925,1,0,0:0:0:30:
64,192,20096,128,0,20182:0:0:0:50:P_Db8.wav
192,192,20267,128,0,20353:0:0:0:50:P_Eb8.wav
320,192,20439,128,0,20610:0:0:0:25:P_F5.wav
448,192,20439,128,0,20525:0:0:0:50:P_F8.wav
192,192,20610,1,0,0:0:0:30:
64,192,20782,1,0,0:0:0:25:P_Db8.wav
320,192,20953,1,0,0:0:0:25:P_Eb8.wav
448,192,21125,128,0,21210:0:0:0:50:P_Gb8.wav
64,192,21296,1,0,0:0:0:30:
192,192,21467,1,0,0:0:0:30:
320,192,21639,128,0,21725:0:0:0:50:P_F8.wav
64,192,21810,128,0,21896:0:0:0:50:P_Db8.wav
320,192,21982,128,0,22153:0:0:0:25:P_Eb5.wav
192,192,22025,1,0,0:0:0:25:P_Bb5.wav
64,192,22153,1,0,0:0:0:30:
448,192,22325,1,0,0:0:0:25:P_F8.wav
192,192,22496,1,0,0:0:0:25:P_Db8.wav
320,192,22667,1,0,0:0:0:30:
64,192,22839,1,0,0:0:0:30:
320,192,23010,128,0,23096:0:0:0:50:P_Cb8.wav
192,192,23182,128,0,23267:0:0:0:50:P_Bb7.wav
448,192,23353,128,0,23525:0:0:0:25:P_Ab5.wav
64,192,23396,1,0,0:0:0:25:P_Db6.wav
192,192,23525,1,0,0:0:0:30:
320,192,23696,128,0,23782:0:0:0:50:P_Cb8.wav
64,192,23867,128,0,23953:0:0:0:50:P_Ab7.wav
192,192,24039,1,0,0:0:0:30:
448,192,24210,1,0,0:0:0:30:
64,192,24382,128,2,24467:0:0:0:50:P_Db7.wav
192,192,24553,128,0,24639:0:0:0:50:P_F7.wav
448,192,24725,128,0,24896:0:0:0:25:P_F5.wav
320,192,24767,1,0,0:0:0:25:P_Db6.wav
192,192,24896,1,0,0:0:0:30:
64,192,25067,128,0,25410:0:0:0:20:soft-hitwhistle.wav
192,192,25153,1,0,0:0:0:20:soft-hitwhistle.wav
320,192,25239,1,0,0:0:0:20:soft-hitwhistle.wav
448,192,25239,1,0,0:0:0:0:
192,192,25325,1,0,0:0:0:20:soft-hitwhistle.wav
448,192,25410,128,0,25753:0:0:0:40:soft-hitwhistle.wav
320,192,25496,1,0,0:0:0:40:soft-hitwhistle.wav
64,192,25582,1,0,0:0:0:0:
192,192,25582,1,0,0:0:0:40:soft-hitwhistle.wav
320,192,25667,1,0,0:0:0:40:soft-hitwhistle.wav
192,192,25753,1,0,0:0:0:70:soft-hitwhistle.wav
64,192,25839,1,0,0:0:0:70:soft-hitwhistle.wav
192,192,25925,1,0,0:0:0:70:soft-hitwhistle.wav
448,192,25925,1,0,0:0:0:0:
320,192,26010,1,0,0:0:0:70:soft-hitwhistle.wav
64,192,26096,1,2,0:0:0:0:
192,192,26096,1,0,0:0:0:30:
448,192,26182,1,2,0:0:0:0:
320,192,26182,1,0,0:0:0:30:
64,192,26267,1,2,0:0:0:0:
192,192,26267,1,0,0:0:0:30:
448,192,26353,1,2,0:0:0:0:
320,192,26353,1,0,0:0:0:30:
64,192,26439,1,2,0:0:0:0:
192,192,26439,1,0,0:0:0:30:
448,192,26525,1,2,0:0:0:0:
320,192,26525,1,0,0:0:0:30:
64,192,26610,1,2,0:0:0:0:
192,192,26610,1,0,0:0:0:30:
448,192,26696,1,2,0:0:0:0:
320,192,26696,1,0,0:0:0:30:
64,192,26782,1,0,0:0:0:0:
192,192,26858,1,0,0:0:0:0:
448,192,26929,128,0,27076:0:0:0:0:
320,192,26978,1,0,0:0:0:0:
192,192,26996,1,0,0:0:0:0:
64,192,27027,1,0,0:0:0:0:
320,192,27125,128,0,27315:0:0:0:0:
192,192,27201,1,0,0:0:0:0:
64,192,27239,1,0,0:0:0:0:
448,192,27315,1,0,0:0:0:0:
192,192,27391,1,0,0:0:0:0:
320,192,27467,128,0,29010:0:0:0:0:
448,192,27467,128,4,28325:0:0:0:0:
64,192,27467,128,2,28153:0:0:0:0:
64,192,28325,128,0,29010:0:0:0:0:
448,192,28496,128,0,29010:0:0:0:0:
192,192,28667,128,0,29010:0:0:0:0:
64,192,29182,128,2,29525:0:0:0:0:
448,192,29182,128,4,29525:0:0:0:0:
320,192,29182,1,0,0:0:0:0:
192,192,29353,128,0,29525:0:0:0:0:
320,192,29525,128,0,29696:0:0:0:0:
448,192,29696,128,4,30039:0:0:0:0:
64,192,29696,128,2,30039:0:0:0:0:
192,192,29696,1,0,0:0:0:0:
320,192,29867,128,0,30039:0:0:0:0:
192,192,30039,128,0,30210:0:0:0:0:
320,192,30210,128,0,31753:0:0:0:0:
64,192,30210,128,2,30896:0:0:0:0:
448,192,30210,128,4,31067:0:0:0:0:
64,192,31067,128,0,31753:0:0:0:0:
448,192,31239,128,0,31753:0:0:0:0:
192,192,31410,128,0,31753:0:0:0:0:
64,192,31925,128,2,32267:0:0:0:0:
320,192,31925,128,4,32267:0:0:0:0:
448,192,31925,1,0,0:0:0:0:
192,192,32096,128,0,32267:0:0:0:0:
448,192,32267,128,0,32439:0:0:0:0:
64,192,32439,128,2,32782:0:0:0:0:
320,192,32439,128,4,32610:0:0:0:0:
192,192,32439,1,0,0:0:0:0:
448,192,32610,128,0,32782:0:0:0:0:
192,192,32782,128,0,32953:0:0:0:0:
320,192,32953,128,0,34496:0:0:0:0:
448,192,32953,128,4,33810:0:0:0:0:
64,192,32953,128,2,33639:0:0:0:0:
64,192,33810,128,0,34496:0:0:0:0:
192,192,33982,128,0,34496:0:0:0:0:
448,192,34153,128,0,34496:0:0:0:0:
320,192,34667,128,2,35010:0:0:0:0:
448,192,34667,128,4,35010:0:0:0:0:
192,192,34667,1,0,0:0:0:0:
64,192,34839,128,0,35010:0:0:0:0:
192,192,35010,128,0,35182:0:0:0:0:
64,192,35182,128,2,35525:0:0:0:0:
448,192,35182,1,0,0:0:0:0:
320,192,35182,128,4,35525:0:0:0:0:
192,192,35353,128,0,35525:0:0:0:0:
448,192,35525,128,0,35696:0:0:0:0:
64,192,35696,128,2,36725:0:0:0:0:
320,192,35696,128,4,36382:0:0:0:0:
192,192,35696,128,0,36210:0:0:0:0:
448,192,36210,128,0,36382:0:0:0:0:
192,192,36382,128,0,36725:0:0:0:0:
448,192,36553,128,0,36725:0:0:0:0:
320,192,36725,128,0,36896:0:0:0:0:
192,192,36896,128,2,37410:0:0:0:0:
448,192,36896,128,4,37410:0:0:0:0:
64,192,36896,128,0,37239:0:0:0:0:
320,192,37239,128,0,37410:0:0:0:0:
64,192,37410,128,0,37582:0:0:0:0:
192,192,37582,128,2,38096:0:0:0:0:
320,192,37582,128,0,38182:0:0:0:0:
448,192,37582,128,4,38267:0:0:0:0:
320,192,38439,128,4,39982:0:0:0:0:
448,192,38439,1,0,0:0:0:0:
64,192,38439,128,2,39296:0:0:0:0:
192,192,38610,1,0,0:0:0:0:
448,192,38782,1,0,0:0:0:0:
192,192,38953,1,0,0:0:0:0:
448,192,39125,1,0,0:0:0:0:
192,192,39296,128,0,39467:0:0:0:0:
448,192,39467,128,0,39639:0:0:0:0:
64,192,39639,128,0,39982:0:0:0:0:
448,192,39810,1,0,0:0:0:0:
192,192,39982,1,0,0:0:0:0:
64,192,40153,128,2,40496:0:0:0:0:
448,192,40153,128,4,40496:0:0:0:0:
320,192,40153,1,0,0:0:0:0:
192,192,40325,128,0,40496:0:0:0:0:
320,192,40496,128,0,40667:0:0:0:0:
448,192,40667,128,4,41010:0:0:0:0:
64,192,40667,128,2,41010:0:0:0:0:
192,192,40667,1,0,0:0:0:0:
320,192,40839,128,0,41010:0:0:0:0:
192,192,41010,128,0,41182:0:0:0:0:
448,192,41182,128,4,42725:0:0:0:0:
64,192,41182,1,0,0:0:0:0:
320,192,41182,128,2,42039:0:0:0:0:
192,192,41353,1,0,0:0:0:0:
64,192,41525,1,0,0:0:0:0:
192,192,41696,1,0,0:0:0:0:
64,192,41867,1,0,0:0:0:0:
192,192,42039,128,0,42210:0:0:0:0:
64,192,42210,128,0,42382:0:0:0:0:
320,192,42382,128,0,42725:0:0:0:0:
64,192,42553,1,0,0:0:0:0:
192,192,42725,1,0,0:0:0:0:
64,192,42896,128,2,43239:0:0:0:0:
320,192,42896,128,4,43239:0:0:0:0:
448,192,42896,1,0,0:0:0:0:
192,192,43067,128,0,43239:0:0:0:0:
448,192,43239,128,0,43410:0:0:0:0:
64,192,43410,128,2,43753:0:0:0:0:
320,192,43410,128,4,43582:0:0:0:0:
192,192,43410,1,0,0:0:0:0:
448,192,43582,128,0,43753:0:0:0:0:
192,192,43753,128,0,43925:0:0:0:0:
64,192,43925,1,2,0:0:0:0:
448,192,43925,1,0,0:0:0:0:
320,192,43925,128,0,44182:0:0:0:0:
64,192,44096,128,0,44182:0:0:0:0:
448,192,44267,1,0,0:0:0:0:
320,192,44267,1,2,0:0:0:0:
192,192,44267,128,0,44525:0:0:0:0:
320,192,44439,128,0,44525:0:0:0:0:
192,192,44610,1,2,0:0:0:0:
64,192,44610,1,0,0:0:0:0:
448,192,44610,128,0,44867:0:0:0:0:
192,192,44782,128,0,44867:0:0:0:0:
448,192,44953,1,2,0:0:0:0:
320,192,44953,1,0,0:0:0:0:
64,192,44953,128,0,45210:0:0:0:0:
448,192,45125,128,0,45210:0:0:0:0:
320,192,45296,1,2,0:0:0:0:
64,192,45296,1,0,0:0:0:0:
192,192,45296,128,0,45553:0:0:0:0:
320,192,45467,128,0,45553:0:0:0:0:
64,192,45639,1,2,0:0:0:0:
192,192,45639,1,0,0:0:0:0:
448,192,45639,128,0,45896:0:0:0:0:
64,192,45810,128,0,45896:0:0:0:0:
192,192,45982,1,0,0:0:0:0:
448,192,45982,1,2,0:0:0:0:
320,192,45982,128,0,46239:0:0:0:0:
448,192,46153,128,0,46239:0:0:0:0:
192,192,46325,1,2,0:0:0:0:
320,192,46325,1,0,0:0:0:0:
64,192,46325,128,0,46582:0:0:0:0:
192,192,46496,128,0,46582:0:0:0:0:
448,192,46667,1,2,0:0:0:0:
64,192,46667,128,0,46839:0:0:0:0:
320,192,46667,128,0,46925:0:0:0:0:
192,192,46839,1,0,0:0:0:0:
64,192,47010,1,2,0:0:0:0:
192,192,47010,128,0,47267:0:0:0:0:
320,192,47010,128,0,47182:0:0:0:0:
448,192,47182,1,0,0:0:0:0:
320,192,47353,128,0,47610:0:0:0:0:
192,192,47353,1,2,0:0:0:0:
448,192,47353,128,0,47525:0:0:0:0:
64,192,47525,1,0,0:0:0:0:
320,192,47696,1,2,0:0:0:0:
448,192,47696,128,0,47953:0:0:0:0:
64,192,47696,128,0,47867:0:0:0:0:
192,192,47867,1,0,0:0:0:0:
64,192,48039,128,0,48382:0:0:0:0:
448,192,48039,1,0,0:0:0:70:soft-hitwhistle.wav
192,192,48210,128,0,48553:0:0:0:0:
320,192,48210,1,0,0:0:0:70:soft-hitwhistle.wav
320,192,48382,128,0,48725:0:0:0:0:
448,192,48382,1,0,0:0:0:70:soft-hitwhistle.wav
448,192,48553,128,0,48725:0:0:0:0:
64,192,48553,1,0,0:0:0:70:soft-hitwhistle.wav
192,192,48725,128,0,48810:0:0:0:40:
64,192,48725,128,0,48810:0:0:0:70:soft-hitwhistle.wav
320,192,48810,128,0,48896:0:0:0:40:
448,192,48810,128,0,48896:0:0:0:70:soft-hitwhistle.wav
192,192,48896,128,0,48982:0:0:0:40:
64,192,48896,128,0,48982:0:0:0:70:soft-hitwhistle.wav
320,192,48982,128,0,49067:0:0:0:40:
448,192,48982,128,0,49067:0:0:0:70:soft-hitwhistle.wav
64,192,49067,128,0,49325:0:0:0:0:
192,192,49067,1,0,0:0:0:70:electronic36.wav
192,192,49239,128,0,49325:0:0:0:0:
64,192,49410,1,2,0:0:0:0:
448,192,49410,1,4,0:0:0:0:
192,192,49410,128,0,49582:0:0:0:0:
320,192,49496,1,0,0:0:0:0:
64,192,49582,1,0,0:0:0:0:
192,192,49667,1,0,0:0:0:0:
448,192,49753,1,0,0:0:0:0:
320,192,49753,1,2,0:0:0:0:
192,192,49839,1,0,0:0:0:0:
320,192,49925,128,0,50010:0:0:0:0:
64,192,50010,1,0,0:0:0:0:
192,192,50096,1,2,0:0:0:0:
320,192,50096,128,0,50267:0:0:0:0:
448,192,50182,1,0,0:0:0:0:
64,192,50267,1,0,0:0:0:0:
320,192,50353,1,0,0:0:0:0:
192,192,50439,1,2,0:0:0:0:
448,192,50439,1,0,0:0:0:0:
64,192,50525,1,0,0:0:0:0:
448,192,50610,128,0,50696:0:0:0:0:
192,192,50696,1,0,0:0:0:0:
64,192,50782,1,2,0:0:0:0:
448,192,50782,128,0,50953:0:0:0:0:
320,192,50867,1,0,0:0:0:0:
64,192,50953,1,0,0:0:0:0:
192,192,51039,1,0,0:0:0:0:
320,192,51125,1,2,0:0:0:0:
448,192,51125,1,0,0:0:0:0:
64,192,51210,1,0,0:0:0:0:
192,192,51296,128,0,51382:0:0:0:0:
448,192,51382,1,0,0:0:0:0:
64,192,51467,1,2,0:0:0:0:
192,192,51467,128,0,51639:0:0:0:0:
320,192,51553,1,0,0:0:0:0:
448,192,51639,1,0,0:0:0:0:
192,192,51725,1,0,0:0:0:0:
64,192,51810,1,2,0:0:0:0:
192,192,51810,1,0,0:0:0:0:
448,192,51896,128,0,51982:0:0:0:0:
64,192,51982,128,0,52067:0:0:0:0:
448,192,52067,128,0,52153:0:0:0:0:
64,192,52153,128,2,52325:0:0:0:0:
192,192,52153,1,0,0:0:0:0:
448,192,52239,1,0,0:0:0:0:
320,192,52325,1,0,0:0:0:0:
192,192,52410,1,0,0:0:0:0:
64,192,52496,1,2,0:0:0:0:
320,192,52496,1,0,0:0:0:0:
448,192,52582,1,0,0:0:0:0:
192,192,52667,128,0,52753:0:0:0:0:
320,192,52753,1,0,0:0:0:0:
64,192,52839,1,2,0:0:0:0:
192,192,52839,128,0,53010:0:0:0:0:
448,192,52925,1,0,0:0:0:0:
320,192,53010,1,0,0:0:0:0:
64,192,53096,1,0,0:0:0:0:
320,192,53182,1,0,0:0:0:0:
192,192,53182,1,2,0:0:0:0:
448,192,53267,1,0,0:0:0:0:
320,192,53353,128,0,53439:0:0:0:0:
192,192,53439,1,0,0:0:0:0:
64,192,53525,1,2,0:0:0:0:
320,192,53525,128,0,53610:0:0:0:0:
448,192,53610,1,0,0:0:0:0:
64,192,53696,128,0,53782:0:0:0:0:
192,192,53696,1,0,0:0:0:0:
448,192,53782,128,0,53867:0:0:0:0:
320,192,53782,1,0,0:0:0:0:
64,192,53867,128,2,53953:0:0:0:0:
192,192,53867,1,0,0:0:0:0:
448,192,53953,128,0,54039:0:0:0:0:
320,192,53953,1,0,0:0:0:0:
64,192,54039,1,0,0:0:0:0:
192,192,54039,128,0,54125:0:0:0:0:
320,192,54125,1,0,0:0:0:0:
448,192,54210,1,0,0:0:0:0:
192,192,54210,128,2,54467:0:0:0:0:
64,192,54296,1,0,0:0:0:0:
320,192,54382,128,0,54553:0:0:0:0:
64,192,54467,128,0,54553:0:0:0:0:
448,192,54639,128,0,54725:0:0:0:0:
192,192,54725,128,0,54810:0:0:0:0:
448,192,54810,128,0,54896:0:0:0:0:
64,192,54896,1,2,0:0:0:0:
192,192,54896,128,0,55067:0:0:0:70:clap.wav
320,192,54982,1,0,0:0:0:0:
64,192,55067,1,0,0:0:0:0:
192,192,55153,1,0,0:0:0:0:
320,192,55239,1,2,0:0:0:0:
448,192,55239,1,0,0:0:0:70:clap.wav
192,192,55325,1,0,0:0:0:0:
64,192,55410,128,0,55496:0:0:0:0:
448,192,55496,1,0,0:0:0:0:
320,192,55582,1,0,0:0:0:70:clap.wav
64,192,55582,128,2,55753:0:0:0:0:
192,192,55667,1,0,0:0:0:0:
448,192,55753,1,0,0:0:0:0:
192,192,55839,1,0,0:0:0:0:
320,192,55925,1,2,0:0:0:0:
448,192,55925,1,0,0:0:0:70:clap.wav
64,192,56010,1,0,0:0:0:0:
448,192,56096,128,0,56182:0:0:0:0:
192,192,56182,1,0,0:0:0:0:
64,192,56267,1,2,0:0:0:0:
448,192,56267,128,0,56439:0:0:0:70:clap.wav
320,192,56353,1,0,0:0:0:0:
64,192,56439,1,0,0:0:0:0:
192,192,56525,1,0,0:0:0:0:
320,192,56610,1,2,0:0:0:0:
448,192,56610,1,0,0:0:0:70:clap.wav
64,192,56696,1,0,0:0:0:0:
192,192,56782,128,0,56867:0:0:0:0:
448,192,56867,1,0,0:0:0:0:
64,192,56953,1,2,0:0:0:0:
192,192,56953,128,0,57125:0:0:0:70:clap.wav
320,192,57039,1,0,0:0:0:0:
448,192,57125,1,0,0:0:0:0:
192,192,57210,1,0,0:0:0:0:
64,192,57296,1,2,0:0:0:0:
192,192,57296,1,2,0:0:0:70:clap.wav
448,192,57382,128,0,57467:0:0:0:0:
64,192,57467,128,0,57553:0:0:0:0:
448,192,57553,128,0,57639:0:0:0:0:
192,192,57639,1,0,0:0:0:70:clap.wav
64,192,57639,128,2,57810:0:0:0:0:
448,192,57725,1,0,0:0:0:0:
320,192,57810,1,0,0:0:0:0:
192,192,57896,1,0,0:0:0:0:
64,192,57982,1,2,0:0:0:0:
320,192,57982,1,0,0:0:0:70:clap.wav
448,192,58067,1,0,0:0:0:0:
192,192,58153,128,0,58239:0:0:0:0:
320,192,58239,1,0,0:0:0:0:
64,192,58325,1,2,0:0:0:0:
192,192,58325,128,0,58496:0:0:0:70:clap.wav
448,192,58410,1,0,0:0:0:0:
320,192,58496,1,0,0:0:0:0:
64,192,58582,1,0,0:0:0:0:
192,192,58667,1,2,0:0:0:0:
320,192,58667,1,0,0:0:0:70:clap.wav
448,192,58753,1,0,0:0:0:0:
320,192,58839,128,0,58925:0:0:0:0:
192,192,58925,1,0,0:0:0:0:
64,192,59010,1,2,0:0:0:0:
320,192,59010,128,0,59096:0:0:0:70:clap.wav
448,192,59096,1,0,0:0:0:0:
64,192,59182,128,0,59267:0:0:0:0:
192,192,59182,1,0,0:0:0:0:
448,192,59267,128,0,59353:0:0:0:0:
320,192,59267,1,0,0:0:0:0:
64,192,59353,128,2,59439:0:0:0:0:
192,192,59353,1,0,0:0:0:70:clap.wav
448,192,59439,128,0,59525:0:0:0:0:
320,192,59439,1,0,0:0:0:0:
64,192,59525,1,0,0:0:0:0:
192,192,59525,128,0,59610:0:0:0:0:
448,192,59610,1,0,0:0:0:0:
320,192,59696,1,0,0:0:0:70:clap.wav
192,192,59696,128,2,59953:0:0:0:0:
64,192,59782,1,0,0:0:0:0:
320,192,59867,128,0,59953:0:0:0:0:
448,192,59953,1,0,0:0:0:0:
320,192,60039,128,0,60125:0:0:0:0:
320,192,60210,128,0,60296:0:0:0:0:
64,192,60382,1,2,0:0:0:0:
448,192,60382,1,4,0:0:0:0:
192,192,60382,1,0,0:0:0:70:electronic29.wav
320,192,60467,1,0,0:0:0:0:
64,192,60553,1,2,0:0:0:0:
192,192,60553,1,0,0:0:0:70:electronic29.wav
192,192,60639,1,0,0:0:0:70:electronic29.wav
448,192,60725,1,2,0:0:0:0:
320,192,60725,1,0,0:0:0:70:electronic29.wav
320,192,60810,1,0,0:0:0:70:electronic29.wav
192,192,60896,1,2,0:0:0:0:
448,192,60896,1,0,0:0:0:70:electronic29.wav
64,192,60982,1,0,0:0:0:0:
320,192,61067,1,2,0:0:0:0:
448,192,61067,1,0,0:0:0:70:electronic29.wav
192,192,61153,1,0,0:0:0:70:electronic29.wav
64,192,61153,1,0,0:0:0:0:
448,192,61239,1,2,0:0:0:0:
320,192,61325,1,0,0:0:0:0:
64,192,61325,1,0,0:0:0:70:electronic29.wav
192,192,61410,1,2,0:0:0:0:
448,192,61496,1,0,0:0:0:0:
320,192,61496,1,0,0:0:0:70:electronic29.wav
64,192,61582,1,2,0:0:0:0:
192,192,61582,1,0,0:0:0:70:electronic29.wav
320,192,61667,1,0,0:0:0:0:
64,192,61753,1,2,0:0:0:0:
448,192,61753,1,0,0:0:0:70:electronic29.wav
192,192,61839,1,0,0:0:0:0:
320,192,61925,1,2,0:0:0:0:
448,192,61925,1,0,0:0:0:70:electronic29.wav
448,192,62010,1,0,0:0:0:70:electronic29.wav
192,192,62096,1,2,0:0:0:0:
64,192,62096,1,0,0:0:0:70:electronic29.wav
64,192,62182,1,0,0:0:0:70:electronic29.wav
192,192,62267,1,2,0:0:0:0:
320,192,62267,1,0,0:0:0:70:electronic29.wav
448,192,62353,1,0,0:0:0:0:
64,192,62439,1,2,0:0:0:0:
192,192,62439,1,0,0:0:0:70:electronic29.wav
320,192,62525,1,0,0:0:0:70:electronic29.wav
448,192,62525,1,0,0:0:0:0:
192,192,62610,1,2,0:0:0:0:
64,192,62696,1,0,0:0:0:0:
320,192,62696,1,0,0:0:0:70:electronic29.wav
448,192,62782,1,2,0:0:0:0:
64,192,62867,1,0,0:0:0:0:
192,192,62867,1,0,0:0:0:70:electronic29.wav
448,192,62953,1,2,0:0:0:0:
320,192,62953,1,0,0:0:0:70:electronic29.wav
192,192,63039,1,0,0:0:0:0:
64,192,63125,1,2,0:0:0:0:
448,192,63125,1,0,0:0:0:70:electronic29.wav
320,192,63210,1,0,0:0:0:0:
448,192,63296,1,2,0:0:0:0:
192,192,63296,1,0,0:0:0:70:electronic29.wav
192,192,63382,1,0,0:0:0:70:electronic29.wav
64,192,63467,1,2,0:0:0:0:
320,192,63467,1,0,0:0:0:70:electronic29.wav
320,192,63553,1,0,0:0:0:70:electronic29.wav
192,192,63639,1,2,0:0:0:0:
64,192,63639,1,0,0:0:0:70:electronic29.wav
448,192,63725,1,0,0:0:0:0:
64,192,63810,1,2,0:0:0:0:
320,192,63810,1,0,0:0:0:70:electronic29.wav
448,192,63896,1,0,0:0:0:70:electronic29.wav
192,192,63896,1,0,0:0:0:0:
64,192,63982,1,2,0:0:0:0:
320,192,64067,1,0,0:0:0:0:
448,192,64067,1,0,0:0:0:70:electronic29.wav
64,192,64153,1,2,0:0:0:0:
192,192,64239,1,0,0:0:0:0:
320,192,64239,1,0,0:0:0:70:electronic29.wav
64,192,64325,1,2,0:0:0:0:
448,192,64325,1,0,0:0:0:70:electronic29.wav
192,192,64410,1,0,0:0:0:0:
320,192,64496,1,2,0:0:0:0:
448,192,64496,1,0,0:0:0:70:electronic29.wav
64,192,64582,1,0,0:0:0:0:
448,192,64667,1,2,0:0:0:0:
192,192,64667,1,0,0:0:0:70:electronic29.wav
192,192,64753,1,0,0:0:0:70:electronic29.wav
64,192,64839,1,2,0:0:0:0:
320,192,64839,1,0,0:0:0:70:electronic29.wav
320,192,64925,1,0,0:0:0:70:electronic29.wav
192,192,65010,1,2,0:0:0:0:
64,192,65010,1,0,0:0:0:70:electronic29.wav
448,192,65096,1,0,0:0:0:0:
64,192,65182,1,2,0:0:0:0:
320,192,65182,1,0,0:0:0:70:electronic29.wav
448,192,65267,1,0,0:0:0:70:electronic29.wav
192,192,65267,1,0,0:0:0:0:
64,192,65353,1,2,0:0:0:0:
320,192,65439,1,0,0:0:0:0:
448,192,65439,1,0,0:0:0:70:electronic29.wav
64,192,65525,1,2,0:0:0:0:
192,192,65610,1,0,0:0:0:0:
320,192,65610,1,0,0:0:0:70:electronic29.wav
64,192,65696,1,2,0:0:0:0:
448,192,65696,1,0,0:0:0:70:electronic29.wav
192,192,65782,1,0,0:0:0:0:
320,192,65867,1,0,0:0:0:70:fill_snare.wav
448,192,65867,1,2,0:0:0:0:
320,192,65953,1,0,0:0:0:70:fill_snare.wav
192,192,66039,1,0,0:0:0:70:fill_snare.wav
64,192,66039,1,2,0:0:0:0:
192,192,66125,1,0,0:0:0:70:fill_snare.wav
320,192,66210,1,2,0:0:0:0:
448,192,66210,1,0,0:0:0:70:fill_snare.wav
448,192,66296,1,0,0:0:0:70:fill_snare.wav
192,192,66382,1,2,0:0:0:0:
64,192,66382,1,0,0:0:0:70:fill_snare.wav
64,192,66467,1,0,0:0:0:70:fill_snare.wav
448,192,66553,1,2,0:0:0:0:
320,192,66553,1,0,0:0:0:70:fill_snare.wav
320,192,66639,1,0,0:0:0:70:fill_snare.wav
192,192,66725,1,0,0:0:0:70:fill_snare.wav
64,192,66725,1,2,0:0:0:0:
192,192,66810,1,0,0:0:0:70:fill_snare.wav
320,192,66896,1,2,0:0:0:0:
448,192,66896,1,0,0:0:0:70:fill_snare.wav
448,192,66982,1,0,0:0:0:70:fill_snare.wav
64,192,67067,1,0,0:0:0:70:fill_snare.wav
192,192,67067,1,2,0:0:0:0:
64,192,67153,1,0,0:0:0:70:fill_snare.wav
448,192,67239,128,0,68267:0:0:0:0:
320,192,67239,1,0,0:0:0:70:fill_snare.wav
320,192,67325,1,0,0:0:0:70:fill_snare.wav
64,192,67410,1,0,0:0:0:70:fill_snare.wav
64,192,67496,1,0,0:0:0:70:fill_snare.wav
320,192,67582,1,0,0:0:0:70:fill_snare.wav
320,192,67667,1,0,0:0:0:70:fill_snare.wav
192,192,67753,1,0,0:0:0:70:fill_snare.wav
192,192,67839,1,0,0:0:0:70:fill_snare.wav
64,192,67925,1,0,0:0:0:70:fill_snare.wav
64,192,68010,1,0,0:0:0:70:fill_snare.wav
320,192,68096,1,0,0:0:0:70:fill_snare.wav
320,192,68182,1,0,0:0:0:70:fill_snare.wav
64,192,68267,1,0,0:0:0:70:fill_snare.wav
192,192,68310,1,0,0:0:0:70:fill_snare.wav
320,192,68353,1,0,0:0:0:70:fill_snare.wav
448,192,68396,1,0,0:0:0:70:fill_snare.wav
192,192,68439,1,0,0:0:0:70:fill_snare.wav
64,192,68482,1,0,0:0:0:70:fill_snare.wav
448,192,68525,1,0,0:0:0:70:fill_snare.wav
320,192,68567,1,0,0:0:0:70:fill_snare.wav
192,192,68610,1,0,0:0:0:0:
64,192,68610,1,2,0:0:0:0:
192,192,69810,5,2,0:0:0:25:
192,192,69896,1,2,0:0:0:25:
448,192,69982,128,2,70096:0:0:0:0:
320,192,69982,128,0,70039:0:0:0:0:
64,192,70039,1,0,0:0:0:0:
192,192,70096,1,0,0:0:0:0:
320,192,70172,1,0,0:0:0:0:
64,192,70325,128,2,70439:0:0:0:0:
192,192,70325,128,0,70382:0:0:0:0:
448,192,70382,1,0,0:0:0:0:
320,192,70439,1,0,0:0:0:0:
192,192,70515,1,0,0:0:0:0:
448,192,70667,128,2,70782:0:0:0:0:
320,192,70667,128,0,70725:0:0:0:0:
64,192,70725,1,0,0:0:0:0:
192,192,70775,1,0,0:0:0:0:
320,192,70839,1,0,0:0:0:0:
448,192,70925,1,0,0:0:0:0:
320,192,70967,1,0,0:0:0:0:
192,192,71010,1,0,0:0:0:0:
64,192,71010,1,0,0:0:0:0:
192,192,71182,1,0,0:0:0:0:
320,192,71182,1,0,0:0:0:0:
448,192,71353,5,4,0:0:0:0:
64,192,71353,128,0,71525:0:0:0:0:
320,192,71353,1,2,0:0:0:0:
192,192,71439,128,0,71525:0:0:0:0:
448,192,71525,128,0,71696:0:0:0:0:
320,192,71653,1,0,0:0:0:0:
64,192,71696,1,2,0:0:0:0:
192,192,71696,1,0,0:0:0:0:
64,192,71782,128,0,71867:0:0:0:0:
448,192,71867,128,0,71953:0:0:0:0:
320,192,71867,1,0,0:0:0:0:
192,192,71953,1,0,0:0:0:0:
64,192,72039,1,2,0:0:0:0:
320,192,72039,1,0,0:0:0:0:
448,192,72125,128,0,72296:0:0:0:0:
64,192,72210,128,0,72296:0:0:0:0:
192,192,72210,128,0,72296:0:0:0:0:
320,192,72296,1,0,0:0:0:0:
448,192,72382,1,2,0:0:0:0:
64,192,72382,128,0,72553:0:0:0:0:
192,192,72467,1,0,0:0:0:0:
320,192,72553,1,0,0:0:0:0:
448,192,72553,1,0,0:0:0:0:
320,192,72639,1,0,0:0:0:0:
64,192,72725,1,2,0:0:0:0:
192,192,72725,1,0,0:0:0:0:
448,192,72810,1,0,0:0:0:0:
64,192,72896,1,0,0:0:0:0:
320,192,72896,1,0,0:0:0:0:
64,192,72982,1,0,0:0:0:0:
448,192,73067,1,0,0:0:0:0:
320,192,73067,1,2,0:0:0:0:
64,192,73153,128,0,73239:0:0:0:0:
448,192,73239,128,0,73325:0:0:0:0:
192,192,73239,1,0,0:0:0:0:
320,192,73325,1,0,0:0:0:0:
64,192,73410,1,0,0:0:0:0:
192,192,73410,1,2,0:0:0:0:
448,192,73496,1,0,0:0:0:0:
320,192,73582,1,0,0:0:0:0:
192,192,73582,1,0,0:0:0:0:
64,192,73667,128,0,73753:0:0:0:0:
64,192,73839,1,0,0:0:0:0:
192,192,73925,1,0,0:0:0:0:
448,192,73967,128,0,74096:0:0:0:0:
64,192,74096,1,2,0:0:0:0:
320,192,74096,1,0,0:0:0:0:
192,192,74182,1,0,0:0:0:0:
448,192,74267,1,0,0:0:0:0:
64,192,74267,1,0,0:0:0:0:
448,192,74353,1,0,0:0:0:0:
320,192,74439,1,0,0:0:0:0:
192,192,74439,1,2,0:0:0:0:
64,192,74525,128,0,74610:0:0:0:0:
320,192,74610,1,0,0:0:0:0:
448,192,74610,128,0,74696:0:0:0:0:
192,192,74696,1,0,0:0:0:0:
320,192,74782,1,0,0:0:0:0:
64,192,74782,1,2,0:0:0:0:
192,192,74867,128,0,75039:0:0:0:0:
64,192,74953,128,0,75039:0:0:0:0:
320,192,74953,128,0,75039:0:0:0:0:
448,192,75039,1,0,0:0:0:0:
192,192,75125,1,2,0:0:0:0:
320,192,75125,128,0,75296:0:0:0:0:
64,192,75210,1,0,0:0:0:0:
448,192,75296,1,0,0:0:0:0:
192,192,75296,1,0,0:0:0:0:
448,192,75382,1,0,0:0:0:0:
192,192,75467,128,0,75639:0:0:0:0:
64,192,75467,1,2,0:0:0:0:
448,192,75553,1,0,0:0:0:0:
320,192,75639,1,0,0:0:0:0:
64,192,75725,1,0,0:0:0:0:
192,192,75767,1,0,0:0:0:0:
320,192,75810,1,2,0:0:0:0:
448,192,75810,1,0,0:0:0:0:
64,192,75896,1,0,0:0:0:0:
192,192,75982,1,0,0:0:0:0:
320,192,75982,128,0,76067:0:0:0:0:
448,192,76067,1,0,0:0:0:0:
192,192,76153,1,0,0:0:0:0:
64,192,76153,1,2,0:0:0:0:
64,192,76239,1,0,0:0:0:0:
448,192,76325,128,0,76496:0:0:0:0:
320,192,76410,1,0,0:0:0:0:
64,192,76496,128,0,76667:0:0:0:0:
192,192,76582,1,0,0:0:0:0:
448,192,76667,1,0,0:0:0:0:
320,192,76753,1,0,0:0:0:0:
448,192,76839,5,4,0:0:0:0:
192,192,76839,128,0,77010:0:0:0:0:
64,192,76839,1,2,0:0:0:0:
320,192,76925,128,0,77010:0:0:0:0:
64,192,77010,128,0,77182:0:0:0:0:
192,192,77139,1,0,0:0:0:0:
320,192,77182,1,2,0:0:0:0:
448,192,77182,1,0,0:0:0:0:
320,192,77267,128,0,77353:0:0:0:0:
64,192,77353,128,0,77439:0:0:0:0:
448,192,77353,1,0,0:0:0:0:
192,192,77439,1,0,0:0:0:0:
64,192,77525,1,2,0:0:0:0:
320,192,77525,1,0,0:0:0:0:
448,192,77610,128,0,77782:0:0:0:0:
64,192,77696,128,0,77782:0:0:0:0:
320,192,77696,128,0,77782:0:0:0:0:
192,192,77782,1,0,0:0:0:0:
320,192,77867,1,2,0:0:0:0:
448,192,77867,128,0,78039:0:0:0:0:
64,192,77953,1,0,0:0:0:0:
192,192,78039,1,0,0:0:0:0:
320,192,78039,1,0,0:0:0:0:
192,192,78125,1,0,0:0:0:0:
64,192,78210,1,2,0:0:0:0:
320,192,78210,1,0,0:0:0:0:
448,192,78296,1,0,0:0:0:0:
64,192,78382,1,0,0:0:0:0:
192,192,78382,1,0,0:0:0:0:
192,192,78467,1,0,0:0:0:0:
448,192,78553,1,0,0:0:0:0:
320,192,78553,1,2,0:0:0:0:
64,192,78639,128,0,78725:0:0:0:0:
448,192,78725,128,0,78810:0:0:0:0:
320,192,78725,1,0,0:0:0:0:
192,192,78810,1,0,0:0:0:0:
64,192,78896,1,2,0:0:0:0:
320,192,78896,128,0,78982:0:0:0:0:
448,192,78982,128,0,79067:0:0:0:0:
192,192,79067,1,0,0:0:0:0:
64,192,79153,128,0,79239:0:0:0:0:
320,192,79239,128,0,79353:0:0:0:0:
448,192,79353,1,0,0:0:0:0:
192,192,79410,1,0,0:0:0:0:
64,192,79582,1,2,0:0:0:0:
320,192,79582,1,0,0:0:0:0:
192,192,79667,1,0,0:0:0:0:
448,192,79753,1,0,0:0:0:0:
64,192,79753,1,0,0:0:0:0:
448,192,79839,1,0,0:0:0:0:
320,192,79925,1,2,0:0:0:0:
64,192,79925,128,0,80096:0:0:0:0:
192,192,80010,1,0,0:0:0:0:
448,192,80096,1,0,0:0:0:0:
320,192,80139,1,0,0:0:0:0:
192,192,80182,1,0,0:0:0:0:
64,192,80225,1,0,0:0:0:0:
448,192,80267,128,0,80353:0:0:0:0:
320,192,80267,1,2,0:0:0:0:
192,192,80353,1,0,0:0:0:0:
448,192,80439,128,0,80525:0:0:0:0:
320,192,80439,1,0,0:0:0:0:
192,192,80525,1,0,0:0:0:0:
448,192,80610,1,2,0:0:0:0:
64,192,80610,128,0,80782:0:0:0:0:
192,192,80696,1,0,0:0:0:0:
320,192,80782,1,0,0:0:0:0:
448,192,80867,1,0,0:0:0:0:
64,192,80953,1,2,0:0:0:0:
192,192,80953,1,0,0:0:0:0:
320,192,81039,1,0,0:0:0:0:
448,192,81125,128,0,81296:0:0:0:0:
192,192,81210,1,0,0:0:0:0:
64,192,81296,1,2,0:0:0:0:
320,192,81296,1,0,0:0:0:0:
192,192,81382,1,0,0:0:0:0:
448,192,81467,128,0,81639:0:0:0:0:
64,192,81553,1,0,0:0:0:0:
320,192,81639,1,2,0:0:0:0:
448,192,81725,128,0,81896:0:0:0:0:
64,192,81810,128,0,81982:0:0:0:0:
192,192,81896,128,0,81982:0:0:0:0:
448,192,81982,1,0,0:0:0:0:
320,192,82025,1,0,0:0:0:0:
192,192,82067,1,0,0:0:0:0:
64,192,82110,1,0,0:0:0:0:
320,192,82153,128,0,82239:0:0:0:0:
448,192,82153,128,0,82239:0:0:0:0:
192,192,82239,1,0,0:0:0:0:
448,192,82325,5,4,0:0:0:0:
64,192,82325,128,0,82496:0:0:0:0:
320,192,82325,1,2,0:0:0:0:
192,192,82410,128,0,82496:0:0:0:0:
448,192,82496,128,0,82667:0:0:0:0:
320,192,82625,1,0,0:0:0:0:
64,192,82667,1,2,0:0:0:0:
192,192,82667,1,8,0:0:0:0:
64,192,82753,128,0,82839:0:0:0:0:
448,192,82839,128,0,82925:0:0:0:0:
320,192,82839,1,0,0:0:0:0:
192,192,82925,1,0,0:0:0:0:
64,192,83010,1,2,0:0:0:0:
320,192,83010,1,0,0:0:0:0:
448,192,83096,128,0,83267:0:0:0:0:
64,192,83182,128,0,83267:0:0:0:0:
192,192,83182,128,0,83267:0:0:0:0:
320,192,83267,1,0,0:0:0:0:
64,192,83353,128,2,83525:0:0:0:0:
448,192,83353,1,8,0:0:0:0:
192,192,83439,1,0,0:0:0:0:
320,192,83525,1,0,0:0:0:0:
448,192,83525,1,0,0:0:0:0:
320,192,83610,1,0,0:0:0:0:
64,192,83696,1,2,0:0:0:0:
192,192,83696,1,0,0:0:0:0:
448,192,83782,1,0,0:0:0:0:
64,192,83867,1,0,0:0:0:0:
320,192,83867,1,0,0:0:0:0:
64,192,83953,1,0,0:0:0:0:
448,192,84039,1,8,0:0:0:0:
320,192,84039,1,2,0:0:0:0:
64,192,84125,128,0,84210:0:0:0:0:
448,192,84210,128,0,84296:0:0:0:0:
192,192,84210,1,0,0:0:0:0:
320,192,84296,1,0,0:0:0:0:
192,192,84382,1,0,0:0:0:0:
64,192,84382,1,2,0:0:0:0:
448,192,84467,1,0,0:0:0:0:
320,192,84553,1,0,0:0:0:0:
192,192,84553,1,0,0:0:0:0:
64,192,84639,128,0,84725:0:0:0:0:
64,192,84810,1,0,0:0:0:0:
192,192,84896,1,0,0:0:0:0:
448,192,84939,128,0,85067:0:0:0:0:
320,192,85067,1,0,0:0:0:0:
64,192,85067,1,2,0:0:0:0:
192,192,85153,1,0,0:0:0:0:
448,192,85239,1,0,0:0:0:0:
64,192,85239,1,0,0:0:0:0:
448,192,85325,1,0,0:0:0:0:
192,192,85410,1,2,0:0:0:0:
320,192,85410,1,8,0:0:0:0:
64,192,85496,128,0,85582:0:0:0:0:
320,192,85582,1,0,0:0:0:0:
448,192,85582,128,0,85667:0:0:0:0:
192,192,85667,1,0,0:0:0:0:
320,192,85753,1,0,0:0:0:0:
64,192,85753,1,2,0:0:0:0:
192,192,85839,128,0,86010:0:0:0:0:
320,192,85925,128,0,86010:0:0:0:0:
64,192,85925,128,0,86010:0:0:0:0:
448,192,86010,1,0,0:0:0:0:
320,192,86096,128,8,86267:0:0:0:0:
192,192,86096,1,2,0:0:0:0:
448,192,86182,1,0,0:0:0:0:
192,192,86267,1,0,0:0:0:0:
64,192,86267,1,0,0:0:0:0:
64,192,86353,1,0,0:0:0:0:
192,192,86439,128,0,86610:0:0:0:0:
448,192,86439,1,2,0:0:0:0:
448,192,86525,1,0,0:0:0:0:
320,192,86610,1,0,0:0:0:0:
64,192,86696,1,0,0:0:0:0:
192,192,86739,1,0,0:0:0:0:
320,192,86782,1,2,0:0:0:0:
448,192,86782,1,0,0:0:0:0:
192,192,86867,1,0,0:0:0:0:
64,192,86953,1,0,0:0:0:0:
448,192,86953,128,0,87039:0:0:0:0:
320,192,87039,1,0,0:0:0:0:
192,192,87125,1,0,0:0:0:0:
64,192,87125,1,2,0:0:0:0:
192,192,87210,1,0,0:0:0:0:
448,192,87296,128,0,87382:0:0:0:0:
320,192,87296,1,2,0:0:0:0:
64,192,87382,1,0,0:0:0:0:
448,192,87467,128,0,87639:0:0:0:0:
64,192,87553,1,0,0:0:0:0:
192,192,87639,1,0,0:0:0:0:
320,192,87725,1,0,0:0:0:0:
448,192,87767,1,0,0:0:0:0:
64,192,87810,128,2,87939:0:0:0:0:
192,192,87810,128,0,87896:0:0:0:70:electronic29.wav
448,192,87896,128,0,87982:0:0:0:0:
320,192,87939,128,0,88025:0:0:0:0:
192,192,87982,128,0,88067:0:0:0:0:
64,192,88025,128,0,88067:0:0:0:0:
448,192,88067,1,0,0:0:0:70:electronic29.wav
320,192,88110,1,0,0:0:0:0:
192,192,88153,1,0,0:0:0:70:electronic29.wav
64,192,88153,1,2,0:0:0:0:
320,192,88239,1,0,0:0:0:0:
448,192,88239,1,0,0:0:0:70:electronic29.wav
192,192,88325,1,0,0:0:0:70:electronic29.wav
64,192,88325,1,0,0:0:0:0:
192,192,88496,1,2,0:0:0:0:
448,192,88496,1,0,0:0:0:70:electronic29.wav
64,192,88582,1,0,0:0:0:0:
320,192,88582,1,0,0:0:0:70:electronic29.wav
448,192,88753,1,0,0:0:0:70:electronic29.wav
320,192,88753,1,0,0:0:0:0:
64,192,88925,1,0,0:0:0:0:
448,192,88925,1,0,0:0:0:70:electronic29.wav
320,192,89010,1,0,0:0:0:70:electronic29.wav
192,192,89010,1,0,0:0:0:0:
448,192,89096,1,0,0:0:0:70:electronic29.wav
64,192,89096,1,0,0:0:0:0:
320,192,89182,1,0,0:0:0:70:electronic29.wav
192,192,89182,1,2,0:0:0:0:
64,192,89353,1,0,0:0:0:0:
320,192,89353,1,0,0:0:0:70:electronic29.wav
192,192,89439,1,0,0:0:0:0:
448,192,89439,1,0,0:0:0:70:electronic29.wav
64,192,89610,1,0,0:0:0:0:
192,192,89610,1,0,0:0:0:70:electronic29.wav
320,192,89696,1,0,0:0:0:0:
448,192,89696,1,0,0:0:0:70:electronic29.wav
192,192,89867,1,2,0:0:0:0:
448,192,89867,1,0,0:0:0:70:electronic29.wav
64,192,89953,1,0,0:0:0:0:
320,192,89953,1,0,0:0:0:70:electronic29.wav
192,192,90125,1,0,0:0:0:0:
448,192,90125,1,0,0:0:0:70:electronic29.wav
64,192,90296,1,0,0:0:0:0:
448,192,90296,1,0,0:0:0:70:electronic29.wav
192,192,90382,1,0,0:0:0:0:
320,192,90382,1,0,0:0:0:70:electronic29.wav
192,192,90553,1,0,0:0:0:70:fill_snare.wav
64,192,90553,1,2,0:0:0:0:
448,192,90639,1,0,0:0:0:70:fill_snare.wav
320,192,90725,1,0,0:0:0:70:fill_snare.wav
192,192,90810,1,0,0:0:0:70:fill_snare.wav
448,192,90896,1,8,0:0:0:70:fill_snare.wav
320,192,90896,1,2,0:0:0:0:
64,192,90982,1,0,0:0:0:70:fill_snare.wav
192,192,91067,1,0,0:0:0:70:fill_snare.wav
320,192,91153,1,0,0:0:0:70:fill_snare.wav
192,192,91239,1,0,0:0:0:70:fill_snare.wav
64,192,91239,1,2,0:0:0:0:
448,192,91325,1,0,0:0:0:70:fill_snare.wav
320,192,91410,1,0,0:0:0:70:fill_snare.wav
192,192,91496,1,0,0:0:0:70:fill_snare.wav
64,192,91582,1,2,0:0:0:0:
448,192,91582,1,0,0:0:0:0:
192,192,91753,1,0,0:0:0:0:
320,192,91839,1,0,0:0:0:0:
448,192,91925,1,0,0:0:0:70:fill_snare.wav
64,192,91925,1,2,0:0:0:0:
192,192,91967,1,0,0:0:0:70:fill_snare.wav
320,192,92010,1,0,0:0:0:70:fill_snare.wav
448,192,92053,1,0,0:0:0:70:fill_snare.wav
64,192,92096,1,0,0:0:0:70:fill_snare.wav
192,192,92139,1,0,0:0:0:70:fill_snare.wav
448,192,92182,1,0,0:0:0:70:fill_snare.wav
320,192,92225,1,0,0:0:0:70:fill_snare.wav
192,192,92267,1,0,0:0:0:70:fill_snare.wav
64,192,92310,1,0,0:0:0:70:fill_snare.wav
448,192,92353,1,0,0:0:0:70:fill_snare.wav
320,192,92396,1,0,0:0:0:70:fill_snare.wav
64,192,92439,1,0,0:0:0:70:fill_snare.wav
192,192,92482,1,0,0:0:0:70:fill_snare.wav
320,192,92525,1,0,0:0:0:70:fill_snare.wav
448,192,92567,1,0,0:0:0:70:fill_snare.wav
64,192,92610,1,0,0:0:0:0:
320,192,92696,1,0,0:0:0:0:
192,192,92782,1,0,0:0:0:0:
448,192,92867,1,0,0:0:0:0:
320,192,92953,1,0,0:0:0:0:
64,192,93029,128,0,93105:0:0:0:0:
192,192,93067,128,0,93144:0:0:0:0:
320,192,93105,128,0,93182:0:0:0:0:
448,192,93296,1,4,0:0:0:0:
64,192,93296,128,0,93553:0:0:0:0:
192,192,93296,1,2,0:0:0:0:
448,192,93467,128,0,93553:0:0:0:0:
320,192,93467,128,2,93553:0:0:0:0:
64,192,93639,1,2,0:0:0:0:
192,192,93639,1,8,0:0:0:0:
320,192,93725,128,0,93810:0:0:0:0:
448,192,93725,128,0,93810:0:0:0:0:
192,192,93810,1,0,0:0:0:0:
448,192,93896,1,0,0:0:0:0:
64,192,93896,1,0,0:0:0:0:
448,192,93982,1,0,0:0:0:0:
64,192,93982,1,2,0:0:0:0:
192,192,93982,1,0,0:0:0:0:
320,192,94067,1,0,0:0:0:0:
192,192,94153,128,0,94239:0:0:0:0:
64,192,94153,128,0,94239:0:0:0:0:
320,192,94239,128,0,94325:0:0:0:0:
448,192,94239,128,0,94325:0:0:0:0:
64,192,94325,1,10,0:0:0:0:
320,192,94410,1,0,0:0:0:0:
192,192,94410,1,0,0:0:0:0:
64,192,94496,128,0,94582:0:0:0:0:
448,192,94496,128,0,94582:0:0:0:0:
192,192,94582,1,0,0:0:0:0:
320,192,94667,1,2,0:0:0:0:
448,192,94667,1,0,0:0:0:0:
192,192,94753,128,0,94839:0:0:0:0:
64,192,94753,128,0,94839:0:0:0:0:
448,192,94839,1,0,0:0:0:0:
192,192,94925,1,0,0:0:0:0:
448,192,94925,1,0,0:0:0:0:
320,192,95010,1,8,0:0:0:0:
64,192,95010,1,2,0:0:0:0:
192,192,95096,1,0,0:0:0:0:
320,192,95182,128,0,95267:0:0:0:0:
448,192,95182,128,0,95267:0:0:0:0:
64,192,95267,1,0,0:0:0:0:
320,192,95353,1,0,0:0:0:0:
192,192,95353,1,2,0:0:0:0:
448,192,95439,128,0,95525:0:0:0:0:
64,192,95439,128,0,95525:0:0:0:0:
320,192,95525,1,0,0:0:0:0:
192,192,95610,1,0,0:0:0:0:
64,192,95696,1,0,0:0:0:0:
64,192,95782,1,0,0:0:0:0:
320,192,95867,128,0,95953:0:0:0:0:
448,192,95867,128,0,95953:0:0:0:0:
192,192,95953,1,0,0:0:0:0:
448,192,96039,1,0,0:0:0:0:
320,192,96039,1,2,0:0:0:0:
64,192,96125,1,0,0:0:0:0:
192,192,96210,128,0,96296:0:0:0:0:
448,192,96210,128,0,96296:0:0:0:0:
320,192,96296,1,0,0:0:0:0:
192,192,96382,1,8,0:0:0:0:
64,192,96382,1,2,0:0:0:0:
320,192,96467,128,0,96553:0:0:0:0:
448,192,96467,128,0,96553:0:0:0:0:
192,192,96553,1,0,0:0:0:0:
64,192,96639,1,0,0:0:0:0:
320,192,96639,1,0,0:0:0:0:
320,192,96725,1,0,0:0:0:0:
64,192,96725,1,2,0:0:0:0:
192,192,96725,1,0,0:0:0:0:
448,192,96810,1,0,0:0:0:0:
320,192,96896,128,0,96982:0:0:0:0:
64,192,96896,128,0,96982:0:0:0:0:
192,192,96982,128,0,97067:0:0:0:0:
448,192,96982,128,0,97067:0:0:0:0:
320,192,97067,1,10,0:0:0:0:
192,192,97153,1,0,0:0:0:0:
64,192,97153,1,0,0:0:0:0:
448,192,97239,128,0,97325:0:0:0:0:
320,192,97239,128,0,97325:0:0:0:0:
192,192,97325,1,0,0:0:0:0:
320,192,97410,1,2,0:0:0:0:
448,192,97410,1,0,0:0:0:0:
192,192,97496,128,0,97582:0:0:0:0:
64,192,97496,128,0,97582:0:0:0:0:
320,192,97582,1,0,0:0:0:0:
64,192,97667,1,0,0:0:0:0:
448,192,97667,1,0,0:0:0:0:
320,192,97753,1,8,0:0:0:0:
192,192,97753,1,2,0:0:0:0:
64,192,97839,1,0,0:0:0:0:
192,192,97925,128,0,98010:0:0:0:0:
448,192,97925,128,0,98010:0:0:0:0:
320,192,98010,1,0,0:0:0:0:
64,192,98096,1,2,0:0:0:0:
192,192,98096,1,0,0:0:0:0:
64,192,98182,1,0,0:0:0:0:
320,192,98267,128,0,98353:0:0:0:0:
448,192,98267,1,0,0:0:0:0:
192,192,98353,1,0,0:0:0:0:
320,192,98439,128,0,98696:0:0:0:0:
64,192,98525,128,0,98610:0:0:0:0:
448,192,98610,128,0,98696:0:0:0:0:
192,192,98696,128,0,98782:0:0:0:0:
448,192,98782,1,2,0:0:0:0:
64,192,98782,128,0,99039:0:0:0:0:
320,192,98867,1,0,0:0:0:0:
192,192,98953,128,0,99039:0:0:0:0:
448,192,98953,128,0,99039:0:0:0:0:
320,192,99039,1,0,0:0:0:0:
192,192,99125,1,8,0:0:0:0:
64,192,99125,1,2,0:0:0:0:
320,192,99210,128,0,99296:0:0:0:0:
448,192,99210,128,0,99296:0:0:0:0:
192,192,99296,1,0,0:0:0:0:
448,192,99382,1,0,0:0:0:0:
64,192,99382,1,0,0:0:0:0:
448,192,99467,1,0,0:0:0:0:
64,192,99467,1,2,0:0:0:0:
192,192,99467,1,0,0:0:0:0:
320,192,99553,1,0,0:0:0:0:
192,192,99639,128,0,99725:0:0:0:0:
64,192,99639,128,0,99725:0:0:0:0:
320,192,99725,128,0,99810:0:0:0:0:
448,192,99725,128,0,99810:0:0:0:0:
64,192,99810,1,10,0:0:0:0:
320,192,99896,1,0,0:0:0:0:
192,192,99896,1,0,0:0:0:0:
64,192,99982,128,0,100067:0:0:0:0:
448,192,99982,128,0,100067:0:0:0:0:
192,192,100067,1,0,0:0:0:0:
320,192,100153,1,2,0:0:0:0:
448,192,100153,1,0,0:0:0:0:
64,192,100239,128,0,100325:0:0:0:0:
192,192,100239,128,0,100325:0:0:0:0:
448,192,100325,1,0,0:0:0:0:
192,192,100410,1,0,0:0:0:0:
448,192,100410,1,0,0:0:0:0:
320,192,100496,1,8,0:0:0:0:
64,192,100496,1,2,0:0:0:0:
192,192,100582,1,0,0:0:0:0:
320,192,100667,128,0,100753:0:0:0:0:
448,192,100667,128,0,100753:0:0:0:0:
64,192,100753,1,0,0:0:0:0:
192,192,100839,1,2,0:0:0:0:
320,192,100839,1,0,0:0:0:0:
64,192,100925,128,0,101010:0:0:0:0:
448,192,100925,128,0,101010:0:0:0:0:
320,192,101010,1,0,0:0:0:0:
192,192,101096,1,0,0:0:0:0:
64,192,101182,1,0,0:0:0:0:
64,192,101267,1,0,0:0:0:0:
320,192,101353,128,0,101439:0:0:0:0:
448,192,101353,128,0,101439:0:0:0:0:
192,192,101439,1,0,0:0:0:0:
64,192,101525,1,2,0:0:0:0:
320,192,101525,1,0,0:0:0:0:
448,192,101610,1,0,0:0:0:0:
192,192,101696,128,0,101782:0:0:0:0:
64,192,101696,128,0,101782:0:0:0:0:
320,192,101782,1,0,0:0:0:0:
448,192,101867,1,8,0:0:0:0:
64,192,101867,1,2,0:0:0:0:
192,192,101953,128,0,102039:0:0:0:0:
320,192,101953,128,0,102039:0:0:0:0:
64,192,102039,1,0,0:0:0:0:
448,192,102125,1,0,0:0:0:0:
320,192,102125,1,0,0:0:0:0:
448,192,102210,1,0,0:0:0:0:
320,192,102210,1,2,0:0:0:0:
64,192,102210,1,0,0:0:0:0:
192,192,102296,1,0,0:0:0:0:
448,192,102382,128,0,102467:0:0:0:0:
64,192,102382,128,0,102467:0:0:0:0:
320,192,102467,128,0,102553:0:0:0:0:
192,192,102467,128,0,102553:0:0:0:0:
448,192,102553,1,10,0:0:0:0:
192,192,102639,1,0,0:0:0:0:
64,192,102639,1,0,0:0:0:0:
320,192,102725,128,0,102810:0:0:0:0:
448,192,102725,128,0,102810:0:0:0:0:
64,192,102810,1,0,0:0:0:0:
448,192,102896,128,0,103239:0:0:0:0:
320,192,102896,1,2,0:0:0:0:
192,192,102982,1,0,0:0:0:0:
64,192,103067,1,0,0:0:0:0:
320,192,103153,128,0,103239:0:0:0:0:
192,192,103239,1,8,0:0:0:0:
64,192,103239,128,2,103582:0:0:0:0:
320,192,103325,1,0,0:0:0:0:
448,192,103410,1,0,0:0:0:0:
192,192,103496,128,0,103582:0:0:0:0:
448,192,103582,128,0,103925:0:0:0:0:
320,192,103582,1,2,0:0:0:0:
64,192,103667,1,0,0:0:0:0:
320,192,103753,128,0,103925:0:0:0:0:
192,192,103839,128,0,103925:0:0:0:0:
64,192,103925,1,0,0:0:0:0:
320,192,104032,128,0,104182:0:0:0:0:
448,192,104096,128,0,104182:0:0:0:0:
192,192,104182,128,0,104267:0:0:0:0:
320,192,104267,1,2,0:0:0:0:
448,192,104267,1,4,0:0:0:0:
64,192,104267,128,0,104525:0:0:0:0:
320,192,104353,1,0,0:0:0:0:
448,192,104439,128,0,104525:0:0:0:0:
192,192,104439,128,0,104525:0:0:0:0:
320,192,104525,1,0,0:0:0:0:
192,192,104610,1,8,0:0:0:0:
64,192,104610,1,2,0:0:0:0:
320,192,104696,128,0,104782:0:0:0:0:
448,192,104696,128,0,104782:0:0:0:0:
192,192,104782,1,0,0:0:0:0:
448,192,104867,1,0,0:0:0:0:
64,192,104867,1,0,0:0:0:0:
64,192,104953,1,2,0:0:0:0:
448,192,104953,1,0,0:0:0:0:
192,192,104953,1,0,0:0:0:0:
320,192,105039,1,0,0:0:0:0:
192,192,105125,128,0,105210:0:0:0:0:
64,192,105125,128,0,105210:0:0:0:0:
320,192,105210,128,0,105296:0:0:0:0:
448,192,105210,128,0,105296:0:0:0:0:
64,192,105296,1,10,0:0:0:0:
320,192,105382,1,0,0:0:0:0:
192,192,105382,1,0,0:0:0:0:
64,192,105467,128,0,105553:0:0:0:0:
448,192,105467,128,0,105553:0:0:0:0:
192,192,105553,1,0,0:0:0:0:
320,192,105639,1,2,0:0:0:0:
448,192,105639,1,0,0:0:0:0:
64,192,105725,128,0,105810:0:0:0:0:
192,192,105725,128,0,105810:0:0:0:0:
448,192,105810,1,0,0:0:0:0:
192,192,105896,1,0,0:0:0:0:
448,192,105896,1,0,0:0:0:0:
320,192,105982,1,8,0:0:0:0:
64,192,105982,1,2,0:0:0:0:
192,192,106067,1,0,0:0:0:0:
320,192,106153,128,0,106239:0:0:0:0:
448,192,106153,128,0,106239:0:0:0:0:
64,192,106239,1,0,0:0:0:0:
192,192,106325,1,2,0:0:0:0:
320,192,106325,1,0,0:0:0:0:
64,192,106410,128,0,106496:0:0:0:0:
448,192,106410,128,0,106496:0:0:0:0:
320,192,106496,1,0,0:0:0:0:
192,192,106582,1,0,0:0:0:0:
64,192,106667,1,0,0:0:0:0:
64,192,106753,1,0,0:0:0:0:
320,192,106839,128,0,106925:0:0:0:0:
448,192,106839,128,0,106925:0:0:0:0:
192,192,106925,1,0,0:0:0:0:
448,192,107010,1,0,0:0:0:0:
320,192,107010,1,2,0:0:0:0:
64,192,107096,1,0,0:0:0:0:
192,192,107182,128,0,107267:0:0:0:0:
448,192,107182,128,0,107267:0:0:0:0:
320,192,107267,1,0,0:0:0:0:
192,192,107353,1,8,0:0:0:0:
64,192,107353,1,2,0:0:0:0:
320,192,107439,128,0,107525:0:0:0:0:
448,192,107439,128,0,107525:0:0:0:0:
192,192,107525,1,0,0:0:0:0:
320,192,107610,1,0,0:0:0:0:
64,192,107610,1,0,0:0:0:0:
320,192,107696,1,0,0:0:0:0:
64,192,107696,1,2,0:0:0:0:
192,192,107696,1,0,0:0:0:0:
448,192,107782,1,0,0:0:0:0:
320,192,107867,128,0,107953:0:0:0:0:
64,192,107867,128,0,107953:0:0:0:0:
192,192,107953,128,0,108039:0:0:0:0:
448,192,107953,128,0,108039:0:0:0:0:
320,192,108039,1,10,0:0:0:0:
192,192,108125,1,0,0:0:0:0:
64,192,108125,1,0,0:0:0:0:
448,192,108210,128,0,108296:0:0:0:0:
320,192,108210,128,0,108296:0:0:0:0:
192,192,108296,1,0,0:0:0:0:
64,192,108382,1,2,0:0:0:0:
448,192,108382,1,4,0:0:0:0:
320,192,108382,1,0,0:0:0:0:
192,192,108467,1,0,0:0:0:0:
320,192,108553,1,0,0:0:0:0:
64,192,108639,1,2,0:0:0:0:
448,192,108639,1,4,0:0:0:0:
192,192,108639,1,0,0:0:0:0:
320,192,108725,1,0,0:0:0:0:
192,192,108810,1,0,0:0:0:0:
448,192,108896,128,4,108982:0:0:0:0:
64,192,108896,128,2,108982:0:0:0:0:
320,192,108982,1,0,0:0:0:0:
448,192,109067,1,4,0:0:0:0:
192,192,109067,1,2,0:0:0:0:
64,192,109067,1,0,0:0:0:0:
320,192,109153,1,0,0:0:0:0:
192,192,109239,128,0,109325:0:0:0:0:
448,192,109325,1,0,0:0:0:0:
192,192,109410,128,0,109496:0:0:0:0:
320,192,109496,1,0,0:0:0:0:
64,192,109582,1,0,0:0:0:0:
192,192,109625,1,0,0:0:0:0:
320,192,109667,1,0,0:0:0:0:
448,192,109710,1,0,0:0:0:0:
192,192,109753,128,4,109867:0:0:0:0:
64,192,109753,128,2,109867:0:0:0:0:
320,192,109839,1,0,0:0:0:0:
64,192,109925,128,2,110039:0:0:0:0:
192,192,109925,128,0,110039:0:0:0:0:
320,192,110010,1,0,0:0:0:0:
64,192,110096,1,2,0:0:0:0:
192,192,110096,1,0,0:0:0:0:
448,192,110182,1,0,0:0:0:0:
64,192,110267,1,2,0:0:0:0:
192,192,110267,1,0,0:0:0:0:
448,192,110353,1,0,0:0:0:0:
64,192,110439,1,2,0:0:0:0:
192,192,110439,1,0,0:0:0:0:
320,192,110525,1,0,0:0:0:0:
64,192,110610,1,2,0:0:0:0:
192,192,110610,1,0,0:0:0:0:
320,192,110696,1,0,0:0:0:0:
64,192,110782,1,2,0:0:0:0:
192,192,110782,1,0,0:0:0:0:
448,192,110867,1,0,0:0:0:0:
192,192,110953,1,2,0:0:0:0:
320,192,110953,1,0,0:0:0:0:
64,192,111039,1,0,0:0:0:0:
320,192,111125,1,2,0:0:0:0:
448,192,111125,1,0,0:0:0:0:
192,192,111210,1,0,0:0:0:0:
320,192,111296,1,2,0:0:0:0:
448,192,111296,1,0,0:0:0:0:
192,192,111382,1,0,0:0:0:0:
320,192,111467,1,2,0:0:0:0:
448,192,111467,1,0,0:0:0:0:
64,192,111553,1,0,0:0:0:0:
320,192,111639,1,2,0:0:0:0:
448,192,111639,1,0,0:0:0:0:
64,192,111725,1,0,0:0:0:0:
320,192,111810,1,2,0:0:0:0:
448,192,111810,1,0,0:0:0:0:
64,192,111896,1,2,0:0:0:0:
192,192,111896,1,0,0:0:0:0:
320,192,111982,1,2,0:0:0:0:
448,192,111982,1,0,0:0:0:0:
64,192,112067,1,2,0:0:0:0:
192,192,112067,1,0,0:0:0:0:
448,192,112153,1,2,0:0:0:0:
320,192,112196,1,2,0:0:0:0:
192,192,112239,1,2,0:0:0:0:
448,192,112282,1,2,0:0:0:0:
320,192,112325,1,2,0:0:0:0:
64,192,112367,1,2,0:0:0:0:
192,192,112410,1,2,0:0:0:0:
320,192,112453,1,2,0:0:0:0:
448,192,112496,1,2,0:0:0:0:
64,192,112496,1,2,0:0:0:0:
192,192,113696,5,2,0:0:0:25:
192,192,113782,1,2,0:0:0:25:
448,192,113867,128,2,113982:0:0:0:0:
320,192,113867,128,0,113925:0:0:0:0:
64,192,113925,1,0,0:0:0:0:
192,192,113982,1,0,0:0:0:0:
320,192,114058,1,0,0:0:0:0:
64,192,114210,128,2,114325:0:0:0:0:
192,192,114210,128,0,114267:0:0:0:0:
448,192,114267,1,0,0:0:0:0:
320,192,114325,1,0,0:0:0:0:
192,192,114401,1,0,0:0:0:0:
448,192,114553,128,2,114667:0:0:0:0:
320,192,114553,128,0,114610:0:0:0:0:
64,192,114610,1,0,0:0:0:0:
192,192,114660,1,0,0:0:0:0:
320,192,114725,1,0,0:0:0:0:
448,192,114810,1,0,0:0:0:0:
320,192,114853,1,0,0:0:0:0:
192,192,114896,1,0,0:0:0:0:
64,192,114896,1,0,0:0:0:0:
192,192,115067,1,0,0:0:0:0:
320,192,115067,1,0,0:0:0:0:
448,192,115239,1,4,0:0:0:0:
64,192,115239,128,2,115410:0:0:0:0:
320,192,115239,128,0,115325:0:0:0:0:
448,192,115410,1,0,0:0:0:0:
320,192,115496,1,0,0:0:0:0:
448,192,115582,1,0,0:0:0:0:
320,192,115667,1,0,0:0:0:0:
448,192,115753,1,0,0:0:0:0:
320,192,115925,1,0,0:0:0:70:electronic28.wav
64,192,115925,1,0,0:0:0:0:
192,192,116010,1,0,0:0:0:0:
64,192,116096,1,0,0:0:0:0:
192,192,116182,1,0,0:0:0:0:
64,192,116267,1,0,0:0:0:0:
64,192,116439,128,2,116782:0:0:0:0:
192,192,116439,1,0,0:0:0:0:
448,192,116525,1,0,0:0:0:0:
320,192,116610,1,0,0:0:0:0:
448,192,116696,1,0,0:0:0:0:
320,192,116782,1,0,0:0:0:0:
192,192,116953,1,0,0:0:0:0:
64,192,116953,128,2,117125:0:0:0:0:
448,192,117039,1,0,0:0:0:0:
320,192,117125,1,0,0:0:0:0:
448,192,117210,1,0,0:0:0:0:
64,192,117296,128,0,117725:0:0:0:0:
192,192,117296,1,0,0:0:0:70:electronic28.wav
448,192,117382,1,0,0:0:0:0:
320,192,117467,1,0,0:0:0:0:
448,192,117553,1,0,0:0:0:0:
320,192,117639,1,0,0:0:0:0:
448,192,117725,1,0,0:0:0:0:
64,192,117810,128,0,117867:0:0:0:0:
192,192,117867,128,0,117925:0:0:0:0:
448,192,117925,128,0,117982:0:0:0:0:
320,192,117982,1,0,0:0:0:0:
64,192,117982,128,2,118153:0:0:0:0:
448,192,118153,1,0,0:0:0:0:
320,192,118239,1,0,0:0:0:0:
448,192,118325,128,0,118410:0:0:0:0:
192,192,118367,1,0,0:0:0:0:
320,192,118410,128,0,118496:0:0:0:0:
64,192,118453,1,0,0:0:0:0:
448,192,118496,128,0,118667:0:0:0:0:
64,192,118667,1,0,0:0:0:0:
320,192,118667,1,0,0:0:0:70:electronic28.wav
192,192,118753,1,0,0:0:0:0:
64,192,118839,1,0,0:0:0:0:
192,192,118925,1,0,0:0:0:0:
64,192,119010,1,0,0:0:0:0:
64,192,119182,128,2,119525:0:0:0:0:
192,192,119182,1,0,0:0:0:0:
448,192,119267,1,0,0:0:0:0:
320,192,119353,1,0,0:0:0:0:
448,192,119439,1,0,0:0:0:0:
320,192,119525,1,0,0:0:0:0:
192,192,119696,1,0,0:0:0:0:
64,192,119696,128,2,119867:0:0:0:0:
448,192,119782,1,0,0:0:0:0:
320,192,119867,1,0,0:0:0:0:
448,192,119953,1,0,0:0:0:0:
192,192,120039,128,0,120210:0:0:0:70:electronic28.wav
64,192,120039,1,0,0:0:0:0:
448,192,120210,1,0,0:0:0:0:
320,192,120253,1,0,0:0:0:0:
64,192,120296,1,0,0:0:0:0:
448,192,120339,1,0,0:0:0:0:
192,192,120382,128,0,120553:0:0:0:0:
320,192,120467,1,0,0:0:0:0:
64,192,120553,1,0,0:0:0:0:
448,192,120725,1,4,0:0:0:0:
64,192,120725,128,2,120896:0:0:0:0:
320,192,120725,128,0,120810:0:0:0:0:
448,192,120896,1,0,0:0:0:0:
320,192,120982,1,0,0:0:0:0:
448,192,121067,1,0,0:0:0:0:
192,192,121110,128,0,121282:0:0:0:0:
320,192,121153,1,0,0:0:0:0:
448,192,121239,1,0,0:0:0:0:
64,192,121410,1,0,0:0:0:0:
320,192,121410,1,0,0:0:0:70:electronic28.wav
192,192,121496,1,0,0:0:0:0:
448,192,121539,128,0,121710:0:0:0:0:
64,192,121582,1,0,0:0:0:0:
192,192,121667,1,0,0:0:0:0:
64,192,121753,1,0,0:0:0:0:
64,192,121925,128,2,122267:0:0:0:0:
192,192,121925,1,0,0:0:0:0:
448,192,122010,1,0,0:0:0:0:
320,192,122096,1,0,0:0:0:0:
448,192,122182,1,0,0:0:0:0:
320,192,122267,1,0,0:0:0:0:
64,192,122353,1,2,0:0:0:0:
192,192,122353,1,0,0:0:0:0:
192,192,122439,1,0,0:0:0:0:
64,192,122439,128,2,122610:0:0:0:0:
448,192,122525,1,0,0:0:0:0:
320,192,122610,1,0,0:0:0:0:
448,192,122696,1,0,0:0:0:0:
64,192,122782,128,0,123210:0:0:0:0:
192,192,122782,1,0,0:0:0:70:electronic28.wav
448,192,122867,1,0,0:0:0:0:
320,192,122953,1,0,0:0:0:0:
448,192,123039,1,0,0:0:0:0:
320,192,123125,1,0,0:0:0:0:
448,192,123210,1,0,0:0:0:0:
192,192,123296,128,0,123353:0:0:0:0:
64,192,123353,128,0,123410:0:0:0:0:
448,192,123410,128,0,123467:0:0:0:0:
320,192,123467,1,0,0:0:0:0:
192,192,123467,1,2,0:0:0:0:
64,192,123639,128,0,123725:0:0:0:0:
448,192,123639,128,0,123725:0:0:0:0:
64,192,123810,1,0,0:0:0:0:
320,192,123810,1,0,0:0:0:0:
448,192,123896,128,0,123982:0:0:0:0:
192,192,123896,128,0,123982:0:0:0:0:
320,192,124067,1,0,0:0:0:0:
192,192,124067,1,0,0:0:0:0:
448,192,124153,1,0,0:0:0:70:electronic28.wav
64,192,124153,1,0,0:0:0:0:
320,192,124239,1,0,0:0:0:0:
64,192,124325,128,0,124410:0:0:0:0:
192,192,124325,128,0,124410:0:0:0:0:
448,192,124410,128,0,124496:0:0:0:0:
320,192,124410,128,0,124496:0:0:0:0:
192,192,124582,128,0,124667:0:0:0:0:
320,192,124582,128,0,124667:0:0:0:0:
64,192,124667,128,2,125353:0:0:0:0:
448,192,124667,128,0,124753:0:0:0:0:
320,192,124839,1,0,0:0:0:0:
192,192,125010,128,0,125096:0:0:0:0:
448,192,125010,128,0,125096:0:0:0:0:
320,192,125182,1,2,0:0:0:0:
448,192,125182,1,0,0:0:0:30:clap.wav
192,192,125267,128,0,125439:0:0:0:0:
320,192,125353,128,0,125525:0:0:0:0:
448,192,125439,128,0,125525:0:0:0:0:
64,192,125525,1,0,0:0:0:0:
192,192,125525,1,0,0:0:0:70:electronic28.wav
320,192,125610,128,0,125825:0:0:0:0:
448,192,125610,128,0,125782:0:0:0:0:
192,192,125696,128,0,125867:0:0:0:0:
64,192,125782,128,0,125867:0:0:0:0:
448,192,125867,1,0,0:0:0:0:
320,192,125910,1,0,0:0:0:0:
64,192,125953,1,0,0:0:0:0:
192,192,125996,1,0,0:0:0:0:
320,192,126039,128,0,126125:0:0:0:0:
448,192,126039,128,0,126125:0:0:0:0:
192,192,126125,1,0,0:0:0:0:
448,192,126210,1,4,0:0:0:0:
64,192,126210,128,2,126382:0:0:0:0:
320,192,126210,128,0,126296:0:0:0:0:
448,192,126382,128,0,126467:0:0:0:0:
192,192,126467,128,0,126553:0:0:0:0:
448,192,126553,128,0,126639:0:0:0:0:
192,192,126639,128,0,126725:0:0:0:0:
448,192,126725,128,0,126810:0:0:0:0:
320,192,126896,1,0,0:0:0:70:electronic28.wav
192,192,126896,1,0,0:0:0:0:
448,192,126982,1,0,0:0:0:0:
320,192,127025,1,0,0:0:0:0:
192,192,127067,1,0,0:0:0:0:
64,192,127110,1,0,0:0:0:0:
448,192,127153,1,0,0:0:0:0:
320,192,127196,1,0,0:0:0:0:
192,192,127239,1,0,0:0:0:0:
64,192,127410,1,2,0:0:0:0:
320,192,127410,1,0,0:0:0:0:
448,192,127496,128,0,127582:0:0:0:0:
64,192,127582,128,0,127667:0:0:0:0:
448,192,127667,128,0,127753:0:0:0:0:
64,192,127753,128,0,127839:0:0:0:0:
320,192,127839,1,2,0:0:0:0:
448,192,127839,1,0,0:0:0:0:
192,192,127925,1,0,0:0:0:0:
64,192,127925,1,2,0:0:0:0:
320,192,128010,128,0,128096:0:0:0:0:
64,192,128096,128,0,128182:0:0:0:0:
320,192,128182,128,0,128267:0:0:0:0:
192,192,128267,1,0,0:0:0:0:
448,192,128267,1,0,0:0:0:70:electronic28.wav
64,192,128353,1,0,0:0:0:0:
192,192,128396,1,0,0:0:0:0:
320,192,128439,1,0,0:0:0:0:
448,192,128482,1,0,0:0:0:0:
64,192,128525,1,0,0:0:0:0:
192,192,128567,1,0,0:0:0:0:
320,192,128610,1,0,0:0:0:0:
64,192,128696,1,0,0:0:0:0:
64,192,128782,128,0,128867:0:0:0:0:
448,192,128825,1,0,0:0:0:0:
320,192,128867,1,0,0:0:0:0:
192,192,128910,1,0,0:0:0:0:
64,192,128953,1,2,0:0:0:0:
448,192,128953,1,0,0:0:0:0:
320,192,129039,1,0,0:0:0:0:
448,192,129125,128,0,129210:0:0:0:0:
192,192,129210,128,0,129296:0:0:0:0:
448,192,129296,1,0,0:0:0:0:
320,192,129339,1,0,0:0:0:0:
64,192,129382,1,0,0:0:0:0:
192,192,129425,1,0,0:0:0:0:
448,192,129467,128,0,129639:0:0:0:0:
64,192,129639,1,0,0:0:0:0:
320,192,129639,1,0,0:0:0:70:electronic28.wav
192,192,129725,1,0,0:0:0:0:
320,192,129767,1,0,0:0:0:0:
448,192,129810,1,0,0:0:0:0:
64,192,129853,1,0,0:0:0:0:
192,192,129896,1,0,0:0:0:0:
320,192,129939,1,0,0:0:0:0:
448,192,129982,1,0,0:0:0:0:
192,192,130067,1,0,0:0:0:0:
64,192,130153,1,2,0:0:0:0:
320,192,130153,1,0,0:0:0:0:
448,192,130239,128,0,130325:0:0:0:0:
64,192,130325,128,0,130410:0:0:0:0:
448,192,130410,128,0,130496:0:0:0:0:
64,192,130496,128,0,130582:0:0:0:0:
320,192,130582,1,2,0:0:0:0:
448,192,130582,1,0,0:0:0:0:
192,192,130667,1,0,0:0:0:0:
64,192,130667,1,2,0:0:0:0:
320,192,130753,128,0,130839:0:0:0:0:
64,192,130839,128,0,130925:0:0:0:0:
320,192,130925,128,0,131010:0:0:0:0:
64,192,131010,1,0,0:0:0:0:
448,192,131010,1,0,0:0:0:70:electronic28.wav
320,192,131182,128,0,131267:0:0:0:0:
192,192,131182,1,0,0:0:0:0:
320,192,131353,128,0,131439:0:0:0:0:
448,192,131439,1,0,0:0:0:0:
64,192,131439,1,0,0:0:0:0:
192,192,131525,128,0,131610:0:0:0:0:
320,192,131696,1,0,0:0:0:0:
448,192,131696,1,4,0:0:0:0:
64,192,131696,128,2,131867:0:0:0:0:
448,192,131867,128,0,131953:0:0:0:0:
192,192,131953,128,0,132039:0:0:0:0:
448,192,132039,128,0,132125:0:0:0:0:
192,192,132125,128,0,132210:0:0:0:0:
448,192,132210,128,0,132296:0:0:0:0:
64,192,132382,1,0,0:0:0:0:
320,192,132382,1,0,0:0:0:70:electronic28.wav
448,192,132467,1,0,0:0:0:0:
320,192,132510,1,0,0:0:0:0:
192,192,132553,1,0,0:0:0:0:
64,192,132596,1,0,0:0:0:0:
448,192,132639,1,0,0:0:0:0:
320,192,132682,1,0,0:0:0:0:
192,192,132725,1,0,0:0:0:0:
64,192,132896,1,2,0:0:0:0:
320,192,132896,1,0,0:0:0:0:
448,192,132982,128,0,133067:0:0:0:0:
64,192,133067,128,0,133153:0:0:0:0:
448,192,133153,128,0,133239:0:0:0:0:
64,192,133239,128,0,133325:0:0:0:0:
320,192,133325,1,2,0:0:0:0:
448,192,133325,1,0,0:0:0:0:
192,192,133410,1,0,0:0:0:0:
64,192,133410,1,2,0:0:0:0:
320,192,133496,128,0,133582:0:0:0:0:
64,192,133582,128,0,133667:0:0:0:0:
320,192,133667,128,0,133753:0:0:0:0:
192,192,133753,1,0,0:0:0:0:
448,192,133753,1,0,0:0:0:70:electronic28.wav
64,192,133839,128,0,133925:0:0:0:0:
320,192,133925,1,0,0:0:0:0:
448,192,133967,1,0,0:0:0:0:
192,192,134010,1,0,0:0:0:0:
64,192,134053,1,0,0:0:0:0:
320,192,134096,128,0,134182:0:0:0:0:
64,192,134182,128,0,134267:0:0:0:0:
448,192,134267,1,0,0:0:0:0:
192,192,134310,1,0,0:0:0:0:
320,192,134353,1,0,0:0:0:0:
64,192,134439,1,2,0:0:0:0:
448,192,134439,1,4,0:0:0:0:
192,192,134439,1,0,0:0:0:0:
320,192,134525,1,0,0:0:0:0:
192,192,134610,1,0,0:0:0:0:
448,192,134696,1,0,0:0:0:70:electronic36.wav
64,192,134696,1,0,0:0:0:0:
320,192,134782,1,0,0:0:0:0:
192,192,134867,1,0,0:0:0:0:
448,192,134953,1,0,0:0:0:70:electronic36.wav
64,192,134953,1,0,0:0:0:0:
320,192,135039,1,0,0:0:0:0:
64,192,135125,1,2,0:0:0:0:
192,192,135125,1,0,0:0:0:0:
448,192,135125,1,0,0:0:0:0:
320,192,135210,1,0,0:0:0:0:
448,192,135296,1,0,0:0:0:0:
192,192,135382,1,0,0:0:0:70:electronic36.wav
64,192,135382,1,0,0:0:0:0:
320,192,135467,1,0,0:0:0:0:
448,192,135553,1,0,0:0:0:0:
192,192,135639,1,0,0:0:0:70:electronic36.wav
64,192,135639,1,0,0:0:0:0:
320,192,135725,1,0,0:0:0:0:
64,192,135810,1,2,0:0:0:0:
448,192,135810,1,0,0:0:0:0:
192,192,135810,1,0,0:0:0:0:
320,192,135896,128,0,136067:0:0:0:0:
64,192,135982,128,0,136067:0:0:0:0:
448,192,136067,1,0,0:0:0:70:electronic36.wav
192,192,136067,1,0,0:0:0:0:
64,192,136153,1,2,0:0:0:0:
320,192,136153,1,0,0:0:0:0:
448,192,136239,128,0,136410:0:0:0:0:
192,192,136325,1,0,0:0:0:70:electronic36.wav
64,192,136325,128,0,136410:0:0:0:0:
320,192,136410,1,0,0:0:0:0:
448,192,136496,1,0,0:0:0:0:
192,192,136496,1,0,0:0:0:0:
64,192,136496,1,2,0:0:0:0:
320,192,136582,128,0,136839:0:0:0:0:
64,192,136667,128,0,136796:0:0:0:0:
448,192,136667,128,0,136753:0:0:0:70:electronic36.wav
192,192,136753,128,0,136839:0:0:0:0:
448,192,136839,1,0,0:0:0:0:
64,192,136882,1,0,0:0:0:0:
192,192,136925,1,0,0:0:0:0:
320,192,136967,1,0,0:0:0:0:
448,192,137010,1,0,0:0:0:0:
64,192,137053,1,0,0:0:0:0:
192,192,137096,1,0,0:0:0:0:
320,192,137139,1,0,0:0:0:0:
64,192,137182,128,2,137267:0:0:0:0:
448,192,137182,1,4,0:0:0:0:
64,192,137867,128,0,137953:0:0:0:40:soft-hitnormal.wav
64,192,138553,128,0,138639:0:0:0:40:soft-hitnormal.wav
64,192,139239,128,0,139325:0:0:0:40:soft-hitnormal.wav
64,192,139925,1,0,0:0:0:40:soft-hitnormal.wav
64,192,140610,1,0,0:0:0:40:soft-hitnormal.wav
64,192,141296,1,0,0:0:0:40:soft-hitnormal.wav
64,192,141982,1,0,0:0:0:40:soft-hitnormal.wav
64,192,142453,1,2,0:0:0:0:
192,192,142453,1,0,0:0:0:40:soft-hitnormal.wav
320,192,142539,1,0,0:0:0:40:soft-hitnormal.wav
448,192,142539,1,2,0:0:0:0:
192,192,142610,1,2,0:0:0:0:
64,192,142667,128,2,142753:0:0:0:0:
64,192,143353,128,0,143439:0:0:0:40:soft-hitnormal.wav
64,192,144039,128,0,144125:0:0:0:40:soft-hitnormal.wav
64,192,144725,128,0,144810:0:0:0:40:soft-hitnormal.wav
64,192,145367,1,0,0:0:0:50:P_F7.wav
448,192,145410,128,0,145496:0:0:0:70:P_F8.wav
448,192,146096,128,0,146182:0:0:0:50:P_F8.wav
192,192,146782,1,0,0:0:0:0:
448,192,146782,128,0,146867:0:0:0:50:P_F8.wav
320,192,147125,1,0,0:0:0:0:
448,192,147467,1,0,0:0:0:50:P_F8.wav
64,192,147639,1,0,0:0:0:0:
448,192,147696,1,0,0:0:0:0:
320,192,147753,1,0,0:0:0:0:
192,192,147810,128,0,147982:0:0:0:0:
320,192,147982,1,0,0:0:0:70:acousticsnare.wav
448,192,147982,1,0,0:0:0:0:
64,192,147982,1,0,0:0:0:0:
192,192,148153,1,0,0:0:0:50:P_Bb7.wav
64,192,148153,1,0,0:0:0:70:acoustickick.mp3
448,192,148153,128,4,148239:0:0:0:0:
320,192,148325,1,0,0:0:0:40:
448,192,148496,1,0,0:0:0:40:
192,192,148496,1,0,0:0:0:70:acoustickick.mp3
64,192,148667,1,0,0:0:0:40:
320,192,148839,1,0,0:0:0:25:P_Bb7.wav
192,192,148839,1,0,0:0:0:70:acoustickick.mp3
448,192,149010,1,0,0:0:0:40:
320,192,149182,1,0,0:0:0:40:
64,192,149182,1,0,0:0:0:70:acoustickick.mp3
192,192,149353,1,0,0:0:0:40:
448,192,149525,1,0,0:0:0:12:P_Bb7.wav
64,192,149525,1,0,0:0:0:70:acoustickick.mp3
192,192,149696,1,0,0:0:0:40:
320,192,149867,128,0,149953:0:0:0:50:P_F7.wav
448,192,149867,1,0,0:0:0:70:acoustickick.mp3
192,192,150039,128,0,150125:0:0:0:50:P_Gb7.wav
64,192,150210,128,0,150296:0:0:0:50:P_Ab7.wav
192,192,150210,1,0,0:0:0:70:acoustickick.mp3
320,192,150382,128,0,150467:0:0:0:50:P_Db8.wav
448,192,150553,128,0,150639:0:0:0:50:P_Eb8.wav
320,192,150553,1,0,0:0:0:70:acoustickick.mp3
64,192,150725,128,0,150810:0:0:0:50:P_Bb7.wav
192,192,150725,128,0,150896:0:0:0:25:P_Ab5.wav
320,192,150896,1,0,0:0:0:70:acoustickick.mp3
448,192,150896,1,0,0:0:0:40:
320,192,151067,1,0,0:0:0:25:P_Db8.wav
448,192,151239,1,0,0:0:0:25:P_Eb8.wav
192,192,151239,1,0,0:0:0:70:acoustickick.mp3
64,192,151410,1,0,0:0:0:25:P_Bb7.wav
192,192,151582,1,0,0:0:0:70:acoustickick.mp3
320,192,151582,1,0,0:0:0:40:
448,192,151753,1,0,0:0:0:12:P_Db8.wav
448,192,151925,1,0,0:0:0:12:P_Eb8.wav
320,192,151925,1,0,0:0:0:70:acoustickick.mp3
64,192,152096,1,0,0:0:0:12:P_Bb7.wav
192,192,152267,1,0,0:0:0:70:acoustickick.mp3
448,192,152267,1,0,0:0:0:40:
320,192,152439,1,0,0:0:0:40:
448,192,152525,1,0,0:0:0:40:
64,192,152610,1,0,0:0:0:70:acoustickick.mp3
192,192,152610,1,0,0:0:0:40:
320,192,152782,128,0,152867:0:0:0:50:P_F8.wav
448,192,152867,128,0,152953:0:0:0:50:P_Gb8.wav
320,192,152953,128,0,153039:0:0:0:50:P_F8.wav
192,192,152953,1,0,0:0:0:70:acoustickick.mp3
64,192,153125,128,0,153210:0:0:0:50:P_Db8.wav
320,192,153210,1,0,0:0:0:40:
192,192,153296,128,0,153382:0:0:0:50:P_Eb8.wav
448,192,153296,1,0,0:0:0:70:acoustickick.mp3
64,192,153467,128,0,153639:0:0:0:25:P_Db6.wav
320,192,153467,1,0,0:0:0:25:P_F8.wav
448,192,153553,1,0,0:0:0:25:P_Gb8.wav
320,192,153639,1,0,0:0:0:25:P_F8.wav
192,192,153639,1,0,0:0:0:70:acoustickick.mp3
320,192,153810,1,0,0:0:0:25:P_Db8.wav
448,192,153982,1,0,0:0:0:25:P_Eb8.wav
192,192,153982,1,0,0:0:0:70:acoustickick.mp3
320,192,154153,1,0,0:0:0:12:P_F8.wav
448,192,154239,1,0,0:0:0:12:P_Gb8.wav
192,192,154325,1,0,0:0:0:12:P_F8.wav
64,192,154325,1,0,0:0:0:70:acoustickick.mp3
320,192,154496,1,0,0:0:0:12:P_Db8.wav
64,192,154667,1,0,0:0:0:70:acoustickick.mp3
448,192,154667,1,0,0:0:0:12:P_Eb8.wav
192,192,154839,1,0,0:0:0:40:
64,192,154925,1,0,0:0:0:40:
448,192,155010,1,0,0:0:0:0:
320,192,155010,1,0,0:0:0:70:acoustickick.mp3
64,192,155182,1,0,0:0:0:40:
320,192,155353,128,0,155439:0:0:0:50:P_F7.wav
448,192,155353,1,0,0:0:0:70:acoustickick.mp3
192,192,155525,128,0,155610:0:0:0:50:P_Gb7.wav
64,192,155696,128,0,155782:0:0:0:50:P_Ab7.wav
192,192,155696,1,0,0:0:0:70:acoustickick.mp3
320,192,155867,128,0,155953:0:0:0:50:P_Db8.wav
192,192,155953,1,0,0:0:0:40:
448,192,156039,128,0,156125:0:0:0:50:P_Eb8.wav
320,192,156039,1,0,0:0:0:70:acoustickick.mp3
64,192,156210,128,0,156296:0:0:0:25:P_Ab5.wav
192,192,156210,128,0,156382:0:0:0:50:P_Gb7.wav
448,192,156382,1,0,0:0:0:0:
320,192,156382,1,0,0:0:0:70:acoustickick.mp3
320,192,156553,1,0,0:0:0:25:P_Db8.wav
448,192,156725,1,0,0:0:0:25:P_Eb8.wav
192,192,156725,1,0,0:0:0:70:acoustickick.mp3
64,192,156896,1,0,0:0:0:25:P_Gb7.wav
448,192,156982,1,0,0:0:0:40:
320,192,157067,128,0,157153:0:0:0:50:P_F7.wav
192,192,157067,1,0,0:0:0:70:acoustickick.mp3
64,192,157239,128,0,157325:0:0:0:50:P_Gb7.wav
192,192,157410,128,0,157496:0:0:0:50:P_Ab7.wav
320,192,157410,1,0,0:0:0:70:acoustickick.mp3
448,192,157582,128,0,157667:0:0:0:50:P_Db8.wav
320,192,157582,1,0,0:0:0:25:P_Ab5.wav
192,192,157667,1,0,0:0:0:40:
448,192,157753,1,0,0:0:0:40:
64,192,157753,1,0,0:0:0:70:acoustickick.mp3
192,192,157839,1,0,0:0:0:0:
320,192,157925,128,0,158010:0:0:0:50:P_Cb8.wav
64,192,158010,1,0,0:0:0:40:
320,192,158096,1,0,0:0:0:70:acoustickick.mp3
448,192,158096,1,0,0:0:0:40:
192,192,158267,128,0,158353:0:0:0:50:P_Bb7.wav
320,192,158310,1,0,0:0:0:25:P_Db6.wav
448,192,158439,1,0,0:0:0:40:
64,192,158439,1,0,0:0:0:70:acoustickick.mp3
64,192,158610,128,0,158696:0:0:0:50:P_Ab7.wav
192,192,158610,1,0,0:0:0:25:P_B7.wav
448,192,158696,1,0,0:0:0:0:
192,192,158782,1,0,0:0:0:70:acoustickick.mp3
320,192,158782,1,0,0:0:0:0:
320,192,158953,1,0,0:0:0:70:acousticsnare.wav
448,192,158953,1,0,0:0:0:40:
64,192,158953,1,0,0:0:0:40:
192,192,159125,128,0,159296:0:0:0:50:P_Bb7.wav
64,192,159125,1,4,0:0:0:0:
320,192,159296,1,0,0:0:0:40:
448,192,159467,1,0,0:0:0:40:
192,192,159467,1,0,0:0:0:70:acoustickick.mp3
64,192,159639,1,0,0:0:0:40:
320,192,159810,1,0,0:0:0:25:P_Bb7.wav
192,192,159810,1,0,0:0:0:70:acoustickick.mp3
448,192,159982,1,0,0:0:0:40:
320,192,160153,1,0,0:0:0:40:
64,192,160153,1,0,0:0:0:70:acoustickick.mp3
192,192,160325,1,0,0:0:0:40:
448,192,160496,1,0,0:0:0:12:P_Bb7.wav
64,192,160496,1,0,0:0:0:70:acoustickick.mp3
192,192,160667,1,0,0:0:0:40:
320,192,160839,128,0,160925:0:0:0:50:P_F7.wav
448,192,160839,1,0,0:0:0:70:acoustickick.mp3
192,192,161010,128,0,161096:0:0:0:50:P_Gb7.wav
64,192,161182,128,0,161267:0:0:0:50:P_Ab7.wav
192,192,161182,1,0,0:0:0:70:acoustickick.mp3
320,192,161353,128,0,161439:0:0:0:50:P_Db8.wav
448,192,161525,128,0,161610:0:0:0:50:P_Eb8.wav
320,192,161525,1,0,0:0:0:70:acoustickick.mp3
64,192,161696,128,0,161782:0:0:0:50:P_Bb7.wav
192,192,161696,128,0,161867:0:0:0:70:acousticsnare.wav
448,192,161867,1,0,0:0:0:40:
320,192,161867,1,0,0:0:0:70:acoustickick.mp3
320,192,162039,1,0,0:0:0:25:P_Db8.wav
448,192,162210,1,0,0:0:0:25:P_Eb8.wav
192,192,162210,1,0,0:0:0:70:acoustickick.mp3
64,192,162382,1,0,0:0:0:25:P_Bb7.wav
320,192,162553,1,0,0:0:0:70:acoustickick.mp3
448,192,162553,1,0,0:0:0:40:
64,192,162725,128,0,162810:0:0:0:50:P_Db8.wav
192,192,162896,128,0,162982:0:0:0:50:P_Eb8.wav
320,192,162896,1,0,0:0:0:70:acoustickick.mp3
448,192,163067,128,0,163153:0:0:0:50:P_F8.wav
320,192,163067,128,0,163239:0:0:0:25:P_Db5.wav
192,192,163239,1,0,0:0:0:40:
64,192,163239,1,0,0:0:0:70:acoustickick.mp3
320,192,163410,1,0,0:0:0:70:acousticsnare.wav
448,192,163410,1,0,0:0:0:40:
64,192,163410,1,0,0:0:0:40:
192,192,163582,1,0,0:0:0:70:acoustickick.mp3
320,192,163582,1,0,0:0:0:40:
448,192,163753,128,0,163839:0:0:0:50:P_Gb8.wav
320,192,163925,1,0,0:0:0:40:
192,192,163925,1,0,0:0:0:70:acoustickick.mp3
64,192,164096,1,0,0:0:0:40:
192,192,164182,1,0,0:0:0:40:
448,192,164267,1,0,0:0:0:70:acousticsnare.wav
64,192,164267,1,0,0:0:0:70:acoustickick.mp3
320,192,164267,128,0,164353:0:0:0:50:P_F8.wav
64,192,164439,128,0,164525:0:0:0:50:P_Db8.wav
192,192,164553,1,0,0:0:0:40:
320,192,164610,128,0,164696:0:0:0:70:acoustickick.mp3
448,192,164610,128,0,164782:0:0:0:25:P_Eb5.wav
64,192,164782,1,0,0:0:0:40:
448,192,164953,1,0,0:0:0:25:P_F8.wav
320,192,164953,1,0,0:0:0:70:acoustickick.mp3
192,192,165125,1,0,0:0:0:25:P_Db8.wav
448,192,165296,1,0,0:0:0:40:
320,192,165296,1,0,0:0:0:70:acoustickick.mp3
192,192,165467,1,0,0:0:0:70:acousticsnare.wav
64,192,165467,1,0,0:0:0:40:
448,192,165467,1,0,0:0:0:40:
64,192,165639,1,0,0:0:0:70:acoustickick.mp3
320,192,165639,128,0,165725:0:0:0:50:P_Cb8.wav
192,192,165810,128,0,165896:0:0:0:50:P_Bb7.wav
448,192,165810,1,0,0:0:0:70:acousticsnare.wav
320,192,165810,1,0,0:0:0:40:
64,192,165982,1,0,0:0:0:70:acoustickick.mp3
448,192,165982,128,0,166153:0:0:0:25:P_D5.wav
320,192,166025,1,0,0:0:0:25:P_Db6.wav
192,192,166153,1,0,0:0:0:40:
320,192,166325,128,0,166410:0:0:0:50:P_B7.wav
448,192,166325,1,0,0:0:0:70:acoustickick.mp3
64,192,166496,128,0,166582:0:0:0:50:P_Ab7.wav
320,192,166667,1,0,0:0:0:70:acoustickick.mp3
448,192,166667,1,0,0:0:0:40:
192,192,166839,1,0,0:0:0:70:acousticsnare.wav
448,192,166839,1,0,0:0:0:40:
64,192,166839,1,0,0:0:0:40:
64,192,167010,128,0,167096:0:0:0:50:P_Db7.wav
320,192,167010,1,0,0:0:0:70:acoustickick.mp3
448,192,167182,1,0,0:0:0:70:acousticsnare.wav
192,192,167182,128,0,167267:0:0:0:50:P_F7.wav
320,192,167182,1,0,0:0:0:40:
192,192,167353,1,0,0:0:0:50:acousticsnare.wav
64,192,167353,1,0,0:0:0:15:P_F5.wav
192,192,167525,1,0,0:0:0:50:acousticsnare.wav
320,192,167696,1,0,0:0:0:50:acousticsnare.wav
448,192,167696,1,0,0:0:0:40:
320,192,167867,1,0,0:0:0:50:acousticsnare.wav
64,192,168039,1,0,0:0:0:50:acousticsnare.wav
192,192,168039,1,0,0:0:0:40:
64,192,168210,1,0,0:0:0:50:acousticsnare.wav
320,192,168382,1,0,0:0:0:40:
448,192,168382,1,0,0:0:0:50:acousticsnare.wav
448,192,168553,1,0,0:0:0:50:acousticsnare.wav
192,192,168725,1,0,0:0:0:50:acousticsnare.wav
64,192,168725,1,0,0:0:0:20:soft-hitwhistle.wav
448,192,168810,1,0,0:0:0:20:soft-hitwhistle.wav
320,192,168896,1,0,0:0:0:50:acousticsnare.wav
64,192,168896,1,0,0:0:0:20:soft-hitwhistle.wav
192,192,168982,1,0,0:0:0:20:soft-hitwhistle.wav
448,192,169067,1,0,0:0:0:50:acousticsnare.wav
320,192,169067,1,0,0:0:0:20:soft-hitwhistle.wav
192,192,169153,1,0,0:0:0:20:soft-hitwhistle.wav
448,192,169239,1,0,0:0:0:50:acousticsnare.wav
64,192,169239,1,0,0:0:0:20:soft-hitwhistle.wav
320,192,169325,1,0,0:0:0:20:soft-hitwhistle.wav
192,192,169410,1,0,0:0:0:50:acousticsnare.wav
64,192,169410,1,0,0:0:0:40:soft-hitwhistle.wav
320,192,169496,1,0,0:0:0:40:soft-hitwhistle.wav
448,192,169582,1,0,0:0:0:50:acousticsnare.wav
64,192,169582,1,0,0:0:0:40:soft-hitwhistle.wav
192,192,169667,1,0,0:0:0:40:soft-hitwhistle.wav
448,192,169753,1,0,0:0:0:50:acousticsnare.wav
320,192,169753,1,0,0:0:0:40:soft-hitwhistle.wav
64,192,169839,1,0,0:0:0:40:soft-hitwhistle.wav
448,192,169925,1,0,0:0:0:50:acousticsnare.wav
192,192,169925,1,0,0:0:0:40:soft-hitwhistle.wav
320,192,170010,1,0,0:0:0:40:soft-hitwhistle.wav
64,192,170096,1,2,0:0:0:0:
448,192,170096,1,0,0:0:0:50:acousticsnare.wav
192,192,170096,128,0,170182:0:0:0:35:P_Eb5.wav
320,192,170182,1,2,0:0:0:0:
64,192,170267,1,2,0:0:0:0:
448,192,170267,1,0,0:0:0:50:acousticsnare.wav
192,192,170353,1,2,0:0:0:0:
64,192,170439,1,2,0:0:0:0:
320,192,170439,1,0,0:0:0:50:acousticsnare.wav
192,192,170525,1,2,0:0:0:0:
320,192,170610,1,2,0:0:0:0:
448,192,170610,1,0,0:0:0:50:acousticsnare.wav
192,192,170696,1,2,0:0:0:0:
64,192,170782,1,2,0:0:0:0:
448,192,170782,1,0,0:0:0:50:acousticsnare.wav
320,192,170867,1,2,0:0:0:0:
64,192,170953,1,2,0:0:0:0:
192,192,170953,1,0,0:0:0:50:acousticsnare.wav
320,192,171039,1,2,0:0:0:0:
192,192,171125,1,2,0:0:0:0:
448,192,171125,1,0,0:0:0:50:acousticsnare.wav
64,192,171210,1,2,0:0:0:0:
192,192,171296,1,2,0:0:0:0:
320,192,171296,1,0,0:0:0:50:acousticsnare.wav
448,192,171382,1,2,0:0:0:0:
64,192,171467,1,2,0:0:0:0:
192,192,171467,1,0,0:0:0:0:
448,192,171553,1,2,0:0:0:0:
320,192,171553,1,0,0:0:0:0:
192,192,171639,1,0,0:0:0:0:
64,192,171639,1,2,0:0:0:0:
320,192,171725,1,0,0:0:0:0:
448,192,171725,1,2,0:0:0:0:
64,192,171810,1,2,0:0:0:0:
192,192,171810,1,0,0:0:0:0:
320,192,171896,1,0,0:0:0:0:
448,192,171896,1,2,0:0:0:0:
192,192,171982,1,0,0:0:0:0:
64,192,171982,1,2,0:0:0:0:
320,192,172067,1,0,0:0:0:0:
448,192,172067,1,2,0:0:0:0:
64,192,172153,1,0,0:0:0:0:
192,192,172229,1,0,0:0:0:0:
448,192,172300,128,0,172447:0:0:0:0:
320,192,172349,1,0,0:0:0:0:
192,192,172367,1,0,0:0:0:0:
64,192,172398,1,0,0:0:0:0:
320,192,172496,128,0,172686:0:0:0:0:
192,192,172572,1,0,0:0:0:0:
64,192,172610,1,0,0:0:0:0:
448,192,172686,1,0,0:0:0:0:
192,192,172763,1,0,0:0:0:0:
64,192,172839,128,0,173067:0:0:0:30:
448,192,172896,128,0,173239:0:0:0:0:
320,192,173182,128,0,173296:0:0:0:30:
192,192,173239,128,0,173353:0:0:0:30:
64,192,173296,128,0,173410:0:0:0:30:
448,192,173353,1,0,0:0:0:50:
320,192,173410,1,0,0:0:0:50:
192,192,173467,1,0,0:0:0:50:
64,192,173525,128,2,174210:0:0:0:0:
448,192,173525,1,4,0:0:0:0:
320,192,173525,1,0,0:0:0:0:
192,192,173653,128,0,173739:0:0:0:0:
448,192,173696,128,0,174039:0:0:0:0:
320,192,173867,128,0,174039:0:0:0:0:
192,192,174039,128,0,174210:0:0:0:0:
448,192,174210,128,0,174467:0:0:0:0:
320,192,174210,128,0,174296:0:0:0:0:
192,192,174296,1,0,0:0:0:0:
64,192,174382,1,0,0:0:0:0:
192,192,174467,1,0,0:0:0:0:
64,192,174553,128,2,174896:0:0:0:0:
320,192,174553,1,0,0:0:0:0:
448,192,174553,128,4,174896:0:0:0:0:
192,192,174725,128,0,174896:0:0:0:0:
320,192,174896,128,0,175067:0:0:0:0:
448,192,175067,128,4,175410:0:0:0:0:
192,192,175067,1,0,0:0:0:0:
64,192,175067,128,2,175410:0:0:0:0:
320,192,175239,128,0,175410:0:0:0:0:
192,192,175410,128,0,175582:0:0:0:0:
448,192,175582,128,4,176953:0:0:0:0:
64,192,175582,128,2,176096:0:0:0:0:
320,192,175582,128,0,175925:0:0:0:0:
320,192,176096,1,0,0:0:0:0:
320,192,176182,1,0,0:0:0:0:
192,192,176267,1,0,0:0:0:0:
64,192,176267,1,0,0:0:0:0:
64,192,176439,128,0,176610:0:0:0:0:
320,192,176439,1,0,0:0:0:0:
320,192,176610,128,0,176953:0:0:0:0:
192,192,176610,1,0,0:0:0:0:
64,192,176782,128,0,177125:0:0:0:0:
192,192,176782,128,0,177039:0:0:0:0:
320,192,177125,128,0,177210:0:0:0:0:
448,192,177167,128,0,177253:0:0:0:0:
64,192,177296,128,2,177639:0:0:0:0:
192,192,177296,1,0,0:0:0:0:
320,192,177296,128,4,177639:0:0:0:0:
448,192,177467,128,0,177639:0:0:0:0:
192,192,177639,1,0,0:0:0:0:
320,192,177696,1,0,0:0:0:0:
448,192,177753,1,0,0:0:0:0:
64,192,177810,128,2,178153:0:0:0:0:
192,192,177810,128,4,177982:0:0:0:0:
320,192,177810,1,0,0:0:0:0:
448,192,177982,128,0,178153:0:0:0:0:
192,192,178153,128,0,178325:0:0:0:0:
320,192,178325,128,0,179696:0:0:0:0:
448,192,178325,128,4,179182:0:0:0:0:
64,192,178325,128,2,179010:0:0:0:0:
192,192,178839,128,0,179010:0:0:0:0:
64,192,179182,128,0,179610:0:0:0:0:
192,192,179353,128,0,179696:0:0:0:0:
448,192,179525,128,0,179696:0:0:0:0:
64,192,179696,128,0,179867:0:0:0:0:
320,192,179867,128,0,180039:0:0:0:0:
448,192,179867,128,0,179953:0:0:0:0:
448,192,180039,128,4,180382:0:0:0:0:
192,192,180039,1,0,0:0:0:0:
64,192,180039,128,2,180382:0:0:0:0:
192,192,180210,128,0,180382:0:0:0:0:
320,192,180382,128,0,180553:0:0:0:0:
64,192,180553,128,2,180896:0:0:0:0:
448,192,180553,1,0,0:0:0:0:
192,192,180553,128,4,180896:0:0:0:0:
448,192,180725,128,0,180896:0:0:0:0:
320,192,180896,128,0,181067:0:0:0:0:
64,192,181067,128,2,181925:0:0:0:0:
448,192,181067,128,4,181582:0:0:0:0:
192,192,181067,1,0,0:0:0:0:
320,192,181582,128,0,181667:0:0:0:0:
192,192,181667,1,0,0:0:0:0:
320,192,181753,128,0,181839:0:0:0:0:
448,192,181839,1,0,0:0:0:0:
192,192,181925,128,0,182010:0:0:0:0:
320,192,182010,1,0,0:0:0:0:
64,192,182096,128,0,182182:0:0:0:0:
192,192,182182,1,0,0:0:0:0:
64,192,182267,128,2,182782:0:0:0:0:
448,192,182267,128,4,182782:0:0:0:0:
320,192,182267,1,0,0:0:0:0:
192,192,182610,128,0,182782:0:0:0:0:
320,192,182782,128,0,182953:0:0:0:0:
448,192,182953,128,4,183467:0:0:0:0:
64,192,182953,1,0,0:0:0:0:
192,192,182953,128,2,183467:0:0:0:0:
320,192,183467,1,2,0:0:0:40:soft-hitwhistle.wav
192,192,183525,1,2,0:0:0:40:soft-hitwhistle.wav
64,192,183582,1,2,0:0:0:40:soft-hitwhistle.wav
448,192,183639,1,2,0:0:0:40:soft-hitwhistle.wav
192,192,183696,1,2,0:0:0:40:soft-hitwhistle.wav
320,192,183753,1,2,0:0:0:40:soft-hitwhistle.wav
64,192,183810,1,2,0:0:0:0:
448,192,183810,1,0,0:0:0:70:clap.wav
192,192,183810,128,4,184667:0:0:0:0:
64,192,183982,1,0,0:0:0:0:
448,192,184153,1,0,0:0:0:70:clap.wav
320,192,184153,1,2,0:0:0:0:
64,192,184325,1,0,0:0:0:0:
320,192,184496,1,2,0:0:0:0:
448,192,184496,1,0,0:0:0:70:clap.wav
64,192,184667,128,0,184839:0:0:0:0:
448,192,184839,128,0,185010:0:0:0:70:clap.wav
192,192,184839,1,2,0:0:0:0:
320,192,185010,128,0,185439:0:0:0:0:
64,192,185182,1,2,0:0:0:0:
192,192,185182,1,0,0:0:0:70:clap.wav
448,192,185353,128,0,185439:0:0:0:0:
64,192,185353,128,0,185439:0:0:0:0:
64,192,185525,1,2,0:0:0:0:
192,192,185525,128,0,185696:0:0:0:70:clap.wav
320,192,185696,128,0,185867:0:0:0:0:
448,192,185867,128,0,186039:0:0:0:70:clap.wav
64,192,185867,1,2,0:0:0:0:
64,192,186039,128,0,186210:0:0:0:0:
320,192,186210,128,2,186382:0:0:0:0:
448,192,186210,1,0,0:0:0:70:clap.wav
192,192,186382,128,0,186553:0:0:0:0:
64,192,186425,1,0,0:0:0:0:
320,192,186510,1,0,0:0:0:0:
64,192,186553,128,2,187410:0:0:0:0:
448,192,186553,1,0,0:0:0:70:clap.wav
192,192,186725,1,0,0:0:0:0:
320,192,186896,1,2,0:0:0:0:
448,192,186896,1,0,0:0:0:70:clap.wav
192,192,187067,1,0,0:0:0:0:
192,192,187153,1,0,0:0:0:0:
320,192,187239,1,2,0:0:0:0:
448,192,187239,1,0,0:0:0:70:clap.wav
192,192,187410,128,0,187582:0:0:0:0:
320,192,187410,1,0,0:0:0:0:
64,192,187582,1,2,0:0:0:0:
448,192,187582,128,0,187753:0:0:0:70:clap.wav
320,192,187753,128,0,188096:0:0:0:0:
64,192,187753,128,0,187925:0:0:0:0:
192,192,187925,1,2,0:0:0:0:
448,192,187925,1,0,0:0:0:70:clap.wav
448,192,188096,128,0,188267:0:0:0:0:
192,192,188096,128,0,188267:0:0:0:0:
320,192,188267,1,0,0:0:0:70:clap.wav
64,192,188267,128,2,188439:0:0:0:0:
192,192,188439,128,0,188610:0:0:0:0:
320,192,188610,128,2,188782:0:0:0:0:
448,192,188610,1,0,0:0:0:70:clap.wav
192,192,188782,128,0,188953:0:0:0:0:
448,192,188953,128,0,189125:0:0:0:70:clap.wav
64,192,188953,1,2,0:0:0:0:
64,192,189125,128,0,189296:0:0:0:0:
320,192,189182,1,0,0:0:0:0:
192,192,189296,128,2,190153:0:0:0:0:
448,192,189296,1,0,0:0:0:0:
64,192,189467,1,0,0:0:0:0:
320,192,189639,1,2,0:0:0:0:
448,192,189639,1,0,0:0:0:0:
64,192,189810,1,0,0:0:0:0:
320,192,189982,1,2,0:0:0:0:
448,192,189982,1,8,0:0:0:0:
64,192,190153,128,0,190325:0:0:0:0:
192,192,190325,128,2,190496:0:0:0:0:
448,192,190325,1,0,0:0:0:0:
320,192,190496,128,0,191353:0:0:0:0:
64,192,190667,1,2,0:0:0:0:
192,192,190667,1,0,0:0:0:0:
448,192,190839,1,0,0:0:0:0:
64,192,191010,1,2,0:0:0:0:
192,192,191010,1,0,0:0:0:0:
448,192,191182,128,0,191525:0:0:0:0:
64,192,191353,1,2,0:0:0:0:
192,192,191353,1,8,0:0:0:0:
192,192,191525,128,0,191696:0:0:0:0:
320,192,191696,128,0,191867:0:0:0:0:
64,192,191696,1,2,0:0:0:0:
448,192,191867,128,0,192210:0:0:0:0:
320,192,192039,1,0,0:0:0:0:
64,192,192039,1,2,0:0:0:0:
192,192,192210,128,0,192382:0:0:0:0:
320,192,192382,128,0,192553:0:0:0:0:
64,192,192382,1,2,0:0:0:0:
448,192,192553,128,0,192896:0:0:0:0:
320,192,192725,1,0,0:0:0:0:
64,192,192725,1,2,0:0:0:0:
192,192,192896,128,0,193067:0:0:0:0:
320,192,193067,128,0,193239:0:0:0:0:
64,192,193067,1,2,0:0:0:0:
448,192,193239,128,0,193410:0:0:0:0:
64,192,193410,128,2,193753:0:0:0:0:
320,192,193410,1,0,0:0:0:0:
192,192,193582,1,2,0:0:0:0:
320,192,193582,128,0,194096:0:0:0:0:
192,192,193753,128,2,193925:0:0:0:0:
448,192,193753,1,0,0:0:0:0:
64,192,193925,128,2,194096:0:0:0:0:
448,192,193925,128,0,194096:0:0:0:0:
192,192,194096,1,0,0:0:0:0:
192,192,194182,1,0,0:0:0:0:
320,192,194267,1,0,0:0:0:0:
320,192,194353,1,0,0:0:0:0:
64,192,194439,128,0,194610:0:0:0:0:
448,192,194610,128,0,194782:0:0:0:0:
64,192,194782,1,2,0:0:0:0:
320,192,194782,1,4,0:0:0:0:
192,192,194782,1,0,0:0:0:70:fill_snare.wav
448,192,194867,1,0,0:0:0:0:
192,192,194953,1,0,0:0:0:70:fill_snare.wav
192,192,195039,1,0,0:0:0:70:fill_snare.wav
64,192,195125,1,2,0:0:0:0:
320,192,195125,1,0,0:0:0:70:fill_snare.wav
320,192,195210,1,0,0:0:0:70:fill_snare.wav
192,192,195296,1,0,0:0:0:70:fill_snare.wav
448,192,195296,1,0,0:0:0:0:
320,192,195382,1,0,0:0:0:0:
64,192,195467,1,0,0:0:0:70:fill_snare.wav
448,192,195467,1,2,0:0:0:0:
64,192,195553,1,0,0:0:0:70:fill_snare.wav
192,192,195639,1,0,0:0:0:0:
320,192,195725,1,0,0:0:0:70:fill_snare.wav
64,192,195810,1,2,0:0:0:0:
192,192,195810,1,0,0:0:0:0:
448,192,195896,1,0,0:0:0:70:fill_snare.wav
448,192,195982,1,0,0:0:0:70:fill_snare.wav
192,192,195982,1,0,0:0:0:0:
320,192,196067,1,0,0:0:0:0:
448,192,196153,1,0,0:0:0:70:fill_snare.wav
192,192,196153,1,2,0:0:0:0:
64,192,196239,1,0,0:0:0:0:
320,192,196325,1,0,0:0:0:70:fill_snare.wav
320,192,196410,1,0,0:0:0:70:fill_snare.wav
448,192,196496,1,2,0:0:0:0:
192,192,196496,1,0,0:0:0:70:fill_snare.wav
192,192,196582,1,0,0:0:0:70:fill_snare.wav
320,192,196667,1,0,0:0:0:70:fill_snare.wav
64,192,196667,1,0,0:0:0:0:
192,192,196753,1,0,0:0:0:0:
448,192,196839,1,0,0:0:0:70:fill_snare.wav
64,192,196839,1,2,0:0:0:0:
448,192,196925,1,0,0:0:0:70:fill_snare.wav
320,192,197010,1,0,0:0:0:0:
192,192,197096,1,0,0:0:0:70:fill_snare.wav
448,192,197182,1,2,0:0:0:0:
320,192,197182,1,0,0:0:0:0:
64,192,197267,1,0,0:0:0:70:fill_snare.wav
64,192,197353,1,0,0:0:0:70:fill_snare.wav
320,192,197353,1,0,0:0:0:0:
192,192,197439,1,0,0:0:0:0:
64,192,197525,1,2,0:0:0:0:
320,192,197525,1,0,0:0:0:70:fill_snare.wav
448,192,197610,1,0,0:0:0:0:
192,192,197696,1,0,0:0:0:70:fill_snare.wav
192,192,197782,1,0,0:0:0:70:fill_snare.wav
320,192,197867,1,0,0:0:0:70:fill_snare.wav
64,192,197867,1,2,0:0:0:0:
320,192,197953,1,0,0:0:0:70:fill_snare.wav
192,192,198039,1,0,0:0:0:70:fill_snare.wav
448,192,198039,1,0,0:0:0:0:
320,192,198125,1,0,0:0:0:0:
64,192,198210,1,0,0:0:0:70:fill_snare.wav
448,192,198210,1,2,0:0:0:0:
64,192,198296,1,0,0:0:0:70:fill_snare.wav
320,192,198382,1,0,0:0:0:0:
448,192,198467,1,0,0:0:0:70:fill_snare.wav
192,192,198553,1,0,0:0:0:0:
64,192,198553,1,2,0:0:0:0:
320,192,198639,1,0,0:0:0:70:fill_snare.wav
192,192,198725,1,0,0:0:0:0:
320,192,198725,1,0,0:0:0:70:fill_snare.wav
64,192,198810,1,0,0:0:0:0:
448,192,198896,1,0,0:0:0:70:fill_snare.wav
192,192,198896,1,2,0:0:0:0:
64,192,198982,1,0,0:0:0:0:
320,192,199067,1,0,0:0:0:70:fill_snare.wav
320,192,199153,1,0,0:0:0:70:fill_snare.wav
448,192,199239,1,2,0:0:0:0:
192,192,199239,1,0,0:0:0:70:fill_snare.wav
192,192,199325,1,0,0:0:0:70:fill_snare.wav
320,192,199410,1,0,0:0:0:70:fill_snare.wav
64,192,199410,1,0,0:0:0:0:
192,192,199496,1,0,0:0:0:0:
448,192,199582,1,0,0:0:0:70:fill_snare.wav
64,192,199582,1,2,0:0:0:0:
448,192,199667,1,0,0:0:0:70:fill_snare.wav
192,192,199753,1,0,0:0:0:0:
320,192,199839,1,0,0:0:0:70:fill_snare.wav
64,192,199925,1,2,0:0:0:0:
448,192,199925,1,0,0:0:0:0:
320,192,200010,128,0,200096:0:0:0:0:
192,192,200053,128,0,200139:0:0:0:0:
64,192,200096,128,0,200182:0:0:0:0:
448,192,200139,1,0,0:0:0:0:
320,192,200182,1,0,0:0:0:0:
192,192,200225,1,0,0:0:0:0:
64,192,200267,1,2,0:0:0:0:
448,192,200267,1,0,0:0:0:70:fill_snare.wav
320,192,200353,1,0,0:0:0:0:
64,192,200439,1,0,0:0:0:70:fill_snare.wav
64,192,200525,1,0,0:0:0:70:fill_snare.wav
192,192,200610,1,2,0:0:0:0:
448,192,200610,1,0,0:0:0:70:fill_snare.wav
448,192,200696,1,0,0:0:0:70:fill_snare.wav
192,192,200782,1,0,0:0:0:70:fill_snare.wav
320,192,200782,1,0,0:0:0:0:
64,192,200867,1,0,0:0:0:0:
192,192,200953,1,0,0:0:0:70:fill_snare.wav
448,192,200953,1,2,0:0:0:0:
192,192,201039,1,0,0:0:0:70:fill_snare.wav
320,192,201125,1,0,0:0:0:0:
64,192,201210,1,0,0:0:0:70:fill_snare.wav
448,192,201296,1,2,0:0:0:0:
192,192,201296,1,0,0:0:0:0:
320,192,201382,1,0,0:0:0:70:fill_snare.wav
320,192,201467,1,0,0:0:0:70:fill_snare.wav
448,192,201467,1,0,0:0:0:0:
192,192,201553,1,0,0:0:0:0:
448,192,201639,1,2,0:0:0:0:
64,192,201639,1,0,0:0:0:70:fill_snare.wav
192,192,201725,1,0,0:0:0:0:
448,192,201810,1,0,0:0:0:70:fill_snare.wav
448,192,201896,1,0,0:0:0:70:fill_snare.wav
320,192,201982,1,2,0:0:0:0:
64,192,201982,1,0,0:0:0:70:fill_snare.wav
64,192,202067,1,0,0:0:0:70:fill_snare.wav
320,192,202153,1,0,0:0:0:70:fill_snare.wav
192,192,202153,1,0,0:0:0:0:
448,192,202239,1,0,0:0:0:0:
320,192,202325,1,0,0:0:0:70:fill_snare.wav
64,192,202325,1,2,0:0:0:0:
320,192,202410,1,0,0:0:0:70:fill_snare.wav
192,192,202496,1,0,0:0:0:0:
448,192,202582,1,0,0:0:0:70:fill_snare.wav
64,192,202667,1,2,0:0:0:0:
320,192,202667,1,0,0:0:0:0:
192,192,202753,1,0,0:0:0:70:fill_snare.wav
192,192,202839,1,0,0:0:0:70:fill_snare.wav
64,192,202839,1,0,0:0:0:0:
320,192,202925,1,0,0:0:0:0:
448,192,203010,1,0,0:0:0:70:fill_snare.wav
64,192,203010,1,2,0:0:0:0:
320,192,203096,1,0,0:0:0:0:
64,192,203182,1,0,0:0:0:70:fill_snare.wav
64,192,203267,1,0,0:0:0:70:fill_snare.wav
448,192,203353,1,0,0:0:0:70:fill_snare.wav
192,192,203353,1,2,0:0:0:0:
448,192,203439,1,0,0:0:0:70:fill_snare.wav
320,192,203525,1,0,0:0:0:0:
192,192,203525,1,0,0:0:0:70:fill_snare.wav
64,192,203610,1,0,0:0:0:0:
448,192,203696,1,2,0:0:0:0:
192,192,203696,1,0,0:0:0:70:fill_snare.wav
192,192,203782,1,0,0:0:0:70:fill_snare.wav
320,192,203867,1,0,0:0:0:0:
64,192,203953,1,0,0:0:0:70:fill_snare.wav
192,192,204039,1,0,0:0:0:0:
448,192,204039,1,2,0:0:0:0:
320,192,204125,1,0,0:0:0:70:fill_snare.wav
448,192,204210,1,0,0:0:0:0:
320,192,204210,1,0,0:0:0:70:fill_snare.wav
192,192,204296,1,0,0:0:0:0:
448,192,204382,1,0,0:0:0:70:fill_snare.wav
64,192,204382,1,2,0:0:0:0:
320,192,204467,1,0,0:0:0:0:
192,192,204553,1,0,0:0:0:70:fill_snare.wav
64,192,204553,1,2,0:0:0:0:
192,192,204639,1,0,0:0:0:70:fill_snare.wav
448,192,204725,1,2,0:0:0:0:
320,192,204725,1,0,0:0:0:70:fill_snare.wav
320,192,204810,1,0,0:0:0:70:fill_snare.wav
192,192,204896,1,0,0:0:0:70:fill_snare.wav
448,192,204896,1,2,0:0:0:0:
64,192,204982,1,0,0:0:0:0:
320,192,205067,1,0,0:0:0:0:
192,192,205067,1,2,0:0:0:0:
448,192,205153,1,0,0:0:0:0:
192,192,205239,1,2,0:0:0:0:
320,192,205239,128,0,205325:0:0:0:0:
64,192,205325,1,0,0:0:0:0:
192,192,205410,128,0,205475:0:0:0:0:
320,192,205410,128,0,205496:0:0:0:0:
192,192,205582,128,0,205646:0:0:0:0:
320,192,205582,128,0,205667:0:0:0:0:
192,192,205753,1,0,0:0:0:0:
64,192,205753,1,2,0:0:0:0:
448,192,205753,1,4,0:0:0:0:
448,192,205839,1,0,0:0:0:0:
320,192,205839,1,2,0:0:0:0:
64,192,205925,1,2,0:0:0:0:
192,192,206010,1,2,0:0:0:0:
448,192,206010,1,0,0:0:0:0:
320,192,206096,1,2,0:0:0:0:
192,192,206182,1,0,0:0:0:0:
64,192,206182,1,2,0:0:0:0:
448,192,206267,1,0,0:0:0:0:
320,192,206267,1,2,0:0:0:0:
64,192,206353,1,2,0:0:0:0:
320,192,206439,1,0,0:0:0:0:
192,192,206439,1,2,0:0:0:0:
192,192,206525,1,2,0:0:0:0:
448,192,206525,1,0,0:0:0:0:
320,192,206610,1,2,0:0:0:0:
448,192,206696,1,0,0:0:0:0:
64,192,206696,1,2,0:0:0:0:
192,192,206782,1,2,0:0:0:0:
320,192,206867,1,2,0:0:0:0:
448,192,206867,1,0,0:0:0:0:
192,192,206953,1,0,0:0:0:0:
64,192,206953,1,2,0:0:0:0:
320,192,207039,1,2,0:0:0:0:
448,192,207125,1,0,0:0:0:0:
192,192,207125,1,2,0:0:0:0:
192,192,207210,1,2,0:0:0:0:
64,192,207210,1,0,0:0:0:0:
320,192,207296,1,2,0:0:0:0:
448,192,207382,1,0,0:0:0:0:
64,192,207382,1,2,0:0:0:0:
320,192,207467,1,2,0:0:0:0:
64,192,207553,1,0,0:0:0:0:
192,192,207553,1,2,0:0:0:0:
448,192,207639,1,0,0:0:0:0:
320,192,207639,1,2,0:0:0:0:
192,192,207725,1,2,0:0:0:0:
448,192,207810,1,0,0:0:0:0:
64,192,207810,1,2,0:0:0:0:
320,192,207896,1,0,0:0:0:0:
64,192,207896,1,2,0:0:0:0:
192,192,207982,1,2,0:0:0:0:
320,192,208067,1,2,0:0:0:0:
448,192,208067,1,0,0:0:0:0:
64,192,208153,128,0,208325:0:0:0:0:
192,192,208239,1,0,0:0:0:0:
448,192,208325,1,0,0:0:0:0:
320,192,208410,1,0,0:0:0:0:
64,192,208496,1,2,0:0:0:0:
192,192,208496,1,0,0:0:0:0:
448,192,208496,1,4,0:0:0:0:
320,192,208582,128,2,208753:0:0:0:0:
448,192,208667,128,2,208753:0:0:0:0:
192,192,208753,1,0,0:0:0:0:
64,192,208753,1,2,0:0:0:0:
448,192,208839,1,0,0:0:0:0:
320,192,208839,1,2,0:0:0:0:
64,192,208925,128,2,209010:0:0:0:0:
448,192,209010,1,0,0:0:0:0:
192,192,209010,1,2,0:0:0:0:
320,192,209096,128,2,209182:0:0:0:0:
64,192,209182,1,2,0:0:0:0:
448,192,209182,1,0,0:0:0:0:
192,192,209267,128,2,209439:0:0:0:0:
448,192,209353,128,2,209439:0:0:0:0:
64,192,209439,1,2,0:0:0:0:
320,192,209439,1,0,0:0:0:0:
192,192,209525,1,2,0:0:0:0:
448,192,209525,1,0,0:0:0:0:
64,192,209610,128,2,209696:0:0:0:0:
448,192,209696,1,0,0:0:0:0:
192,192,209696,1,2,0:0:0:0:
320,192,209782,128,2,209867:0:0:0:0:
64,192,209867,1,2,0:0:0:0:
192,192,209867,1,0,0:0:0:0:
448,192,209953,128,2,210125:0:0:0:0:
320,192,210039,128,2,210125:0:0:0:0:
192,192,210125,1,2,0:0:0:0:
64,192,210125,1,0,0:0:0:0:
448,192,210210,1,0,0:0:0:0:
320,192,210210,1,2,0:0:0:0:
64,192,210296,128,2,210382:0:0:0:0:
448,192,210382,1,0,0:0:0:0:
192,192,210382,1,2,0:0:0:0:
320,192,210467,1,2,0:0:0:0:
64,192,210553,1,2,0:0:0:0:
192,192,210553,1,0,0:0:0:0:
448,192,210639,128,0,210725:0:0:0:0:
192,192,210725,128,0,210810:0:0:0:0:
64,192,210725,128,2,210896:0:0:0:0:
448,192,210896,1,0,0:0:0:0:
320,192,210896,1,0,0:0:0:0:
448,192,210982,1,0,0:0:0:0:
64,192,211067,1,0,0:0:0:0:
192,192,211089,1,0,0:0:0:0:
320,192,211132,1,0,0:0:0:0:
448,192,211239,128,0,211325:0:0:0:70:fill_snare.wav
64,192,211239,128,4,211325:0:0:0:0:
320,192,211325,128,0,211410:0:0:0:70:fill_snare.wav
192,192,211325,128,0,211410:0:0:0:0:
448,192,211410,128,0,211496:0:0:0:70:fill_snare.wav
64,192,211410,128,0,211496:0:0:0:0:
192,192,211496,1,0,0:0:0:70:fill_snare.wav
320,192,211582,128,0,211667:0:0:0:0:
448,192,211582,128,0,211667:0:0:0:70:fill_snare.wav
192,192,211667,128,0,211753:0:0:0:70:fill_snare.wav
64,192,211667,128,0,211753:0:0:0:0:
320,192,211753,128,0,211839:0:0:0:0:
448,192,211753,128,0,211839:0:0:0:70:fill_snare.wav
64,192,211839,1,0,0:0:0:70:fill_snare.wav
320,192,211925,128,0,212010:0:0:0:70:fill_snare.wav
192,192,211925,128,0,212010:0:0:0:0:
64,192,212010,128,0,212096:0:0:0:0:
448,192,212010,128,0,212096:0:0:0:70:fill_snare.wav
192,192,212096,128,0,212182:0:0:0:0:
320,192,212096,128,0,212182:0:0:0:70:fill_snare.wav
448,192,212182,1,0,0:0:0:70:fill_snare.wav
64,192,212267,128,0,212353:0:0:0:0:
192,192,212267,128,0,212353:0:0:0:70:fill_snare.wav
448,192,212353,128,0,212439:0:0:0:70:fill_snare.wav
320,192,212353,128,0,212439:0:0:0:0:
192,192,212439,128,0,212525:0:0:0:70:fill_snare.wav
64,192,212439,128,0,212525:0:0:0:0:
320,192,212525,1,0,0:0:0:70:fill_snare.wav
64,192,212610,1,0,0:0:0:0:
448,192,212610,1,0,0:0:0:70:fill_snare.wav
192,192,212696,1,0,0:0:0:0:
320,192,212696,1,0,0:0:0:70:fill_snare.wav
64,192,212782,1,0,0:0:0:0:
448,192,212782,1,0,0:0:0:70:fill_snare.wav
192,192,212867,1,0,0:0:0:70:fill_snare.wav
320,192,212953,1,0,0:0:0:0:
448,192,212953,1,0,0:0:0:70:fill_snare.wav
192,192,213039,1,0,0:0:0:70:fill_snare.wav
64,192,213039,1,0,0:0:0:0:
320,192,213125,1,0,0:0:0:0:
448,192,213125,1,0,0:0:0:70:fill_snare.wav
64,192,213210,1,0,0:0:0:70:fill_snare.wav
192,192,213296,1,0,0:0:0:0:
320,192,213296,1,0,0:0:0:70:fill_snare.wav
64,192,213382,1,0,0:0:0:0:
448,192,213382,1,0,0:0:0:70:fill_snare.wav
192,192,213467,1,0,0:0:0:0:
320,192,213467,1,0,0:0:0:70:fill_snare.wav
448,192,213553,1,0,0:0:0:70:fill_snare.wav
64,192,213639,1,0,0:0:0:70:fill_snare.wav
192,192,213682,1,0,0:0:0:70:fill_snare.wav
320,192,213725,1,0,0:0:0:70:fill_snare.wav
448,192,213767,1,0,0:0:0:70:fill_snare.wav
192,192,213810,1,0,0:0:0:70:fill_snare.wav
64,192,213853,1,0,0:0:0:70:fill_snare.wav
448,192,213896,1,0,0:0:0:70:fill_snare.wav
320,192,213939,1,0,0:0:0:70:fill_snare.wav
64,192,213982,1,2,0:0:0:0:
192,192,213982,1,0,0:0:0:0:
320,192,215182,5,2,0:0:0:25:
320,192,215267,1,2,0:0:0:25:
64,192,215353,128,2,215467:0:0:0:0:
192,192,215353,128,0,215410:0:0:0:0:
448,192,215410,1,0,0:0:0:0:
320,192,215467,1,0,0:0:0:0:
192,192,215544,1,0,0:0:0:0:
448,192,215696,128,2,215810:0:0:0:0:
320,192,215696,128,0,215753:0:0:0:0:
64,192,215753,1,0,0:0:0:0:
192,192,215810,1,0,0:0:0:0:
320,192,215886,1,0,0:0:0:0:
64,192,216039,128,2,216153:0:0:0:0:
192,192,216039,128,0,216096:0:0:0:0:
448,192,216096,1,0,0:0:0:0:
320,192,216146,1,0,0:0:0:0:
192,192,216210,1,0,0:0:0:0:
64,192,216296,1,0,0:0:0:0:
192,192,216339,1,0,0:0:0:0:
320,192,216382,1,0,0:0:0:0:
448,192,216382,1,0,0:0:0:0:
320,192,216553,1,0,0:0:0:0:
192,192,216553,1,0,0:0:0:0:
64,192,216725,128,2,216810:0:0:0:0:
192,192,216725,128,4,216810:0:0:0:0:
320,192,216725,1,0,0:0:0:0:
448,192,216810,128,0,216982:0:0:0:0:
320,192,216896,128,0,216982:0:0:0:0:
64,192,216982,128,0,217067:0:0:0:0:
192,192,217067,128,2,217153:0:0:0:0:
448,192,217067,128,0,217153:0:0:0:70:clap.wav
320,192,217153,128,0,217325:0:0:0:0:
192,192,217239,128,0,217325:0:0:0:0:
448,192,217325,128,0,217410:0:0:0:0:
192,192,217410,128,0,217496:0:0:0:0:
64,192,217410,128,2,217496:0:0:0:0:
448,192,217496,128,0,217667:0:0:0:0:
320,192,217582,128,0,217667:0:0:0:0:
64,192,217667,128,0,217753:0:0:0:0:
192,192,217753,128,2,217839:0:0:0:0:
320,192,217753,128,0,217925:0:0:0:70:clap.wav
448,192,217839,128,0,217925:0:0:0:0:
64,192,217925,128,0,218010:0:0:0:0:
320,192,218010,128,0,218096:0:0:0:0:
192,192,218096,128,0,218182:0:0:0:0:
64,192,218096,128,2,218182:0:0:0:0:
448,192,218182,128,0,218353:0:0:0:0:
320,192,218267,128,0,218353:0:0:0:0:
64,192,218353,128,0,218439:0:0:0:0:
192,192,218439,128,2,218525:0:0:0:0:
448,192,218439,128,0,218525:0:0:0:70:clap.wav
320,192,218525,128,0,218696:0:0:0:0:
192,192,218610,128,0,218696:0:0:0:0:
448,192,218696,128,0,218782:0:0:0:0:
192,192,218782,128,0,218867:0:0:0:0:
64,192,218782,128,2,218867:0:0:0:0:
448,192,218867,128,0,218953:0:0:0:0:
320,192,218867,128,0,218953:0:0:0:0:
192,192,218953,128,0,219125:0:0:0:0:
64,192,218953,128,0,219039:0:0:0:0:
320,192,219039,128,0,219125:0:0:0:0:
64,192,219125,128,2,219210:0:0:0:0:
448,192,219125,128,0,219210:0:0:0:70:clap.wav
192,192,219210,128,0,219296:0:0:0:0:
320,192,219210,128,0,219296:0:0:0:0:
448,192,219296,128,0,219467:0:0:0:0:
64,192,219296,128,0,219382:0:0:0:0:
320,192,219382,128,0,219467:0:0:0:0:
192,192,219467,128,0,219553:0:0:0:0:
64,192,219467,128,2,219553:0:0:0:0:
448,192,219553,128,0,219725:0:0:0:0:
320,192,219639,128,0,219725:0:0:0:0:
64,192,219725,128,0,219810:0:0:0:0:
192,192,219810,128,2,219896:0:0:0:0:
448,192,219810,128,0,219896:0:0:0:70:clap.wav
320,192,219896,128,0,220067:0:0:0:0:
192,192,219982,128,0,220067:0:0:0:0:
448,192,220067,128,0,220153:0:0:0:0:
192,192,220153,128,0,220239:0:0:0:0:
64,192,220153,128,2,220239:0:0:0:0:
448,192,220239,128,0,220410:0:0:0:0:
320,192,220325,128,0,220410:0:0:0:0:
64,192,220410,128,0,220496:0:0:0:0:
192,192,220496,128,2,220582:0:0:0:0:
320,192,220496,128,0,220667:0:0:0:70:clap.wav
448,192,220582,128,0,220667:0:0:0:0:
64,192,220667,128,0,220753:0:0:0:0:
320,192,220753,128,0,220839:0:0:0:0:
64,192,220839,128,2,220925:0:0:0:0:
192,192,220839,128,0,220925:0:0:0:0:
448,192,220925,128,0,221096:0:0:0:0:
320,192,221010,128,0,221096:0:0:0:0:
64,192,221096,128,0,221182:0:0:0:0:
192,192,221182,128,2,221267:0:0:0:0:
448,192,221182,128,0,221267:0:0:0:70:clap.wav
320,192,221267,128,0,221439:0:0:0:0:
192,192,221353,128,0,221439:0:0:0:0:
448,192,221439,128,0,221525:0:0:0:0:
192,192,221525,128,0,221610:0:0:0:0:
64,192,221525,128,2,221610:0:0:0:0:
448,192,221610,128,0,221696:0:0:0:0:
320,192,221610,128,0,221696:0:0:0:0:
64,192,221696,128,0,221867:0:0:0:0:
192,192,221696,128,0,221782:0:0:0:0:
320,192,221782,128,0,221867:0:0:0:0:
192,192,221867,128,2,221953:0:0:0:0:
448,192,221867,128,0,221953:0:0:0:70:clap.wav
64,192,221953,128,0,222039:0:0:0:0:
320,192,221953,128,0,222039:0:0:0:0:
192,192,222039,128,0,222125:0:0:0:0:
448,192,222039,128,0,222210:0:0:0:0:
320,192,222125,128,0,222210:0:0:0:0:
192,192,222210,128,0,222296:0:0:0:0:
64,192,222210,128,2,222296:0:0:0:0:
448,192,222296,128,0,222467:0:0:0:0:
320,192,222382,128,0,222467:0:0:0:0:
64,192,222467,128,0,222553:0:0:0:0:
192,192,222553,128,2,222639:0:0:0:0:
448,192,222553,128,0,222639:0:0:0:70:clap.wav
320,192,222639,128,0,222810:0:0:0:0:
192,192,222725,128,0,222810:0:0:0:0:
448,192,222810,128,0,222896:0:0:0:0:
192,192,222896,128,0,222982:0:0:0:0:
64,192,222896,128,2,222982:0:0:0:0:
448,192,222982,128,0,223153:0:0:0:0:
320,192,223067,128,0,223153:0:0:0:0:
64,192,223153,128,0,223239:0:0:0:0:
192,192,223239,128,2,223325:0:0:0:0:
320,192,223239,128,0,223410:0:0:0:70:clap.wav
448,192,223325,128,0,223410:0:0:0:0:
64,192,223410,128,0,223496:0:0:0:0:
320,192,223496,128,0,223582:0:0:0:0:
64,192,223582,128,2,223667:0:0:0:0:
192,192,223582,128,0,223667:0:0:0:0:
448,192,223667,128,0,223839:0:0:0:0:
320,192,223753,128,0,223839:0:0:0:0:
64,192,223839,128,0,223925:0:0:0:0:
192,192,223925,128,2,224010:0:0:0:0:
448,192,223925,128,0,224010:0:0:0:70:clap.wav
320,192,224010,128,0,224182:0:0:0:0:
192,192,224096,128,0,224182:0:0:0:0:
448,192,224182,128,0,224267:0:0:0:0:
192,192,224267,128,0,224353:0:0:0:0:
64,192,224267,128,2,224353:0:0:0:0:
448,192,224353,128,0,224439:0:0:0:0:
320,192,224353,128,0,224439:0:0:0:0:
64,192,224439,128,0,224525:0:0:0:0:
192,192,224439,128,0,224610:0:0:0:0:
320,192,224525,128,0,224610:0:0:0:0:
64,192,224610,128,2,224696:0:0:0:0:
448,192,224610,128,0,224696:0:0:0:70:clap.wav
192,192,224696,128,0,224782:0:0:0:0:
320,192,224696,128,0,224782:0:0:0:0:
448,192,224782,128,0,224953:0:0:0:0:
64,192,224782,128,0,224867:0:0:0:0:
320,192,224867,128,0,224953:0:0:0:0:
192,192,224953,128,0,225039:0:0:0:0:
64,192,224953,128,2,225039:0:0:0:0:
448,192,225039,128,0,225210:0:0:0:0:
64,192,225125,128,0,225210:0:0:0:0:
192,192,225210,128,0,225296:0:0:0:0:
320,192,225296,128,2,225467:0:0:0:0:
448,192,225296,128,0,225382:0:0:0:70:clap.wav
192,192,225382,128,0,225467:0:0:0:0:
64,192,225467,128,0,225553:0:0:0:0:
448,192,225553,128,0,225639:0:0:0:0:
192,192,225639,128,2,225810:0:0:0:0:
320,192,225639,128,0,225725:0:0:0:0:
64,192,225725,128,0,225810:0:0:0:0:
448,192,225810,128,0,225896:0:0:0:0:
192,192,225896,128,0,225982:0:0:0:0:
320,192,225982,128,2,226067:0:0:0:0:
448,192,225982,128,0,226153:0:0:0:70:clap.wav
64,192,226067,128,0,226153:0:0:0:0:
192,192,226153,128,0,226239:0:0:0:0:
448,192,226239,128,0,226325:0:0:0:0:
320,192,226325,128,0,226410:0:0:0:0:
64,192,226325,128,2,226496:0:0:0:0:
192,192,226410,128,0,226496:0:0:0:0:
448,192,226496,128,0,226582:0:0:0:0:
320,192,226496,1,0,0:0:0:0:
64,192,226582,128,0,226667:0:0:0:0:
192,192,226582,1,0,0:0:0:0:
320,192,226667,128,2,226753:0:0:0:0:
448,192,226667,128,0,226753:0:0:0:70:clap.wav
64,192,226753,128,0,226925:0:0:0:0:
192,192,226839,128,0,226925:0:0:0:0:
448,192,226839,128,0,227010:0:0:0:0:
320,192,226925,128,0,227010:0:0:0:0:
64,192,227010,128,2,227096:0:0:0:0:
192,192,227010,128,0,227182:0:0:0:0:
448,192,227096,128,0,227182:0:0:0:0:
320,192,227182,128,0,227353:0:0:0:0:
64,192,227182,128,0,227267:0:0:0:0:
192,192,227267,128,0,227353:0:0:0:0:
64,192,227353,128,2,227525:0:0:0:0:
448,192,227353,128,0,227525:0:0:0:70:clap.wav
192,192,227439,128,0,227610:0:0:0:0:
320,192,227525,128,0,227696:0:0:0:0:
448,192,227610,128,0,227696:0:0:0:0:
192,192,227696,128,4,227782:0:0:0:0:
64,192,227696,128,2,227782:0:0:0:0:
448,192,227782,128,0,227953:0:0:0:0:
320,192,227867,128,0,227953:0:0:0:0:
64,192,227953,128,0,228039:0:0:0:0:
192,192,228039,128,2,228125:0:0:0:0:
448,192,228039,128,0,228125:0:0:0:70:clap.wav
320,192,228125,128,0,228296:0:0:0:0:
192,192,228210,128,0,228296:0:0:0:0:
448,192,228296,128,0,228382:0:0:0:0:
64,192,228382,128,2,228467:0:0:0:0:
192,192,228382,128,0,228467:0:0:0:0:
448,192,228467,128,0,228639:0:0:0:0:
320,192,228553,128,0,228639:0:0:0:0:
64,192,228639,128,0,228725:0:0:0:0:
192,192,228725,128,2,228810:0:0:0:0:
320,192,228725,128,0,228896:0:0:0:70:clap.wav
448,192,228810,128,0,228896:0:0:0:0:
64,192,228896,128,0,228982:0:0:0:0:
320,192,228982,128,0,229067:0:0:0:0:
64,192,229067,128,2,229153:0:0:0:0:
192,192,229067,128,0,229153:0:0:0:0:
448,192,229153,128,0,229325:0:0:0:0:
320,192,229239,128,0,229325:0:0:0:0:
64,192,229325,128,0,229410:0:0:0:0:
192,192,229410,128,2,229496:0:0:0:0:
448,192,229410,128,0,229496:0:0:0:70:clap.wav
320,192,229496,128,0,229667:0:0:0:0:
192,192,229582,128,0,229667:0:0:0:0:
448,192,229667,128,0,229753:0:0:0:0:
192,192,229753,128,0,229839:0:0:0:0:
64,192,229753,128,2,229839:0:0:0:0:
448,192,229839,128,0,229925:0:0:0:0:
320,192,229839,128,0,229925:0:0:0:0:
192,192,229925,128,0,230096:0:0:0:0:
64,192,229925,128,0,230010:0:0:0:0:
320,192,230010,128,0,230096:0:0:0:0:
64,192,230096,128,2,230182:0:0:0:0:
448,192,230096,128,0,230182:0:0:0:70:clap.wav
192,192,230182,128,0,230267:0:0:0:0:
320,192,230182,128,0,230267:0:0:0:0:
448,192,230267,128,0,230439:0:0:0:0:
64,192,230267,128,0,230353:0:0:0:0:
320,192,230353,128,0,230439:0:0:0:0:
192,192,230439,128,0,230525:0:0:0:0:
64,192,230439,128,2,230525:0:0:0:0:
448,192,230525,128,0,230696:0:0:0:0:
320,192,230610,128,0,230696:0:0:0:0:
64,192,230696,128,0,230782:0:0:0:0:
192,192,230782,128,2,230867:0:0:0:0:
448,192,230782,128,0,230867:0:0:0:70:clap.wav
320,192,230867,128,0,231039:0:0:0:0:
192,192,230953,128,0,231039:0:0:0:0:
448,192,231039,128,0,231125:0:0:0:0:
192,192,231125,128,0,231210:0:0:0:0:
64,192,231125,128,2,231210:0:0:0:0:
448,192,231210,128,0,231382:0:0:0:0:
320,192,231296,128,0,231382:0:0:0:0:
64,192,231382,128,0,231467:0:0:0:0:
192,192,231467,128,2,231553:0:0:0:0:
320,192,231467,128,0,231639:0:0:0:70:clap.wav
448,192,231553,128,0,231639:0:0:0:0:
64,192,231639,128,0,231725:0:0:0:0:
320,192,231725,128,0,231810:0:0:0:0:
192,192,231810,128,2,231896:0:0:0:0:
64,192,231810,128,0,231896:0:0:0:0:
448,192,231896,128,0,232067:0:0:0:0:
320,192,231982,128,0,232067:0:0:0:0:
64,192,232067,128,0,232153:0:0:0:0:
192,192,232153,128,2,232239:0:0:0:0:
448,192,232153,128,0,232239:0:0:0:70:clap.wav
320,192,232239,128,0,232410:0:0:0:0:
192,192,232325,128,0,232410:0:0:0:0:
448,192,232410,128,0,232496:0:0:0:0:
64,192,232496,128,2,232582:0:0:0:0:
320,192,232496,128,0,232582:0:0:0:0:
192,192,232582,128,0,232753:0:0:0:0:
448,192,232582,128,0,232667:0:0:0:0:
320,192,232667,128,0,232839:0:0:0:0:
64,192,232667,128,0,232753:0:0:0:0:
448,192,232753,128,0,232839:0:0:0:0:
64,192,232839,128,2,232925:0:0:0:0:
192,192,232839,128,0,233010:0:0:0:70:clap.wav
320,192,232925,128,0,233010:0:0:0:0:
64,192,233010,128,2,233096:0:0:0:0:
448,192,233010,128,0,233182:0:0:0:0:
320,192,233096,128,0,233182:0:0:0:0:
192,192,233182,128,0,233267:0:0:0:0:
64,192,233182,128,2,233267:0:0:0:0:
448,192,233267,128,0,233439:0:0:0:0:
320,192,233353,128,0,233439:0:0:0:0:
64,192,233439,128,0,233525:0:0:0:0:
192,192,233525,128,2,233610:0:0:0:0:
448,192,233525,128,0,233610:0:0:0:70:clap.wav
320,192,233610,128,0,233782:0:0:0:0:
192,192,233696,128,0,233782:0:0:0:0:
448,192,233782,128,0,233867:0:0:0:0:
192,192,233867,128,0,233953:0:0:0:0:
64,192,233867,128,2,233953:0:0:0:0:
320,192,233953,128,0,234125:0:0:0:0:
192,192,234039,128,0,234125:0:0:0:0:
64,192,234125,128,2,234210:0:0:0:0:
448,192,234125,128,0,234210:0:0:0:0:
192,192,234210,128,2,234296:0:0:0:0:
320,192,234210,128,0,234296:0:0:0:0:
64,192,234296,128,2,234467:0:0:0:0:
448,192,234296,128,0,234382:0:0:0:0:
192,192,234382,128,0,234467:0:0:0:0:
320,192,234467,128,2,234553:0:0:0:0:
448,192,234467,128,0,234553:0:0:0:0:
64,192,234553,128,2,234639:0:0:0:0:
192,192,234553,128,0,234639:0:0:0:0:
448,192,234639,128,0,234810:0:0:0:0:
320,192,234725,128,0,234810:0:0:0:0:
64,192,234810,128,0,234896:0:0:0:0:
192,192,234896,128,2,234982:0:0:0:0:
448,192,234896,128,0,234982:0:0:0:70:clap.wav
320,192,234982,128,0,235153:0:0:0:0:
192,192,235067,128,0,235153:0:0:0:0:
448,192,235153,128,0,235239:0:0:0:0:
192,192,235239,128,0,235325:0:0:0:0:
64,192,235239,128,2,235325:0:0:0:0:
448,192,235325,128,0,235496:0:0:0:0:
320,192,235410,128,0,235496:0:0:0:0:
64,192,235496,128,2,235667:0:0:0:0:
192,192,235496,128,0,235667:0:0:0:0:
320,192,235582,128,0,235667:0:0:0:0:
448,192,235667,128,0,235753:0:0:0:0:
192,192,235753,128,0,235839:0:0:0:0:
64,192,235753,128,2,235839:0:0:0:0:
320,192,235839,128,2,235925:0:0:0:0:
448,192,235839,128,0,235925:0:0:0:0:
64,192,235925,128,2,236096:0:0:0:0:
192,192,235925,128,0,236010:0:0:0:0:
448,192,236010,1,0,0:0:0:0:
320,192,236096,1,0,0:0:0:0:
192,192,236182,1,0,0:0:0:0:
64,192,236267,1,2,0:0:0:0:
448,192,236267,1,0,0:0:0:70:clap.wav
320,192,236353,128,0,236525:0:0:0:0:
448,192,236439,128,0,236525:0:0:0:0:
192,192,236525,1,0,0:0:0:0:
64,192,236610,1,2,0:0:0:0:
448,192,236610,1,0,0:0:0:0:
320,192,236696,128,0,236782:0:0:0:0:
192,192,236782,1,0,0:0:0:0:
64,192,236867,1,0,0:0:0:0:
64,192,236953,1,2,0:0:0:0:
320,192,236953,1,0,0:0:0:70:clap.wav
448,192,237039,128,0,237210:0:0:0:0:
192,192,237125,128,0,237210:0:0:0:0:
320,192,237210,1,0,0:0:0:0:
64,192,237296,128,2,237639:0:0:0:0:
192,192,237296,1,0,0:0:0:0:
448,192,237382,128,0,237467:0:0:0:0:
320,192,237467,128,0,237553:0:0:0:0:
192,192,237553,128,0,237639:0:0:0:0:
448,192,237639,128,2,237982:0:0:0:0:
320,192,237639,1,0,0:0:0:0:
64,192,237725,128,0,237853:0:0:0:0:
192,192,237810,128,0,237896:0:0:0:0:
320,192,237896,128,0,237982:0:0:0:0:
192,192,237982,1,0,0:0:0:0:
64,192,237982,128,2,238325:0:0:0:0:
448,192,238067,128,0,238239:0:0:0:0:
320,192,238153,128,0,238325:0:0:0:0:
192,192,238239,128,0,238325:0:0:0:0:
448,192,238325,1,0,0:0:0:0:
64,192,238410,1,0,0:0:0:0:
64,192,238496,1,0,0:0:0:0:
448,192,238582,1,0,0:0:0:0:
64,192,238667,128,2,238753:0:0:0:0:
192,192,238667,128,4,238753:0:0:0:0:
320,192,238667,1,0,0:0:0:0:
448,192,238753,128,0,238925:0:0:0:0:
320,192,238839,128,0,238925:0:0:0:0:
64,192,238925,128,0,239010:0:0:0:0:
192,192,239010,128,2,239096:0:0:0:0:
448,192,239010,128,0,239096:0:0:0:70:clap.wav
320,192,239096,128,0,239267:0:0:0:0:
192,192,239182,128,0,239267:0:0:0:0:
448,192,239267,128,0,239353:0:0:0:0:
192,192,239353,128,0,239439:0:0:0:0:
64,192,239353,128,2,239439:0:0:0:0:
448,192,239439,128,0,239610:0:0:0:0:
320,192,239525,128,0,239610:0:0:0:0:
64,192,239610,128,0,239696:0:0:0:0:
192,192,239696,128,2,239782:0:0:0:0:
320,192,239696,128,0,239867:0:0:0:70:clap.wav
448,192,239782,128,0,239867:0:0:0:0:
64,192,239867,128,0,239953:0:0:0:0:
320,192,239953,128,0,240039:0:0:0:0:
64,192,240039,128,2,240125:0:0:0:0:
192,192,240039,128,0,240125:0:0:0:0:
448,192,240125,128,0,240296:0:0:0:0:
320,192,240210,128,0,240296:0:0:0:0:
64,192,240296,128,0,240382:0:0:0:0:
192,192,240382,128,2,240467:0:0:0:0:
448,192,240382,128,0,240467:0:0:0:70:clap.wav
320,192,240467,128,0,240639:0:0:0:0:
192,192,240553,128,0,240639:0:0:0:50:P_Ab7.wav
448,192,240639,128,0,240725:0:0:0:0:
64,192,240725,128,2,240810:0:0:0:0:
192,192,240725,128,0,240810:0:0:0:50:P_Bb7.wav
448,192,240810,128,0,240896:0:0:0:0:
320,192,240810,128,0,240896:0:0:0:0:
192,192,240896,128,0,241067:0:0:0:50:P_Eb8.wav
64,192,240896,128,0,240982:0:0:0:0:
320,192,240982,128,0,241067:0:0:0:0:
64,192,241067,128,2,241153:0:0:0:0:
448,192,241067,128,0,241153:0:0:0:70:clap.wav
192,192,241153,128,0,241239:0:0:0:0:
320,192,241153,128,0,241239:0:0:0:0:
448,192,241239,128,0,241410:0:0:0:50:P_Bb7.wav
64,192,241239,128,0,241325:0:0:0:0:
320,192,241325,128,0,241410:0:0:0:0:
192,192,241410,128,0,241496:0:0:0:30:P_Bb7.wav
64,192,241410,128,2,241496:0:0:0:0:
448,192,241496,128,0,241667:0:0:0:0:
320,192,241582,128,0,241667:0:0:0:0:
64,192,241667,128,0,241753:0:0:0:0:
192,192,241753,128,2,241839:0:0:0:0:
448,192,241753,128,0,241839:0:0:0:70:clap.wav
320,192,241839,128,0,242010:0:0:0:0:
192,192,241925,128,0,242010:0:0:0:0:
448,192,242010,128,0,242096:0:0:0:0:
192,192,242096,128,0,242182:0:0:0:0:
64,192,242096,128,2,242182:0:0:0:0:
448,192,242182,128,0,242353:0:0:0:0:
320,192,242267,128,0,242353:0:0:0:0:
64,192,242353,128,0,242439:0:0:0:0:
192,192,242439,128,2,242525:0:0:0:0:
320,192,242439,128,0,242610:0:0:0:70:clap.wav
448,192,242525,128,0,242610:0:0:0:0:
64,192,242610,128,0,242696:0:0:0:0:
320,192,242696,128,0,242782:0:0:0:0:
64,192,242782,128,2,242867:0:0:0:0:
192,192,242782,128,0,242867:0:0:0:0:
448,192,242867,128,0,243039:0:0:0:0:
320,192,242953,128,0,243039:0:0:0:0:
64,192,243039,128,0,243125:0:0:0:0:
192,192,243125,128,2,243210:0:0:0:0:
448,192,243125,128,0,243210:0:0:0:70:clap.wav
320,192,243210,128,0,243382:0:0:0:0:
192,192,243296,128,0,243382:0:0:0:30:P_G8.wav
448,192,243382,128,0,243467:0:0:0:0:
192,192,243467,128,0,243553:0:0:0:50:P_G8.wav
64,192,243467,128,2,243553:0:0:0:0:
448,192,243553,128,0,243639:0:0:0:0:
320,192,243553,128,0,243639:0:0:0:0:
64,192,243639,128,0,243810:0:0:0:30:P_Eb8.wav
192,192,243639,128,0,243725:0:0:0:0:
320,192,243725,128,0,243810:0:0:0:0:
192,192,243810,128,2,243896:0:0:0:0:
448,192,243810,128,0,243896:0:0:0:70:clap.wav
64,192,243896,128,0,243982:0:0:0:0:
320,192,243896,128,0,243982:0:0:0:0:
448,192,243982,128,0,244153:0:0:0:0:
192,192,243982,128,0,244067:0:0:0:50:P_Bb7.wav
320,192,244067,128,0,244153:0:0:0:0:
64,192,244153,128,2,244239:0:0:0:0:
192,192,244153,128,0,244239:0:0:0:50:P_G8.wav
448,192,244239,128,0,244325:0:0:0:0:
64,192,244325,128,2,244410:0:0:0:0:
192,192,244325,128,0,244410:0:0:0:50:P_Eb8.wav
448,192,244410,128,0,244582:0:0:0:0:
64,192,244496,128,2,244582:0:0:0:0:
192,192,244496,128,0,244582:0:0:0:70:clap.wav
320,192,244582,128,0,244753:0:0:0:0:
192,192,244667,128,0,244753:0:0:0:0:
448,192,244753,128,0,244839:0:0:0:0:
192,192,244839,128,0,244925:0:0:0:0:
64,192,244839,128,2,244925:0:0:0:0:
448,192,244925,128,0,245096:0:0:0:0:
320,192,245010,128,0,245096:0:0:0:0:
64,192,245096,128,0,245182:0:0:0:0:
192,192,245182,128,2,245267:0:0:0:0:
320,192,245182,128,0,245353:0:0:0:70:clap.wav
448,192,245267,128,0,245353:0:0:0:0:
64,192,245353,128,0,245439:0:0:0:0:
320,192,245439,128,0,245525:0:0:0:0:
64,192,245525,128,2,245610:0:0:0:0:
192,192,245525,128,0,245610:0:0:0:0:
448,192,245610,128,0,245782:0:0:0:0:
320,192,245696,128,0,245782:0:0:0:0:
64,192,245782,128,0,245867:0:0:0:0:
192,192,245867,128,2,245953:0:0:0:0:
448,192,245867,128,0,245953:0:0:0:70:clap.wav
320,192,245953,128,0,246125:0:0:0:0:
192,192,246039,128,0,246125:0:0:0:50:P_Ab7.wav
448,192,246125,128,0,246210:0:0:0:0:
192,192,246210,128,0,246296:0:0:0:50:P_Bb7.wav
64,192,246210,128,2,246296:0:0:0:0:
448,192,246296,128,0,246382:0:0:0:0:
320,192,246296,128,0,246382:0:0:0:0:
192,192,246382,128,0,246553:0:0:0:50:P_Eb8.wav
64,192,246382,128,0,246467:0:0:0:0:
320,192,246467,128,0,246553:0:0:0:0:
448,192,246553,128,0,246639:0:0:0:70:clap.wav
64,192,246553,128,2,246639:0:0:0:0:
192,192,246639,128,0,246725:0:0:0:0:
320,192,246639,128,0,246725:0:0:0:0:
448,192,246725,128,0,246896:0:0:0:50:P_Ab7.wav
64,192,246725,128,0,246810:0:0:0:0:
320,192,246810,128,0,246896:0:0:0:0:
64,192,246896,128,2,246982:0:0:0:0:
192,192,246896,128,0,246982:0:0:0:0:
448,192,246982,128,0,247153:0:0:0:0:
320,192,247067,128,0,247153:0:0:0:0:
64,192,247153,128,0,247239:0:0:0:0:
192,192,247239,128,2,247325:0:0:0:0:
320,192,247239,128,0,247410:0:0:0:70:clap.wav
448,192,247325,128,0,247410:0:0:0:0:
64,192,247410,128,0,247496:0:0:0:50:P_Ab7.wav
448,192,247496,128,0,247582:0:0:0:0:
192,192,247582,128,2,247753:0:0:0:0:
320,192,247582,128,0,247667:0:0:0:50:P_G7.wav
64,192,247667,128,0,247753:0:0:0:0:
448,192,247753,128,0,247839:0:0:0:50:P_Ab7.wav
192,192,247839,128,0,247925:0:0:0:0:
320,192,247925,128,2,248010:0:0:0:0:
448,192,247925,128,0,248096:0:0:0:70:clap.wav
64,192,248010,128,0,248096:0:0:0:0:
192,192,248096,128,0,248182:0:0:0:50:P_Eb8.wav
320,192,248096,128,0,248267:0:0:0:0:
448,192,248182,128,0,248267:0:0:0:0:
64,192,248267,128,2,248439:0:0:0:0:
192,192,248267,128,0,248439:0:0:0:0:
320,192,248353,128,0,248953:0:0:0:0:
448,192,248439,128,0,248525:0:0:0:50:P_Db8.wav
64,192,248525,128,0,248610:0:0:0:0:
448,192,248610,128,0,248696:0:0:0:0:
64,192,248696,128,0,248782:0:0:0:0:
448,192,248782,128,0,248867:0:0:0:30:P_C8.wav
64,192,248867,128,0,248953:0:0:0:0:
192,192,248953,128,8,249296:0:0:0:0:
448,192,248953,128,0,249039:0:0:0:0:
320,192,249039,128,0,249210:0:0:0:0:
448,192,249125,128,0,249210:0:0:0:0:
64,192,249210,128,0,249296:0:0:0:0:
448,192,249296,128,0,249339:0:0:0:0:
320,192,249339,128,0,249382:0:0:0:0:
192,192,249382,128,0,249425:0:0:0:0:
64,192,249425,128,0,249467:0:0:0:0:
320,192,249467,128,0,249639:0:0:0:0:
192,192,249639,1,0,0:0:0:70:electronic29.wav
448,192,249639,1,4,0:0:0:0:
64,192,249639,1,2,0:0:0:0:
320,192,249725,128,0,249896:0:0:0:0:
192,192,249810,128,0,249896:0:0:0:0:
64,192,249896,1,0,0:0:0:0:
448,192,249896,1,0,0:0:0:70:electronic29.wav
192,192,249982,1,2,0:0:0:0:
320,192,249982,1,0,0:0:0:70:electronic29.wav
64,192,250067,128,0,250153:0:0:0:0:
448,192,250153,1,0,0:0:0:0:
320,192,250153,1,0,0:0:0:0:
192,192,250239,128,0,250325:0:0:0:0:
64,192,250325,1,2,0:0:0:0:
320,192,250325,1,0,0:0:0:70:electronic29.wav
192,192,250410,128,0,250582:0:0:0:0:
320,192,250496,128,0,250582:0:0:0:0:
64,192,250582,1,0,0:0:0:0:
448,192,250582,1,0,0:0:0:70:electronic29.wav
192,192,250667,1,2,0:0:0:0:
320,192,250667,1,0,0:0:0:70:electronic29.wav
448,192,250753,128,0,250839:0:0:0:0:
64,192,250839,1,0,0:0:0:0:
192,192,250839,1,0,0:0:0:0:
320,192,250925,128,0,251010:0:0:0:0:
448,192,251010,1,0,0:0:0:70:electronic29.wav
192,192,251010,1,2,0:0:0:0:
320,192,251096,128,0,251267:0:0:0:0:
192,192,251182,128,0,251267:0:0:0:0:
64,192,251267,1,0,0:0:0:0:
448,192,251267,1,0,0:0:0:70:electronic29.wav
192,192,251353,1,2,0:0:0:0:
320,192,251353,1,0,0:0:0:70:electronic29.wav
64,192,251439,128,0,251525:0:0:0:0:
320,192,251525,1,0,0:0:0:0:
448,192,251525,1,0,0:0:0:0:
192,192,251610,128,0,251696:0:0:0:0:
448,192,251696,1,0,0:0:0:70:electronic29.wav
64,192,251696,1,2,0:0:0:0:
320,192,251782,128,0,251867:0:0:0:0:
192,192,251782,1,0,0:0:0:0:
64,192,251867,128,0,251953:0:0:0:0:
448,192,251867,1,0,0:0:0:0:
192,192,251953,1,0,0:0:0:70:electronic29.wav
448,192,252039,1,0,0:0:0:70:electronic29.wav
320,192,252039,128,2,252125:0:0:0:0:
64,192,252125,128,0,252210:0:0:0:0:
192,192,252125,1,0,0:0:0:70:electronic29.wav
320,192,252210,1,0,0:0:0:70:electronic29.wav
448,192,252210,128,0,252296:0:0:0:0:
192,192,252296,128,0,252382:0:0:0:0:
448,192,252382,1,0,0:0:0:70:electronic29.wav
64,192,252382,1,2,0:0:0:0:
320,192,252467,128,0,252639:0:0:0:0:
192,192,252553,128,0,252639:0:0:0:0:
448,192,252639,1,0,0:0:0:70:electronic29.wav
64,192,252639,1,0,0:0:0:0:
320,192,252725,1,0,0:0:0:70:electronic29.wav
192,192,252725,1,2,0:0:0:0:
64,192,252810,128,0,252896:0:0:0:0:
448,192,252896,1,0,0:0:0:0:
320,192,252896,1,0,0:0:0:0:
192,192,252982,128,0,253067:0:0:0:0:
64,192,253067,1,2,0:0:0:0:
320,192,253067,1,0,0:0:0:70:electronic29.wav
192,192,253153,128,0,253325:0:0:0:0:
320,192,253239,128,0,253325:0:0:0:0:
448,192,253325,1,0,0:0:0:70:electronic29.wav
64,192,253325,1,0,0:0:0:0:
192,192,253410,1,2,0:0:0:0:
320,192,253410,1,0,0:0:0:70:electronic29.wav
448,192,253496,128,0,253582:0:0:0:0:
64,192,253582,1,2,0:0:0:0:
192,192,253582,1,4,0:0:0:0:
320,192,253582,1,0,0:0:0:0:
448,192,253667,1,0,0:0:0:0:
192,192,253753,1,0,0:0:0:70:electronic36.wav
320,192,253753,1,0,0:0:0:0:
64,192,253839,1,0,0:0:0:0:
448,192,253925,1,4,0:0:0:0:
192,192,253925,1,2,0:0:0:0:
320,192,253925,1,0,0:0:0:0:
64,192,254010,128,0,254182:0:0:0:0:
320,192,254096,128,0,254182:0:0:0:0:
448,192,254182,1,0,0:0:0:0:
64,192,254267,1,2,0:0:0:0:
320,192,254267,1,4,0:0:0:0:
192,192,254267,1,0,0:0:0:0:
448,192,254353,1,0,0:0:0:0:
192,192,254439,1,0,0:0:0:70:electronic36.wav
320,192,254439,1,0,0:0:0:0:
64,192,254525,1,0,0:0:0:0:
192,192,254610,1,2,0:0:0:0:
448,192,254610,128,4,254782:0:0:0:0:
320,192,254696,128,0,254867:0:0:0:0:
192,192,254782,128,0,254953:0:0:0:0:
64,192,254867,128,0,254953:0:0:0:0:
448,192,254953,1,0,0:0:0:0:
320,192,255010,1,0,0:0:0:0:
192,192,255067,1,0,0:0:0:0:
64,192,255125,1,2,0:0:0:0:
448,192,255125,128,4,255296:0:0:0:0:
320,192,255125,128,0,255210:0:0:0:70:clap.wav
192,192,255210,1,0,0:0:0:0:
320,192,255296,1,0,0:0:0:0:
448,192,255382,1,0,0:0:0:0:
192,192,255382,128,0,255467:0:0:0:70:clap.wav
64,192,255382,128,2,255553:0:0:0:0:
320,192,255467,1,0,0:0:0:0:
192,192,255553,1,0,0:0:0:0:
320,192,255639,128,2,255725:0:0:0:0:
64,192,255639,1,0,0:0:0:0:
448,192,255639,128,0,255810:0:0:0:70:clap.wav
192,192,255725,1,0,0:0:0:0:
320,192,255810,1,0,0:0:0:0:
448,192,255896,1,0,0:0:0:0:
192,192,255896,128,0,255982:0:0:0:70:clap.wav
64,192,255896,128,2,256067:0:0:0:0:
320,192,255982,1,0,0:0:0:0:
192,192,256067,1,0,0:0:0:0:
64,192,256153,1,2,0:0:0:0:
320,192,256153,1,0,0:0:0:50:P_Db6.wav
448,192,256153,128,0,256325:0:0:0:0:
192,192,256325,1,2,0:0:0:0:
64,192,256325,1,0,0:0:0:50:P_C6.wav
320,192,256410,1,2,0:0:0:0:
448,192,256496,1,2,0:0:0:0:
64,192,256496,128,4,256667:0:0:0:0:
192,192,256496,128,0,256582:0:0:0:70:clap.wav
320,192,256582,1,0,0:0:0:0:
192,192,256667,1,0,0:0:0:0:
64,192,256753,1,0,0:0:0:0:
320,192,256753,128,0,256839:0:0:0:70:clap.wav
448,192,256753,128,2,256925:0:0:0:0:
192,192,256839,1,0,0:0:0:0:
320,192,256925,1,0,0:0:0:0:
192,192,257010,128,2,257096:0:0:0:0:
64,192,257010,128,0,257182:0:0:0:70:clap.wav
448,192,257010,1,0,0:0:0:50:P_Bb5.wav
320,192,257096,1,0,0:0:0:0:
192,192,257182,1,0,0:0:0:0:
64,192,257267,1,0,0:0:0:0:
320,192,257267,128,0,257353:0:0:0:70:clap.wav
448,192,257267,128,2,257439:0:0:0:0:
192,192,257353,1,0,0:0:0:0:
320,192,257439,1,0,0:0:0:0:
64,192,257525,1,2,0:0:0:0:
448,192,257610,1,2,0:0:0:0:
64,192,257696,1,2,0:0:0:0:
192,192,257739,1,2,0:0:0:0:
320,192,257782,1,2,0:0:0:0:
448,192,257825,1,2,0:0:0:0:
192,192,257867,128,0,257953:0:0:0:70:fill_snare.wav
64,192,257867,128,2,257953:0:0:0:0:
320,192,257953,128,0,258039:0:0:0:70:fill_snare.wav
192,192,258039,128,0,258125:0:0:0:70:fill_snare.wav
64,192,258039,128,2,258125:0:0:0:0:
448,192,258125,128,0,258210:0:0:0:70:fill_snare.wav
64,192,258210,128,2,258296:0:0:0:0:
192,192,258210,128,0,258382:0:0:0:70:fill_snare.wav
320,192,258296,128,0,258382:0:0:0:70:fill_snare.wav
448,192,258382,128,0,258467:0:0:0:70:fill_snare.wav
64,192,258382,128,2,258553:0:0:0:0:
192,192,258467,128,0,258553:0:0:0:70:fill_snare.wav
320,192,258553,128,2,258639:0:0:0:0:
448,192,258553,128,0,258725:0:0:0:70:fill_snare.wav
64,192,258639,128,0,258725:0:0:0:70:fill_snare.wav
320,192,258725,128,0,258896:0:0:0:70:fill_snare.wav
192,192,258725,128,2,258810:0:0:0:0:
448,192,258810,128,0,258896:0:0:0:70:fill_snare.wav
64,192,258896,1,0,0:0:0:70:fill_snare.wav
192,192,258939,1,0,0:0:0:70:fill_snare.wav
320,192,258982,1,0,0:0:0:70:fill_snare.wav
448,192,259025,1,0,0:0:0:70:fill_snare.wav
64,192,259067,1,0,0:0:0:70:fill_snare.wav
192,192,259110,1,0,0:0:0:70:fill_snare.wav
320,192,259153,1,0,0:0:0:70:fill_snare.wav
448,192,259196,1,0,0:0:0:70:fill_snare.wav
64,192,259239,128,0,259410:0:0:0:0:
320,192,259325,1,0,0:0:0:0:
192,192,259410,1,0,0:0:0:0:
448,192,259496,1,0,0:0:0:0:
192,192,259582,1,0,0:0:0:0:
64,192,259667,1,0,0:0:0:0:
320,192,259753,128,0,259925:0:0:0:0:
448,192,259839,1,0,0:0:0:0:
64,192,259925,128,0,260096:0:0:0:0:
192,192,260010,1,0,0:0:0:0:
448,192,260096,128,0,260267:0:0:0:0:
320,192,260182,1,0,0:0:0:0:
64,192,260267,128,0,260439:0:0:0:0:
320,192,260325,128,0,260439:0:0:0:0:
192,192,260382,128,0,260496:0:0:0:0:
448,192,260439,1,0,0:0:0:0:
320,192,260553,1,0,0:0:0:0:
64,192,260610,1,2,0:0:0:0:
448,192,260610,1,0,0:0:0:0:
192,192,260696,128,0,261467:0:0:0:0:
320,192,260782,128,0,260867:0:0:0:0:
64,192,260953,1,2,0:0:0:0:
448,192,260953,1,4,0:0:0:0:
320,192,260953,1,0,0:0:0:70:clap.wav
64,192,261125,1,0,0:0:0:0:
320,192,261296,1,2,0:0:0:0:
448,192,261296,1,0,0:0:0:0:
64,192,261467,128,0,261639:0:0:0:0:
448,192,261639,128,0,261810:0:0:0:0:
192,192,261639,1,2,0:0:0:0:
320,192,261639,1,0,0:0:0:70:clap.wav
320,192,261810,128,0,262153:0:0:0:0:
192,192,261982,1,0,0:0:0:0:
64,192,261982,1,2,0:0:0:0:
192,192,262153,1,0,0:0:0:0:
448,192,262153,1,0,0:0:0:0:
320,192,262239,1,0,0:0:0:0:
192,192,262325,128,0,262496:0:0:0:0:
64,192,262325,1,2,0:0:0:0:
448,192,262325,1,0,0:0:0:70:clap.wav
320,192,262496,128,0,262667:0:0:0:0:
448,192,262667,128,0,262839:0:0:0:0:
192,192,262667,1,2,0:0:0:0:
320,192,262753,1,0,0:0:0:0:
64,192,262839,128,0,263010:0:0:0:0:
448,192,263010,1,0,0:0:0:70:clap.wav
320,192,263010,128,0,263182:0:0:0:0:
192,192,263010,1,2,0:0:0:0:
192,192,263182,128,0,263353:0:0:0:0:
64,192,263353,128,0,264210:0:0:0:0:
448,192,263353,1,2,0:0:0:0:
192,192,263525,1,0,0:0:0:0:
192,192,263696,1,2,0:0:0:0:
320,192,263696,1,0,0:0:0:0:
448,192,263696,1,0,0:0:0:70:clap.wav
448,192,263867,1,0,0:0:0:0:
320,192,264039,1,0,0:0:0:0:
192,192,264039,1,2,0:0:0:0:
192,192,264210,128,0,264382:0:0:0:0:
448,192,264382,128,0,264553:0:0:0:0:
64,192,264382,1,2,0:0:0:0:
320,192,264382,1,0,0:0:0:70:clap.wav
320,192,264553,128,0,264896:0:0:0:0:
192,192,264725,1,0,0:0:0:0:
64,192,264725,1,2,0:0:0:0:
448,192,264896,1,0,0:0:0:0:
64,192,264896,1,0,0:0:0:0:
192,192,264982,1,0,0:0:0:0:
64,192,265067,128,0,265239:0:0:0:0:
320,192,265067,1,2,0:0:0:0:
448,192,265067,1,0,0:0:0:70:clap.wav
192,192,265239,128,0,265410:0:0:0:0:
320,192,265410,128,0,265582:0:0:0:0:
448,192,265410,1,2,0:0:0:0:
192,192,265496,1,0,0:0:0:0:
64,192,265582,128,0,265753:0:0:0:0:
448,192,265753,1,0,0:0:0:70:clap.wav
320,192,265753,128,0,265925:0:0:0:0:
192,192,265753,1,2,0:0:0:0:
448,192,265925,128,0,266096:0:0:0:0:
192,192,266096,128,0,266953:0:0:0:0:
64,192,266096,1,2,0:0:0:0:
448,192,266267,1,0,0:0:0:0:
448,192,266439,1,0,0:0:0:0:
64,192,266439,1,2,0:0:0:0:
320,192,266439,1,0,0:0:0:70:clap.wav
64,192,266610,1,0,0:0:0:0:
320,192,266782,1,2,0:0:0:0:
448,192,266782,1,0,0:0:0:0:
64,192,266953,128,0,267125:0:0:0:0:
192,192,267125,128,0,267296:0:0:0:0:
448,192,267125,1,0,0:0:0:70:clap.wav
320,192,267125,1,2,0:0:0:0:
320,192,267296,128,0,267639:0:0:0:0:
64,192,267467,1,2,0:0:0:0:
448,192,267467,1,0,0:0:0:0:
192,192,267639,1,0,0:0:0:0:
64,192,267639,1,0,0:0:0:0:
320,192,267725,1,0,0:0:0:0:
192,192,267810,128,0,267982:0:0:0:0:
64,192,267810,1,2,0:0:0:0:
448,192,267810,1,0,0:0:0:70:clap.wav
320,192,267982,128,0,268153:0:0:0:0:
64,192,268153,128,0,268325:0:0:0:0:
448,192,268153,1,2,0:0:0:0:
320,192,268239,1,0,0:0:0:0:
192,192,268325,128,0,268496:0:0:0:0:
448,192,268496,128,0,268667:0:0:0:0:
64,192,268496,1,2,0:0:0:0:
320,192,268496,1,0,0:0:0:70:clap.wav
320,192,268667,128,0,268839:0:0:0:0:
192,192,268839,128,0,269353:0:0:0:0:
64,192,268839,1,2,0:0:0:0:
320,192,269010,1,0,0:0:0:0:
448,192,269182,1,0,0:0:0:0:
64,192,269182,1,2,0:0:0:0:
320,192,269182,1,0,0:0:0:70:clap.wav
448,192,269353,1,0,0:0:0:0:
64,192,269439,1,0,0:0:0:0:
192,192,269525,1,2,0:0:0:0:
320,192,269525,128,0,269610:0:0:0:0:
448,192,269610,128,0,269696:0:0:0:0:
192,192,269696,128,0,269782:0:0:0:0:
320,192,269782,128,0,269867:0:0:0:0:
448,192,269867,1,0,0:0:0:70:clap.wav
64,192,269867,128,2,269953:0:0:0:0:
192,192,269953,128,0,270039:0:0:0:0:
448,192,270039,128,0,270210:0:0:0:0:
320,192,270125,128,0,270382:0:0:0:0:
192,192,270210,1,0,0:0:0:0:
64,192,270210,1,2,0:0:0:0:
192,192,270382,128,0,270553:0:0:0:0:
64,192,270467,128,0,270553:0:0:0:0:
320,192,270553,128,2,270810:0:0:0:0:
448,192,270553,128,0,270639:0:0:0:70:clap.wav
192,192,270639,1,0,0:0:0:0:
448,192,270725,128,0,271239:0:0:0:0:
192,192,270896,1,2,0:0:0:0:
64,192,270896,128,0,270982:0:0:0:0:
320,192,271067,1,0,0:0:0:0:
192,192,271153,1,0,0:0:0:0:
320,192,271239,1,0,0:0:0:0:
64,192,271325,1,0,0:0:0:0:
448,192,271410,1,0,0:0:0:0:
192,192,271410,1,0,0:0:0:0:
320,192,271496,1,0,0:0:0:0:
192,192,271582,128,6,271925:0:0:0:0:
64,192,271582,1,0,0:0:0:70:clap.wav
448,192,271582,1,0,0:0:0:70:electronic29.wav
320,192,271839,1,0,0:0:0:70:electronic29.wav
448,192,271839,1,0,0:0:0:0:
320,192,271925,1,2,0:0:0:0:
448,192,271925,1,0,0:0:0:70:clap.wav
64,192,271925,1,0,0:0:0:70:electronic29.wav
64,192,272010,1,0,0:0:0:70:electronic29.wav
192,192,272096,1,0,0:0:0:70:electronic29.wav
320,192,272182,1,0,0:0:0:70:electronic29.wav
64,192,272267,1,2,0:0:0:0:
192,192,272267,1,0,0:0:0:70:clap.wav
448,192,272267,1,0,0:0:0:70:electronic29.wav
64,192,272439,128,0,272610:0:0:0:0:
448,192,272525,1,0,0:0:0:70:electronic29.wav
448,192,272610,128,0,272782:0:0:0:70:electronic29.wav
192,192,272610,1,2,0:0:0:0:
320,192,272610,1,0,0:0:0:70:clap.wav
64,192,272696,1,0,0:0:0:70:electronic29.wav
320,192,272782,128,0,273125:0:0:0:70:electronic29.wav
192,192,272953,1,0,0:0:0:70:electronic29.wav
64,192,272953,1,2,0:0:0:0:
448,192,272953,1,0,0:0:0:70:clap.wav
64,192,273125,1,0,0:0:0:0:
192,192,273125,1,0,0:0:0:0:
448,192,273210,1,0,0:0:0:70:electronic29.wav
320,192,273296,1,0,0:0:0:70:electronic29.wav
192,192,273296,128,0,273467:0:0:0:70:clap.wav
64,192,273296,1,2,0:0:0:0:
448,192,273382,1,0,0:0:0:70:electronic29.wav
320,192,273467,128,0,273639:0:0:0:70:electronic29.wav
448,192,273639,128,0,273810:0:0:0:70:electronic29.wav
64,192,273639,1,2,0:0:0:0:
192,192,273639,1,0,0:0:0:70:clap.wav
320,192,273725,1,0,0:0:0:70:electronic29.wav
64,192,273810,128,0,273982:0:0:0:70:electronic29.wav
320,192,273982,128,0,274153:0:0:0:70:clap.wav
192,192,273982,1,2,0:0:0:0:
448,192,273982,1,0,0:0:0:70:electronic29.wav
64,192,274067,1,0,0:0:0:70:electronic29.wav
192,192,274153,128,0,274325:0:0:0:70:electronic29.wav
448,192,274325,1,0,0:0:0:70:clap.wav
64,192,274325,128,2,274667:0:0:0:0:
320,192,274325,1,0,0:0:0:70:electronic29.wav
320,192,274582,1,0,0:0:0:0:
448,192,274582,1,0,0:0:0:70:electronic29.wav
192,192,274667,1,2,0:0:0:0:
448,192,274667,1,0,0:0:0:70:electronic29.wav
320,192,274667,1,0,0:0:0:70:clap.wav
64,192,274753,1,0,0:0:0:70:electronic29.wav
320,192,274839,1,0,0:0:0:70:electronic29.wav
192,192,274925,1,0,0:0:0:70:electronic29.wav
64,192,275010,1,0,0:0:0:70:electronic29.wav
320,192,275010,1,2,0:0:0:0:
448,192,275010,1,0,0:0:0:70:clap.wav
192,192,275182,128,0,275353:0:0:0:0:
448,192,275267,1,0,0:0:0:70:electronic29.wav
64,192,275353,1,0,0:0:0:70:electronic29.wav
320,192,275353,1,0,0:0:0:70:clap.wav
448,192,275353,128,2,275525:0:0:0:0:
192,192,275439,1,0,0:0:0:70:electronic29.wav
64,192,275525,1,0,0:0:0:70:electronic29.wav
320,192,275525,128,0,275696:0:0:0:0:
192,192,275696,1,0,0:0:0:0:
64,192,275696,1,2,0:0:0:0:
448,192,275696,1,0,0:0:0:70:clap.wav
192,192,275953,1,2,0:0:0:0:
320,192,275953,1,0,0:0:0:0:
448,192,275953,1,0,0:0:0:70:clap.wav
64,192,276210,1,2,0:0:0:0:
192,192,276210,128,0,276382:0:0:0:0:
320,192,276210,1,0,0:0:0:70:clap.wav
448,192,276382,1,0,0:0:0:70:clap.wav
64,192,276382,1,2,0:0:0:0:
320,192,276382,128,0,276553:0:0:0:0:
64,192,276553,128,0,276725:0:0:0:0:
448,192,276725,128,0,276896:0:0:0:0:
320,192,276896,128,0,277067:0:0:0:0:
192,192,277067,128,0,277925:0:0:0:0:
448,192,277067,1,4,0:0:0:0:
64,192,277067,1,2,0:0:0:0:
448,192,277239,1,0,0:0:0:0:
320,192,277410,1,0,0:0:0:0:
64,192,277582,1,0,0:0:0:0:
320,192,277753,1,0,0:0:0:0:
448,192,277753,1,0,0:0:0:70:electronic28.wav
64,192,277925,128,0,278096:0:0:0:0:
192,192,278096,128,0,278267:0:0:0:0:
320,192,278267,128,0,278953:0:0:0:0:
448,192,278267,1,4,0:0:0:0:
64,192,278267,1,2,0:0:0:0:
448,192,278439,1,0,0:0:0:0:
64,192,278610,1,0,0:0:0:0:
192,192,278782,1,0,0:0:0:0:
64,192,278782,1,2,0:0:0:0:
448,192,278782,1,4,0:0:0:0:
448,192,278953,128,0,279296:0:0:0:0:
320,192,279125,1,0,0:0:0:70:electronic28.wav
192,192,279125,1,0,0:0:0:0:
64,192,279296,128,0,279467:0:0:0:0:
320,192,279467,128,0,279639:0:0:0:30:electronic29.wav
192,192,279553,1,0,0:0:0:50:electronic29.wav
448,192,279639,128,0,279810:0:0:0:70:electronic29.wav
320,192,279725,1,0,0:0:0:0:
192,192,279810,1,0,0:0:0:0:
64,192,279810,128,2,279896:0:0:0:0:
448,192,279896,1,2,0:0:0:0:
320,192,279896,128,0,279982:0:0:0:0:
64,192,279982,128,2,280067:0:0:0:0:
192,192,279982,1,0,0:0:0:0:
448,192,280067,1,2,0:0:0:0:
320,192,280067,128,0,280153:0:0:0:0:
192,192,280153,1,0,0:0:0:0:
64,192,280153,128,2,280239:0:0:0:0:
448,192,280239,1,2,0:0:0:0:
320,192,280239,128,0,280325:0:0:0:0:
192,192,280325,1,0,0:0:0:0:
64,192,280325,128,2,280410:0:0:0:0:
448,192,280410,1,2,0:0:0:0:
320,192,280410,128,0,280496:0:0:0:0:
192,192,280496,1,0,0:0:0:0:
64,192,280496,128,2,280582:0:0:0:0:
448,192,280582,1,2,0:0:0:0:
320,192,280582,128,0,280667:0:0:0:0:
192,192,280667,1,0,0:0:0:0:
64,192,280667,128,2,280753:0:0:0:0:
448,192,280753,1,2,0:0:0:0:
320,192,280753,128,0,280839:0:0:0:0:
64,192,280839,1,2,0:0:0:0:
192,192,280839,1,0,0:0:0:0:
448,192,280925,128,0,281010:0:0:0:0:
192,192,281010,128,0,281096:0:0:0:0:
320,192,281096,128,0,281182:0:0:0:0:
64,192,281182,1,2,0:0:0:0:
192,192,281182,128,0,281267:0:0:0:0:
320,192,281267,1,0,0:0:0:0:
448,192,281267,128,2,281353:0:0:0:0:
64,192,281353,1,2,0:0:0:0:
192,192,281353,128,0,281439:0:0:0:0:
320,192,281439,1,0,0:0:0:0:
448,192,281439,128,2,281525:0:0:0:0:
64,192,281525,1,2,0:0:0:0:
192,192,281525,128,0,281610:0:0:0:0:
320,192,281610,1,0,0:0:0:0:
448,192,281610,128,2,281696:0:0:0:0:
64,192,281696,1,2,0:0:0:0:
192,192,281696,128,0,281782:0:0:0:0:
320,192,281782,1,0,0:0:0:0:
448,192,281782,128,2,281867:0:0:0:0:
64,192,281867,1,2,0:0:0:0:
192,192,281867,128,0,281953:0:0:0:0:
320,192,281953,1,0,0:0:0:0:
448,192,281953,128,2,282039:0:0:0:0:
64,192,282039,1,2,0:0:0:0:
192,192,282039,128,0,282125:0:0:0:0:
320,192,282125,1,0,0:0:0:0:
448,192,282125,128,2,282210:0:0:0:0:
192,192,282210,1,0,0:0:0:0:
64,192,282210,1,2,0:0:0:0:
448,192,282296,1,0,0:0:0:0:
320,192,282339,1,0,0:0:0:0:
64,192,282382,1,0,0:0:0:0:
192,192,282425,1,0,0:0:0:0:
448,192,282467,1,0,0:0:0:0:
320,192,282510,1,0,0:0:0:0:
64,192,282553,128,2,282639:0:0:0:0:
192,192,282553,1,0,0:0:0:0:
448,192,282639,128,2,282725:0:0:0:0:
320,192,282639,1,0,0:0:0:0:
192,192,282725,1,0,0:0:0:0:
64,192,282725,128,2,282810:0:0:0:0:
448,192,282810,128,2,282896:0:0:0:0:
320,192,282810,1,0,0:0:0:0:
64,192,282896,1,2,0:0:0:0:
192,192,282896,1,0,0:0:0:0:
320,192,282982,1,0,0:0:0:0:
448,192,283067,1,0,0:0:0:0:
192,192,283239,128,0,283325:0:0:0:0:
64,192,283239,1,2,0:0:0:0:
320,192,283325,128,0,283410:0:0:0:0:
448,192,283325,1,2,0:0:0:0:
192,192,283410,128,0,283496:0:0:0:0:
64,192,283410,1,2,0:0:0:0:
320,192,283496,128,0,283582:0:0:0:0:
448,192,283496,1,2,0:0:0:0:
192,192,283582,1,0,0:0:0:0:
64,192,283582,1,2,0:0:0:0:
320,192,283667,1,0,0:0:0:0:
448,192,283753,128,0,283839:0:0:0:0:
192,192,283925,1,0,0:0:0:50:soft-hitwhistle.wav
64,192,283925,1,0,0:0:0:0:
320,192,283967,1,0,0:0:0:50:soft-hitwhistle.wav
448,192,284010,1,0,0:0:0:50:soft-hitwhistle.wav
64,192,284053,1,0,0:0:0:50:soft-hitwhistle.wav
320,192,284096,1,0,0:0:0:50:soft-hitwhistle.wav
192,192,284096,1,0,0:0:0:0:
448,192,284139,1,0,0:0:0:50:soft-hitwhistle.wav
64,192,284182,1,0,0:0:0:50:soft-hitwhistle.wav
192,192,284225,1,0,0:0:0:50:soft-hitwhistle.wav
448,192,284267,1,0,0:0:0:50:soft-hitwhistle.wav
320,192,284267,1,0,0:0:0:0:
64,192,284310,1,0,0:0:0:50:soft-hitwhistle.wav
192,192,284353,1,0,0:0:0:50:soft-hitwhistle.wav
320,192,284396,1,0,0:0:0:50:soft-hitwhistle.wav
448,192,284439,1,0,0:0:0:50:soft-hitwhistle.wav
64,192,284482,1,0,0:0:0:50:soft-hitwhistle.wav
192,192,284525,1,0,0:0:0:50:soft-hitwhistle.wav
320,192,284567,1,0,0:0:0:50:soft-hitwhistle.wav
64,192,284610,128,0,284696:0:0:0:0:
448,192,284610,128,2,285167:0:0:0:0:
64,192,284760,128,0,284846:0:0:0:0:
192,192,284925,128,0,285010:0:0:0:0:
192,192,285082,128,0,285167:0:0:0:0:
448,192,285296,1,4,0:0:0:0:
64,192,285296,1,2,0:0:0:0:
320,192,285296,128,0,285382:0:0:0:50:P_Eb7.wav
192,192,285467,1,0,0:0:0:25:P_Ab4.wav
320,192,285639,1,0,0:0:0:25:P_Eb5.wav
448,192,285810,1,0,0:0:0:25:P_F5.wav
192,192,285982,1,0,0:0:0:25:P_C6.wav
64,192,286153,128,0,286239:0:0:0:50:P_Ab6.wav
448,192,286325,128,0,286410:0:0:0:50:P_Ab7.wav
192,192,286496,128,0,286582:0:0:0:50:P_G7.wav
64,192,286667,1,0,0:0:0:0:
320,192,286839,1,0,0:0:0:0:
192,192,287010,128,0,287096:0:0:0:50:P_G7.wav
320,192,287182,128,0,287267:0:0:0:50:P_Ab7.wav
448,192,287353,128,0,287439:0:0:0:50:P_Bb7.wav
64,192,287353,1,0,0:0:0:25:P_Eb4.wav
64,192,287525,128,0,287610:0:0:0:50:P_G7.wav
192,192,287696,128,0,287782:0:0:0:50:P_Eb7.wav
320,192,287867,128,0,287953:0:0:0:50:P_Db7.wav
64,192,288039,128,0,288125:0:0:0:50:P_C7.wav
448,192,288039,1,0,0:0:0:60:
192,192,288210,1,0,0:0:0:25:P_C5.wav
64,192,288382,1,0,0:0:0:25:P_G5.wav
320,192,288553,1,0,0:0:0:25:P_Ab5.wav
448,192,288725,1,0,0:0:0:25:P_Bb5.wav
64,192,288896,128,0,288982:0:0:0:50:P_Eb6.wav
320,192,289067,128,0,289153:0:0:0:50:P_Bb6.wav
192,192,289239,128,0,289325:0:0:0:50:P_Ab6.wav
64,192,289410,1,0,0:0:0:60:
448,192,289582,1,0,0:0:0:60:
320,192,289753,128,0,289839:0:0:0:50:P_Ab6.wav
192,192,289925,128,0,290010:0:0:0:50:P_Bb6.wav
448,192,290096,128,0,290182:0:0:0:50:P_C7.wav
64,192,290096,1,0,0:0:0:60:
192,192,290267,128,0,290353:0:0:0:50:P_F6.wav
64,192,290439,128,0,290525:0:0:0:50:P_C7.wav
320,192,290610,128,0,290696:0:0:0:50:P_Db7.wav
448,192,290782,128,0,290867:0:0:0:50:P_Eb7.wav
192,192,290782,1,0,0:0:0:50:
320,192,290953,1,0,0:0:0:25:P_Ab4.wav
64,192,291125,1,0,0:0:0:25:P_C5.wav
192,192,291296,1,0,0:0:0:25:P_Db5.wav
448,192,291467,1,0,0:0:0:25:P_Ab5.wav
64,192,291639,128,0,291725:0:0:0:50:P_Ab6.wav
192,192,291810,128,0,291896:0:0:0:50:P_Eb7.wav
320,192,291982,128,0,292067:0:0:0:50:P_F7.wav
192,192,292153,1,0,0:0:0:50:
448,192,292325,1,0,0:0:0:50:
192,192,292496,128,0,292582:0:0:0:50:P_F7.wav
64,192,292667,128,0,292753:0:0:0:50:P_G7.wav
320,192,292839,1,0,0:0:0:50:
192,192,292839,128,0,292925:0:0:0:50:P_A7.wav
320,192,293010,128,0,293096:0:0:0:50:P_Bb7.wav
448,192,293182,128,0,293267:0:0:0:50:P_Eb8.wav
192,192,293353,128,0,293439:0:0:0:50:P_C8.wav
64,192,293525,128,0,293610:0:0:0:50:P_Bb7.wav
320,192,293525,1,0,0:0:0:40:
448,192,293696,1,0,0:0:0:40:
320,192,293867,1,0,0:0:0:40:
64,192,294039,128,0,294125:0:0:0:50:P_Db7.wav
192,192,294210,128,0,294296:0:0:0:50:P_Gb7.wav
448,192,294382,128,0,294467:0:0:0:50:P_Db8.wav
320,192,294553,128,0,294639:0:0:0:50:P_C8.wav
64,192,294725,128,0,294810:0:0:0:50:P_Bb7.wav
192,192,294725,1,0,0:0:0:40:
448,192,294896,1,0,0:0:0:40:
192,192,295067,128,0,295153:0:0:0:50:P_Ab7.wav
320,192,295239,128,0,295325:0:0:0:50:P_Bb7.wav
448,192,295410,128,0,295496:0:0:0:50:P_C8.wav
192,192,295410,1,0,0:0:0:40:
64,192,295582,1,0,0:0:0:40:
448,192,295753,1,0,0:0:0:40:
320,192,295925,1,0,0:0:0:40:
64,192,296096,1,0,0:0:0:40:
192,192,296267,128,0,296353:0:0:0:50:P_Eb7.wav
448,192,296324,1,0,0:0:0:25:P_Eb8.wav
320,192,296439,1,0,0:0:0:25:P_Ab4.wav
64,192,296611,1,0,0:0:0:25:P_Eb5.wav
192,192,296784,1,0,0:0:0:25:P_F5.wav
320,192,296956,1,0,0:0:0:25:P_C6.wav
64,192,297129,128,0,297215:0:0:0:50:P_Bb7.wav
448,192,297301,128,0,297387:0:0:0:50:P_Ab7.wav
320,192,297473,128,0,297560:0:0:0:50:P_G7.wav
64,192,297646,1,0,0:0:0:40:P_Db4S.wav
448,192,297820,1,0,0:0:0:40:P_Db4S.wav
192,192,297994,128,0,298082:0:0:0:50:P_G7.wav
320,192,298169,128,0,298256:0:0:0:50:P_Ab7.wav
448,192,298343,128,0,298430:0:0:0:50:P_Bb7.wav
64,192,298518,128,0,298605:0:0:0:50:P_G7.wav
320,192,298692,128,0,298779:0:0:0:50:P_Eb7.wav
192,192,298866,128,0,298954:0:0:0:50:P_Db7.wav
320,192,299041,128,0,299128:0:0:0:50:P_C7.wav
64,192,299215,1,0,0:0:0:25:P_C5.wav
192,192,299390,1,0,0:0:0:25:P_G5.wav
320,192,299564,1,0,0:0:0:25:P_Ab5.wav
448,192,299739,1,0,0:0:0:25:P_Bb5.wav
64,192,299913,128,0,300000:0:0:0:50:P_Eb6.wav
320,192,300087,128,0,300175:0:0:0:50:P_Bb6.wav
192,192,300262,128,0,300349:0:0:0:50:P_Ab6.wav
192,192,300795,128,0,300885:0:0:0:50:P_Ab6.wav
320,192,300974,128,0,301064:0:0:0:50:P_Bb6.wav
448,192,301154,128,0,301244:0:0:0:50:P_C7.wav
192,192,301334,128,0,301424:0:0:0:50:P_F6.wav
320,192,301513,128,0,301603:0:0:0:50:P_C7.wav
64,192,301693,128,0,301783:0:0:0:50:P_Db7.wav
192,192,301873,128,0,301962:0:0:0:50:P_Eb7.wav
448,192,301992,1,0,0:0:0:25:P_Eb8.wav
64,192,302052,1,0,0:0:0:25:P_Ab4.wav
320,192,302232,1,0,0:0:0:25:P_C5.wav
192,192,302412,1,0,0:0:0:25:P_Db5.wav
448,192,302591,1,0,0:0:0:25:P_Ab5.wav
64,192,302771,128,0,302861:0:0:0:50:P_Eb7.wav
320,192,302950,128,0,303040:0:0:0:50:P_G7.wav
448,192,303130,128,0,303220:0:0:0:50:P_Ab7.wav
64,192,303310,1,0,0:0:0:50:P_C4.wav
320,192,303489,1,0,0:0:0:15:P_Bb4.wav
192,192,303669,1,0,0:0:0:25:P_Eb5.wav
320,192,303849,128,0,303938:0:0:0:50:P_Bb7.wav
448,192,304028,1,0,0:0:0:25:P_Bb5.wav
192,192,304208,128,0,304298:0:0:0:50:P_Eb7.wav
320,192,304388,128,0,304477:0:0:0:50:P_Bb7.wav
448,192,304567,128,0,304657:0:0:0:50:P_C8.wav
192,192,304747,1,0,0:0:0:40:P_Db4.wav
64,192,304929,128,0,305021:0:0:0:50:P_Eb7.wav
192,192,305112,128,0,305204:0:0:0:50:P_Bb7.wav
320,192,305295,128,0,305387:0:0:0:50:P_C8.wav
448,192,305478,1,0,0:0:0:40:P_C6.wav
64,192,305661,128,0,305753:0:0:0:50:P_Eb7.wav
192,192,305844,128,0,305936:0:0:0:50:P_Bb7.wav
320,192,306027,128,0,306118:0:0:0:50:P_C8.wav
64,192,306407,128,0,306506:0:0:0:50:P_Eb7.wav
192,192,306604,128,0,306703:0:0:0:50:P_Bb7.wav
320,192,306802,128,0,306900:0:0:0:50:P_C8.wav
192,192,307196,128,0,307295:0:0:0:50:P_Eb8.wav
320,192,307394,128,0,307492:0:0:0:50:P_Bb8.wav
448,192,307591,128,0,307690:0:0:0:50:P_C9.wav
64,192,307788,1,0,0:0:0:40:P_Db6.wav
192,192,308002,128,0,308109:0:0:0:50:P_Eb8.wav
320,192,308216,128,0,308327:0:0:0:50:P_Bb8.wav
448,192,308438,128,0,308549:0:0:0:50:P_C9.wav
448,192,308660,1,0,0:0:0:40:P_Eb7.wav
192,192,308900,128,0,309020:0:0:0:50:P_Eb8.wav
320,192,309140,128,0,309276:0:0:0:50:P_Bb8.wav
448,192,309412,128,0,309549:0:0:0:50:P_C9.wav
192,192,309947,128,0,310135:0:0:0:50:P_Eb8.wav
320,192,310247,128,0,310493:0:0:0:50:P_Bb8.wav
448,192,310576,128,0,319951:0:0:0:50:P_C9.wav
64,192,310701,1,0,0:0:0:30:P_C8.wav
64,192,312183,1,0,0:0:0:25:P_G6.wav
192,192,312216,1,0,0:0:0:25:P_C6.wav
320,192,312263,1,0,0:0:0:25:P_F5.wav
192,192,312343,1,0,0:0:0:25:P_Eb5.wav
64,192,312419,128,0,319951:0:0:0:15:P_Ab4.wav
