osu file format v14

[General]
AudioFilename: audio.mp3
AudioLeadIn: 0
PreviewTime: 313883
Countdown: 0
SampleSet: Soft
StackLeniency: 0.7
Mode: 0
LetterboxInBreaks: 0
WidescreenStoryboard: 1

[Editor]
Bookmarks: 76879,88079,89679,96079,160668,165330,232383,243683,261183,272383,273983,280383,288383,293583,374383,384383,405983
DistanceSpacing: 1.2
BeatDivisor: 4
GridSize: 32
TimelineZoom: 2.1

[Metadata]
Title:Flamewall
TitleUnicode:Flamewall
Artist:Camellia
ArtistUnicode:かめりあ
Creator:Sotarks
Version:Nymphe's HARD
Source:
Tags:Tera I_O I/O Cametek kamelcamellia かめるかめりあ Instrumental Symphonic Speed Metal Akitoshi Corinn -Laura- Nymphe Kiyoshi Guarden SnowNiNo_ Kujinn Reform Featured Artist Mappers' Guild
BeatmapID:3160677
BeatmapSetID:1533028

[Difficulty]
HPDrainRate:4
CircleSize:4
OverallDifficulty:6.5
ApproachRate:8
SliderMultiplier:0.999999999999999
SliderTickRate:1

[Events]
//Background and Video events
0,0,"bg.jpg",0,0
//Break Periods
2,77079,87329
2,89879,95329
2,232383,242433
2,261383,271633
2,274183,279633
2,288583,292733
//Storyboard Layer 0 (Background)
//Storyboard Layer 1 (Fail)
//Storyboard Layer 2 (Pass)
//Storyboard Layer 3 (Foreground)
//Storyboard Layer 4 (Overlay)
//Storyboard Sound Samples

[TimingPoints]
879,200,4,2,22,52,1,0
1279,-142.857142857143,4,2,22,52,0,0
1679,-111.111111111111,4,2,22,52,0,0
7679,-142.857142857143,4,2,22,52,0,0
8079,-111.111111111111,4,2,22,52,0,0
12979,-111.111111111111,4,2,22,82,0,0
13579,-111.111111111111,4,2,22,82,0,0
13629,-111.111111111111,4,2,22,72,0,0
16079,-111.111111111111,4,2,22,82,0,0
17479,-111.111111111111,4,2,22,72,0,0
28079,-111.111111111111,4,2,22,72,0,0
28879,-100,4,2,22,82,0,0
38479,-100,4,2,22,82,0,0
41679,-100,4,2,22,82,0,0
48079,-125,4,2,22,72,0,0
60879,-111.111111111111,4,2,22,72,0,0
70479,-111.111111111111,4,2,22,72,0,0
76879,-100,4,2,22,72,0,0
88079,-100,4,2,22,72,0,0
89679,-111.111111111111,4,2,22,72,0,0
101679,-111.111111111111,4,2,22,72,0,0
104079,-90.9090909090909,4,2,22,82,0,1
116879,-111.111111111111,4,2,22,82,0,0
126479,-100,4,2,22,72,0,0
129179,-100,4,2,22,82,0,0
129679,-111.111111111111,4,2,22,82,0,0
131979,-100,4,2,22,72,0,0
132879,-100,4,2,22,82,0,0
145679,-111.111111111111,4,2,22,72,0,0
155279,230.769230769231,4,2,22,72,1,0
155279,-100,4,2,22,72,0,0
156202,272.727272727273,4,2,22,72,1,0
156202,-100,4,2,22,72,0,0
156747,400,4,2,22,72,1,0
156747,-100,4,2,22,72,0,0
157547,324.324324324324,4,2,22,72,1,0
165330,-66.6666666666667,4,2,22,82,0,0
175060,-66.6666666666667,4,2,22,82,0,0
186168,-66.6666666666667,4,2,22,62,0,0
188682,-125,4,2,22,62,0,0
189006,-125,4,2,22,32,0,0
189168,-125,4,2,22,42,0,0
189330,-100,4,2,22,52,0,0
189492,-100,4,2,22,62,0,0
189979,-83.3333333333333,4,2,22,72,0,0
190628,-66.6666666666667,4,2,22,72,0,0
190709,-66.6666666666667,4,2,22,5,0,0
190790,-66.6666666666667,4,2,22,72,0,0
190871,-66.6666666666667,4,2,22,5,0,0
190952,-66.6666666666667,4,2,22,72,0,0
191195,-66.6666666666667,4,2,22,5,0,0
191276,-66.6666666666667,4,2,22,72,0,0
213168,-66.6666666666667,4,2,22,72,0,0
213330,-66.6666666666667,4,2,22,72,0,0
213979,-66.6666666666667,4,2,22,72,0,0
218519,-66.6666666666667,4,2,22,72,0,0
219168,-66.6666666666667,4,2,22,72,0,0
221114,-66.6666666666667,4,2,22,72,0,0
225006,-111.111111111111,4,2,22,72,0,0
226303,352.941176470588,4,2,22,72,1,0
227008,375,4,2,22,72,1,0
227383,500,4,2,22,72,1,0
227883,750,4,2,22,72,1,0
227883,-100,4,2,22,72,0,0
228070,-100,4,2,22,52,0,0
232383,200,4,2,22,72,1,0
243183,-111.111111111111,4,2,22,72,0,0
245183,-111.111111111111,4,2,22,72,0,0
254783,-111.111111111111,4,2,22,72,0,0
257983,-111.111111111111,4,2,22,72,0,0
260383,-100,4,2,22,72,0,0
261183,-100,4,2,22,72,0,0
272383,-100,4,2,22,72,0,0
273983,-111.111111111111,4,2,22,72,0,0
285983,-100,4,2,22,72,0,0
287983,-100,4,2,22,72,0,0
293983,-100,4,2,22,72,0,0
294783,-125,4,2,22,72,0,0
299683,-100,4,2,22,72,0,0
300283,-100,4,2,22,72,0,0
301183,-125,4,2,22,72,0,0
310783,-100,4,2,22,52,0,0
311283,-100,4,2,22,22,0,0
311383,-100,4,2,22,32,0,0
311583,-100,4,2,22,42,0,0
312383,-100,4,2,22,72,0,0
313983,-142.857142857143,4,2,22,72,0,0
314783,-100,4,2,22,72,0,0
315583,-90.9090909090909,4,2,22,82,0,1
328583,-90.9090909090909,4,2,22,92,0,1
331483,-90.9090909090909,4,2,22,92,0,1
331783,-90.9090909090909,4,2,22,92,0,1
341183,-111.111111111111,4,2,22,82,0,0
353983,-111.111111111111,4,2,22,82,0,0
363583,-100,4,2,22,72,0,0
364383,-100,4,2,22,62,0,0
364783,-100,4,2,22,62,0,0
365183,-100,4,2,22,72,0,0
366683,-100,4,2,22,62,0,0
366783,-100,4,2,22,62,0,0
368383,-111.111111111111,4,2,22,72,0,0
368783,-111.111111111111,4,2,22,72,0,0
369183,-111.111111111111,4,2,22,72,0,0
369583,-111.111111111111,4,2,22,72,0,0
369983,-111.111111111111,4,2,22,72,0,0
370383,-111.111111111111,4,2,22,72,0,0
370783,-100,4,2,22,72,0,0
371583,-100,4,2,22,72,0,0
384383,-100,4,2,22,82,0,0
400983,-140.845070422535,4,2,22,82,0,0
401033,-81.3008130081301,4,2,22,5,0,0

[Colours]
Combo1 : 73,79,112
Combo2 : 105,104,125
Combo3 : 160,107,107
Combo4 : 242,40,40
Combo5 : 200,40,40
Combo6 : 255,199,6
Combo7 : 240,102,0
Combo8 : 157,0,0

[HitObjects]
111,31,1279,6,0,L|71:25,3,34.9999989318848,2|0|2|2,3:2|2:0|3:2|3:2,2:0:0:0:
31,23,1679,2,0,B|9:65|9:65|30:106,1,89.999997253418,2|2,3:2|2:0,2:0:0:0:
92,166,2079,2,0,B|114:208|114:208|93:249,1,89.999997253418,2|2,2:0|2:0,2:0:0:0:
58,329,2479,2,0,P|98:353|147:340,1,89.999997253418,2|2,3:2|2:0,2:0:0:0:
203,283,2879,2,0,P|243:260|292:271,1,89.999997253418,2|2,2:0|2:0,2:0:0:0:
373,250,3279,102,0,L|353:395,2,134.999995880127,2|2|2,3:2|2:0|2:0,2:0:0:0:
442,191,4079,2,0,B|408:153|444:102|464:123|505:73|465:25,1,179.999994506836,2|2,3:2|2:0,2:0:0:0:
314,122,4879,6,0,B|269:115|269:115|232:140|232:140|174:126,2,134.999995880127,2|2|2,3:2|2:0|2:0,2:0:0:0:
362,198,5679,2,0,B|407:191|407:191|444:216|444:216|502:202,2,134.999995880127,2|2|2,3:2|2:0|2:0,2:0:0:0:
280,237,6479,102,0,L|296:332,1,89.999997253418,2|0,3:2|3:2,2:0:0:0:
233,371,6779,1,0,3:2:0:0:
233,371,6879,2,0,P|189:388|144:354,1,89.999997253418,2|0,3:2|3:2,2:0:0:0:
107,307,7179,1,0,3:2:0:0:
107,307,7279,2,0,L|6:320,1,89.999997253418,2|0,3:2|0:0,2:0:0:0:
58,186,7679,6,0,L|48:152,3,34.9999989318848,2|2|2|2,2:0|2:0|2:0|2:0,0:0:0:0:
35,108,8079,2,0,B|79:91|79:91|132:108,1,89.999997253418,2|2,3:2|2:0,2:0:0:0:
165,181,8479,2,0,B|209:198|209:198|262:181,1,89.999997253418,2|2,2:0|2:0,2:0:0:0:
314,121,8879,2,0,P|296:90|326:44,1,89.999997253418,2|2,3:2|2:0,2:0:0:0:
410,56,9279,2,0,P|428:87|398:133,1,89.999997253418,2|2,2:0|2:0,2:0:0:0:
351,203,9679,102,0,B|398:236|398:236|486:213,2,134.999995880127,2|2|2,3:2|2:0|2:0,2:0:0:0:
292,272,10479,2,0,B|240:243|201:281|201:281|180:336|120:316,1,179.999994506836,2|2,3:2|2:0,2:0:0:0:
37,200,11279,6,0,B|-5:224|-5:224|23:317,2,134.999995880127,2|2|2,3:2|2:0|2:0,2:0:0:0:
114,153,12079,2,0,B|156:129|156:129|128:36,2,134.999995880127,2|2|2,3:2|2:0|2:0,2:0:0:0:
186,267,12979,85,8,2:0:0:0:
186,267,13079,2,0,L|250:271,1,44.999998626709,8|0,2:0|1:2,0:0:0:0:
291,324,13279,1,8,2:0:0:0:
291,324,13379,2,0,L|355:320,1,44.999998626709,0|0,1:2|1:2,0:0:0:0:
393,271,13579,69,12,2:0:0:0:
63,49,15379,5,8,2:0:0:0:
63,49,15479,2,0,L|70:97,1,44.999998626709,8|8,2:3|2:3,0:0:0:0:
125,146,15679,1,8,2:3:0:0:
125,146,15779,2,0,L|116:198,2,44.999998626709,4|4|4,2:3|2:3|2:3,0:0:0:0:
181,94,16079,69,4,1:2:0:0:
181,94,17479,1,4,1:3:0:0:
301,108,17679,1,4,1:2:0:0:
488,19,18379,101,0,1:2:0:0:
488,19,18479,2,0,L|500:113,1,89.999997253418,8|8,2:0|2:0,2:0:0:0:
363,178,18879,2,0,L|351:272,1,89.999997253418,8|8,2:0|2:0,2:0:0:0:
468,365,19279,1,4,1:2:0:0:
468,365,20679,6,0,L|424:361,1,44.999998626709,0|0,1:2|0:0,2:0:0:0:
346,353,20879,2,0,B|302:325|302:325|331:240,2,134.999995880127,4|0|4,1:2|1:2|1:2,0:0:0:0:
427,222,21679,2,0,B|456:160|456:160|414:91,1,134.999995880127,0|0,1:2|3:2,2:0:0:0:
366,49,22079,2,0,L|261:70,1,89.999997253418,8|8,2:3|2:0,0:0:0:0:
127,96,22479,101,4,1:2:0:0:
127,96,23879,1,4,1:3:0:0:
142,216,24079,1,4,1:2:0:0:
11,361,24779,5,0,1:2:0:0:
11,361,24879,2,0,P|56:375|100:347,1,89.999997253418,8|8,2:0|2:0,2:0:0:0:
212,260,25279,2,0,P|251:242|293:256,1,89.999997253418,8|8,2:0|2:0,2:0:0:0:
412,353,25679,1,4,1:2:0:0:
410,352,27079,102,0,L|402:298,1,44.999998626709,0|0,1:2|0:0,2:0:0:0:
459,255,27279,2,0,B|470:202|470:202|442:151|442:151|462:80,1,179.999994506836,4|4,1:2|1:2,0:0:0:0:
162,10,28079,2,0,L|175:102,1,89.999997253418,4|0,1:2|0:0,2:0:0:0:
80,196,28479,2,0,L|77:247,3,44.999998626709,8|8|8|8,2:0|2:0|2:0|2:0,0:0:0:0:
78,315,28879,70,0,P|121:341|165:323,1,99.9999999999999,6|10,1:2|1:2,1:0:0:0:
202,259,29179,2,0,P|247:242|288:267,1,99.9999999999999,2|8,1:2|1:3,1:0:0:0:
337,324,29479,1,10,1:2:0:0:
479,372,29679,2,0,B|511:343|511:343|493:280,1,99.9999999999999,2|10,1:2|1:2,1:0:0:0:
368,207,30079,2,0,B|336:178|336:178|354:115,1,99.9999999999999,2|10,1:2|1:2,1:0:0:0:
431,10,30479,102,0,P|502:23|503:97,2,150,2|2|10,1:2|1:2|1:2,1:0:0:0:
297,79,31279,2,0,P|254:103|206:78,1,99.9999999999999,2|10,1:2|1:2,1:0:0:0:
121,23,31679,2,0,P|70:4|30:24,1,99.9999999999999,2|10,1:2|1:2,1:0:0:0:
13,171,32079,6,0,B|-3:220|-3:220|17:263,1,99.9999999999999,2|10,1:2|1:2,1:0:0:0:
50,331,32379,2,0,L|153:310,1,99.9999999999999,2|8,1:2|1:3,1:0:0:0:
196,254,32679,1,10,1:2:0:0:
309,351,32879,2,0,B|345:375|345:375|413:353,1,99.9999999999999,2|10,1:2|1:2,1:0:0:0:
502,246,33279,2,0,B|466:222|466:222|398:244,1,99.9999999999999,2|10,1:2|1:2,1:0:0:0:
297,143,33679,102,0,P|259:83|323:25,2,150,2|14|10,1:2|1:3|1:2,0:0:0:0:
252,286,34479,2,0,B|298:266|298:266|352:282,2,99.9999999999999,2|10|2,1:2|1:2|1:2,1:0:0:0:
128,372,35079,1,10,1:2:0:0:
33,255,35279,6,0,P|62:209|39:164,1,99.9999999999999,6|10,1:2|1:2,1:0:0:0:
7,103,35579,2,0,P|-7:57|20:18,1,99.9999999999999,2|8,1:2|1:3,1:0:0:0:
94,4,35879,1,10,1:2:0:0:
191,117,36079,2,0,B|230:108|230:108|262:121|262:121|301:110,1,99.9999999999999,2|10,1:2|1:2,1:0:0:0:
407,24,36479,2,0,B|431:30|431:30|463:17|463:17|502:26,1,99.9999999999999,2|10,1:2|1:2,1:0:0:0:
469,172,36879,102,0,L|494:325,2,150,2|2|10,1:2|1:2|1:2,1:0:0:0:
339,95,37679,2,0,B|305:125|305:125|325:192,1,99.9999999999999,2|10,1:2|1:2,1:0:0:0:
236,302,38079,2,0,B|270:332|270:332|250:399,1,99.9999999999999,2|10,1:2|1:2,1:0:0:0:
97,384,38479,6,0,P|69:356|87:302,1,99.9999999999999,14|10,2:0|2:0,0:0:0:0:
142,255,38779,2,0,P|160:211|130:174,1,99.9999999999999,2|0,1:2|1:2,2:0:0:0:
56,158,39079,1,10,2:0:0:0:
141,34,39279,2,0,B|197:24|197:24|196:27|196:27|251:15,1,99.9999999999999,10|10,2:0|2:0,2:0:0:0:
323,140,39679,2,0,B|283:131|283:131|284:134|284:134|228:124,1,99.9999999999999,10|10,2:0|2:0,0:0:0:0:
350,36,40079,102,0,P|393:14|441:35,1,99.9999999999999,10|10,2:0|2:0,2:0:0:0:
487,88,40379,1,2,1:2:0:0:
487,88,40479,2,0,P|473:139|468:200,1,99.9999999999999,8|10,2:0|2:0,0:0:0:0:
471,335,40879,5,10,2:0:0:0:
471,335,40979,2,0,P|417:304|371:332,1,99.9999999999999,8|8,2:0|2:0,0:0:0:0:
325,361,41279,2,0,P|277:371|239:341,1,99.9999999999999,10|10,2:0|2:0,0:0:0:0:
126,241,41679,86,0,B|96:269|96:269|111:326,2,99.9999999999999,14|10|10,1:2|1:2|1:2,1:0:0:0:
244,149,42279,1,10,1:2:0:0:
110,87,42479,102,0,B|82:57|82:57|107:-16,2,99.9999999999999,10|10|10,1:2|1:2|1:2,1:0:0:0:
196,209,43079,1,10,1:2:0:0:
296,97,43279,6,0,B|324:67|324:67|299:-6,2,99.9999999999999,10|10|10,1:2|1:2|1:2,1:0:0:0:
154,149,43879,1,10,1:2:0:0:
257,257,44079,102,0,B|299:247|299:247|324:253|324:253|368:237,1,99.9999999999999,10|10,1:2|1:2,0:0:0:0:
463,139,44479,2,0,B|421:129|421:129|396:135|396:135|352:119,1,99.9999999999999,10|10,1:2|1:2,0:0:0:0:
251,28,44879,6,0,B|285:3|285:3|363:25,2,99.9999999999999,14|10|10,1:2|1:2|1:2,1:0:0:0:
201,169,45479,1,10,1:2:0:0:
72,91,45679,102,0,B|43:136|43:136|67:186,1,99.9999999999999,10|10,1:2|1:2,1:0:0:0:
112,324,46079,1,10,1:2:0:0:
112,324,46179,2,0,B|165:318|165:318|162:323|162:323|206:318,1,99.9999999999999,8|4,1:3|1:3,0:0:0:0:
267,357,46479,1,10,1:2:0:0:
424,116,47279,6,0,P|486:85|465:18,2,150,10|10|10,1:2|1:2|1:2,1:0:0:0:
334,37,48079,86,0,B|278:5|233:50|233:50|204:136|127:95,1,240,6|10,1:2|2:0,2:0:0:0:
61,65,48879,2,0,P|43:102|63:145,1,79.9999999999999,2|8,2:0|2:0,2:0:0:0:
123,178,49279,2,0,P|141:215|121:258,1,79.9999999999999,0|8,0:0|2:0,0:0:0:0:
61,293,49679,37,4,1:3:0:0:
113,353,49879,2,0,P|71:376|27:360,2,79.9999999999999,10|2|10,2:0|1:2|2:0,2:0:0:0:
164,291,50479,1,2,2:0:0:0:
225,342,50679,2,0,P|267:329|307:351,1,79.9999999999999,10|2,2:0|2:0,2:0:0:0:
377,357,51079,1,10,2:0:0:0:
430,297,51279,70,0,B|476:314|476:314|460:386,2,120,2|2|8,1:2|2:0|2:0,2:0:0:0:
361,255,52079,1,0,0:0:0:0:
296,208,52279,2,0,P|282:167|301:137,1,79.9999999999999,8|0,2:0|0:0,0:0:0:0:
367,94,52679,2,0,L|451:122,1,79.9999999999999,8|0,2:0|1:2,2:0:0:0:
491,183,53079,2,0,P|508:219|488:263,1,79.9999999999999,8|0,2:0|1:2,2:0:0:0:
463,328,53479,2,0,B|418:355|386:317|405:299|361:261|320:299,1,160,8|8,2:0|2:0,0:0:0:0:
250,267,54079,1,0,0:0:0:0:
98,370,54479,38,0,B|35:343|35:343|59:277|59:277|62:279|62:279|83:227|83:227|44:205,1,240,6|10,1:2|2:0,2:0:0:0:
3,138,55279,2,0,B|-12:96|-12:96|10:59,1,79.9999999999999,2|8,2:0|2:0,2:0:0:0:
71,19,55679,2,0,L|151:33,1,79.9999999999999,0|8,0:0|2:0,0:0:0:0:
214,85,56079,69,4,1:3:0:0:
257,152,56279,2,0,P|217:170|174:152,2,79.9999999999999,10|2|10,2:0|1:2|2:0,2:0:0:0:
302,86,56879,1,2,1:2:0:0:
372,48,57079,2,0,P|412:29|454:44,1,79.9999999999999,10|2,2:0|2:0,2:0:0:0:
445,117,57479,1,10,2:0:0:0:
423,193,57679,38,0,B|485:223|485:223|545:195,2,120,2|2|8,1:2|2:0|2:0,2:0:0:0:
348,224,58479,2,0,B|298:223|298:223|254:271|254:271|207:259,1,160,0|0,1:0|0:0,0:0:0:0:
144,305,59079,1,10,2:0:0:0:
69,275,59279,70,0,P|51:237|74:202,1,79.9999999999999,2|8,1:2|2:0,2:0:0:0:
133,160,59679,2,0,P|149:125|131:91,1,79.9999999999999,0|8,1:2|2:0,0:0:0:0:
53,67,60079,2,0,L|223:46,1,160,0|0,1:2|0:0,0:0:0:0:
358,55,60879,38,0,B|390:78|432:69|451:28|451:28|496:29|544:65|534:125|476:143,1,269.999991760254,6|10,1:2|2:0,2:0:0:0:
429,182,61679,2,0,B|407:224|407:224|431:265,1,89.999997253418,2|8,2:0|2:0,2:0:0:0:
473,328,62079,2,0,L|383:349,1,89.999997253418,0|8,0:0|2:0,0:0:0:0:
316,304,62479,69,4,1:3:0:0:
239,277,62679,2,0,B|206:310|206:310|227:368,2,89.999997253418,10|2|10,2:0|1:2|2:0,2:0:0:0:
275,208,63279,1,2,2:0:0:0:
349,175,63479,2,0,P|372:133|348:96,1,89.999997253418,10|2,2:0|2:0,2:0:0:0:
273,84,63879,1,10,2:0:0:0:
207,35,64079,2,0,P|244:1|328:11,2,134.999995880127,2|2|8,1:2|2:0|2:0,2:0:0:0:
80,79,64979,37,0,1:2:0:0:
80,79,65079,2,0,P|55:115|76:157,1,89.999997253418,8|2,2:0|2:0,0:0:0:0:
139,198,65479,1,10,2:0:0:0:
118,276,65679,2,0,P|57:287|32:225,2,134.999995880127,2|2|10,1:2|2:0|2:0,2:0:0:0:
198,265,66479,2,0,L|196:355,2,89.999997253418,2|10|2,2:0|2:0|2:0,0:0:0:0:
242,197,67079,1,8,2:0:0:0:
298,255,67279,70,0,B|345:314|442:305|473:230|416:157|358:194,1,269.999991760254,6|10,1:2|2:0,2:0:0:0:
311,127,68079,2,0,B|244:73|193:145|193:145|178:237|87:202,1,269.999991760254,2|10,2:0|2:0,2:0:0:0:
42,149,68779,1,2,2:0:0:0:
42,149,68879,38,0,B|3:124|3:124|31:31,2,134.999995880127,6|2|10,1:3|2:0|2:0,2:0:0:0:
101,206,69679,2,0,B|140:231|140:231|112:324,2,134.999995880127,2|2|10,2:0|1:2|2:0,2:0:0:0:
146,127,70479,54,0,B|193:113|193:113|239:134,1,89.999997253418,14|0,3:2|3:2,3:0:0:0:
265,213,70879,2,0,B|302:230|302:230|349:216,1,89.999997253418,8|0,3:2|3:2,3:0:0:0:
423,165,71279,2,0,B|478:198|478:198|455:313,1,179.999994506836,8|8,3:2|3:2,3:0:0:0:
396,379,71879,1,2,3:2:0:0:
328,319,72079,70,0,P|290:296|246:312,1,89.999997253418,8|0,3:2|3:2,3:0:0:0:
172,356,72479,2,0,P|130:368|93:346,1,89.999997253418,8|0,3:2|3:2,3:0:0:0:
31,280,72879,2,0,B|78:235|37:183|24:214|-18:155|33:105,1,179.999994506836,8|8,3:2|3:2,3:0:0:0:
174,24,73679,38,0,L|266:41,1,89.999997253418,14|0,3:2|3:2,3:0:0:0:
245,129,74079,2,0,L|337:112,1,89.999997253418,8|0,3:2|3:2,3:0:0:0:
389,41,74479,2,0,L|362:238,1,179.999994506836,8|8,3:2|3:2,3:0:0:0:
288,266,75079,1,2,3:2:0:0:
334,343,75279,70,0,P|372:367|422:342,1,89.999997253418,8|0,3:2|3:2,3:0:0:0:
482,297,75679,2,0,P|485:248|499:189,1,89.999997253418,8|0,3:2|3:2,3:0:0:0:
502,118,76079,1,8,3:2:0:0:
502,118,76179,2,0,L|452:127,1,44.999998626709,8|8,3:2|3:0,0:0:0:0:
396,78,76379,1,8,3:0:0:0:
396,78,76479,2,0,L|292:62,1,89.999997253418,8|4,3:2|3:0,0:0:0:0:
241,104,76779,1,4,3:0:0:0:
241,104,76879,1,0,1:2:0:0:
255,30,88079,54,0,P|289:72|272:119,1,99.9999999999999,8|0,2:0|1:2,2:0:0:0:
209,185,88479,2,0,P|179:229|195:276,1,99.9999999999999,8|0,2:0|1:2,2:0:0:0:
260,343,88879,2,0,P|312:336|369:328,1,99.9999999999999,8|0,2:0|1:2,2:0:0:0:
446,281,89279,1,8,2:0:0:0:
446,281,89379,2,0,B|451:222|451:222|452:223|453:223|456:177,1,99.9999999999999,8|4,2:0|2:3,0:0:0:0:
418,116,89679,1,0,1:2:0:0:
73,71,96079,38,0,L|66:21,2,44.999998626709,14|10|10,2:0|2:0|2:0,0:0:0:0:
124,210,96579,2,0,L|117:260,2,44.999998626709,10|10|10,2:0|2:0|2:0,0:0:0:0:
205,125,96979,1,8,2:0:0:0:
205,125,97079,2,0,P|248:112|303:131,1,89.999997253418,8|8,2:0|2:3,0:0:0:0:
326,190,97379,2,0,P|369:203|424:184,1,89.999997253418,4|4,2:3|2:3,0:0:0:0:
460,133,97679,70,0,L|516:147,2,44.999998626709,14|10|10,2:0|2:0|2:0,0:0:0:0:
345,60,98179,2,0,L|289:74,2,44.999998626709,10|10|10,2:0|2:0|2:0,0:0:0:0:
460,29,98579,1,0,1:2:0:0:
460,29,98679,2,0,B|481:74|481:74|468:125,1,89.999997253418,12|0,2:0|1:2,0:0:0:0:
416,167,98979,2,0,B|395:212|395:212|408:263,1,89.999997253418,8|0,2:0|1:2,0:0:0:0:
442,318,99279,38,0,L|433:376,2,44.999998626709,14|10|10,2:0|2:0|2:0,0:0:0:0:
313,276,99779,2,0,L|306:231,2,44.999998626709,10|10|10,2:0|2:0|2:0,0:0:0:0:
243,370,100179,1,0,1:2:0:0:
243,370,100279,2,0,P|195:383|153:345,1,89.999997253418,8|0,2:3|1:2,0:0:0:0:
63,284,100679,69,14,2:0:0:0:
63,284,100779,1,10,2:0:0:0:
63,284,100879,38,0,L|46:345,2,59.9999981689453,10|10|10,2:0|2:0|2:0,0:0:0:0:
97,131,101412,2,0,P|65:120|32:131,2,59.9999981689453,10|10|14,2:0|2:0|2:0,0:0:0:0:
149,59,103279,38,0,L|160:117,1,44.999998626709,8|8,2:0|2:0,0:0:0:0:
99,154,103479,2,0,L|107:198,1,44.999998626709,8|8,2:0|2:0,0:0:0:0:
174,234,103679,2,0,B|205:222|205:222|237:230|237:230|271:216,1,89.999997253418,8|8,2:0|2:0,0:0:0:0:
308,162,103979,1,8,2:0:0:0:
308,162,104079,70,0,B|344:180|344:180|332:260,1,110.000003356934,6|10,1:2|1:2,1:0:0:0:
238,358,104479,2,0,B|186:382|186:382|129:360,1,110.000003356934,2|10,1:2|1:2,0:0:0:0:
39,259,104879,2,0,L|23:392,2,110.000003356934,2|10|2,1:2|1:2|1:2,1:0:0:0:
39,104,105479,1,10,1:2:0:0:
187,143,105679,6,0,B|134:113|96:147|119:171|79:206|24:177,2,165.0000050354,2|2|10,1:2|1:2|1:2,1:0:0:0:
304,228,106479,2,0,P|348:248|408:210,1,110.000003356934,2|8,1:2|1:2,1:0:0:0:
455,168,106779,1,0,1:2:0:0:
455,168,106879,2,0,B|480:108|480:108|445:55,1,110.000003356934,2|8,1:2|1:2,1:0:0:0:
299,25,107279,70,0,B|342:0|376:43|376:43|391:-7|450:-8,2,165.0000050354,6|2|10,1:2|1:2|1:2,1:0:0:0:
164,100,108079,2,0,B|121:75|87:118|87:118|72:68|13:67,2,165.0000050354,2|2|10,1:2|1:2|1:2,1:0:0:0:
285,195,108879,22,0,L|266:326,1,110.000003356934,2|8,1:2|1:2,1:0:0:0:
218,361,109179,1,0,1:2:0:0:
218,361,109279,2,0,P|167:372|111:320,1,110.000003356934,10|8,1:2|1:3,0:0:0:0:
32,215,109679,1,14,1:2:0:0:
297,58,110079,5,10,1:2:0:0:
297,58,110179,2,0,L|352:46,1,55.0000016784668,10|10,1:2|1:2,0:0:0:0:
424,25,110379,1,10,1:2:0:0:
424,25,110479,70,0,P|461:66|442:117,1,110.000003356934,6|10,1:2|1:2,1:0:0:0:
301,168,110879,2,0,P|264:209|283:260,1,110.000003356934,2|10,1:2|1:2,0:0:0:0:
410,337,111279,2,0,B|464:316|464:316|523:337,2,110.000003356934,2|10|2,1:2|1:2|1:2,1:0:0:0:
261,382,111879,1,10,1:2:0:0:
133,296,112079,22,0,B|167:257|208:283|208:283|239:326|295:299,2,165.0000050354,2|2|10,1:2|1:2|1:2,1:0:0:0:
5,383,112879,2,0,L|-11:273,1,110.000003356934,2|8,1:2|1:2,1:0:0:0:
11,199,113179,1,0,1:2:0:0:
11,199,113279,2,0,B|56:167|56:167|118:178,1,110.000003356934,2|8,1:2|1:2,1:0:0:0:
229,80,113679,6,0,B|172:64|172:64|120:100|120:100|54:88,2,165.0000050354,6|2|10,1:2|1:2|1:2,1:0:0:0:
343,183,114479,2,0,B|400:167|400:167|452:203|452:203|518:191,2,165.0000050354,2|2|10,1:2|1:2|1:2,1:0:0:0:
130,273,115379,69,10,1:2:0:0:
130,273,115479,2,0,L|187:285,1,55.0000016784668,10|0,1:2|1:2,0:0:0:0:
227,354,115679,1,10,1:2:0:0:
227,354,115779,2,0,L|284:342,1,55.0000016784668,10|0,1:2|1:2,0:0:0:0:
323,277,115979,1,10,1:2:0:0:
476,247,116179,21,8,1:2:0:0:
476,247,116279,2,0,B|482:279|482:279|468:310,2,55.0000016784668,8|8|8,1:2|1:3|1:3,0:0:0:0:
449,156,116579,2,0,B|481:150|481:150|502:159,2,55.0000016784668,4|4|4,1:3|1:3|1:3,0:0:0:0:
389,106,116879,6,0,B|336:83|336:83|279:124|279:124|214:101,1,179.999994506836,14|8,3:2|3:2,3:0:0:0:
113,6,117479,2,0,P|95:26|90:58,1,44.999998626709,2|2,3:2|3:2,0:0:0:0:
128,108,117679,2,0,P|85:82|29:176,1,179.999994506836,10|8,3:2|3:2,3:0:0:0:
21,320,118279,2,0,P|48:310|76:310,1,44.999998626709,0|0,3:2|3:2,0:0:0:0:
120,362,118479,70,0,B|173:394|208:346|184:326|228:276|282:321,2,179.999994506836,10|10|8,3:2|3:2|3:2,3:0:0:0:
50,224,119479,1,2,3:2:0:0:
50,224,119579,2,0,L|106:211,1,44.999998626709,2|10,3:2|3:2,0:0:0:0:
135,149,119779,2,0,L|191:162,2,44.999998626709,2|2|2,3:2|3:2|3:2,0:0:0:0:
70,107,120079,22,0,B|92:60|60:18|60:18|93:60|151:49,1,179.999994506836,14|8,3:2|3:2,3:0:0:0:
282,10,120679,2,0,L|337:20,1,44.999998626709,2|2,3:2|3:2,0:0:0:0:
401,34,120879,2,0,B|385:97|385:97|417:139|417:139|397:215,1,179.999994506836,10|8,3:2|3:2,3:0:0:0:
476,333,121479,2,0,P|446:313|422:315,1,44.999998626709,2|2,3:2|3:2,0:0:0:0:
371,272,121679,6,0,B|332:298|332:298|357:382,2,134.999995880127,10|14|14,3:2|3:2|3:2,0:0:0:0:
130,84,122679,1,0,3:2:0:0:
130,84,122779,2,0,L|138:133,1,44.999998626709,0|8,3:2|3:2,0:0:0:0:
89,188,122979,2,0,P|63:195|39:187,2,44.999998626709,8|4|4,3:0|3:0|3:0,0:0:0:0:
166,223,123279,70,0,B|210:205|210:205|265:222,1,89.999997253418,14|8,1:2|1:2,1:0:0:0:
300,293,123679,2,0,B|344:311|344:311|399:294,1,89.999997253418,8|10,1:2|1:2,0:0:0:0:
424,275,123979,1,2,1:2:0:0:
424,275,124079,2,0,P|442:236|422:191,1,89.999997253418,10|8,1:2|1:2,1:0:0:0:
338,170,124479,2,0,P|320:131|340:86,1,89.999997253418,8|10,1:2|1:2,0:0:0:0:
362,54,124779,1,2,1:2:0:0:
362,54,124879,22,0,L|263:44,1,89.999997253418,10|8,1:2|1:2,1:0:0:0:
189,8,125279,1,10,1:2:0:0:
111,54,125479,1,8,1:2:0:0:
144,137,125679,6,0,B|181:116|181:116|240:124,2,89.999997253418,10|8|10,1:2|1:2|1:2,1:0:0:0:
79,200,126279,1,8,1:2:0:0:
127,277,126479,1,6,1:2:0:0:
495,29,129179,69,0,1:2:0:0:
495,29,129279,2,0,B|454:9|426:39|426:39|405:90|352:70,1,150,8|0,2:0|0:0,0:0:0:0:
295,49,129679,22,0,L|304:-1,2,44.999998626709,10|10|10,2:0|2:0|2:0,0:0:0:0:
225,106,130079,2,0,L|234:156,2,44.999998626709,10|10|10,2:0|2:0|2:0,0:0:0:0:
190,76,130379,1,10,2:0:0:0:
116,127,130579,2,0,L|65:112,2,44.999998626709,10|10|10,2:0|2:0|2:0,0:0:0:0:
134,215,130979,2,0,L|185:200,2,44.999998626709,10|10|10,2:0|2:0|2:0,0:0:0:0:
112,254,131279,6,0,L|62:266,2,44.999998626709,10|10|10,2:0|2:0|2:0,0:0:0:0:
164,327,131679,2,0,L|214:339,2,44.999998626709,10|10|10,2:0|2:0|2:0,0:0:0:0:
124,357,131979,1,4,1:2:0:0:
437,375,132879,102,0,P|467:334|440:290,1,99.9999999999999,6|10,1:2|1:2,1:0:0:0:
383,255,133179,2,0,P|363:211|393:174,1,99.9999999999999,2|8,1:2|1:3,1:0:0:0:
457,135,133479,1,10,1:2:0:0:
345,34,133679,2,0,B|302:29|302:29|278:40|278:40|239:32,1,99.9999999999999,2|10,1:2|1:2,1:0:0:0:
131,127,134079,2,0,B|174:121|174:121|198:132|198:132|237:124,1,99.9999999999999,2|10,1:2|1:2,1:0:0:0:
305,254,134479,6,0,B|353:212|353:212|326:121,2,150,2|2|10,1:2|1:2|1:2,1:0:0:0:
191,351,135279,2,0,P|148:376|99:342,1,99.9999999999999,2|10,1:2|1:2,1:0:0:0:
0,256,135679,2,0,P|19:297|27:358,1,99.9999999999999,2|10,1:2|1:2,1:0:0:0:
144,257,136079,102,0,B|163:202|163:202|141:159,1,99.9999999999999,2|10,1:2|1:2,1:0:0:0:
109,98,136379,2,0,L|215:72,1,99.9999999999999,2|8,1:2|1:3,1:0:0:0:
255,17,136679,1,10,1:2:0:0:
377,104,136879,2,0,B|413:80|413:80|480:99,1,99.9999999999999,2|10,1:2|1:2,1:0:0:0:
497,242,137279,2,0,B|461:266|461:266|394:247,1,99.9999999999999,2|10,1:2|1:2,1:0:0:0:
269,189,137679,6,0,B|221:219|221:219|256:313,2,150,2|14|10,1:2|1:3|1:2,0:0:0:0:
389,99,138479,2,0,P|398:41|354:13,2,99.9999999999999,2|10|2,1:2|1:2|1:2,1:0:0:0:
499,201,139079,1,10,1:2:0:0:
423,330,139279,102,0,P|382:303|331:325,1,99.9999999999999,6|10,1:2|1:2,1:0:0:0:
268,349,139579,2,0,P|227:376|176:354,1,99.9999999999999,2|8,1:2|1:3,1:0:0:0:
135,300,139879,1,10,1:2:0:0:
11,214,140079,2,0,B|-19:255|-19:255|7:304,1,99.9999999999999,2|10,1:2|1:2,1:0:0:0:
123,208,140479,2,0,B|153:167|153:167|127:118,1,99.9999999999999,2|10,1:2|1:2,1:0:0:0:
28,11,140879,6,0,B|-22:48|-22:48|3:133,2,150,2|2|10,1:2|1:2|1:2,1:0:0:0:
129,123,141679,2,0,B|165:126|165:126|196:104|196:104|237:107,1,99.9999999999999,2|10,1:2|1:2,1:0:0:0:
338,10,142079,2,0,B|374:7|374:7|405:29|405:29|446:26,1,99.9999999999999,2|10,1:2|1:2,1:0:0:0:
337,145,142479,102,0,L|329:254,1,99.9999999999999,14|10,1:2|1:2,0:0:0:0:
295,311,142779,2,0,P|349:342|391:316,1,99.9999999999999,2|0,1:2|1:2,1:0:0:0:
440,285,143079,1,10,1:2:0:0:
504,149,143279,2,0,P|528:104|498:61,1,99.9999999999999,10|10,1:2|1:2,1:0:0:0:
364,13,143679,2,0,P|340:58|370:101,1,99.9999999999999,10|10,1:2|1:2,0:0:0:0:
254,201,144079,6,0,B|305:229|305:229|409:190,2,150,10|2|10,1:2|1:2|1:2,1:0:0:0:
167,77,144879,1,10,1:2:0:0:
167,77,144979,2,0,L|109:93,1,50,8|8,1:3|1:3,0:0:0:0:
50,120,145179,1,8,1:3:0:0:
50,120,145279,2,0,B|21:168|21:168|45:215,1,99.9999999999999,4|12,1:3|1:2,0:0:0:0:
102,310,145679,21,6,1:2:0:0:
102,310,147079,1,4,1:2:0:0:
186,279,147279,1,6,1:2:0:0:
186,279,148679,1,4,1:2:0:0:
160,192,148879,1,6,1:2:0:0:
163,194,149679,5,10,2:0:0:0:
163,194,149779,2,0,L|254:179,1,89.999997253418,4|4,2:3|2:3,0:0:0:0:
304,124,150079,1,10,2:0:0:0:
304,124,150179,2,0,L|395:139,1,89.999997253418,4|4,2:3|2:3,0:0:0:0:
456,181,150479,1,6,1:2:0:0:
456,181,151279,102,0,L|465:110,2,59.9999981689453,10|8|4,2:3|2:3|2:3,0:0:0:0:
404,256,151679,2,0,L|413:327,2,59.9999981689453,4|4|4,2:3|2:3|2:3,0:0:0:0:
345,183,152079,1,6,1:2:0:0:
345,183,153479,5,4,1:2:0:0:
258,207,153679,1,6,1:2:0:0:
258,207,155079,1,4,1:2:0:0:
232,124,155279,1,6,1:2:0:0:
232,124,156202,101,2,1:2:0:0:
232,124,156747,1,10,2:0:0:0:
39,35,157547,1,6,1:2:0:0:
256,192,157709,12,0,160628,0:0:0:0:
57,363,164033,6,0,B|27:324|27:324|49:268,3,99.9999999999999,0|0|0|0,3:2|0:0|0:0|0:0,0:0:0:0:
154,96,165330,86,0,B|195:58|234:95|217:117|246:144|307:119,1,150.000005722046,14|8,1:2|1:2,0:0:0:0:
362,78,165817,1,8,1:2:0:0:
362,78,165979,2,0,P|382:118|371:147,1,75.000002861023,10|8,1:2|1:2,0:0:0:0:
308,207,166303,2,0,P|288:247|299:276,1,75.000002861023,8|8,1:2|1:2,0:0:0:0:
365,332,166628,38,0,B|315:314|315:314|273:346|273:346|229:328,1,150.000005722046,10|8,1:2|1:2,0:0:0:0:
147,359,167114,1,8,1:2:0:0:
147,359,167276,2,0,B|194:332|194:332|165:237,1,150.000005722046,10|8,1:2|1:2,0:0:0:0:
40,111,167925,70,0,P|62:43|143:63,1,150.000005722046,14|8,1:2|1:2,0:0:0:0:
179,128,168411,1,8,1:2:0:0:
179,128,168574,2,0,P|220:147|254:129,1,75.000002861023,10|8,1:2|1:2,0:0:0:0:
312,76,168898,2,0,P|353:57|387:75,1,75.000002861023,8|8,1:2|1:2,0:0:0:0:
468,60,169222,38,0,P|449:126|430:222,1,150.000005722046,10|8,1:2|1:2,0:0:0:0:
479,282,169709,1,8,1:2:0:0:
423,353,169871,2,0,L|374:363,3,37.5000014305115,10|0|8|8,1:2|1:2|1:2|1:2,0:0:0:0:
346,338,170195,2,0,L|297:328,3,37.5000014305115,0|8|8|8,1:2|1:2|1:2|1:2,0:0:0:0:
267,347,170519,70,0,B|230:316|196:341|196:341|167:382|114:355,1,150.000005722046,14|8,1:2|1:2,0:0:0:0:
55,315,171006,1,8,1:2:0:0:
55,315,171168,2,0,B|32:279|32:279|48:239,1,75.000002861023,10|8,1:2|1:2,0:0:0:0:
121,202,171492,2,0,B|144:166|144:166|128:126,1,75.000002861023,8|8,1:2|1:2,0:0:0:0:
133,46,171817,38,0,B|168:11|213:44|197:62|235:94|283:63,1,150.000005722046,10|8,1:2|1:2,0:0:0:0:
325,4,172303,1,8,1:2:0:0:
325,4,172465,2,0,P|305:74|298:163,1,150.000005722046,10|8,1:2|1:2,0:0:0:0:
121,203,173114,70,0,P|62:220|69:315,1,150.000005722046,14|8,1:2|1:2,0:0:0:0:
115,365,173601,1,8,1:2:0:0:
115,365,173763,2,0,P|164:357|219:353,1,75.000002861023,10|8,1:2|1:2,0:0:0:0:
261,300,174087,2,0,P|310:308|365:312,1,75.000002861023,8|8,1:2|1:2,0:0:0:0:
421,336,174411,38,0,B|448:300|427:261|409:276|390:239|413:192,1,150.000005722046,10|8,1:2|1:2,0:0:0:0:
479,137,174898,1,8,1:2:0:0:
423,66,175060,2,0,L|380:55,3,37.5000014305115,10|8|4|4,1:2|1:2|1:3|1:3,0:0:0:0:
347,34,175384,2,0,L|304:45,3,37.5000014305115,8|8|4|4,1:2|1:2|1:3|1:3,0:0:0:0:
284,80,175709,70,0,L|119:55,1,150.000005722046,14|8,1:2|1:2,0:0:0:0:
52,23,176195,1,8,1:2:0:0:
52,23,176357,2,0,P|27:57|36:92,1,75.000002861023,10|8,1:2|1:2,0:0:0:0:
102,144,176682,2,0,P|127:178|118:213,1,75.000002861023,8|8,1:2|1:2,0:0:0:0:
83,289,177006,38,0,P|119:235|198:259,1,150.000005722046,10|8,1:2|1:2,0:0:0:0:
225,335,177492,1,8,1:2:0:0:
225,335,177655,2,0,B|257:301|296:324|296:324|322:369|376:348,1,150.000005722046,10|8,1:2|1:2,0:0:0:0:
266,197,178303,70,0,B|218:160|218:160|250:63,1,150.000005722046,14|8,1:2|1:2,0:0:0:0:
321,24,178790,1,8,1:2:0:0:
321,24,178952,2,0,P|363:13|396:34,1,75.000002861023,10|8,1:2|1:2,0:0:0:0:
475,51,179276,2,0,P|459:94|451:127,1,75.000002861023,8|8,1:2|1:2,0:0:0:0:
491,203,179601,38,0,B|441:195|441:195|398:226|398:226|346:214,1,150.000005722046,10|8,1:2|1:2,0:0:0:0:
267,187,180087,1,8,1:2:0:0:
209,256,180249,2,0,L|221:299,3,37.5000014305115,10|8|8|8,1:3|1:3|1:3|1:3,0:0:0:0:
251,323,180574,2,0,L|239:366,3,37.5000014305115,4|4|4|4,1:3|1:3|1:3|1:3,0:0:0:0:
196,368,180898,70,0,B|131:351|131:351|91:390|28:360,1,150.000005722046,14|8,1:2|1:2,0:0:0:0:
64,280,181384,1,8,1:2:0:0:
64,280,181546,2,0,P|81:243|61:208,1,75.000002861023,10|8,1:2|1:2,0:0:0:0:
3,150,181871,2,0,P|-14:113|6:78,1,75.000002861023,8|8,1:2|1:2,0:0:0:0:
78,41,182195,38,0,B|118:75|118:75|214:44,1,150.000005722046,10|8,1:2|1:2,0:0:0:0:
300,19,182682,1,8,1:2:0:0:
300,19,182844,2,0,L|274:175,1,150.000005722046,10|8,1:2|1:2,0:0:0:0:
140,285,183492,70,0,B|176:262|217:280|217:280|233:329|303:316,1,150.000005722046,14|8,1:2|1:2,0:0:0:0:
346,365,183979,1,8,1:2:0:0:
346,365,184141,2,0,P|369:330|359:296,1,75.000002861023,10|8,1:2|1:2,0:0:0:0:
292,242,184465,2,0,P|304:199|312:164,1,75.000002861023,8|8,1:2|1:2,0:0:0:0:
388,122,184790,38,0,L|384:76,4,37.5000014305115,8|8|8|8|4,2:0|2:0|2:0|2:0|2:3,0:0:0:0:
451,186,185276,2,0,L|447:232,4,37.5000014305115,8|8|8|8|4,2:0|2:0|2:0|2:0|2:3,0:0:0:0:
502,111,185763,2,0,L|496:63,3,37.5000014305115,8|8|8|8,2:0|2:0|2:0|2:0,0:0:0:0:
512,133,186087,1,0,1:2:0:0:
56,36,188519,101,0,0:0:0:0:
56,36,188601,1,0,0:0:0:0:
56,36,188682,2,0,L|65:90,1,40,0|0,2:0|0:0,0:0:0:0:
140,63,189006,2,0,L|134:24,1,40,8|8,2:0|2:0,0:0:0:0:
68,161,189330,102,0,L|79:226,1,50,8|8,2:0|2:0,0:0:0:0:
173,190,189655,2,0,L|162:125,1,50,8|8,2:0|2:0,0:0:0:0:
74,299,189979,6,0,L|88:373,1,59.9999981689453,8|8,2:0|2:0,0:0:0:0:
224,327,190303,2,0,L|208:265,1,59.9999981689453,8|8,2:0|2:0,0:0:0:0:
323,232,190628,102,0,B|342:222|342:222|348:231|348:231|363:225|363:225|372:234|372:234|387:228|387:228|394:236|394:236|413:229|413:229|422:242|422:242|437:233|437:233|446:241|446:241,1,150.000005722046,8|0,3:2|3:2,2:0:0:0:
414,62,191276,6,0,L|454:51,3,25.0000009536743,4|0|0|0,1:2|1:0|1:0|1:0,0:0:0:0:
353,129,191601,2,0,L|313:118,3,25.0000009536743,0|0|0|0,1:2|1:2|1:2|1:2,0:0:0:0:
446,186,191925,102,0,L|541:174,2,75.000002861023,8|0|0,2:0|1:2|1:2,0:0:0:0:
390,256,192411,1,0,1:2:0:0:
139,358,192898,5,0,1:2:0:0:
139,358,193060,1,0,1:2:0:0:
62,311,193222,2,0,B|21:277|21:277|47:173,1,150.000005722046,8|0,2:0|2:0,2:0:0:0:
109,120,193709,101,0,1:2:0:0:
109,120,193790,1,0,1:2:0:0:
109,120,193871,2,0,B|136:102|166:110|178:135|183:145|169:138|175:148|184:172|211:187|243:167,1,150.000005722046,0|0,1:2|1:2,0:0:0:0:
299,116,194357,6,0,L|302:90,3,25.0000009536743,0|0|0|8,1:2|1:2|1:2|2:0,0:0:0:0:
430,43,194763,101,0,1:2:0:0:
430,43,194844,2,0,B|389:77|389:77|414:182,1,150.000005722046,0|0,1:2|2:0,2:0:0:0:
475,234,195330,2,0,P|502:198|484:154,2,75.000002861023,0|0|0,1:2|1:2|1:2,0:0:0:0:
419,305,195817,2,0,P|379:286|340:285,1,75.000002861023,8|0,2:0|0:0,2:0:0:0:
259,300,196141,2,0,L|268:346,3,37.5000014305115,0|0|0|0,1:2|1:2|1:2|1:2,0:0:0:0:
242,287,196465,1,0,0:0:0:0:
39,107,196952,6,0,L|8:100,3,25.0000009536743,0|0|0|8,1:2|1:2|1:2|2:0,0:0:0:0:
125,243,197438,2,0,L|156:236,3,25.0000009536743,0|0|0|0,1:2|1:2|1:2|1:2,0:0:0:0:
239,84,197925,101,0,1:2:0:0:
239,84,198006,1,0,1:2:0:0:
239,84,198087,2,0,P|260:42|249:15,2,75.000002861023,0|0|8,1:2|1:2|2:0,0:0:0:0:
195,163,198574,2,0,P|150:153|119:144,2,75.000002861023,0|0|0,1:2|1:2|1:2,0:0:0:0:
350,253,199222,6,0,L|337:220,3,25.0000009536743,0|0|0|0,1:2|1:2|1:2|1:2,0:0:0:0:
402,323,199546,2,0,L|389:356,3,25.0000009536743,0|0|0|8,1:2|1:2|1:2|2:0,0:0:0:0:
477,202,200033,102,0,L|461:147,3,37.5000014305115,0|0|0|0,1:2|1:2|1:2|1:2,0:0:0:0:
502,139,200357,2,0,L|514:53,1,75.000002861023,0|0,0:0|1:2,0:0:0:0:
424,18,200682,6,0,L|458:9,3,25.0000009536743,0|0|0|0,1:2|1:2|1:2|1:2,2:0:0:0:
398,88,201006,102,0,P|358:103|321:80,1,75.000002861023,14|0,1:2|1:2,0:0:0:0:
301,62,201249,1,0,1:2:0:0:
301,62,201330,2,0,P|261:47|224:70,1,75.000002861023,14|0,1:2|1:2,0:0:0:0:
144,42,201655,6,0,L|137:10,3,25.0000009536743,4|0|0|0,1:2|1:2|1:2|1:2,2:0:0:0:
60,98,201979,2,0,L|53:130,3,25.0000009536743,0|0|0|0,1:2|1:2|1:2|1:2,0:0:0:0:
141,193,202303,102,0,L|160:274,2,75.000002861023,0|0|0,1:2|1:2|1:2,0:0:0:0:
57,268,202790,1,0,1:2:0:0:
57,268,202952,1,8,2:0:0:0:
282,309,203276,5,0,1:2:0:0:
282,309,203438,1,0,1:2:0:0:
349,369,203601,2,0,P|393:319|370:238,1,150.000005722046,0|0,0:0|2:0,0:0:0:0:
337,172,204087,101,0,1:2:0:0:
337,172,204168,1,0,1:2:0:0:
337,172,204249,2,0,B|310:154|280:162|268:187|263:197|277:190|271:200|262:224|235:239|203:219,1,150.000005722046,0|0,1:2|1:2,0:0:0:0:
158,155,204736,6,0,L|151:124,3,25.0000009536743,0|0|0|0,1:2|1:2|1:2|1:2,0:0:0:0:
43,60,205141,101,0,1:2:0:0:
43,60,205222,2,0,P|35:100|26:140,1,75.000002861023,0|0,1:2|0:0,2:0:0:0:
5,220,205546,1,8,2:0:0:0:
69,283,205709,2,0,P|104:256|108:227,2,75.000002861023,0|0|0,1:2|1:2|1:2,0:0:0:0:
20,358,206195,2,0,L|112:375,1,75.000002861023,0|0,1:2|0:0,0:0:0:0:
175,327,206519,2,0,L|218:316,3,37.5000014305115,0|0|0|0,1:2|1:2|1:2|1:2,0:0:0:0:
157,316,206844,1,0,0:0:0:0:
426,329,207330,6,0,L|434:354,3,25.0000009536743,0|0|0|0,1:2|1:2|1:2|1:2,0:0:0:0:
323,210,207817,2,0,L|315:185,3,25.0000009536743,0|0|0|0,1:2|1:2|1:2|1:2,0:0:0:0:
397,149,208141,101,8,2:0:0:0:
352,82,208303,1,0,1:2:0:0:
352,82,208384,1,0,1:2:0:0:
352,82,208465,2,0,P|386:65|428:79,2,75.000002861023,0|0|0,1:2|1:2|1:2,0:0:0:0:
262,94,208952,2,0,L|250:15,2,75.000002861023,0|0|0,1:2|1:2|1:2,0:0:0:0:
84,63,209601,6,0,L|57:49,3,25.0000009536743,0|0|0|0,1:2|1:2|1:2|1:2,2:0:0:0:
143,128,209925,2,0,L|170:114,3,25.0000009536743,0|0|0|0,1:2|1:2|1:2|1:2,0:0:0:0:
50,255,210411,101,0,1:2:0:0:
48,266,210492,1,0,1:2:0:0:
46,277,210574,1,0,1:2:0:0:
45,288,210655,1,0,1:2:0:0:
42,298,210736,6,0,L|96:313,3,37.5000014305115,8|8|8|8,2:0|2:0|1:3|1:3,2:0:0:0:
113,296,211060,2,0,L|167:281,3,37.5000014305115,8|8|8|8,1:3|1:3|0:0|0:0,0:0:0:0:
185,296,211384,2,0,L|239:281,3,37.5000014305115,4|4|4|4,1:3|1:3|1:3|1:3,0:0:0:0:
261,245,211709,2,0,L|351:263,1,75.000002861023,8|8,0:0|0:0,0:0:0:0:
443,288,212033,101,6,1:2:0:0:
443,288,213168,1,0,1:2:0:0:
394,212,213330,1,6,1:2:0:0:
25,374,213817,5,0,1:2:0:0:
25,374,213898,1,0,1:2:0:0:
25,374,213979,2,0,L|34:280,1,75.000002861023,8|8,2:0|2:0,2:0:0:0:
101,241,214303,2,0,L|90:148,1,75.000002861023,8|8,2:0|2:0,2:0:0:0:
31,99,214628,1,4,1:2:0:0:
31,99,215763,101,0,1:2:0:0:
31,99,215925,2,0,P|-8:137|13:194,2,112.500004291534,4|0|0,1:2|1:2|1:2,2:0:0:0:
119,79,216574,2,0,L|168:67,3,37.5000014305115,8|8|8|8,2:0|2:0|2:0|2:0,0:0:0:0:
198,56,216898,2,0,L|247:68,3,37.5000014305115,8|8|4|4,2:3|2:3|2:3|2:3,0:0:0:0:
276,81,217222,5,4,1:2:0:0:
276,81,218357,1,0,1:2:0:0:
361,52,218519,1,4,1:2:0:0:
489,283,219006,101,0,1:2:0:0:
489,283,219087,1,0,1:2:0:0:
489,283,219168,2,0,P|452:301|409:284,1,75.000002861023,8|8,2:0|2:0,2:0:0:0:
349,237,219492,2,0,P|312:229|280:247,1,75.000002861023,8|8,2:0|2:0,2:0:0:0:
218,313,219817,5,4,1:2:0:0:
218,313,220952,1,0,1:2:0:0:
218,313,221114,2,0,B|165:271|112:314|112:314|77:383|3:340,1,225.000008583069,4|0,1:2|2:0,2:0:0:0:
0,269,221763,2,0,P|10:161|24:25,1,225.000008583069,4|0,1:2|2:0,2:0:0:0:
102,4,222411,101,6,1:2:0:0:
256,192,222574,12,0,224682,0:0:0:0:
256,192,225006,12,6,227883,3:2:0:0:
31,127,243183,6,0,B|81:144|99:95|99:95|148:64|191:116,1,179.999994506836,0|0,0:0|1:2,0:0:0:0:
240,160,243683,2,0,L|285:152,2,44.999998626709,8|8|8,2:0|2:0|1:3,0:0:0:0:
192,220,243983,2,0,L|147:228,2,44.999998626709,8|8|4,2:0|2:0|1:3,0:0:0:0:
244,275,244283,101,8,2:0:0:0:
244,275,244383,2,0,L|304:265,1,44.999998626709,8|4,2:0|1:3,0:0:0:0:
344,327,244583,1,8,2:0:0:0:
344,327,244683,2,0,L|445:307,1,89.999997253418,14|0,2:0|0:0,2:0:0:0:
491,32,245183,70,0,B|445:15|417:53|417:53|386:7|339:18|296:54|318:125|377:112,1,269.999991760254,6|10,1:2|2:0,2:0:0:0:
424,165,245983,2,0,P|442:198|422:248,1,89.999997253418,2|8,2:0|2:0,2:0:0:0:
369,303,246383,2,0,P|331:276|288:282,1,89.999997253418,0|8,0:0|2:0,0:0:0:0:
225,331,246783,69,4,1:3:0:0:
153,292,246983,2,0,L|65:317,2,89.999997253418,10|2|10,2:0|1:2|2:0,2:0:0:0:
196,223,247583,1,2,2:0:0:0:
268,185,247783,2,0,P|295:147|268:107,1,89.999997253418,10|2,2:0|2:0,2:0:0:0:
195,112,248183,1,10,2:0:0:0:
138,53,248383,2,0,B|102:46|102:46|61:78|61:78|15:68,2,134.999995880127,2|2|8,1:2|2:0|2:0,2:0:0:0:
251,15,249283,37,0,1:2:0:0:
251,15,249383,2,0,B|297:6|297:6|339:32,1,89.999997253418,8|2,2:0|2:0,0:0:0:0:
373,99,249783,1,10,2:0:0:0:
452,114,249983,2,0,B|490:88|490:88|462:-2,2,134.999995880127,2|2|10,1:2|2:0|2:0,2:0:0:0:
412,185,250783,2,0,P|447:210|493:202,2,89.999997253418,2|10|2,2:0|2:0|2:0,0:0:0:0:
334,208,251383,1,8,2:0:0:0:
274,152,251583,70,0,B|212:123|170:180|170:180|105:202|53:132|109:80,1,269.999991760254,6|10,1:2|2:0,2:0:0:0:
124,19,252383,2,0,L|90:298,1,269.999991760254,2|10,2:0|2:0,2:0:0:0:
141,350,253083,1,2,2:0:0:0:
141,350,253183,38,0,B|91:375|91:375|56:358|56:358|14:380,2,134.999995880127,6|2|10,1:3|2:0|2:0,2:0:0:0:
194,289,253983,2,0,B|244:314|244:314|279:297|279:297|321:319,2,134.999995880127,2|2|10,2:0|1:2|2:0,2:0:0:0:
132,222,254783,54,0,B|109:180|109:180|136:135,1,89.999997253418,14|0,3:2|3:2,3:0:0:0:
216,114,255183,2,0,B|239:72|239:72|212:27,1,89.999997253418,8|0,3:2|3:2,3:0:0:0:
134,0,255583,2,0,L|333:18,1,179.999994506836,8|8,3:2|3:2,3:0:0:0:
397,49,256183,1,2,3:2:0:0:
476,7,256383,70,0,P|501:46|485:92,1,89.999997253418,8|0,3:2|3:2,3:0:0:0:
413,132,256783,2,0,L|432:229,1,89.999997253418,8|0,3:2|3:2,3:0:0:0:
450,308,257183,2,0,B|397:342|360:300|387:302|328:255|284:303,1,179.999994506836,8|8,3:2|3:2,3:0:0:0:
98,368,257983,38,0,P|63:338|79:289,1,89.999997253418,14|0,3:2|3:2,3:0:0:0:
135,238,258383,2,0,B|154:196|154:196|131:147,1,89.999997253418,8|0,3:2|3:2,3:0:0:0:
83,83,258783,2,0,B|136:62|136:62|201:93|201:93|253:75,1,179.999994506836,8|8,3:2|3:2,3:0:0:0:
306,7,259383,1,2,3:2:0:0:
372,67,259583,70,0,P|401:103|380:156,1,89.999997253418,8|0,3:2|3:2,3:0:0:0:
330,208,259983,2,0,L|225:192,1,89.999997253418,8|0,3:2|3:2,0:0:0:0:
141,181,260383,1,8,2:0:0:0:
141,181,260483,2,0,B|110:212|110:212|130:270,1,99.9999999999999
172,338,260783,2,0,B|226:335|226:335|225:340|225:340|282:334,1,99.9999999999999,8|8,2:3|2:3,0:0:0:0:
349,291,261183,1,0,1:2:0:0:
497,48,272383,102,0,B|447:33|447:33|393:53,1,99.9999999999999,8|0,2:0|1:2,2:0:0:0:
341,129,272783,2,0,B|296:145|296:145|246:130,1,99.9999999999999,8|0,2:0|1:2,2:0:0:0:
150,101,273183,2,0,B|116:128|116:128|135:197,1,99.9999999999999,8|0,2:0|1:2,2:0:0:0:
172,273,273583,1,8,2:0:0:0:
172,273,273683,2,0,B|224:273|224:273|221:276|221:276|283:273,1,99.9999999999999,8|4,2:0|2:3,0:0:0:0:
335,320,273983,1,0,1:2:0:0:
61,344,280383,70,0,L|11:359,2,44.999998626709,14|10|10,2:0|2:0|2:0,0:0:0:0:
180,281,280883,2,0,L|230:296,2,44.999998626709,10|10|10,2:0|2:0|2:0,0:0:0:0:
79,219,281283,1,8,2:0:0:0:
79,219,281383,2,0,P|53:174|81:129,1,89.999997253418,8|8,2:0|2:3,0:0:0:0:
119,87,281683,2,0,L|213:97,1,89.999997253418,4|4,2:3|2:3,0:0:0:0:
277,62,281983,38,0,P|274:28|261:13,2,44.999998626709,14|10|10,2:0|2:0|2:0,0:0:0:0:
223,186,282483,2,0,P|226:220|239:235,2,44.999998626709,10|10|10,2:0|2:0|2:0,0:0:0:0:
330,136,282883,1,0,1:2:0:0:
330,136,282983,2,0,P|385:127|424:152,1,89.999997253418,12|0,2:0|1:2,0:0:0:0:
453,207,283283,2,0,L|435:301,1,89.999997253418,8|0,2:0|1:2,0:0:0:0:
405,365,283583,70,0,L|452:377,2,44.999998626709,14|10|10,2:0|2:0|2:0,0:0:0:0:
299,280,284083,2,0,L|252:292,2,44.999998626709,10|10|10,2:0|2:0|2:0,0:0:0:0:
224,371,284483,1,0,1:2:0:0:
224,371,284583,2,0,B|176:380|176:380|123:348,1,89.999997253418,8|0,2:3|1:2,0:0:0:0:
75,261,284983,37,14,2:0:0:0:
75,261,285083,1,10,2:0:0:0:
75,261,285183,70,0,B|57:237|57:237|70:203,2,59.9999981689453,10|10|10,2:0|2:0|2:0,0:0:0:0:
180,145,285716,2,0,L|172:216,2,59.9999981689453,10|10|14,2:0|2:0|2:0,0:0:0:0:
256,192,286183,12,14,287983,2:0:0:0:
256,192,288383,85,4,1:2:0:0:
45,21,293483,5,0,1:2:0:0:
45,21,293583,2,0,B|102:41|102:41|79:130,1,150,8|0,2:0|0:0,0:0:0:0:
56,199,293983,1,4,1:2:0:0:
209,363,294283,1,0,1:2:0:0:
209,363,294383,2,0,L|157:374,2,50,8|8|8,2:0|2:0|2:3,0:0:0:0:
264,311,294683,1,4,2:3:0:0:
264,311,294783,102,0,L|345:317,1,79.9999999999999,4|0,1:2|0:0,2:0:0:0:
460,343,295183,2,0,P|479:307|465:268,1,79.9999999999999,0|0,3:2|0:0,0:0:0:0:
354,232,295583,2,0,P|343:194|361:160,1,79.9999999999999,0|0,2:0|0:0,2:0:0:0:
481,162,295983,2,0,P|475:118|472:75,1,79.9999999999999,0|0,3:2|0:0,0:0:0:0:
364,29,296383,6,0,B|398:-3|398:-3|476:5,2,120,0|0|0,2:0|0:0|0:0,2:0:0:0:
297,129,297183,2,0,B|243:113|243:113|201:143|201:143|150:127,1,160,0|0,2:0|3:2,2:0:0:0:
36,338,297983,102,0,B|0:316|0:316|24:229,2,120,0|0|0,2:0|0:0|0:0,2:0:0:0:
114,246,298783,2,0,B|150:224|150:224|126:137,2,120,0|0|0,2:0|0:0|0:0,2:0:0:0:
309,359,299683,5,10,2:0:0:0:
309,359,299783,2,0,L|368:351,1,50,10|0,2:0|1:2,0:0:0:0:
370,270,299983,1,10,2:0:0:0:
370,270,300083,2,0,L|429:278,1,50,10|0,2:0|1:2,0:0:0:0:
496,314,300283,1,14,2:0:0:0:
473,145,300483,101,8,2:0:0:0:
473,145,300583,2,0,B|500:141|500:141|531:151,2,50,8|8|8,2:0|2:3|2:3,0:0:0:0:
398,102,300883,2,0,B|394:75|394:75|404:44,2,50,8|4|4,2:3|2:3|2:3,0:0:0:0:
352,163,301183,86,0,B|288:147|288:147|259:203|211:184,1,160,14|10,1:2|1:2,1:0:0:0:
26,29,301983,2,0,P|45:73|44:118,1,79.9999999999999,10|0,1:2|1:2,1:0:0:0:
85,169,302283,1,2,1:2:0:0:
85,169,302383,2,0,P|66:213|67:258,1,79.9999999999999,10|0,1:2|1:2,1:0:0:0:
177,346,302783,6,0,B|105:373|105:373|17:345,2,160,10|10|10,1:2|1:2|1:2,1:0:0:0:
370,290,303983,2,0,P|388:241|370:210,1,79.9999999999999,10|0,1:2|1:2,1:0:0:0:
317,167,304283,1,2,1:2:0:0:
317,167,304383,102,0,B|264:130|264:130|298:33,2,160,14|10|10,1:2|1:2|1:2,1:0:0:0:
195,354,305583,2,0,P|146:364|114:345,1,79.9999999999999,10|0,1:2|1:2,1:0:0:0:
72,292,305883,1,2,1:2:0:0:
72,292,305983,6,0,L|80:200,1,79.9999999999999,10|0,1:2|1:2,0:0:0:0:
38,147,306283,1,14,1:2:0:0:
38,147,306383,1,2,1:2:0:0:
148,42,306583,102,0,L|139:0,2,40,12|0|0,1:2|1:2|1:2,0:0:0:0:
192,103,306883,2,0,L|183:145,2,40,12|0|0,1:2|1:2|1:2,0:0:0:0:
256,61,307183,1,8,1:2:0:0:
256,61,307283,2,0,L|307:51,1,40,10|10,1:2|1:3,0:0:0:0:
359,12,307483,1,6,1:3:0:0:
359,12,307583,6,0,B|423:38|423:38|397:136,1,160,14|10,1:2|1:2,1:0:0:0:
436,356,308383,2,0,P|406:326|358:337,1,79.9999999999999,10|0,1:2|1:2,1:0:0:0:
303,364,308683,1,2,1:2:0:0:
303,364,308783,2,0,P|264:364|237:336,1,79.9999999999999,10|0,1:2|1:2,1:0:0:0:
127,230,309183,102,0,B|185:212|185:212|225:241|225:241|285:224,1,160,10|10,1:2|1:2,1:0:0:0:
450,114,309983,2,0,P|404:137|369:120,1,79.9999999999999,10|0,1:2|1:2,1:0:0:0:
335,72,310283,1,2,1:2:0:0:
335,72,310383,2,0,L|287:66,1,40,10|8,1:2|1:2,0:0:0:0:
239,14,310583,2,0,L|191:20,1,40,8|8,1:2|1:2,0:0:0:0:
130,67,310783,21,2,2:0:0:0:
423,312,312383,6,0,L|483:343,2,66.6666666666666,8|8|8,2:0|2:0|2:0,0:0:0:0:
311,250,312916,2,0,L|251:281,2,66.6666666666666,8|8|14,2:0|2:0|2:0,0:0:0:0:
5,97,313983,102,0,B|44:51|96:79|96:79|123:143|187:117,1,209.999993591309,2|0,3:2|0:0,2:0:0:0:
287,64,314783,5,8,2:0:0:0:
287,64,314883,2,0,L|298:122,1,50,8|8,2:0|2:0,0:0:0:0:
377,152,315083,1,8,2:0:0:0:
377,152,315183,2,0,L|350:307,1,150,8|8,2:0|2:0,0:0:0:0:
292,349,315583,54,0,B|239:371|239:371|184:341,1,110.000003356934,6|10,1:2|1:2,1:0:0:0:
58,270,315983,2,0,B|111:248|111:248|166:278,1,110.000003356934,2|10,1:2|1:2,0:0:0:0:
265,162,316383,2,0,L|248:288,2,110.000003356934,2|10|2,1:2|1:2|1:2,1:0:0:0:
354,28,316983,1,10,1:2:0:0:
230,72,317183,6,0,B|280:68|280:68|332:113|332:113|397:103,2,165.0000050354,2|2|10,1:2|1:2|1:2,1:0:0:0:
84,22,317983,2,0,P|49:68|67:114,1,110.000003356934,2|8,1:2|1:2,1:0:0:0:
119,168,318283,1,0,1:2:0:0:
119,168,318383,2,0,P|154:213|136:259,1,110.000003356934,2|8,1:2|1:2,1:0:0:0:
267,342,318783,70,0,B|235:307|189:331|189:331|167:383|106:360,2,165.0000050354,6|2|10,1:2|1:2|1:2,1:0:0:0:
371,227,319583,2,0,B|403:192|449:216|449:216|471:268|532:245,2,165.0000050354,2|2|10,1:2|1:2|1:2,1:0:0:0:
216,239,320383,22,0,L|197:120,1,110.000003356934,2|8,1:2|1:2,1:0:0:0:
162,67,320683,1,0,1:2:0:0:
162,67,320783,2,0,P|200:33|261:43,1,110.000003356934,10|8,1:2|1:3,0:0:0:0:
391,111,321183,1,14,1:2:0:0:
203,356,321583,5,10,1:2:0:0:
203,356,321683,2,0,L|142:347,1,55.0000016784668,10|10,1:2|1:2,0:0:0:0:
72,361,321883,1,10,1:2:0:0:
72,361,321983,70,0,B|41:311|41:311|65:257,1,110.000003356934,6|10,1:2|1:2,1:0:0:0:
211,225,322383,2,0,B|242:175|242:175|218:121,1,110.000003356934,2|10,1:2|1:2,0:0:0:0:
91,43,322783,2,0,P|33:40|4:84,2,110.000003356934,2|10|2,1:2|1:2|1:2,1:0:0:0:
153,183,323383,1,10,1:2:0:0:
204,37,323583,22,0,B|244:5|293:41|266:52|306:100|368:63,2,165.0000050354,2|2|10,1:2|1:2|1:2,1:0:0:0:
69,134,324383,2,0,L|86:263,1,110.000003356934,2|8,1:2|1:2,1:0:0:0:
92,319,324683,1,0,1:2:0:0:
92,319,324783,2,0,P|144:335|194:287,1,110.000003356934,2|8,1:2|1:2,1:0:0:0:
319,226,325183,6,0,B|291:179|242:215|242:215|242:166|189:161,2,165.0000050354,2|2|10,1:2|1:2|1:2,1:0:0:0:
392,90,325983,2,0,B|420:43|469:79|469:79|469:30|522:25,2,165.0000050354,2|2|4,1:2|1:2|1:3,1:0:0:0:
245,41,326783,70,0,P|187:27|148:59,1,110.000003356934,14|0,1:2|1:2,0:0:0:0:
100,115,327083,2,0,L|117:227,1,110.000003356934,14|0,1:2|1:2,0:0:0:0:
81,292,327383,1,8,1:2:0:0:
219,359,327583,22,0,B|265:376|285:332|285:332|321:299|373:336,2,165.0000050354,14|14|14,1:2|1:2|1:2,0:0:0:0:
487,206,328583,6,0,P|515:159|492:113,2,110.000003356934,14|2|10,1:2|1:2|1:2,1:0:0:0:
361,116,329183,2,0,P|333:69|356:23,2,110.000003356934,2|10|2,1:2|1:2|1:2,1:0:0:0:
322,265,329783,1,10,1:2:0:0:
180,203,329983,70,0,B|229:216|229:216|273:177|273:177|339:189,2,165.0000050354,2|2|10,1:2|1:2|1:2,1:0:0:0:
55,294,330783,2,0,P|9:264|27:212,1,110.000003356934,10|8,1:2|1:3,0:0:0:0:
77,165,331083,2,0,P|123:135|105:83,1,110.000003356934,10|4,1:2|1:3,0:0:0:0:
52,38,331383,1,10,1:2:0:0:
350,115,331783,22,0,B|372:65|372:65|339:12,2,110.000003356934,14|0|8,1:2|1:2|1:2,1:0:0:0:
209,177,332383,2,0,P|186:230|225:275,1,110.000003356934,2|10,1:2|1:2,0:0:0:0:
265,326,332683,1,2,1:2:0:0:
265,326,332783,2,0,B|323:316|323:316|323:319|323:319|377:307,1,110.000003356934,2|10,1:2|1:2,0:0:0:0:
502,230,333183,6,0,B|523:202|523:202|492:115,1,110.000003356934,2|10,1:2|1:2,1:0:0:0:
373,38,333583,2,0,B|321:27|321:27|275:70|275:70|223:54,1,165.0000050354,10|4,1:2|1:3,0:0:0:0:
165,10,333983,1,14,1:2:0:0:
27,285,334383,69,10,1:2:0:0:
27,285,334483,2,0,L|86:271,1,55.0000016784668,10|10,1:2|1:2,0:0:0:0:
136,218,334683,1,10,1:2:0:0:
136,218,334783,22,0,B|187:196|187:196|253:219,1,110.000003356934,6|10,1:2|1:2,1:0:0:0:
297,356,335183,2,0,B|348:378|348:378|414:355,1,110.000003356934,2|10,1:2|1:2,0:0:0:0:
488,233,335583,2,0,L|479:357,2,110.000003356934,2|10|2,1:2|1:2|1:2,0:0:0:0:
428,90,336183,1,10,1:2:0:0:
288,152,336383,6,0,B|319:121|362:136|362:136|392:183|442:169,2,165.0000050354,2|2|10,1:2|3:2|1:2,1:0:0:0:
148,217,337183,2,0,P|111:177|137:112,1,110.000003356934,2|8,1:2|1:2,1:0:0:0:
157,60,337483,1,2,3:2:0:0:
157,60,337583,2,0,L|39:42,1,110.000003356934,0|10,1:2|1:2,0:0:0:0:
5,192,337983,70,0,L|26:321,1,110.000003356934,2|10,1:2|1:2,0:0:0:0:
76,356,338283,1,2,3:2:0:0:
76,356,338383,2,0,P|126:368|164:327,1,110.000003356934,2|10,1:2|1:2,0:0:0:0:
263,212,338783,2,0,B|206:192|206:192|165:223|165:223|100:208,2,165.0000050354,2|2|10,1:2|3:2|1:2,0:0:0:0:
455,340,339683,21,10,1:2:0:0:
455,340,339783,2,0,L|465:278,1,55.0000016784668,10|0,1:2|1:2,0:0:0:0:
398,243,339983,1,10,1:2:0:0:
402,247,340083,2,0,L|392:185,1,55.0000016784668,10|0,1:2|1:2,0:0:0:0:
441,132,340283,1,8,1:2:0:0:
317,39,340483,5,8,1:2:0:0:
317,39,340583,2,0,B|348:31|348:31|392:44,2,55.0000016784668,8|8|8,1:2|1:3|1:3,0:0:0:0:
240,52,340883,2,0,B|232:21|232:21|245:-23,2,55.0000016784668,8|4|4,1:3|1:3|1:3,0:0:0:0:
216,124,341183,70,0,B|170:135|140:86|140:86|150:145|115:170,1,179.999994506836,14|8,3:2|3:2,3:0:0:0:
195,299,341783,2,0,P|226:281|253:281,1,44.999998626709,2|2,3:2|3:2,0:0:0:0:
309,259,341983,2,0,B|363:239|391:290|367:302|406:359|473:321,1,179.999994506836,10|8,3:2|3:2,3:0:0:0:
503,184,342583,2,0,P|508:151|511:132,1,44.999998626709,0|0,3:2|3:2,0:0:0:0:
480,68,342783,22,0,B|428:48|428:48|373:84|373:84|314:62,2,179.999994506836,10|10|8,3:2|3:2|3:2,3:0:0:0:
393,195,343783,1,2,3:2:0:0:
393,195,343883,2,0,L|333:181,1,44.999998626709,2|10,3:2|3:2,0:0:0:0:
313,253,344083,2,0,L|370:267,2,44.999998626709,2|2|2,3:2|3:2|3:2,0:0:0:0:
264,194,344383,6,0,B|221:208|193:186|193:186|154:184|126:229|155:267,1,179.999994506836,14|8,3:2|3:2,3:0:0:0:
263,363,344983,2,0,L|319:355,1,44.999998626709,2|2,3:2|3:2,0:0:0:0:
383,360,345183,70,0,B|446:342|446:342|435:220,1,179.999994506836,10|8,3:2|3:2,3:0:0:0:
318,129,345783,2,0,L|338:81,1,44.999998626709,2|2,3:2|3:2,0:0:0:0:
376,23,345983,2,0,B|411:6|434:34|434:34|451:72|493:64,2,134.999995880127,10|10|10,3:2|3:2|3:2,0:0:0:0:
70,50,346983,21,0,3:2:0:0:
70,50,347083,2,0,L|83:108,1,44.999998626709,0|8,3:2|3:2,0:0:0:0:
127,153,347283,2,0,L|118:200,2,44.999998626709,8|4|4,3:0|3:0|3:0,0:0:0:0:
181,98,347583,6,0,B|221:52|269:81|269:81|284:128|336:123,1,179.999994506836,14|8,3:2|3:2,3:0:0:0:
460,42,348183,2,0,P|455:74|451:98,1,44.999998626709,2|2,3:2|3:2,0:0:0:0:
489,153,348383,2,0,P|502:253|514:347,1,179.999994506836,10|8,3:2|3:2,3:0:0:0:
361,360,348983,2,0,P|334:369|303:358,1,44.999998626709,0|0,3:2|3:2,0:0:0:0:
260,316,349183,70,0,B|216:286|241:225|263:244|301:192|256:145,2,179.999994506836,10|10|10,3:2|3:2|3:2,3:0:0:0:
35,366,350283,1,0,3:2:0:0:
35,366,350383,2,0,P|1:317|10:279,1,89.999997253418,10|0,3:2|3:2,3:0:0:0:
152,249,350783,22,0,B|135:199|135:199|196:144|196:144|171:86,1,179.999994506836,14|8,3:2|3:2,3:0:0:0:
106,74,351283,2,0,L|53:95,2,44.999998626709,2|2|2,3:2|3:2|3:2,0:0:0:0:
149,11,351583,2,0,B|206:-3|206:-3|265:34|265:34|320:22,1,179.999994506836,10|8,3:2|3:2,3:0:0:0:
469,15,352183,2,0,L|460:62,1,44.999998626709,2|2,3:2|3:2,0:0:0:0:
395,99,352383,6,0,P|434:139|511:124,2,134.999995880127,10|14|14,3:2|3:2|3:2,0:0:0:0:
358,248,353183,2,0,P|318:288|241:273,2,134.999995880127,4|0|4,3:0|3:2|3:0,0:0:0:0:
322,99,353983,70,0,B|274:86|274:86|221:104,1,89.999997253418,14|8,1:2|1:2,1:0:0:0:
200,182,354383,2,0,B|152:195|152:195|99:177,1,89.999997253418,8|10,1:2|1:2,1:0:0:0:
73,173,354683,1,2,1:2:0:0:
73,173,354783,2,0,L|63:264,1,89.999997253418,10|8,1:2|1:2,1:0:0:0:
78,351,355183,2,0,P|130:329|166:340,1,89.999997253418,10|8,1:2|1:2,0:0:0:0:
193,368,355483,1,2,1:2:0:0:
193,368,355583,22,0,P|245:377|282:343,1,89.999997253418,10|8,1:2|1:2,1:0:0:0:
326,284,355983,2,0,P|364:262|406:273,1,89.999997253418,10|8,1:2|1:2,1:0:0:0:
484,318,356383,2,0,B|509:275|509:275|485:232,1,89.999997253418,10|8,1:2|1:2,1:0:0:0:
416,169,356783,1,8,1:2:0:0:
480,106,356983,1,10,1:2:0:0:
419,38,357183,6,0,P|371:24|331:54,1,89.999997253418,14|8,1:2|1:2,1:0:0:0:
296,133,357583,2,0,P|248:146|208:116,1,89.999997253418,8|10,1:2|1:2,1:0:0:0:
201,89,357883,1,2,1:2:0:0:
201,89,357983,2,0,L|207:-11,2,89.999997253418,10|8|10,1:2|1:2|1:2,1:0:0:0:
121,132,358583,1,8,1:2:0:0:
39,93,358783,70,0,B|18:123|18:123|38:184,1,89.999997253418,10|8,1:2|1:2,1:0:0:0:
111,221,359183,1,10,1:2:0:0:
50,287,359383,1,8,1:2:0:0:
119,344,359583,2,0,P|62:380|0:363,2,134.999995880127,6|8|8,1:3|1:2|1:2,0:0:0:0:
178,276,360383,22,0,B|235:265|235:265|285:300|285:300|352:280,1,179.999994506836,6|0,1:2|1:2,0:0:0:0:
466,348,360983,2,0,P|487:314|485:299,1,44.999998626709,2|10,1:2|1:2,0:0:0:0:
433,254,361183,6,0,B|389:228|403:185|403:185|465:172|459:99,2,179.999994506836,2|2|2,1:2|1:2|1:2,1:0:0:0:
226,356,362283,1,8,1:2:0:0:
226,356,362383,2,0,B|179:351|179:351|181:353|181:353|133:346,1,89.999997253418,2|0,1:2|1:2,0:0:0:0:
21,253,362783,70,0,P|-4:213|18:163,1,89.999997253418,2|0,1:2|1:2,1:0:0:0:
57,115,363083,1,8,1:2:0:0:
57,115,363183,2,0,L|45:66,2,44.999998626709,8|0|8,1:2|0:0|1:3,0:0:0:0:
113,167,363483,1,0,0:0:0:0:
113,167,363583,1,4,1:2:0:0:
257,191,364783,101,6,1:2:0:0:
462,41,365183,1,6,1:2:0:0:
462,41,366683,102,0,L|489:45,2,25,0|0|4,3:2|3:2|3:2,0:0:0:0:
82,27,368383,102,0,B|60:61|60:61|76:114,1,89.999997253418,6|2,1:2|2:0,2:0:0:0:
137,173,368783,2,0,B|99:228|40:182|81:191|12:144|-30:198,2,179.999994506836,6|6|6,1:2|1:2|1:2,2:0:0:0:
263,43,369983,22,0,P|303:27|356:40,1,89.999997253418,14|2,2:0|1:2,2:0:0:0:
447,63,370383,1,14,2:0:0:0:
447,63,370483,2,0,L|439:118,1,44.999998626709,0|2,2:0|1:2,0:0:0:0:
365,168,370683,1,2,1:2:0:0:
365,168,370783,102,0,L|379:275,1,99.9999999999999,14|0,2:0|0:0,2:0:0:0:
202,362,371183,1,8,2:0:0:0:
202,362,371283,2,0,L|146:359,1,50,8|8,2:0|2:0,0:0:0:0:
75,375,371483,1,8,2:0:0:0:
75,375,371583,54,0,B|45:334|45:334|67:288,1,99.9999999999999,6|10,1:2|1:2,1:0:0:0:
128,247,371883,2,0,B|149:202|149:202|119:161,1,99.9999999999999,2|8,1:2|1:3,1:0:0:0:
55,121,372183,1,10,1:2:0:0:
174,30,372383,2,0,B|210:13|210:13|289:32,1,99.9999999999999,2|10,1:2|1:2,1:0:0:0:
379,130,372783,2,0,B|343:147|343:147|264:128,1,99.9999999999999,2|10,1:2|1:2,1:0:0:0:
168,229,373183,6,0,B|115:218|115:218|96:176|96:176|47:167,2,150,2|2|10,1:2|1:2|1:2,1:0:0:0:
269,339,373983,2,0,B|317:364|317:364|365:342,1,99.9999999999999,2|10,1:2|1:2,1:0:0:0:
473,247,374383,2,0,L|459:347,1,99.9999999999999,2|10,1:2|1:2,1:0:0:0:
332,265,374783,102,0,B|286:219|335:167,1,99.9999999999999,2|10,1:2|1:2,1:0:0:0:
379,120,375083,2,0,P|340:79|286:85,1,99.9999999999999,2|8,1:2|1:3,1:0:0:0:
244,129,375383,1,10,1:2:0:0:
130,30,375583,2,0,B|92:19|92:19|64:32|64:32|27:25,1,99.9999999999999,2|10,1:2|1:2,1:0:0:0:
138,136,375983,2,0,P|147:190|157:247,1,99.9999999999999,2|10,1:2|1:2,1:0:0:0:
137,383,376383,6,0,B|83:354|83:354|-7:376,2,150,2|14|10,1:2|1:3|1:2,0:0:0:0:
250,284,377183,2,0,P|259:226|215:198,2,99.9999999999999,2|10|2,1:2|1:2|1:2,1:0:0:0:
379,359,377783,1,10,1:2:0:0:
497,267,377983,102,0,P|524:226|502:175,1,99.9999999999999,6|10,1:2|1:2,1:0:0:0:
444,142,378283,2,0,P|417:101|439:50,1,99.9999999999999,2|8,1:2|1:3,1:0:0:0:
498,20,378583,1,10,1:2:0:0:
348,14,378783,2,0,B|295:1|295:1|251:25,1,99.9999999999999,2|10,1:2|1:2,1:0:0:0:
128,104,379183,2,0,B|98:63|98:63|124:14,1,99.9999999999999,2|10,1:2|1:2,1:0:0:0:
240,111,379583,6,0,B|290:148|290:148|265:233,2,150,2|2|10,1:2|1:2|1:2,1:0:0:0:
157,188,380383,2,0,B|110:191|110:191|91:208|91:208|60:210,1,99.9999999999999,2|10,1:2|1:2,1:0:0:0:
161,323,380783,2,0,B|208:326|208:326|227:343|227:343|258:345,1,99.9999999999999,2|10,1:2|1:2,1:0:0:0:
404,329,381183,102,0,B|376:295|376:295|398:239,1,99.9999999999999,10|2,1:2|1:2,0:0:0:0:
420,172,381483,2,0,B|384:148|384:148|318:167,1,99.9999999999999,2|0,1:2|1:2,0:0:0:0:
280,220,381783,1,10,1:2:0:0:
172,114,381983,2,0,B|153:65|153:65|183:21,2,99.9999999999999,10|10|10,1:2|1:2|1:2,1:0:0:0:
65,221,382583,1,10,1:2:0:0:
175,322,382783,6,0,B|134:290|100:321|100:321|83:363|31:353,2,150,14|14|14,1:2|1:2|1:2,0:0:0:0:
399,306,383683,1,14,1:2:0:0:
399,306,383783,2,0,B|451:311|451:311|450:314|450:314|501:320,2,99.9999999999999,4|14|4,1:3|1:2|1:3,0:0:0:0:
259,362,384383,70,0,B|234:316|234:316|260:264,1,99.9999999999999,14|10,1:2|1:2,1:0:0:0:
330,206,384783,1,10,1:2:0:0:
266,129,384983,1,10,1:2:0:0:
335,57,385183,2,0,P|371:39|438:60,1,99.9999999999999,10|10,1:2|1:2,1:0:0:0:
500,120,385583,1,10,1:2:0:0:
434,195,385783,1,10,1:2:0:0:
477,285,385983,54,0,P|517:253|514:202,2,99.9999999999999,10|10|10,1:2|1:2|1:2,1:0:0:0:
377,273,386583,1,10,1:2:0:0:
279,296,386783,2,0,P|280:344|318:373,2,99.9999999999999,10|10|10,1:2|1:2|1:2,0:0:0:0:
325,207,387383,1,10,1:2:0:0:
240,153,387583,54,0,B|189:137|189:137|137:161,1,99.9999999999999,14|10,1:2|1:2,1:0:0:0:
62,211,387983,1,10,1:2:0:0:
5,128,388183,1,10,1:2:0:0:
62,45,388383,2,0,P|110:22|161:48,1,99.9999999999999,14|10,1:2|1:2,1:0:0:0:
226,102,388783,1,10,1:2:0:0:
307,43,388983,1,10,1:2:0:0:
388,101,389183,54,0,P|412:57|389:13,2,99.9999999999999,10|10|10,1:2|1:2|1:2,1:0:0:0:
321,175,389783,1,10,1:2:0:0:
245,240,389983,2,0,P|221:284|244:328,2,99.9999999999999,8|8|4,1:2|1:3|1:3,0:0:0:0:
194,152,390583,1,12,1:2:0:0:
146,63,390783,70,0,B|184:36|184:36|252:57,1,99.9999999999999,6|2,1:2|1:2,0:0:0:0:
294,132,391183,2,0,P|328:156|389:132,1,99.9999999999999,2|2,1:2|1:2,0:0:0:0:
427,118,391483,1,8,1:2:0:0:
427,118,391583,2,0,L|414:225,1,99.9999999999999,2|2,1:2|1:2,0:0:0:0:
442,313,391983,2,0,B|392:332|392:332|342:297,1,99.9999999999999,2|2,1:2|1:2,0:0:0:0:
264,258,392383,102,0,L|162:269,1,99.9999999999999,6|2,1:2|1:2,0:0:0:0:
73,309,392783,2,0,P|41:269|62:222,1,99.9999999999999,2|2,1:2|1:2,0:0:0:0:
92,192,393083,1,8,1:2:0:0:
92,192,393183,2,0,P|124:152|103:105,1,99.9999999999999,6|2,1:2|1:2,0:0:0:0:
48,30,393583,2,0,L|148:15,1,99.9999999999999,10|6,1:3|1:3,0:0:0:0:
255,93,393983,54,0,B|281:134|250:174|232:155|202:195|246:247,2,150,12|4|4,1:2|1:3|1:3,1:0:0:0:
327,23,394783,2,0,P|381:16|420:53,2,99.9999999999999,10|4|10,1:2|1:3|1:3,1:0:0:0:
227,7,395383,1,8,1:2:0:0:
152,73,395583,1,14,1:2:0:0:
36,288,396383,86,0,P|81:267|126:289,1,99.9999999999999,10|0,1:2|1:2,0:0:0:0:
163,350,396683,2,0,P|208:371|253:349,1,99.9999999999999,10|0,1:2|1:2,0:0:0:0:
290,287,396983,1,10,1:2:0:0:
196,169,397183,1,14,1:2:0:0:
360,31,397983,6,0,B|407:64|407:64|506:23,2,150,10|10|10,1:2|1:2|1:2,0:0:0:0:
209,22,398783,1,14,1:2:0:0:
21,317,399483,101,4,1:3:0:0:
21,317,399583,2,0,P|-7:353|9:385,2,66.6666666666666,10|10|10,1:2|1:2|1:2,0:0:0:0:
78,255,399983,2,0,P|106:219|90:187,2,66.6666666666666,10|10|10,1:2|1:2|1:2,0:0:0:0:
424,284,400783,5,4,1:2:0:0:
361,346,400983,2,0,B|400:409|496:391|564:341|554:233|510:180|450:163|375:170|337:220|333:273|333:273|311:246|312:231|312:231|313:199|300:170|270:144|231:150|188:153|144:194|158:242|178:305|217:301|252:299|280:296|297:278|310:257|312:232|312:232|334:194|333:149|292:91|235:154|226:95|232:43|237:29|237:29|245:8|271:-26|330:-22|367:2|378:29|381:41|381:41|343:6|258:4|317:90|262:75|226:62|187:86|146:28|146:28|114:117|42:124|8:94|3:69|3:69|22:90|43:104|75:103|102:85|109:50,1,1952.49990168381,6|0,1:2|2:0,1:0:0:0:
