osu file format v14

[General]
AudioFilename: audio.mp3
AudioLeadIn: 0
PreviewTime: 313883
Countdown: 0
SampleSet: Soft
StackLeniency: 0.7
Mode: 0
LetterboxInBreaks: 0
WidescreenStoryboard: 1

[Editor]
Bookmarks: 16079,28879,41679,48079,60879,76879,96079,104079,116879,132879,145679,157547,165330,186087,191276,212033,232383,243583,245183,261183,280383,285983,288383,293183,301183,315583,341183,363583,371583,384383,390783,400783
DistanceSpacing: 1
BeatDivisor: 4
GridSize: 16
TimelineZoom: 3.199999

[Metadata]
Title:Flamewall
TitleUnicode:Flamewall
Artist:Camellia
ArtistUnicode:かめりあ
Creator:Sotarks
Version:ETERNAL SACRED FIRE
Source:
Tags:Tera I_O I/O Cametek kamelcamellia かめるかめりあ Instrumental Symphonic Speed Metal Akitoshi Corinn -Laura- Nymphe Kiyoshi Guarden SnowNiNo_ Kujinn Reform Featured Artist Mappers' Guild
BeatmapID:3135149
BeatmapSetID:1533028

[Difficulty]
HPDrainRate:4
CircleSize:4.3
OverallDifficulty:10
ApproachRate:10
SliderMultiplier:2.02
SliderTickRate:1

[Events]
//Background and Video events
0,0,"bg.jpg",0,0
//Break Periods
2,126679,128729
2,232583,243133
2,288583,293033
//Storyboard Layer 0 (Background)
//Storyboard Layer 1 (Fail)
//Storyboard Layer 2 (Pass)
//Storyboard Layer 3 (Foreground)
//Storyboard Layer 4 (Overlay)
//Storyboard Sound Samples

[TimingPoints]
879,200,4,2,22,52,1,0
1279,-192.307692307692,4,2,22,52,0,0
1679,-161.290322580645,4,2,22,52,0,0
12979,-138.888888888889,4,2,22,82,0,0
13579,-312.500000000001,4,2,22,82,0,0
13629,-312.500000000001,4,2,22,72,0,0
16079,-312.500000000001,4,2,22,82,0,0
17479,-98.0392156862746,4,2,22,72,0,0
28079,-138.888888888889,4,2,22,72,0,0
28879,-121.951219512195,4,2,22,82,0,0
41679,-108.695652173913,4,2,22,82,0,0
48079,-121.951219512195,4,2,22,72,0,0
76879,-138.888888888889,4,2,22,72,0,0
88079,-121.951219512195,4,2,22,72,0,0
89679,-138.888888888889,4,2,22,72,0,0
101679,-312.500000000001,4,2,22,72,0,0
104079,-98.0392156862746,4,2,22,82,0,1
116879,-108.695652173913,4,2,22,82,0,0
123279,-98.0392156862745,4,2,22,82,0,0
126479,-98.0392156862745,4,2,22,72,0,0
129179,-161.290322580645,4,2,22,82,0,0
131979,-238.095238095238,4,2,22,72,0,0
132879,-121.951219512195,4,2,22,82,0,0
145679,-312.499999999999,4,2,22,72,0,0
155279,230.769230769231,4,2,22,72,1,0
155279,-312.499999999999,4,2,22,72,0,0
156202,272.727272727273,4,2,22,72,1,0
156202,-312.499999999999,4,2,22,72,0,0
156747,400,4,2,22,72,1,0
156747,-312.499999999999,4,2,22,72,0,0
157547,324.324324324324,4,2,22,72,1,0
165330,-98.0392156862745,4,2,22,82,0,0
175222,-81.9672131147541,4,2,22,82,0,0
186168,-81.9672131147541,4,2,22,62,0,0
189006,-81.9672131147541,4,2,22,32,0,0
189168,-81.9672131147541,4,2,22,42,0,0
189330,-81.9672131147541,4,2,22,52,0,0
189492,-81.9672131147541,4,2,22,62,0,0
189979,-81.9672131147541,4,2,22,72,0,0
190628,-75.7575757575757,4,2,22,72,0,0
190709,-75.7575757575757,4,2,22,5,0,0
190790,-75.7575757575757,4,2,22,72,0,0
190871,-75.7575757575757,4,2,22,5,0,0
190952,-75.7575757575757,4,2,22,72,0,0
191195,-75.7575757575757,4,2,22,5,0,0
191276,-75.7575757575757,4,2,22,72,0,0
192411,-108.695652173913,4,2,22,72,0,0
213168,-98.0392156862745,4,2,22,72,0,0
213330,-121.951219512195,4,2,22,72,0,0
213979,-98.0392156862745,4,2,22,72,0,0
218519,-121.951219512195,4,2,22,72,0,0
219168,-98.0392156862745,4,2,22,72,0,0
221114,-121.951219512195,4,2,22,72,0,0
226303,352.941176470588,4,2,22,72,1,0
227008,375,4,2,22,72,1,0
227383,500,4,2,22,72,1,0
227883,750,4,2,22,72,1,0
227883,-238.095238095238,4,2,22,72,0,0
228070,-238.095238095238,4,2,22,52,0,0
232383,200,4,2,22,72,1,0
244683,-161.290322580645,4,2,22,72,0,0
245183,-121.951219512195,4,2,22,72,0,0
261183,-138.888888888889,4,2,22,72,0,0
272383,-121.951219512195,4,2,22,72,0,0
273983,-138.888888888889,4,2,22,72,0,0
287983,-108.695652173913,4,2,22,72,0,0
293983,-121.951219512195,4,2,22,72,0,0
294783,-161.290322580645,4,2,22,72,0,0
299683,-138.888888888889,4,2,22,72,0,0
300283,-121.951219512195,4,2,22,72,0,0
310783,-454.545454545452,4,2,22,52,0,0
311283,-454.545454545452,4,2,22,22,0,0
311383,-454.545454545452,4,2,22,32,0,0
311583,-454.545454545452,4,2,22,42,0,0
312383,-454.545454545452,4,2,22,72,0,0
313983,-161.290322580645,4,2,22,72,0,0
315583,-98.0392156862746,4,2,22,82,0,1
328583,-89.2857142857143,4,2,22,92,0,1
331483,-121.951219512195,4,2,22,92,0,1
331783,-89.2857142857143,4,2,22,92,0,1
341183,-98.0392156862746,4,2,22,82,0,0
363583,-161.290322580645,4,2,22,72,0,0
364383,-192.307692307692,4,2,22,62,0,0
364783,-121.951219512195,4,2,22,62,0,0
365183,-454.545454545455,4,2,22,72,0,0
366683,-454.545454545455,4,2,22,62,0,0
366783,-833.333333333333,4,2,22,62,0,0
368383,-121.951219512195,4,2,22,72,0,0
368783,-138.888888888889,4,2,22,72,0,0
369183,-161.290322580645,4,2,22,72,0,0
369583,-192.307692307692,4,2,22,72,0,0
369983,-121.951219512195,4,2,22,72,0,0
370383,-108.695652173913,4,2,22,72,0,0
370783,-98.0392156862745,4,2,22,72,0,0
371583,-121.951219512195,4,2,22,72,0,0
384383,-108.695652173913,4,2,22,82,0,0
400983,-454.545454545455,4,2,22,82,0,0
401033,-454.545454545455,4,2,22,5,0,0

[Colours]
Combo1 : 73,79,112
Combo2 : 105,104,125
Combo3 : 160,107,107
Combo4 : 242,40,40
Combo5 : 200,40,40
Combo6 : 255,199,6
Combo7 : 240,102,0
Combo8 : 157,0,0

[HitObjects]
123,60,1279,6,0,P|117:90|111:121,1,52.5200000000001,2|0,3:2|2:0,2:0:0:0:
134,212,1479,1,2,3:2:0:0:
49,164,1579,1,2,3:2:0:0:
224,95,1679,102,0,P|231:136|238:172,1,62.62,2|0,3:2|2:0,2:0:0:0:
323,62,1879,2,0,P|316:102|309:138,1,62.62,2|0,2:0|2:0,2:0:0:0:
287,260,2079,2,0,P|294:219|301:183,1,62.62,2|0,2:0|2:0,2:0:0:0:
386,293,2279,2,0,P|379:252|372:216,1,62.62,2|0,2:0|2:0,2:0:0:0:
217,322,2479,2,0,P|180:331|132:341,1,62.62,2|0,3:2|2:0,2:0:0:0:
111,263,2679,2,0,P|141:256|171:248,1,62.62,2|0,2:0|2:0,2:0:0:0:
274,103,2879,2,0,P|243:96|213:88,1,62.62,2|0,2:0|2:0,2:0:0:0:
167,162,3079,2,0,P|197:169|227:176,1,62.62,2|0,2:0|2:0,2:0:0:0:
419,217,3279,6,0,P|358:231|284:247,1,125.24,2|0,3:2|2:0,2:0:0:0:
206,320,3579,2,0,P|144:306|83:292,1,125.24,2|0,2:0|2:0,2:0:0:0:
12,196,3879,2,0,P|6:165|1:134,1,62.62,2|0,2:0|2:0,2:0:0:0:
133,29,4079,2,0,P|147:91|98:163,1,125.24,2|0,3:2|2:0,2:0:0:0:
121,144,4379,1,0,2:0:0:0:
242,77,4479,2,0,B|298:51|346:89|320:110|368:144|422:114,1,187.86,2|0,2:0|2:0,2:0:0:0:
512,253,4879,102,0,P|453:285|377:280,1,125.24,2|0,3:2|2:0,2:0:0:0:
275,328,5179,2,0,P|221:297|159:295,1,125.24,2|0,2:0|2:0,2:0:0:0:
28,270,5479,1,2,2:0:0:0:
86,366,5579,1,2,2:0:0:0:
123,198,5679,2,0,P|133:131|144:50,1,125.24,2|0,3:2|2:0,2:0:0:0:
238,147,5979,2,0,P|228:80|217:-1,1,125.24,2|0,2:0|2:0,2:0:0:0:
340,178,6279,1,2,2:0:0:0:
365,90,6379,1,2,2:0:0:0:
238,147,6479,6,0,P|244:180|253:228,1,62.62,2|0,3:2|2:0,2:0:0:0:
213,293,6679,1,0,3:2:0:0:
213,293,6779,1,0,3:2:0:0:
340,178,6879,2,0,P|334:211|325:259,1,62.62,2|0,3:2|2:0,2:0:0:0:
365,324,7079,1,0,3:2:0:0:
365,324,7179,1,0,3:2:0:0:
249,208,7279,2,0,B|193:182|145:220|171:241|123:275|69:245,1,187.86,2|0,3:2|2:0,2:0:0:0:
0,135,7679,1,2,2:0:0:0:
0,135,7779,1,2,2:0:0:0:
99,168,7879,1,2,2:0:0:0:
99,168,7979,1,2,2:0:0:0:
79,80,8079,102,0,P|73:49|68:18,1,62.62,2|0,3:2|2:0,2:0:0:0:
150,31,8279,2,0,P|155:62|161:93,1,62.62,2|0,2:0|2:0,2:0:0:0:
329,140,8479,2,0,P|334:109|339:78,1,62.62,2|0,2:0|2:0,2:0:0:0:
257,92,8679,2,0,P|252:123|247:154,1,62.62,2|0,2:0|2:0,2:0:0:0:
124,299,8879,2,0,P|154:292|184:284,1,62.62,2|0,3:2|2:0,2:0:0:0:
317,239,9079,2,0,P|286:246|256:253,1,62.62,2|0,2:0|2:0,2:0:0:0:
54,214,9279,2,0,P|84:207|114:199,1,62.62,2|0,2:0|2:0,2:0:0:0:
247,154,9479,2,0,P|216:161|186:168,1,62.62,2|0,2:0|2:0,2:0:0:0:
66,30,9679,6,0,P|111:64|179:60,1,125.24,2|0,3:2|2:0,2:0:0:0:
394,25,9979,2,0,P|332:20|282:55,1,125.24,2|0,2:0|2:0,2:0:0:0:
345,185,10279,2,0,P|350:154|355:123,1,62.62,2|0,2:0|2:0,2:0:0:0:
186,168,10479,2,0,P|198:265|211:364,1,187.86,2|0,3:2|2:0,2:0:0:0:
345,185,10879,2,0,P|427:186|466:296,1,187.86,2|0,2:0|2:0,2:0:0:0:
303,384,11279,102,0,P|294:324|282:237,1,125.24,2|0,3:2|2:0,2:0:0:0:
168,291,11579,2,0,P|177:231|189:144,1,125.24,2|0,2:0|2:0,2:0:0:0:
22,309,11879,1,2,2:0:0:0:
84,198,11979,1,2,2:0:0:0:
158,378,12079,2,0,P|232:386|285:334,1,125.24,2|0,3:2|2:0,2:0:0:0:
472,271,12379,2,0,P|411:282|358:251,1,125.24,2|0,2:0|2:0,2:0:0:0:
314,96,12679,1,2,2:0:0:0:
434,173,12779,1,2,2:0:0:0:
438,177,12979,102,0,L|392:186,1,36.36,8|0,2:0|2:0,2:0:0:0:
151,239,13079,1,8,2:0:0:0:
283,358,13179,1,0,1:2:0:0:
286,361,13229,1,0,1:2:0:0:
290,365,13279,2,0,L|271:323,1,36.36,8|0,2:0|2:0,2:0:0:0:
199,101,13379,1,8,0:2:0:0:
53,349,13479,1,0,1:2:0:0:
53,349,13529,1,0,1:2:0:0:
53,349,13579,70,0,B|232:408|316:283|240:231|357:94|523:182,1,549.439999999998,12|0,2:0|2:0,2:0:0:0:
422,300,15379,5,8,2:0:0:0:
422,300,15429,1,8,2:0:0:0:
422,300,15479,1,8,2:3:0:0:
343,88,15579,1,8,2:3:0:0:
217,250,15679,1,8,2:3:0:0:
251,121,15779,1,4,2:3:0:0:
118,188,15879,1,4,2:3:0:0:
100,106,15979,1,4,2:3:0:0:
0,307,16079,69,4,1:2:0:0:
404,25,17479,2,0,P|394:93|381:179,1,154.53,4|0,1:3|2:0,2:0:0:0:
414,246,17679,1,4,1:2:0:0:
95,42,18379,1,0,1:2:0:0:
95,42,18429,1,0,1:2:0:0:
95,42,18479,2,0,P|152:52|225:63,1,103.02,8|0,2:0|2:0,2:0:0:0:
14,217,18679,2,0,P|64:208|115:200,1,103.02,8|0,2:0|2:0,2:0:0:0:
462,136,18879,2,0,P|411:144|360:152,1,103.02,8|0,2:0|2:0,2:0:0:0:
221,253,19079,1,8,2:0:0:0:
312,44,19179,1,8,1:3:0:0:
423,303,19279,101,4,1:2:0:0:
92,64,20679,2,0,P|102:132|115:218,1,154.53,0|0,1:2|2:0,2:0:0:0:
82,285,20879,1,4,1:2:0:0:
270,23,21179,2,0,P|382:2|471:113,1,257.55,0|0,1:2|2:0,2:0:0:0:
411,158,21479,2,0,P|399:234|388:310,1,154.53,4|0,1:2|2:0,2:0:0:0:
425,380,21679,2,0,P|455:373|485:365,3,51.51,0|0|0|0,1:2|3:2|3:2|3:2,2:0:0:0:
309,372,21879,2,0,P|284:378|258:384,3,51.51,0|0|0|0,1:2|3:2|3:2|3:2,2:0:0:0:
388,310,22079,5,8,2:3:0:0:
286,278,22179,1,8,2:3:0:0:
411,158,22279,1,8,2:0:0:0:
304,122,22379,1,4,2:3:0:0:
388,310,22479,101,4,1:2:0:0:
111,32,23879,2,0,P|61:85|64:192,1,154.53,4|0,1:3|2:0,2:0:0:0:
70,241,24079,1,4,1:2:0:0:
451,62,24779,1,0,1:2:0:0:
451,62,24829,1,0,1:2:0:0:
451,62,24879,2,0,P|401:98|331:112,1,103.02,8|0,2:0|2:0,2:0:0:0:
370,243,25079,2,0,P|321:226|280:195,1,103.02,8|0,2:0|2:0,2:0:0:0:
30,41,25279,2,0,P|78:57|119:88,1,103.02,8|0,2:0|2:0,2:0:0:0:
139,264,25479,1,8,2:0:0:0:
221,47,25579,1,8,1:3:0:0:
302,325,25679,5,4,1:2:0:0:
476,32,27079,2,0,P|406:79|313:75,1,154.53,0|0,1:2|2:0,2:0:0:0:
258,55,27279,1,4,1:2:0:0:
423,371,27679,1,4,1:2:0:0:
2,185,28079,2,0,B|69:155|118:206|90:227|143:272|221:232,1,218.16,4|0,1:2|1:2,2:0:0:0:
249,194,28429,1,0,1:2:0:0:
253,198,28479,1,8,2:0:0:0:
132,339,28579,1,8,2:0:0:0:
237,101,28679,1,8,2:0:0:0:
132,339,28779,1,8,2:0:0:0:
312,50,28879,54,0,P|319:100|328:160,1,82.8200000000001,6|0,1:2|2:0,1:0:0:0:
257,266,29079,1,10,1:2:0:0:
413,88,29179,2,0,P|406:138|397:198,1,82.8200000000001,2|0,1:2|2:0,1:0:0:0:
471,305,29379,1,8,1:3:0:0:
288,242,29479,1,10,1:2:0:0:
485,136,29579,1,4,1:3:0:0:
338,334,29679,102,0,P|282:369|205:350,1,124.23,2|0,1:2|2:0,1:0:0:0:
195,358,29879,2,0,P|201:317|206:276,1,82.8200000000001,10|0,1:2|2:0,1:0:0:0:
0,229,30079,2,0,P|32:254|65:280,1,82.8200000000001,2|0,1:2|2:0,1:0:0:0:
202,106,30279,2,0,P|163:121|125:136,1,82.8200000000001,10|0,1:2|2:0,1:0:0:0:
330,230,30479,6,0,P|373:251|421:248,1,82.8200000000001,2|0,1:2|2:0,1:0:0:0:
297,49,30679,1,10,1:2:0:0:
205,274,30779,2,0,P|162:295|114:292,1,82.8200000000001,2|0,1:2|2:0,1:0:0:0:
202,106,30979,1,8,1:3:0:0:
275,339,31079,1,10,1:2:0:0:
338,139,31179,1,4,1:3:0:0:
128,296,31279,102,0,L|111:147,1,124.23,2|0,1:2|2:0,1:0:0:0:
106,143,31479,2,0,P|149:122|197:125,1,82.8200000000001,10|0,1:2|2:0,1:0:0:0:
325,266,31679,2,0,P|285:239|263:196,1,82.8200000000001,2|0,1:2|2:0,1:0:0:0:
313,16,31879,2,0,P|309:63|283:103,1,82.8200000000001,10|0,1:2|2:0,1:0:0:0:
154,315,32079,6,0,P|147:274|142:233,1,82.8200000000001,2|0,1:2|2:0,1:0:0:0:
211,53,32279,1,10,1:2:0:0:
44,258,32379,2,0,P|50:217|55:176,1,82.8200000000001,2|0,1:2|2:0,1:0:0:0:
3,30,32579,1,8,1:3:0:0:
188,150,32679,1,10,1:2:0:0:
26,31,32779,1,4,1:3:0:0:
142,233,32879,102,0,P|198:268|275:249,1,124.23,2|0,1:2|2:0,1:0:0:0:
285,257,33079,2,0,P|279:216|274:175,1,82.8200000000001,10|0,1:2|2:0,1:0:0:0:
462,137,33279,2,0,P|429:162|396:187,1,82.8200000000001,2|0,1:2|2:0,1:0:0:0:
268,24,33479,2,0,P|306:39|344:55,1,82.8200000000001,10|0,1:2|2:0,1:0:0:0:
361,312,33679,5,2,1:2:0:0:
268,137,33779,1,8,1:3:0:0:
188,352,33879,1,10,1:2:0:0:
396,187,33979,1,14,1:3:0:0:
197,68,34079,1,0,1:2:0:0:
285,257,34179,1,10,1:3:0:0:
231,0,34279,1,10,1:2:0:0:
279,229,34379,1,6,1:3:0:0:
118,22,34479,102,0,P|108:87|98:157,1,124.23,2|0,1:2|2:0,1:0:0:0:
96,178,34679,2,0,P|134:208|190:207,1,82.8200000000001,10|0,1:2|2:0,1:0:0:0:
348,59,34879,2,0,P|309:72|282:103,1,82.8200000000001,2|0,1:2|2:0,1:0:0:0:
323,337,35079,2,0,P|331:297|318:258,1,82.8200000000001,10|0,1:2|2:0,1:0:0:0:
180,40,35279,6,0,P|173:90|164:150,1,82.8200000000001,6|0,1:2|2:0,1:0:0:0:
233,310,35479,1,10,1:2:0:0:
80,94,35579,2,0,P|87:144|96:204,1,82.8200000000001,2|0,1:2|2:0,1:0:0:0:
27,364,35779,1,8,1:3:0:0:
207,229,35879,1,10,1:2:0:0:
0,153,35979,1,4,1:3:0:0:
187,349,36079,102,0,P|250:336|337:318,1,124.23,2|0,1:2|2:0,1:0:0:0:
339,342,36279,2,0,P|345:301|350:260,1,82.8200000000001,10|0,1:2|2:0,1:0:0:0:
379,52,36479,2,0,P|373:93|367:133,1,82.8200000000001,2|0,1:2|2:0,1:0:0:0:
353,364,36679,2,0,P|359:323|364:282,1,82.8200000000001,10|0,1:2|2:0,1:0:0:0:
288,74,36879,6,0,P|239:76|194:108,1,82.8200000000001,2|0,1:2|2:0,1:0:0:0:
116,284,37079,1,10,1:2:0:0:
146,10,37179,2,0,P|112:46|103:100,1,82.8200000000001,2|0,1:2|2:0,1:0:0:0:
211,307,37379,1,8,1:3:0:0:
9,203,37479,1,10,1:2:0:0:
209,91,37579,1,4,1:3:0:0:
111,366,37679,102,0,P|87:319|104:231,1,124.23,2|0,1:2|2:0,1:0:0:0:
103,213,37879,2,0,P|148:221|198:228,1,82.8200000000001,10|0,1:2|2:0,1:0:0:0:
435,248,38079,2,0,P|394:241|353:234,1,82.8200000000001,2|0,1:2|2:0,1:0:0:0:
96,183,38279,2,0,P|136:190|177:196,1,82.8200000000001,10|0,1:2|2:0,1:0:0:0:
358,66,38479,5,14,2:0:0:0:
263,297,38579,1,0,1:2:0:0:
346,94,38679,1,10,2:0:0:0:
409,337,38779,2,0,P|367:369|318:368,1,82.8200000000001,2|8,1:2|2:0,2:0:0:0:
150,178,38979,1,0,1:2:0:0:
330,224,39079,1,10,2:0:0:0:
77,314,39179,1,0,1:2:0:0:
303,107,39279,102,0,P|311:155|320:203,1,82.8200000000001,10|0,2:0|1:2,2:0:0:0:
209,355,39479,1,10,2:0:0:0:
428,239,39579,1,0,1:2:0:0:
231,166,39679,1,10,2:0:0:0:
445,318,39779,1,0,1:2:0:0:
303,107,39879,1,10,2:0:0:0:
373,377,39979,1,0,1:2:0:0:
423,99,40079,6,0,P|430:58|437:17,1,82.8200000000001,10|0,2:0|1:2,2:0:0:0:
231,166,40279,1,10,2:0:0:0:
445,318,40379,2,0,P|445:277|424:234,1,82.8200000000001,2|8,1:2|2:0,2:0:0:0:
249,135,40579,1,0,1:2:0:0:
447,207,40679,1,10,2:0:0:0:
214,294,40779,1,0,1:2:0:0:
379,159,40879,101,10,2:0:0:0:
398,122,40929,1,8,2:0:0:0:
399,81,40979,1,8,2:0:0:0:
381,44,41029,1,8,2:0:0:0:
349,20,41079,2,0,P|326:26|294:33,1,41.41,2|0,1:2|1:2,2:0:0:0:
94,153,41179,1,8,2:0:0:0:
134,159,41229,1,8,2:0:0:0:
175,164,41279,1,10,2:0:0:0:
217,170,41329,1,8,2:0:0:0:
258,175,41379,2,0,L|244:118,1,41.41,0|0,1:2|1:2,2:0:0:0:
115,0,41479,1,10,2:0:0:0:
112,12,41529,1,8,2:0:0:0:
111,24,41579,1,8,2:0:0:0:
108,36,41629,1,8,2:0:0:0:
107,48,41679,102,0,P|159:55|233:63,1,92.92,14|0,1:2|1:2,1:0:0:0:
462,84,41879,1,10,1:2:0:0:
175,164,41979,1,0,1:2:0:0:
436,93,42079,1,10,1:2:0:0:
275,286,42179,1,0,1:2:0:0:
327,12,42279,1,10,1:2:0:0:
472,248,42379,1,0,1:2:0:0:
309,32,42479,102,0,P|287:75|292:124,1,92.92,10|0,1:2|1:2,1:0:0:0:
387,287,42679,1,10,1:2:0:0:
175,164,42779,1,0,1:2:0:0:
404,310,42879,1,10,1:2:0:0:
123,224,42979,1,0,1:2:0:0:
369,95,43079,1,10,1:2:0:0:
206,349,43179,1,0,1:2:0:0:
457,135,43279,6,0,P|456:85|412:26,1,92.92,10|0,1:2|1:2,1:0:0:0:
242,256,43479,1,10,1:2:0:0:
331,5,43579,1,0,1:2:0:0:
420,271,43679,1,10,1:2:0:0:
183,71,43779,1,0,1:2:0:0:
361,337,43879,1,10,1:2:0:0:
270,68,43979,1,0,1:2:0:0:
206,349,44079,101,10,1:2:0:0:
401,126,44179,1,0,1:2:0:0:
123,224,44279,1,10,1:2:0:0:
410,90,44379,1,0,1:2:0:0:
209,260,44479,1,10,1:2:0:0:
352,0,44579,1,0,1:2:0:0:
427,295,44679,1,10,1:2:0:0:
359,29,44779,1,0,1:2:0:0:
275,337,44879,6,0,P|228:361|177:352,1,92.92,14|0,1:2|1:2,1:0:0:0:
97,109,45079,1,10,1:2:0:0:
0,352,45179,1,0,1:2:0:0:
281,124,45279,1,10,1:2:0:0:
22,227,45379,1,0,1:2:0:0:
307,130,45479,1,10,1:2:0:0:
101,0,45579,1,0,1:2:0:0:
292,244,45679,102,0,P|344:233|409:219,1,92.92,10|0,1:2|1:2,1:0:0:0:
215,75,45879,1,10,1:2:0:0:
481,200,45979,1,0,1:2:0:0:
171,384,46079,1,10,1:2:0:0:
163,352,46129,1,8,1:2:0:0:
168,313,46179,1,8,1:3:0:0:
184,277,46229,1,8,1:3:0:0:
209,247,46279,1,4,1:3:0:0:
224,207,46329,1,4,1:3:0:0:
231,162,46379,1,4,1:3:0:0:
225,114,46429,1,4,1:3:0:0:
197,77,46479,5,10,1:2:0:0:
197,77,47279,2,0,P|146:85|76:96,1,92.92,10|8,1:2|1:3,1:0:0:0:
254,360,47479,1,8,1:3:0:0:
192,55,47579,2,0,P|141:63|71:74,1,92.92,10|4,1:2|1:3,1:0:0:0:
278,280,47779,1,4,1:3:0:0:
355,28,47879,1,10,1:2:0:0:
287,254,47979,1,4,1:3:0:0:
456,56,48079,86,0,P|376:70|288:85,2,165.64,6|8|0,1:2|2:0|1:2,2:0:0:0:
365,182,48579,1,0,1:2:0:0:
310,0,48679,1,10,2:0:0:0:
373,209,48779,1,10,1:3:0:0:
221,15,48879,2,0,P|195:55|193:101,1,82.8200000000001,2|0,2:0|1:2,2:0:0:0:
250,245,49079,1,8,2:0:0:0:
135,7,49179,2,0,P|149:92|166:186,1,165.64,4|0,1:3|1:2,2:0:0:0:
25,275,49479,2,0,P|33:230|44:167,1,82.8200000000001,8|0,2:0|2:0,2:0:0:0:
201,345,49679,1,4,1:3:0:0:
201,345,49879,38,0,P|248:351|320:358,1,82.8200000000001,10|0,2:0|2:0,2:0:0:0:
484,285,50079,2,0,P|442:280|401:275,1,82.8200000000001,2|0,1:2|1:2,2:0:0:0:
171,174,50279,2,0,P|212:169|253:164,1,82.8200000000001,10|0,2:0|1:2,2:0:0:0:
424,72,50479,2,0,P|382:77|341:81,1,82.8200000000001,2|0,2:0|1:2,2:0:0:0:
92,56,50679,2,0,P|142:4|225:13,1,124.23,10|0,2:0|2:0,2:0:0:0:
215,4,50879,2,0,P|208:48|201:93,1,82.8200000000001,2|0,2:0|1:2,2:0:0:0:
166,293,51079,2,0,P|172:252|178:211,1,82.8200000000001,10|0,2:0|2:0,2:0:0:0:
447,98,51279,70,0,B|398:81|362:112|380:121|347:166|275:141,1,165.64,2|8,1:2|2:0,2:0:0:0:
155,206,51579,1,2,2:0:0:0:
305,59,51679,1,0,1:2:0:0:
319,261,51779,1,0,1:2:0:0:
181,104,51879,1,8,2:0:0:0:
404,276,51979,2,0,P|320:297|229:316,1,165.64,8|0,1:3|1:2,2:0:0:0:
50,219,52279,1,8,2:0:0:0:
174,380,52379,2,0,P|197:226|176:193,1,165.64,4|0,1:3|1:2,2:0:0:0:
81,57,52679,2,0,P|129:65|184:73,1,82.8200000000001,8|0,2:0|2:0,2:0:0:0:
402,181,52879,38,0,P|330:170|244:156,1,124.23,0|0,1:2|2:0,2:0:0:0:
248,161,53079,2,0,P|240:117|269:64,1,82.8200000000001,8|0,2:0|2:0,2:0:0:0:
303,264,53279,1,0,1:2:0:0:
150,159,53379,1,0,1:2:0:0:
342,39,53479,1,8,2:0:0:0:
248,161,53579,2,0,P|257:258|266:352,1,165.64,8|0,1:3|1:2,2:0:0:0:
402,181,53879,1,8,2:0:0:0:
174,259,53979,2,0,B|84:239|110:326|4:298,1,165.64,4|0,1:3|1:2,2:0:0:0:
115,30,54279,1,10,2:0:0:0:
118,62,54345,1,2,2:0:0:0:
121,95,54412,1,2,2:0:0:0:
124,128,54479,70,0,P|205:142|287:156,2,165.64,6|8|0,1:2|2:0|1:2,2:0:0:0:
225,24,54979,1,0,1:2:0:0:
174,259,55079,1,10,2:0:0:0:
219,53,55179,1,10,1:3:0:0:
294,288,55279,2,0,P|341:279|374:238,1,82.8200000000001,2|0,2:0|1:2,2:0:0:0:
396,69,55479,1,8,2:0:0:0:
407,331,55579,2,0,P|396:243|385:151,1,165.64,4|0,1:3|1:2,2:0:0:0:
225,24,55879,2,0,P|219:70|212:116,1,82.8200000000001,8|0,2:0|2:0,2:0:0:0:
170,319,56079,1,4,1:3:0:0:
170,319,56279,38,0,P|104:333|58:358,1,82.8200000000001,10|0,2:0|2:0,2:0:0:0:
307,146,56479,2,0,P|345:159|386:165,1,82.8200000000001,2|0,1:2|1:2,2:0:0:0:
103,225,56679,2,0,P|81:182|94:134,1,82.8200000000001,10|0,2:0|1:2,2:0:0:0:
310,295,56879,2,0,P|302:343|294:390,1,82.8200000000001,2|0,1:2|1:2,2:0:0:0:
187,165,57079,2,0,P|176:97|168:36,1,124.23,10|0,2:0|2:0,2:0:0:0:
162,10,57279,2,0,P|206:2|250:25,1,82.8200000000001,2|0,2:0|1:2,2:0:0:0:
496,132,57479,2,0,P|443:169|373:159,1,124.23,10|0,2:0|2:0,2:0:0:0:
350,155,57679,70,0,P|355:111|360:55,1,82.8200000000001,2|0,1:2|2:0,2:0:0:0:
459,275,57879,1,8,2:0:0:0:
259,114,57979,2,0,B|167:101|201:186|93:167,1,165.64,2|0,2:0|1:2,2:0:0:0:
289,284,58279,2,0,P|292:325|297:366,1,82.8200000000001,8|8,2:0|1:3,2:0:0:0:
350,155,58479,1,0,1:0:0:0:
176,261,58579,1,0,1:2:0:0:
427,156,58679,1,8,2:0:0:0:
285,52,58779,2,0,P|236:96|247:201,1,165.64,4|0,1:3|1:2,2:0:0:0:
378,334,59079,1,10,2:0:0:0:
176,261,59179,1,2,2:0:0:0:
393,361,59279,38,0,P|400:278|408:178,2,165.64,2|8|0,1:2|2:0|1:2,2:0:0:0:
314,223,59779,1,0,1:2:0:0:
497,336,59879,2,0,P|490:288|484:237,1,82.8200000000001,8|8,2:0|1:3,2:0:0:0:
361,75,60079,1,0,1:2:0:0:
512,129,60179,1,0,1:2:0:0:
314,223,60279,1,8,2:0:0:0:
442,35,60379,2,0,B|464:58|487:77|487:77|467:128|449:178,1,165.64,4|0,1:3|1:2,2:0:0:0:
232,32,60679,1,10,2:0:0:0:
232,32,60879,70,0,P|166:42|88:52,1,124.23,6|0,1:2|2:0,2:0:0:0:
76,54,61079,2,0,P|64:106|85:149,1,82.8200000000001,8|0,2:0|2:0,2:0:0:0:
248,317,61279,2,0,P|255:269|262:212,1,82.8200000000001,0|0,1:2|1:2,2:0:0:0:
353,68,61479,1,10,2:0:0:0:
164,149,61579,1,10,1:3:0:0:
362,301,61679,2,0,P|352:227|341:145,1,124.23,2|0,2:0|2:0,2:0:0:0:
339,142,61879,1,8,2:0:0:0:
248,317,61979,2,0,B|189:295|142:280|142:280|117:298|91:315,1,165.64,4|0,1:3|1:2,2:0:0:0:
188,162,62279,1,8,2:0:0:0:
148,370,62379,1,0,2:0:0:0:
185,187,62479,1,4,1:3:0:0:
185,187,62679,38,0,P|248:197|330:209,1,124.23,10|0,2:0|2:0,2:0:0:0:
338,214,62879,2,0,P|347:166|330:123,1,82.8200000000001,2|0,1:2|1:2,2:0:0:0:
145,0,63079,2,0,P|136:50|127:97,1,82.8200000000001,10|0,2:0|1:2,2:0:0:0:
201,270,63279,1,2,2:0:0:0:
21,169,63379,1,0,1:2:0:0:
230,68,63479,2,0,P|239:118|248:165,1,82.8200000000001,10|0,2:0|1:0,2:0:0:0:
440,335,63679,2,0,P|460:277|427:208,1,124.23,2|0,2:0|2:0,2:0:0:0:
418,194,63879,2,0,P|373:204|318:217,1,82.8200000000001,10|0,2:0|2:0,2:0:0:0:
82,278,64079,70,0,B|131:254|176:283|155:296|195:329|256:302,1,165.64,2|8,1:2|2:0,2:0:0:0:
162,131,64379,1,2,2:0:0:0:
110,359,64479,1,0,1:2:0:0:
245,156,64579,1,0,1:2:0:0:
193,384,64679,1,8,2:0:0:0:
78,109,64779,2,0,P|123:47|237:50,1,165.64,8|0,1:3|1:2,2:0:0:0:
393,173,65079,1,8,2:0:0:0:
311,0,65179,1,4,1:3:0:0:
245,156,65279,2,0,P|253:225|264:305,1,124.23,2|0,2:0|2:0,2:0:0:0:
265,314,65479,2,0,P|311:333|363:315,1,82.8200000000001,10|0,2:0|2:0,2:0:0:0:
153,89,65679,38,0,B|130:113|109:133|109:133|133:183|156:240,1,165.64,2|8,1:2|2:0,2:0:0:0:
427,85,65979,2,0,P|375:31|284:45,1,165.64,2|0,2:0|1:2,2:0:0:0:
379,224,66279,2,0,P|428:215|478:205,1,82.8200000000001,10|8,2:0|1:3,2:0:0:0:
278,132,66479,1,2,2:0:0:0:
345,307,66579,1,0,1:2:0:0:
185,135,66679,1,10,2:0:0:0:
252,310,66779,1,4,1:3:0:0:
112,82,66879,2,0,P|101:149|86:235,1,124.23,2|0,2:0|2:0,2:0:0:0:
84,240,67079,2,0,P|125:260|176:242,1,82.8200000000001,8|0,2:0|2:0,2:0:0:0:
337,61,67279,70,0,P|381:69|449:80,1,82.8200000000001,6|0,1:2|2:0,2:0:0:0:
367,299,67479,2,0,B|344:275|323:255|323:255|347:205|370:148,1,165.64,8|0,2:0|1:2,2:0:0:0:
258,325,67779,1,0,1:2:0:0:
433,223,67879,1,10,2:0:0:0:
264,139,67979,1,10,1:3:0:0:
457,336,68079,2,0,P|462:287|467:235,1,82.8200000000001,2|0,2:0|1:2,2:0:0:0:
509,77,68279,2,0,P|470:130|375:132,1,165.64,8|0,2:0|2:0,2:0:0:0:
254,42,68579,1,0,1:2:0:0:
380,248,68679,1,10,2:0:0:0:
325,23,68779,1,2,2:0:0:0:
286,271,68879,38,0,P|199:289|123:307,1,165.64,6|8,1:3|2:0,2:0:0:0:
0,99,69179,2,0,B|50:77|93:108|71:120|110:155|172:132,1,165.64,2|0,2:0|1:2,2:0:0:0:
325,23,69479,1,10,2:0:0:0:
205,253,69579,1,2,1:2:0:0:
428,60,69679,2,0,B|451:84|472:104|472:104|448:154|425:211,1,165.64,2|8,2:0|2:0,2:0:0:0:
251,362,69979,2,0,P|236:270|225:189,1,165.64,2|0,1:2|1:2,2:0:0:0:
91,22,70279,2,0,P|53:67|58:119,1,82.8200000000001,10|0,2:0|2:0,2:0:0:0:
353,128,70479,54,0,P|302:121|249:114,1,82.8200000000001,14|0,3:2|2:0,3:0:0:0:
99,210,70679,1,0,3:2:0:0:
209,21,70779,1,0,3:2:0:0:
306,215,70879,2,0,P|255:222|202:229,1,82.8200000000001,8|0,3:2|2:0,3:0:0:0:
91,22,71079,1,0,3:2:0:0:
270,116,71179,1,0,3:2:0:0:
103,288,71279,2,0,P|90:233|111:193,1,82.8200000000001,8|0,3:2|2:0,3:0:0:0:
204,384,71479,1,0,3:2:0:0:
6,274,71579,1,0,3:2:0:0:
186,128,71679,2,0,P|194:176|202:224,1,82.8200000000001,8|0,3:2|2:0,3:0:0:0:
96,338,71879,1,2,3:2:0:0:
97,325,71929,1,0,3:2:0:0:
99,313,71979,1,2,3:2:0:0:
101,301,72029,1,0,3:2:0:0:
103,288,72079,70,0,P|150:292|187:304,1,82.8200000000001,8|0,3:2|3:2,3:0:0:0:
332,209,72279,1,0,3:2:0:0:
240,384,72379,1,0,3:2:0:0:
146,199,72479,2,0,P|182:180|223:170,1,82.8200000000001,8|0,3:2|3:2,3:0:0:0:
370,337,72679,1,0,3:2:0:0:
214,280,72779,1,0,3:2:0:0:
357,137,72879,2,0,P|364:182|376:252,1,82.8200000000001,8|0,3:2|3:2,3:0:0:0:
260,59,73079,1,0,3:2:0:0:
459,124,73179,1,0,3:2:0:0:
214,280,73279,1,8,3:2:0:0:
214,280,73679,38,0,P|220:239|225:197,1,82.8200000000001,14|0,3:2|2:0,3:0:0:0:
332,24,73879,1,0,3:2:0:0:
128,119,73979,1,0,3:2:0:0:
340,230,74079,2,0,P|334:189|329:147,1,82.8200000000001,8|0,3:2|2:0,3:0:0:0:
214,280,74279,1,0,3:2:0:0:
393,367,74379,1,0,3:2:0:0:
224,197,74479,2,0,P|181:206|130:217,1,82.8200000000001,8|0,3:2|2:0,3:0:0:0:
325,315,74679,1,0,3:2:0:0:
230,117,74779,1,0,3:2:0:0:
148,333,74879,2,0,P|186:364|234:362,1,82.8200000000001,8|0,3:2|2:0,3:0:0:0:
374,165,75079,1,2,3:2:0:0:
364,156,75129,1,0,3:2:0:0:
353,150,75179,1,2,3:2:0:0:
341,147,75229,1,0,3:2:0:0:
329,148,75279,70,0,P|333:189|339:230,1,82.8200000000001,8|0,3:2|3:2,3:0:0:0:
251,384,75479,1,0,3:2:0:0:
458,271,75579,1,0,3:2:0:0:
245,193,75679,2,0,P|240:234|234:275,1,82.8200000000001,8|0,3:2|3:2,3:0:0:0:
345,72,75879,1,0,3:2:0:0:
144,164,75979,1,0,3:2:0:0:
424,97,76079,37,8,3:2:0:0:
191,24,76179,1,8,3:2:0:0:
419,172,76279,1,8,3:0:0:0:
238,123,76379,1,8,3:0:0:0:
464,0,76479,1,8,3:2:0:0:
468,3,76679,1,4,3:0:0:0:
345,72,76779,1,4,3:0:0:0:
468,224,76879,6,0,P|461:181|452:128,1,72.7199999999999,0|0,1:2|1:2,2:0:0:0:
303,276,77079,1,2,1:2:0:0:
449,339,77179,1,2,2:0:0:0:
275,262,77279,2,0,B|181:250|232:328|116:302,1,145.44,10|0,2:0|2:0,2:0:0:0:
2,185,77579,1,2,2:0:0:0:
2,185,77629,1,2,2:0:0:0:
2,185,77679,2,0,P|8:220|13:256,1,72.7199999999999,2|0,2:0|2:0,2:0:0:0:
146,119,77879,1,10,1:3:0:0:
0,48,77979,1,0,1:2:0:0:
105,219,78079,2,0,P|146:211|202:200,1,72.7199999999999,10|0,2:0|1:2,2:0:0:0:
270,51,78279,2,0,P|234:44|198:37,1,72.7199999999999,2|0,1:2|2:0,2:0:0:0:
305,175,78479,38,0,P|372:204|461:173,1,145.44,2|0,1:2|1:2,2:0:0:0:
233,282,78779,1,2,2:0:0:0:
233,282,78829,1,2,2:0:0:0:
233,282,78879,2,0,B|166:254|117:299|144:318|86:366|12:330,1,218.16,10|0,2:0|2:0,2:0:0:0:
0,217,79279,2,0,P|35:223|71:230,1,72.7199999999999,0|0,2:0|2:0,2:0:0:0:
191,64,79479,1,8,1:3:0:0:
61,135,79579,1,0,1:2:0:0:
274,57,79679,1,8,2:0:0:0:
127,2,79779,1,0,1:2:0:0:
309,134,79879,1,4,1:3:0:0:
191,64,79979,1,0,1:2:0:0:
399,267,80079,70,0,P|404:232|410:195,1,72.7199999999999,0|0,1:2|1:2,2:0:0:0:
484,43,80279,1,2,2:0:0:0:
309,134,80379,1,2,2:0:0:0:
443,245,80479,2,0,P|430:163|418:81,1,145.44,10|0,2:0|2:0,2:0:0:0:
299,222,80779,1,2,2:0:0:0:
483,332,80879,2,0,P|415:278|339:303,1,145.44,2|10,2:0|1:3,2:0:0:0:
223,367,81179,1,0,1:2:0:0:
299,222,81279,1,10,2:0:0:0:
349,384,81379,1,0,1:2:0:0:
197,262,81479,2,0,P|162:268|126:275,1,72.7199999999999,2|0,1:2|2:0,2:0:0:0:
12,142,81679,38,0,P|90:182|150:162,1,145.44,2|0,1:2|1:2,2:0:0:0:
325,118,81979,1,2,2:0:0:0:
325,118,82029,1,2,2:0:0:0:
325,118,82079,2,0,B|258:146|209:101|236:82|178:34|104:70,1,218.16,10|0,2:0|2:0,2:0:0:0:
224,223,82479,2,0,P|259:216|295:209,1,72.7199999999999,0|0,2:0|2:0,2:0:0:0:
423,115,82679,1,8,1:3:0:0:
365,283,82779,1,0,1:2:0:0:
415,87,82879,1,8,2:0:0:0:
466,300,82979,1,0,1:2:0:0:
322,176,83079,1,4,1:3:0:0:
425,197,83179,1,0,1:2:0:0:
276,341,83279,70,0,P|240:347|204:354,1,72.7199999999999,0|0,1:2|1:2,2:0:0:0:
91,206,83479,1,2,1:2:0:0:
226,258,83579,1,2,2:0:0:0:
82,371,83679,2,0,P|51:306|72:234,1,145.44,10|0,2:0|2:0,2:0:0:0:
171,96,83979,1,2,2:0:0:0:
128,302,84079,2,0,P|119:229|107:140,1,145.44,2|10,2:0|1:3,2:0:0:0:
0,24,84379,1,0,1:2:0:0:
205,76,84479,1,10,2:0:0:0:
18,5,84579,1,0,1:2:0:0:
228,154,84679,2,0,P|263:147|299:140,1,72.7199999999999,2|0,1:2|2:0,2:0:0:0:
454,26,84879,38,0,P|405:74|417:170,1,145.44,2|0,1:2|1:2,2:0:0:0:
512,268,85179,1,2,2:0:0:0:
512,268,85229,1,2,2:0:0:0:
512,268,85279,2,0,B|445:240|396:285|423:304|365:352|291:316,1,218.16,10|0,2:0|2:0,2:0:0:0:
184,230,85679,2,0,P|178:265|173:301,1,72.7199999999999,0|0,2:0|2:0,2:0:0:0:
118,144,85879,1,8,1:3:0:0:
282,212,85979,1,0,1:2:0:0:
93,255,86079,1,8,2:0:0:0:
215,125,86179,1,0,1:2:0:0:
202,309,86279,1,4,1:3:0:0:
182,207,86379,1,0,1:2:0:0:
126,373,86479,70,0,B|174:400|232:352|205:333|254:288|321:316,1,218.16,2|0,1:2|2:0,2:0:0:0:
433,349,86879,2,0,P|427:313|422:277,1,72.7199999999999,8|0,2:0|2:0,2:0:0:0:
311,129,87079,1,2,2:0:0:0:
473,178,87179,1,2,2:0:0:0:
318,314,87279,2,0,P|323:278|328:242,1,72.7199999999999,2|0,2:0|2:0,2:0:0:0:
431,94,87479,1,8,1:3:0:0:
269,143,87579,1,0,1:2:0:0:
416,245,87679,1,8,2:0:0:0:
320,43,87779,1,0,1:2:0:0:
320,43,87829,1,0,1:2:0:0:
320,43,87879,1,0,1:2:0:0:
216,239,87979,1,0,1:2:0:0:
61,52,88079,38,0,P|70:101|80:155,1,82.8200000000001,8|0,2:0|2:0,2:0:0:0:
29,277,88279,1,0,1:2:0:0:
29,277,88379,1,0,1:2:0:0:
199,88,88479,2,0,P|190:137|180:191,1,82.8200000000001,8|0,2:0|2:0,2:0:0:0:
231,313,88679,1,0,1:2:0:0:
231,313,88779,1,0,1:2:0:0:
383,31,88879,2,0,P|392:80|402:134,1,82.8200000000001,8|0,2:0|2:0,2:0:0:0:
351,256,89079,1,0,1:2:0:0:
351,256,89179,1,0,1:2:0:0:
481,70,89279,1,8,2:0:0:0:
291,155,89379,1,8,2:0:0:0:
505,263,89479,1,8,2:3:0:0:
418,152,89579,1,4,2:3:0:0:
302,354,89679,70,0,P|248:346|223:318,1,72.7199999999999,0|0,1:2|1:2,2:0:0:0:
154,179,89879,1,2,1:2:0:0:
83,342,89979,1,2,2:0:0:0:
271,235,90079,2,0,P|272:142|225:75,1,145.44,2|0,2:0|2:0,2:0:0:0:
72,9,90379,1,2,2:0:0:0:
72,9,90429,1,2,2:0:0:0:
72,9,90479,2,0,P|47:48|45:88,1,72.7199999999999,10|0,2:0|2:0,2:0:0:0:
153,269,90679,1,10,1:3:0:0:
85,160,90779,2,0,P|42:169|-8:179,1,72.7199999999999,0|2,1:2|2:0,2:0:0:0:
203,344,90979,1,0,1:2:0:0:
271,235,91079,2,0,P|314:244|364:254,1,72.7199999999999,2|0,1:2|2:0,2:0:0:0:
511,374,91279,38,0,P|499:293|486:209,1,145.44,2|0,1:2|1:2,2:0:0:0:
469,82,91579,1,2,2:0:0:0:
366,160,91679,2,0,B|302:133|253:178|280:197|222:245|173:218,1,218.16,2|0,2:0|2:0,2:0:0:0:
24,105,92079,2,0,P|32:155|45:240,1,109.08,8|0,2:0|2:0,2:0:0:0:
48,247,92279,1,8,1:3:0:0:
133,121,92379,2,0,P|176:130|226:140,1,72.7199999999999,0|0,1:2|2:0,2:0:0:0:
330,330,92579,1,0,1:2:0:0:
245,204,92679,2,0,P|202:213|152:223,1,72.7199999999999,4|0,1:3|1:2,2:0:0:0:
33,336,92879,69,0,1:2:0:0:
133,121,92979,1,0,1:2:0:0:
174,302,93079,1,2,1:2:0:0:
13,225,93179,1,2,2:0:0:0:
201,316,93279,2,0,B|250:299|298:282|298:282|319:296|343:310,1,145.44,2|0,2:0|2:0,2:0:0:0:
469,207,93579,1,2,2:0:0:0:
384,364,93679,2,0,P|377:306|366:221,1,109.08,10|0,2:0|2:0,2:0:0:0:
349,233,93879,2,0,P|353:189|357:142,1,72.7199999999999,10|0,1:3|1:2,2:0:0:0:
374,0,94079,2,0,P|370:36|367:72,1,72.7199999999999,2|0,2:0|1:2,2:0:0:0:
268,201,94279,2,0,P|210:216|141:245,1,109.08,2|0,1:2|2:0,2:0:0:0:
108,295,94479,38,0,P|67:253|94:152,1,145.44,2|0,1:2|1:2,2:0:0:0:
136,36,94779,1,2,2:0:0:0:
189,173,94879,2,0,B|237:200|295:152|268:133|317:88|381:114,1,218.16,2|0,2:0|2:0,2:0:0:0:
498,191,95279,2,0,P|490:139|477:60,1,109.08,8|0,2:0|2:0,2:0:0:0:
489,47,95479,1,0,1:2:0:0:
418,197,95579,2,0,P|374:219|329:213,1,72.7199999999999,0|2,1:2|2:0,2:0:0:0:
466,38,95779,1,0,1:2:0:0:
395,188,95879,2,0,P|351:210|306:204,1,72.7199999999999,0|0,1:2|1:2,2:0:0:0:
143,56,96079,69,14,2:0:0:0:
206,332,96179,1,10,2:0:0:0:
148,79,96279,1,10,2:0:0:0:
390,305,96579,37,10,2:0:0:0:
93,211,96679,1,10,2:0:0:0:
330,112,96779,1,10,2:0:0:0:
235,222,96979,69,8,2:0:0:0:
235,222,97029,1,8,2:0:0:0:
235,222,97079,1,8,2:0:0:0:
288,32,97179,1,8,2:3:0:0:
388,187,97279,1,8,2:3:0:0:
363,105,97379,1,4,2:3:0:0:
474,252,97479,1,4,2:3:0:0:
512,114,97579,1,4,2:3:0:0:
335,316,97679,37,14,2:0:0:0:
437,50,97779,1,10,2:0:0:0:
345,292,97879,1,10,2:0:0:0:
209,36,98179,69,10,2:0:0:0:
493,167,98279,1,10,2:0:0:0:
223,227,98379,1,10,2:0:0:0:
327,113,98579,37,0,1:2:0:0:
327,113,98629,1,0,1:2:0:0:
327,113,98679,1,12,2:0:0:0:
133,164,98779,1,8,2:0:0:0:
338,243,98879,1,0,1:2:0:0:
235,217,98979,1,8,2:0:0:0:
363,326,99079,1,8,2:0:0:0:
170,373,99179,1,0,1:2:0:0:
423,172,99279,69,14,2:0:0:0:
99,271,99379,1,10,2:0:0:0:
393,183,99479,1,10,2:0:0:0:
133,67,99779,37,10,2:0:0:0:
260,318,99879,1,10,2:0:0:0:
307,51,99979,2,0,P|227:70|142:90,1,145.44,10|0,2:0|1:2,2:0:0:0:
0,167,100279,1,8,2:3:0:0:
0,167,100329,1,8,2:0:0:0:
0,167,100379,1,8,2:3:0:0:
77,17,100479,1,0,1:2:0:0:
5,199,100579,1,8,2:3:0:0:
191,8,100679,69,14,2:0:0:0:
257,285,100779,1,10,2:0:0:0:
196,32,100879,1,10,2:0:0:0:
72,290,101012,37,10,2:0:0:0:
337,126,101145,70,0,P|368:182|371:285,1,145.44,10|0,2:0|2:0,2:0:0:0:
335,336,101412,37,10,2:0:0:0:
145,94,101545,69,10,2:0:0:0:
474,64,101679,86,0,B|345:7|222:121|322:162|197:292|65:211,1,484.799999999998,14|0,2:0|1:2,2:0:0:0:
41,194,103229,1,0,1:2:0:0:
45,198,103279,5,8,2:0:0:0:
127,328,103379,1,8,2:0:0:0:
56,112,103479,1,8,2:0:0:0:
214,318,103579,1,8,2:0:0:0:
265,28,103679,1,8,2:0:0:0:
133,207,103779,1,8,2:0:0:0:
424,63,103879,1,8,2:0:0:0:
183,136,103979,1,8,2:0:0:0:
472,309,104079,54,0,P|483:218|491:144,1,154.53,6|0,1:2|2:0,1:0:0:0:
500,118,104279,2,0,P|447:110|392:139,1,103.02,10|0,1:2|1:2,1:0:0:0:
246,326,104479,1,2,1:2:0:0:
445,227,104579,1,0,1:2:0:0:
281,73,104679,2,0,P|294:134|308:204,1,103.02,10|0,1:2|1:2,1:0:0:0:
85,314,104879,6,0,P|46:247|76:149,1,154.53,2|0,1:2|2:0,1:0:0:0:
75,141,105079,2,0,P|129:150|187:159,1,103.02,10|0,1:2|1:2,1:0:0:0:
322,264,105279,1,2,1:2:0:0:
203,43,105379,1,0,1:2:0:0:
273,319,105479,1,10,1:2:0:0:
282,72,105579,1,0,1:2:0:0:
220,368,105679,70,0,P|169:376|118:384,1,103.02,2|0,1:2|1:2,1:0:0:0:
216,126,105879,1,8,1:2:0:0:
352,345,105979,2,0,P|402:353|453:361,1,103.02,2|0,1:2|1:2,1:0:0:0:
356,103,106179,1,0,1:2:0:0:
189,272,106279,1,10,1:2:0:0:
426,86,106379,1,0,1:2:0:0:
220,368,106479,22,0,P|152:374|91:250,1,206.04,2|8,1:2|1:2,1:0:0:0:
219,28,106779,1,0,1:2:0:0:
373,217,106879,2,0,B|315:191|267:236|291:252|243:302|159:260,1,206.04,2|8,1:2|1:2,1:0:0:0:
60,122,107179,1,0,1:2:0:0:
301,336,107279,6,0,P|375:308|455:298,1,154.53,6|0,1:2|2:0,1:0:0:0:
486,303,107479,1,10,1:2:0:0:
281,33,107579,2,0,P|212:74|216:192,1,206.04,2|0,1:2|1:2,1:0:0:0:
478,51,107879,1,10,1:2:0:0:
286,131,107979,1,2,1:2:0:0:
512,278,108079,70,0,P|438:250|358:240,1,154.53,2|0,1:2|2:0,1:0:0:0:
327,245,108279,1,10,1:2:0:0:
144,384,108379,2,0,P|75:343|79:225,1,206.04,2|0,1:2|1:2,1:0:0:0:
204,52,108679,1,10,1:2:0:0:
0,142,108779,1,2,1:2:0:0:
168,300,108879,22,0,P|178:249|189:199,1,103.02,2|0,1:2|1:2,1:0:0:0:
302,34,109079,1,8,1:2:0:0:
98,124,109179,1,0,1:2:0:0:
256,252,109279,1,10,1:2:0:0:
288,266,109329,1,8,1:2:0:0:
324,266,109379,1,8,1:2:0:0:
358,253,109429,1,8,1:2:0:0:
384,228,109479,1,8,1:3:0:0:
409,203,109529,1,8,1:3:0:0:
443,190,109579,1,4,1:3:0:0:
479,190,109629,1,4,1:3:0:0:
511,204,109679,6,0,P|400:218|284:252,1,206.04,14|0,1:2|1:2,1:0:0:0:
409,47,109979,1,0,1:2:0:0:
409,47,110029,1,0,1:2:0:0:
409,47,110079,1,10,1:2:0:0:
369,345,110179,1,10,1:2:0:0:
306,77,110279,1,10,1:2:0:0:
269,310,110379,1,10,1:2:0:0:
73,105,110479,70,0,P|145:119|240:136,1,154.53,6|0,1:2|2:0,1:0:0:0:
261,143,110679,2,0,P|279:92|254:26,1,103.02,10|0,1:2|1:2,1:0:0:0:
142,238,110879,1,2,1:2:0:0:
368,124,110979,1,0,1:2:0:0:
157,209,111079,1,10,1:2:0:0:
412,290,111179,1,0,1:2:0:0:
180,79,111279,22,0,P|101:89|8:100,1,154.53,2|0,1:2|2:0,1:0:0:0:
0,103,111479,2,0,P|-13:155|17:205,1,103.02,10|0,1:2|1:2,1:0:0:0:
255,303,111679,1,2,1:2:0:0:
83,138,111779,1,0,1:2:0:0:
156,346,111879,1,10,1:2:0:0:
182,98,111979,1,0,1:2:0:0:
340,372,112079,6,0,P|348:316|357:249,1,103.02,2|0,1:2|1:2,1:0:0:0:
282,57,112279,1,8,1:2:0:0:
446,308,112379,2,0,P|438:257|431:205,1,103.02,2|0,1:2|1:2,1:0:0:0:
487,3,112579,1,0,1:2:0:0:
300,157,112679,1,10,1:2:0:0:
482,30,112779,1,0,1:2:0:0:
272,226,112879,70,0,P|215:216|167:207,1,103.02,2|0,1:2|1:0,1:0:0:0:
26,113,113079,1,8,1:2:0:0:
108,322,113179,1,0,1:2:0:0:
219,115,113279,2,0,P|168:124|117:133,1,103.02,2|0,1:2|1:0,1:0:0:0:
230,333,113479,1,8,1:2:0:0:
337,118,113579,1,0,1:2:0:0:
138,227,113679,22,0,P|242:246|364:266,1,206.04,6|10,1:2|1:2,1:0:0:0:
458,24,113979,2,0,B|428:53|400:75|400:75|437:131|474:196,1,206.04,2|0,1:2|1:2,1:0:0:0:
280,48,114279,1,10,1:2:0:0:
509,94,114379,1,2,1:2:0:0:
236,225,114479,6,0,P|183:239|116:210,1,103.02,2|0,1:2|1:0,1:0:0:0:
280,48,114679,1,10,1:2:0:0:
340,262,114779,2,0,P|330:314|315:395,1,103.02,2|0,1:2|1:0,1:0:0:0:
189,146,114979,1,0,1:2:0:0:
419,322,115079,1,10,1:2:0:0:
213,151,115179,1,2,1:2:0:0:
213,151,115379,69,10,1:2:0:0:
463,204,115479,1,10,1:2:0:0:
152,295,115579,1,0,1:2:0:0:
152,295,115629,1,0,1:2:0:0:
155,298,115679,1,10,1:2:0:0:
392,121,115779,1,10,1:2:0:0:
129,37,115879,1,0,1:2:0:0:
129,37,115929,1,0,1:2:0:0:
129,37,115979,1,10,1:2:0:0:
308,327,116079,22,0,P|317:276|327:225,1,103.02,2|8,1:2|1:2,1:0:0:0:
311,193,116229,1,8,1:2:0:0:
315,197,116279,1,8,1:2:0:0:
406,343,116379,1,8,1:3:0:0:
318,102,116479,1,8,1:3:0:0:
204,268,116579,1,4,1:3:0:0:
311,0,116679,1,4,1:3:0:0:
421,220,116779,1,4,1:3:0:0:
110,123,116879,6,0,B|193:74|259:143|223:162|283:228|385:174,1,278.76,14|0,3:2|2:0,3:0:0:0:
490,57,117279,1,8,3:2:0:0:
346,289,117379,1,2,3:2:0:0:
406,38,117479,1,2,3:2:0:0:
441,317,117579,1,2,3:2:0:0:
309,95,117679,70,0,P|261:104|196:115,2,92.92,10|0|0,3:2|3:2|3:2,3:0:0:0:
193,277,117979,1,0,3:2:0:0:
262,20,118079,1,8,3:2:0:0:
381,255,118179,1,2,3:2:0:0:
148,152,118279,1,0,3:2:0:0:
389,59,118379,1,0,3:2:0:0:
193,277,118479,22,0,P|115:304|21:222,1,185.84,10|0,3:2|3:2,3:0:0:0:
296,199,118779,1,0,3:2:0:0:
296,199,118829,1,0,3:2:0:0:
296,199,118879,2,0,P|396:211|512:224,1,185.84,10|0,3:2|3:2,3:0:0:0:
389,59,119179,1,0,3:2:0:0:
312,291,119279,6,0,P|260:298|203:305,1,92.92,8|0,3:2|3:2,3:0:0:0:
56,210,119479,1,2,3:2:0:0:
166,384,119579,1,2,3:2:0:0:
205,177,119679,1,10,3:2:0:0:
86,318,119779,1,2,3:2:0:0:
172,87,119879,1,2,3:2:0:0:
312,291,119979,1,2,3:2:0:0:
56,210,120079,70,0,P|73:103|88:3,1,185.84,14|0,3:2|3:2,3:0:0:0:
280,220,120379,1,0,3:2:0:0:
104,139,120479,1,8,3:2:0:0:
258,29,120579,1,2,3:2:0:0:
146,259,120679,1,2,3:2:0:0:
263,50,120779,1,2,3:2:0:0:
328,323,120879,22,0,P|373:315|419:306,2,92.92,10|0|0,3:2|3:2|3:2,3:0:0:0:
191,193,121179,1,0,3:2:0:0:
269,384,121279,1,8,3:2:0:0:
315,142,121379,1,2,3:2:0:0:
228,298,121479,1,2,3:2:0:0:
286,59,121579,1,2,3:2:0:0:
286,59,121629,1,0,3:2:0:0:
286,59,121679,5,10,3:2:0:0:
406,268,121779,1,8,3:0:0:0:
191,193,121879,1,8,3:0:0:0:
417,67,121979,69,14,3:2:0:0:
228,298,122079,1,4,3:0:0:0:
400,89,122179,1,4,3:0:0:0:
439,358,122279,21,14,3:2:0:0:
315,142,122379,1,4,3:0:0:0:
427,335,122479,1,4,3:0:0:0:
191,193,122579,5,14,3:2:0:0:
417,67,122679,1,0,3:2:0:0:
333,244,122779,1,0,3:2:0:0:
333,244,122829,1,0,3:2:0:0:
333,244,122879,1,8,3:2:0:0:
266,35,122979,1,8,3:0:0:0:
322,318,123079,1,4,3:0:0:0:
186,25,123179,1,4,3:0:0:0:
142,364,123279,70,0,P|76:352|19:339,1,103.02,14|0,1:2|1:2,1:0:0:0:
333,244,123479,2,0,P|383:235|434:224,1,103.02,8|0,1:2|1:2,1:0:0:0:
175,141,123679,1,8,1:2:0:0:
472,292,123779,1,2,1:2:0:0:
158,221,123879,1,10,1:2:0:0:
449,89,123979,1,2,1:2:0:0:
257,379,124079,22,0,P|250:328|241:263,1,103.02,10|0,1:2|1:2,1:0:0:0:
91,108,124279,2,0,P|83:159|76:210,1,103.02,8|0,1:2|1:2,1:0:0:0:
233,14,124479,1,8,1:2:0:0:
0,130,124579,1,2,1:2:0:0:
320,26,124679,1,10,1:2:0:0:
76,210,124779,1,2,1:2:0:0:
396,59,124879,6,0,P|403:110|410:161,1,103.02,10|0,1:2|1:2,1:0:0:0:
295,355,125079,1,8,1:2:0:0:
500,126,125179,1,0,1:2:0:0:
500,126,125229,1,0,1:2:0:0:
500,126,125279,2,0,P|492:177|485:228,1,103.02,10|0,1:2|1:2,1:0:0:0:
303,119,125479,1,8,1:2:0:0:
512,315,125579,1,0,1:2:0:0:
240,185,125679,70,0,P|189:195|138:205,1,103.02,10|0,1:2|1:2,1:0:0:0:
34,355,125879,1,8,1:2:0:0:
173,106,125979,1,0,1:2:0:0:
173,106,126029,1,0,1:2:0:0:
173,106,126079,2,0,P|122:96|71:85,1,103.02,10|0,1:2|1:2,1:0:0:0:
221,307,126279,1,8,1:2:0:0:
311,38,126379,1,0,1:2:0:0:
397,347,126479,1,6,1:2:0:0:
375,293,129179,22,0,L|383:249,1,31.31,0|0,1:2|1:2,2:0:0:0:
408,118,129279,1,8,2:0:0:0:
336,98,129345,1,8,2:0:0:0:
266,121,129412,1,8,2:3:0:0:
221,179,129479,1,8,2:3:0:0:
190,250,129545,1,4,2:3:0:0:
120,273,129612,1,4,2:3:0:0:
49,254,129679,5,10,2:0:0:0:
170,0,129779,1,10,2:0:0:0:
253,338,129879,1,10,2:0:0:0:
253,338,130079,69,10,2:0:0:0:
108,83,130179,1,10,2:0:0:0:
340,285,130279,1,10,2:0:0:0:
289,0,130379,1,10,2:0:0:0:
289,0,130579,21,10,2:0:0:0:
119,264,130679,1,10,2:0:0:0:
449,119,130779,1,10,2:0:0:0:
449,119,130979,5,10,2:0:0:0:
127,51,131079,1,10,2:0:0:0:
419,113,131179,1,10,2:0:0:0:
115,265,131279,69,10,2:0:0:0:
289,0,131379,1,10,2:0:0:0:
333,310,131479,1,10,2:0:0:0:
333,310,131679,21,10,2:0:0:0:
219,80,131779,1,10,2:0:0:0:
294,382,131879,1,10,2:0:0:0:
392,47,131979,6,0,B|301:3|230:88|267:116|183:191|98:135,1,339.36,4|0,1:2|2:0,2:0:0:0:
0,85,132879,102,0,P|6:125|11:166,1,82.8200000000001,6|0,1:2|2:0,1:0:0:0:
37,340,133079,1,10,1:2:0:0:
20,64,133179,2,0,P|26:104|31:145,1,82.8200000000001,2|0,1:2|2:0,1:0:0:0:
57,319,133379,1,8,1:3:0:0:
172,125,133479,1,10,1:2:0:0:
0,235,133579,1,4,1:3:0:0:
133,38,133679,6,0,P|198:31|259:81,1,124.23,2|0,1:2|2:0,1:0:0:0:
253,91,133879,2,0,P|254:132|257:173,1,82.8200000000001,10|0,1:2|2:0,1:0:0:0:
469,180,134079,2,0,P|432:161|395:142,1,82.8200000000001,2|0,1:2|2:0,1:0:0:0:
294,339,134279,2,0,P|329:316|363:294,1,82.8200000000001,10|0,1:2|2:0,1:0:0:0:
173,137,134479,102,0,P|127:122|80:133,1,82.8200000000001,2|0,1:2|2:0,1:0:0:0:
0,290,134679,1,10,1:2:0:0:
43,58,134779,2,0,P|88:43|135:54,1,82.8200000000001,2|0,1:2|2:0,1:0:0:0:
216,211,134979,1,8,1:3:0:0:
296,0,135079,1,10,1:2:0:0:
173,137,135179,1,4,1:3:0:0:
413,16,135279,6,0,L|445:162,1,124.23,2|0,1:2|2:0,1:0:0:0:
450,164,135479,2,0,P|409:189|361:191,1,82.8200000000001,10|0,1:2|2:0,1:0:0:0:
220,65,135679,2,0,P|262:87|288:128,1,82.8200000000001,2|0,1:2|2:0,1:0:0:0:
258,312,135879,2,0,P|257:264|278:222,1,82.8200000000001,10|0,1:2|2:0,1:0:0:0:
133,17,136079,102,0,P|126:58|121:99,1,82.8200000000001,2|0,1:2|2:0,1:0:0:0:
190,239,136279,1,10,1:2:0:0:
65,52,136379,2,0,P|72:93|77:134,1,82.8200000000001,2|0,1:2|2:0,1:0:0:0:
10,273,136579,1,8,1:3:0:0:
196,209,136679,1,10,1:2:0:0:
0,302,136779,1,4,1:3:0:0:
154,121,136879,6,0,P|218:107|284:151,1,124.23,2|0,1:2|2:0,1:0:0:0:
295,153,137079,2,0,P|298:194|302:235,1,82.8200000000001,10|0,1:2|2:0,1:0:0:0:
495,230,137279,2,0,P|457:213|419:196,1,82.8200000000001,2|0,1:2|2:0,1:0:0:0:
331,384,137479,2,0,P|364:360|398:336,1,82.8200000000001,10|0,1:2|2:0,1:0:0:0:
367,87,137679,101,2,1:2:0:0:
182,252,137779,1,8,1:3:0:0:
397,87,137879,1,10,1:2:0:0:
167,150,137979,1,14,1:3:0:0:
419,195,138079,1,0,1:2:0:0:
255,19,138179,1,10,1:3:0:0:
391,276,138279,1,10,1:2:0:0:
268,45,138379,1,6,1:3:0:0:
147,328,138479,6,0,P|137:263|127:193,1,124.23,2|0,1:2|2:0,1:0:0:0:
125,172,138679,2,0,P|163:142|219:143,1,82.8200000000001,10|0,1:2|2:0,1:0:0:0:
377,291,138879,2,0,P|338:278|311:247,1,82.8200000000001,2|0,1:2|2:0,1:0:0:0:
352,13,139079,2,0,P|360:53|347:92,1,82.8200000000001,10|0,1:2|2:0,1:0:0:0:
147,328,139279,102,0,P|154:278|163:218,1,82.8200000000001,6|0,1:2|2:0,1:0:0:0:
94,58,139479,1,10,1:2:0:0:
247,274,139579,2,0,P|240:224|231:164,1,82.8200000000001,2|0,1:2|2:0,1:0:0:0:
300,4,139779,1,8,1:3:0:0:
120,139,139879,1,10,1:2:0:0:
327,215,139979,1,4,1:3:0:0:
181,22,140079,6,0,P|118:35|31:53,1,124.23,2|0,1:2|2:0,1:0:0:0:
24,54,140279,2,0,P|4:93|13:136,1,82.8200000000001,10|0,1:2|2:0,1:0:0:0:
133,294,140479,2,0,P|138:253|118:217,1,82.8200000000001,2|0,1:2|2:0,1:0:0:0:
43,62,140679,2,0,P|23:97|28:138,1,82.8200000000001,10|0,1:2|2:0,1:0:0:0:
222,252,140879,102,0,P|269:244|327:233,1,82.8200000000001,2|0,1:2|2:0,1:0:0:0:
458,339,141079,1,10,1:2:0:0:
261,145,141179,2,0,P|301:152|342:159,1,82.8200000000001,2|0,1:2|2:0,1:0:0:0:
475,68,141379,1,8,1:3:0:0:
303,237,141479,1,10,1:2:0:0:
512,136,141579,1,4,1:3:0:0:
226,63,141679,6,0,P|180:102|188:188,1,124.23,2|0,1:2|2:0,1:0:0:0:
187,207,141879,2,0,P|232:199|282:192,1,82.8200000000001,10|0,1:2|2:0,1:0:0:0:
108,38,142079,2,0,P|67:45|26:52,1,82.8200000000001,2|0,1:2|2:0,1:0:0:0:
199,233,142279,2,0,P|239:226|280:220,1,82.8200000000001,10|0,1:2|2:0,1:0:0:0:
438,71,142479,101,14,1:2:0:0:
341,301,142579,1,0,1:2:0:0:
428,95,142679,1,10,1:2:0:0:
410,348,142779,2,0,P|368:380|319:379,1,82.8200000000001,2|8,1:2|1:2,1:0:0:0:
275,164,142979,1,0,1:2:0:0:
477,238,143079,1,10,1:2:0:0:
229,105,143179,1,0,1:2:0:0:
341,301,143279,6,0,P|347:260|355:219,1,82.8200000000001,10|0,1:2|1:2,1:0:0:0:
444,41,143479,1,10,1:2:0:0:
229,105,143579,1,0,1:2:0:0:
477,238,143679,1,10,1:2:0:0:
353,104,143779,1,0,1:2:0:0:
230,324,143879,1,10,1:2:0:0:
355,219,143979,1,0,1:2:0:0:
202,86,144079,102,0,P|180:124|177:163,1,82.8200000000001,10|0,1:2|1:2,1:0:0:0:
254,291,144279,1,10,1:2:0:0:
85,124,144379,2,0,P|95:172|107:231,1,82.8200000000001,2|8,1:2|1:2,1:0:0:0:
11,364,144579,1,0,1:2:0:0:
176,162,144679,1,10,1:2:0:0:
25,339,144779,1,0,1:2:0:0:
146,65,144879,5,10,1:2:0:0:
185,52,144929,1,8,1:2:0:0:
225,60,144979,1,8,1:3:0:0:
256,87,145029,1,8,1:3:0:0:
270,125,145079,1,8,1:3:0:0:
280,165,145129,1,8,1:3:0:0:
306,197,145179,1,8,1:3:0:0:
342,216,145229,1,8,1:3:0:0:
383,218,145279,1,4,1:3:0:0:
421,202,145329,1,4,1:3:0:0:
449,172,145379,1,4,1:3:0:0:
462,133,145429,1,4,1:3:0:0:
458,92,145479,1,12,1:2:0:0:
458,92,145679,22,0,B|404:74|346:119|391:146|322:197|254:164,1,226.240000000001,6|0,1:2|2:0,2:0:0:0:
141,70,146479,2,0,P|132:117|121:173,1,96.9600000000003,2|0,2:0|2:0,2:0:0:0:
24,86,146879,2,0,L|35:130,1,32.3200000000001,2|0,2:0|2:0,2:0:0:0:
75,280,147079,1,4,1:2:0:0:
291,39,147279,6,0,B|316:67|352:97|352:97|311:163|285:236,1,226.240000000001,6|0,1:2|2:0,2:0:0:0:
423,281,148079,2,0,B|374:264|340:294|359:307|323:336|271:321,1,161.600000000001,2|0,2:0|2:0,2:0:0:0:
411,369,148679,1,4,1:2:0:0:
14,92,148879,102,0,P|86:164|204:144,1,226.240000000001,6|0,1:2|2:0,2:0:0:0:
376,17,149679,5,10,2:0:0:0:
307,221,149779,1,4,2:3:0:0:
431,145,149879,1,4,2:3:0:0:
302,80,149979,1,4,2:3:0:0:
450,274,150079,101,10,2:0:0:0:
348,148,150179,1,4,2:3:0:0:
300,307,150279,1,4,2:3:0:0:
431,145,150379,1,4,2:3:0:0:
179,261,150479,6,0,P|163:158|149:60,1,193.920000000001,6|0,1:2|2:0,2:0:0:0:
95,198,151179,1,0,1:2:0:0:
95,198,151229,1,0,1:2:0:0:
95,198,151279,101,10,2:3:0:0:
327,72,151412,1,8,2:3:0:0:
76,218,151545,1,4,2:3:0:0:
353,305,151679,1,4,2:3:0:0:
164,85,151812,1,4,2:3:0:0:
112,358,151945,1,4,2:3:0:0:
451,169,152079,6,0,B|397:187|339:142|384:115|315:64|247:97,1,226.240000000001,6|0,1:2|2:0,2:0:0:0:
136,164,152879,2,0,P|144:114|151:55,1,96.9600000000003,2|0,2:0|2:0,2:0:0:0:
41,120,153279,2,0,L|29:76,1,32.3200000000001,2|0,2:0|2:0,2:0:0:0:
230,182,153479,1,4,1:2:0:0:
42,372,153679,102,0,B|113:347|181:319|181:319|250:368,1,226.240000000001,6|0,1:2|2:0,2:0:0:0:
437,246,154479,2,0,P|357:263|275:279,1,161.600000000001,2|0,2:0|2:0,2:0:0:0:
428,371,155079,1,4,1:2:0:0:
232,36,155279,6,0,P|125:42|75:139,1,226.240000000001,6|0,1:2|2:0,2:0:0:0:
289,261,156202,102,0,P|279:208|235:175,1,96.9600000000003,2|0,1:2|2:0,2:0:0:0:
96,297,156747,6,0,L|94:304,3,8.08000000000003,10|0|0|0,2:0|1:2|1:2|1:2,2:0:0:0:
370,94,157547,101,6,1:2:0:0:
256,192,157628,12,0,164033,3:2:0:0:
55,146,165330,101,14,1:2:0:0:
100,92,165411,1,0,1:2:0:0:
168,77,165492,1,8,1:2:0:0:
233,103,165574,1,0,1:2:0:0:
270,162,165655,1,8,1:2:0:0:
308,221,165736,1,0,1:2:0:0:
373,247,165817,1,8,1:2:0:0:
440,231,165898,1,0,1:2:0:0:
484,178,165979,37,10,1:2:0:0:
406,158,166060,1,0,1:2:0:0:
329,181,166141,1,8,1:2:0:0:
272,238,166222,1,0,1:2:0:0:
213,292,166303,1,8,1:2:0:0:
133,293,166384,1,0,1:2:0:0:
72,241,166465,1,8,1:2:0:0:
59,162,166547,1,0,1:2:0:0:
100,92,166628,69,10,1:2:0:0:
133,115,166709,1,0,1:2:0:0:
159,147,166790,1,8,1:2:0:0:
177,183,166871,1,0,1:2:0:0:
185,223,166952,1,8,1:2:0:0:
184,264,167033,1,0,1:2:0:0:
172,303,167114,1,8,1:2:0:0:
152,339,167195,1,0,1:2:0:0:
123,368,167276,37,10,1:2:0:0:
121,352,167357,1,0,1:2:0:0:
119,335,167438,1,8,1:2:0:0:
117,319,167519,1,0,1:2:0:0:
114,303,167601,1,8,1:2:0:0:
112,287,167682,1,0,1:2:0:0:
110,271,167763,1,8,1:2:0:0:
108,254,167844,1,0,1:2:0:0:
105,238,167925,69,14,1:2:0:0:
169,208,168006,1,0,1:2:0:0:
238,221,168087,1,8,1:2:0:0:
285,274,168168,1,0,1:2:0:0:
340,313,168249,1,8,1:2:0:0:
409,311,168330,1,0,1:2:0:0:
463,269,168411,1,8,1:2:0:0:
481,203,168492,1,0,1:2:0:0:
456,141,168574,37,10,1:2:0:0:
382,109,168655,1,0,1:2:0:0:
305,130,168736,1,8,1:2:0:0:
257,195,168817,1,0,1:2:0:0:
260,275,168898,1,8,1:2:0:0:
311,337,168979,1,0,1:2:0:0:
389,353,169060,1,8,1:2:0:0:
462,318,169141,1,0,1:2:0:0:
497,246,169222,69,10,1:2:0:0:
469,217,169303,1,0,1:2:0:0:
430,206,169384,1,8,1:2:0:0:
390,216,169465,1,0,1:2:0:0:
362,245,169546,1,8,1:2:0:0:
333,273,169628,1,0,1:2:0:0:
294,283,169709,1,8,1:2:0:0:
255,272,169790,1,0,1:2:0:0:
226,243,169871,37,10,1:2:0:0:
237,231,169952,1,0,1:2:0:0:
250,221,170033,1,8,1:2:0:0:
265,214,170114,1,8,1:2:0:0:
280,209,170195,1,0,1:2:0:0:
297,207,170276,1,8,1:2:0:0:
313,208,170357,1,8,1:2:0:0:
329,211,170438,1,8,1:2:0:0:
344,217,170519,69,14,1:2:0:0:
293,279,170601,1,0,1:2:0:0:
215,298,170682,1,8,1:2:0:0:
142,265,170763,1,0,1:2:0:0:
103,195,170844,1,8,1:2:0:0:
116,116,170925,1,0,1:2:0:0:
175,61,171006,1,8,1:2:0:0:
254,53,171087,1,0,1:2:0:0:
323,96,171168,37,10,1:2:0:0:
304,161,171249,1,0,1:2:0:0:
248,201,171330,1,8,1:2:0:0:
180,197,171411,1,0,1:2:0:0:
129,151,171492,1,8,1:2:0:0:
118,84,171574,1,0,1:2:0:0:
151,24,171655,1,8,1:2:0:0:
214,0,171736,1,0,1:2:0:0:
280,18,171817,69,10,1:2:0:0:
275,58,171898,1,0,1:2:0:0:
259,96,171979,1,8,1:2:0:0:
233,127,172060,1,0,1:2:0:0:
199,148,172141,1,8,1:2:0:0:
159,159,172222,1,0,1:2:0:0:
119,158,172303,1,8,1:2:0:0:
80,144,172384,1,0,1:2:0:0:
48,119,172465,37,10,1:2:0:0:
110,68,172546,1,0,1:2:0:0:
190,68,172628,1,8,1:2:0:0:
253,117,172709,1,0,1:2:0:0:
272,195,172790,1,8,1:2:0:0:
290,273,172871,1,0,1:2:0:0:
354,322,172952,1,8,1:2:0:0:
434,321,173033,1,0,1:2:0:0:
496,269,173114,69,14,1:2:0:0:
493,200,173195,1,0,1:2:0:0:
453,144,173276,1,8,1:2:0:0:
389,120,173357,1,0,1:2:0:0:
322,134,173438,1,8,1:2:0:0:
274,184,173519,1,0,1:2:0:0:
261,251,173601,1,8,1:2:0:0:
288,314,173682,1,0,1:2:0:0:
344,353,173763,37,10,1:2:0:0:
373,270,173844,1,0,1:2:0:0:
332,193,173925,1,8,1:2:0:0:
247,170,174006,1,0,1:2:0:0:
166,199,174087,1,8,1:2:0:0:
92,154,174168,1,0,1:2:0:0:
82,67,174249,1,8,1:2:0:0:
144,6,174330,1,0,1:2:0:0:
232,16,174411,69,10,1:2:0:0:
258,66,174492,1,0,1:2:0:0:
256,122,174574,1,8,1:2:0:0:
226,170,174655,1,0,1:2:0:0:
176,196,174736,1,8,1:2:0:0:
119,194,174817,1,0,1:2:0:0:
71,164,174898,1,8,1:2:0:0:
45,114,174979,1,0,1:2:0:0:
47,58,175060,37,10,1:2:0:0:
47,58,175141,1,8,1:2:0:0:
47,58,175222,2,0,L|127:69,1,61.61,4|4,1:3|1:3,1:0:0:0:
271,23,175384,1,8,1:2:0:0:
271,23,175465,1,8,1:2:0:0:
271,23,175546,2,0,L|350:33,1,61.61,4|4,1:3|1:3,1:0:0:0:
457,238,175709,69,14,1:2:0:0:
412,292,175790,1,0,1:2:0:0:
344,307,175871,1,8,1:2:0:0:
279,281,175952,1,0,1:2:0:0:
242,222,176033,1,8,1:2:0:0:
204,163,176114,1,0,1:2:0:0:
139,137,176195,1,8,1:2:0:0:
72,153,176276,1,0,1:2:0:0:
28,205,176357,37,10,1:2:0:0:
106,225,176438,1,0,1:2:0:0:
183,203,176519,1,8,1:2:0:0:
240,146,176601,1,0,1:2:0:0:
299,92,176682,1,8,1:2:0:0:
379,91,176763,1,0,1:2:0:0:
440,143,176844,1,8,1:2:0:0:
453,222,176925,1,0,1:2:0:0:
412,292,177006,69,10,1:2:0:0:
379,269,177087,1,0,1:2:0:0:
353,237,177168,1,8,1:2:0:0:
335,201,177249,1,0,1:2:0:0:
327,161,177330,1,8,1:2:0:0:
328,120,177411,1,0,1:2:0:0:
340,81,177492,1,8,1:2:0:0:
360,45,177574,1,0,1:2:0:0:
389,16,177655,37,10,1:2:0:0:
391,32,177736,1,0,1:2:0:0:
393,49,177817,1,8,1:2:0:0:
395,65,177898,1,0,1:2:0:0:
398,81,177979,1,8,1:2:0:0:
400,97,178060,1,0,1:2:0:0:
402,113,178141,1,8,1:2:0:0:
404,130,178222,1,0,1:2:0:0:
407,146,178303,69,14,1:2:0:0:
343,176,178384,1,0,1:2:0:0:
274,163,178465,1,8,1:2:0:0:
227,110,178546,1,0,1:2:0:0:
172,71,178628,1,8,1:2:0:0:
103,73,178709,1,0,1:2:0:0:
49,115,178790,1,8,1:2:0:0:
31,181,178871,1,0,1:2:0:0:
55,244,178952,37,10,1:2:0:0:
130,275,179033,1,0,1:2:0:0:
207,254,179114,1,8,1:2:0:0:
255,189,179195,1,0,1:2:0:0:
252,109,179276,1,8,1:2:0:0:
201,47,179357,1,0,1:2:0:0:
123,31,179438,1,8,1:2:0:0:
50,66,179519,1,0,1:2:0:0:
15,138,179601,69,10,1:2:0:0:
43,167,179682,1,0,1:2:0:0:
82,178,179763,1,8,1:2:0:0:
122,168,179844,1,0,1:2:0:0:
150,139,179925,1,8,1:2:0:0:
179,111,180006,1,0,1:2:0:0:
218,101,180087,1,8,1:2:0:0:
257,112,180168,1,0,1:2:0:0:
286,141,180249,37,10,1:3:0:0:
275,153,180330,1,8,1:3:0:0:
262,163,180411,1,8,1:3:0:0:
247,170,180492,1,8,1:3:0:0:
232,175,180574,1,4,1:3:0:0:
215,177,180655,1,4,1:3:0:0:
199,176,180736,1,4,1:3:0:0:
183,173,180817,1,4,1:3:0:0:
168,167,180898,69,14,1:2:0:0:
219,105,180979,1,0,1:2:0:0:
297,86,181060,1,8,1:2:0:0:
370,118,181141,1,0,1:2:0:0:
409,188,181222,1,8,1:2:0:0:
396,268,181303,1,0,1:2:0:0:
337,323,181384,1,8,1:2:0:0:
258,331,181465,1,0,1:2:0:0:
189,288,181546,37,10,1:2:0:0:
208,223,181628,1,0,1:2:0:0:
264,183,181709,1,8,1:2:0:0:
332,187,181790,1,0,1:2:0:0:
383,233,181871,1,8,1:2:0:0:
394,300,181952,1,0,1:2:0:0:
361,360,182033,1,8,1:2:0:0:
298,384,182114,1,0,1:2:0:0:
232,366,182195,69,10,1:2:0:0:
236,325,182276,1,0,1:2:0:0:
252,287,182357,1,8,1:2:0:0:
278,256,182438,1,0,1:2:0:0:
312,235,182519,1,8,1:2:0:0:
352,224,182601,1,0,1:2:0:0:
392,225,182682,1,8,1:2:0:0:
431,239,182763,1,0,1:2:0:0:
464,263,182844,37,10,1:2:0:0:
402,314,182925,1,0,1:2:0:0:
321,315,183006,1,8,1:2:0:0:
258,266,183087,1,0,1:2:0:0:
239,188,183168,1,8,1:2:0:0:
222,111,183249,1,0,1:2:0:0:
158,62,183330,1,8,1:2:0:0:
78,63,183411,1,0,1:2:0:0:
16,115,183492,69,14,1:2:0:0:
18,183,183574,1,0,1:2:0:0:
58,239,183655,1,8,1:2:0:0:
122,263,183736,1,0,1:2:0:0:
189,249,183817,1,8,1:2:0:0:
237,199,183898,1,0,1:2:0:0:
250,132,183979,1,8,1:2:0:0:
223,69,184060,1,0,1:2:0:0:
167,30,184141,37,10,1:2:0:0:
138,113,184222,1,0,1:2:0:0:
179,190,184303,1,8,1:2:0:0:
264,213,184384,1,0,1:2:0:0:
345,184,184465,1,8,1:2:0:0:
419,229,184546,1,0,1:2:0:0:
429,316,184628,1,8,1:2:0:0:
367,377,184709,1,0,1:2:0:0:
280,368,184790,69,8,2:0:0:0:
312,282,184871,37,8,2:0:0:0:
264,213,184952,69,8,2:0:0:0:
288,130,185033,37,8,2:0:0:0:
286,116,185114,1,4,2:3:0:0:
284,102,185195,1,4,2:3:0:0:
282,88,185276,69,8,2:0:0:0:
209,55,185357,37,8,2:0:0:0:
143,99,185438,69,8,2:0:0:0:
78,63,185519,37,8,2:0:0:0:
65,65,185601,1,4,2:3:0:0:
51,67,185682,1,4,2:3:0:0:
37,69,185763,69,8,2:0:0:0:
9,148,185844,37,8,2:0:0:0:
61,204,185925,69,8,2:0:0:0:
36,275,186006,37,8,2:0:0:0:
37,288,186087,1,0,1:2:0:0:
256,192,186168,12,0,188682,2:0:0:0:
256,192,189006,101,8,2:0:0:0:
196,127,189168,1,8,2:0:0:0:
272,301,189330,1,8,2:0:0:0:
331,85,189492,1,8,2:0:0:0:
162,321,189655,1,8,2:0:0:0:
279,22,189817,1,8,2:0:0:0:
401,360,189979,1,8,2:0:0:0:
81,177,190141,1,8,2:0:0:0:
497,265,190303,1,8,2:0:0:0:
71,92,190465,1,8,2:0:0:0:
409,162,190628,102,0,B|375:170|375:170|373:174|373:174|332:184,1,66.66,8|0,3:2|2:0,2:0:0:0:
175,193,190790,2,0,B|201:186|201:186|203:182|203:182|237:174,1,66.66,0|0,3:2|2:0,2:0:0:0:
393,145,190952,6,0,B|297:174|297:174|295:179|295:179|159:223,1,199.98,0|0,3:2|2:0,2:0:0:0:
95,178,191276,101,4,1:2:0:0:
92,191,191330,1,0,1:0:0:0:
89,204,191384,1,0,1:0:0:0:
86,217,191438,1,0,1:0:0:0:
299,41,191601,1,0,1:2:0:0:
302,54,191655,1,0,1:2:0:0:
305,67,191709,1,0,1:2:0:0:
308,80,191763,1,0,1:2:0:0:
377,340,191925,5,8,2:0:0:0:
204,208,192087,1,0,1:2:0:0:
461,287,192249,1,0,1:2:0:0:
228,126,192411,2,0,B|172:106|133:146|151:157|105:200|35:166,1,185.84,0|0,1:2|2:0,2:0:0:0:
223,336,192898,101,0,1:2:0:0:
342,83,193060,1,0,1:2:0:0:
187,217,193222,2,0,P|278:232|370:245,1,185.84,8|0,2:0|2:0,2:0:0:0:
480,62,193709,5,0,1:2:0:0:
434,69,193790,1,0,1:2:0:0:
388,76,193871,1,0,1:2:0:0:
342,83,193952,1,0,1:2:0:0:
296,90,194033,2,0,L|302:52,3,30.9733333333333,0|0|0|0,1:2|1:2|1:2|1:2,2:0:0:0:
127,29,194357,101,0,1:2:0:0:
130,42,194411,1,0,1:2:0:0:
133,55,194465,1,0,1:2:0:0:
136,68,194519,1,8,2:0:0:0:
0,261,194763,5,0,1:2:0:0:
6,234,194844,2,0,B|58:215|97:255|79:266|125:309|170:283,1,185.84,0|0,1:2|2:0,2:0:0:0:
396,93,195330,101,0,1:2:0:0:
308,356,195492,1,0,1:2:0:0:
405,72,195655,1,0,1:2:0:0:
495,328,195817,2,0,P|433:273|361:303,1,139.38,8|0,2:0|2:0,2:0:0:0:
308,260,196141,1,0,1:2:0:0:
262,268,196222,1,0,1:2:0:0:
216,276,196303,1,0,1:2:0:0:
170,284,196384,2,0,B|114:224|114:224|194:64,1,232.3,0|0,1:2|2:0,2:0:0:0:
309,8,196952,5,0,1:2:0:0:
312,21,197006,1,0,1:2:0:0:
315,34,197060,1,0,1:2:0:0:
318,47,197114,2,0,B|361:29|394:63|378:72|416:99|473:70,1,139.38,8|0,2:0|2:0,2:0:0:0:
512,137,197438,101,0,1:2:0:0:
509,150,197492,1,0,1:2:0:0:
506,163,197546,1,0,1:2:0:0:
503,176,197601,2,0,B|459:158|426:192|442:201|405:228|348:199,1,139.38,0|0,1:2|2:0,2:0:0:0:
319,146,197925,5,0,1:2:0:0:
273,154,198006,1,0,1:2:0:0:
227,163,198087,1,0,1:2:0:0:
451,239,198249,1,0,1:2:0:0:
134,107,198411,1,8,2:0:0:0:
366,10,198574,1,0,1:2:0:0:
58,176,198736,1,0,1:2:0:0:
349,360,198898,2,0,P|337:290|322:200,1,139.38,0|0,1:2|2:0,2:0:0:0:
283,163,199222,101,0,1:2:0:0:
286,150,199276,1,0,1:2:0:0:
289,137,199330,1,0,1:2:0:0:
292,124,199384,1,0,1:2:0:0:
108,283,199546,5,0,1:2:0:0:
105,270,199601,1,0,1:2:0:0:
102,257,199655,1,0,1:2:0:0:
99,244,199709,2,0,P|160:210|232:247,1,139.38,8|0,2:0|2:0,2:0:0:0:
276,300,200033,1,0,1:2:0:0:
321,290,200114,1,0,1:2:0:0:
367,281,200195,1,0,1:2:0:0:
412,272,200276,2,0,P|419:218|427:153,1,92.92,0|0,1:2|2:0,2:0:0:0:
426,146,200519,1,0,1:2:0:0:
262,47,200682,2,0,L|271:88,3,30.9733333333333,0|0|0|0,1:2|1:2|1:2|1:2,2:0:0:0:
40,169,201006,101,14,1:2:0:0:
91,138,201087,1,0,1:2:0:0:
150,138,201168,1,0,1:2:0:0:
201,169,201249,1,0,1:2:0:0:
230,221,201330,1,14,1:2:0:0:
250,272,201411,1,0,1:2:0:0:
302,302,201492,1,0,1:2:0:0:
362,302,201574,1,0,1:2:0:0:
419,274,201655,6,0,L|425:243,3,30.9733333333333,4|0|0|0,1:2|1:2|1:2|1:2,2:0:0:0:
310,113,201979,1,0,1:2:0:0:
313,126,202033,1,0,1:2:0:0:
316,139,202087,1,0,1:2:0:0:
319,152,202141,1,0,1:2:0:0:
134,31,202303,101,0,1:2:0:0:
443,113,202465,1,0,1:2:0:0:
93,188,202628,1,0,1:2:0:0:
419,274,202790,1,0,1:2:0:0:
199,110,202952,6,0,P|189:175|172:282,1,139.38,8|0,2:0|2:0,2:0:0:0:
195,287,203276,1,0,1:2:0:0:
397,310,203438,2,0,B|320:269|261:332|296:358|228:428|118:366,1,278.76,0|0,1:2|2:0,2:0:0:0:
24,246,204087,101,0,1:2:0:0:
30,200,204168,1,0,1:2:0:0:
37,154,204249,1,0,1:2:0:0:
44,108,204330,1,0,1:2:0:0:
51,62,204411,2,0,L|4:50,3,30.9733333333333,0|0|0|0,1:2|1:2|1:2|1:2,2:0:0:0:
181,164,204736,1,0,1:2:0:0:
193,160,204790,1,0,1:2:0:0:
206,157,204844,1,0,1:2:0:0:
219,154,204898,1,0,1:2:0:0:
418,40,205141,5,0,1:2:0:0:
395,18,205222,2,0,P|354:73|385:168,1,139.38,0|0,1:2|2:0,2:0:0:0:
382,170,205546,1,8,2:0:0:0:
156,337,205709,101,0,1:2:0:0:
225,56,205871,1,0,1:2:0:0:
376,381,206033,1,0,1:2:0:0:
445,100,206195,1,0,1:2:0:0:
445,100,206519,5,0,1:2:0:0:
476,133,206601,1,0,1:2:0:0:
492,176,206682,1,0,1:2:0:0:
488,222,206763,2,0,P|361:243|227:262,1,232.3,0|0,1:2|2:0,2:0:0:0:
133,104,207330,101,0,1:2:0:0:
146,107,207384,1,0,1:2:0:0:
159,110,207438,1,0,1:2:0:0:
171,114,207492,2,0,L|158:13,1,92.92,0|0,1:2|2:0,2:0:0:0:
38,240,207817,1,0,1:2:0:0:
25,243,207871,1,0,1:2:0:0:
12,246,207925,1,0,1:2:0:0:
0,249,207979,2,0,L|13:148,1,92.92,0|8,1:2|2:0,2:0:0:0:
205,298,208303,2,0,L|214:349,2,46.4599984403687,0|0|0,1:2|1:2|1:2,2:0:0:0:
352,213,208628,5,0,1:2:0:0:
62,346,208790,1,0,1:2:0:0:
290,116,208952,1,0,1:2:0:0:
0,249,209114,1,0,1:2:0:0:
237,29,209276,102,0,P|307:42|400:56,1,139.38,0|0,1:2|2:0,2:0:0:0:
444,29,209601,2,0,L|449:59,3,30.9733333333333,0|0|0|0,1:2|1:2|1:2|1:2,2:0:0:0:
361,190,209925,1,0,1:2:0:0:
358,177,209979,1,0,1:2:0:0:
355,164,210033,1,0,1:2:0:0:
352,151,210087,1,0,1:2:0:0:
475,311,210411,1,0,1:2:0:0:
429,319,210492,1,0,1:2:0:0:
383,328,210574,1,0,1:2:0:0:
338,337,210655,1,0,1:2:0:0:
292,346,210736,6,0,L|277:283,1,46.4599984403687,8|8,2:0|2:0,2:0:0:0:
252,161,210898,1,8,1:3:0:0:
247,138,210979,1,8,1:3:0:0:
242,115,211060,1,8,1:3:0:0:
238,92,211141,1,8,1:3:0:0:
233,69,211222,2,0,L|180:85,1,46.4599984403687,8|8,0:0|0:0,0:0:0:0:
68,195,211384,1,4,1:3:0:0:
72,217,211465,1,4,1:3:0:0:
77,240,211546,1,4,1:3:0:0:
81,263,211627,1,4,1:3:0:0:
87,287,211709,2,0,L|140:271,1,46.4599984403687,8|8,0:0|0:0,0:0:0:0:
281,300,211871,2,0,L|228:316,1,46.4599984403687,8|8,0:0|0:0,0:0:0:0:
48,373,212033,101,6,1:2:0:0:
448,73,213168,2,0,P|416:82|389:97,1,51.51,0|0,1:2|2:0,2:0:0:0:
95,207,213330,2,0,B|158:171|221:225|191:245|248:318|345:255,1,248.46,6|0,1:2|1:2,2:0:0:0:
380,232,213898,1,0,1:2:0:0:
380,232,213979,6,0,L|369:167,1,51.51,8|0,2:0|2:0,2:0:0:0:
208,64,214141,2,0,L|199:114,1,51.51,8|0,2:0|2:0,2:0:0:0:
469,114,214303,2,0,L|458:49,1,51.51,8|0,2:0|2:0,2:0:0:0:
99,150,214465,2,0,L|90:200,1,51.51,8|0,2:0|2:0,2:0:0:0:
318,0,214628,101,4,1:2:0:0:
152,357,215763,2,0,P|127:350|103:339,1,51.51,0|0,1:2|2:0,2:0:0:0:
21,196,215925,6,0,P|11:250|-2:319,1,103.02,4|0,1:2|2:0,2:0:0:0:
139,134,216168,2,0,P|149:188|162:257,1,103.02,0|0,1:2|2:0,2:0:0:0:
298,185,216411,2,0,P|291:217|283:252,1,51.51,0|0,1:2|2:0,2:0:0:0:
433,384,216574,1,8,2:0:0:0:
468,341,216655,1,8,2:0:0:0:
479,287,216736,1,8,2:0:0:0:
464,234,216817,1,8,2:0:0:0:
425,195,216898,1,8,2:3:0:0:
385,156,216979,1,8,2:3:0:0:
370,103,217060,1,4,2:3:0:0:
382,49,217141,1,4,2:3:0:0:
417,7,217222,101,4,1:2:0:0:
108,197,218357,2,0,P|83:190|59:179,1,51.51,0|0,1:2|2:0,2:0:0:0:
236,39,218519,6,0,B|270:67|303:95|303:95|263:167|223:242,1,248.46,4|0,1:2|1:2,2:0:0:0:
184,316,219087,1,0,1:2:0:0:
184,316,219168,2,0,L|259:307,1,51.51,8|0,2:0|2:0,2:0:0:0:
503,276,219330,2,0,L|451:282,1,51.51,8|0,2:0|2:0,2:0:0:0:
174,242,219492,2,0,L|249:233,1,51.51,8|0,2:0|2:0,2:0:0:0:
493,202,219655,2,0,L|441:208,1,51.51,8|0,2:0|2:0,2:0:0:0:
78,252,219817,101,4,1:2:0:0:
355,22,220952,2,0,P|370:47|378:85,1,51.51,0|0,1:2|2:0,2:0:0:0:
321,268,221114,6,0,P|342:120|358:-10,1,248.46,4|0,1:2|2:0,2:0:0:0:
137,343,221763,2,0,P|45:327|38:178,1,248.46,4|0,1:2|2:0,2:0:0:0:
79,41,222411,101,6,1:2:0:0:
95,108,222519,1,0,2:0:0:0:
111,175,222628,1,0,2:0:0:0:
211,271,222736,5,2,2:0:0:0:
227,204,222844,1,0,2:0:0:0:
243,137,222952,1,0,2:0:0:0:
197,6,223060,101,2,2:0:0:0:
264,22,223168,1,0,2:0:0:0:
331,38,223276,1,0,2:0:0:0:
402,103,223384,5,2,2:0:0:0:
120,172,223546,1,8,2:0:0:0:
120,172,223628,1,8,2:0:0:0:
120,172,223709,101,10,2:0:0:0:
211,271,223817,1,8,2:0:0:0:
124,74,223925,1,8,2:0:0:0:
11,261,224033,5,10,2:3:0:0:
218,143,224141,1,8,2:3:0:0:
31,40,224249,1,8,2:3:0:0:
115,176,224357,101,6,2:3:0:0:
212,25,224465,1,4,2:3:0:0:
124,74,224574,1,4,2:3:0:0:
342,164,224682,5,6,2:3:0:0:
318,66,224790,1,4,2:3:0:0:
218,143,224898,1,4,2:3:0:0:
372,267,225006,101,6,1:2:0:0:
439,250,225114,1,0,2:0:0:0:
506,234,225222,1,0,2:0:0:0:
294,336,225330,5,2,2:0:0:0:
361,352,225438,1,0,2:0:0:0:
428,369,225546,1,0,2:0:0:0:
202,380,225655,101,2,2:0:0:0:
218,313,225763,1,0,2:0:0:0:
234,246,225871,1,0,2:0:0:0:
128,336,225979,5,2,2:0:0:0:
112,269,226087,1,0,2:0:0:0:
96,202,226195,1,0,2:0:0:0:
6,313,226303,101,10,2:0:0:0:
112,98,226420,1,8,2:0:0:0:
218,313,226538,1,4,2:3:0:0:
6,54,226655,5,10,2:3:0:0:
112,269,226773,1,8,2:3:0:0:
218,54,226891,1,4,2:3:0:0:
33,164,227008,101,10,2:3:0:0:
113,0,227133,1,4,2:3:0:0:
194,164,227258,1,4,2:3:0:0:
112,98,227383,5,10,2:3:0:0:
243,320,227549,101,6,2:3:0:0:
416,43,227716,5,10,2:3:0:0:
49,282,227883,102,0,B|190:377|289:232|236:195|334:57|485:152,1,509.039984465332,6|2,3:2|2:0,2:0:0:0:
113,155,243583,5,0,1:2:0:0:
245,323,243683,101,8,2:0:0:0:
333,19,243783,1,8,2:0:0:0:
228,167,243883,1,8,1:3:0:0:
500,80,243983,5,8,2:0:0:0:
161,247,244083,1,8,2:0:0:0:
406,316,244183,1,4,1:3:0:0:
213,36,244283,101,8,2:0:0:0:
83,336,244383,1,8,2:0:0:0:
314,242,244483,1,4,1:3:0:0:
70,71,244583,5,8,2:0:0:0:
285,327,244683,2,0,P|378:311|368:138,1,281.79,14|0,2:0|2:0,2:0:0:0:
392,59,245183,54,0,P|326:69|248:79,1,124.23,6|0,1:2|2:0,2:0:0:0:
236,81,245383,2,0,P|224:133|245:176,1,82.8200000000001,8|0,2:0|2:0,2:0:0:0:
148,327,245583,2,0,P|141:286|136:244,1,82.8200000000001,0|0,1:2|1:2,2:0:0:0:
43,78,245783,1,10,2:0:0:0:
232,159,245883,1,10,1:3:0:0:
74,9,245983,2,0,P|84:83|95:165,1,124.23,2|0,2:0|2:0,2:0:0:0:
97,168,246183,1,8,2:0:0:0:
256,44,246283,2,0,P|324:31|397:122,1,165.64,4|0,1:3|1:2,2:0:0:0:
322,222,246583,1,8,2:0:0:0:
487,60,246683,1,0,2:0:0:0:
325,197,246783,1,4,1:3:0:0:
325,197,246983,70,0,P|262:187|180:175,1,124.23,10|0,2:0|2:0,2:0:0:0:
172,170,247183,2,0,P|163:218|180:261,1,82.8200000000001,2|0,1:2|1:2,2:0:0:0:
365,384,247383,2,0,P|374:334|383:287,1,82.8200000000001,10|0,2:0|1:2,2:0:0:0:
309,114,247583,1,2,2:0:0:0:
489,215,247683,1,0,1:2:0:0:
280,316,247783,2,0,P|271:266|262:219,1,82.8200000000001,10|0,2:0|1:0,2:0:0:0:
70,49,247983,2,0,P|50:107|83:176,1,124.23,2|0,2:0|2:0,2:0:0:0:
92,190,248183,2,0,P|137:180|192:167,1,82.8200000000001,10|0,2:0|2:0,2:0:0:0:
428,106,248383,38,0,B|369:87|321:71|321:71|297:89|278:105,1,165.64,2|8,1:2|2:0,2:0:0:0:
348,253,248683,1,2,2:0:0:0:
400,25,248783,1,0,1:2:0:0:
265,228,248883,1,0,1:2:0:0:
317,0,248983,1,8,2:0:0:0:
439,272,249083,2,0,P|355:296|269:318,1,165.64,8|0,1:3|1:2,2:0:0:0:
117,211,249383,1,8,2:0:0:0:
199,384,249483,1,4,1:3:0:0:
265,228,249583,2,0,P|260:155|195:111,1,124.23,2|0,2:0|2:0,2:0:0:0:
207,96,249783,2,0,P|162:104|105:114,1,82.8200000000001,10|0,2:0|2:0,2:0:0:0:
255,316,249983,70,0,B|353:329|302:248|433:272,1,165.64,2|8,1:2|2:0,2:0:0:0:
166,239,250283,2,0,B|141:260|116:280|116:280|144:322|173:373,1,165.64,2|0,2:0|1:2,2:0:0:0:
329,185,250583,2,0,P|318:139|307:94,1,82.8200000000001,10|8,2:0|1:3,2:0:0:0:
182,4,250783,1,2,2:0:0:0:
387,45,250883,1,0,1:2:0:0:
177,193,250983,1,10,2:0:0:0:
282,28,251083,1,4,1:3:0:0:
357,275,251183,2,0,P|368:208|383:122,1,124.23,2|0,2:0|2:0,2:0:0:0:
385,117,251383,2,0,P|344:97|293:115,1,82.8200000000001,8|0,2:0|2:0,2:0:0:0:
104,325,251583,38,0,P|144:335|184:346,1,82.8200000000001,6|0,1:2|2:0,2:0:0:0:
119,68,251783,2,0,P|46:112|51:198,1,165.64,8|0,2:0|1:2,2:0:0:0:
260,280,252083,1,0,1:2:0:0:
121,153,252183,1,10,2:0:0:0:
82,354,252283,1,10,1:3:0:0:
225,176,252383,2,0,P|216:135|209:94,1,82.8200000000001,2|0,2:0|1:2,2:0:0:0:
19,297,252583,2,0,P|96:317|211:344,1,165.64,8|0,2:0|2:0,2:0:0:0:
346,217,252883,1,0,1:2:0:0:
121,153,252983,1,10,2:0:0:0:
388,293,253083,1,2,2:0:0:0:
37,216,253183,70,0,P|27:116|97:63,1,165.64,6|8,1:3|2:0,2:0:0:0:
263,265,253483,2,0,B|213:243|170:274|192:286|153:321|91:298,1,165.64,2|0,2:0|1:2,2:0:0:0:
267,111,253783,1,10,2:0:0:0:
354,359,253883,1,2,1:2:0:0:
167,181,253983,2,0,B|148:153|130:130|130:130|161:85|193:32,1,165.64,2|8,2:0|2:0,2:0:0:0:
423,237,254283,2,0,P|337:258|236:283,1,165.64,2|0,1:2|1:2,2:0:0:0:
337,18,254583,2,0,P|371:39|389:76,1,82.8200000000001,10|0,2:0|2:0,2:0:0:0:
158,331,254783,102,0,P|166:283|177:219,1,82.8200000000001,14|0,3:2|2:0,3:0:0:0:
275,96,254983,1,0,3:2:0:0:
71,169,255083,1,0,3:2:0:0:
263,277,255183,2,0,P|255:229|244:165,1,82.8200000000001,8|0,3:2|2:0,3:0:0:0:
147,42,255383,1,0,3:2:0:0:
351,115,255483,1,0,3:2:0:0:
159,223,255583,2,0,P|167:175|178:111,1,82.8200000000001,8|0,3:2|2:0,3:0:0:0:
281,0,255783,1,0,3:2:0:0:
77,73,255883,1,0,3:2:0:0:
269,181,255983,2,0,P|261:133|250:69,1,82.8200000000001,8|0,3:2|2:0,3:0:0:0:
131,224,256183,1,2,3:2:0:0:
129,235,256233,1,0,3:2:0:0:
128,247,256283,1,2,3:2:0:0:
126,260,256333,1,0,3:2:0:0:
124,273,256383,70,0,P|166:289|218:267,1,82.8200012637329,10|0,0:2|3:0,0:0:0:0:
352,147,256583,1,0,3:2:0:0:
211,199,256683,1,0,3:2:0:0:
459,134,256783,2,0,P|442:77|414:53,1,82.8200000000001,8|0,3:2|3:2,3:0:0:0:
225,174,256983,1,0,3:2:0:0:
378,296,257083,1,0,3:2:0:0:
206,58,257183,2,0,P|150:76|127:105,1,82.8200000000001,8|0,3:2|3:2,3:0:0:0:
239,290,257383,1,0,3:2:0:0:
370,133,257483,1,0,3:2:0:0:
125,295,257583,1,8,3:2:0:0:
125,295,257983,38,0,P|79:303|14:313,1,82.8200000000001,14|0,3:2|2:0,3:0:0:0:
225,159,258183,1,0,3:2:0:0:
75,85,258283,1,0,3:2:0:0:
278,229,258383,2,0,P|324:237|389:247,1,82.8200000000001,8|0,3:2|2:0,3:0:0:0:
178,93,258583,1,0,3:2:0:0:
328,19,258683,1,0,3:2:0:0:
176,226,258783,2,0,P|185:279|196:338,1,82.8200000000001,8|0,3:2|2:0,3:0:0:0:
57,144,258983,1,0,3:2:0:0:
278,229,259083,1,0,3:2:0:0:
142,81,259183,2,0,P|133:28|122:-31,1,82.8200000000001,8|0,3:2|2:0,3:0:0:0:
96,228,259383,1,2,3:2:0:0:
94,239,259433,1,0,3:2:0:0:
91,250,259483,1,2,3:2:0:0:
89,263,259533,1,0,3:2:0:0:
87,276,259583,70,0,P|41:278|-1:241,1,82.8200012637329,10|0,0:2|3:0,0:0:0:0:
142,81,259783,1,0,3:2:0:0:
190,307,259883,1,0,3:2:0:0:
258,69,259983,1,8,3:2:0:0:
86,199,260083,1,0,3:2:0:0:
237,0,260183,1,0,3:2:0:0:
307,244,260283,1,0,3:2:0:0:
102,26,260383,37,8,2:0:0:0:
106,86,260449,1,8,2:0:0:0:
137,137,260516,1,8,2:3:0:0:
188,168,260583,1,8,2:3:0:0:
248,172,260649,1,8,2:3:0:0:
304,148,260716,1,8,2:3:0:0:
342,102,260783,1,8,2:3:0:0:
386,62,260849,1,8,2:3:0:0:
445,59,260916,1,8,2:3:0:0:
492,95,260983,1,8,2:3:0:0:
506,154,261049,1,8,2:3:0:0:
478,206,261116,1,8,2:3:0:0:
424,230,261183,54,0,P|381:225|333:218,1,72.7199999999999,0|0,1:2|1:2,2:0:0:0:
173,279,261383,1,2,1:2:0:0:
260,77,261483,1,2,2:0:0:0:
162,303,261583,2,0,B|256:291|205:369|321:343,1,145.44,10|0,2:0|2:0,2:0:0:0:
136,194,261883,1,2,2:0:0:0:
136,194,261933,1,2,2:0:0:0:
136,194,261983,2,0,P|99:199|63:203,1,72.7199999999999,2|0,2:0|2:0,2:0:0:0:
167,32,262183,1,10,1:3:0:0:
235,226,262283,1,0,1:2:0:0:
99,105,262383,1,10,2:0:0:0:
31,299,262483,1,0,1:2:0:0:
226,117,262583,2,0,P|262:122|298:126,1,72.7199999999999,2|0,1:2|2:0,2:0:0:0:
496,239,262783,70,0,P|480:163|460:66,1,145.44,2|0,1:2|1:2,2:0:0:0:
346,286,263083,1,2,2:0:0:0:
346,286,263133,1,2,2:0:0:0:
346,286,263183,2,0,B|263:338|206:284|241:253|159:185|60:266,1,290.88,10|0,2:0|2:0,2:0:0:0:
85,248,263783,1,8,1:3:0:0:
127,77,263883,1,0,1:2:0:0:
3,293,263983,1,8,2:0:0:0:
189,156,264083,1,0,1:2:0:0:
27,74,264183,1,4,1:3:0:0:
150,329,264283,1,0,1:2:0:0:
274,69,264383,37,0,1:2:0:0:
87,161,264483,1,0,1:2:0:0:
298,294,264583,1,2,1:2:0:0:
218,155,264683,1,2,2:0:0:0:
218,155,264733,1,0,2:0:0:0:
218,155,264783,2,0,P|180:216|215:312,1,145.44,10|0,2:0|2:0,2:0:0:0:
343,156,265083,1,2,2:0:0:0:
133,121,265183,2,0,P|96:116|60:111,1,72.7199999999999,2|0,2:0|2:0,2:0:0:0:
242,31,265383,1,10,1:3:0:0:
41,201,265483,1,0,1:2:0:0:
287,94,265583,1,10,2:0:0:0:
155,206,265683,1,0,1:2:0:0:
343,156,265783,2,0,P|379:160|415:165,1,72.7199999999999,2|0,1:2|2:0,2:0:0:0:
210,336,265983,70,0,B|158:317|116:302|116:302|89:322|56:348,1,145.44,2|0,1:2|1:2,2:0:0:0:
0,133,266283,1,2,2:0:0:0:
0,133,266333,1,2,2:0:0:0:
0,133,266383,2,0,B|83:81|140:135|105:166|187:234|286:153,1,290.88,10|0,2:0|2:0,2:0:0:0:
260,170,266983,1,8,1:3:0:0:
351,27,267083,1,0,1:2:0:0:
257,272,267183,1,8,2:0:0:0:
336,121,267283,1,0,1:2:0:0:
390,282,267383,1,4,1:3:0:0:
329,100,267483,1,0,1:2:0:0:
196,342,267583,37,0,1:2:0:0:
407,201,267683,1,0,1:2:0:0:
202,94,267783,1,2,1:2:0:0:
273,237,267883,1,2,2:0:0:0:
273,237,267933,1,0,2:0:0:0:
273,237,267983,2,0,B|281:171|293:88,1,145.44,10|0,2:0|2:0,2:0:0:0:
140,261,268283,1,2,2:0:0:0:
375,225,268383,2,0,P|411:220|447:215,1,72.7199999999999,2|0,2:0|2:0,2:0:0:0:
260,341,268583,1,10,1:3:0:0:
374,134,268683,1,0,1:2:0:0:
480,358,268783,1,10,2:0:0:0:
273,237,268883,1,0,1:2:0:0:
474,117,268983,2,0,P|467:161|459:201,1,72.7199999999999,2|0,1:2|2:0,2:0:0:0:
259,65,269183,70,0,P|311:1|391:10,1,145.44,2|0,1:2|1:2,2:0:0:0:
273,237,269483,1,2,2:0:0:0:
273,237,269533,1,2,2:0:0:0:
273,237,269583,2,0,B|190:289|133:235|168:204|86:136|-13:217,1,290.88,10|0,2:0|2:0,2:0:0:0:
12,199,270183,1,8,1:3:0:0:
89,76,270283,1,0,1:2:0:0:
3,291,270383,1,8,2:0:0:0:
166,130,270483,1,0,1:2:0:0:
26,282,270583,1,4,1:3:0:0:
194,134,270683,1,0,1:2:0:0:
225,352,270783,37,2,1:2:0:0:
103,215,270883,1,0,1:2:0:0:
240,373,270983,2,0,P|247:337|253:301,1,72.7199999999999,0|0,1:2|2:0,2:0:0:0:
369,57,271183,2,0,B|390:81|410:101|410:101|388:145|368:195,1,145.44,12|2,2:0|2:0,2:0:0:0:
300,118,271483,1,2,2:0:0:0:
475,249,271583,2,0,P|467:213|461:177,1,72.7199999999999,2|0,2:0|2:0,2:0:0:0:
331,286,271783,1,8,1:3:0:0:
511,363,271883,1,0,1:2:0:0:
248,276,271983,1,8,2:0:0:0:
436,149,272083,1,0,1:2:0:0:
191,335,272183,1,0,1:2:0:0:
393,232,272283,1,0,1:2:0:0:
157,63,272383,70,0,P|166:112|176:166,1,82.8200000000001,8|0,2:0|2:0,2:0:0:0:
125,288,272583,1,0,1:2:0:0:
125,288,272683,1,0,1:2:0:0:
295,99,272783,2,0,P|286:148|276:202,1,82.8200000000001,8|0,2:0|2:0,2:0:0:0:
327,324,272983,1,0,1:2:0:0:
327,324,273083,1,0,1:2:0:0:
172,144,273183,2,0,P|122:153|74:161,1,82.8200000000001,8|0,2:0|2:0,2:0:0:0:
241,13,273383,1,0,1:2:0:0:
241,13,273483,1,0,1:2:0:0:
294,229,273583,1,8,2:0:0:0:
122,69,273683,1,8,2:0:0:0:
152,255,273783,1,8,2:3:0:0:
224,132,273883,1,4,2:3:0:0:
173,347,273983,38,0,P|132:340|86:332,1,72.7199999999999,0|0,1:2|1:2,2:0:0:0:
47,118,274183,1,2,1:2:0:0:
152,255,274283,1,2,2:0:0:0:
32,98,274383,2,0,B|122:82|80:155|188:129,1,145.44,2|0,2:0|2:0,2:0:0:0:
301,22,274683,1,2,2:0:0:0:
301,22,274733,1,2,2:0:0:0:
301,22,274783,2,0,P|295:69|289:115,1,72.7199999999999,10|0,2:0|2:0,2:0:0:0:
393,248,274983,1,10,1:3:0:0:
166,133,275083,2,0,P|170:169|175:205,1,72.7199999999999,0|2,1:2|2:0,2:0:0:0:
414,262,275283,1,0,1:2:0:0:
187,147,275383,2,0,P|191:183|196:219,1,72.7199999999999,2|0,1:2|2:0,2:0:0:0:
118,363,275583,69,2,1:2:0:0:
310,261,275683,1,0,1:0:0:0:
92,382,275783,2,0,P|83:284|73:152,1,218.16,0|0,1:2|2:0,2:0:0:0:
7,18,276183,2,0,P|41:27|76:36,1,72.7199999999999,0|0,2:0|2:0,2:0:0:0:
290,0,276383,1,10,2:0:0:0:
243,41,276449,1,8,2:3:0:0:
233,101,276516,1,4,2:3:0:0:
263,155,276583,1,10,2:0:0:0:
288,202,276649,1,8,2:3:0:0:
285,254,276716,1,4,2:3:0:0:
255,298,276783,1,10,2:0:0:0:
207,319,276849,1,8,2:3:0:0:
155,312,276916,1,4,2:3:0:0:
114,278,276983,2,0,P|149:268|184:259,1,72.7199999999999,14|0,2:0|2:0,2:0:0:0:
402,113,277183,37,0,1:2:0:0:
338,350,277283,1,0,1:2:0:0:
234,153,277383,1,2,1:2:0:0:
456,216,277483,1,2,2:0:0:0:
212,142,277583,2,0,B|130:125|160:203|59:181,1,145.44,2|0,2:0|2:0,2:0:0:0:
327,278,277883,1,2,2:0:0:0:
327,278,277933,1,0,2:0:0:0:
327,278,277983,2,0,P|344:232|331:183,1,72.7199999999999,10|0,2:0|2:0,2:0:0:0:
238,31,278183,1,10,1:3:0:0:
438,95,278283,2,0,P|397:106|350:120,1,72.7199999999999,0|2,1:2|2:0,2:0:0:0:
225,16,278483,1,0,1:2:0:0:
425,80,278583,2,0,P|384:91|337:105,1,72.7199999999999,2|0,1:2|2:0,2:0:0:0:
115,162,278783,69,2,1:2:0:0:
326,246,278883,1,0,1:0:0:0:
59,81,278983,2,0,B|26:111|-2:134|-2:134|33:192|70:259,1,218.16,0|0,1:2|2:0,2:0:0:0:
290,73,279383,1,8,2:0:0:0:
115,162,279483,1,8,2:0:0:0:
390,272,279583,37,8,2:0:0:0:
194,41,279683,1,8,2:0:0:0:
363,197,279783,1,4,1:3:0:0:
212,125,279883,1,4,1:3:0:0:
422,31,279983,1,10,2:0:0:0:
160,219,280083,1,8,1:2:0:0:
449,110,280183,1,8,1:2:0:0:
167,302,280283,1,8,1:2:0:0:
318,39,280383,69,14,2:0:0:0:
381,315,280483,1,10,2:0:0:0:
323,62,280583,1,10,2:0:0:0:
122,79,280883,37,10,2:0:0:0:
419,173,280983,1,10,2:0:0:0:
182,272,281083,1,10,2:0:0:0:
277,162,281283,69,8,2:0:0:0:
277,162,281333,1,8,2:0:0:0:
277,162,281383,1,8,2:0:0:0:
224,352,281483,1,8,2:3:0:0:
129,192,281583,1,8,2:3:0:0:
154,274,281683,1,4,2:3:0:0:
38,132,281783,1,4,2:3:0:0:
0,270,281883,1,4,2:3:0:0:
177,68,281983,37,14,2:0:0:0:
75,334,282083,1,10,2:0:0:0:
167,92,282183,1,10,2:0:0:0:
303,348,282483,69,10,2:0:0:0:
19,217,282583,1,10,2:0:0:0:
289,157,282683,1,10,2:0:0:0:
181,267,282883,37,0,1:2:0:0:
181,267,282933,1,0,1:2:0:0:
181,267,282983,1,12,2:0:0:0:
379,220,283083,1,8,2:0:0:0:
174,141,283183,1,0,1:2:0:0:
277,167,283283,1,8,2:0:0:0:
149,58,283383,1,8,2:0:0:0:
342,11,283483,1,0,1:2:0:0:
89,212,283583,69,14,2:0:0:0:
413,113,283683,1,10,2:0:0:0:
119,201,283783,1,10,2:0:0:0:
461,292,284083,37,10,2:0:0:0:
266,108,284183,1,10,2:0:0:0:
244,371,284283,2,0,P|314:373|366:298,1,145.44,10|0,2:0|1:2,2:0:0:0:
189,196,284583,1,8,2:3:0:0:
189,196,284633,1,8,2:0:0:0:
189,196,284683,1,8,2:3:0:0:
151,313,284783,1,0,1:2:0:0:
100,172,284883,1,8,2:3:0:0:
13,347,284983,69,14,2:0:0:0:
119,78,285083,1,10,2:0:0:0:
24,320,285183,1,10,2:0:0:0:
302,141,285316,37,10,2:0:0:0:
32,182,285449,2,0,L|195:222,1,145.44,10|0,2:0|2:0,2:0:0:0:
246,247,285716,1,10,2:0:0:0:
419,33,285849,1,10,2:0:0:0:
71,336,285983,38,0,B|204:418|336:281|230:238|360:118|496:178,1,509.04,14|0,2:0|2:0,2:0:0:0:
354,308,286783,5,8,2:0:0:0:
359,325,286833,1,8,2:0:0:0:
364,342,286883,1,0,1:2:0:0:
446,86,286983,1,12,2:3:0:0:
280,268,287083,1,8,2:0:0:0:
274,285,287133,1,8,2:0:0:0:
269,302,287183,1,0,1:2:0:0:
188,46,287283,1,12,2:3:0:0:
194,319,287383,1,8,2:0:0:0:
200,336,287433,1,8,2:0:0:0:
205,353,287483,1,0,1:2:0:0:
286,97,287583,1,12,2:3:0:0:
124,275,287683,1,8,2:0:0:0:
118,292,287733,1,8,2:0:0:0:
113,309,287783,1,0,1:2:0:0:
32,53,287883,1,12,2:3:0:0:
200,336,287983,102,0,B|171:199|288:160|287:91|217:45|137:97|273:221,1,371.68,14|4,2:0|1:2,2:0:0:0:
414,205,293483,5,0,1:2:0:0:
414,205,293533,1,0,1:2:0:0:
414,205,293583,101,8,2:0:0:0:
362,237,293649,1,8,2:0:0:0:
302,232,293716,1,8,2:3:0:0:
257,191,293783,1,8,2:3:0:0:
211,148,293849,1,4,2:3:0:0:
151,143,293916,1,4,2:3:0:0:
100,176,293983,2,0,P|104:299|229:301,1,248.46,4|0,1:2|1:2,2:0:0:0:
226,292,294333,1,0,1:2:0:0:
226,292,294383,1,8,2:0:0:0:
22,344,294483,1,8,2:0:0:0:
316,235,294583,1,8,2:3:0:0:
30,320,294683,1,4,2:3:0:0:
263,146,294783,6,0,B|329:96|396:158|372:177|425:220|508:171,1,250.48,4|0,1:2|3:2,2:0:0:0:
162,22,295583,2,0,P|73:57|80:204,1,250.48,0|0,2:0|3:2,2:0:0:0:
312,288,296383,2,0,P|179:317|56:342,1,250.48,0|0,2:0|3:2,2:0:0:0:
404,152,297183,2,0,B|436:177|477:207|477:207|437:267|391:352,1,250.48,0|0,2:0|3:2,2:0:0:0:
86,104,297983,102,0,B|170:68|239:39|239:39|271:68|318:112,1,250.48,0|0,2:0|3:2,2:0:0:0:
247,332,298783,2,0,P|181:297|234:141,1,250.48,0|0,2:0|3:2,2:0:0:0:
212,148,299683,6,0,L|272:158,1,36.36,10|0,2:0|2:0,2:0:0:0:
496,190,299783,1,10,2:0:0:0:
369,20,299883,1,0,1:2:0:0:
369,20,299933,1,0,1:2:0:0:
369,20,299983,2,0,L|376:75,1,36.36,10|0,2:0|2:0,2:0:0:0:
416,313,300083,1,10,2:0:0:0:
244,62,300183,1,0,1:2:0:0:
244,62,300233,1,0,1:2:0:0:
244,62,300283,102,0,P|157:80|60:97,1,165.64,14|8,2:0|2:0,2:0:0:0:
50,102,300533,1,8,2:0:0:0:
50,102,300583,1,8,2:0:0:0:
286,169,300683,1,8,2:3:0:0:
41,198,300783,1,8,2:3:0:0:
235,259,300883,1,8,2:3:0:0:
34,295,300983,1,4,2:3:0:0:
180,346,301083,1,4,2:3:0:0:
163,110,301183,86,0,B|136:135|112:153|112:153|151:217|177:264,1,165.64,14|0,1:2|1:2,1:0:0:0:
414,159,301483,1,2,1:2:0:0:
331,21,301583,2,0,P|322:66|310:119,1,82.8200000000001,10|0,1:2|1:2,1:0:0:0:
396,255,301783,1,0,1:2:0:0:
218,176,301883,1,2,1:2:0:0:
397,77,301983,2,0,P|406:122|418:175,1,82.8200000000001,10|0,1:2|1:2,1:0:0:0:
333,312,302183,1,0,1:2:0:0:
512,232,302283,1,2,1:2:0:0:
332,161,302383,2,0,B|279:141|240:180|264:193|228:238|157:212,1,165.64,10|0,1:2|1:2,1:0:0:0:
40,91,302683,1,2,1:2:0:0:
133,344,302783,6,0,P|124:303|116:262,1,82.8200000000001,10|0,1:2|1:2,1:0:0:0:
189,86,302983,1,0,1:2:0:0:
6,189,303083,1,2,1:2:0:0:
206,272,303183,2,0,P|214:231|222:190,1,82.8200000000001,10|0,1:2|1:2,1:0:0:0:
150,14,303383,1,0,1:2:0:0:
333,117,303483,1,2,1:2:0:0:
132,222,303583,2,0,P|86:213|50:206,1,82.8200000000001,10|0,1:2|1:2,1:0:0:0:
189,86,303783,1,0,1:2:0:0:
71,320,303883,1,2,1:2:0:0:
222,190,303983,2,0,P|293:149|388:201,1,165.64,10|0,1:2|1:2,1:0:0:0:
477,334,304283,1,2,1:2:0:0:
411,77,304383,102,0,P|398:157|382:254,1,165.64,14|0,1:2|1:2,1:0:0:0:
250,384,304683,1,2,1:2:0:0:
142,167,304783,2,0,P|187:180|251:198,1,82.8200000000001,10|0,1:2|1:2,1:0:0:0:
376,288,304983,1,0,1:2:0:0:
300,108,305083,1,2,1:2:0:0:
188,305,305183,2,0,P|233:292|297:274,1,82.8200000000001,10|0,1:2|1:2,1:0:0:0:
422,184,305383,1,0,1:2:0:0:
346,364,305483,1,2,1:2:0:0:
221,189,305583,2,0,P|234:106|247:18,1,165.64,10|0,1:2|1:2,1:0:0:0:
349,206,305883,1,2,1:2:0:0:
349,206,305933,1,0,1:2:0:0:
349,206,305983,6,0,P|356:257|364:305,1,82.8200012637329,10|0,1:2|1:2,1:2:0:0:
334,75,306183,1,0,1:2:0:0:
120,234,306283,1,14,1:2:0:0:
358,312,306383,1,2,1:2:0:0:
249,195,306483,1,0,1:2:0:0:
329,384,306583,1,12,1:2:0:0:
422,147,306683,1,0,1:2:0:0:
218,283,306783,101,0,1:2:0:0:
355,68,306883,1,12,1:2:0:0:
443,331,306983,1,0,1:2:0:0:
221,189,307083,1,0,1:2:0:0:
221,189,307133,1,0,1:2:0:0:
221,189,307183,1,8,1:2:0:0:
471,75,307283,1,10,1:2:0:0:
120,183,307383,1,10,1:3:0:0:
355,68,307483,1,6,1:3:0:0:
99,275,307583,6,0,P|85:198|68:99,1,165.64,14|0,1:2|1:2,1:0:0:0:
0,335,307883,1,2,1:2:0:0:
204,113,307983,2,0,P|194:159|182:211,1,82.8200000000001,10|0,1:2|1:2,1:0:0:0:
227,361,308183,1,0,1:2:0:0:
71,270,308283,1,2,1:2:0:0:
290,167,308383,2,0,P|300:213|312:265,1,82.8200000000001,10|0,1:2|1:2,1:0:0:0:
109,141,308583,1,0,1:2:0:0:
281,34,308683,1,2,1:2:0:0:
200,214,308783,2,0,P|137:263|41:231,1,165.64,10|0,1:2|1:2,1:0:0:0:
174,65,309083,1,2,1:2:0:0:
293,284,309183,102,0,B|350:260|403:237|403:237|455:280,1,165.64,10|0,1:2|1:2,1:0:0:0:
320,118,309483,1,2,1:2:0:0:
225,355,309583,2,0,P|195:311|196:263,1,82.8200000000001,10|0,1:2|1:2,1:0:0:0:
246,90,309783,1,0,1:2:0:0:
76,210,309883,1,2,1:2:0:0:
293,284,309983,2,0,P|298:243|306:181,1,82.8200000000001,10|0,1:2|1:2,1:0:0:0:
330,11,310183,1,0,1:2:0:0:
187,186,310283,1,2,1:2:0:0:
457,62,310383,5,10,1:2:0:0:
104,189,310483,1,8,1:2:0:0:
447,91,310583,1,8,1:2:0:0:
140,254,310683,1,8,1:2:0:0:
322,82,310783,6,0,P|316:140|309:193,1,111.100000000001,2|0,2:0|2:0,2:0:0:0:
301,279,311383,1,2,2:0:0:0:
301,279,311483,1,2,2:0:0:0:
229,378,311583,5,2,2:0:0:0:
218,355,311683,1,2,2:0:0:0:
254,278,311783,101,2,2:0:0:0:
265,255,311883,1,2,2:0:0:0:
196,177,311983,5,2,2:0:0:0:
274,147,312083,1,2,2:0:0:0:
184,70,312183,1,2,2:0:0:0:
261,35,312283,1,2,2:0:0:0:
75,244,312383,101,8,2:0:0:0:
410,89,312516,1,8,2:0:0:0:
10,313,312649,1,8,2:0:0:0:
10,313,312916,5,8,2:0:0:0:
372,172,313049,1,8,2:0:0:0:
88,0,313183,1,14,2:0:0:0:
256,192,313233,12,0,313883,2:0:0:0:
123,237,313983,102,0,B|201:189|272:202|288:340|381:325|426:315|435:243|437:179|328:201|310:271,1,438.34,2|0,3:2|1:2,2:0:0:0:
95,378,314783,5,8,2:0:0:0:
193,143,314883,1,8,2:0:0:0:
325,377,314983,1,8,2:0:0:0:
49,195,315083,1,8,2:0:0:0:
298,36,315183,1,8,2:0:0:0:
52,284,315283,1,8,2:0:0:0:
401,156,315383,1,8,2:0:0:0:
118,17,315483,1,8,2:0:0:0:
305,359,315583,54,0,P|316:268|324:194,1,154.53,6|0,1:2|2:0,1:0:0:0:
327,174,315783,2,0,P|277:162|229:178,1,103.02,10|0,1:2|1:2,1:0:0:0:
50,310,315983,1,2,1:2:0:0:
186,77,316083,1,0,1:2:0:0:
305,359,316183,2,0,P|254:346|204:334,1,103.02,10|0,1:2|1:2,1:0:0:0:
393,98,316383,6,0,B|416:121|440:142|440:142|414:194|392:238,1,154.53,2|0,1:2|2:0,1:0:0:0:
383,255,316583,2,0,P|334:271|285:259,1,103.02,10|0,1:2|1:2,1:0:0:0:
150,126,316783,1,2,1:2:0:0:
234,352,316883,1,0,1:2:0:0:
264,93,316983,1,10,1:2:0:0:
108,317,317083,1,0,1:2:0:0:
198,23,317183,70,0,P|249:15|300:7,1,103.02,2|0,1:2|1:2,1:0:0:0:
195,250,317383,1,8,1:2:0:0:
111,62,317483,2,0,P|61:54|10:46,1,103.02,2|0,1:2|1:2,1:0:0:0:
101,266,317683,1,0,1:2:0:0:
269,95,317783,1,10,1:2:0:0:
81,288,317883,1,0,1:2:0:0:
299,7,317983,22,0,P|316:110|333:213,1,206.04,2|8,1:2|1:2,1:0:0:0:
231,384,318283,1,0,1:2:0:0:
488,254,318383,2,0,B|430:228|382:273|406:289|358:339|274:297,1,206.04,2|8,1:2|1:2,1:0:0:0:
482,349,318683,1,0,1:2:0:0:
267,106,318783,6,0,P|190:116|118:143,1,154.53,6|0,1:2|2:0,1:0:0:0:
79,125,318983,1,10,1:2:0:0:
231,351,319083,2,0,P|300:310|296:192,1,206.04,2|0,1:2|1:2,1:0:0:0:
34,333,319383,1,10,1:2:0:0:
226,253,319483,1,2,1:2:0:0:
6,141,319583,70,0,P|82:151|154:178,1,154.53,2|0,1:2|2:0,1:0:0:0:
194,160,319783,1,10,1:2:0:0:
368,0,319883,2,0,P|437:41|433:159,1,206.04,2|0,1:2|1:2,1:0:0:0:
308,332,320183,1,10,1:2:0:0:
512,242,320283,1,2,1:2:0:0:
346,85,320383,22,0,P|336:136|325:186,1,103.02,2|0,1:2|1:2,1:0:0:0:
210,350,320583,1,8,1:2:0:0:
414,260,320683,1,0,1:2:0:0:
198,91,320783,1,10,1:2:0:0:
179,120,320833,1,8,1:2:0:0:
174,156,320883,1,8,1:2:0:0:
182,191,320933,1,8,1:2:0:0:
203,221,320983,1,8,1:3:0:0:
225,249,321033,1,8,1:3:0:0:
233,284,321083,1,4,1:3:0:0:
228,320,321133,1,4,1:3:0:0:
210,350,321183,6,0,P|107:339|101:233,1,206.04,14|0,1:2|1:2,1:0:0:0:
270,148,321483,1,0,1:2:0:0:
270,148,321533,1,0,1:2:0:0:
270,148,321583,1,10,1:2:0:0:
10,215,321683,1,10,1:2:0:0:
298,156,321783,1,10,1:2:0:0:
34,198,321883,1,10,1:2:0:0:
353,349,321983,70,0,P|369:277|389:183,1,154.53,6|0,1:2|2:0,1:0:0:0:
395,166,322183,2,0,P|344:146|277:168,1,103.02,10|0,1:2|1:2,1:0:0:0:
126,276,322383,1,2,1:2:0:0:
245,69,322483,1,0,1:2:0:0:
286,300,322583,1,10,1:2:0:0:
112,138,322683,1,0,1:2:0:0:
307,326,322783,22,0,P|370:296|479:305,1,154.53,2|0,1:2|2:0,1:0:0:0:
482,315,322983,2,0,P|499:260|479:206,1,103.02,10|0,1:2|1:2,1:0:0:0:
294,88,323183,1,2,1:2:0:0:
512,147,323283,1,0,1:2:0:0:
272,185,323383,1,10,1:2:0:0:
474,59,323483,1,0,1:2:0:0:
213,0,323583,6,0,P|205:56|196:123,1,103.02,2|0,1:2|1:2,1:0:0:0:
268,313,323783,1,8,1:2:0:0:
104,62,323883,2,0,P|112:113|119:165,1,103.02,2|0,1:2|1:2,1:0:0:0:
50,342,324083,1,0,1:2:0:0:
243,191,324183,1,10,1:2:0:0:
32,122,324283,1,0,1:2:0:0:
268,313,324383,70,0,P|326:319|376:275,1,103.02,2|0,1:2|1:0,1:0:0:0:
446,116,324583,1,8,1:2:0:0:
299,220,324683,1,0,1:2:0:0:
461,365,324783,2,0,P|470:315|482:240,1,103.02,2|0,1:2|1:0,1:0:0:0:
327,75,324983,1,8,1:2:0:0:
214,305,325083,1,0,1:2:0:0:
414,157,325183,22,0,B|294:125|339:241|194:194,1,206.04,2|8,1:2|1:2,1:0:0:0:
26,81,325483,2,0,P|42:175|62:294,1,206.04,2|0,1:2|1:2,1:0:0:0:
203,98,325783,1,10,1:2:0:0:
8,212,325883,1,2,1:2:0:0:
230,343,325983,2,0,P|238:288|247:218,1,103.02,2|0,1:2|1:2,1:0:0:0:
278,5,326183,1,8,1:2:0:0:
140,197,326283,1,2,1:2:0:0:
384,57,326383,1,8,1:2:0:0:
427,83,326433,1,8,1:2:0:0:
453,127,326483,1,8,1:3:0:0:
455,178,326533,1,4,1:3:0:0:
433,224,326583,2,0,P|380:251|327:230,1,103.02,4|0,1:3|1:2,1:0:0:0:
137,80,326783,5,14,1:2:0:0:
367,150,326883,1,0,1:2:0:0:
163,90,326983,1,0,1:2:0:0:
329,299,327083,1,14,1:2:0:0:
288,39,327183,1,0,1:2:0:0:
120,238,327283,1,0,1:2:0:0:
367,150,327383,1,8,1:2:0:0:
79,299,327483,1,8,1:2:0:0:
288,39,327583,69,14,1:2:0:0:
343,333,327683,1,8,1:3:0:0:
187,42,327783,1,4,1:3:0:0:
237,339,327883,1,14,1:2:0:0:
374,32,327983,1,8,1:3:0:0:
120,238,328083,1,8,1:3:0:0:
444,129,328183,1,14,1:2:0:0:
79,299,328283,1,10,1:2:0:0:
288,39,328383,1,6,1:3:0:0:
288,39,328583,22,0,P|302:119|319:208,1,169.68,14|0,1:2|2:0,1:0:0:0:
327,242,328783,2,0,P|267:272|215:251,1,113.12,2|0,1:2|1:2,1:0:0:0:
9,53,328983,2,0,P|84:31|158:132,1,169.68,10|0,1:2|2:0,1:0:0:0:
209,141,329183,6,0,P|199:222|182:343,1,169.68,2|0,1:2|2:0,1:0:0:0:
178,351,329383,2,0,P|232:362|279:333,1,113.12,10|0,1:2|1:2,1:0:0:0:
397,67,329583,2,0,P|336:51|271:34,1,113.12,2|0,1:2|1:2,1:0:0:0:
392,344,329783,2,0,B|412:323|435:299|435:299|407:251|370:184,1,169.68,10|0,1:2|2:0,1:0:0:0:
357,168,329983,70,0,P|347:233|337:295,1,113.12,2|0,1:2|1:2,1:0:0:0:
478,79,330183,1,8,1:2:0:0:
266,232,330283,2,0,P|204:217|148:203,1,113.12,2|0,1:2|1:2,1:0:0:0:
285,33,330483,1,0,1:2:0:0:
392,344,330583,2,0,P|446:330|501:317,1,113.12,10|0,1:2|1:2,1:0:0:0:
237,126,330783,21,10,1:2:0:0:
430,242,330883,1,8,1:3:0:0:
229,318,330983,1,8,1:3:0:0:
361,80,331083,1,10,1:2:0:0:
149,243,331183,1,4,1:3:0:0:
347,183,331283,1,4,1:3:0:0:
140,33,331383,1,10,1:2:0:0:
229,318,331483,6,0,P|271:237|233:150,1,165.64,0|0,3:2|3:2,2:0:0:0:
27,54,331783,70,0,B|87:15|147:61|115:86|171:130|251:75,1,226.24,14|0,1:2|1:2,1:0:0:0:
393,0,332083,1,0,1:2:0:0:
146,135,332183,2,0,P|159:200|171:254,1,113.12,8|0,1:2|1:2,1:0:0:0:
243,384,332383,21,2,1:2:0:0:
100,344,332483,1,2,1:2:0:0:
262,268,332583,1,10,1:2:0:0:
83,238,332683,1,2,1:2:0:0:
278,164,332783,1,2,1:2:0:0:
64,141,332883,1,2,1:2:0:0:
295,62,332983,1,10,1:2:0:0:
48,47,333083,1,2,1:2:0:0:
262,268,333183,6,0,P|354:247|467:219,1,169.68,2|0,1:2|2:0,1:0:0:0:
459,220,333383,2,0,P|469:158|424:110,1,113.12,10|0,1:2|1:2,1:0:0:0:
216,39,333583,1,10,1:2:0:0:
186,72,333633,1,8,1:2:0:0:
176,116,333683,1,8,1:2:0:0:
188,159,333733,1,8,1:2:0:0:
219,192,333783,1,10,1:3:0:0:
250,225,333833,1,8,1:3:0:0:
262,268,333883,1,4,1:3:0:0:
252,312,333933,1,4,1:3:0:0:
222,345,333983,70,0,B|165:333|147:272|147:272|107:312|105:376|105:376|74:292|-8:299,1,339.36,14|4,1:2|1:3,1:0:0:0:
0,323,334333,1,4,1:3:0:0:
0,323,334383,1,10,1:2:0:0:
250,225,334483,1,10,1:2:0:0:
0,155,334583,1,10,1:2:0:0:
266,45,334683,1,10,1:2:0:0:
70,291,334783,22,0,P|54:216|33:104,1,169.68,6|0,1:2|1:2,1:0:0:0:
24,92,334983,2,0,P|78:62|135:84,1,113.12,10|0,1:2|3:2,1:0:0:0:
321,191,335183,1,2,1:2:0:0:
235,3,335283,1,0,3:2:0:0:
283,261,335383,1,10,1:2:0:0:
386,63,335483,1,0,3:2:0:0:
173,250,335583,5,2,1:2:0:0:
427,148,335683,1,0,3:2:0:0:
146,263,335783,1,10,1:2:0:0:
381,335,335883,1,0,3:2:0:0:
223,124,335983,1,2,1:2:0:0:
163,384,336083,1,0,3:2:0:0:
288,90,336183,1,10,1:2:0:0:
230,341,336283,1,0,3:2:0:0:
54,87,336383,70,0,P|110:72|172:55,1,113.12,2|0,1:2|3:2,1:0:0:0:
366,210,336583,1,8,1:2:0:0:
254,15,336683,2,0,P|236:78|219:136,1,113.12,2|0,3:2|1:2,1:0:0:0:
156,315,336883,1,0,3:2:0:0:
333,100,336983,2,0,P|348:154|364:208,1,113.12,10|0,1:2|3:2,1:0:0:0:
441,384,337183,22,0,P|386:369|331:354,1,113.12,2|0,1:2|3:2,1:0:0:0:
68,281,337383,1,8,1:2:0:0:
364,208,337483,2,0,P|418:192|473:177,1,113.12,2|0,3:2|1:2,1:0:0:0:
292,43,337683,1,0,3:2:0:0:
217,325,337783,2,0,P|162:309|107:294,1,113.12,10|0,1:2|3:2,1:0:0:0:
188,29,337983,5,2,1:2:0:0:
108,259,338083,1,2,3:2:0:0:
198,2,338183,1,10,1:2:0:0:
291,270,338283,1,2,3:2:0:0:
56,147,338383,1,2,1:2:0:0:
292,43,338483,1,2,3:2:0:0:
97,282,338583,1,10,1:2:0:0:
367,194,338683,1,2,3:2:0:0:
204,136,338783,69,2,1:2:0:0:
308,349,338883,1,2,3:2:0:0:
436,126,338983,1,10,1:2:0:0:
291,270,339083,1,2,3:2:0:0:
391,37,339183,1,2,1:2:0:0:
507,265,339283,1,2,3:2:0:0:
317,8,339383,1,10,1:2:0:0:
231,317,339483,1,6,3:0:0:0:
231,317,339683,22,0,L|216:250,1,56.56,10|0,1:2|1:2,1:0:0:0:
161,20,339783,1,10,1:2:0:0:
53,203,339883,1,0,1:2:0:0:
53,203,339933,1,0,1:2:0:0:
53,203,339983,2,0,L|123:187,1,56.56,10|0,1:2|1:2,1:0:0:0:
353,127,340083,1,10,1:2:0:0:
107,305,340183,1,0,1:2:0:0:
107,305,340233,1,0,1:2:0:0:
107,305,340283,6,0,P|211:322|336:341,1,226.24,8|8,1:2|1:2,1:0:0:0:
365,347,340533,1,8,1:2:0:0:
365,347,340583,1,8,1:2:0:0:
263,81,340683,1,8,1:3:0:0:
189,357,340783,1,8,1:3:0:0:
405,166,340883,1,8,1:3:0:0:
107,305,340983,1,4,1:3:0:0:
323,157,341083,1,4,1:3:0:0:
57,384,341183,70,0,P|75:244|96:68,1,309.06,14|0,3:2|2:0,3:0:0:0:
179,312,341583,1,8,3:2:0:0:
0,225,341683,1,2,3:2:0:0:
169,132,341783,1,2,3:2:0:0:
0,44,341883,1,2,3:2:0:0:
168,275,341983,22,0,P|217:279|265:243,2,103.02,10|0|0,3:2|3:2|3:2,3:0:0:0:
249,74,342283,1,0,3:2:0:0:
359,298,342383,1,8,3:2:0:0:
192,183,342483,1,2,3:2:0:0:
375,93,342583,1,0,3:2:0:0:
102,190,342683,1,0,3:2:0:0:
408,366,342783,6,0,B|431:337|453:310|453:310|420:244|384:167,1,206.04,10|0,3:2|3:2,3:0:0:0:
170,258,343083,1,0,3:2:0:0:
170,258,343133,1,0,3:2:0:0:
170,258,343183,2,0,B|285:215|253:338|377:292,1,206.04,10|0,3:2|3:2,3:0:0:0:
258,99,343483,1,0,3:2:0:0:
204,351,343583,70,0,P|157:345|101:336,1,103.02,8|0,3:2|3:0,3:0:0:0:
335,211,343783,1,2,3:2:0:0:
154,147,343883,1,2,3:2:0:0:
358,297,343983,1,10,3:2:0:0:
258,99,344083,1,2,3:2:0:0:
164,312,344183,1,2,3:2:0:0:
360,192,344283,1,2,3:2:0:0:
134,38,344383,22,0,P|117:144|97:253,1,206.04,14|0,3:2|3:2,3:0:0:0:
209,384,344683,1,0,3:2:0:0:
0,304,344783,1,8,3:2:0:0:
239,193,344883,1,2,3:2:0:0:
12,120,344983,1,2,3:2:0:0:
289,254,345083,1,2,3:2:0:0:
106,43,345183,6,0,P|97:100|88:148,2,103.02,10|0|0,3:2|3:0|3:0,3:0:0:0:
207,270,345483,1,0,3:2:0:0:
0,183,345583,1,8,3:2:0:0:
195,108,345683,1,2,3:2:0:0:
0,304,345783,1,2,3:2:0:0:
274,154,345883,1,2,3:2:0:0:
274,154,345933,1,0,3:2:0:0:
274,154,345983,69,10,3:2:0:0:
67,55,346083,1,8,3:0:0:0:
207,270,346183,1,8,3:0:0:0:
301,11,346283,21,10,3:2:0:0:
93,180,346383,1,4,3:0:0:0:
284,25,346483,1,4,3:0:0:0:
338,283,346583,5,10,3:2:0:0:
183,88,346683,1,4,3:0:0:0:
324,266,346783,1,4,3:0:0:0:
419,53,346883,69,10,3:2:0:0:
232,173,346983,1,0,3:2:0:0:
417,248,347083,1,0,3:2:0:0:
417,248,347133,1,0,3:2:0:0:
417,248,347183,1,8,3:2:0:0:
260,47,347283,1,8,3:0:0:0:
173,292,347383,1,4,3:0:0:0:
269,23,347483,1,4,3:0:0:0:
466,276,347583,22,0,B|380:232|316:308|360:331|292:423|189:356,1,309.06,14|0,3:2|2:0,3:0:0:0:
64,170,347983,1,8,3:2:0:0:
253,268,348083,1,2,3:2:0:0:
125,63,348183,1,2,3:2:0:0:
45,303,348283,1,2,3:2:0:0:
224,103,348383,6,0,P|275:112|343:122,2,103.02,10|0|0,3:2|3:2|3:2,3:0:0:0:
369,248,348683,1,0,3:2:0:0:
276,27,348783,1,8,3:2:0:0:
175,229,348883,1,2,3:2:0:0:
361,105,348983,1,0,3:2:0:0:
167,25,349083,1,0,3:2:0:0:
369,248,349183,70,0,P|428:221|444:80,1,206.04,10|0,3:2|3:2,3:0:0:0:
189,141,349483,1,0,3:2:0:0:
189,141,349533,1,0,3:2:0:0:
189,141,349583,2,0,P|203:239|220:353,1,206.04,10|0,3:2|3:2,3:0:0:0:
326,163,349883,1,0,3:2:0:0:
129,56,349983,22,0,B|95:85|68:105|68:105|97:165|125:225,1,206.04,10|0,3:2|3:2,3:0:0:0:
325,34,350283,1,0,3:2:0:0:
325,34,350333,1,0,3:0:0:0:
325,34,350383,2,0,P|269:24|211:15,1,103.02,10|0,3:2|3:2,3:0:0:0:
122,220,350583,2,0,P|172:210|223:202,1,103.02,0|0,3:2|3:2,3:0:0:0:
511,275,350783,6,0,B|431:231|362:297|402:327|325:392|236:342,1,309.06,14|0,3:2|3:2,3:0:0:0:
70,157,351183,1,8,3:2:0:0:
109,381,351283,1,2,3:2:0:0:
172,123,351383,1,2,3:2:0:0:
22,297,351483,1,2,3:2:0:0:
144,41,351583,70,0,P|219:26|312:142,1,206.04,10|0,3:2|3:2,3:0:0:0:
244,279,351883,1,0,3:2:0:0:
397,69,351983,1,8,3:2:0:0:
242,189,352083,1,2,3:2:0:0:
378,0,352183,1,2,3:2:0:0:
441,233,352283,1,2,3:2:0:0:
441,233,352333,1,0,3:2:0:0:
441,233,352383,21,10,3:2:0:0:
308,107,352483,1,8,3:0:0:0:
404,308,352583,1,8,3:0:0:0:
512,96,352683,5,14,3:2:0:0:
323,213,352783,1,4,3:0:0:0:
512,335,352883,1,4,3:0:0:0:
397,69,352983,69,14,3:2:0:0:
263,319,353083,1,4,3:0:0:0:
477,164,353183,1,4,3:0:0:0:
213,245,353283,21,14,3:2:0:0:
512,335,353383,1,0,3:2:0:0:
187,254,353483,1,0,3:2:0:0:
507,154,353583,5,8,3:2:0:0:
255,85,353683,1,8,3:0:0:0:
397,307,353783,1,4,3:0:0:0:
240,61,353883,1,4,3:0:0:0:
120,326,353983,70,0,P|178:339|242:354,1,103.02,14|0,1:2|1:2,1:0:0:0:
240,61,354183,2,0,P|199:104|154:152,1,103.02,8|0,1:2|1:2,1:0:0:0:
417,270,354383,2,0,P|399:213|380:150,1,103.02,8|0,1:2|1:2,1:0:0:0:
451,0,354583,1,10,1:2:0:0:
259,216,354683,1,2,1:2:0:0:
512,69,354783,22,0,P|496:118|481:167,1,103.02,10|0,1:2|1:2,1:0:0:0:
401,368,354983,1,8,1:2:0:0:
356,91,355083,1,0,1:2:0:0:
278,349,355183,2,0,P|227:337|177:326,1,103.02,10|0,1:2|1:2,1:0:0:0:
11,107,355383,1,8,1:2:0:0:
56,384,355483,1,0,1:2:0:0:
97,47,355583,6,0,P|112:96|127:145,1,103.02,10|0,1:2|1:2,1:0:0:0:
247,261,355783,1,8,1:2:0:0:
24,208,355883,1,0,1:2:0:0:
249,74,355983,2,0,P|233:123|218:172,1,103.02,10|0,1:2|1:2,1:0:0:0:
413,355,356183,1,8,1:2:0:0:
309,157,356283,1,0,1:2:0:0:
208,362,356383,70,0,P|157:373|107:384,1,103.02,10|0,1:2|1:2,1:0:0:0:
360,240,356583,2,0,P|410:228|460:217,1,103.02,8|0,1:2|1:2,1:0:0:0:
124,185,356783,2,0,P|73:196|23:207,1,103.02,8|0,1:2|1:2,1:0:0:0:
260,41,356983,1,10,1:2:0:0:
158,283,357083,1,2,1:2:0:0:
373,44,357183,22,0,P|388:93|403:142,1,103.02,14|0,1:2|1:2,1:0:0:0:
69,164,357383,2,0,P|104:127|139:89,1,103.02,8|0,1:2|1:2,1:0:0:0:
325,367,357583,2,0,P|275:355|225:344,1,103.02,8|0,1:2|1:2,1:0:0:0:
0,286,357783,1,10,1:2:0:0:
259,185,357883,1,2,1:2:0:0:
118,384,357983,6,0,P|102:334|87:285,1,103.02,10|0,1:2|1:2,1:0:0:0:
245,86,358183,1,8,1:2:0:0:
189,311,358283,1,0,1:2:0:0:
366,68,358383,2,0,P|381:117|396:166,1,103.02,10|0,1:2|1:2,1:0:0:0:
306,339,358583,1,8,1:2:0:0:
512,235,358683,1,0,1:2:0:0:
189,311,358783,70,0,P|138:322|88:333,1,103.02,10|0,1:2|1:2,1:0:0:0:
253,136,358983,1,8,1:2:0:0:
306,339,359083,1,0,1:2:0:0:
396,166,359183,2,0,P|446:154|496:143,1,103.02,10|0,1:2|1:2,1:0:0:0:
298,20,359383,1,8,1:2:0:0:
395,276,359483,1,0,1:2:0:0:
253,136,359583,21,6,1:3:0:0:
253,136,359633,1,4,1:3:0:0:
253,136,359683,1,4,1:3:0:0:
477,226,359783,1,8,1:2:0:0:
151,168,359883,1,8,1:2:0:0:
406,31,359983,1,8,1:2:0:0:
120,267,360083,1,8,1:2:0:0:
407,123,360183,1,8,1:2:0:0:
30,219,360283,1,8,1:2:0:0:
372,357,360383,5,6,1:2:0:0:
292,66,360483,1,8,1:2:0:0:
160,295,360583,1,0,1:2:0:0:
240,4,360683,1,8,1:2:0:0:
422,291,360783,1,0,1:2:0:0:
342,0,360883,1,8,1:2:0:0:
178,271,360983,1,2,1:2:0:0:
499,153,361083,1,10,1:2:0:0:
240,4,361183,70,0,P|254:68|266:121,1,103.02,2|8,1:2|1:2,1:0:0:0:
189,370,361383,1,0,1:2:0:0:
403,179,361483,1,8,1:2:0:0:
159,74,361583,1,2,1:2:0:0:
372,357,361683,1,8,1:2:0:0:
478,61,361783,1,0,1:2:0:0:
478,61,361833,1,0,1:2:0:0:
478,61,361883,1,8,1:2:0:0:
178,271,361983,22,0,P|127:261|67:249,1,103.02,2|8,1:2|1:2,1:0:0:0:
262,104,362183,1,0,1:2:0:0:
116,384,362283,1,8,1:2:0:0:
159,74,362383,1,2,1:2:0:0:
273,370,362483,1,8,1:2:0:0:
34,185,362583,1,0,1:2:0:0:
303,39,362683,1,8,1:2:0:0:
187,312,362783,6,0,P|175:261|164:211,1,103.02,2|8,1:2|1:2,1:0:0:0:
418,58,362983,2,0,P|407:108|395:158,1,103.02,0|8,1:2|1:2,1:0:0:0:
296,384,363183,1,8,1:2:0:0:
264,323,363249,1,8,1:2:0:0:
265,255,363316,1,8,1:2:0:0:
296,195,363383,1,8,1:3:0:0:
327,134,363449,1,8,1:3:0:0:
327,66,363516,1,4,1:3:0:0:
296,6,363583,54,0,B|180:125|50:137|52:103|53:44|84:14|170:37|193:128,1,438.339982609803,4|0,1:2|2:0,2:0:0:0:
96,181,364383,2,0,L|108:270,1,70.0266662392578,2|0,2:0|2:0,2:0:0:0:
46,361,364649,1,2,2:0:0:0:
204,207,364783,2,0,L|185:326,1,110.426668351644,6|0,1:2|2:0,2:0:0:0:
266,384,365049,1,2,0:0:0:0:
439,221,365183,102,0,B|345:267|260:181|327:150|236:68|151:119|151:119,1,333.3,6|0,1:2|3:2,2:0:0:0:
67,206,366733,1,0,3:2:0:0:
67,206,366783,102,0,B|86:162|68:114|68:114|92:150|88:185,1,169.68,4|6,3:2|2:0,2:0:0:0:
0,325,368283,1,2,2:0:0:0:
148,104,368383,22,0,P|201:109|248:121,1,82.8200000000001,6|0,1:2|2:0,2:0:0:0:
324,53,368583,1,2,2:0:0:0:
324,53,368683,1,2,2:0:0:0:
211,236,368783,102,0,P|252:202|292:180,1,72.7199999999999,6|0,1:2|2:0,2:0:0:0:
300,82,368983,1,2,2:0:0:0:
300,82,369083,1,2,2:0:0:0:
347,283,369183,102,0,P|351:230|362:199,1,62.62,6|0,1:2|2:0,2:0:0:0:
303,117,369383,1,2,2:0:0:0:
303,117,369483,1,2,2:0:0:0:
455,205,369583,22,0,P|421:163|415:150,1,52.5200000000001,6|0,1:2|2:0,2:0:0:0:
322,146,369783,1,2,2:0:0:0:
322,146,369883,1,2,2:0:0:0:
426,358,369983,102,0,P|448:307|448:258,1,82.8200000000001,14|0,2:0|2:0,2:0:0:0:
369,59,370183,1,2,1:2:0:0:
501,121,370283,1,2,1:2:0:0:
190,302,370383,102,0,P|168:251|170:191,1,92.92,14|0,2:0|2:0,2:0:0:0:
249,2,370583,1,2,1:2:0:0:
101,73,370683,1,2,1:2:0:0:
312,370,370783,22,0,B|319:308|368:255|368:255|280:285|280:285|343:232|333:139,1,360.57,14|0,2:0|2:0,2:0:0:0:
281,98,371183,101,8,2:0:0:0:
404,342,371283,1,8,2:0:0:0:
304,29,371383,1,8,2:0:0:0:
153,327,371483,1,8,2:0:0:0:
389,102,371583,54,0,P|437:111|503:123,1,82.8200000000001,6|0,1:2|2:0,1:0:0:0:
166,188,371783,1,10,1:2:0:0:
478,146,371883,2,0,P|437:138|396:130,1,82.8200000000001,2|0,1:2|2:0,1:0:0:0:
163,91,372083,1,8,1:3:0:0:
293,266,372183,1,10,1:2:0:0:
234,29,372283,1,4,1:3:0:0:
208,311,372383,2,0,P|251:360|332:356,1,124.23,2|0,1:2|2:0,1:0:0:0:
330,343,372583,2,0,P|345:274|361:235,1,82.8200000000001,10|0,1:2|2:0,1:0:0:0:
136,166,372783,2,0,P|168:192|197:223,1,82.8200000000001,2|0,1:2|2:0,1:0:0:0:
364,105,372983,2,0,P|325:119|285:129,1,82.8200000000001,10|0,1:2|2:0,1:0:0:0:
91,33,373183,6,0,P|83:84|75:129,1,82.8200000000001,2|0,1:2|2:0,1:0:0:0:
150,295,373383,1,10,1:2:0:0:
0,99,373483,2,0,P|8:150|16:195,1,82.8200000000001,2|0,1:2|2:0,1:0:0:0:
38,358,373683,1,8,1:3:0:0:
201,173,373783,1,10,1:2:0:0:
54,257,373883,1,4,1:3:0:0:
250,352,373983,102,0,P|310:336|392:322,1,124.23,2|0,1:2|2:0,1:0:0:0:
406,326,374183,2,0,P|417:260|430:207,1,82.8200000000001,10|0,1:2|2:0,1:0:0:0:
224,158,374383,2,0,P|256:183|287:211,1,82.8200000000001,2|0,1:2|2:0,1:0:0:0:
449,66,374583,2,0,P|410:82|371:95,1,82.8200000000001,10|0,1:2|2:0,1:0:0:0:
131,30,374783,6,0,P|141:82|148:127,1,82.8200000000001,2|0,1:2|2:0,1:0:0:0:
58,296,374983,1,10,1:2:0:0:
238,76,375083,2,0,P|228:128|221:173,1,82.8200000000001,2|0,1:2|2:0,1:0:0:0:
306,328,375283,1,8,1:3:0:0:
117,222,375383,1,10,1:2:0:0:
319,124,375483,1,4,1:3:0:0:
174,310,375583,102,0,P|98:317|38:276,1,124.23,2|0,1:2|2:0,1:0:0:0:
38,264,375783,2,0,P|26:204|11:162,1,82.8200000000001,10|0,1:2|2:0,1:0:0:0:
249,237,375983,2,0,P|217:264|188:294,1,82.8200000000001,2|0,1:2|2:0,1:0:0:0:
120,71,376183,2,0,P|158:85|199:95,1,82.8200000000001,10|0,1:2|2:0,1:0:0:0:
352,72,376383,5,2,1:2:0:0:
133,185,376483,1,8,1:3:0:0:
374,60,376583,1,10,1:2:0:0:
294,312,376683,1,14,1:3:0:0:
199,95,376783,1,0,1:2:0:0:
442,192,376883,1,10,1:3:0:0:
187,296,376983,1,10,1:2:0:0:
337,153,377083,1,6,1:3:0:0:
167,315,377183,102,0,P|132:268|151:184,1,124.23,2|0,1:2|2:0,1:0:0:0:
151,173,377383,2,0,P|206:181|242:195,1,82.8200000000001,10|0,1:2|2:0,1:0:0:0:
372,278,377583,2,0,P|351:226|345:188,1,82.8200000000001,2|0,1:2|2:0,1:0:0:0:
347,41,377783,2,0,P|312:84|282:108,1,82.8200000000001,10|0,1:2|2:0,1:0:0:0:
48,222,377983,6,0,P|58:177|71:117,1,82.8200000000001,6|0,1:2|2:0,1:0:0:0:
19,12,378183,1,10,1:2:0:0:
163,187,378283,2,0,P|153:142|140:82,1,82.8200000000001,2|0,1:2|2:0,1:0:0:0:
260,253,378483,1,8,1:3:0:0:
65,141,378583,1,10,1:2:0:0:
259,28,378683,1,4,1:3:0:0:
123,254,378783,102,0,P|136:322|144:377,1,124.23,2|0,1:2|2:0,1:0:0:0:
175,384,378983,2,0,P|222:356|261:345,1,82.8200000000001,10|0,1:2|2:0,1:0:0:0:
287,140,379183,2,0,P|287:194|277:233,1,82.8200000000001,2|0,1:2|2:0,1:0:0:0:
421,360,379383,2,0,P|373:333|344:305,1,82.8200000000001,10|0,1:2|2:0,1:0:0:0:
208,71,379583,6,0,L|304:50,1,82.8200000000001,2|0,1:2|2:0,1:0:0:0:
416,209,379783,1,10,1:2:0:0:
191,52,379883,2,0,L|287:31,1,82.8200000000001,2|0,1:2|2:0,1:0:0:0:
133,153,380083,1,8,1:3:0:0:
382,49,380183,1,10,1:2:0:0:
107,164,380283,1,4,1:3:0:0:
390,317,380383,102,0,P|399:246|357:192,1,124.23,2|0,1:2|2:0,1:0:0:0:
346,179,380583,2,0,P|306:204|249:220,1,82.8200000000001,10|0,1:2|2:0,1:0:0:0:
157,48,380783,2,0,P|194:67|226:94,1,82.8200000000001,2|0,1:2|2:0,1:0:0:0:
129,268,380983,2,0,P|126:226|133:185,1,82.8200000000001,10|0,1:2|2:0,1:0:0:0:
275,318,381183,5,10,1:2:0:0:
31,222,381283,1,0,1:2:0:0:
257,118,381383,1,10,0:2:0:0:
70,360,381483,1,2,1:2:0:0:
343,188,381583,1,8,0:2:0:0:
129,268,381683,1,0,1:2:0:0:
399,367,381783,1,10,1:2:0:0:
154,279,381883,1,0,1:2:0:0:
402,119,381983,102,0,P|412:170|424:225,1,82.8200000000001,10|0,1:2|1:2,1:0:0:0:
275,32,382183,1,10,1:2:0:0:
509,130,382283,1,0,1:2:0:0:
281,248,382383,1,10,1:2:0:0:
423,34,382483,1,0,1:2:0:0:
347,316,382583,2,0,P|296:344|252:336,1,82.8200000000001,10|0,1:2|1:2,1:0:0:0:
60,124,382783,5,14,1:2:0:0:
281,248,382883,1,8,1:3:0:0:
37,364,382983,1,8,1:3:0:0:
213,125,383083,101,14,1:2:0:0:
268,384,383183,1,8,1:3:0:0:
42,262,383283,1,8,1:3:0:0:
341,93,383383,5,14,1:2:0:0:
190,292,383483,1,4,1:3:0:0:
112,56,383583,1,4,1:3:0:0:
371,220,383683,101,14,1:2:0:0:
70,288,383783,1,4,1:3:0:0:
213,125,383883,1,4,1:3:0:0:
343,356,383983,6,0,P|392:378|439:371,1,82.8200000000001,14|8,1:2|1:3,1:0:0:0:
485,156,384183,1,4,1:3:0:0:
444,163,384233,1,4,1:3:0:0:
403,171,384283,1,4,1:3:0:0:
363,179,384333,1,4,1:3:0:0:
322,187,384383,70,0,P|270:197|214:207,1,92.92,14|0,1:2|1:2,1:0:0:0:
39,332,384583,1,10,1:2:0:0:
128,89,384683,1,0,1:2:0:0:
260,309,384783,1,10,1:2:0:0:
24,209,384883,1,0,1:2:0:0:
249,94,384983,1,10,1:2:0:0:
43,199,385083,1,0,1:2:0:0:
331,384,385183,54,0,P|338:338|346:292,1,92.92,10|0,1:2|1:2,1:0:0:0:
383,81,385383,1,10,1:2:0:0:
211,194,385483,1,0,1:2:0:0:
465,108,385583,1,10,1:2:0:0:
195,216,385683,1,0,1:2:0:0:
434,314,385783,1,10,1:2:0:0:
284,106,385883,1,0,1:2:0:0:
229,371,385983,54,0,P|183:362|137:353,1,92.92,10|0,1:2|1:2,1:0:0:0:
75,127,386183,1,10,1:2:0:0:
214,258,386283,1,0,1:2:0:0:
77,48,386383,1,10,1:2:0:0:
28,291,386483,1,0,1:2:0:0:
284,106,386583,1,10,1:2:0:0:
68,200,386683,1,0,1:2:0:0:
338,334,386783,53,10,1:2:0:0:
164,81,386883,1,0,1:2:0:0:
109,370,386983,1,10,1:2:0:0:
344,142,387083,1,0,1:2:0:0:
95,281,387183,1,10,1:2:0:0:
369,151,387283,1,0,1:2:0:0:
72,269,387383,1,10,1:2:0:0:
368,341,387483,1,0,1:2:0:0:
164,81,387583,54,0,P|156:126|148:172,1,92.92,14|0,1:2|1:2,1:0:0:0:
228,332,387783,1,10,1:2:0:0:
53,155,387883,1,0,1:2:0:0:
287,236,387983,1,10,1:2:0:0:
86,69,388083,1,0,1:2:0:0:
219,260,388183,1,10,1:2:0:0:
284,33,388283,1,0,1:2:0:0:
123,251,388383,54,0,P|130:296|138:342,1,92.92,14|0,1:2|1:2,1:0:0:0:
256,157,388583,1,10,1:2:0:0:
44,302,388683,1,0,1:2:0:0:
330,178,388783,1,10,1:2:0:0:
62,107,388883,1,0,1:2:0:0:
365,241,388983,1,10,1:2:0:0:
104,160,389083,1,0,1:2:0:0:
392,27,389183,54,0,P|384:72|376:118,1,92.92,10|0,1:2|1:2,1:0:0:0:
463,307,389383,1,10,1:2:0:0:
241,196,389483,1,0,1:2:0:0:
466,81,389583,1,10,1:2:0:0:
227,217,389683,1,0,1:0:0:0:
492,149,389783,1,10,1:2:0:0:
220,300,389883,1,0,1:0:0:0:
324,57,389983,53,8,1:2:0:0:
361,83,390033,1,8,1:3:0:0:
380,125,390083,1,8,1:3:0:0:
377,171,390133,1,8,1:3:0:0:
352,209,390183,1,8,1:3:0:0:
314,234,390233,1,8,1:3:0:0:
268,238,390283,1,8,1:3:0:0:
225,220,390333,1,8,1:3:0:0:
196,183,390383,1,4,1:3:0:0:
168,148,390433,1,4,1:3:0:0:
126,129,390483,1,4,1:3:0:0:
80,133,390533,1,4,1:3:0:0:
41,158,390583,2,0,P|33:210|24:260,1,92.92,12|0,1:2|1:2,1:0:0:0:
283,140,390783,69,6,1:2:0:0:
202,384,390883,1,8,1:2:0:0:
293,114,390983,1,2,1:2:0:0:
406,373,391083,1,8,1:2:0:0:
145,257,391183,1,2,1:2:0:0:
410,152,391283,1,8,1:2:0:0:
170,245,391383,1,2,1:2:0:0:
406,373,391483,1,8,1:2:0:0:
188,110,391583,101,2,1:2:0:0:
96,384,391683,1,8,1:2:0:0:
330,220,391783,1,2,1:2:0:0:
59,182,391883,1,8,1:2:0:0:
352,237,391983,1,2,1:2:0:0:
40,158,392083,1,8,1:2:0:0:
303,381,392183,1,2,1:2:0:0:
188,110,392283,1,8,1:2:0:0:
96,384,392383,53,6,1:2:0:0:
380,228,392483,1,8,1:2:0:0:
59,182,392583,1,2,1:2:0:0:
432,290,392683,1,8,1:2:0:0:
109,234,392783,1,2,1:2:0:0:
437,102,392883,1,8,1:2:0:0:
134,165,392983,1,2,1:2:0:0:
424,35,393083,1,8,1:2:0:0:
273,308,393183,69,6,1:2:0:0:
119,65,393283,1,8,1:2:0:0:
400,245,393383,1,2,1:2:0:0:
243,0,393483,1,8,1:2:0:0:
113,278,393583,1,10,1:3:0:0:
143,312,393633,1,8,1:3:0:0:
185,330,393683,1,8,1:3:0:0:
231,328,393733,1,8,1:3:0:0:
272,307,393783,1,6,1:3:0:0:
312,285,393833,1,4,1:3:0:0:
358,283,393883,1,4,1:3:0:0:
401,301,393933,1,4,1:3:0:0:
431,336,393983,102,0,P|438:288|446:231,1,92.92,12|8,1:2|1:3,1:0:0:0:
328,17,394183,1,4,1:3:0:0:
332,39,394233,1,4,1:3:0:0:
336,62,394283,1,4,1:3:0:0:
341,85,394333,1,4,1:3:0:0:
345,108,394383,2,0,P|292:97|243:86,1,92.92,10|8,1:2|1:3,1:0:0:0:
67,242,394583,1,4,1:3:0:0:
89,237,394633,1,4,1:3:0:0:
112,232,394683,1,4,1:3:0:0:
135,227,394733,1,4,1:3:0:0:
157,222,394783,54,0,P|150:268|143:313,1,92.92,10|8,1:2|1:3,1:0:0:0:
303,150,394983,1,4,1:3:0:0:
303,150,395033,1,4,1:3:0:0:
303,150,395083,1,8,1:2:0:0:
120,53,395183,1,10,1:3:0:0:
255,287,395283,1,4,1:3:0:0:
255,287,395333,1,4,1:3:0:0:
255,287,395383,2,0,P|300:277|345:267,1,92.92,8|0,1:2|1:2,1:0:0:0:
50,142,395583,1,14,1:2:0:0:
53,138,396383,85,10,1:2:0:0:
311,31,396483,1,0,1:2:0:0:
74,129,396583,1,0,1:2:0:0:
305,257,396683,1,10,1:2:0:0:
187,37,396783,1,0,1:2:0:0:
91,268,396883,1,0,1:2:0:0:
350,103,396983,1,10,1:2:0:0:
182,157,397083,1,0,1:2:0:0:
377,334,397183,1,14,1:2:0:0:
377,334,397983,5,10,1:2:0:0:
432,71,398083,1,0,1:2:0:0:
384,308,398183,1,0,1:2:0:0:
257,97,398283,1,10,1:2:0:0:
494,188,398383,1,0,1:2:0:0:
245,318,398483,1,0,1:2:0:0:
421,106,398583,1,10,1:2:0:0:
477,378,398683,1,0,1:2:0:0:
267,135,398783,1,14,1:2:0:0:
248,155,399483,101,4,1:3:0:0:
248,155,399533,1,4,1:3:0:0:
248,155,399583,1,10,1:2:0:0:
506,258,399716,1,10,1:2:0:0:
29,156,399849,1,10,1:2:0:0:
425,6,399983,1,10,1:2:0:0:
123,81,400116,1,10,1:2:0:0:
401,236,400249,1,10,1:2:0:0:
0,350,400783,5,4,1:2:0:0:
369,281,400983,70,0,B|417:206|383:142|383:142|371:190|300:207|256:131|317:116|310:64|243:10|243:10|290:78|221:193|217:108|160:171|167:250|167:250|101:185|136:114|136:114|67:231|139:377|228:361|311:334,1,1222.1,6|0,1:2|2:0,1:0:0:0:
