osu file format v14

[General]
AudioFilename: audio.mp3
AudioLeadIn: 0
PreviewTime: 102330
Countdown: 0
SampleSet: Soft
StackLeniency: 0.7
Mode: 0
LetterboxInBreaks: 0
WidescreenStoryboard: 0

[Editor]
Bookmarks: 1630,13630,28830,34630,38430,41630,48030,60830,70430,76830,88030,89630,96030,101630,104030,116830,126430,129630,132830,142430,145630
DistanceSpacing: 1
BeatDivisor: 4
GridSize: 32
TimelineZoom: 3.05

[Metadata]
Title:Flamewall (Cut Ver.)
TitleUnicode:Flamewall (Cut Ver.)
Artist:Camellia
ArtistUnicode:かめりあ
Creator:Ashira-
Version:ETERNAL SACRED YURI
Source:
Tags:cametek speedcore electronic symphonic speed metal
BeatmapID:4538042
BeatmapSetID:2153667

[Difficulty]
HPDrainRate:3.5
CircleSize:4.1
OverallDifficulty:9.2
ApproachRate:10
SliderMultiplier:1.9
SliderTickRate:1

[Events]
//Background and Video events
0,0,"86576764_p0.jpg",0,0
//Break Periods
2,16230,16951
2,19430,20121
2,22630,23321
2,25830,26521
2,126630,128651
2,147430,148121
2,152230,152921
2,153830,154521
//Storyboard Layer 0 (Background)
//Storyboard Layer 1 (Fail)
//Storyboard Layer 2 (Pass)
//Storyboard Layer 3 (Foreground)
//Storyboard Layer 4 (Overlay)
//Storyboard Sound Samples

[TimingPoints]
1430,200,4,2,22,72,1,0
1430,-175.438596491228,4,2,22,72,0,0
1630,200,4,2,22,82,1,0
1630,-149.253731343284,4,2,22,82,0,0
12830,-100,4,2,22,82,0,0
13530,-192.307692307692,4,2,22,82,0,0
16030,-121.951219512195,4,2,22,82,0,0
28830,-108.695652173913,4,2,22,82,0,0
41630,-103.092783505155,4,2,22,82,0,0
46530,-103.092783505155,4,2,22,82,0,0
46580,-103.092783505155,4,2,22,82,0,0
48030,-108.695652173913,4,2,22,82,0,0
76830,-121.951219512195,4,2,22,82,0,0
88030,-108.695652173913,4,2,22,82,0,0
89630,-121.951219512195,4,2,22,82,0,0
96030,-108.695652173913,4,2,22,82,0,0
101630,-192.307692307692,4,2,22,82,0,0
102430,-149.253731343284,4,2,22,82,0,0
103230,-98.0392156862745,4,2,22,82,0,0
104030,-89.2857142857143,4,2,22,82,0,1
126430,-121.951219512195,4,2,22,82,0,0
132830,-108.695652173913,4,2,22,82,0,0
155230,230.769230769231,4,2,22,67,1,0
156153,272.727272727273,4,2,22,67,1,0
156698,400,4,2,22,67,1,0
157498,324.324324324324,4,2,22,67,1,0
157498,-217.391304347826,4,2,22,67,0,0
162687,-217.391304347826,4,2,22,5,0,0

[Colours]
Combo1 : 204,0,168
Combo2 : 253,0,0
Combo3 : 255,116,32
Combo4 : 255,241,64
Combo5 : 0,64,128
Combo6 : 0,179,179

[HitObjects]
44,202,1330,5,0,2:0:0:0:
44,202,1430,2,0,P|50:233|62:269,1,54.1499993389893,2|2,3:2|3:2,0:0:0:0:
134,384,1630,6,0,P|166:373|195:367,1,63.6499969892122,2|0,3:2|2:0,2:0:0:0:
316,303,1830,2,0,P|284:296|254:286,1,63.6499969892122,2|0,2:0|2:0,2:0:0:0:
120,371,2030,2,0,P|152:360|181:354,1,63.6499969892122,2|0,2:0|2:0,2:0:0:0:
329,292,2230,2,0,P|297:285|267:275,1,63.6499969892122,2|0,2:0|2:0,2:0:0:0:
189,109,2430,6,0,P|199:140|225:161,1,63.6499969892122,2|0,3:2|2:0,2:0:0:0:
377,164,2630,2,0,P|343:163|315:180,1,63.6499969892122,2|0,2:0|2:0,2:0:0:0:
192,89,2830,2,0,P|202:120|228:141,1,63.6499969892122,2|0,2:0|2:0,2:0:0:0:
392,149,3030,2,0,P|358:148|330:165,1,63.6499969892122,2|0,2:0|2:0,2:0:0:0:
163,248,3230,6,0,P|105:229|40:215,1,127.299993978424,2|0,3:2|2:0,2:0:0:0:
192,89,3530,2,0,P|249:70|314:56,1,127.299993978424,2|0,2:0|2:0,2:0:0:0:
499,143,3830,2,0,L|487:205,1,63.6499969892122,2|0,2:0|2:0,2:0:0:0:
458,225,4030,6,0,B|349:184|389:288|264:252,1,190.949990967637,2|0,3:2|2:0,2:0:0:0:
100,192,4430,2,0,P|63:274|125:339,1,190.949990967637,2|0,2:0|2:0,2:0:0:0:
100,192,4830,6,0,L|37:180,1,63.6499969892122,2|0,3:2|0:0,2:0:0:0:
215,99,5030,1,0,2:0:0:0:
215,99,5130,2,0,B|236:139|236:139|198:241,1,127.299993978424,2|0,2:0|2:0,2:0:0:0:
256,330,5430,1,2,2:0:0:0:
428,219,5530,5,2,2:0:0:0:
428,219,5630,2,0,P|437:281|449:344,1,127.299993978424,2|0,3:2|2:0,2:0:0:0:
355,110,5930,2,0,P|334:170|312:229,1,127.299993978424,2|0,2:0|2:0,2:0:0:0:
350,336,6230,1,2,2:0:0:0:
211,278,6330,1,2,2:0:0:0:
229,88,6430,6,0,P|235:119|245:149,1,63.6499969892122,2|0,3:2|2:0,2:0:0:0:
204,292,6630,1,0,3:2:0:0:
325,220,6730,1,0,3:2:0:0:
142,194,6830,2,0,P|112:205|81:210,1,63.6499969892122,2|0,3:2|2:0,2:0:0:0:
12,131,7030,1,0,3:2:0:0:
219,264,7130,1,0,3:2:0:0:
219,264,7230,6,0,P|335:288|396:185,1,254.599987956849,2|2,3:2|2:0,2:0:0:0:
464,84,7730,1,2,2:0:0:0:
292,187,7830,1,2,2:0:0:0:
337,58,7930,1,2,2:0:0:0:
427,221,8030,6,0,P|458:217|489:209,1,63.6499969892122,2|0,3:2|2:0,2:0:0:0:
374,307,8230,2,0,P|342:299|311:295,1,63.6499969892122,2|0,2:0|2:0,2:0:0:0:
437,202,8430,2,0,P|468:198|499:190,1,63.6499969892122,2|0,2:0|2:0,2:0:0:0:
363,314,8630,2,0,P|331:306|300:302,1,63.6499969892122,2|0,2:0|2:0,2:0:0:0:
106,198,8830,6,0,P|112:229|117:260,1,63.6499969892122,2|0,3:2|2:0,2:0:0:0:
184,384,9030,2,0,P|190:352|200:322,1,63.6499969892122,2|0,2:0|2:0,2:0:0:0:
93,184,9230,2,0,P|99:215|104:246,1,63.6499969892122,2|0,2:0|2:0,2:0:0:0:
171,370,9430,2,0,P|177:338|187:308,1,63.6499969892122,2|0,2:0|2:0,2:0:0:0:
311,163,9630,6,0,B|367:140|369:199|458:163,1,127.299993978424,2|0,3:2|2:0,2:0:0:0:
226,41,9930,2,0,B|218:60|208:82|208:82|226:116|226:116|217:135|211:157,1,127.299993978424,2|0,2:0|2:0,2:0:0:0:
302,326,10230,2,0,L|364:337,1,63.6499969892122,2|0,2:0|2:0,2:0:0:0:
395,356,10430,6,0,P|401:268|488:258,1,190.949990967637,2|0,3:2|2:0,2:0:0:0:
270,327,10830,2,0,B|164:293|191:401|80:356,1,190.949990967637,2|0,2:0|2:0,2:0:0:0:
9,230,11230,6,0,P|37:215|93:224,1,63.6499969892122,2|0,3:2|0:0,2:0:0:0:
207,84,11430,1,0,2:0:0:0:
207,84,11530,2,0,L|228:209,1,127.299993978424,2|0,2:0|2:0,2:0:0:0:
286,315,11830,1,2,2:0:0:0:
166,285,11930,1,2,2:0:0:0:
339,188,12030,6,0,B|409:164|395:235|484:197,1,127.299993978424,2|0,3:2|2:0,2:0:0:0:
351,49,12330,2,0,B|282:19|299:93|204:49,1,127.299993978424,2|0,2:0|2:0,2:0:0:0:
115,0,12630,1,2,2:0:0:0:
171,149,12730,2,0,L|182:211,1,63.6499969892122,2|0,2:0|0:0,0:0:0:0:
318,358,12930,6,0,P|332:312|350:268,1,95,8|8,2:0|2:0,2:0:0:0:
286,45,13130,1,0,1:2:0:0:
286,45,13180,1,0,1:2:0:0:
286,45,13230,1,8,2:0:0:0:
448,177,13330,1,8,0:2:0:0:
222,304,13430,5,0,1:2:0:0:
222,304,13480,1,0,1:2:0:0:
220,303,13530,2,0,B|139:290|73:370|73:370|54:341|54:341|69:335|69:335|105:238|33:166|33:166|141:148|164:74|164:74|164:92|164:92|200:151|269:142|269:142|250:211|178:209,1,839.799994874268,12|0,2:0|2:0,2:0:0:0:
312,264,15330,5,8,2:0:0:0:
245,50,15430,1,8,2:3:0:0:
406,176,15530,1,8,2:3:0:0:
326,3,15630,1,8,2:3:0:0:
404,270,15730,1,4,2:3:0:0:
211,169,15830,1,4,2:3:0:0:
487,224,15930,1,4,2:3:0:0:
220,303,16030,5,4,1:2:0:0:
371,36,17430,6,0,L|354:131,1,77.9000011886597,4|0,1:3|0:0,2:0:0:0:
220,303,17630,5,4,1:2:0:0:
49,42,18430,6,0,L|125:28,1,77.9000011886597,8|0,2:0|2:0,2:0:0:0:
270,152,18630,2,0,L|193:138,1,77.9000011886597,8|0,2:0|2:0,2:0:0:0:
357,0,18830,2,0,L|373:95,1,77.9000011886597,8|0,2:0|2:0,2:0:0:0:
417,270,19030,2,0,L|430:193,1,77.9000011886597,8|8,2:0|1:3,0:0:0:0:
220,303,19230,5,4,1:2:0:0:
0,134,20630,6,0,P|36:146|75:155,1,77.9000011886597,0|0,1:2|0:0,2:0:0:0:
220,303,20830,5,4,1:2:0:0:
220,303,21130,2,0,L|315:286,1,77.9000011886597,0|0,1:2|0:0,2:0:0:0:
439,109,21430,2,0,L|459:184,1,77.9000011886597,4|0,1:2|0:0,2:0:0:0:
286,42,21630,5,0,1:2:0:0:
399,245,21730,1,0,3:2:0:0:
204,212,21830,1,0,1:2:0:0:
327,156,21930,1,0,3:2:0:0:
125,95,22030,1,8,2:3:0:0:
295,241,22130,1,8,2:3:0:0:
89,178,22230,1,8,2:0:0:0:
363,79,22330,1,4,2:3:0:0:
220,303,22430,5,4,1:2:0:0:
109,62,23830,6,0,L|122:138,1,77.9000011886597,4|0,1:3|0:0,2:0:0:0:
220,303,24030,5,4,1:2:0:0:
492,194,24830,6,0,L|517:287,1,77.9000011886597,8|0,2:0|2:0,2:0:0:0:
399,131,25030,2,0,L|412:54,1,77.9000011886597,8|0,2:0|2:0,2:0:0:0:
283,198,25230,2,0,L|187:181,1,77.9000011886597,8|0,2:0|2:0,2:0:0:0:
62,54,25430,2,0,L|78:149,1,77.9000011886597,8|8,2:0|1:3,0:0:0:0:
220,303,25630,5,4,1:2:0:0:
368,215,27030,5,0,1:2:0:0:
220,303,27230,5,4,1:2:0:0:
234,149,27630,1,4,1:2:0:0:
93,53,28030,1,4,1:2:0:0:
313,213,28430,5,8,2:0:0:0:
343,41,28530,1,8,2:0:0:0:
210,170,28630,1,8,2:0:0:0:
420,94,28730,1,8,2:0:0:0:
234,261,28830,6,0,L|249:347,1,87.3999970660401,6|0,1:2|2:0,1:0:0:0:
124,253,29030,1,10,1:2:0:0:
234,84,29130,2,0,L|147:68,1,87.3999970660401,2|0,1:2|2:0,1:0:0:0:
53,154,29330,1,8,1:3:0:0:
234,261,29430,2,0,L|345:241,1,87.3999970660401,10|4,1:2|1:3,0:0:0:0:
405,67,29630,6,0,P|381:103|379:146,1,87.3999970660401,2|0,1:2|0:0,1:0:0:0:
441,316,29830,2,0,P|464:279|466:236,1,87.3999970660401,10|0,1:2|2:0,1:0:0:0:
386,63,30030,2,0,P|362:99|360:142,1,87.3999970660401,2|0,1:2|2:0,1:0:0:0:
465,319,30230,2,0,P|488:282|490:239,1,87.3999970660401,10|0,1:2|2:0,1:0:0:0:
326,105,30430,6,0,P|284:117|241:127,1,87.3999970660401,2|0,1:2|2:0,1:0:0:0:
136,81,30630,1,10,1:2:0:0:
72,282,30730,2,0,L|56:195,1,87.3999970660401,2|0,1:2|2:0,1:0:0:0:
0,369,30930,1,8,1:3:0:0:
170,292,31030,2,0,P|214:304|256:307,1,87.3999970660401,10|4,1:2|1:3,0:0:0:0:
431,380,31230,6,0,P|432:333|415:295,1,87.3999970660401,2|0,1:2|0:0,1:0:0:0:
250,182,31430,2,0,P|291:206|331:211,1,87.3999970660401,10|0,1:2|2:0,1:0:0:0:
512,125,31630,2,0,P|469:148|445:180,1,87.3999970660401,2|0,1:2|2:0,1:0:0:0:
334,296,31830,1,10,1:2:0:0:
457,210,31930,1,0,2:0:0:0:
261,71,32030,6,0,B|221:51|221:51|138:79,1,131.09999559906,2|0,1:2|0:0,1:0:0:0:
116,88,32230,1,10,1:2:0:0:
239,264,32330,2,0,P|241:220|218:181,1,87.3999970660401,2|0,1:2|2:0,1:0:0:0:
155,320,32530,1,8,1:3:0:0:
27,166,32630,2,0,P|68:179|111:188,1,87.3999970660401,10|4,1:2|1:3,0:0:0:0:
324,339,32830,6,0,B|340:306|340:306|332:256,1,87.3999970660401,2|0,1:2|0:0,1:0:0:0:
228,100,33030,2,0,B|211:132|211:132|219:182,1,87.3999970660401,10|0,1:2|2:0,1:0:0:0:
367,276,33230,2,0,P|408:262|451:253,1,87.3999970660401,2|0,1:2|2:0,1:0:0:0:
512,85,33430,2,0,P|469:75|427:62,1,87.3999970660401,10|0,1:2|2:0,1:0:0:0:
249,194,33630,6,0,P|291:182|334:178,1,87.3999970660401,2|8,1:2|1:3,0:0:0:0:
142,74,33830,1,10,1:2:0:0:
42,245,33930,2,0,L|26:158,1,87.3999970660401,14|0,1:3|1:2,0:0:0:0:
0,53,34130,1,10,1:3:0:0:
116,169,34230,1,10,1:2:0:0:
79,0,34330,1,6,1:3:0:0:
269,67,34430,6,0,P|278:109|291:151,1,87.3999970660401,2|0,1:2|0:0,1:0:0:0:
406,289,34630,2,0,P|415:246|428:204,1,87.3999970660401,10|0,1:2|2:0,1:0:0:0:
286,327,34830,2,0,P|243:331|200:308,1,87.3999970660401,2|0,1:2|2:0,1:0:0:0:
50,219,35030,2,0,P|86:196|130:197,1,87.3999970660401,10|0,1:2|2:0,1:0:0:0:
323,151,35230,6,0,P|333:87|295:34,1,131.09999559906,6|0,1:2|0:0,1:0:0:0:
269,25,35430,1,10,1:2:0:0:
427,170,35530,2,0,P|469:158|512:154,1,87.3999970660401,2|0,1:2|2:0,1:0:0:0:
369,272,35730,1,8,1:3:0:0:
229,194,35830,1,10,1:2:0:0:
310,347,35930,1,4,1:3:0:0:
323,138,36030,6,0,L|338:51,1,87.3999970660401,2|0,1:2|0:0,1:0:0:0:
157,0,36230,2,0,L|172:86,1,87.3999970660401,10|0,1:2|2:0,1:0:0:0:
338,129,36430,2,0,L|353:42,1,87.3999970660401,2|0,1:2|2:0,1:0:0:0:
145,17,36630,2,0,L|160:103,1,87.3999970660401,10|0,1:2|2:0,1:0:0:0:
82,267,36830,6,0,B|48:277|48:277|0:257,1,87.3999970660401,2|0,1:2|2:0,1:0:0:0:
145,199,37030,1,10,1:2:0:0:
246,346,37130,2,0,B|279:356|279:356|328:336,1,87.3999970660401,2|0,1:2|2:0,1:0:0:0:
413,238,37330,1,8,1:3:0:0:
266,259,37430,1,10,1:2:0:0:
429,334,37530,1,4,1:3:0:0:
365,135,37630,6,0,P|369:100|413:60,1,87.3999970660401,2|0,1:2|0:0,1:0:0:0:
239,122,37830,2,0,P|206:135|149:117,1,87.3999970660401,10|0,1:2|2:0,1:0:0:0:
290,237,38030,2,0,P|317:258|330:316,1,87.3999970660401,2|0,1:2|2:0,1:0:0:0:
157,123,38230,2,0,P|152:79|141:37,1,87.3999970660401,10|0,1:2|2:0,1:0:0:0:
33,222,38430,5,14,2:0:0:0:
33,222,38480,1,0,0:0:0:0:
33,222,38530,1,0,1:2:0:0:
205,331,38630,2,0,P|163:323|121:309,1,87.3999970660401,10|2,2:0|1:2,0:0:0:0:
299,207,38830,1,8,2:0:0:0:
282,381,38930,1,0,1:2:0:0:
195,185,39030,1,10,2:0:0:0:
352,307,39130,1,0,1:2:0:0:
255,105,39230,6,0,L|143:85,1,87.3999970660401,10|0,2:0|1:2,2:0:0:0:
386,221,39430,2,0,L|495:191,1,87.3999970660401,10|0,2:0|1:2,0:0:0:0:
282,182,39630,1,10,2:0:0:0:
445,333,39730,1,0,1:2:0:0:
364,132,39830,1,10,2:0:0:0:
282,381,39930,1,0,1:2:0:0:
168,174,40030,6,0,L|190:258,1,87.3999970660401,10|0,2:0|1:2,2:0:0:0:
141,384,40230,1,10,2:0:0:0:
283,285,40330,1,2,1:2:0:0:
85,246,40430,2,0,L|0:223,1,87.3999970660401,8|0,2:0|1:2,0:0:0:0:
148,53,40630,2,0,L|232:30,1,87.3999970660401,10|0,2:0|1:2,0:0:0:0:
470,95,40830,5,10,2:0:0:0:
466,98,40880,1,8,2:0:0:0:
462,101,40930,2,0,L|416:93,3,43.6999985330201,8|8|2|0,2:0|2:0|1:2|1:2,0:0:0:0:
275,153,41130,5,8,2:0:0:0:
275,153,41180,1,8,2:0:0:0:
275,153,41230,2,0,L|320:145,3,43.6999985330201,10|8|0|0,2:0|2:0|1:2|1:2,0:0:0:0:
466,217,41430,5,10,2:0:0:0:
474,259,41480,1,8,2:0:0:0:
458,299,41530,1,8,2:0:0:0:
424,325,41580,1,8,2:0:0:0:
381,329,41630,6,0,L|290:312,1,92.1500021794511,14|0,1:2|1:2,1:0:0:0:
153,163,41830,1,10,1:2:0:0:
369,225,41930,1,0,1:2:0:0:
152,330,42030,1,10,1:2:0:0:
341,133,42130,1,0,1:2:0:0:
103,250,42230,1,10,1:2:0:0:
319,353,42330,1,0,1:2:0:0:
244,104,42430,6,0,L|265:228,1,92.1500021794511,10|0,1:2|1:2,1:0:0:0:
365,0,42630,1,10,1:2:0:0:
151,63,42730,1,0,1:2:0:0:
359,108,42830,1,10,1:2:0:0:
166,168,42930,1,0,1:2:0:0:
434,63,43030,1,10,1:2:0:0:
209,0,43130,1,0,1:2:0:0:
340,220,43230,6,0,L|430:203,1,92.1500021794511,10|0,1:2|1:2,1:0:0:0:
249,321,43430,1,10,1:2:0:0:
332,126,43530,1,0,1:2:0:0:
122,336,43630,2,0,P|112:290|98:247,1,92.1500021794511,10|0,1:2|1:2,0:0:0:0:
3,89,43830,1,10,1:2:0:0:
179,189,43930,1,0,1:2:0:0:
270,0,44030,6,0,L|286:90,1,92.1500021794511,10|0,1:2|1:2,0:0:0:0:
429,232,44230,1,10,1:2:0:0:
387,34,44330,1,0,1:2:0:0:
335,268,44430,1,10,1:2:0:0:
466,107,44530,1,0,1:2:0:0:
245,186,44630,2,0,L|154:169,1,92.1500021794511,10|0,1:2|1:2,0:0:0:0:
40,23,44830,6,0,L|129:0,1,92.1500021794511,14|0,1:2|1:2,1:0:0:0:
322,85,45030,1,10,1:2:0:0:
136,198,45130,1,0,1:2:0:0:
266,0,45230,1,10,1:2:0:0:
367,214,45330,1,0,1:2:0:0:
119,93,45430,1,10,1:2:0:0:
408,119,45530,1,0,1:2:0:0:
186,287,45630,5,10,1:2:0:0:
456,232,45730,1,0,1:2:0:0:
136,198,45830,1,10,1:2:0:0:
386,344,45930,1,0,1:2:0:0:
270,92,46030,5,10,1:2:0:0:
267,118,46080,1,8,1:2:0:0:
266,145,46130,1,8,1:3:0:0:
266,172,46180,1,8,1:3:0:0:
268,199,46230,1,4,1:3:0:0:
272,225,46280,1,4,1:3:0:0:
277,252,46330,1,4,1:3:0:0:
283,278,46380,1,4,1:3:0:0:
291,303,46430,5,10,1:2:0:0:
66,108,47230,6,0,L|85:219,1,92.1500021794511,10|8,1:2|1:3,1:0:0:0:
180,341,47430,1,8,1:3:0:0:
217,42,47530,2,0,L|197:153,1,92.1500021794511,10|4,1:2|1:3,1:0:0:0:
264,294,47730,1,4,1:3:0:0:
418,144,47830,2,0,L|306:124,1,92.1500021794511,10|4,1:2|1:3,0:0:0:0:
180,341,48030,6,0,P|262:331|352:311,2,174.79999413208,6|8|0,1:2|2:0|1:2,2:0:0:0:
59,272,48530,2,0,P|53:228|44:185,1,87.3999970660401,0|10,1:2|2:0,0:0:0:0:
174,72,48730,1,10,1:3:0:0:
321,221,48830,6,0,P|381:161|364:79,1,174.79999413208,2|8,2:0|2:0,2:0:0:0:
488,172,49130,1,4,1:3:0:0:
298,135,49230,2,0,P|256:147|213:158,1,87.3999970660401,0|0,0:0|1:2,0:0:0:0:
120,238,49430,2,0,P|162:249|205:254,1,87.3999970660401,8|0,2:0|2:0,2:0:0:0:
289,346,49630,5,4,1:3:0:0:
397,193,49730,1,0,0:0:0:0:
397,193,49830,2,0,L|419:108,1,87.3999970660401,10|0,2:0|2:0,2:0:0:0:
287,17,50030,2,0,L|302:103,1,87.3999970660401,2|0,1:2|1:2,2:0:0:0:
190,241,50230,2,0,L|174:155,1,87.3999970660401,10|0,2:0|1:2,2:0:0:0:
11,102,50430,6,0,P|44:78|97:86,1,87.3999970660401,2|0,2:0|1:2,2:0:0:0:
253,168,50630,2,0,P|210:175|173:154,1,87.3999970660401,10|0,2:0|0:0,2:0:0:0:
0,87,50830,2,0,P|33:63|86:71,1,87.3999970660401,2|0,2:0|1:2,2:0:0:0:
260,187,51030,2,0,P|217:194|180:173,1,87.3999970660401,10|0,2:0|2:0,2:0:0:0:
389,45,51230,6,0,L|419:217,1,174.79999413208,2|8,1:2|2:0,2:0:0:0:
251,329,51530,2,0,B|223:326|190:318|190:318|153:353|153:353|116:340|91:344,1,174.79999413208,2|0,2:0|1:2,0:0:0:0:
0,250,51830,1,8,2:0:0:0:
123,89,51930,6,0,L|107:175,1,87.3999970660401,8|0,1:3|0:0,2:0:0:0:
49,10,52130,1,0,1:2:0:0:
226,106,52230,2,0,L|322:88,1,87.3999970660401,8|4,2:0|1:3,0:0:0:0:
437,31,52430,1,0,0:0:0:0:
295,0,52530,1,0,1:2:0:0:
427,169,52630,2,0,L|523:151,1,87.3999970660401,8|0,2:0|2:0,2:0:0:0:
352,331,52830,6,0,L|326:236,1,87.3999970660401,0|0,1:2|0:0,2:0:0:0:
226,106,53030,2,0,L|200:200,1,87.3999970660401,8|0,2:0|2:0,2:0:0:0:
100,317,53230,1,0,1:2:0:0:
76,134,53330,1,0,1:2:0:0:
76,134,53430,2,0,P|69:90|61:47,1,87.3999970660401,8|8,2:0|1:3,0:0:0:0:
203,190,53630,6,0,L|289:174,1,87.3999970660401,0|0,0:0|1:2,0:0:0:0:
403,80,53830,2,0,L|318:57,1,87.3999970660401,8|4,2:0|1:3,0:0:0:0:
396,185,54030,1,0,0:0:0:0:
239,92,54130,1,0,1:2:0:0:
327,271,54230,1,10,2:0:0:0:
96,160,54330,5,0,0:0:0:0:
96,160,54380,1,0,0:0:0:0:
96,160,54430,2,0,P|165:209|170:299,2,174.79999413208,6|8|0,1:2|2:0|1:2,2:0:0:0:
0,70,54930,1,0,1:2:0:0:
59,274,55030,1,10,2:0:0:0:
261,146,55230,6,0,B|180:116|177:203|91:157,1,174.79999413208,2|8,2:0|2:0,2:0:0:0:
173,293,55530,2,0,L|269:275,1,87.3999970660401,4|0,1:3|0:0,2:0:0:0:
354,183,55730,1,0,1:2:0:0:
448,359,55830,2,0,L|432:272,1,87.3999970660401,8|0,2:0|2:0,2:0:0:0:
506,163,56030,5,4,1:3:0:0:
300,117,56130,1,0,0:0:0:0:
300,116,56230,2,0,P|312:157|322:200,1,87.3999970660401,10|0,2:0|2:0,2:0:0:0:
202,32,56430,2,0,P|159:22|117:9,1,87.3999970660401,2|0,1:2|1:2,2:0:0:0:
0,156,56630,2,0,P|42:146|84:133,1,87.3999970660401,10|0,2:0|1:2,2:0:0:0:
181,294,56830,6,0,P|189:251|174:211,1,87.3999970660401,2|0,1:2|1:2,2:0:0:0:
84,133,57030,2,0,P|66:172|73:214,1,87.3999970660401,10|0,2:0|0:0,2:0:0:0:
181,294,57230,2,0,P|222:284|265:271,1,87.3999970660401,2|0,2:0|1:2,2:0:0:0:
401,384,57430,2,0,P|359:371|316:361,1,87.3999970660401,10|0,2:0|0:0,2:0:0:0:
350,178,57630,6,0,B|465:160|402:248|540:210,1,174.79999413208,2|8,1:2|2:0,2:0:0:0:
290,91,57930,2,0,P|240:159|266:243,1,174.79999413208,2|0,2:0|1:2,2:0:0:0:
392,289,58230,1,8,2:0:0:0:
481,96,58430,6,0,L|457:180,1,87.3999970660401,0|0,1:0|1:2,0:0:0:0:
290,91,58630,2,0,L|205:67,1,87.3999970660401,8|4,2:0|1:3,0:0:0:0:
87,0,58830,1,0,0:0:0:0:
135,166,58930,1,0,1:2:0:0:
0,77,59030,1,10,2:0:0:0:
87,278,59130,5,2,2:0:0:0:
87,278,59180,1,0,0:0:0:0:
87,278,59230,2,0,P|170:290|233:234,1,174.79999413208,2|8,1:2|2:0,2:0:0:0:
211,102,59530,1,0,0:0:0:0:
363,212,59630,2,0,P|404:197|447:189,1,87.3999970660401,0|0,1:2|1:2,0:0:0:0:
301,324,59830,2,0,P|258:315|216:302,1,87.3999970660401,8|8,2:0|1:3,2:0:0:0:
64,194,60030,6,0,P|80:234|86:277,1,87.3999970660401,0|0,1:2|1:2,0:0:0:0:
180,135,60230,2,0,P|186:91|202:51,1,87.3999970660401,8|4,2:0|1:3,0:0:0:0:
316,0,60430,1,0,0:0:0:0:
315,143,60530,1,0,1:2:0:0:
314,142,60630,2,0,P|355:156|398:164,1,87.3999970660401,10|0,2:0|0:0,0:0:0:0:
180,135,60830,6,0,B|156:181|156:181|179:256,1,131.09999559906,6|0,1:2|2:0,2:0:0:0:
172,292,61030,2,0,P|129:282|86:276,1,87.3999970660401,8|0,2:0|2:0,2:0:0:0:
0,190,61230,1,0,1:2:0:0:
127,194,61330,1,0,1:2:0:0:
3,87,61430,1,10,2:0:0:0:
86,276,61530,1,10,1:3:0:0:
212,123,61630,6,0,P|169:51|86:52,1,174.79999413208,2|8,2:0|2:0,2:0:0:0:
213,218,61930,2,0,P|255:207|298:201,1,87.3999970660401,4|0,1:3|0:0,2:0:0:0:
404,129,62130,1,0,1:2:0:0:
490,302,62230,2,0,P|498:259|512:217,1,87.3999970660401,8|0,2:0|2:0,0:0:0:0:
376,356,62430,5,4,1:3:0:0:
230,305,62530,1,0,0:0:0:0:
230,305,62630,2,0,P|228:348|250:384,1,87.3999970660401,10|0,2:0|0:0,2:0:0:0:
120,256,62830,2,0,P|83:232|40:234,1,87.3999970660401,2|0,1:2|1:2,2:0:0:0:
217,185,63030,2,0,P|255:165|275:127,1,87.3999970660401,10|0,2:0|1:2,2:0:0:0:
414,22,63230,6,0,L|498:0,1,87.3999970660401,2|0,2:0|1:2,0:0:0:0:
359,149,63430,2,0,P|316:139|274:126,1,87.3999970660401,10|0,2:0|1:0,2:0:0:0:
428,33,63630,2,0,L|512:10,1,87.3999970660401,2|0,2:0|0:0,2:0:0:0:
370,166,63830,2,0,P|327:156|285:143,1,87.3999970660401,10|0,2:0|2:0,2:0:0:0:
93,2,64030,6,0,P|141:89|89:169,1,174.79999413208,2|8,1:2|2:0,2:0:0:0:
0,293,64330,2,0,B|109:278|38:367|194:348,1,174.79999413208,2|0,2:0|1:2,0:0:0:0:
272,384,64630,1,8,2:0:0:0:
380,225,64730,6,0,L|395:311,1,87.3999970660401,8|0,1:3|0:0,2:0:0:0:
424,133,64930,1,0,1:2:0:0:
284,226,65030,2,0,L|199:203,1,87.3999970660401,8|4,2:0|1:3,0:0:0:0:
102,128,65230,1,2,2:0:0:0:
134,261,65330,1,0,0:0:0:0:
257,127,65430,2,0,L|272:40,1,87.3999970660401,10|0,2:0|2:0,2:0:0:0:
379,225,65630,6,0,P|423:218|466:210,1,87.3999970660401,2|0,1:2|0:0,2:0:0:0:
348,347,65830,2,0,P|306:333|263:324,1,87.3999970660401,8|2,2:0|2:0,0:0:0:0:
146,265,66030,1,0,0:0:0:0:
196,384,66130,1,0,1:2:0:0:
35,306,66230,2,0,P|29:263|52:226,1,87.3999970660401,10|8,2:0|1:3,2:0:0:0:
221,172,66430,6,0,P|264:162|307:156,1,87.3999970660401,2|0,2:0|1:2,0:0:0:0:
193,52,66630,2,0,P|151:42|109:29,1,87.3999970660401,10|4,2:0|1:3,0:0:0:0:
236,184,66830,2,0,P|278:174|321:168,1,87.3999970660401,2|0,2:0|0:0,2:0:0:0:
184,38,67030,2,0,P|141:28|99:15,1,87.3999970660401,8|0,2:0|2:0,2:0:0:0:
124,221,67230,6,0,P|141:282|198:310,1,131.09999559906,6|0,1:2|0:0,2:0:0:0:
229,299,67430,2,0,P|233:342|244:384,1,87.3999970660401,8|0,2:0|0:0,2:0:0:0:
357,251,67630,1,0,1:2:0:0:
230,187,67730,1,0,1:2:0:0:
332,340,67830,1,10,2:0:0:0:
457,168,67930,5,10,1:3:0:0:
457,168,67980,1,0,0:0:0:0:
457,168,68030,2,0,P|401:103|317:103,1,174.79999413208,2|8,2:0|2:0,2:0:0:0:
195,201,68330,2,0,P|152:192|110:178,1,87.3999970660401,0|0,0:0|2:0,0:0:0:0:
0,108,68530,1,0,1:2:0:0:
49,238,68630,1,10,2:0:0:0:
144,84,68730,5,2,2:0:0:0:
144,84,68780,1,0,0:0:0:0:
144,83,68830,2,0,P|186:75|228:60,1,87.3999970660401,6|0,1:3|0:0,2:0:0:0:
341,0,69030,1,8,2:0:0:0:
353,208,69130,2,0,P|322:289|303:375,1,174.79999413208,2|0,2:0|1:2,2:0:0:0:
421,287,69430,1,10,2:0:0:0:
220,300,69530,5,2,1:2:0:0:
220,300,69580,1,0,0:0:0:0:
220,300,69630,2,0,B|125:275|140:372|20:333,1,174.79999413208,2|8,2:0|2:0,2:0:0:0:
0,158,69930,2,0,B|94:133|79:230|199:191,1,174.79999413208,2|0,1:2|1:2,2:0:0:0:
251,97,70230,2,0,P|208:87|166:74,1,87.3999970660401,10|0,2:0|2:0,2:0:0:0:
352,0,70430,6,0,L|367:86,1,87.3999970660401,14|0,3:2|2:0,3:0:0:0:
357,209,70630,1,0,3:2:0:0:
470,147,70730,1,0,3:2:0:0:
317,317,70830,2,0,L|232:294,1,87.3999970660401,8|0,3:2|2:0,3:0:0:0:
115,246,71030,1,0,3:2:0:0:
183,377,71130,1,0,3:2:0:0:
225,121,71230,6,0,L|202:205,1,87.3999970660401,8|0,3:2|2:0,3:0:0:0:
127,58,71430,1,0,3:2:0:0:
271,31,71530,1,0,3:2:0:0:
115,165,71630,2,0,L|31:141,1,87.3999970660401,8|0,3:2|2:0,3:0:0:0:
123,264,71830,1,2,3:2:0:0:
332,192,71930,5,2,3:2:0:0:
332,192,71980,1,0,3:2:0:0:
331,191,72030,2,0,L|345:277,1,87.3999970660401,8|0,3:2|3:2,3:0:0:0:
405,377,72230,1,0,3:2:0:0:
268,329,72330,1,0,3:2:0:0:
442,211,72430,2,0,L|457:124,1,87.3999970660401,8|0,3:2|3:2,3:0:0:0:
368,34,72630,1,0,3:2:0:0:
512,1,72730,1,0,3:2:0:0:
347,138,72830,6,0,L|260:122,1,87.3999970660401,8|0,3:2|3:2,3:0:0:0:
90,17,73030,2,0,L|176:1,1,87.3999970660401,0|0,3:2|3:2,0:0:0:0:
367,38,73230,1,8,3:2:0:0:
160,141,73330,1,0,0:0:0:0:
377,125,73430,1,0,0:0:0:0:
176,1,73530,1,0,0:0:0:0:
244,215,73630,6,0,L|218:356,1,131.09999559906,14|0,3:2|0:0,3:0:0:0:
216,371,73830,1,0,3:2:0:0:
334,263,73930,1,0,3:2:0:0:
124,327,74030,2,0,P|81:317|39:304,1,87.3999970660401,8|0,3:2|2:0,3:0:0:0:
0,182,74230,1,0,3:2:0:0:
128,239,74330,1,0,3:2:0:0:
30,56,74430,6,0,L|115:40,1,87.3999970660401,8|0,3:2|2:0,3:0:0:0:
244,0,74630,1,0,3:2:0:0:
193,126,74730,1,0,3:2:0:0:
378,28,74830,2,0,L|400:112,1,87.3999970660401,8|0,3:2|2:0,3:0:0:0:
494,199,75030,1,2,3:2:0:0:
299,273,75130,5,2,3:2:0:0:
299,273,75180,1,0,3:2:0:0:
299,273,75230,2,0,L|207:256,1,87.3999970660401,8|0,3:2|3:2,3:0:0:0:
395,234,75430,1,0,3:2:0:0:
303,363,75530,1,0,3:2:0:0:
197,171,75630,2,0,L|212:257,1,87.3999970660401,8|0,3:2|3:2,3:0:0:0:
97,141,75830,1,0,3:2:0:0:
240,70,75930,1,0,3:2:0:0:
118,258,76030,5,8,3:2:0:0:
147,53,76130,1,8,3:2:0:0:
37,214,76230,1,8,3:0:0:0:
52,36,76330,1,8,3:0:0:0:
236,210,76430,2,0,L|320:187,1,87.3999970660401,8|0,3:2|0:0,0:0:0:0:
417,127,76630,1,4,3:0:0:0:
372,270,76730,1,4,3:0:0:0:
254,91,76830,6,0,P|203:67|112:111,1,155.800002377319,0|2,1:2|1:2,2:0:0:0:
0,64,77130,1,2,2:0:0:0:
78,231,77230,2,0,P|137:225|194:213,1,116.85000178299,10|0,2:0|0:0,2:0:0:0:
222,205,77430,1,0,2:0:0:0:
320,299,77530,1,2,2:0:0:0:
431,163,77630,6,0,P|392:144|354:155,1,77.9000011886597,2|0,2:0|2:0,2:0:0:0:
222,205,77830,2,0,P|260:223|298:212,1,77.9000011886597,10|0,1:3|1:2,0:0:0:0:
443,158,78030,2,0,P|404:139|366:150,1,77.9000011886597,10|0,2:0|1:2,2:0:0:0:
207,209,78230,2,0,P|245:227|283:216,1,77.9000011886597,2|0,1:2|2:0,2:0:0:0:
128,124,78430,6,0,P|91:195|128:296,1,155.800002377319,2|0,1:2|1:2,2:0:0:0:
207,209,78730,1,2,2:0:0:0:
346,356,78830,2,0,P|284:286|271:378,1,233.700003565979,10|0,2:0|2:0,2:0:0:0:
423,252,79230,6,0,L|498:238,1,77.9000011886597,0|0,2:0|2:0,2:0:0:0:
414,141,79430,2,0,L|338:127,1,77.9000011886597,8|0,1:3|1:2,0:0:0:0:
220,72,79630,1,8,2:0:0:0:
220,72,79730,1,0,1:2:0:0:
193,218,79830,1,4,1:3:0:0:
193,218,79930,1,0,1:2:0:0:
11,148,80030,6,0,P|45:215|25:289,1,155.800002377319,0|2,1:2|2:0,2:0:0:0:
137,365,80330,1,2,2:0:0:0:
279,262,80430,2,0,B|324:243|324:243|396:269,1,116.85000178299,10|0,2:0|0:0,2:0:0:0:
416,285,80630,1,0,2:0:0:0:
294,363,80730,1,2,2:0:0:0:
176,251,80830,6,0,L|189:175,1,77.9000011886597,2|0,2:0|0:0,2:0:0:0:
82,50,81030,2,0,L|95:125,1,77.9000011886597,10|0,1:3|1:2,0:0:0:0:
176,251,81230,2,0,P|207:256|248:237,1,77.9000011886597,10|0,2:0|1:2,0:0:0:0:
369,125,81430,2,0,P|330:120|297:138,1,77.9000011886597,2|0,1:2|2:0,2:0:0:0:
464,207,81630,6,0,P|500:141|480:67,1,155.800002377319,2|0,1:2|1:2,2:0:0:0:
361,0,81930,1,2,2:0:0:0:
263,140,82030,2,0,B|183:107|159:170|130:234|56:203,1,233.700003565979,10|0,2:0|2:0,2:0:0:0:
125,309,82430,6,0,L|144:383,1,77.9000011886597,0|0,2:0|2:0,2:0:0:0:
265,313,82630,2,0,L|284:238,1,77.9000011886597,8|0,1:3|1:2,0:0:0:0:
379,148,82830,1,8,2:0:0:0:
379,148,82930,1,0,1:2:0:0:
240,103,83030,1,4,1:3:0:0:
240,103,83130,1,0,1:2:0:0:
382,243,83230,6,0,P|449:209|468:135,1,155.800002377319,0|2,1:2|1:2,2:0:0:0:
512,273,83530,1,2,2:0:0:0:
397,384,83630,2,0,P|340:371|284:353,1,116.85000178299,10|0,2:0|0:0,2:0:0:0:
258,340,83830,1,0,2:0:0:0:
201,198,83930,5,2,2:0:0:0:
201,198,83980,1,0,0:0:0:0:
201,198,84030,2,0,P|167:179|125:184,1,77.9000011886597,2|0,2:0|0:0,2:0:0:0:
1,269,84230,2,0,P|39:272|73:254,1,77.9000011886597,10|0,1:3|1:2,0:0:0:0:
201,198,84430,2,0,L|220:123,1,77.9000011886597,10|0,2:0|1:2,0:0:0:0:
85,21,84630,2,0,L|98:96,1,77.9000011886597,2|0,1:2|2:0,2:0:0:0:
225,225,84830,6,0,B|305:206|296:280|397:225,1,155.800002377319,2|0,1:2|1:2,2:0:0:0:
473,160,85130,1,2,2:0:0:0:
300,44,85230,2,0,P|375:98|367:5,1,233.700003565979,10|0,2:0|2:0,2:0:0:0:
245,149,85630,6,0,L|225:223,1,77.9000011886597,0|0,2:0|2:0,2:0:0:0:
236,339,85830,1,8,1:3:0:0:
236,339,85930,1,0,1:2:0:0:
96,251,86030,1,8,2:0:0:0:
96,251,86130,1,0,1:2:0:0:
151,384,86230,1,4,1:3:0:0:
311,281,86330,5,0,1:2:0:0:
311,281,86380,1,0,0:0:0:0:
311,281,86430,2,0,B|340:282|367:272|367:272|395:303|395:303|422:293|450:296,1,155.800002377319,2|0,1:2|0:0,2:0:0:0:
512,201,86730,1,0,2:0:0:0:
392,84,86830,2,0,P|395:122|405:160,1,77.9000011886597,8|0,2:0|2:0,2:0:0:0:
293,35,87030,1,2,2:0:0:0:
174,158,87130,5,2,2:0:0:0:
174,158,87230,2,0,P|118:138|61:127,1,116.85000178299,2|0,2:0|0:0,2:0:0:0:
34,124,87430,1,8,1:3:0:0:
203,19,87530,1,0,1:2:0:0:
269,205,87630,1,8,2:0:0:0:
79,226,87730,1,0,1:2:0:0:
79,226,87780,1,0,1:2:0:0:
79,226,87830,1,0,1:2:0:0:
279,90,87930,1,0,1:2:0:0:
378,277,88030,6,0,L|393:362,1,87.3999970660401,8|0,2:0|2:0,2:0:0:0:
437,191,88230,1,0,1:2:0:0:
293,297,88330,1,0,1:2:0:0:
187,115,88430,2,0,L|171:200,1,87.3999970660401,8|0,2:0|2:0,2:0:0:0:
173,301,88630,1,0,1:2:0:0:
79,226,88730,1,0,1:2:0:0:
279,124,88830,6,0,L|364:108,1,87.3999970660401,8|0,2:0|2:0,2:0:0:0:
471,133,89030,1,0,1:2:0:0:
414,32,89130,1,0,1:2:0:0:
291,230,89230,2,0,L|206:207,1,87.3999970660401,8|8,2:0|2:0,0:0:0:0:
112,248,89430,1,8,2:3:0:0:
88,138,89530,1,4,2:3:0:0:
191,303,89630,6,0,P|227:346|284:351,1,116.85000178299,0|0,1:2|0:0,2:0:0:0:
314,339,89831,1,2,1:2:0:0:
398,250,89930,1,2,2:0:0:0:
278,124,90030,2,0,L|291:199,1,77.9000011886597,2|0,2:0|0:0,2:0:0:0:
347,61,90230,1,0,2:0:0:0:
189,168,90330,5,2,2:0:0:0:
189,168,90430,2,0,L|114:147,1,77.9000011886597,10|0,2:0|2:0,2:0:0:0:
0,70,90630,2,0,L|74:49,1,77.9000011886597,10|0,1:3|1:2,0:0:0:0:
197,180,90830,2,0,L|122:159,1,77.9000011886597,2|0,2:0|1:2,0:0:0:0:
9,56,91030,2,0,L|83:35,1,77.9000011886597,2|0,1:2|2:0,2:0:0:0:
263,107,91230,6,0,P|296:175|243:262,1,155.800002377319,2|0,1:2|1:2,2:0:0:0:
158,373,91530,1,2,2:0:0:0:
158,373,91630,2,0,P|177:290|90:346,1,233.700003565979,2|0,2:0|2:0,2:0:0:0:
20,227,92030,6,0,P|7:189|0:151,1,77.9000011886597,8|0,2:0|0:0,2:0:0:0:
115,53,92230,2,0,L|95:127,1,77.9000011886597,8|0,1:3|1:2,0:0:0:0:
175,190,92430,1,0,2:0:0:0:
175,190,92530,1,0,1:2:0:0:
268,104,92630,1,4,1:3:0:0:
268,104,92730,1,0,1:2:0:0:
390,236,92830,6,0,P|408:160|430:85,1,155.800002377319,0|2,1:2|1:2,0:0:0:0:
512,221,93130,1,2,2:0:0:0:
403,348,93230,2,0,P|349:324|290:316,1,116.85000178299,2|0,2:0|0:0,2:0:0:0:
262,318,93430,1,0,2:0:0:0:
154,378,93530,1,2,2:0:0:0:
37,247,93630,6,0,L|50:322,1,77.9000011886597,10|0,2:0|0:0,2:0:0:0:
170,252,93830,2,0,L|189:177,1,77.9000011886597,10|0,1:3|1:2,2:0:0:0:
22,239,94030,2,0,L|35:314,1,77.9000011886597,2|0,2:0|1:2,2:0:0:0:
177,264,94230,2,0,L|196:189,1,77.9000011886597,2|0,1:2|0:0,2:0:0:0:
55,82,94430,6,0,P|124:41|196:63,1,155.800002377319,2|0,1:2|1:2,2:0:0:0:
291,159,94730,1,2,2:0:0:0:
448,70,94830,2,0,B|382:126|427:176|471:231|410:283,1,233.700003565979,2|0,2:0|2:0,2:0:0:0:
323,359,95230,6,0,L|303:284,1,77.9000011886597,8|0,2:0|0:0,2:0:0:0:
207,189,95430,2,0,L|187:263,1,77.9000011886597,0|0,1:2|1:2,0:0:0:0:
98,335,95630,1,2,2:0:0:0:
98,335,95730,1,0,1:2:0:0:
37,238,95830,1,0,1:2:0:0:
37,238,95930,1,0,1:2:0:0:
302,283,96030,5,14,2:0:0:0:
121,161,96130,1,10,2:0:0:0:
397,189,96230,1,10,2:0:0:0:
231,338,96530,5,10,2:0:0:0:
283,56,96630,1,10,2:0:0:0:
380,332,96730,1,10,2:0:0:0:
177,131,96930,5,8,2:0:0:0:
177,131,96980,1,8,2:0:0:0:
177,131,97030,1,8,2:0:0:0:
449,189,97130,1,8,2:3:0:0:
172,249,97230,1,8,2:3:0:0:
372,94,97330,1,4,2:3:0:0:
260,327,97430,1,4,2:3:0:0:
259,57,97530,1,4,2:3:0:0:
421,283,97630,5,14,2:0:0:0:
149,227,97730,1,10,2:0:0:0:
454,101,97830,1,10,2:0:0:0:
182,50,98130,5,10,2:0:0:0:
238,354,98230,1,10,2:0:0:0:
346,112,98330,1,10,2:0:0:0:
127,305,98530,5,0,1:2:0:0:
127,305,98580,1,0,1:2:0:0:
127,305,98630,1,12,2:0:0:0:
52,103,98730,1,8,2:0:0:0:
27,311,98830,1,0,1:2:0:0:
133,130,98930,1,8,2:0:0:0:
210,274,99030,1,8,2:0:0:0:
272,35,99130,1,0,1:2:0:0:
67,194,99230,5,14,2:0:0:0:
375,222,99330,1,10,2:0:0:0:
118,44,99430,1,10,2:0:0:0:
189,300,99730,5,10,2:0:0:0:
283,64,99830,1,10,2:0:0:0:
341,340,99930,1,10,2:0:0:0:
143,142,100130,5,0,1:2:0:0:
386,80,100230,1,8,2:3:0:0:
386,80,100280,1,8,2:0:0:0:
386,80,100330,1,8,2:3:0:0:
240,274,100430,2,0,P|197:269|155:259,1,87.3999970660401,0|8,1:2|2:3,0:0:0:0:
43,94,100630,1,14,2:0:0:0:
91,327,100730,1,10,2:0:0:0:
337,145,100830,5,10,2:0:0:0:
39,227,100963,1,10,2:0:0:0:
341,340,101096,1,10,2:0:0:0:
154,112,101363,5,10,2:0:0:0:
256,384,101496,1,10,2:0:0:0:
425,148,101630,2,0,B|314:103|282:185|238:284|117:235,1,345.799997889404,14|0,2:0|1:2,2:0:0:0:
19,170,102430,6,0,B|-1:133|4:91|49:51|49:51|87:98|85:138|53:182|53:182|17:232|39:303|100:326|100:326|103:326,1,445.549978924485,2|0,3:2|0:0,0:0:0:0:
346,318,103230,5,8,2:0:0:0:
176,108,103330,1,8,2:0:0:0:
255,384,103430,1,8,2:0:0:0:
403,148,103530,1,8,2:0:0:0:
117,235,103630,1,8,2:0:0:0:
320,64,103730,1,8,2:0:0:0:
73,144,103830,1,8,2:0:0:0:
352,254,103930,1,8,2:0:0:0:
155,75,104030,6,0,B|184:114|184:114|152:220,1,159.600001948242,6|0,1:2|2:0,1:0:0:0:
138,251,104230,2,0,P|189:238|242:232,1,106.400001298828,10|0,1:2|1:2,1:0:0:0:
483,148,104430,1,2,1:2:0:0:
349,91,104530,1,0,1:2:0:0:
458,323,104630,2,0,P|441:272|430:220,1,106.400001298828,10|0,1:2|1:2,1:0:0:0:
260,77,104830,6,0,P|216:48|164:52,1,106.400001298828,2|0,1:2|0:0,1:0:0:0:
0,199,105030,2,0,P|52:202|95:174,1,106.400001298828,10|0,1:2|1:2,1:0:0:0:
282,280,105230,2,0,L|300:384,1,106.400001298828,2|0,1:2|1:2,0:0:0:0:
430,220,105430,2,0,L|457:117,1,106.400001298828,10|0,1:2|1:2,0:0:0:0:
253,177,105630,6,0,B|141:138|164:256|58:220,1,212.800002597656,2|8,1:2|1:2,1:0:0:0:
290,87,105930,2,0,P|349:168|305:259,1,212.800002597656,2|0,1:2|1:2,1:0:0:0:
129,307,106230,1,10,1:2:0:0:
277,353,106330,1,0,1:2:0:0:
159,151,106430,6,0,P|105:123|53:138,1,106.400001298828,2|0,1:2|0:0,1:0:0:0:
222,282,106630,1,8,1:2:0:0:
368,106,106730,1,0,1:2:0:0:
368,106,106830,2,0,P|388:210|404:315,1,212.800002597656,2|8,1:2|1:2,1:0:0:0:
512,252,107130,1,0,1:2:0:0:
283,203,107230,6,0,P|205:185|126:175,1,159.600001948242,6|0,1:2|2:0,1:0:0:0:
108,146,107430,2,0,P|160:139|212:127,1,106.400001298828,10|2,1:2|1:2,0:0:0:0:
355,19,107630,1,0,0:0:0:0:
202,219,107730,1,0,1:2:0:0:
379,117,107830,1,10,1:2:0:0:
168,45,107930,1,2,1:2:0:0:
314,217,108030,6,0,P|365:203|418:196,1,106.400001298828,2|0,1:2|0:0,1:0:0:0:
512,97,108230,1,10,1:2:0:0:
374,319,108330,2,0,P|272:329|208:250,1,212.800002597656,2|0,1:2|1:2,1:0:0:0:
269,88,108630,1,10,1:2:0:0:
121,208,108730,1,2,1:2:0:0:
41,0,108830,6,0,P|46:52|57:104,1,106.400001298828,2|0,1:2|1:2,1:0:0:0:
0,253,109030,1,8,1:2:0:0:
166,115,109130,1,0,1:2:0:0:
311,299,109230,5,10,1:2:0:0:
342,314,109280,1,8,1:2:0:0:
377,318,109330,1,8,1:2:0:0:
410,308,109380,1,8,1:2:0:0:
439,288,109430,1,8,1:3:0:0:
458,258,109480,1,8,1:3:0:0:
464,223,109530,1,4,1:3:0:0:
458,189,109580,1,4,1:3:0:0:
440,158,109630,6,0,P|380:108|303:119,1,159.600001948242,14|0,1:2|0:0,1:0:0:0:
275,139,109830,1,0,1:2:0:0:
133,289,109930,1,0,1:2:0:0:
133,289,109980,1,0,1:2:0:0:
133,289,110030,1,10,1:2:0:0:
355,196,110130,1,10,1:2:0:0:
148,92,110230,1,10,1:2:0:0:
265,248,110330,1,10,1:2:0:0:
79,29,110430,6,0,B|44:77|44:77|67:175,1,159.600001948242,6|0,1:2|2:0,1:0:0:0:
80,206,110630,2,0,P|131:193|184:186,1,106.400001298828,10|0,1:2|1:2,1:0:0:0:
358,77,110830,1,2,1:2:0:0:
148,92,110930,1,0,1:2:0:0:
340,228,111030,2,0,P|390:210|442:200,1,106.400001298828,10|0,1:2|1:2,0:0:0:0:
243,73,111230,6,0,P|190:68|138:54,1,106.400001298828,2|0,1:2|0:0,1:0:0:0:
0,222,111430,2,0,P|51:207|104:203,1,106.400001298828,10|0,1:2|1:2,1:0:0:0:
274,315,111630,1,2,1:2:0:0:
104,288,111730,1,0,1:2:0:0:
303,189,111830,1,10,1:2:0:0:
175,359,111930,1,0,1:2:0:0:
177,137,112030,6,0,P|169:84|158:32,1,106.400001298828,2|0,1:2|1:2,1:0:0:0:
104,203,112230,1,8,1:2:0:0:
274,315,112330,2,0,P|397:281|411:170,1,212.800002597656,2|0,1:2|1:2,1:0:0:0:
344,65,112630,1,10,1:2:0:0:
501,131,112730,1,0,1:2:0:0:
316,222,112830,6,0,B|204:194|226:308|123:272,1,212.800002597656,2|8,1:2|1:2,1:0:0:0:
0,106,113130,2,0,P|21:210|37:315,1,212.800002597656,0|0,1:2|1:0,0:0:0:0:
207,384,113430,2,0,P|215:331|229:280,1,106.400001298828,8|0,1:2|1:2,0:0:0:0:
327,69,113630,6,0,L|308:173,1,106.400001298828,6|0,1:2|0:0,1:0:0:0:
356,298,113830,1,10,1:2:0:0:
485,110,113930,2,0,L|440:206,1,106.400001298828,2|0,1:2|0:0,1:0:0:0:
469,336,114130,1,0,1:2:0:0:
306,384,114230,1,10,1:2:0:0:
512,261,114330,1,2,1:2:0:0:
262,272,114430,6,0,L|157:253,1,106.400001298828,2|0,1:2|1:0,1:0:0:0:
32,307,114630,1,10,1:2:0:0:
186,102,114730,2,0,L|83:129,1,106.400001298828,2|0,1:2|1:0,1:0:0:0:
0,209,114930,1,0,1:2:0:0:
59,37,115030,1,10,1:2:0:0:
157,253,115130,1,2,1:2:0:0:
309,18,115330,5,10,1:2:0:0:
83,129,115430,1,10,1:2:0:0:
378,181,115530,1,0,1:2:0:0:
378,181,115580,1,0,1:2:0:0:
378,181,115630,1,10,1:2:0:0:
149,26,115730,1,10,1:2:0:0:
253,269,115830,1,0,1:2:0:0:
253,269,115880,1,0,1:2:0:0:
253,269,115930,2,0,P|259:321|271:373,1,106.400001298828,10|2,1:2|1:2,0:0:0:0:
35,206,116130,5,8,1:2:0:0:
35,206,116180,1,8,1:2:0:0:
35,206,116230,1,8,1:2:0:0:
241,91,116330,1,8,1:3:0:0:
80,317,116430,1,8,1:3:0:0:
138,53,116530,1,4,1:3:0:0:
225,286,116630,1,4,1:3:0:0:
38,102,116730,1,4,1:3:0:0:
285,164,116830,6,0,B|175:120|139:204|99:286|0:241,1,319.200003896484,14|0,3:2|2:0,3:0:0:0:
147,83,117230,1,8,3:2:0:0:
238,271,117330,1,2,3:2:0:0:
48,159,117430,1,2,3:2:0:0:
170,355,117530,1,2,3:2:0:0:
303,132,117630,6,0,P|403:112|475:192,1,212.800002597656,10|0,3:2|3:2,3:0:0:0:
334,335,117930,2,0,L|361:232,1,106.400001298828,0|8,3:2|3:2,0:0:0:0:
414,384,118130,1,2,3:2:0:0:
234,308,118230,1,0,3:2:0:0:
458,210,118330,1,0,3:2:0:0:
234,308,118430,6,0,B|122:280|144:394|41:358,1,212.800002597656,10|0,3:2|3:2,3:0:0:0:
0,241,118730,1,0,3:2:0:0:
211,128,118830,2,0,P|107:105|5:73,1,212.800002597656,10|0,3:2|3:2,3:0:0:0:
129,220,119130,1,0,3:2:0:0:
241,39,119230,6,0,P|293:30|345:20,1,106.400001298828,8|0,3:2|3:2,3:0:0:0:
494,126,119430,1,2,3:2:0:0:
287,123,119530,1,2,3:2:0:0:
509,29,119630,1,10,3:2:0:0:
384,228,119730,1,2,3:2:0:0:
427,62,119830,1,2,3:2:0:0:
490,237,119930,1,2,3:2:0:0:
224,299,120030,6,0,P|288:213|401:245,1,212.800002597656,14|0,3:2|3:2,3:0:0:0:
142,384,120330,2,0,P|132:331|116:281,1,106.400001298828,0|8,3:2|3:2,0:0:0:0:
5,142,120530,1,2,3:2:0:0:
167,203,120630,1,2,3:2:0:0:
5,284,120730,1,2,3:2:0:0:
153,89,120830,6,0,B|221:56|221:56|350:101,1,212.800002597656,10|0,3:2|3:2,3:0:0:0:
496,65,121130,1,0,3:2:0:0:
428,288,121230,2,0,P|415:237|400:186,1,106.400001298828,8|2,3:2|3:2,0:0:0:0:
370,361,121430,1,2,3:2:0:0:
512,245,121530,1,2,3:2:0:0:
312,265,121630,5,10,3:2:0:0:
312,265,121680,1,0,0:0:0:0:
312,265,121730,2,0,L|193:244,1,106.400001298828,8|8,3:0|3:0,0:0:0:0:
0,59,121930,2,0,P|24:106|44:155,1,106.400001298828,14|4,3:2|3:0,0:0:0:0:
121,255,122130,1,4,3:0:0:0:
126,4,122230,2,0,P|133:56|144:108,1,106.400001298828,14|4,3:2|3:0,0:0:0:0:
232,215,122430,1,4,3:0:0:0:
344,0,122530,2,0,P|322:48|306:99,1,106.400001298828,14|0,3:2|3:2,0:0:0:0:
397,224,122730,5,0,3:2:0:0:
227,135,122830,1,8,3:2:0:0:
440,142,122930,1,8,3:0:0:0:
236,264,123030,1,4,3:0:0:0:
486,213,123130,1,4,3:0:0:0:
281,357,123230,6,0,B|232:377|232:377|139:325,1,159.600001948242,14|0,1:2|0:0,1:0:0:0:
113,302,123430,2,0,P|107:249|94:197,1,106.400001298828,8|0,1:2|1:2,1:0:0:0:
172,20,123630,1,8,1:2:0:0:
11,115,123730,1,2,1:2:0:0:
253,120,123830,1,10,1:2:0:0:
45,34,123930,1,2,1:2:0:0:
211,239,124030,6,0,P|288:221|367:209,1,159.600001948242,10|0,1:2|0:0,1:0:0:0:
512,108,124230,1,8,1:2:0:0:
332,103,124330,1,0,1:2:0:0:
498,197,124430,1,8,1:2:0:0:
361,22,124530,1,2,1:2:0:0:
445,271,124630,1,10,1:2:0:0:
279,36,124730,1,2,1:2:0:0:
255,263,124830,6,0,P|247:315|237:367,1,106.400001298828,10|0,1:2|1:2,1:0:0:0:
367,209,125030,1,8,1:2:0:0:
154,281,125130,1,0,1:2:0:0:
261,65,125230,1,10,1:2:0:0:
261,65,125280,1,0,0:0:0:0:
261,65,125330,2,0,P|156:86|51:101,1,212.800002597656,0|0,1:2|1:2,0:0:0:0:
267,172,125630,6,0,P|315:193|366:208,1,106.400001298828,10|0,1:2|1:2,1:0:0:0:
202,109,125830,1,8,1:2:0:0:
153,251,125930,1,0,1:2:0:0:
27,77,126030,2,0,P|10:127|0:179,1,106.400001298828,10|0,1:2|1:2,1:0:0:0:
54,326,126230,1,8,1:2:0:0:
134,156,126330,1,0,1:2:0:0:
353,323,126430,5,6,1:2:0:0:
133,72,129130,6,0,L|184:63,2,38.9500005943298,0|0|8,1:2|1:2|2:0,2:0:0:0:
274,146,129280,2,0,L|223:133,2,38.9500005943298
136,186,129430,5,8,2:3:0:0:
123,222,129480,1,0,0:0:0:0:
125,261,129530,1,0,0:0:0:0:
142,295,129580,1,0,0:0:0:0:
171,321,129630,5,10,2:0:0:0:
455,244,129730,1,10,2:0:0:0:
236,136,129830,1,10,2:0:0:0:
368,360,130030,5,10,2:0:0:0:
344,74,130130,1,10,2:0:0:0:
252,304,130230,1,10,2:0:0:0:
430,128,130330,1,10,2:0:0:0:
124,104,130530,5,10,2:0:0:0:
372,197,130630,1,10,2:0:0:0:
94,276,130730,1,10,2:0:0:0:
198,76,130930,5,10,2:0:0:0:
252,304,131030,1,10,2:0:0:0:
270,119,131130,1,10,2:0:0:0:
148,316,131230,1,10,2:0:0:0:
268,35,131330,1,10,2:0:0:0:
88,222,131430,1,10,2:0:0:0:
372,197,131630,5,10,2:0:0:0:
133,72,131730,1,10,2:0:0:0:
313,350,131830,1,10,2:0:0:0:
429,42,131930,5,4,1:2:0:0:
215,327,132830,6,0,B|177:302|177:302|87:323,1,131.09999559906,6|0,1:2|0:0,1:0:0:0:
68,340,133030,1,10,1:2:0:0:
85,146,133130,2,0,L|100:232,1,87.3999970660401,2|0,1:2|2:0,1:0:0:0:
0,90,133330,1,8,1:3:0:0:
190,175,133430,2,0,P|232:165|274:152,1,87.3999970660401,10|4,1:2|1:3,0:0:0:0:
453,65,133630,6,0,P|487:94|495:139,1,87.3999970660401,2|0,1:2|0:0,1:0:0:0:
442,302,133830,2,0,P|425:262|436:220,1,87.3999970660401,10|0,1:2|2:0,1:0:0:0:
456,52,134030,2,0,P|490:81|498:126,1,87.3999970660401,2|0,1:2|2:0,1:0:0:0:
425,313,134230,2,0,P|408:273|419:231,1,87.3999970660401,10|0,1:2|2:0,1:0:0:0:
456,52,134430,6,0,P|414:50|369:36,1,87.3999970660401,2|0,1:2|2:0,1:0:0:0:
239,0,134630,1,10,1:2:0:0:
136,171,134730,2,0,P|133:127|121:85,1,87.3999970660401,2|0,1:2|2:0,1:0:0:0:
60,250,134930,1,8,1:3:0:0:
234,145,135030,2,0,P|275:131|319:130,1,87.3999970660401,10|4,1:2|1:3,0:0:0:0:
483,209,135230,6,0,L|467:295,1,87.3999970660401,2|0,1:2|0:0,1:0:0:0:
322,384,135430,2,0,L|306:297,1,87.3999970660401,10|0,1:2|2:0,1:0:0:0:
202,153,135630,2,0,P|159:134|114:145,1,87.3999970660401,2|0,1:2|2:0,1:0:0:0:
0,235,135830,2,0,P|42:242|81:224,1,87.3999970660401,10|0,1:2|2:0,1:0:0:0:
222,55,136030,6,0,P|287:69|351:77,1,131.09999559906,2|0,1:2|0:0,1:0:0:0:
383,70,136230,1,10,1:2:0:0:
257,220,136330,2,0,L|343:204,1,87.3999970660401,2|0,1:2|2:0,1:0:0:0:
193,297,136530,1,8,1:3:0:0:
66,137,136630,2,0,L|85:248,1,87.3999970660401,10|4,1:2|1:3,0:0:0:0:
206,382,136830,6,0,P|248:367|272:304,1,87.3999970660401,2|0,1:2|0:0,1:0:0:0:
246,139,137030,2,0,P|237:183|279:235,1,87.3999970660401,10|0,1:2|2:0,1:0:0:0:
436,295,137230,2,0,P|402:265|335:276,1,87.3999970660401,2|0,1:2|2:0,1:0:0:0:
193,297,137430,1,10,1:2:0:0:
328,157,137530,1,0,2:0:0:0:
119,246,137630,6,0,P|76:237|34:223,1,87.3999970660401,2|8,1:2|1:3,0:0:0:0:
0,99,137830,1,10,1:2:0:0:
166,0,137930,2,0,P|178:41|186:84,1,87.3999970660401,14|0,1:3|1:2,0:0:0:0:
256,219,138130,1,10,1:3:0:0:
347,73,138230,1,10,1:2:0:0:
175,174,138330,1,6,1:3:0:0:
345,292,138430,6,0,B|379:305|379:305|432:285,1,87.3999970660401,2|0,1:2|0:0,1:0:0:0:
512,172,138630,2,0,B|477:158|477:158|424:178,1,87.3999970660401,10|0,1:2|2:0,1:0:0:0:
345,292,138830,2,0,P|332:333|322:376,1,87.3999970660401,2|0,1:2|2:0,1:0:0:0:
165,319,139030,2,0,P|159:275|149:233,1,87.3999970660401,10|0,1:2|2:0,1:0:0:0:
145,37,139230,6,0,B|101:15|101:15|23:41,1,131.09999559906,6|0,1:2|0:0,1:0:0:0:
0,66,139430,1,10,1:2:0:0:
213,144,139530,2,0,P|256:138|298:128,1,87.3999970660401,2|0,1:2|2:0,1:0:0:0:
394,50,139730,1,8,1:3:0:0:
456,244,139830,2,0,P|465:201|478:159,1,87.3999970660401,10|4,1:2|1:3,0:0:0:0:
345,292,140030,6,0,L|260:269,1,87.3999970660401,2|0,1:2|0:0,1:0:0:0:
116,384,140230,2,0,L|200:361,1,87.3999970660401,10|0,1:2|2:0,1:0:0:0:
358,282,140430,2,0,L|273:259,1,87.3999970660401,2|0,1:2|2:0,1:0:0:0:
102,376,140630,2,0,L|186:353,1,87.3999970660401,10|0,1:2|2:0,1:0:0:0:
22,254,140830,6,0,L|0:169,1,87.3999970660401,2|0,1:2|2:0,1:0:0:0:
84,66,141030,1,10,1:2:0:0:
240,170,141130,2,0,P|284:171|320:147,1,87.3999970660401,2|0,1:2|2:0,1:0:0:0:
432,42,141330,1,8,1:3:0:0:
397,187,141430,1,10,1:2:0:0:
256,88,141530,1,4,1:3:0:0:
321,282,141630,6,0,L|336:368,1,87.3999970660401,2|0,1:2|0:0,1:0:0:0:
136,271,141830,2,0,L|158:186,1,87.3999970660401,10|0,1:2|2:0,1:0:0:0:
80,53,142030,2,0,P|42:31|0:35,1,87.3999970660401,2|0,1:2|2:0,1:0:0:0:
159,187,142230,2,0,P|201:191|239:170,1,87.3999970660401,10|0,1:2|2:0,1:0:0:0:
384,23,142430,5,14,1:2:0:0:
384,23,142480,1,0,0:0:0:0:
384,23,142530,1,0,1:2:0:0:
512,177,142630,2,0,P|468:171|426:161,1,87.3999970660401,10|2,1:2|1:2,0:0:0:0:
288,83,142830,1,8,1:2:0:0:
374,249,142930,1,0,1:2:0:0:
185,111,143030,1,10,1:2:0:0:
283,304,143130,1,0,1:2:0:0:
115,185,143230,6,0,P|72:175|30:162,1,87.3999970660401,10|0,1:2|1:2,1:0:0:0:
101,352,143430,2,0,L|186:336,1,87.3999970660401,10|0,1:2|1:2,0:0:0:0:
355,212,143630,1,10,1:2:0:0:
268,384,143730,1,0,1:2:0:0:
209,217,143830,1,10,1:2:0:0:
384,384,143930,1,0,1:2:0:0:
457,170,144030,6,0,P|469:211|479:254,1,87.3999970660401,10|0,1:2|1:2,1:0:0:0:
363,114,144230,1,10,1:2:0:0:
512,65,144330,1,2,1:2:0:0:
355,212,144430,2,0,L|268:196,1,87.3999970660401,8|0,1:2|1:2,0:0:0:0:
146,131,144630,1,10,1:2:0:0:
226,285,144730,1,0,1:2:0:0:
309,104,144830,5,10,1:2:0:0:
313,107,144880,1,8,1:2:0:0:
317,110,144930,2,0,L|363:102,3,43.6999985330201,8|8|8|8,1:3|1:3|1:3|1:3,0:0:0:0:
475,178,145130,5,8,1:3:0:0:
475,178,145180,1,8,1:3:0:0:
475,178,145230,2,0,L|430:170,3,43.6999985330201,4|4|4|4,1:3|1:3|1:3|1:3,0:0:0:0:
331,208,145430,5,12,1:2:0:0:
314,248,145480,1,0,0:0:0:0:
321,290,145530,1,0,0:0:0:0:
349,323,145580,1,0,0:0:0:0:
390,336,145630,5,6,1:2:0:0:
112,216,147030,5,4,1:2:0:0:
360,102,147230,1,6,1:2:0:0:
302,198,148630,5,4,1:2:0:0:
54,84,148830,1,6,1:2:0:0:
185,268,149630,5,10,2:0:0:0:
233,125,149730,1,4,2:3:0:0:
331,280,149830,1,4,2:3:0:0:
342,84,149930,1,4,2:3:0:0:
433,323,150030,1,10,2:0:0:0:
414,140,150130,1,4,2:3:0:0:
355,370,150230,1,4,2:3:0:0:
486,197,150330,1,4,2:3:0:0:
185,268,150430,5,6,1:2:0:0:
342,84,151130,5,0,1:2:0:0:
342,84,151180,1,0,1:2:0:0:
342,84,151230,1,10,2:3:0:0:
378,201,151363,1,8,2:3:0:0:
246,127,151496,1,4,2:3:0:0:
270,285,151630,1,4,2:3:0:0:
135,131,151763,1,4,2:3:0:0:
167,342,151896,1,4,2:3:0:0:
33,90,152030,5,6,1:2:0:0:
359,102,153430,5,4,1:2:0:0:
165,311,153630,1,6,1:2:0:0:
50,169,155030,5,4,1:2:0:0:
364,254,155230,1,6,1:2:0:0:
107,315,156153,5,2,1:2:0:0:
352,41,156698,5,10,2:0:0:0:
352,41,156764,1,0,0:0:0:0:
352,41,156831,1,0,0:0:0:0:
324,346,157498,6,0,B|290:173|457:122|457:122|414:139|380:117|380:117|373:164|268:147|263:32|263:32|197:101|261:199|261:199|164:267|73:194|73:194|117:247|108:317|108:317|211:253|178:83|70:50|70:50,1,1398.39995305664,6|0,1:2|0:0,0:0:0:0:
